  0
SECTION
  2
HEADER
  9
$ACADVER
  1
AC1014
  9
$ACADMAINTVER
 70
     0
  9
$DWGCODEPAGE
  3
ANSI_1252
  9
$INSBASE
 10
0.0
 20
0.0
 30
0.0
  9
$EXTMIN
 10
53.809018
 20
49.645442
 30
0.0
  9
$EXTMAX
 10
155.176104
 20
323.945666
 30
0.0
  9
$LIMMIN
 10
0.0
 20
0.0
  9
$LIMMAX
 10
297.0
 20
210.0
  9
$ORTHOMODE
 70
     0
  9
$REGENMODE
 70
     1
  9
$FILLMODE
 70
     1
  9
$QTEXTMODE
 70
     0
  9
$MIRRTEXT
 70
     1
  9
$DRAGMODE
 70
     2
  9
$LTSCALE
 40
1.0
  9
$OSMODE
 70
     0
  9
$ATTMODE
 70
     1
  9
$TEXTSIZE
 40
3.5
  9
$TRACEWID
 40
0.05
  9
$TEXTSTYLE
  7
ROMANS
  9
$CLAYER
  8
0
  9
$CELTYPE
  6
BYLAYER
  9
$CECOLOR
 62
   256
  9
$CELTSCALE
 40
1.0
  9
$DELOBJ
 70
     1
  9
$DISPSILH
 70
     0
  9
$DIMSCALE
 40
1.0
  9
$DIMASZ
 40
3.0
  9
$DIMEXO
 40
0.0625
  9
$DIMDLI
 40
0.38
  9
$DIMRND
 40
0.01
  9
$DIMDLE
 40
0.0
  9
$DIMEXE
 40
0.18
  9
$DIMTP
 40
0.0
  9
$DIMTM
 40
0.0
  9
$DIMTXT
 40
2.5
  9
$DIMCEN
 40
0.09
  9
$DIMTSZ
 40
0.0
  9
$DIMTOL
 70
     0
  9
$DIMLIM
 70
     0
  9
$DIMTIH
 70
     0
  9
$DIMTOH
 70
     0
  9
$DIMSE1
 70
     0
  9
$DIMSE2
 70
     0
  9
$DIMTAD
 70
     1
  9
$DIMZIN
 70
    12
  9
$DIMBLK
  1

  9
$DIMASO
 70
     1
  9
$DIMSHO
 70
     1
  9
$DIMPOST
  1

  9
$DIMAPOST
  1

  9
$DIMALT
 70
     0
  9
$DIMALTD
 70
     2
  9
$DIMALTF
 40
25.4
  9
$DIMLFAC
 40
1.0
  9
$DIMTOFL
 70
     1
  9
$DIMTVP
 40
0.0
  9
$DIMTIX
 70
     0
  9
$DIMSOXD
 70
     0
  9
$DIMSAH
 70
     0
  9
$DIMBLK1
  1

  9
$DIMBLK2
  1

  9
$DIMSTYLE
  2
SC_STAND
  9
$DIMCLRD
 70
     0
  9
$DIMCLRE
 70
     0
  9
$DIMCLRT
 70
     0
  9
$DIMTFAC
 40
1.0
  9
$DIMGAP
 40
1.0
  9
$DIMJUST
 70
     0
  9
$DIMSD1
 70
     0
  9
$DIMSD2
 70
     0
  9
$DIMTOLJ
 70
     1
  9
$DIMTZIN
 70
    12
  9
$DIMALTZ
 70
    12
  9
$DIMALTTZ
 70
    12
  9
$DIMFIT
 70
     5
  9
$DIMUPT
 70
     0
  9
$DIMUNIT
 70
     2
  9
$DIMDEC
 70
     4
  9
$DIMTDEC
 70
     4
  9
$DIMALTU
 70
     2
  9
$DIMALTTD
 70
     2
  9
$DIMTXSTY
  7
ROMANS
  9
$DIMAUNIT
 70
     0
  9
$LUNITS
 70
     2
  9
$LUPREC
 70
     4
  9
$SKETCHINC
 40
0.1
  9
$FILLETRAD
 40
10.0
  9
$AUNITS
 70
     0
  9
$AUPREC
 70
     0
  9
$MENU
  1
acad
  9
$ELEVATION
 40
0.0
  9
$PELEVATION
 40
0.0
  9
$THICKNESS
 40
0.0
  9
$LIMCHECK
 70
     0
  9
$BLIPMODE
 70
     1
  9
$CHAMFERA
 40
10.0
  9
$CHAMFERB
 40
10.0
  9
$CHAMFERC
 40
0.0
  9
$CHAMFERD
 40
0.0
  9
$SKPOLY
 70
     0
  9
$TDCREATE
 40
2450653.479104051
  9
$TDUPDATE
 40
2451387.895834733
  9
$TDINDWG
 40
0.0000799884
  9
$TDUSRTIMER
 40
0.0000799884
  9
$USRTIMER
 70
     1
  9
$ANGBASE
 50
0.0
  9
$ANGDIR
 70
     0
  9
$PDMODE
 70
     0
  9
$PDSIZE
 40
0.0
  9
$PLINEWID
 40
0.0
  9
$COORDS
 70
     1
  9
$SPLFRAME
 70
     0
  9
$SPLINETYPE
 70
     6
  9
$SPLINESEGS
 70
     8
  9
$ATTDIA
 70
     0
  9
$ATTREQ
 70
     1
  9
$HANDLING
 70
     1
  9
$HANDSEED
  5
58A
  9
$SURFTAB1
 70
     6
  9
$SURFTAB2
 70
     6
  9
$SURFTYPE
 70
     6
  9
$SURFU
 70
     6
  9
$SURFV
 70
     6
  9
$UCSNAME
  2

  9
$UCSORG
 10
0.0
 20
0.0
 30
0.0
  9
$UCSXDIR
 10
1.0
 20
0.0
 30
0.0
  9
$UCSYDIR
 10
0.0
 20
1.0
 30
0.0
  9
$PUCSNAME
  2

  9
$PUCSORG
 10
0.0
 20
0.0
 30
0.0
  9
$PUCSXDIR
 10
1.0
 20
0.0
 30
0.0
  9
$PUCSYDIR
 10
0.0
 20
1.0
 30
0.0
  9
$USERI1
 70
     0
  9
$USERI2
 70
     0
  9
$USERI3
 70
     0
  9
$USERI4
 70
     0
  9
$USERI5
 70
     0
  9
$USERR1
 40
0.0
  9
$USERR2
 40
0.0
  9
$USERR3
 40
0.0
  9
$USERR4
 40
0.0
  9
$USERR5
 40
0.0
  9
$WORLDVIEW
 70
     1
  9
$SHADEDGE
 70
     3
  9
$SHADEDIF
 70
    70
  9
$TILEMODE
 70
     1
  9
$MAXACTVP
 70
    16
  9
$PINSBASE
 10
0.0
 20
0.0
 30
0.0
  9
$PLIMCHECK
 70
     0
  9
$PEXTMIN
 10
1.000000E+20
 20
1.000000E+20
 30
1.000000E+20
  9
$PEXTMAX
 10
-1.000000E+20
 20
-1.000000E+20
 30
-1.000000E+20
  9
$PLIMMIN
 10
0.0
 20
0.0
  9
$PLIMMAX
 10
12.0
 20
9.0
  9
$UNITMODE
 70
     0
  9
$VISRETAIN
 70
     0
  9
$PLINEGEN
 70
     0
  9
$PSLTSCALE
 70
     1
  9
$TREEDEPTH
 70
  3020
  9
$PICKSTYLE
 70
     1
  9
$CMLSTYLE
  2
STANDARD
  9
$CMLJUST
 70
     0
  9
$CMLSCALE
 40
1.0
  9
$PROXYGRAPHICS
 70
     1
  9
$MEASUREMENT
 70
     0
  0
ENDSEC
  0
SECTION
  2
CLASSES
  0
CLASS
  1
DICTIONARYVAR
  2
AcDbDictionaryVar
  3
"AutoCAD"
 90
        0
280
     0
281
     0
  0
CLASS
  1
LWPOLYLINE
  2
AcDbPolyline
  3
"AutoCAD"
 90
        0
280
     0
281
     1
  0
ENDSEC
  0
SECTION
  2
TABLES
  0
TABLE
  2
VPORT
  5
52F
100
AcDbSymbolTable
 70
     1
  0
VPORT
  5
585
100
AcDbSymbolTableRecord
100
AcDbViewportTableRecord
  2
*ACTIVE
 70
     0
 10
0.0
 20
0.0
 11
1.0
 21
1.0
 12
322.951118
 22
210.706856
 13
0.0
 23
0.0
 14
1.0
 24
1.0
 15
0.0
 25
0.0
 16
0.0
 26
0.0
 36
1.0
 17
0.0
 27
0.0
 37
0.0
 40
322.122828
 41
1.671053
 42
50.0
 43
0.0
 44
0.0
 50
0.0
 51
0.0
 71
     0
 72
   100
 73
     1
 74
     1
 75
     0
 76
     0
 77
     0
 78
     0
  0
ENDTAB
  0
TABLE
  2
LTYPE
  5
52C
100
AcDbSymbolTable
 70
    23
  0
LTYPE
  5
538
100
AcDbSymbolTableRecord
100
AcDbLinetypeTableRecord
  2
BYBLOCK
 70
     0
  3

 72
    65
 73
     0
 40
0.0
  0
LTYPE
  5
539
100
AcDbSymbolTableRecord
100
AcDbLinetypeTableRecord
  2
BYLAYER
 70
     0
  3

 72
    65
 73
     0
 40
0.0
  0
LTYPE
  5
53A
100
AcDbSymbolTableRecord
100
AcDbLinetypeTableRecord
  2
CONTINUOUS
 70
     0
  3
Solid line
 72
    65
 73
     0
 40
0.0
  0
LTYPE
  5
54C
100
AcDbSymbolTableRecord
100
AcDbLinetypeTableRecord
  2
AXES
 70
     0
  3
____ _ ____ _ ____ _ ____ _ ____ _ ____ _ ____ 
 72
    65
 73
     4
 40
2.0
 49
1.25
 74
     0
 49
-0.25
 74
     0
 49
0.25
 74
     0
 49
-0.25
 74
     0
  0
LTYPE
  5
54D
100
AcDbSymbolTableRecord
100
AcDbLinetypeTableRecord
  2
AXES2
 70
     0
  3
___ _ ___ _ ___ _ ___ _ ___ _ ___ _ ___ _ ___ _
 72
    65
 73
     4
 40
1.125
 49
0.75
 74
     0
 49
-0.125
 74
     0
 49
0.125
 74
     0
 49
-0.125
 74
     0
  0
LTYPE
  5
54E
100
AcDbSymbolTableRecord
100
AcDbLinetypeTableRecord
  2
AXESX2
 70
     0
  3
________  __  ________  __  ________  __  _____
 72
    65
 73
     4
 40
4.0
 49
2.5
 74
     0
 49
-0.5
 74
     0
 49
0.5
 74
     0
 49
-0.5
 74
     0
  0
LTYPE
  5
54F
100
AcDbSymbolTableRecord
100
AcDbLinetypeTableRecord
  2
TIRETPT
 70
     0
  3
__ . __ . __ . __ . __ . __ . __ . __ . __ . __
 72
    65
 73
     4
 40
1.0
 49
0.5
 74
     0
 49
-0.25
 74
     0
 49
0.0
 74
     0
 49
-0.25
 74
     0
  0
LTYPE
  5
550
100
AcDbSymbolTableRecord
100
AcDbLinetypeTableRecord
  2
TIRETPT2
 70
     0
  3
_._._._._._._._._._._._._._._._._._._._._._._._
 72
    65
 73
     4
 40
0.5
 49
0.25
 74
     0
 49
-0.125
 74
     0
 49
0.0
 74
     0
 49
-0.125
 74
     0
  0
LTYPE
  5
551
100
AcDbSymbolTableRecord
100
AcDbLinetypeTableRecord
  2
TIRETPTX2
 70
     0
  3
____  .  ____  .  ____  .  ____  .  ____  .  __
 72
    65
 73
     4
 40
2.0
 49
1.0
 74
     0
 49
-0.5
 74
     0
 49
0.0
 74
     0
 49
-0.5
 74
     0
  0
LTYPE
  5
552
100
AcDbSymbolTableRecord
100
AcDbLinetypeTableRecord
  2
DISCONTINU
 70
     0
  3
__ __ __ __ __ __ __ __ __ __ __ __ __ __ __ __
 72
    65
 73
     2
 40
0.75
 49
0.5
 74
     0
 49
-0.25
 74
     0
  0
LTYPE
  5
553
100
AcDbSymbolTableRecord
100
AcDbLinetypeTableRecord
  2
DISCONTINU2
 70
     0
  3
_ _ _ _ _ _ _ _ _ _ _ _ _ _ _ _ _ _ _ _ _ _ _ _
 72
    65
 73
     2
 40
0.375
 49
0.25
 74
     0
 49
-0.125
 74
     0
  0
LTYPE
  5
554
100
AcDbSymbolTableRecord
100
AcDbLinetypeTableRecord
  2
DISCONTINUX2
 70
     0
  3
____  ____  ____  ____  ____  ____  ____  ____ 
 72
    65
 73
     2
 40
1.5
 49
1.0
 74
     0
 49
-0.5
 74
     0
  0
LTYPE
  5
555
100
AcDbSymbolTableRecord
100
AcDbLinetypeTableRecord
  2
DIVISE
 70
     0
  3
____ . . ____ . . ____ . . ____ . . ____ . . __
 72
    65
 73
     6
 40
1.25
 49
0.5
 74
     0
 49
-0.25
 74
     0
 49
0.0
 74
     0
 49
-0.25
 74
     0
 49
0.0
 74
     0
 49
-0.25
 74
     0
  0
LTYPE
  5
556
100
AcDbSymbolTableRecord
100
AcDbLinetypeTableRecord
  2
DIVISE2
 70
     0
  3
__..__..__..__..__..__..__..__..__..__..__..__.
 72
    65
 73
     6
 40
0.625
 49
0.25
 74
     0
 49
-0.125
 74
     0
 49
0.0
 74
     0
 49
-0.125
 74
     0
 49
0.0
 74
     0
 49
-0.125
 74
     0
  0
LTYPE
  5
557
100
AcDbSymbolTableRecord
100
AcDbLinetypeTableRecord
  2
DIVISEX2
 70
     0
  3
________  .  .  ________  .  .  ________  .  . 
 72
    65
 73
     6
 40
2.5
 49
1.0
 74
     0
 49
-0.5
 74
     0
 49
0.0
 74
     0
 49
-0.5
 74
     0
 49
0.0
 74
     0
 49
-0.5
 74
     0
  0
LTYPE
  5
558
100
AcDbSymbolTableRecord
100
AcDbLinetypeTableRecord
  2
POINTILLE
 70
     0
  3
. . . . . . . . . . . . . . . . . . . . . . . .
 72
    65
 73
     2
 40
0.25
 49
0.0
 74
     0
 49
-0.25
 74
     0
  0
LTYPE
  5
559
100
AcDbSymbolTableRecord
100
AcDbLinetypeTableRecord
  2
POINTILLE2
 70
     0
  3
...............................................
 72
    65
 73
     2
 40
0.125
 49
0.0
 74
     0
 49
-0.125
 74
     0
  0
LTYPE
  5
55A
100
AcDbSymbolTableRecord
100
AcDbLinetypeTableRecord
  2
POINTILLEX2
 70
     0
  3
.  .  .  .  .  .  .  .  .  .  .  .  .  .  .  . 
 72
    65
 73
     2
 40
0.5
 49
0.0
 74
     0
 49
-0.5
 74
     0
  0
LTYPE
  5
55B
100
AcDbSymbolTableRecord
100
AcDbLinetypeTableRecord
  2
CACHE
 70
     0
  3
__ __ __ __ __ __ __ __ __ __ __ __ __ __ __ __
 72
    65
 73
     2
 40
0.375
 49
0.25
 74
     0
 49
-0.125
 74
     0
  0
LTYPE
  5
55C
100
AcDbSymbolTableRecord
100
AcDbLinetypeTableRecord
  2
CACHE2
 70
     0
  3
_ _ _ _ _ _ _ _ _ _ _ _ _ _ _ _ _ _ _ _ _ _ _ _
 72
    65
 73
     2
 40
0.1875
 49
0.125
 74
     0
 49
-0.0625
 74
     0
  0
LTYPE
  5
55D
100
AcDbSymbolTableRecord
100
AcDbLinetypeTableRecord
  2
CACHEX2
 70
     0
  3
____ ____ ____ ____ ____ ____ ____ ____ ____ __
 72
    65
 73
     2
 40
0.75
 49
0.5
 74
     0
 49
-0.25
 74
     0
  0
LTYPE
  5
55E
100
AcDbSymbolTableRecord
100
AcDbLinetypeTableRecord
  2
FANTOME
 70
     0
  3
______  __  __  ______  __  __  ______  __  __ 
 72
    65
 73
     6
 40
2.5
 49
1.25
 74
     0
 49
-0.25
 74
     0
 49
0.25
 74
     0
 49
-0.25
 74
     0
 49
0.25
 74
     0
 49
-0.25
 74
     0
  0
LTYPE
  5
55F
100
AcDbSymbolTableRecord
100
AcDbLinetypeTableRecord
  2
FANTOME2
 70
     0
  3
___ _ _ ___ _ _ ___ _ _ ___ _ _ ___ _ _ ___ _ _
 72
    65
 73
     6
 40
1.25
 49
0.625
 74
     0
 49
-0.125
 74
     0
 49
0.125
 74
     0
 49
-0.125
 74
     0
 49
0.125
 74
     0
 49
-0.125
 74
     0
  0
LTYPE
  5
560
100
AcDbSymbolTableRecord
100
AcDbLinetypeTableRecord
  2
FANTOMEX2
 70
     0
  3
____________    ____    ____    ____________   
 72
    65
 73
     6
 40
5.0
 49
2.5
 74
     0
 49
-0.5
 74
     0
 49
0.5
 74
     0
 49
-0.5
 74
     0
 49
0.5
 74
     0
 49
-0.5
 74
     0
  0
LTYPE
  5
561
100
AcDbSymbolTableRecord
100
AcDbLinetypeTableRecord
  2
0
 70
     0
  3
MEDUSA PEN 0
 72
    65
 73
     0
 40
0.0
  0
ENDTAB
  0
TABLE
  2
LAYER
  5
529
100
AcDbSymbolTable
 70
    21
  0
LAYER
  5
535
100
AcDbSymbolTableRecord
100
AcDbLayerTableRecord
  2
0
 70
     0
 62
     7
  6
CONTINUOUS
  0
LAYER
  5
568
100
AcDbSymbolTableRecord
100
AcDbLayerTableRecord
  2
COTATION1
 70
     0
 62
     2
  6
CONTINUOUS
  0
LAYER
  5
569
100
AcDbSymbolTableRecord
100
AcDbLayerTableRecord
  2
ALPHA
 70
     0
 62
   255
  6
CONTINUOUS
  0
LAYER
  5
56A
100
AcDbSymbolTableRecord
100
AcDbLayerTableRecord
  2
DEFPOINTS
 70
     0
 62
     7
  6
CONTINUOUS
  0
LAYER
  5
56B
100
AcDbSymbolTableRecord
100
AcDbLayerTableRecord
  2
AXE
 70
     0
 62
    80
  6
AXES2
  0
LAYER
  5
56C
100
AcDbSymbolTableRecord
100
AcDbLayerTableRecord
  2
CONSTRUCTION
 70
     0
 62
     6
  6
CONTINUOUS
  0
LAYER
  5
56D
100
AcDbSymbolTableRecord
100
AcDbLayerTableRecord
  2
HACHURES
 70
     0
 62
     9
  6
CONTINUOUS
  0
LAYER
  5
56E
100
AcDbSymbolTableRecord
100
AcDbLayerTableRecord
  2
FMULT
 70
     0
 62
     6
  6
CONTINUOUS
  0
LAYER
  5
56F
100
AcDbSymbolTableRecord
100
AcDbLayerTableRecord
  2
TEXTE
 70
     0
 62
   131
  6
CONTINUOUS
  0
LAYER
  5
570
100
AcDbSymbolTableRecord
100
AcDbLayerTableRecord
  2
FDP_CARTOUCHE
 70
     0
 62
     4
  6
CONTINUOUS
  0
LAYER
  5
571
100
AcDbSymbolTableRecord
100
AcDbLayerTableRecord
  2
FDP_TEXTES
 70
     0
 62
     5
  6
CONTINUOUS
  0
LAYER
  5
572
100
AcDbSymbolTableRecord
100
AcDbLayerTableRecord
  2
FDP_LOGO_MG
 70
     0
 62
    30
  6
CONTINUOUS
  0
LAYER
  5
573
100
AcDbSymbolTableRecord
100
AcDbLayerTableRecord
  2
FDP_LOGO_SCH
 70
     0
 62
     3
  6
CONTINUOUS
  0
LAYER
  5
574
100
AcDbSymbolTableRecord
100
AcDbLayerTableRecord
  2
FDP_FDP
 70
     0
 62
     5
  6
CONTINUOUS
  0
LAYER
  5
575
100
AcDbSymbolTableRecord
100
AcDbLayerTableRecord
  2
COTATION2
 70
     0
 62
     2
  6
CONTINUOUS
  0
LAYER
  5
576
100
AcDbSymbolTableRecord
100
AcDbLayerTableRecord
  2
COTATION3
 70
     0
 62
     2
  6
CONTINUOUS
  0
LAYER
  5
577
100
AcDbSymbolTableRecord
100
AcDbLayerTableRecord
  2
COTATION4
 70
     0
 62
     2
  6
CONTINUOUS
  0
LAYER
  5
578
100
AcDbSymbolTableRecord
100
AcDbLayerTableRecord
  2
ASHADE
 70
     0
 62
     7
  6
CONTINUOUS
  0
LAYER
  5
579
100
AcDbSymbolTableRecord
100
AcDbLayerTableRecord
  2
POINTILLE_COURT
 70
     0
 62
    40
  6
CACHE2
  0
LAYER
  5
57A
100
AcDbSymbolTableRecord
100
AcDbLayerTableRecord
  2
POINTILLE_MOYEN
 70
     0
 62
   140
  6
CACHE
  0
LAYER
  5
57B
100
AcDbSymbolTableRecord
100
AcDbLayerTableRecord
  2
POINTILLE_LONG
 70
     0
 62
   240
  6
CACHEX2
  0
ENDTAB
  0
TABLE
  2
STYLE
  5
52A
100
AcDbSymbolTable
 70
     4
  0
STYLE
  5
536
100
AcDbSymbolTableRecord
100
AcDbTextStyleTableRecord
  2
STANDARD
 70
     0
 40
0.0
 41
1.0
 50
0.0
 71
     0
 42
3.5
  3
txt
  4

  0
STYLE
  5
549
100
AcDbSymbolTableRecord
100
AcDbTextStyleTableRecord
  2
ROMANS
 70
     0
 40
0.0
 41
1.0
 50
0.0
 71
     0
 42
2.9
  3
romans.shx
  4

  0
STYLE
  5
54A
100
AcDbSymbolTableRecord
100
AcDbTextStyleTableRecord
  2
INFOCAR
 70
     0
 40
0.0
 41
1.34
 50
0.0
 71
     0
 42
2.0
  3
ROMANS.SHX
  4

  0
STYLE
  5
54B
100
AcDbSymbolTableRecord
100
AcDbTextStyleTableRecord
  2
CARTOUCHE
 70
     0
 40
0.0
 41
1.0
 50
0.0
 71
     0
 42
0.2
  3
ROMANS.SHX
  4

  0
ENDTAB
  0
TABLE
  2
VIEW
  5
52D
100
AcDbSymbolTable
 70
     0
  0
ENDTAB
  0
TABLE
  2
UCS
  5
52E
100
AcDbSymbolTable
 70
     0
  0
ENDTAB
  0
TABLE
  2
APPID
  5
530
100
AcDbSymbolTable
 70
     3
  0
APPID
  5
537
100
AcDbSymbolTableRecord
100
AcDbRegAppTableRecord
  2
ACAD
 70
     0
  0
APPID
  5
564
100
AcDbSymbolTableRecord
100
AcDbRegAppTableRecord
  2
AVE_RENDER
 70
     0
  0
APPID
  5
565
100
AcDbSymbolTableRecord
100
AcDbRegAppTableRecord
  2
AVE_MATERIAL
 70
     0
  0
ENDTAB
  0
TABLE
  2
DIMSTYLE
  5
531
100
AcDbSymbolTable
 70
     2
  0
DIMSTYLE
105
566
100
AcDbSymbolTableRecord
100
AcDbDimStyleTableRecord
  2
STANDARD
 70
     0
  3

  4

  5

  6

  7

 40
1.0
 41
0.18
 42
0.0625
 43
0.38
 44
0.18
 45
0.0
 46
0.0
 47
0.0
 48
0.0
140
0.18
141
0.09
142
0.0
143
25.4
144
1.0
145
0.0
146
1.0
147
0.09
 71
     0
 72
     0
 73
     1
 74
     1
 75
     0
 76
     0
 77
     0
 78
     0
170
     0
171
     2
172
     0
173
     0
174
     0
175
     0
176
     0
177
     0
178
     0
270
     2
271
     4
272
     4
273
     2
274
     2
340
549
275
     0
280
     0
281
     0
282
     0
283
     1
284
    12
285
    12
286
    12
287
     5
288
     0
  0
DIMSTYLE
105
567
102
{ACAD_REACTORS
330
3
102
}
100
AcDbSymbolTableRecord
100
AcDbDimStyleTableRecord
  2
SC_STAND
 70
     0
  3

  4

  5

  6

  7

 40
1.0
 41
3.0
 42
0.0625
 43
0.38
 44
0.18
 45
0.01
 46
0.0
 47
0.0
 48
0.0
140
2.5
141
0.09
142
0.0
143
25.4
144
1.0
145
0.0
146
1.0
147
1.0
 71
     0
 72
     0
 73
     0
 74
     0
 75
     0
 76
     0
 77
     1
 78
    12
170
     0
171
     2
172
     1
173
     0
174
     0
175
     0
176
     0
177
     0
178
     0
270
     2
271
     4
272
     4
273
     2
274
     2
340
549
275
     0
280
     0
281
     0
282
     0
283
     1
284
    12
285
    12
286
    12
287
     5
288
     0
  0
ENDTAB
  0
TABLE
  2
BLOCK_RECORD
  5
528
100
AcDbSymbolTable
 70
     5
  0
BLOCK_RECORD
  5
53E
100
AcDbSymbolTableRecord
100
AcDbBlockTableRecord
  2
*MODEL_SPACE
  0
BLOCK_RECORD
  5
53B
100
AcDbSymbolTableRecord
100
AcDbBlockTableRecord
  2
*PAPER_SPACE
  0
BLOCK_RECORD
  5
543
100
AcDbSymbolTableRecord
100
AcDbBlockTableRecord
  2
AVE_RENDER
  0
BLOCK_RECORD
  5
544
100
AcDbSymbolTableRecord
100
AcDbBlockTableRecord
  2
AVE_GLOBAL
  0
BLOCK_RECORD
  5
545
100
AcDbSymbolTableRecord
100
AcDbBlockTableRecord
  2
SCH_ISO
  0
BLOCK_RECORD
  5
548
100
AcDbSymbolTableRecord
100
AcDbBlockTableRecord
  2
*D4
  0
ENDTAB
  0
ENDSEC
  0
SECTION
  2
BLOCKS
  0
BLOCK
  5
57E
100
AcDbEntity
  8
0
100
AcDbBlockBegin
  2
*MODEL_SPACE
 70
     0
 10
0.0
 20
0.0
 30
0.0
  3
*MODEL_SPACE
  1

  0
ENDBLK
  5
57F
100
AcDbEntity
  8
0
100
AcDbBlockEnd
  0
BLOCK
  5
57C
100
AcDbEntity
 67
     1
  8
0
100
AcDbBlockBegin
  2
*PAPER_SPACE
 70
     0
 10
0.0
 20
0.0
 30
0.0
  3
*PAPER_SPACE
  1

  0
ENDBLK
  5
57D
100
AcDbEntity
 67
     1
  8
0
100
AcDbBlockEnd
  0
BLOCK
  5
4B6
100
AcDbEntity
  8
0
100
AcDbBlockBegin
  2
AVE_RENDER
 70
     0
 10
0.0
 20
0.0
 30
0.0
  3
AVE_RENDER
  1
AVE_RENDER
  0
ENDBLK
  5
4B7
100
AcDbEntity
  8
0
100
AcDbBlockEnd
  0
BLOCK
  5
4B9
100
AcDbEntity
  8
0
100
AcDbBlockBegin
  2
AVE_GLOBAL
 70
     0
 10
0.0
 20
0.0
 30
0.0
  3
AVE_GLOBAL
  1
AVE_GLOBAL
  0
ENDBLK
  5
4BA
100
AcDbEntity
  8
0
100
AcDbBlockEnd
  0
BLOCK
  5
4F0
100
AcDbEntity
  8
0
100
AcDbBlockBegin
  2
SCH_ISO
 70
     0
 10
0.0
 20
0.0
 30
0.0
  3
SCH_ISO
  1

  0
INSERT
  5
4E7
100
AcDbEntity
  8
ASHADE
 62
     1
100
AcDbBlockReference
  2
AVE_RENDER
 10
0.0
 20
0.0
 30
0.0
1001
AVE_RENDER
1002
{
1070
     6
1000
Pref
1070
    50
1070
    20
1070
     1
1070
     0
1000

1070
    10
1070
     1
1070
    30
1040
25.4
1070
     1
1040
0.3
1040
0.7
1040
0.0
1040
10.0
1010
-1.0
1020
-1.0
1030
-1.0
1040
0.3
1070
    49
1070
     0
1070
     0
1010
1.0
1020
1.0
1030
1.0
1040
45.0
1070
     1
1070
     0
1000
WCS
1040
0.0
1002
}
  0
INSERT
  5
4E8
100
AcDbEntity
  8
ASHADE
 62
     3
100
AcDbBlockReference
  2
AVE_RENDER
 10
0.0
 20
0.0
 30
0.0
1001
AVE_RENDER
1002
{
1070
     0
1000
Full Opt
1070
     0
1070
     1
1070
     1
1070
     1
1070
     0
1070
     0
1070
     0
1070
     1
1070
     1
1040
0.0001
1040
0.0001
1002
}
  0
INSERT
  5
4E9
100
AcDbEntity
  8
ASHADE
 62
     4
100
AcDbBlockReference
  2
AVE_RENDER
 10
0.0
 20
0.0
 30
0.0
1001
AVE_RENDER
1002
{
1070
     0
1000
Quick Opt
1070
     0
1070
     1
1070
     1
1070
     1
1070
     0
1070
     0
1070
     1
1002
}
  0
INSERT
  5
4EA
100
AcDbEntity
  8
ASHADE
 62
     5
100
AcDbBlockReference
  2
AVE_RENDER
 10
0.0
 20
0.0
 30
0.0
1001
AVE_RENDER
1002
{
1070
     1
1000
Scanl Opt
1070
     2
1070
     0
1070
     2
1040
2.0
1040
4.0
1070
     0
1070
     1
1070
     0
1040
0.03
1002
}
  0
INSERT
  5
4EB
100
AcDbEntity
  8
ASHADE
 62
     6
100
AcDbBlockReference
  2
AVE_RENDER
 10
0.0
 20
0.0
 30
0.0
1001
AVE_RENDER
1002
{
1070
     2
1000
Raytr Opt
1070
     2
1070
     0
1070
     2
1040
2.0
1040
4.0
1070
     0
1070
     1
1070
     1
1040
0.03
1070
     3
1040
0.03
1002
}
  0
INSERT
  5
4EC
100
AcDbEntity
  8
ASHADE
 62
     7
100
AcDbBlockReference
  2
AVE_RENDER
 10
0.0
 20
0.0
 30
0.0
1001
AVE_RENDER
1002
{
1070
     0
1000
RFile Opt
1070
     5
1070
   640
1070
   480
1070
 10000
1070
     3
1070
    32
1070
    24
1070
     0
1070
     0
1070
     0
1070
     1
1070
     0
1070
     0
1070
     0
1002
}
  0
INSERT
  5
4ED
100
AcDbEntity
  8
ASHADE
 62
     8
100
AcDbBlockReference
  2
AVE_RENDER
 10
0.0
 20
0.0
 30
0.0
1001
AVE_RENDER
1002
{
1070
     0
1000
Fog Opt
1070
     0
1070
     0
1040
0.0
1040
1.0
1040
0.0
1040
1.0
1010
0.5
1020
0.5
1030
0.5
1002
}
  0
INSERT
  5
4EE
100
AcDbEntity
  8
ASHADE
 62
     9
100
AcDbBlockReference
  2
AVE_RENDER
 10
0.0
 20
0.0
 30
0.0
1001
AVE_RENDER
1002
{
1070
     0
1000
BG Opt
1070
     0
1070
     1
1010
0.0
1020
0.0
1030
0.0
1010
1.0
1020
0.0
1030
0.0
1010
0.0
1020
1.0
1030
0.0
1010
0.0
1020
0.0
1030
1.0
1040
0.5
1040
0.33
1040
0.0
1000

1070
     1
1000

1070
     1
1070
     1
1040
1.0
1040
1.0
1040
0.0
1040
0.0
1070
     0
1002
}
  0
INSERT
  5
4EF
100
AcDbEntity
  8
ASHADE
 62
     1
100
AcDbBlockReference
  2
AVE_GLOBAL
 10
0.0
 20
0.0
 30
0.0
1001
AVE_MATERIAL
1002
{
1000
*GLOBAL*
1000
1
1000
Finition globale.
1002
{
1002
}
1002
{
1070
    63
1002
{
1002
{
1010
-1.0
1020
-1.0
1030
-1.0
1002
}
1040
0.1
1000

1040
0.0
1002
{
1002
}
1040
0.0
1002
{
1002
}
1040
0.0
1002
}
1002
{
1002
{
1010
-1.0
1020
-1.0
1030
-1.0
1002
}
1040
0.7
1000

1040
0.0
1002
{
1002
}
1040
0.0
1002
{
1002
}
1040
0.0
1002
}
1002
{
1002
{
1010
-1.0
1020
-1.0
1030
-1.0
1002
}
1040
0.2
1000

1040
0.0
1002
{
1002
}
1040
0.0
1002
{
1002
}
1040
0.0
1002
}
1002
{
1070
     0
1002
{
1070
     1
1002
{
1040
1.0
1040
1.0
1000

1040
0.0
1002
{
1002
}
1040
0.0
1002
{
1002
}
1040
0.0
1002
}
1002
}
1040
1.0
1040
0.0
1040
0.0
1002
}
1002
{
1040
1.0
1040
1.0
1000

1040
0.0
1002
{
1002
}
1040
0.0
1002
{
1002
}
1040
0.0
1002
}
1002
{
1040
0.5
1040
1.0
1000

1040
0.0
1002
{
1002
}
1040
0.0
1002
{
1002
}
1040
0.0
1002
}
1002
{
1070
     0
1040
0.0
1002
{
1002
}
1040
1.0
1002
{
1002
}
1040
0.0
1002
}
1002
{
1040
0.0
1002
{
1002
{
1010
0.0
1020
0.0
1030
0.0
1002
}
1040
1.0
1000

1040
0.0
1002
{
1002
}
1040
0.0
1002
{
1002
}
1040
0.0
1002
}
1002
}
1002
{
1002
{
1070
     1
1002
{
1040
0.0
1040
1.0
1000

1040
0.0
1002
{
1002
}
1040
0.0
1002
{
1002
}
1040
0.0
1002
}
1002
}
1040
0.0
1002
{
1002
}
1010
1.0
1020
0.0
1030
0.0
1010
0.0
1020
1.0
1030
0.0
1010
0.0
1020
0.0
1030
1.0
1070
     0
1002
}
1002
{
1002
{
1040
1.0
1040
1.0
1002
{
1070
     1
1002
{
1040
1.0
1040
1.0
1000

1040
0.0
1002
{
1002
}
1040
0.0
1002
{
1002
}
1040
0.0
1002
}
1002
}
1002
}
1070
     0
1040
0.0
1002
{
1002
}
1002
}
1002
{
1002
}
1002
}
1002
{
1071
        3
1070
     3
1070
     0
1002
{
1070
     2
1070
     0
1070
     0
1040
0.0
1002
}
1070
     0
1070
     2
1002
{
1002
}
1002
}
1002
{
1040
8030.0
1040
190.300003
1040
0.305
1040
228.0
1040
545.0
1040
14.0
1040
17.4
1040
0.456
1002
}
1002
}
  0
ENDBLK
  5
4F1
100
AcDbEntity
  8
0
100
AcDbBlockEnd
  0
BLOCK
  5
51D
100
AcDbEntity
  8
0
100
AcDbBlockBegin
  2
*D4
 70
     1
 10
0.0
 20
0.0
 30
0.0
  3
*D4
  1
AVE_GLOBAL
  0
LINE
  5
51E
100
AcDbEntity
  8
0
  6
BYBLOCK
 62
     0
100
AcDbLine
 10
54.119679
 20
85.676002
 30
0.0
 11
54.119679
 21
49.965442
 31
0.0
  0
LINE
  5
51F
100
AcDbEntity
  8
0
  6
BYBLOCK
 62
     0
100
AcDbLine
 10
151.831692
 20
85.963988
 30
0.0
 11
151.831692
 21
49.965442
 31
0.0
  0
LINE
  5
520
100
AcDbEntity
  8
0
  6
BYBLOCK
 62
     0
100
AcDbLine
 10
57.119679
 20
50.145442
 30
0.0
 11
148.831692
 21
50.145442
 31
0.0
  0
SOLID
  5
521
100
AcDbEntity
  8
0
  6
BYBLOCK
 62
     0
100
AcDbTrace
 10
57.119679
 20
50.645442
 30
0.0
 11
57.119679
 21
49.645442
 31
0.0
 12
54.119679
 22
50.145442
 32
0.0
 13
54.119679
 23
50.145442
 33
0.0
  0
SOLID
  5
522
100
AcDbEntity
  8
0
  6
BYBLOCK
 62
     0
100
AcDbTrace
 10
148.831692
 20
50.645442
 30
0.0
 11
148.831692
 21
49.645442
 31
0.0
 12
151.831692
 22
50.145442
 32
0.0
 13
151.831692
 23
50.145442
 33
0.0
  0
TEXT
  5
523
100
AcDbEntity
  8
0
  6
BYBLOCK
 62
     0
100
AcDbText
 10
97.975685
 20
51.395442
 30
0.0
 40
2.5
  1
97.71
  7
ROMANS
 72
     1
 11
102.975685
 21
52.645442
 31
0.0
100
AcDbText
 73
     2
  0
POINT
  5
524
100
AcDbEntity
  8
DEFPOINTS
  6
BYBLOCK
 62
     0
100
AcDbPoint
 10
54.119679
 20
85.738502
 30
0.0
  0
POINT
  5
525
100
AcDbEntity
  8
DEFPOINTS
  6
BYBLOCK
 62
     0
100
AcDbPoint
 10
151.831692
 20
86.026488
 30
0.0
  0
POINT
  5
526
100
AcDbEntity
  8
DEFPOINTS
  6
BYBLOCK
 62
     0
100
AcDbPoint
 10
151.831692
 20
50.145442
 30
0.0
  0
ENDBLK
  5
527
100
AcDbEntity
  8
0
100
AcDbBlockEnd
  0
ENDSEC
  0
SECTION
  2
ENTITIES
  0
DIMENSION
  5
3
100
AcDbEntity
  8
COTATION1
100
AcDbDimension
  2
*D4
 10
151.831692
 20
50.145442
 30
0.0
 11
102.975685
 21
52.645442
 31
0.0
  3
SC_STAND
100
AcDbAlignedDimension
 13
54.119679
 23
85.738502
 33
0.0
 14
151.831692
 24
86.026488
 34
0.0
100
AcDbRotatedDimension
  0
ARC
  5
18
100
AcDbEntity
  8
ALPHA
100
AcDbCircle
 10
149.269679
 20
99.888559
 30
0.0
 40
1.5
100
AcDbArc
 50
270.0
 51
0.0
  0
ARC
  5
1A
100
AcDbEntity
  8
ALPHA
100
AcDbCircle
 10
139.219679
 20
87.088559
 30
0.0
 40
1.5
100
AcDbArc
 50
270.0
 51
0.0
  0
ARC
  5
1B
100
AcDbEntity
  8
ALPHA
100
AcDbCircle
 10
65.019679
 20
168.888559
 30
0.0
 40
1.5
100
AcDbArc
 50
270.0
 51
0.0
  0
ARC
  5
1C
100
AcDbEntity
  8
ALPHA
100
AcDbCircle
 10
137.869679
 20
87.088559
 30
0.0
 40
1.5
100
AcDbArc
 50
180.0
 51
270.0
  0
ARC
  5
1D
100
AcDbEntity
  8
ALPHA
100
AcDbCircle
 10
132.069679
 20
88.538559
 30
0.0
 40
4.3
100
AcDbArc
 50
0.0
 51
180.0
  0
ARC
  5
1E
100
AcDbEntity
  8
ALPHA
100
AcDbCircle
 10
126.269679
 20
87.088559
 30
0.0
 40
1.5
100
AcDbArc
 50
270.0
 51
0.0
  0
ARC
  5
1F
100
AcDbEntity
  8
ALPHA
100
AcDbCircle
 10
67.019679
 20
87.088559
 30
0.0
 40
1.5
100
AcDbArc
 50
180.0
 51
270.0
  0
ARC
  5
20
100
AcDbEntity
  8
ALPHA
100
AcDbCircle
 10
65.019679
 20
108.038559
 30
0.0
 40
0.5
100
AcDbArc
 50
0.0
 51
90.0
  0
ARC
  5
21
100
AcDbEntity
  8
ALPHA
100
AcDbCircle
 10
56.969679
 20
110.038559
 30
0.0
 40
1.5
100
AcDbArc
 50
180.0
 51
270.0
  0
ARC
  5
22
100
AcDbEntity
  8
ALPHA
100
AcDbCircle
 10
56.969679
 20
166.888559
 30
0.0
 40
1.5
100
AcDbArc
 50
90.0
 51
180.0
  0
ARC
  5
23
100
AcDbEntity
  8
ALPHA
100
AcDbCircle
 10
65.019679
 20
168.888559
 30
0.0
 40
0.5
100
AcDbArc
 50
270.0
 51
0.0
  0
ARC
  5
24
100
AcDbEntity
  8
ALPHA
100
AcDbCircle
 10
67.019679
 20
194.388559
 30
0.0
 40
1.5
100
AcDbArc
 50
90.0
 51
180.0
  0
ARC
  5
25
100
AcDbEntity
  8
ALPHA
100
AcDbCircle
 10
126.269679
 20
194.388559
 30
0.0
 40
1.5
100
AcDbArc
 50
0.0
 51
90.0
  0
ARC
  5
26
100
AcDbEntity
  8
ALPHA
100
AcDbCircle
 10
140.719679
 20
98.388559
 30
0.0
 40
1.0
100
AcDbArc
 50
90.0
 51
180.0
  0
ARC
  5
27
100
AcDbEntity
  8
ALPHA
100
AcDbCircle
 10
149.269679
 20
99.888559
 30
0.0
 40
0.5
100
AcDbArc
 50
270.0
 51
0.0
  0
ARC
  5
28
100
AcDbEntity
  8
ALPHA
100
AcDbCircle
 10
132.069679
 20
186.138559
 30
0.0
 40
4.3
100
AcDbArc
 50
180.0
 51
0.0
  0
ARC
  5
29
100
AcDbEntity
  8
ALPHA
100
AcDbCircle
 10
149.269679
 20
176.888559
 30
0.0
 40
0.5
100
AcDbArc
 50
0.0
 51
90.0
  0
ARC
  5
2A
100
AcDbEntity
  8
ALPHA
100
AcDbCircle
 10
65.019679
 20
108.038559
 30
0.0
 40
1.5
100
AcDbArc
 50
0.0
 51
90.0
  0
ARC
  5
2B
100
AcDbEntity
  8
ALPHA
100
AcDbCircle
 10
137.869679
 20
194.388559
 30
0.0
 40
1.5
100
AcDbArc
 50
90.0
 51
180.0
  0
ARC
  5
2C
100
AcDbEntity
  8
ALPHA
100
AcDbCircle
 10
140.719679
 20
178.388559
 30
0.0
 40
1.0
100
AcDbArc
 50
180.0
 51
270.0
  0
ARC
  5
2D
100
AcDbEntity
  8
ALPHA
100
AcDbCircle
 10
150.619679
 20
98.538559
 30
0.0
 40
1.0
100
AcDbArc
 50
270.0
 51
0.0
  0
ARC
  5
2E
100
AcDbEntity
  8
ALPHA
100
AcDbCircle
 10
147.069679
 20
92.038559
 30
0.0
 40
5.5
100
AcDbArc
 50
90.0
 51
180.0
  0
ARC
  5
2F
100
AcDbEntity
  8
ALPHA
100
AcDbCircle
 10
139.219679
 20
194.388559
 30
0.0
 40
1.5
100
AcDbArc
 50
0.0
 51
90.0
  0
ARC
  5
30
100
AcDbEntity
  8
ALPHA
100
AcDbCircle
 10
140.569679
 20
85.738559
 30
0.0
 40
1.0
100
AcDbArc
 50
270.0
 51
0.0
  0
ARC
  5
31
100
AcDbEntity
  8
ALPHA
100
AcDbCircle
 10
65.669679
 20
85.738559
 30
0.0
 40
1.0
100
AcDbArc
 50
180.0
 51
270.0
  0
ARC
  5
32
100
AcDbEntity
  8
ALPHA
100
AcDbCircle
 10
59.169679
 20
92.038559
 30
0.0
 40
5.5
100
AcDbArc
 50
0.0
 51
90.0
  0
ARC
  5
33
100
AcDbEntity
  8
ALPHA
100
AcDbCircle
 10
132.069679
 20
88.538559
 30
0.0
 40
5.3
100
AcDbArc
 50
0.0
 51
180.0
  0
ARC
  5
34
100
AcDbEntity
  8
ALPHA
100
AcDbCircle
 10
55.619679
 20
98.538559
 30
0.0
 40
1.0
100
AcDbArc
 50
180.0
 51
270.0
  0
ARC
  5
35
100
AcDbEntity
  8
ALPHA
100
AcDbCircle
 10
149.269679
 20
176.888559
 30
0.0
 40
1.5
100
AcDbArc
 50
0.0
 51
90.0
  0
ARC
  5
36
100
AcDbEntity
  8
ALPHA
100
AcDbCircle
 10
55.619679
 20
178.238559
 30
0.0
 40
1.0
100
AcDbArc
 50
90.0
 51
180.0
  0
ARC
  5
37
100
AcDbEntity
  8
ALPHA
100
AcDbCircle
 10
59.169679
 20
184.738559
 30
0.0
 40
5.5
100
AcDbArc
 50
270.0
 51
0.0
  0
ARC
  5
38
100
AcDbEntity
  8
ALPHA
100
AcDbCircle
 10
65.669679
 20
195.738559
 30
0.0
 40
1.0
100
AcDbArc
 50
90.0
 51
180.0
  0
ARC
  5
39
100
AcDbEntity
  8
ALPHA
100
AcDbCircle
 10
140.569679
 20
195.738559
 30
0.0
 40
1.0
100
AcDbArc
 50
0.0
 51
90.0
  0
ARC
  5
3A
100
AcDbEntity
  8
ALPHA
100
AcDbCircle
 10
56.969679
 20
110.038559
 30
0.0
 40
0.5
100
AcDbArc
 50
180.0
 51
270.0
  0
ARC
  5
3B
100
AcDbEntity
  8
ALPHA
100
AcDbCircle
 10
147.069679
 20
184.738559
 30
0.0
 40
5.5
100
AcDbArc
 50
180.0
 51
270.0
  0
ARC
  5
3C
100
AcDbEntity
  8
ALPHA
100
AcDbCircle
 10
150.619679
 20
178.238559
 30
0.0
 40
1.0
100
AcDbArc
 50
0.0
 51
90.0
  0
ARC
  5
3D
100
AcDbEntity
  8
ALPHA
100
AcDbCircle
 10
56.969679
 20
166.888559
 30
0.0
 40
0.5
100
AcDbArc
 50
90.0
 51
180.0
  0
ARC
  5
3E
100
AcDbEntity
  8
ALPHA
100
AcDbCircle
 10
101.269679
 20
163.738559
 30
0.0
 40
0.5
100
AcDbArc
 50
180.0
 51
270.0
  0
ARC
  5
3F
100
AcDbEntity
  8
ALPHA
100
AcDbCircle
 10
106.469679
 20
163.738559
 30
0.0
 40
0.5
100
AcDbArc
 50
270.0
 51
0.0
  0
ARC
  5
40
100
AcDbEntity
  8
ALPHA
100
AcDbCircle
 10
126.269679
 20
87.088559
 30
0.0
 40
1.0
100
AcDbArc
 50
270.0
 51
0.0
  0
ARC
  5
41
100
AcDbEntity
  8
ALPHA
100
AcDbCircle
 10
67.019679
 20
87.088559
 30
0.0
 40
1.0
100
AcDbArc
 50
180.0
 51
270.0
  0
ARC
  5
42
100
AcDbEntity
  8
ALPHA
100
AcDbCircle
 10
139.219679
 20
87.088559
 30
0.0
 40
1.0
100
AcDbArc
 50
270.0
 51
0.0
  0
ARC
  5
43
100
AcDbEntity
  8
ALPHA
100
AcDbCircle
 10
137.869679
 20
87.088559
 30
0.0
 40
1.0
100
AcDbArc
 50
180.0
 51
270.0
  0
ARC
  5
44
100
AcDbEntity
  8
ALPHA
100
AcDbCircle
 10
126.269679
 20
194.388559
 30
0.0
 40
1.0
100
AcDbArc
 50
0.0
 51
90.0
  0
ARC
  5
45
100
AcDbEntity
  8
ALPHA
100
AcDbCircle
 10
67.019679
 20
194.388559
 30
0.0
 40
1.0
100
AcDbArc
 50
90.0
 51
180.0
  0
ARC
  5
46
100
AcDbEntity
  8
ALPHA
100
AcDbCircle
 10
137.869679
 20
194.388559
 30
0.0
 40
1.0
100
AcDbArc
 50
90.0
 51
180.0
  0
ARC
  5
47
100
AcDbEntity
  8
ALPHA
100
AcDbCircle
 10
139.219679
 20
194.388559
 30
0.0
 40
1.0
100
AcDbArc
 50
0.0
 51
90.0
  0
ARC
  5
48
100
AcDbEntity
  8
ALPHA
100
AcDbCircle
 10
140.719679
 20
98.388559
 30
0.0
 40
0.5
100
AcDbArc
 50
90.0
 51
180.0
  0
ARC
  5
49
100
AcDbEntity
  8
ALPHA
100
AcDbCircle
 10
149.269679
 20
99.888559
 30
0.0
 40
1.0
100
AcDbArc
 50
270.0
 51
0.0
  0
ARC
  5
4A
100
AcDbEntity
  8
ALPHA
100
AcDbCircle
 10
149.269679
 20
176.888559
 30
0.0
 40
1.0
100
AcDbArc
 50
0.0
 51
90.0
  0
ARC
  5
4B
100
AcDbEntity
  8
ALPHA
100
AcDbCircle
 10
140.719679
 20
178.388559
 30
0.0
 40
0.5
100
AcDbArc
 50
180.0
 51
270.0
  0
ARC
  5
4C
100
AcDbEntity
  8
ALPHA
100
AcDbCircle
 10
150.619679
 20
98.538559
 30
0.0
 40
1.5
100
AcDbArc
 50
270.0
 51
0.0
  0
ARC
  5
4D
100
AcDbEntity
  8
ALPHA
100
AcDbCircle
 10
147.069679
 20
92.038559
 30
0.0
 40
5.0
100
AcDbArc
 50
90.0
 51
180.0
  0
ARC
  5
4E
100
AcDbEntity
  8
ALPHA
100
AcDbCircle
 10
140.569679
 20
85.738559
 30
0.0
 40
1.5
100
AcDbArc
 50
270.0
 51
0.0
  0
ARC
  5
4F
100
AcDbEntity
  8
ALPHA
100
AcDbCircle
 10
65.669679
 20
85.738559
 30
0.0
 40
1.5
100
AcDbArc
 50
180.0
 51
270.0
  0
ARC
  5
50
100
AcDbEntity
  8
ALPHA
100
AcDbCircle
 10
59.169679
 20
92.038559
 30
0.0
 40
5.0
100
AcDbArc
 50
0.0
 51
90.0
  0
ARC
  5
51
100
AcDbEntity
  8
ALPHA
100
AcDbCircle
 10
55.619679
 20
98.538559
 30
0.0
 40
1.5
100
AcDbArc
 50
180.0
 51
270.0
  0
ARC
  5
52
100
AcDbEntity
  8
ALPHA
100
AcDbCircle
 10
132.069679
 20
88.538559
 30
0.0
 40
4.8
100
AcDbArc
 50
0.0
 51
180.0
  0
ARC
  5
53
100
AcDbEntity
  8
ALPHA
100
AcDbCircle
 10
55.619679
 20
178.238559
 30
0.0
 40
1.5
100
AcDbArc
 50
90.0
 51
180.0
  0
ARC
  5
54
100
AcDbEntity
  8
ALPHA
100
AcDbCircle
 10
59.169679
 20
184.738559
 30
0.0
 40
5.0
100
AcDbArc
 50
270.0
 51
0.0
  0
ARC
  5
55
100
AcDbEntity
  8
ALPHA
100
AcDbCircle
 10
65.669679
 20
195.738559
 30
0.0
 40
1.5
100
AcDbArc
 50
90.0
 51
180.0
  0
ARC
  5
56
100
AcDbEntity
  8
ALPHA
100
AcDbCircle
 10
140.569679
 20
195.738559
 30
0.0
 40
1.5
100
AcDbArc
 50
0.0
 51
90.0
  0
ARC
  5
57
100
AcDbEntity
  8
ALPHA
100
AcDbCircle
 10
147.069679
 20
184.738559
 30
0.0
 40
5.0
100
AcDbArc
 50
180.0
 51
270.0
  0
ARC
  5
58
100
AcDbEntity
  8
ALPHA
100
AcDbCircle
 10
150.619679
 20
178.238559
 30
0.0
 40
1.5
100
AcDbArc
 50
0.0
 51
90.0
  0
ARC
  5
59
100
AcDbEntity
  8
ALPHA
100
AcDbCircle
 10
65.019679
 20
108.038559
 30
0.0
 40
1.0
100
AcDbArc
 50
0.0
 51
90.0
  0
ARC
  5
5A
100
AcDbEntity
  8
ALPHA
100
AcDbCircle
 10
56.969679
 20
110.038559
 30
0.0
 40
1.0
100
AcDbArc
 50
180.0
 51
270.0
  0
ARC
  5
5B
100
AcDbEntity
  8
ALPHA
100
AcDbCircle
 10
56.969679
 20
166.888559
 30
0.0
 40
1.0
100
AcDbArc
 50
90.0
 51
180.0
  0
ARC
  5
5C
100
AcDbEntity
  8
ALPHA
100
AcDbCircle
 10
65.019679
 20
168.888559
 30
0.0
 40
1.0
100
AcDbArc
 50
270.0
 51
0.0
  0
ARC
  5
5D
100
AcDbEntity
  8
ALPHA
100
AcDbCircle
 10
132.069679
 20
186.138559
 30
0.0
 40
4.8
100
AcDbArc
 50
180.0
 51
0.0
  0
CIRCLE
  5
5E
100
AcDbEntity
  8
ALPHA
100
AcDbCircle
 10
127.069679
 20
152.838559
 30
0.0
 40
2.7
  0
CIRCLE
  5
5F
100
AcDbEntity
  8
ALPHA
100
AcDbCircle
 10
137.069679
 20
152.838559
 30
0.0
 40
2.7
  0
CIRCLE
  5
60
100
AcDbEntity
  8
ALPHA
100
AcDbCircle
 10
59.069679
 20
90.738559
 30
0.0
 40
2.65
  0
ARC
  5
61
100
AcDbEntity
  8
ALPHA
100
AcDbCircle
 10
59.069679
 20
185.738559
 30
0.0
 40
3.65
100
AcDbArc
 50
223.445618
 51
316.554382
  0
ARC
  5
62
100
AcDbEntity
  8
ALPHA
100
AcDbCircle
 10
59.069679
 20
185.738559
 30
0.0
 40
3.65
100
AcDbArc
 50
43.445618
 51
136.554382
  0
ARC
  5
63
100
AcDbEntity
  8
ALPHA
100
AcDbCircle
 10
147.069679
 20
90.738559
 30
0.0
 40
3.65
100
AcDbArc
 50
223.445618
 51
316.554382
  0
ARC
  5
64
100
AcDbEntity
  8
ALPHA
100
AcDbCircle
 10
147.069679
 20
90.738559
 30
0.0
 40
3.65
100
AcDbArc
 50
43.445618
 51
136.554382
  0
CIRCLE
  5
65
100
AcDbEntity
  8
ALPHA
100
AcDbCircle
 10
147.069679
 20
185.738559
 30
0.0
 40
2.65
  0
CIRCLE
  5
66
100
AcDbEntity
  8
ALPHA
100
AcDbCircle
 10
137.069679
 20
152.939559
 30
0.0
 40
2.25
  0
CIRCLE
  5
67
100
AcDbEntity
  8
ALPHA
100
AcDbCircle
 10
127.069679
 20
152.939559
 30
0.0
 40
2.25
  0
ARC
  5
68
100
AcDbEntity
  8
ALPHA
100
AcDbCircle
 10
132.069679
 20
289.588559
 30
0.0
 40
2.65
100
AcDbArc
 50
180.0
 51
0.0
  0
ARC
  5
69
100
AcDbEntity
  8
ALPHA
100
AcDbCircle
 10
132.069679
 20
294.588559
 30
0.0
 40
2.65
100
AcDbArc
 50
0.0
 51
180.0
  0
ARC
  5
6A
100
AcDbEntity
  8
ALPHA
100
AcDbCircle
 10
132.069679
 20
309.588559
 30
0.0
 40
2.65
100
AcDbArc
 50
180.0
 51
0.0
  0
ARC
  5
6B
100
AcDbEntity
  8
ALPHA
100
AcDbCircle
 10
132.069679
 20
314.588559
 30
0.0
 40
2.65
100
AcDbArc
 50
0.0
 51
180.0
  0
ARC
  5
6C
100
AcDbEntity
  8
ALPHA
100
AcDbCircle
 10
121.569679
 20
244.238559
 30
0.0
 40
2.0
100
AcDbArc
 50
180.0
 51
270.0
  0
ARC
  5
6D
100
AcDbEntity
  8
ALPHA
100
AcDbCircle
 10
142.569679
 20
244.238559
 30
0.0
 40
2.0
100
AcDbArc
 50
270.0
 51
0.0
  0
ARC
  5
6E
100
AcDbEntity
  8
ALPHA
100
AcDbCircle
 10
120.569679
 20
274.338559
 30
0.0
 40
1.0
100
AcDbArc
 50
90.0
 51
180.0
  0
ARC
  5
6F
100
AcDbEntity
  8
ALPHA
100
AcDbCircle
 10
123.569679
 20
276.338559
 30
0.0
 40
1.0
100
AcDbArc
 50
270.0
 51
0.0
  0
ARC
  5
70
100
AcDbEntity
  8
ALPHA
100
AcDbCircle
 10
140.569679
 20
276.338559
 30
0.0
 40
1.0
100
AcDbArc
 50
180.0
 51
270.0
  0
ARC
  5
71
100
AcDbEntity
  8
ALPHA
100
AcDbCircle
 10
143.569679
 20
274.338559
 30
0.0
 40
1.0
100
AcDbArc
 50
0.0
 51
90.0
  0
ARC
  5
72
100
AcDbEntity
  8
ALPHA
100
AcDbCircle
 10
138.569679
 20
322.738559
 30
0.0
 40
1.0
100
AcDbArc
 50
0.0
 51
90.0
  0
ARC
  5
73
100
AcDbEntity
  8
ALPHA
100
AcDbCircle
 10
125.569679
 20
322.738559
 30
0.0
 40
1.0
100
AcDbArc
 50
90.0
 51
180.0
  0
CIRCLE
  5
74
100
AcDbEntity
  8
ALPHA
100
AcDbCircle
 10
127.069679
 20
152.939559
 30
0.0
 40
2.5
  0
CIRCLE
  5
75
100
AcDbEntity
  8
ALPHA
100
AcDbCircle
 10
137.069679
 20
152.939559
 30
0.0
 40
2.5
  0
ARC
  5
76
100
AcDbEntity
  8
ALPHA
100
AcDbCircle
 10
148.069679
 20
229.238559
 30
0.0
 40
0.5
100
AcDbArc
 50
0.0
 51
90.0
  0
ARC
  5
77
100
AcDbEntity
  8
ALPHA
100
AcDbCircle
 10
116.069679
 20
229.238559
 30
0.0
 40
0.5
100
AcDbArc
 50
90.0
 51
180.0
  0
CIRCLE
  5
78
100
AcDbEntity
  8
ALPHA
100
AcDbCircle
 10
103.869679
 20
179.738559
 30
0.0
 40
11.75
  0
CIRCLE
  5
79
100
AcDbEntity
  8
ALPHA
100
AcDbCircle
 10
103.869679
 20
179.738559
 30
0.0
 40
12.25
  0
ARC
  5
7A
100
AcDbEntity
  8
ALPHA
100
AcDbCircle
 10
132.069065
 20
186.14179
 30
0.0
 40
3.1
100
AcDbArc
 50
281.159937
 51
348.840063
  0
ARC
  5
7B
100
AcDbEntity
  8
ALPHA
100
AcDbCircle
 10
132.069065
 20
186.14179
 30
0.0
 40
3.1
100
AcDbArc
 50
191.159937
 51
258.840063
  0
ARC
  5
7C
100
AcDbEntity
  8
ALPHA
100
AcDbCircle
 10
132.069065
 20
186.14179
 30
0.0
 40
3.1
100
AcDbArc
 50
11.159937
 51
78.840063
  0
ARC
  5
7D
100
AcDbEntity
  8
ALPHA
100
AcDbCircle
 10
132.069065
 20
186.14179
 30
0.0
 40
3.1
100
AcDbArc
 50
101.159937
 51
168.840063
  0
CIRCLE
  5
7E
100
AcDbEntity
  8
ALPHA
100
AcDbCircle
 10
132.069065
 20
186.14179
 30
0.0
 40
1.0
  0
CIRCLE
  5
7F
100
AcDbEntity
  8
ALPHA
100
AcDbCircle
 10
132.069065
 20
186.14179
 30
0.0
 40
3.6
  0
CIRCLE
  5
80
100
AcDbEntity
  8
ALPHA
100
AcDbCircle
 10
132.069679
 20
88.538559
 30
0.0
 40
2.295
  0
CIRCLE
  5
81
100
AcDbEntity
  8
ALPHA
100
AcDbCircle
 10
132.069679
 20
88.538559
 30
0.0
 40
2.695
  0
CIRCLE
  5
82
100
AcDbEntity
  8
ALPHA
100
AcDbCircle
 10
58.819679
 20
104.238559
 30
0.0
 40
2.295
  0
CIRCLE
  5
83
100
AcDbEntity
  8
ALPHA
100
AcDbCircle
 10
58.819679
 20
104.238559
 30
0.0
 40
2.695
  0
CIRCLE
  5
84
100
AcDbEntity
  8
ALPHA
100
AcDbCircle
 10
58.819679
 20
172.238559
 30
0.0
 40
2.295
  0
CIRCLE
  5
85
100
AcDbEntity
  8
ALPHA
100
AcDbCircle
 10
58.819679
 20
172.238559
 30
0.0
 40
2.695
  0
LINE
  5
86
100
AcDbEntity
  8
ALPHA
100
AcDbLine
 10
138.569679
 20
323.738559
 30
0.0
 11
125.569679
 21
323.738559
 31
0.0
  0
LWPOLYLINE
  5
87
100
AcDbEntity
  8
ALPHA
100
AcDbPolyline
 90
        6
 70
     0
 43
0.0
 10
138.119649
 20
82.874755
 10
138.104277
 20
82.869451
 10
137.981299
 20
82.858898
 10
137.736604
 20
82.848507
 10
137.372704
 20
82.838386
 10
136.893333
 20
82.828638
  0
LINE
  5
8F
100
AcDbEntity
  8
ALPHA
100
AcDbLine
 10
120.569679
 20
275.338559
 30
0.0
 11
123.569679
 21
275.338559
 31
0.0
  0
LINE
  5
90
100
AcDbEntity
  8
ALPHA
100
AcDbLine
 10
143.569679
 20
275.338559
 30
0.0
 11
140.569679
 21
275.338559
 31
0.0
  0
LINE
  5
91
100
AcDbEntity
  8
ALPHA
100
AcDbLine
 10
154.583562
 20
98.638559
 30
0.0
 11
154.584446
 21
98.639001
 31
0.0
  0
LINE
  5
92
100
AcDbEntity
  8
ALPHA
100
AcDbLine
 10
155.084389
 20
99.138981
 30
0.0
 11
154.584446
 21
98.639001
 31
0.0
  0
LINE
  5
93
100
AcDbEntity
  8
ALPHA
100
AcDbLine
 10
140.569679
 20
270.138559
 30
0.0
 11
123.569679
 21
270.138559
 31
0.0
  0
LINE
  5
94
100
AcDbEntity
  8
ALPHA
100
AcDbLine
 10
155.076998
 20
118.15883
 30
0.0
 11
155.08521
 21
118.169484
 31
0.0
  0
LINE
  5
95
100
AcDbEntity
  8
ALPHA
100
AcDbLine
 10
141.569679
 20
242.238559
 30
0.0
 11
140.069679
 21
243.738559
 31
0.0
  0
LINE
  5
96
100
AcDbEntity
  8
ALPHA
100
AcDbLine
 10
123.569679
 20
250.138559
 30
0.0
 11
140.569679
 21
250.138559
 31
0.0
  0
LINE
  5
97
100
AcDbEntity
  8
ALPHA
100
AcDbLine
 10
138.069679
 20
247.438559
 30
0.0
 11
126.069679
 21
247.438559
 31
0.0
  0
LINE
  5
98
100
AcDbEntity
  8
ALPHA
100
AcDbLine
 10
126.069679
 20
243.738559
 30
0.0
 11
124.069679
 21
243.738559
 31
0.0
  0
LINE
  5
99
100
AcDbEntity
  8
ALPHA
100
AcDbLine
 10
140.069679
 20
243.738559
 30
0.0
 11
138.069679
 21
243.738559
 31
0.0
  0
LWPOLYLINE
  5
9A
100
AcDbEntity
  8
ALPHA
100
AcDbPolyline
 90
       13
 70
     0
 43
0.0
 10
152.121916
 20
121.537784
 10
152.12772
 20
121.54742
 10
152.202693
 20
121.639028
 10
152.306173
 20
121.730685
 10
152.448066
 20
121.814867
 10
152.613465
 20
121.870271
 10
152.823271
 20
121.887577
 10
153.040231
 20
121.846337
 10
153.230513
 20
121.752294
 10
153.382097
 20
121.619967
 10
153.485201
 20
121.474368
 10
153.552626
 20
121.313913
 10
153.554044
 20
121.308208
  0
LWPOLYLINE
  5
A9
100
AcDbEntity
  8
ALPHA
100
AcDbPolyline
 90
       13
 70
     0
 43
0.0
 10
153.554029
 20
99.169368
 10
153.536399
 20
99.114635
 10
153.497674
 20
99.026206
 10
153.439542
 20
98.929698
 10
153.364569
 20
98.838089
 10
153.261089
 20
98.746432
 10
153.119196
 20
98.66225
 10
152.953797
 20
98.606847
 10
152.743991
 20
98.58954
 10
152.527031
 20
98.63078
 10
152.336748
 20
98.724824
 10
152.185165
 20
98.857151
 10
152.119679
 20
98.949627
  0
LWPOLYLINE
  5
B8
100
AcDbEntity
  8
ALPHA
100
AcDbPolyline
 90
        6
 70
     0
 43
0.0
 10
155.08439
 20
99.13911
 10
155.090782
 20
99.169597
 10
155.105098
 20
99.416859
 10
155.118932
 20
99.90586
 10
155.131976
 20
100.625677
 10
155.15455
 20
102.688641
  0
LINE
  5
C0
100
AcDbEntity
  8
ALPHA
100
AcDbLine
 10
147.123232
 20
219.179763
 30
0.0
 11
145.116125
 21
222.046208
 31
0.0
  0
LINE
  5
C1
100
AcDbEntity
  8
ALPHA
100
AcDbLine
 10
146.881724
 20
218.732957
 30
0.0
 11
144.82144
 21
221.675347
 31
0.0
  0
LWPOLYLINE
  5
C2
100
AcDbEntity
  8
ALPHA
100
AcDbPolyline
 90
        6
 70
     0
 43
0.0
 10
145.24719
 20
221.530203
 10
145.154378
 20
221.641844
 10
145.077534
 20
221.736478
 10
145.018861
 20
221.810965
 10
144.981938
 20
221.861632
 10
144.969693
 20
221.885871
  0
LWPOLYLINE
  5
CA
100
AcDbEntity
  8
ALPHA
100
AcDbPolyline
 90
        4
 70
     0
 43
0.0
 10
145.24719
 20
221.530203
 10
145.096165
 20
221.586728
 10
144.953438
 20
221.635273
 10
144.82144
 20
221.675347
  0
LINE
  5
D0
100
AcDbEntity
  8
ALPHA
100
AcDbLine
 10
122.569679
 20
242.238559
 30
0.0
 11
121.569679
 21
242.238559
 31
0.0
  0
LINE
  5
D1
100
AcDbEntity
  8
ALPHA
100
AcDbLine
 10
142.569679
 20
242.238559
 30
0.0
 11
141.569679
 21
242.238559
 31
0.0
  0
LWPOLYLINE
  5
D2
100
AcDbEntity
  8
ALPHA
100
AcDbPolyline
 90
        6
 70
     0
 43
0.0
 10
152.119679
 20
85.738502
 10
152.046152
 20
85.274631
 10
151.83311
 20
84.856697
 10
151.50154
 20
84.525128
 10
151.083607
 20
84.312085
 10
150.619736
 20
84.238559
  0
LWPOLYLINE
  5
DA
100
AcDbEntity
  8
ALPHA
100
AcDbPolyline
 90
        6
 70
     0
 43
0.0
 10
151.831692
 20
86.026488
 10
151.758166
 20
85.562617
 10
151.545123
 20
85.144684
 10
151.213554
 20
84.813114
 10
150.79562
 20
84.600072
 10
150.331749
 20
84.526545
  0
LWPOLYLINE
  5
E2
100
AcDbEntity
  8
ALPHA
100
AcDbPolyline
 90
       10
 70
     0
 43
0.0
 10
147.123232
 20
219.179763
 10
147.137528
 20
219.111233
 10
147.148813
 20
219.031812
 10
147.152439
 20
218.947736
 10
147.143642
 20
218.86733
 10
147.119216
 20
218.799765
 10
147.079479
 20
218.752056
 10
147.027526
 20
218.725792
 10
146.962617
 20
218.719007
 10
146.881724
 20
218.732957
  0
LWPOLYLINE
  5
EE
100
AcDbEntity
  8
ALPHA
100
AcDbPolyline
 90
        4
 70
     0
 43
0.0
 10
145.116125
 20
222.046208
 10
145.155059
 20
221.88542
 10
145.198912
 20
221.712928
 10
145.24719
 20
221.530203
  0
LINE
  5
F4
100
AcDbEntity
  8
ALPHA
100
AcDbLine
 10
135.165533
 20
216.588559
 30
0.0
 11
135.136666
 21
216.638559
 31
0.0
  0
LWPOLYLINE
  5
F5
100
AcDbEntity
  8
ALPHA
100
AcDbPolyline
 90
        4
 70
     0
 43
0.0
 10
118.892167
 20
225.246914
 10
119.043192
 20
225.190389
 10
119.185919
 20
225.141844
 10
119.317917
 20
225.101771
  0
LINE
  5
FB
100
AcDbEntity
  8
ALPHA
100
AcDbLine
 10
116.069679
 20
229.738559
 30
0.0
 11
148.069679
 21
229.738559
 31
0.0
  0
LINE
  5
FC
100
AcDbEntity
  8
ALPHA
100
AcDbLine
 10
115.569679
 20
229.238559
 30
0.0
 11
148.569679
 21
229.238559
 31
0.0
  0
LINE
  5
FD
100
AcDbEntity
  8
ALPHA
100
AcDbLine
 10
117.257633
 20
228.330949
 30
0.0
 11
146.881724
 21
228.330949
 31
0.0
  0
LINE
  5
FE
100
AcDbEntity
  8
ALPHA
100
AcDbLine
 10
117.257633
 20
228.04416
 30
0.0
 11
146.881724
 21
228.04416
 31
0.0
  0
LINE
  5
FF
100
AcDbEntity
  8
ALPHA
100
AcDbLine
 10
147.123232
 20
227.597355
 30
0.0
 11
147.476785
 21
227.597355
 31
0.0
  0
LINE
  5
100
100
AcDbEntity
  8
ALPHA
100
AcDbLine
 10
117.016125
 20
227.597355
 30
0.0
 11
116.662572
 21
227.597355
 31
0.0
  0
LINE
  5
101
100
AcDbEntity
  8
ALPHA
100
AcDbLine
 10
119.317917
 20
225.101771
 30
0.0
 11
144.82144
 21
225.101771
 31
0.0
  0
LINE
  5
102
100
AcDbEntity
  8
ALPHA
100
AcDbLine
 10
119.169679
 20
224.888559
 30
0.0
 11
144.969679
 21
224.888559
 31
0.0
  0
LINE
  5
103
100
AcDbEntity
  8
ALPHA
100
AcDbLine
 10
119.023232
 20
224.730909
 30
0.0
 11
119.169679
 21
224.730909
 31
0.0
  0
LINE
  5
104
100
AcDbEntity
  8
ALPHA
100
AcDbLine
 10
145.116125
 20
224.730909
 30
0.0
 11
144.969679
 21
224.730909
 31
0.0
  0
LINE
  5
105
100
AcDbEntity
  8
ALPHA
100
AcDbLine
 10
128.469679
 20
223.949753
 30
0.0
 11
126.469679
 21
223.949753
 31
0.0
  0
LINE
  5
106
100
AcDbEntity
  8
ALPHA
100
AcDbLine
 10
137.669679
 20
223.949753
 30
0.0
 11
135.669679
 21
223.949753
 31
0.0
  0
LINE
  5
107
100
AcDbEntity
  8
ALPHA
100
AcDbLine
 10
125.969679
 20
223.773855
 30
0.0
 11
123.969679
 21
223.773855
 31
0.0
  0
LINE
  5
108
100
AcDbEntity
  8
ALPHA
100
AcDbLine
 10
140.169679
 20
223.773855
 30
0.0
 11
138.169679
 21
223.773855
 31
0.0
  0
LINE
  5
109
100
AcDbEntity
  8
ALPHA
100
AcDbLine
 10
128.469679
 20
223.51245
 30
0.0
 11
126.469679
 21
223.51245
 31
0.0
  0
LINE
  5
10A
100
AcDbEntity
  8
ALPHA
100
AcDbLine
 10
137.669679
 20
223.51245
 30
0.0
 11
135.669679
 21
223.51245
 31
0.0
  0
LINE
  5
10B
100
AcDbEntity
  8
ALPHA
100
AcDbLine
 10
125.969679
 20
223.336552
 30
0.0
 11
123.969679
 21
223.336552
 31
0.0
  0
LINE
  5
10C
100
AcDbEntity
  8
ALPHA
100
AcDbLine
 10
140.169679
 20
223.336552
 30
0.0
 11
138.169679
 21
223.336552
 31
0.0
  0
LWPOLYLINE
  5
10D
100
AcDbEntity
  8
ALPHA
100
AcDbPolyline
 90
        5
 70
     0
 43
0.0
 10
154.517272
 20
119.005254
 10
154.541511
 20
120.79029
 10
154.555043
 20
121.368677
 10
154.569156
 20
121.720488
 10
154.583562
 20
121.838559
  0
LWPOLYLINE
  5
114
100
AcDbEntity
  8
ALPHA
100
AcDbPolyline
 90
        6
 70
     0
 43
0.0
 10
153.514507
 20
118.716256
 10
153.537029
 20
120.538027
 10
153.549701
 20
121.168785
 10
153.563005
 20
121.595934
 10
153.576692
 20
121.811516
 10
153.5836
 20
121.838464
  0
LWPOLYLINE
  5
11C
100
AcDbEntity
  8
ALPHA
100
AcDbPolyline
 90
        7
 70
     0
 43
0.0
 10
155.00351
 20
116.491411
 10
155.023149
 20
118.916888
 10
155.035111
 20
119.851441
 10
155.048155
 20
120.571257
 10
155.061989
 20
121.060259
 10
155.076305
 20
121.307521
 10
155.08439
 20
121.338008
  0
LINE
  5
125
100
AcDbEntity
  8
ALPHA
100
AcDbLine
 10
154.498404
 20
116.509992
 30
0.0
 11
154.517272
 21
119.005254
 31
0.0
  0
LINE
  5
126
100
AcDbEntity
  8
ALPHA
100
AcDbLine
 10
153.490753
 20
114.860011
 30
0.0
 11
153.514507
 21
118.716256
 31
0.0
  0
LINE
  5
127
100
AcDbEntity
  8
ALPHA
100
AcDbLine
 10
155.15455
 20
102.688641
 30
0.0
 11
155.176104
 21
106.966776
 31
0.0
  0
LINE
  5
128
100
AcDbEntity
  8
ALPHA
100
AcDbLine
 10
154.987761
 20
111.892928
 30
0.0
 11
155.00351
 21
116.491411
 31
0.0
  0
LINE
  5
129
100
AcDbEntity
  8
ALPHA
100
AcDbLine
 10
154.483365
 20
111.889411
 30
0.0
 11
154.498404
 21
116.509992
 31
0.0
  0
LINE
  5
12A
100
AcDbEntity
  8
ALPHA
100
AcDbLine
 10
153.482373
 20
110.238559
 30
0.0
 11
153.490753
 21
114.860011
 31
0.0
  0
LINE
  5
12B
100
AcDbEntity
  8
ALPHA
100
AcDbLine
 10
155.176104
 20
106.966776
 30
0.0
 11
155.176104
 21
113.510341
 31
0.0
  0
LINE
  5
12C
100
AcDbEntity
  8
ALPHA
100
AcDbLine
 10
154.990982
 20
106.966776
 30
0.0
 11
154.987761
 21
111.892928
 31
0.0
  0
LINE
  5
12D
100
AcDbEntity
  8
ALPHA
100
AcDbLine
 10
154.491482
 20
105.419745
 30
0.0
 11
154.483365
 21
111.889411
 31
0.0
  0
LINE
  5
12E
100
AcDbEntity
  8
ALPHA
100
AcDbLine
 10
155.152808
 20
110.988559
 30
0.0
 11
155.152808
 21
109.488559
 31
0.0
  0
LINE
  5
12F
100
AcDbEntity
  8
ALPHA
100
AcDbLine
 10
155.090088
 20
110.988559
 30
0.0
 11
155.090088
 21
118.175813
 31
0.0
  0
LINE
  5
130
100
AcDbEntity
  8
ALPHA
100
AcDbLine
 10
155.090088
 20
102.301305
 30
0.0
 11
155.090088
 21
109.488559
 31
0.0
  0
LINE
  5
131
100
AcDbEntity
  8
ALPHA
100
AcDbLine
 10
155.076998
 20
110.988559
 30
0.0
 11
155.076998
 21
118.175813
 31
0.0
  0
LINE
  5
132
100
AcDbEntity
  8
ALPHA
100
AcDbLine
 10
155.076998
 20
102.301305
 30
0.0
 11
155.076998
 21
109.488559
 31
0.0
  0
LINE
  5
133
100
AcDbEntity
  8
ALPHA
100
AcDbLine
 10
155.014279
 20
110.988559
 30
0.0
 11
155.014279
 21
109.488559
 31
0.0
  0
LINE
  5
134
100
AcDbEntity
  8
ALPHA
100
AcDbLine
 10
152.119679
 20
85.738502
 30
0.0
 11
152.119679
 21
195.738616
 31
0.0
  0
LINE
  5
135
100
AcDbEntity
  8
ALPHA
100
AcDbLine
 10
151.831692
 20
179.121749
 30
0.0
 11
151.831692
 21
195.450629
 31
0.0
  0
LINE
  5
136
100
AcDbEntity
  8
ALPHA
100
AcDbLine
 10
151.831692
 20
86.026488
 30
0.0
 11
151.831692
 21
97.656141
 31
0.0
  0
LINE
  5
137
100
AcDbEntity
  8
ALPHA
100
AcDbLine
 10
151.619679
 20
98.538559
 30
0.0
 11
151.619679
 21
178.238559
 31
0.0
  0
LINE
  5
138
100
AcDbEntity
  8
ALPHA
100
AcDbLine
 10
150.769679
 20
99.888559
 30
0.0
 11
150.769679
 21
176.888559
 31
0.0
  0
LINE
  5
139
100
AcDbEntity
  8
ALPHA
100
AcDbLine
 10
150.619679
 20
97.038559
 30
0.0
 11
150.619679
 21
97.538559
 31
0.0
  0
LINE
  5
13A
100
AcDbEntity
  8
ALPHA
100
AcDbLine
 10
150.619679
 20
179.738559
 30
0.0
 11
150.619679
 21
179.238559
 31
0.0
  0
LINE
  5
13B
100
AcDbEntity
  8
ALPHA
100
AcDbLine
 10
150.269679
 20
99.888559
 30
0.0
 11
150.269679
 21
176.888559
 31
0.0
  0
LINE
  5
13C
100
AcDbEntity
  8
ALPHA
100
AcDbLine
 10
149.769679
 20
99.888559
 30
0.0
 11
149.769679
 21
176.888559
 31
0.0
  0
LINE
  5
13D
100
AcDbEntity
  8
ALPHA
100
AcDbLine
 10
149.719679
 20
93.248539
 30
0.0
 11
149.719679
 21
88.228579
 31
0.0
  0
LINE
  5
13E
100
AcDbEntity
  8
ALPHA
100
AcDbLine
 10
149.269679
 20
177.388559
 30
0.0
 11
149.269679
 21
178.388559
 31
0.0
  0
LINE
  5
13F
100
AcDbEntity
  8
ALPHA
100
AcDbLine
 10
149.269679
 20
98.388559
 30
0.0
 11
149.269679
 21
99.388559
 31
0.0
  0
LINE
  5
140
100
AcDbEntity
  8
ALPHA
100
AcDbLine
 10
148.819679
 20
191.938559
 30
0.0
 11
148.819679
 21
194.638559
 31
0.0
  0
LINE
  5
141
100
AcDbEntity
  8
ALPHA
100
AcDbLine
 10
148.569679
 20
197.738559
 30
0.0
 11
148.569679
 21
229.238559
 31
0.0
  0
LINE
  5
142
100
AcDbEntity
  8
ALPHA
100
AcDbLine
 10
148.319679
 20
191.938559
 30
0.0
 11
148.319679
 21
194.138559
 31
0.0
  0
LINE
  5
143
100
AcDbEntity
  8
ALPHA
100
AcDbLine
 10
148.169679
 20
99.938559
 30
0.0
 11
148.169679
 21
176.838559
 31
0.0
  0
LINE
  5
144
100
AcDbEntity
  8
ALPHA
100
AcDbLine
 10
148.069679
 20
216.638559
 30
0.0
 11
148.069679
 21
229.738559
 31
0.0
  0
LINE
  5
145
100
AcDbEntity
  8
ALPHA
100
AcDbLine
 10
147.569679
 20
197.738559
 30
0.0
 11
147.569679
 21
216.588559
 31
0.0
  0
LINE
  5
146
100
AcDbEntity
  8
ALPHA
100
AcDbLine
 10
147.569679
 20
176.238559
 30
0.0
 11
147.569679
 21
100.538559
 31
0.0
  0
LINE
  5
147
100
AcDbEntity
  8
ALPHA
100
AcDbLine
 10
147.476785
 20
227.597355
 30
0.0
 11
147.476785
 21
219.179763
 31
0.0
  0
LINE
  5
148
100
AcDbEntity
  8
ALPHA
100
AcDbLine
 10
147.123232
 20
227.597355
 30
0.0
 11
147.123232
 21
219.179763
 31
0.0
  0
LINE
  5
149
100
AcDbEntity
  8
ALPHA
100
AcDbLine
 10
147.069679
 20
179.238559
 30
0.0
 11
147.069679
 21
179.738559
 31
0.0
  0
LINE
  5
14A
100
AcDbEntity
  8
ALPHA
100
AcDbLine
 10
147.069679
 20
97.038559
 30
0.0
 11
147.069679
 21
97.538559
 31
0.0
  0
LINE
  5
14B
100
AcDbEntity
  8
ALPHA
100
AcDbLine
 10
146.881724
 20
228.04416
 30
0.0
 11
146.881724
 21
228.330949
 31
0.0
  0
LINE
  5
14C
100
AcDbEntity
  8
ALPHA
100
AcDbLine
 10
146.881724
 20
218.732957
 30
0.0
 11
146.881724
 21
218.446169
 31
0.0
  0
LINE
  5
14D
100
AcDbEntity
  8
ALPHA
100
AcDbLine
 10
146.644679
 20
216.588559
 30
0.0
 11
146.644679
 21
216.638559
 31
0.0
  0
LINE
  5
14E
100
AcDbEntity
  8
ALPHA
100
AcDbLine
 10
146.419679
 20
216.638559
 30
0.0
 11
146.419679
 21
216.588559
 31
0.0
  0
LINE
  5
14F
100
AcDbEntity
  8
ALPHA
100
AcDbLine
 10
153.490753
 20
105.617106
 30
0.0
 11
153.482373
 21
110.238559
 31
0.0
  0
LINE
  5
150
100
AcDbEntity
  8
ALPHA
100
AcDbLine
 10
155.15455
 20
117.788476
 30
0.0
 11
155.176104
 21
113.510341
 31
0.0
  0
LINE
  5
151
100
AcDbEntity
  8
ALPHA
100
AcDbLine
 10
154.990982
 20
106.966776
 30
0.0
 11
155.012537
 21
102.688641
 31
0.0
  0
LINE
  5
152
100
AcDbEntity
  8
ALPHA
100
AcDbLine
 10
153.514507
 20
101.760862
 30
0.0
 11
153.490753
 21
105.617106
 31
0.0
  0
LINE
  5
153
100
AcDbEntity
  8
ALPHA
100
AcDbLine
 10
154.491482
 20
105.419745
 30
0.0
 11
154.517272
 21
101.471864
 31
0.0
  0
LINE
  5
154
100
AcDbEntity
  8
ALPHA
100
AcDbLine
 10
155.131976
 20
119.851441
 30
0.0
 11
155.15455
 21
117.788476
 31
0.0
  0
LINE
  5
155
100
AcDbEntity
  8
ALPHA
100
AcDbLine
 10
155.012537
 20
102.688641
 30
0.0
 11
155.035111
 21
100.625677
 31
0.0
  0
LINE
  5
156
100
AcDbEntity
  8
ALPHA
100
AcDbLine
 10
153.537029
 20
99.93909
 30
0.0
 11
153.514507
 21
101.760862
 31
0.0
  0
LINE
  5
157
100
AcDbEntity
  8
ALPHA
100
AcDbLine
 10
154.517272
 20
101.471864
 30
0.0
 11
154.541511
 21
99.686828
 31
0.0
  0
LWPOLYLINE
  5
158
100
AcDbEntity
  8
ALPHA
100
AcDbPolyline
 90
        5
 70
     0
 43
0.0
 10
155.035111
 20
100.625677
 10
155.048155
 20
99.90586
 10
155.061989
 20
99.416859
 10
155.076305
 20
99.169597
 10
155.08439
 20
99.13911
  0
LWPOLYLINE
  5
15F
100
AcDbEntity
  8
ALPHA
100
AcDbPolyline
 90
        4
 70
     0
 43
0.0
 10
154.541511
 20
99.686828
 10
154.555043
 20
99.10844
 10
154.569156
 20
98.75663
 10
154.583562
 20
98.638559
  0
LWPOLYLINE
  5
165
100
AcDbEntity
  8
ALPHA
100
AcDbPolyline
 90
       10
 70
     0
 43
0.0
 10
147.476785
 20
227.597355
 10
147.473688
 20
227.689158
 10
147.461025
 20
227.797682
 10
147.43333
 20
227.915925
 10
147.38578
 20
228.033954
 10
147.316568
 20
228.140007
 10
147.229071
 20
228.223967
 10
147.129245
 20
228.282323
 10
147.015028
 20
228.318172
 10
146.881724
 20
228.330949
  0
LWPOLYLINE
  5
171
100
AcDbEntity
  8
ALPHA
100
AcDbPolyline
 90
        5
 70
     0
 43
0.0
 10
155.08439
 20
121.338008
 10
155.090782
 20
121.307521
 10
155.105098
 20
121.060259
 10
155.118932
 20
120.571257
 10
155.131976
 20
119.851441
  0
LWPOLYLINE
  5
178
100
AcDbEntity
  8
ALPHA
100
AcDbPolyline
 90
        6
 70
     0
 43
0.0
 10
140.085704
 20
194.888559
 10
140.132114
 20
194.726649
 10
140.093776
 20
194.582447
 10
139.994026
 20
194.473646
 10
139.860596
 20
194.408923
 10
139.719679
 20
194.388559
  0
LINE
  5
180
100
AcDbEntity
  8
ALPHA
100
AcDbLine
 10
117.257633
 20
228.04416
 30
0.0
 11
119.317917
 21
225.101771
 31
0.0
  0
LINE
  5
181
100
AcDbEntity
  8
ALPHA
100
AcDbLine
 10
117.016125
 20
227.597355
 30
0.0
 11
119.023232
 21
224.730909
 31
0.0
  0
LWPOLYLINE
  5
182
100
AcDbEntity
  8
ALPHA
100
AcDbPolyline
 90
        6
 70
     0
 43
0.0
 10
118.892167
 20
225.246914
 10
118.984979
 20
225.135274
 10
119.061824
 20
225.040639
 10
119.120497
 20
224.966153
 10
119.15742
 20
224.915485
 10
119.169665
 20
224.891247
  0
LINE
  5
18A
100
AcDbEntity
  8
ALPHA
100
AcDbLine
 10
119.023232
 20
222.046208
 30
0.0
 11
119.169679
 21
222.046208
 31
0.0
  0
LINE
  5
18B
100
AcDbEntity
  8
ALPHA
100
AcDbLine
 10
145.116125
 20
222.046208
 30
0.0
 11
144.969679
 21
222.046208
 31
0.0
  0
LINE
  5
18C
100
AcDbEntity
  8
ALPHA
100
AcDbLine
 10
128.469679
 20
222.038559
 30
0.0
 11
126.469679
 21
222.038559
 31
0.0
  0
LINE
  5
18D
100
AcDbEntity
  8
ALPHA
100
AcDbLine
 10
137.669679
 20
222.038559
 30
0.0
 11
135.669679
 21
222.038559
 31
0.0
  0
LINE
  5
18E
100
AcDbEntity
  8
ALPHA
100
AcDbLine
 10
144.969679
 20
221.888559
 30
0.0
 11
119.169679
 21
221.888559
 31
0.0
  0
LINE
  5
18F
100
AcDbEntity
  8
ALPHA
100
AcDbLine
 10
144.82144
 20
221.675347
 30
0.0
 11
119.317917
 21
221.675347
 31
0.0
  0
LINE
  5
190
100
AcDbEntity
  8
ALPHA
100
AcDbLine
 10
147.123232
 20
219.179763
 30
0.0
 11
147.476785
 21
219.179763
 31
0.0
  0
LINE
  5
191
100
AcDbEntity
  8
ALPHA
100
AcDbLine
 10
117.016125
 20
219.179763
 30
0.0
 11
116.662572
 21
219.179763
 31
0.0
  0
LINE
  5
192
100
AcDbEntity
  8
ALPHA
100
AcDbLine
 10
146.881724
 20
218.732957
 30
0.0
 11
117.257633
 21
218.732957
 31
0.0
  0
LINE
  5
193
100
AcDbEntity
  8
ALPHA
100
AcDbLine
 10
146.881724
 20
218.446169
 30
0.0
 11
117.257633
 21
218.446169
 31
0.0
  0
LINE
  5
194
100
AcDbEntity
  8
ALPHA
100
AcDbLine
 10
115.569679
 20
216.638559
 30
0.0
 11
148.569679
 21
216.638559
 31
0.0
  0
LINE
  5
195
100
AcDbEntity
  8
ALPHA
100
AcDbLine
 10
148.569679
 20
216.588559
 30
0.0
 11
115.569679
 21
216.588559
 31
0.0
  0
LINE
  5
196
100
AcDbEntity
  8
ALPHA
100
AcDbLine
 10
55.619622
 20
84.238559
 30
0.0
 11
55.907608
 21
84.526545
 31
0.0
  0
LWPOLYLINE
  5
197
100
AcDbEntity
  8
ALPHA
100
AcDbPolyline
 90
       10
 70
     0
 43
0.0
 10
147.123232
 20
227.597355
 10
147.137528
 20
227.665885
 10
147.148813
 20
227.745306
 10
147.152439
 20
227.829382
 10
147.143642
 20
227.909788
 10
147.119216
 20
227.977353
 10
147.079479
 20
228.025062
 10
147.027526
 20
228.051326
 10
146.962617
 20
228.058111
 10
146.881724
 20
228.04416
  0
LWPOLYLINE
  5
1A3
100
AcDbEntity
  8
ALPHA
100
AcDbPolyline
 90
       10
 70
     0
 43
0.0
 10
147.476785
 20
219.179763
 10
147.473688
 20
219.087959
 10
147.461025
 20
218.979435
 10
147.43333
 20
218.861192
 10
147.38578
 20
218.743164
 10
147.316568
 20
218.637111
 10
147.229071
 20
218.553151
 10
147.129245
 20
218.494794
 10
147.015028
 20
218.458945
 10
146.881724
 20
218.446169
  0
LINE
  5
1AF
100
AcDbEntity
  8
ALPHA
100
AcDbLine
 10
146.310904
 20
194.138559
 30
0.0
 11
146.319679
 21
191.938559
 31
0.0
  0
LINE
  5
1B0
100
AcDbEntity
  8
ALPHA
100
AcDbLine
 10
146.219679
 20
216.638559
 30
0.0
 11
146.219679
 21
216.588559
 31
0.0
  0
LINE
  5
1B1
100
AcDbEntity
  8
ALPHA
100
AcDbLine
 10
146.169679
 20
197.738559
 30
0.0
 11
146.169679
 21
197.080439
 31
0.0
  0
LINE
  5
1B2
100
AcDbEntity
  8
ALPHA
100
AcDbLine
 10
145.319679
 20
192.238559
 30
0.0
 11
145.319679
 21
191.938559
 31
0.0
  0
LINE
  5
1B3
100
AcDbEntity
  8
ALPHA
100
AcDbLine
 10
145.116125
 20
224.730909
 30
0.0
 11
145.116125
 21
222.046208
 31
0.0
  0
LINE
  5
1B4
100
AcDbEntity
  8
ALPHA
100
AcDbLine
 10
144.969679
 20
221.885871
 30
0.0
 11
144.969679
 21
224.891206
 31
0.0
  0
LINE
  5
1B5
100
AcDbEntity
  8
ALPHA
100
AcDbLine
 10
144.82144
 20
221.675347
 30
0.0
 11
144.82144
 21
221.888559
 31
0.0
  0
LINE
  5
1B6
100
AcDbEntity
  8
ALPHA
100
AcDbLine
 10
144.82144
 20
225.101771
 30
0.0
 11
144.82144
 21
224.888559
 31
0.0
  0
LINE
  5
1B7
100
AcDbEntity
  8
ALPHA
100
AcDbLine
 10
144.569679
 20
274.338559
 30
0.0
 11
144.569679
 21
244.238559
 31
0.0
  0
LINE
  5
1B8
100
AcDbEntity
  8
ALPHA
100
AcDbLine
 10
144.419679
 20
88.228579
 30
0.0
 11
144.419679
 21
93.248539
 31
0.0
  0
LINE
  5
1B9
100
AcDbEntity
  8
ALPHA
100
AcDbLine
 10
143.569679
 20
194.138559
 30
0.0
 11
143.569679
 21
192.238559
 31
0.0
  0
LINE
  5
1BA
100
AcDbEntity
  8
ALPHA
100
AcDbLine
 10
143.069679
 20
216.588559
 30
0.0
 11
143.069679
 21
216.63763
 31
0.0
  0
LINE
  5
1BB
100
AcDbEntity
  8
ALPHA
100
AcDbLine
 10
142.069679
 20
195.738559
 30
0.0
 11
142.069679
 21
184.738559
 31
0.0
  0
LINE
  5
1BC
100
AcDbEntity
  8
ALPHA
100
AcDbLine
 10
142.073495
 20
85.742232
 30
0.0
 11
142.073217
 21
92.042232
 31
0.0
  0
LINE
  5
1BD
100
AcDbEntity
  8
ALPHA
100
AcDbLine
 10
141.569679
 20
184.738559
 30
0.0
 11
141.569679
 21
195.738559
 31
0.0
  0
LINE
  5
1BE
100
AcDbEntity
  8
ALPHA
100
AcDbLine
 10
141.569679
 20
92.038559
 30
0.0
 11
141.569679
 21
85.738559
 31
0.0
  0
LINE
  5
1BF
100
AcDbEntity
  8
ALPHA
100
AcDbLine
 10
140.719679
 20
177.388559
 30
0.0
 11
140.719679
 21
194.388559
 31
0.0
  0
LINE
  5
1C0
100
AcDbEntity
  8
ALPHA
100
AcDbLine
 10
140.719679
 20
87.088559
 30
0.0
 11
140.719679
 21
99.388559
 31
0.0
  0
LINE
  5
1C1
100
AcDbEntity
  8
ALPHA
100
AcDbLine
 10
140.569679
 20
250.138559
 30
0.0
 11
140.569679
 21
270.138559
 31
0.0
  0
LINE
  5
1C2
100
AcDbEntity
  8
ALPHA
100
AcDbLine
 10
140.569679
 20
84.238559
 30
0.0
 11
140.569679
 21
84.738559
 31
0.0
  0
LINE
  5
1C3
100
AcDbEntity
  8
ALPHA
100
AcDbLine
 10
140.569679
 20
197.238559
 30
0.0
 11
140.569679
 21
196.738559
 31
0.0
  0
LINE
  5
1C4
100
AcDbEntity
  8
ALPHA
100
AcDbLine
 10
140.219679
 20
178.388559
 30
0.0
 11
140.219679
 21
194.388559
 31
0.0
  0
LINE
  5
1C5
100
AcDbEntity
  8
ALPHA
100
AcDbLine
 10
140.219679
 20
87.088559
 30
0.0
 11
140.219679
 21
98.388559
 31
0.0
  0
LINE
  5
1C6
100
AcDbEntity
  8
ALPHA
100
AcDbLine
 10
140.169679
 20
221.888559
 30
0.0
 11
140.169679
 21
224.888559
 31
0.0
  0
LINE
  5
1C7
100
AcDbEntity
  8
ALPHA
100
AcDbLine
 10
140.169679
 20
216.638559
 30
0.0
 11
140.169679
 21
216.588559
 31
0.0
  0
LINE
  5
1C8
100
AcDbEntity
  8
ALPHA
100
AcDbLine
 10
139.719679
 20
178.388559
 30
0.0
 11
139.719679
 21
194.388559
 31
0.0
  0
LINE
  5
1C9
100
AcDbEntity
  8
ALPHA
100
AcDbLine
 10
139.719679
 20
87.088559
 30
0.0
 11
139.719679
 21
98.388559
 31
0.0
  0
LINE
  5
1CA
100
AcDbEntity
  8
ALPHA
100
AcDbLine
 10
139.569679
 20
322.738559
 30
0.0
 11
139.569679
 21
276.338559
 31
0.0
  0
LINE
  5
1CB
100
AcDbEntity
  8
ALPHA
100
AcDbLine
 10
139.219679
 20
86.088559
 30
0.0
 11
139.219679
 21
85.588559
 31
0.0
  0
LINE
  5
1CC
100
AcDbEntity
  8
ALPHA
100
AcDbLine
 10
139.219679
 20
195.888559
 30
0.0
 11
139.219679
 21
195.388559
 31
0.0
  0
LINE
  5
1CD
100
AcDbEntity
  8
ALPHA
100
AcDbLine
 10
138.169679
 20
221.888559
 30
0.0
 11
138.169679
 21
224.888559
 31
0.0
  0
LINE
  5
1CE
100
AcDbEntity
  8
ALPHA
100
AcDbLine
 10
138.169679
 20
216.588559
 30
0.0
 11
138.169679
 21
216.638559
 31
0.0
  0
LINE
  5
1CF
100
AcDbEntity
  8
ALPHA
100
AcDbLine
 10
138.119679
 20
82.874755
 30
0.0
 11
138.119679
 21
84.174706
 31
0.0
  0
LINE
  5
1D0
100
AcDbEntity
  8
ALPHA
100
AcDbLine
 10
138.069679
 20
243.738559
 30
0.0
 11
138.069679
 21
247.438559
 31
0.0
  0
LINE
  5
1D1
100
AcDbEntity
  8
ALPHA
100
AcDbLine
 10
137.869679
 20
195.388559
 30
0.0
 11
137.869679
 21
195.888559
 31
0.0
  0
LINE
  5
1D2
100
AcDbEntity
  8
ALPHA
100
AcDbLine
 10
137.869679
 20
85.588559
 30
0.0
 11
137.869679
 21
86.088559
 31
0.0
  0
LINE
  5
1D3
100
AcDbEntity
  8
ALPHA
100
AcDbLine
 10
137.669679
 20
221.888559
 30
0.0
 11
137.669679
 21
224.888559
 31
0.0
  0
LINE
  5
1D4
100
AcDbEntity
  8
ALPHA
100
AcDbLine
 10
137.669679
 20
216.638559
 30
0.0
 11
137.669679
 21
216.588559
 31
0.0
  0
LINE
  5
1D5
100
AcDbEntity
  8
ALPHA
100
AcDbLine
 10
137.369679
 20
87.088559
 30
0.0
 11
137.369679
 21
88.538559
 31
0.0
  0
LINE
  5
1D6
100
AcDbEntity
  8
ALPHA
100
AcDbLine
 10
136.869679
 20
87.088559
 30
0.0
 11
136.869679
 21
88.538559
 31
0.0
  0
LINE
  5
1D7
100
AcDbEntity
  8
ALPHA
100
AcDbLine
 10
136.869679
 20
194.388559
 30
0.0
 11
136.869679
 21
186.138559
 31
0.0
  0
LINE
  5
1D8
100
AcDbEntity
  8
ALPHA
100
AcDbLine
 10
136.369679
 20
186.138559
 30
0.0
 11
136.369679
 21
194.388559
 31
0.0
  0
LINE
  5
1D9
100
AcDbEntity
  8
ALPHA
100
AcDbLine
 10
136.369679
 20
88.538559
 30
0.0
 11
136.369679
 21
87.088559
 31
0.0
  0
LWPOLYLINE
  5
1DA
100
AcDbEntity
  8
ALPHA
100
AcDbPolyline
 90
       10
 70
     0
 43
0.0
 10
117.016125
 20
227.597355
 10
117.00183
 20
227.665885
 10
116.990544
 20
227.745306
 10
116.986919
 20
227.829382
 10
116.995715
 20
227.909788
 10
117.020141
 20
227.977353
 10
117.059878
 20
228.025062
 10
117.111832
 20
228.051326
 10
117.17674
 20
228.058111
 10
117.257633
 20
228.04416
  0
LWPOLYLINE
  5
1E6
100
AcDbEntity
  8
ALPHA
100
AcDbPolyline
 90
        4
 70
     0
 43
0.0
 10
119.023232
 20
224.730909
 10
118.984298
 20
224.891698
 10
118.940446
 20
225.06419
 10
118.892167
 20
225.246914
  0
LWPOLYLINE
  5
1EC
100
AcDbEntity
  8
ALPHA
100
AcDbPolyline
 90
        5
 70
     0
 43
0.0
 10
153.5836
 20
98.638653
 10
153.576692
 20
98.665601
 10
153.563005
 20
98.881183
 10
153.549701
 20
99.308332
 10
153.537029
 20
99.93909
  0
LWPOLYLINE
  5
1F3
100
AcDbEntity
  8
ALPHA
100
AcDbPolyline
 90
        6
 70
     0
 43
0.0
 10
150.619736
 20
197.238559
 10
151.083607
 20
197.165032
 10
151.50154
 20
196.95199
 10
151.83311
 20
196.62042
 10
152.046152
 20
196.202487
 10
152.119679
 20
195.738616
  0
LWPOLYLINE
  5
1FB
100
AcDbEntity
  8
ALPHA
100
AcDbPolyline
 90
        6
 70
     0
 43
0.0
 10
150.331749
 20
196.950572
 10
150.79562
 20
196.877046
 10
151.213554
 20
196.664003
 10
151.545123
 20
196.332434
 10
151.758166
 20
195.9145
 10
151.831692
 20
195.450629
  0
LINE
  5
203
100
AcDbEntity
  8
ALPHA
100
AcDbLine
 10
54.119679
 20
85.738502
 30
0.0
 11
54.407665
 21
86.026488
 31
0.0
  0
LINE
  5
204
100
AcDbEntity
  8
ALPHA
100
AcDbLine
 10
152.119679
 20
195.738616
 30
0.0
 11
151.831692
 21
195.450629
 31
0.0
  0
LINE
  5
205
100
AcDbEntity
  8
ALPHA
100
AcDbLine
 10
148.819679
 20
194.638559
 30
0.0
 11
148.319679
 21
194.138559
 31
0.0
  0
LWPOLYLINE
  5
206
100
AcDbEntity
  8
ALPHA
100
AcDbPolyline
 90
        4
 70
     0
 43
0.0
 10
145.116125
 20
224.730909
 10
145.155059
 20
224.891698
 10
145.198912
 20
225.06419
 10
145.24719
 20
225.246914
  0
LWPOLYLINE
  5
20C
100
AcDbEntity
  8
ALPHA
100
AcDbPolyline
 90
        3
 70
     0
 43
0.0
 10
114.119679
 20
84.174707
 10
114.129157
 20
84.235689
 10
114.130686
 20
84.238559
  0
LINE
  5
211
100
AcDbEntity
  8
ALPHA
100
AcDbLine
 10
135.669679
 20
221.888559
 30
0.0
 11
135.669679
 21
224.888559
 31
0.0
  0
LINE
  5
212
100
AcDbEntity
  8
ALPHA
100
AcDbLine
 10
135.669679
 20
216.588559
 30
0.0
 11
135.669679
 21
216.638559
 31
0.0
  0
LINE
  5
213
100
AcDbEntity
  8
ALPHA
100
AcDbLine
 10
135.069679
 20
216.588559
 30
0.0
 11
135.069679
 21
216.638559
 31
0.0
  0
LINE
  5
214
100
AcDbEntity
  8
ALPHA
100
AcDbLine
 10
134.719679
 20
309.588559
 30
0.0
 11
134.719679
 21
314.588559
 31
0.0
  0
LINE
  5
215
100
AcDbEntity
  8
ALPHA
100
AcDbLine
 10
134.719679
 20
289.588559
 30
0.0
 11
134.719679
 21
294.588559
 31
0.0
  0
LINE
  5
216
100
AcDbEntity
  8
ALPHA
100
AcDbLine
 10
133.369679
 20
88.238559
 30
0.0
 11
133.369679
 21
88.838559
 31
0.0
  0
LINE
  5
217
100
AcDbEntity
  8
ALPHA
100
AcDbLine
 10
132.669065
 20
186.94179
 30
0.0
 11
132.669065
 21
189.691438
 31
0.0
  0
LINE
  5
218
100
AcDbEntity
  8
ALPHA
100
AcDbLine
 10
132.669065
 20
182.592143
 30
0.0
 11
132.669065
 21
185.34179
 31
0.0
  0
LINE
  5
219
100
AcDbEntity
  8
ALPHA
100
AcDbLine
 10
132.369679
 20
88.838559
 30
0.0
 11
132.369679
 21
89.838559
 31
0.0
  0
LINE
  5
21A
100
AcDbEntity
  8
ALPHA
100
AcDbLine
 10
132.369679
 20
87.238559
 30
0.0
 11
132.369679
 21
88.238559
 31
0.0
  0
LINE
  5
21B
100
AcDbEntity
  8
ALPHA
100
AcDbLine
 10
131.769679
 20
88.238559
 30
0.0
 11
131.769679
 21
87.238559
 31
0.0
  0
LINE
  5
21C
100
AcDbEntity
  8
ALPHA
100
AcDbLine
 10
131.769679
 20
89.838559
 30
0.0
 11
131.769679
 21
88.838559
 31
0.0
  0
LINE
  5
21D
100
AcDbEntity
  8
ALPHA
100
AcDbLine
 10
131.469065
 20
186.94179
 30
0.0
 11
131.469065
 21
189.691438
 31
0.0
  0
LINE
  5
21E
100
AcDbEntity
  8
ALPHA
100
AcDbLine
 10
131.469065
 20
182.592143
 30
0.0
 11
131.469065
 21
185.34179
 31
0.0
  0
LINE
  5
21F
100
AcDbEntity
  8
ALPHA
100
AcDbLine
 10
130.769679
 20
88.838559
 30
0.0
 11
130.769679
 21
88.238559
 31
0.0
  0
LINE
  5
220
100
AcDbEntity
  8
ALPHA
100
AcDbLine
 10
129.419679
 20
294.588559
 30
0.0
 11
129.419679
 21
289.588559
 31
0.0
  0
LINE
  5
221
100
AcDbEntity
  8
ALPHA
100
AcDbLine
 10
129.419679
 20
314.588559
 30
0.0
 11
129.419679
 21
309.588559
 31
0.0
  0
LINE
  5
222
100
AcDbEntity
  8
ALPHA
100
AcDbLine
 10
129.069679
 20
216.588559
 30
0.0
 11
129.069679
 21
216.638559
 31
0.0
  0
LINE
  5
223
100
AcDbEntity
  8
ALPHA
100
AcDbLine
 10
128.469679
 20
221.888559
 30
0.0
 11
128.469679
 21
224.888559
 31
0.0
  0
LINE
  5
224
100
AcDbEntity
  8
ALPHA
100
AcDbLine
 10
128.469679
 20
216.638559
 30
0.0
 11
128.469679
 21
216.588559
 31
0.0
  0
LINE
  5
225
100
AcDbEntity
  8
ALPHA
100
AcDbLine
 10
127.769679
 20
87.088559
 30
0.0
 11
127.769679
 21
88.538559
 31
0.0
  0
LINE
  5
226
100
AcDbEntity
  8
ALPHA
100
AcDbLine
 10
127.769679
 20
194.388559
 30
0.0
 11
127.769679
 21
186.138559
 31
0.0
  0
LINE
  5
227
100
AcDbEntity
  8
ALPHA
100
AcDbLine
 10
127.269679
 20
87.088559
 30
0.0
 11
127.269679
 21
88.538559
 31
0.0
  0
LINE
  5
228
100
AcDbEntity
  8
ALPHA
100
AcDbLine
 10
127.269679
 20
194.388559
 30
0.0
 11
127.269679
 21
186.138559
 31
0.0
  0
LINE
  5
229
100
AcDbEntity
  8
ALPHA
100
AcDbLine
 10
126.769679
 20
87.088559
 30
0.0
 11
126.769679
 21
88.538559
 31
0.0
  0
LINE
  5
22A
100
AcDbEntity
  8
ALPHA
100
AcDbLine
 10
126.469679
 20
221.888559
 30
0.0
 11
126.469679
 21
224.888559
 31
0.0
  0
LINE
  5
22B
100
AcDbEntity
  8
ALPHA
100
AcDbLine
 10
126.469679
 20
216.588559
 30
0.0
 11
126.469679
 21
216.638559
 31
0.0
  0
LINE
  5
22C
100
AcDbEntity
  8
ALPHA
100
AcDbLine
 10
126.269679
 20
86.088559
 30
0.0
 11
126.269679
 21
85.588559
 31
0.0
  0
LINE
  5
22D
100
AcDbEntity
  8
ALPHA
100
AcDbLine
 10
126.269679
 20
195.888559
 30
0.0
 11
126.269679
 21
195.388559
 31
0.0
  0
LINE
  5
22E
100
AcDbEntity
  8
ALPHA
100
AcDbLine
 10
104.736738
 20
194.341308
 30
0.0
 11
104.853903
 21
194.302218
 31
0.0
  0
LINE
  5
22F
100
AcDbEntity
  8
ALPHA
100
AcDbLine
 10
103.301474
 20
194.341308
 30
0.0
 11
103.418638
 21
194.302218
 31
0.0
  0
LINE
  5
230
100
AcDbEntity
  8
ALPHA
100
AcDbLine
 10
104.883194
 20
194.536765
 30
0.0
 11
104.736738
 21
194.575858
 31
0.0
  0
LINE
  5
231
100
AcDbEntity
  8
ALPHA
100
AcDbLine
 10
103.447929
 20
194.536765
 30
0.0
 11
103.301474
 21
194.575858
 31
0.0
  0
LINE
  5
232
100
AcDbEntity
  8
ALPHA
100
AcDbLine
 10
146.169679
 20
197.108692
 30
0.0
 11
146.319679
 21
197.094565
 31
0.0
  0
LINE
  5
233
100
AcDbEntity
  8
ALPHA
100
AcDbLine
 10
115.569679
 20
197.738559
 30
0.0
 11
148.569679
 21
197.738559
 31
0.0
  0
LINE
  5
234
100
AcDbEntity
  8
ALPHA
100
AcDbLine
 10
140.569679
 20
197.238559
 30
0.0
 11
55.619622
 21
197.238559
 31
0.0
  0
LINE
  5
235
100
AcDbEntity
  8
ALPHA
100
AcDbLine
 10
150.619736
 20
197.238559
 30
0.0
 11
146.169679
 21
197.238559
 31
0.0
  0
LINE
  5
236
100
AcDbEntity
  8
ALPHA
100
AcDbLine
 10
55.907608
 20
196.950572
 30
0.0
 11
64.786489
 21
196.950572
 31
0.0
  0
LINE
  5
237
100
AcDbEntity
  8
ALPHA
100
AcDbLine
 10
150.331749
 20
196.950572
 30
0.0
 11
141.452869
 21
196.950572
 31
0.0
  0
LINE
  5
238
100
AcDbEntity
  8
ALPHA
100
AcDbLine
 10
140.569679
 20
196.738559
 30
0.0
 11
65.669679
 21
196.738559
 31
0.0
  0
LINE
  5
239
100
AcDbEntity
  8
ALPHA
100
AcDbLine
 10
126.269679
 20
195.888559
 30
0.0
 11
67.019679
 21
195.888559
 31
0.0
  0
LINE
  5
23A
100
AcDbEntity
  8
ALPHA
100
AcDbLine
 10
139.219679
 20
195.888559
 30
0.0
 11
137.869679
 21
195.888559
 31
0.0
  0
LINE
  5
23B
100
AcDbEntity
  8
ALPHA
100
AcDbLine
 10
64.169679
 20
195.738559
 30
0.0
 11
64.669679
 21
195.738559
 31
0.0
  0
LINE
  5
23C
100
AcDbEntity
  8
ALPHA
100
AcDbLine
 10
142.069679
 20
195.738559
 30
0.0
 11
141.569679
 21
195.738559
 31
0.0
  0
LINE
  5
23D
100
AcDbEntity
  8
ALPHA
100
AcDbLine
 10
67.019679
 20
195.388559
 30
0.0
 11
126.269679
 21
195.388559
 31
0.0
  0
LINE
  5
23E
100
AcDbEntity
  8
ALPHA
100
AcDbLine
 10
139.219679
 20
195.388559
 30
0.0
 11
137.869679
 21
195.388559
 31
0.0
  0
LINE
  5
23F
100
AcDbEntity
  8
ALPHA
100
AcDbLine
 10
108.016125
 20
194.888559
 30
0.0
 11
99.723232
 21
194.888559
 31
0.0
  0
LINE
  5
240
100
AcDbEntity
  8
ALPHA
100
AcDbLine
 10
148.819679
 20
194.638559
 30
0.0
 11
142.069679
 21
194.638559
 31
0.0
  0
LINE
  5
241
100
AcDbEntity
  8
ALPHA
100
AcDbLine
 10
101.485425
 20
194.575858
 30
0.0
 11
101.309679
 21
194.575858
 31
0.0
  0
LINE
  5
242
100
AcDbEntity
  8
ALPHA
100
AcDbLine
 10
103.301474
 20
194.575858
 30
0.0
 11
103.067145
 21
194.575858
 31
0.0
  0
LINE
  5
243
100
AcDbEntity
  8
ALPHA
100
AcDbLine
 10
104.736738
 20
194.575858
 30
0.0
 11
104.473118
 21
194.575858
 31
0.0
  0
LINE
  5
244
100
AcDbEntity
  8
ALPHA
100
AcDbLine
 10
105.556889
 20
194.575858
 30
0.0
 11
105.381143
 21
194.575858
 31
0.0
  0
LINE
  5
245
100
AcDbEntity
  8
ALPHA
100
AcDbLine
 10
106.435622
 20
194.575858
 30
0.0
 11
106.201293
 21
194.575858
 31
0.0
  0
LINE
  5
246
100
AcDbEntity
  8
ALPHA
100
AcDbLine
 10
139.719679
 20
194.388559
 30
0.0
 11
140.719679
 21
194.388559
 31
0.0
  0
LINE
  5
247
100
AcDbEntity
  8
ALPHA
100
AcDbLine
 10
136.369679
 20
194.388559
 30
0.0
 11
136.869679
 21
194.388559
 31
0.0
  0
LINE
  5
248
100
AcDbEntity
  8
ALPHA
100
AcDbLine
 10
127.269679
 20
194.388559
 30
0.0
 11
127.769679
 21
194.388559
 31
0.0
  0
LINE
  5
249
100
AcDbEntity
  8
ALPHA
100
AcDbLine
 10
65.519679
 20
194.388559
 30
0.0
 11
66.519679
 21
194.388559
 31
0.0
  0
LINE
  5
24A
100
AcDbEntity
  8
ALPHA
100
AcDbLine
 10
99.369679
 20
194.388559
 30
0.0
 11
66.519679
 21
194.388559
 31
0.0
  0
LINE
  5
24B
100
AcDbEntity
  8
ALPHA
100
AcDbLine
 10
127.269679
 20
194.388559
 30
0.0
 11
108.369679
 21
194.388559
 31
0.0
  0
LINE
  5
24C
100
AcDbEntity
  8
ALPHA
100
AcDbLine
 10
139.719679
 20
194.388559
 30
0.0
 11
136.869679
 21
194.388559
 31
0.0
  0
LINE
  5
24D
100
AcDbEntity
  8
ALPHA
100
AcDbLine
 10
104.473118
 20
194.341308
 30
0.0
 11
104.736738
 21
194.341308
 31
0.0
  0
LINE
  5
24E
100
AcDbEntity
  8
ALPHA
100
AcDbLine
 10
103.067145
 20
194.341308
 30
0.0
 11
103.301474
 21
194.341308
 31
0.0
  0
LINE
  5
24F
100
AcDbEntity
  8
ALPHA
100
AcDbLine
 10
148.319679
 20
194.138559
 30
0.0
 11
142.069679
 21
194.138559
 31
0.0
  0
LINE
  5
250
100
AcDbEntity
  8
ALPHA
100
AcDbLine
 10
104.971067
 20
194.106761
 30
0.0
 11
105.146814
 21
194.106761
 31
0.0
  0
LINE
  5
251
100
AcDbEntity
  8
ALPHA
100
AcDbLine
 10
105.146814
 20
193.207656
 30
0.0
 11
104.971067
 21
193.207656
 31
0.0
  0
LINE
  5
252
100
AcDbEntity
  8
ALPHA
100
AcDbLine
 10
102.364159
 20
192.973109
 30
0.0
 11
101.485425
 21
192.973109
 31
0.0
  0
LINE
  5
253
100
AcDbEntity
  8
ALPHA
100
AcDbLine
 10
103.301474
 20
192.973109
 30
0.0
 11
103.067145
 21
192.973109
 31
0.0
  0
LINE
  5
254
100
AcDbEntity
  8
ALPHA
100
AcDbLine
 10
104.736738
 20
192.973109
 30
0.0
 11
104.473118
 21
192.973109
 31
0.0
  0
LINE
  5
255
100
AcDbEntity
  8
ALPHA
100
AcDbLine
 10
106.201293
 20
192.738559
 30
0.0
 11
106.435622
 21
192.738559
 31
0.0
  0
LINE
  5
256
100
AcDbEntity
  8
ALPHA
100
AcDbLine
 10
105.381143
 20
192.738559
 30
0.0
 11
105.556889
 21
192.738559
 31
0.0
  0
LINE
  5
257
100
AcDbEntity
  8
ALPHA
100
AcDbLine
 10
104.473118
 20
192.738559
 30
0.0
 11
104.736738
 21
192.738559
 31
0.0
  0
LINE
  5
258
100
AcDbEntity
  8
ALPHA
100
AcDbLine
 10
103.067145
 20
192.738559
 30
0.0
 11
103.301474
 21
192.738559
 31
0.0
  0
LINE
  5
259
100
AcDbEntity
  8
ALPHA
100
AcDbLine
 10
101.309679
 20
192.738559
 30
0.0
 11
102.364159
 21
192.738559
 31
0.0
  0
LINE
  5
25A
100
AcDbEntity
  8
ALPHA
100
AcDbLine
 10
144.185195
 20
197.029098
 30
0.0
 11
141.355586
 21
197.000882
 31
0.0
  0
LWPOLYLINE
  5
25B
100
AcDbEntity
  8
ALPHA
100
AcDbPolyline
 90
        4
 70
     0
 43
0.0
 10
146.319679
 20
197.094565
 10
146.077034
 20
197.071714
 10
145.357368
 20
197.049641
 10
144.185195
 20
197.029098
  0
LINE
  5
261
100
AcDbEntity
  8
ALPHA
100
AcDbLine
 10
103.067145
 20
194.575858
 30
0.0
 11
102.92069
 21
194.536765
 31
0.0
  0
LINE
  5
262
100
AcDbEntity
  8
ALPHA
100
AcDbLine
 10
104.473118
 20
194.575858
 30
0.0
 11
104.326663
 21
194.536765
 31
0.0
  0
LINE
  5
263
100
AcDbEntity
  8
ALPHA
100
AcDbLine
 10
103.301474
 20
192.738559
 30
0.0
 11
103.447929
 21
192.777652
 31
0.0
  0
LINE
  5
264
100
AcDbEntity
  8
ALPHA
100
AcDbLine
 10
150.619736
 20
197.238559
 30
0.0
 11
150.331749
 21
196.950572
 31
0.0
  0
LINE
  5
265
100
AcDbEntity
  8
ALPHA
100
AcDbLine
 10
126.069679
 20
247.438559
 30
0.0
 11
126.069679
 21
243.738559
 31
0.0
  0
LINE
  5
266
100
AcDbEntity
  8
ALPHA
100
AcDbLine
 10
125.969679
 20
221.888559
 30
0.0
 11
125.969679
 21
224.888559
 31
0.0
  0
LINE
  5
267
100
AcDbEntity
  8
ALPHA
100
AcDbLine
 10
125.969679
 20
216.638559
 30
0.0
 11
125.969679
 21
216.588559
 31
0.0
  0
LINE
  5
268
100
AcDbEntity
  8
ALPHA
100
AcDbLine
 10
124.569679
 20
322.738559
 30
0.0
 11
124.569679
 21
276.338559
 31
0.0
  0
LINE
  5
269
100
AcDbEntity
  8
ALPHA
100
AcDbLine
 10
123.969679
 20
221.888559
 30
0.0
 11
123.969679
 21
224.888559
 31
0.0
  0
LINE
  5
26A
100
AcDbEntity
  8
ALPHA
100
AcDbLine
 10
123.969679
 20
216.588559
 30
0.0
 11
123.969679
 21
216.638559
 31
0.0
  0
LINE
  5
26B
100
AcDbEntity
  8
ALPHA
100
AcDbLine
 10
123.569679
 20
270.138559
 30
0.0
 11
123.569679
 21
250.138559
 31
0.0
  0
LINE
  5
26C
100
AcDbEntity
  8
ALPHA
100
AcDbLine
 10
121.069679
 20
216.588559
 30
0.0
 11
121.069679
 21
216.63763
 31
0.0
  0
LINE
  5
26D
100
AcDbEntity
  8
ALPHA
100
AcDbLine
 10
119.569679
 20
274.338559
 30
0.0
 11
119.569679
 21
244.238559
 31
0.0
  0
LINE
  5
26E
100
AcDbEntity
  8
ALPHA
100
AcDbLine
 10
119.317917
 20
221.675347
 30
0.0
 11
119.317917
 21
221.888559
 31
0.0
  0
LINE
  5
26F
100
AcDbEntity
  8
ALPHA
100
AcDbLine
 10
119.317917
 20
225.101771
 30
0.0
 11
119.317917
 21
224.888559
 31
0.0
  0
LINE
  5
270
100
AcDbEntity
  8
ALPHA
100
AcDbLine
 10
119.169679
 20
221.885912
 30
0.0
 11
119.169679
 21
224.891247
 31
0.0
  0
LINE
  5
271
100
AcDbEntity
  8
ALPHA
100
AcDbLine
 10
119.023232
 20
222.046208
 30
0.0
 11
119.023232
 21
224.730909
 31
0.0
  0
LINE
  5
272
100
AcDbEntity
  8
ALPHA
100
AcDbLine
 10
117.969679
 20
197.738559
 30
0.0
 11
117.969679
 21
197.238559
 31
0.0
  0
LINE
  5
273
100
AcDbEntity
  8
ALPHA
100
AcDbLine
 10
117.919679
 20
216.638559
 30
0.0
 11
117.919679
 21
216.588559
 31
0.0
  0
LINE
  5
274
100
AcDbEntity
  8
ALPHA
100
AcDbLine
 10
117.719679
 20
216.638559
 30
0.0
 11
117.719679
 21
216.588559
 31
0.0
  0
LINE
  5
275
100
AcDbEntity
  8
ALPHA
100
AcDbLine
 10
117.494679
 20
216.588559
 30
0.0
 11
117.494679
 21
216.638559
 31
0.0
  0
LINE
  5
276
100
AcDbEntity
  8
ALPHA
100
AcDbLine
 10
117.257633
 20
228.04416
 30
0.0
 11
117.257633
 21
228.330949
 31
0.0
  0
LINE
  5
277
100
AcDbEntity
  8
ALPHA
100
AcDbLine
 10
117.257633
 20
218.732957
 30
0.0
 11
117.257633
 21
218.446169
 31
0.0
  0
LINE
  5
278
100
AcDbEntity
  8
ALPHA
100
AcDbLine
 10
117.016125
 20
219.179763
 30
0.0
 11
117.016125
 21
227.597355
 31
0.0
  0
LINE
  5
279
100
AcDbEntity
  8
ALPHA
100
AcDbLine
 10
116.662572
 20
219.179763
 30
0.0
 11
116.662572
 21
227.597355
 31
0.0
  0
LINE
  5
27A
100
AcDbEntity
  8
ALPHA
100
AcDbLine
 10
116.569679
 20
197.738559
 30
0.0
 11
116.569679
 21
216.588559
 31
0.0
  0
LWPOLYLINE
  5
27B
100
AcDbEntity
  8
ALPHA
100
AcDbPolyline
 90
       10
 70
     0
 43
0.0
 10
116.662572
 20
219.179763
 10
116.66567
 20
219.087959
 10
116.678332
 20
218.979435
 10
116.706027
 20
218.861192
 10
116.753577
 20
218.743164
 10
116.822789
 20
218.637111
 10
116.910286
 20
218.553151
 10
117.010113
 20
218.494794
 10
117.124329
 20
218.458945
 10
117.257633
 20
218.446169
  0
LINE
  5
287
100
AcDbEntity
  8
ALPHA
100
AcDbLine
 10
105.146814
 20
194.106761
 30
0.0
 11
105.117523
 21
194.302218
 31
0.0
  0
LINE
  5
288
100
AcDbEntity
  8
ALPHA
100
AcDbLine
 10
104.209498
 20
193.207656
 30
0.0
 11
104.180207
 21
193.36402
 31
0.0
  0
LINE
  5
289
100
AcDbEntity
  8
ALPHA
100
AcDbLine
 10
103.565094
 20
194.106761
 30
0.0
 11
103.594385
 21
193.950393
 31
0.0
  0
LINE
  5
28A
100
AcDbEntity
  8
ALPHA
100
AcDbLine
 10
104.941776
 20
194.224032
 30
0.0
 11
104.971067
 21
194.106761
 31
0.0
  0
LWPOLYLINE
  5
28B
100
AcDbEntity
  8
ALPHA
100
AcDbPolyline
 90
        3
 70
     0
 43
0.0
 10
138.106317
 20
84.238559
 10
138.118659
 20
84.194919
 10
138.119679
 20
84.174704
  0
LWPOLYLINE
  5
290
100
AcDbEntity
  8
ALPHA
100
AcDbPolyline
 90
        6
 70
     0
 43
0.0
 10
137.003653
 20
86.588559
 10
136.957243
 20
86.750468
 10
136.995581
 20
86.894671
 10
137.095331
 20
87.003471
 10
137.228761
 20
87.068195
 10
137.369679
 20
87.088559
  0
LINE
  5
298
100
AcDbEntity
  8
ALPHA
100
AcDbLine
 10
103.740841
 20
194.14585
 30
0.0
 11
103.682258
 21
194.302218
 31
0.0
  0
LINE
  5
299
100
AcDbEntity
  8
ALPHA
100
AcDbLine
 10
104.033752
 20
193.168563
 30
0.0
 11
104.092334
 21
193.012198
 31
0.0
  0
LINE
  5
29A
100
AcDbEntity
  8
ALPHA
100
AcDbLine
 10
102.627778
 20
193.168563
 30
0.0
 11
102.686361
 21
193.012198
 31
0.0
  0
LINE
  5
29B
100
AcDbEntity
  8
ALPHA
100
AcDbLine
 10
106.435622
 20
192.738559
 30
0.0
 11
105.908382
 21
193.833117
 31
0.0
  0
LINE
  5
29C
100
AcDbEntity
  8
ALPHA
100
AcDbLine
 10
105.761927
 20
193.637664
 30
0.0
 11
106.201293
 21
192.738559
 31
0.0
  0
LINE
  5
29D
100
AcDbEntity
  8
ALPHA
100
AcDbLine
 10
104.26808
 20
193.090381
 30
0.0
 11
104.209498
 21
193.207656
 31
0.0
  0
LINE
  5
29E
100
AcDbEntity
  8
ALPHA
100
AcDbLine
 10
103.506512
 20
194.224032
 30
0.0
 11
103.565094
 21
194.106761
 31
0.0
  0
LINE
  5
29F
100
AcDbEntity
  8
ALPHA
100
AcDbLine
 10
102.862107
 20
193.090381
 30
0.0
 11
102.803525
 21
193.207656
 31
0.0
  0
LWPOLYLINE
  5
2A0
100
AcDbEntity
  8
ALPHA
100
AcDbPolyline
 90
        6
 70
     0
 43
0.0
 10
108.016125
 20
194.888559
 10
107.922714
 20
195.046145
 10
107.875606
 20
195.183644
 10
107.875606
 20
195.292198
 10
107.922714
 20
195.363076
 10
108.016125
 20
195.388559
  0
LINE
  5
2A8
100
AcDbEntity
  8
ALPHA
100
AcDbLine
 10
108.016125
 20
194.888559
 30
0.0
 11
108.369679
 21
194.388559
 31
0.0
  0
LINE
  5
2A9
100
AcDbEntity
  8
ALPHA
100
AcDbLine
 10
105.117523
 20
194.302218
 30
0.0
 11
105.000358
 21
194.458583
 31
0.0
  0
LINE
  5
2AA
100
AcDbEntity
  8
ALPHA
100
AcDbLine
 10
103.682258
 20
194.302218
 30
0.0
 11
103.565094
 21
194.458583
 31
0.0
  0
LINE
  5
2AB
100
AcDbEntity
  8
ALPHA
100
AcDbLine
 10
104.092334
 20
193.012198
 30
0.0
 11
104.209498
 21
192.855834
 31
0.0
  0
LINE
  5
2AC
100
AcDbEntity
  8
ALPHA
100
AcDbLine
 10
102.686361
 20
193.012198
 30
0.0
 11
102.803525
 21
192.855834
 31
0.0
  0
LINE
  5
2AD
100
AcDbEntity
  8
ALPHA
100
AcDbLine
 10
104.853903
 20
194.302218
 30
0.0
 11
104.941776
 21
194.224032
 31
0.0
  0
LINE
  5
2AE
100
AcDbEntity
  8
ALPHA
100
AcDbLine
 10
103.418638
 20
194.302218
 30
0.0
 11
103.506512
 21
194.224032
 31
0.0
  0
LINE
  5
2AF
100
AcDbEntity
  8
ALPHA
100
AcDbLine
 10
104.355954
 20
193.012198
 30
0.0
 11
104.26808
 21
193.090381
 31
0.0
  0
LINE
  5
2B0
100
AcDbEntity
  8
ALPHA
100
AcDbLine
 10
102.949981
 20
193.012198
 30
0.0
 11
102.862107
 21
193.090381
 31
0.0
  0
LINE
  5
2B1
100
AcDbEntity
  8
ALPHA
100
AcDbLine
 10
105.000358
 20
194.458583
 30
0.0
 11
104.883194
 21
194.536765
 31
0.0
  0
LINE
  5
2B2
100
AcDbEntity
  8
ALPHA
100
AcDbLine
 10
103.565094
 20
194.458583
 30
0.0
 11
103.447929
 21
194.536765
 31
0.0
  0
LINE
  5
2B3
100
AcDbEntity
  8
ALPHA
100
AcDbLine
 10
104.209498
 20
192.855834
 30
0.0
 11
104.326663
 21
192.777652
 31
0.0
  0
LINE
  5
2B4
100
AcDbEntity
  8
ALPHA
100
AcDbLine
 10
102.803525
 20
192.855834
 30
0.0
 11
102.92069
 21
192.777652
 31
0.0
  0
LINE
  5
2B5
100
AcDbEntity
  8
ALPHA
100
AcDbLine
 10
104.473118
 20
192.973109
 30
0.0
 11
104.355954
 21
193.012198
 31
0.0
  0
LINE
  5
2B6
100
AcDbEntity
  8
ALPHA
100
AcDbLine
 10
103.067145
 20
192.973109
 30
0.0
 11
102.949981
 21
193.012198
 31
0.0
  0
LINE
  5
2B7
100
AcDbEntity
  8
ALPHA
100
AcDbLine
 10
104.326663
 20
192.777652
 30
0.0
 11
104.473118
 21
192.738559
 31
0.0
  0
LINE
  5
2B8
100
AcDbEntity
  8
ALPHA
100
AcDbLine
 10
102.92069
 20
192.777652
 30
0.0
 11
103.067145
 21
192.738559
 31
0.0
  0
LWPOLYLINE
  5
2B9
100
AcDbEntity
  8
ALPHA
100
AcDbPolyline
 90
        6
 70
     0
 43
0.0
 10
66.519679
 20
194.388559
 10
66.378764
 20
194.408924
 10
66.245337
 20
194.473647
 10
66.145583
 20
194.582442
 10
66.107243
 20
194.726644
 10
66.153653
 20
194.888559
  0
LINE
  5
2C1
100
AcDbEntity
  8
ALPHA
100
AcDbLine
 10
142.069679
 20
192.238559
 30
0.0
 11
146.319679
 21
192.238559
 31
0.0
  0
LINE
  5
2C2
100
AcDbEntity
  8
ALPHA
100
AcDbLine
 10
142.069679
 20
191.938559
 30
0.0
 11
148.819679
 21
191.938559
 31
0.0
  0
LINE
  5
2C3
100
AcDbEntity
  8
ALPHA
100
AcDbLine
 10
92.989679
 20
191.838559
 30
0.0
 11
70.269679
 21
191.838559
 31
0.0
  0
LINE
  5
2C4
100
AcDbEntity
  8
ALPHA
100
AcDbLine
 10
70.869679
 20
191.238559
 30
0.0
 11
92.369679
 21
191.238559
 31
0.0
  0
LINE
  5
2C5
100
AcDbEntity
  8
ALPHA
100
AcDbLine
 10
132.869065
 20
186.74179
 30
0.0
 11
135.618713
 21
186.74179
 31
0.0
  0
LINE
  5
2C6
100
AcDbEntity
  8
ALPHA
100
AcDbLine
 10
128.519417
 20
186.74179
 30
0.0
 11
131.269065
 21
186.74179
 31
0.0
  0
LINE
  5
2C7
100
AcDbEntity
  8
ALPHA
100
AcDbLine
 10
136.369679
 20
186.138559
 30
0.0
 11
136.869679
 21
186.138559
 31
0.0
  0
LINE
  5
2C8
100
AcDbEntity
  8
ALPHA
100
AcDbLine
 10
127.769679
 20
186.138559
 30
0.0
 11
127.269679
 21
186.138559
 31
0.0
  0
LINE
  5
2C9
100
AcDbEntity
  8
ALPHA
100
AcDbLine
 10
132.869065
 20
185.54179
 30
0.0
 11
135.618713
 21
185.54179
 31
0.0
  0
LINE
  5
2CA
100
AcDbEntity
  8
ALPHA
100
AcDbLine
 10
128.519417
 20
185.54179
 30
0.0
 11
131.269065
 21
185.54179
 31
0.0
  0
LINE
  5
2CB
100
AcDbEntity
  8
ALPHA
100
AcDbLine
 10
64.669679
 20
184.738559
 30
0.0
 11
64.169679
 21
184.738559
 31
0.0
  0
LINE
  5
2CC
100
AcDbEntity
  8
ALPHA
100
AcDbLine
 10
142.069679
 20
184.738559
 30
0.0
 11
141.569679
 21
184.738559
 31
0.0
  0
LINE
  5
2CD
100
AcDbEntity
  8
ALPHA
100
AcDbLine
 10
104.736738
 20
192.738559
 30
0.0
 11
104.883194
 21
192.777652
 31
0.0
  0
LWPOLYLINE
  5
2CE
100
AcDbEntity
  8
ALPHA
100
AcDbPolyline
 90
        6
 70
     0
 43
0.0
 10
145.24719
 20
225.246914
 10
145.154517
 20
225.135449
 10
145.077944
 20
225.041173
 10
145.019254
 20
224.966677
 10
144.982103
 20
224.915723
 10
144.969679
 20
224.891206
  0
LINE
  5
2D6
100
AcDbEntity
  8
ALPHA
100
AcDbLine
 10
147.123232
 20
227.597355
 30
0.0
 11
145.116125
 21
224.730909
 31
0.0
  0
LINE
  5
2D7
100
AcDbEntity
  8
ALPHA
100
AcDbLine
 10
146.881724
 20
228.04416
 30
0.0
 11
144.82144
 21
225.101771
 31
0.0
  0
LINE
  5
2D8
100
AcDbEntity
  8
ALPHA
100
AcDbLine
 10
129.002691
 20
216.638559
 30
0.0
 11
128.973824
 21
216.588559
 31
0.0
  0
LWPOLYLINE
  5
2D9
100
AcDbEntity
  8
ALPHA
100
AcDbPolyline
 90
        4
 70
     0
 43
0.0
 10
119.023232
 20
222.046208
 10
118.984298
 20
221.88542
 10
118.940446
 20
221.712928
 10
118.892167
 20
221.530203
  0
LWPOLYLINE
  5
2DF
100
AcDbEntity
  8
ALPHA
100
AcDbPolyline
 90
       10
 70
     0
 43
0.0
 10
117.016125
 20
219.179763
 10
117.00183
 20
219.111233
 10
116.990544
 20
219.031812
 10
116.986919
 20
218.947736
 10
116.995715
 20
218.86733
 10
117.020141
 20
218.799765
 10
117.059878
 20
218.752056
 10
117.111832
 20
218.725792
 10
117.17674
 20
218.719007
 10
117.257633
 20
218.732957
  0
LWPOLYLINE
  5
2EB
100
AcDbEntity
  8
ALPHA
100
AcDbPolyline
 90
       10
 70
     0
 43
0.0
 10
116.662572
 20
227.597355
 10
116.66567
 20
227.689158
 10
116.678332
 20
227.797682
 10
116.706027
 20
227.915925
 10
116.753577
 20
228.033954
 10
116.822789
 20
228.140007
 10
116.910286
 20
228.223967
 10
117.010113
 20
228.282323
 10
117.124329
 20
228.318172
 10
117.257633
 20
228.330949
  0
LINE
  5
2F7
100
AcDbEntity
  8
ALPHA
100
AcDbLine
 10
116.069679
 20
216.638559
 30
0.0
 11
116.069679
 21
229.738559
 31
0.0
  0
LINE
  5
2F8
100
AcDbEntity
  8
ALPHA
100
AcDbLine
 10
115.569679
 20
197.738559
 30
0.0
 11
115.569679
 21
229.238559
 31
0.0
  0
LINE
  5
2F9
100
AcDbEntity
  8
ALPHA
100
AcDbLine
 10
114.119679
 20
82.874755
 30
0.0
 11
114.119679
 21
84.174706
 31
0.0
  0
LINE
  5
2FA
100
AcDbEntity
  8
ALPHA
100
AcDbLine
 10
111.58962
 20
180.338559
 30
0.0
 11
111.58962
 21
179.138559
 31
0.0
  0
LINE
  5
2FB
100
AcDbEntity
  8
ALPHA
100
AcDbLine
 10
108.369679
 20
194.388559
 30
0.0
 11
108.369679
 21
195.388559
 31
0.0
  0
LINE
  5
2FC
100
AcDbEntity
  8
ALPHA
100
AcDbLine
 10
107.969679
 20
162.238559
 30
0.0
 11
107.969679
 21
168.226751
 31
0.0
  0
LINE
  5
2FD
100
AcDbEntity
  8
ALPHA
100
AcDbLine
 10
106.969679
 20
167.908366
 30
0.0
 11
106.969679
 21
163.738559
 31
0.0
  0
LINE
  5
2FE
100
AcDbEntity
  8
ALPHA
100
AcDbLine
 10
104.004461
 20
193.36402
 30
0.0
 11
104.033752
 21
193.168563
 31
0.0
  0
LINE
  5
2FF
100
AcDbEntity
  8
ALPHA
100
AcDbLine
 10
103.770132
 20
193.950393
 30
0.0
 11
103.740841
 21
194.14585
 31
0.0
  0
LINE
  5
300
100
AcDbEntity
  8
ALPHA
100
AcDbLine
 10
102.598487
 20
193.36402
 30
0.0
 11
102.627778
 21
193.168563
 31
0.0
  0
LINE
  5
301
100
AcDbEntity
  8
ALPHA
100
AcDbLine
 10
102.803525
 20
193.207656
 30
0.0
 11
102.774234
 21
193.36402
 31
0.0
  0
LINE
  5
302
100
AcDbEntity
  8
ALPHA
100
AcDbLine
 10
155.090088
 20
102.301305
 30
0.0
 11
155.076998
 21
102.318287
 31
0.0
  0
LINE
  5
303
100
AcDbEntity
  8
ALPHA
100
AcDbLine
 10
155.084389
 20
121.338136
 30
0.0
 11
154.584446
 21
121.838117
 31
0.0
  0
LINE
  5
304
100
AcDbEntity
  8
ALPHA
100
AcDbLine
 10
96.149737
 20
180.338559
 30
0.0
 11
111.58962
 21
180.338559
 31
0.0
  0
LINE
  5
305
100
AcDbEntity
  8
ALPHA
100
AcDbLine
 10
59.169679
 20
179.738559
 30
0.0
 11
55.619679
 21
179.738559
 31
0.0
  0
LINE
  5
306
100
AcDbEntity
  8
ALPHA
100
AcDbLine
 10
150.619679
 20
179.738559
 30
0.0
 11
147.069679
 21
179.738559
 31
0.0
  0
LINE
  5
307
100
AcDbEntity
  8
ALPHA
100
AcDbLine
 10
59.169679
 20
179.238559
 30
0.0
 11
55.619679
 21
179.238559
 31
0.0
  0
LINE
  5
308
100
AcDbEntity
  8
ALPHA
100
AcDbLine
 10
150.619679
 20
179.238559
 30
0.0
 11
147.069679
 21
179.238559
 31
0.0
  0
LINE
  5
309
100
AcDbEntity
  8
ALPHA
100
AcDbLine
 10
96.149737
 20
179.138559
 30
0.0
 11
111.58962
 21
179.138559
 31
0.0
  0
LINE
  5
30A
100
AcDbEntity
  8
ALPHA
100
AcDbLine
 10
139.719679
 20
178.388559
 30
0.0
 11
149.269679
 21
178.388559
 31
0.0
  0
LINE
  5
30B
100
AcDbEntity
  8
ALPHA
100
AcDbLine
 10
54.119679
 20
178.238559
 30
0.0
 11
54.619679
 21
178.238559
 31
0.0
  0
LINE
  5
30C
100
AcDbEntity
  8
ALPHA
100
AcDbLine
 10
152.119679
 20
178.238559
 30
0.0
 11
151.619679
 21
178.238559
 31
0.0
  0
LINE
  5
30D
100
AcDbEntity
  8
ALPHA
100
AcDbLine
 10
149.269679
 20
177.888559
 30
0.0
 11
140.719679
 21
177.888559
 31
0.0
  0
LINE
  5
30E
100
AcDbEntity
  8
ALPHA
100
AcDbLine
 10
149.269679
 20
177.388559
 30
0.0
 11
140.719679
 21
177.388559
 31
0.0
  0
LINE
  5
30F
100
AcDbEntity
  8
ALPHA
100
AcDbLine
 10
149.769679
 20
176.888559
 30
0.0
 11
150.769679
 21
176.888559
 31
0.0
  0
LINE
  5
310
100
AcDbEntity
  8
ALPHA
100
AcDbLine
 10
148.169679
 20
176.838559
 30
0.0
 11
115.743379
 21
176.838559
 31
0.0
  0
LINE
  5
311
100
AcDbEntity
  8
ALPHA
100
AcDbLine
 10
115.605275
 20
176.238559
 30
0.0
 11
147.569679
 21
176.238559
 31
0.0
  0
LINE
  5
312
100
AcDbEntity
  8
ALPHA
100
AcDbLine
 10
59.119679
 20
173.538559
 30
0.0
 11
58.519679
 21
173.538559
 31
0.0
  0
LINE
  5
313
100
AcDbEntity
  8
ALPHA
100
AcDbLine
 10
58.519679
 20
172.538559
 30
0.0
 11
57.519679
 21
172.538559
 31
0.0
  0
LINE
  5
314
100
AcDbEntity
  8
ALPHA
100
AcDbLine
 10
60.119679
 20
172.538559
 30
0.0
 11
59.119679
 21
172.538559
 31
0.0
  0
LINE
  5
315
100
AcDbEntity
  8
ALPHA
100
AcDbLine
 10
105.556889
 20
193.36402
 30
0.0
 11
105.761927
 21
193.637664
 31
0.0
  0
LINE
  5
316
100
AcDbEntity
  8
ALPHA
100
AcDbLine
 10
105.000358
 20
192.855834
 30
0.0
 11
105.117523
 21
193.012198
 31
0.0
  0
LINE
  5
317
100
AcDbEntity
  8
ALPHA
100
AcDbLine
 10
103.565094
 20
192.855834
 30
0.0
 11
103.682258
 21
193.012198
 31
0.0
  0
LINE
  5
318
100
AcDbEntity
  8
ALPHA
100
AcDbLine
 10
104.209498
 20
194.458583
 30
0.0
 11
104.092334
 21
194.302218
 31
0.0
  0
LINE
  5
319
100
AcDbEntity
  8
ALPHA
100
AcDbLine
 10
106.201293
 20
194.575858
 30
0.0
 11
105.556889
 21
193.676753
 31
0.0
  0
LINE
  5
31A
100
AcDbEntity
  8
ALPHA
100
AcDbLine
 10
105.908382
 20
193.833117
 30
0.0
 11
106.435622
 21
194.575858
 31
0.0
  0
LINE
  5
31B
100
AcDbEntity
  8
ALPHA
100
AcDbLine
 10
104.209498
 20
194.106761
 30
0.0
 11
104.26808
 21
194.224032
 31
0.0
  0
LINE
  5
31C
100
AcDbEntity
  8
ALPHA
100
AcDbLine
 10
103.565094
 20
193.207656
 30
0.0
 11
103.506512
 21
193.090381
 31
0.0
  0
LINE
  5
31D
100
AcDbEntity
  8
ALPHA
100
AcDbLine
 10
102.803525
 20
194.106761
 30
0.0
 11
102.862107
 21
194.224032
 31
0.0
  0
LINE
  5
31E
100
AcDbEntity
  8
ALPHA
100
AcDbLine
 10
103.682258
 20
193.012198
 30
0.0
 11
103.740841
 21
193.168563
 31
0.0
  0
LINE
  5
31F
100
AcDbEntity
  8
ALPHA
100
AcDbLine
 10
104.092334
 20
194.302218
 30
0.0
 11
104.033752
 21
194.14585
 31
0.0
  0
LINE
  5
320
100
AcDbEntity
  8
ALPHA
100
AcDbLine
 10
102.686361
 20
194.302218
 30
0.0
 11
102.627778
 21
194.14585
 31
0.0
  0
LINE
  5
321
100
AcDbEntity
  8
ALPHA
100
AcDbLine
 10
104.971067
 20
193.207656
 30
0.0
 11
104.941776
 21
193.090381
 31
0.0
  0
LINE
  5
322
100
AcDbEntity
  8
ALPHA
100
AcDbLine
 10
104.180207
 20
193.950393
 30
0.0
 11
104.209498
 21
194.106761
 31
0.0
  0
LINE
  5
323
100
AcDbEntity
  8
ALPHA
100
AcDbLine
 10
103.594385
 20
193.36402
 30
0.0
 11
103.565094
 21
193.207656
 31
0.0
  0
LINE
  5
324
100
AcDbEntity
  8
ALPHA
100
AcDbLine
 10
102.774234
 20
193.950393
 30
0.0
 11
102.803525
 21
194.106761
 31
0.0
  0
LINE
  5
325
100
AcDbEntity
  8
ALPHA
100
AcDbLine
 10
105.117523
 20
193.012198
 30
0.0
 11
105.146814
 21
193.207656
 31
0.0
  0
LINE
  5
326
100
AcDbEntity
  8
ALPHA
100
AcDbLine
 10
104.033752
 20
194.14585
 30
0.0
 11
104.004461
 21
193.950393
 31
0.0
  0
LINE
  5
327
100
AcDbEntity
  8
ALPHA
100
AcDbLine
 10
103.740841
 20
193.168563
 30
0.0
 11
103.770132
 21
193.36402
 31
0.0
  0
LINE
  5
328
100
AcDbEntity
  8
ALPHA
100
AcDbLine
 10
102.627778
 20
194.14585
 30
0.0
 11
102.598487
 21
193.950393
 31
0.0
  0
LINE
  5
329
100
AcDbEntity
  8
ALPHA
100
AcDbLine
 10
105.869679
 20
167.669075
 30
0.0
 11
105.869679
 21
164.738559
 31
0.0
  0
LINE
  5
32A
100
AcDbEntity
  8
ALPHA
100
AcDbLine
 10
105.556889
 20
193.676753
 30
0.0
 11
105.556889
 21
194.575858
 31
0.0
  0
LINE
  5
32B
100
AcDbEntity
  8
ALPHA
100
AcDbLine
 10
105.556889
 20
192.738559
 30
0.0
 11
105.556889
 21
193.36402
 31
0.0
  0
LINE
  5
32C
100
AcDbEntity
  8
ALPHA
100
AcDbLine
 10
105.381143
 20
194.575858
 30
0.0
 11
105.381143
 21
192.738559
 31
0.0
  0
LINE
  5
32D
100
AcDbEntity
  8
ALPHA
100
AcDbLine
 10
104.180207
 20
193.36402
 30
0.0
 11
104.180207
 21
193.950393
 31
0.0
  0
LINE
  5
32E
100
AcDbEntity
  8
ALPHA
100
AcDbLine
 10
104.004461
 20
193.950393
 30
0.0
 11
104.004461
 21
193.36402
 31
0.0
  0
LINE
  5
32F
100
AcDbEntity
  8
ALPHA
100
AcDbLine
 10
103.770132
 20
193.36402
 30
0.0
 11
103.770132
 21
193.950393
 31
0.0
  0
LINE
  5
330
100
AcDbEntity
  8
ALPHA
100
AcDbLine
 10
103.594385
 20
193.950393
 30
0.0
 11
103.594385
 21
193.36402
 31
0.0
  0
LINE
  5
331
100
AcDbEntity
  8
ALPHA
100
AcDbLine
 10
102.774234
 20
193.36402
 30
0.0
 11
102.774234
 21
193.950393
 31
0.0
  0
LINE
  5
332
100
AcDbEntity
  8
ALPHA
100
AcDbLine
 10
102.598487
 20
193.950393
 30
0.0
 11
102.598487
 21
193.36402
 31
0.0
  0
LINE
  5
333
100
AcDbEntity
  8
ALPHA
100
AcDbLine
 10
102.364159
 20
192.738559
 30
0.0
 11
102.364159
 21
192.973109
 31
0.0
  0
LINE
  5
334
100
AcDbEntity
  8
ALPHA
100
AcDbLine
 10
101.869679
 20
167.669075
 30
0.0
 11
101.869679
 21
164.738559
 31
0.0
  0
LINE
  5
335
100
AcDbEntity
  8
ALPHA
100
AcDbLine
 10
101.485425
 20
192.973109
 30
0.0
 11
101.485425
 21
194.575858
 31
0.0
  0
LINE
  5
336
100
AcDbEntity
  8
ALPHA
100
AcDbLine
 10
101.309679
 20
194.575858
 30
0.0
 11
101.309679
 21
192.738559
 31
0.0
  0
LINE
  5
337
100
AcDbEntity
  8
ALPHA
100
AcDbLine
 10
100.769679
 20
163.738559
 30
0.0
 11
100.769679
 21
167.908366
 31
0.0
  0
LINE
  5
338
100
AcDbEntity
  8
ALPHA
100
AcDbLine
 10
99.769679
 20
168.226751
 30
0.0
 11
99.769679
 21
162.238559
 31
0.0
  0
LINE
  5
339
100
AcDbEntity
  8
ALPHA
100
AcDbLine
 10
99.369679
 20
194.388559
 30
0.0
 11
99.369679
 21
195.388559
 31
0.0
  0
LINE
  5
33A
100
AcDbEntity
  8
ALPHA
100
AcDbLine
 10
96.149737
 20
180.338559
 30
0.0
 11
96.149737
 21
179.138559
 31
0.0
  0
LINE
  5
33B
100
AcDbEntity
  8
ALPHA
100
AcDbLine
 10
59.119679
 20
171.938559
 30
0.0
 11
60.119679
 21
171.938559
 31
0.0
  0
LINE
  5
33C
100
AcDbEntity
  8
ALPHA
100
AcDbLine
 10
57.519679
 20
171.938559
 30
0.0
 11
58.519679
 21
171.938559
 31
0.0
  0
LINE
  5
33D
100
AcDbEntity
  8
ALPHA
100
AcDbLine
 10
58.519679
 20
170.938559
 30
0.0
 11
59.119679
 21
170.938559
 31
0.0
  0
LINE
  5
33E
100
AcDbEntity
  8
ALPHA
100
AcDbLine
 10
66.519679
 20
168.888559
 30
0.0
 11
65.519679
 21
168.888559
 31
0.0
  0
LINE
  5
33F
100
AcDbEntity
  8
ALPHA
100
AcDbLine
 10
65.019679
 20
168.388559
 30
0.0
 11
56.969679
 21
168.388559
 31
0.0
  0
LINE
  5
340
100
AcDbEntity
  8
ALPHA
100
AcDbLine
 10
65.019679
 20
167.888559
 30
0.0
 11
56.969679
 21
167.888559
 31
0.0
  0
LINE
  5
341
100
AcDbEntity
  8
ALPHA
100
AcDbLine
 10
65.019679
 20
167.388559
 30
0.0
 11
56.969679
 21
167.388559
 31
0.0
  0
LINE
  5
342
100
AcDbEntity
  8
ALPHA
100
AcDbLine
 10
55.469679
 20
166.888559
 30
0.0
 11
56.469679
 21
166.888559
 31
0.0
  0
LINE
  5
343
100
AcDbEntity
  8
ALPHA
100
AcDbLine
 10
101.869679
 20
164.738559
 30
0.0
 11
105.869679
 21
164.738559
 31
0.0
  0
LINE
  5
344
100
AcDbEntity
  8
ALPHA
100
AcDbLine
 10
106.469679
 20
163.238559
 30
0.0
 11
101.269679
 21
163.238559
 31
0.0
  0
LINE
  5
345
100
AcDbEntity
  8
ALPHA
100
AcDbLine
 10
99.769679
 20
162.238559
 30
0.0
 11
107.969679
 21
162.238559
 31
0.0
  0
LINE
  5
346
100
AcDbEntity
  8
ALPHA
100
AcDbLine
 10
104.853903
 20
193.012198
 30
0.0
 11
104.736738
 21
192.973109
 31
0.0
  0
LINE
  5
347
100
AcDbEntity
  8
ALPHA
100
AcDbLine
 10
103.418638
 20
193.012198
 30
0.0
 11
103.301474
 21
192.973109
 31
0.0
  0
LINE
  5
348
100
AcDbEntity
  8
ALPHA
100
AcDbLine
 10
104.355954
 20
194.302218
 30
0.0
 11
104.473118
 21
194.341308
 31
0.0
  0
LINE
  5
349
100
AcDbEntity
  8
ALPHA
100
AcDbLine
 10
102.949981
 20
194.302218
 30
0.0
 11
103.067145
 21
194.341308
 31
0.0
  0
LINE
  5
34A
100
AcDbEntity
  8
ALPHA
100
AcDbLine
 10
104.883194
 20
192.777652
 30
0.0
 11
105.000358
 21
192.855834
 31
0.0
  0
LINE
  5
34B
100
AcDbEntity
  8
ALPHA
100
AcDbLine
 10
103.447929
 20
192.777652
 30
0.0
 11
103.565094
 21
192.855834
 31
0.0
  0
LINE
  5
34C
100
AcDbEntity
  8
ALPHA
100
AcDbLine
 10
104.326663
 20
194.536765
 30
0.0
 11
104.209498
 21
194.458583
 31
0.0
  0
LINE
  5
34D
100
AcDbEntity
  8
ALPHA
100
AcDbLine
 10
102.92069
 20
194.536765
 30
0.0
 11
102.803525
 21
194.458583
 31
0.0
  0
LINE
  5
34E
100
AcDbEntity
  8
ALPHA
100
AcDbLine
 10
104.941776
 20
193.090381
 30
0.0
 11
104.853903
 21
193.012198
 31
0.0
  0
LINE
  5
34F
100
AcDbEntity
  8
ALPHA
100
AcDbLine
 10
103.506512
 20
193.090381
 30
0.0
 11
103.418638
 21
193.012198
 31
0.0
  0
LINE
  5
350
100
AcDbEntity
  8
ALPHA
100
AcDbLine
 10
104.26808
 20
194.224032
 30
0.0
 11
104.355954
 21
194.302218
 31
0.0
  0
LINE
  5
351
100
AcDbEntity
  8
ALPHA
100
AcDbLine
 10
102.862107
 20
194.224032
 30
0.0
 11
102.949981
 21
194.302218
 31
0.0
  0
LWPOLYLINE
  5
352
100
AcDbEntity
  8
ALPHA
100
AcDbPolyline
 90
        6
 70
     0
 43
0.0
 10
118.892167
 20
221.530203
 10
118.984834
 20
221.641662
 10
119.061418
 20
221.73595
 10
119.120108
 20
221.810446
 10
119.157261
 20
221.861406
 10
119.169679
 20
221.885912
  0
LINE
  5
35A
100
AcDbEntity
  8
ALPHA
100
AcDbLine
 10
102.803525
 20
194.458583
 30
0.0
 11
102.686361
 21
194.302218
 31
0.0
  0
LINE
  5
35B
100
AcDbEntity
  8
ALPHA
100
AcDbLine
 10
99.723232
 20
194.888559
 30
0.0
 11
99.369679
 21
194.388559
 31
0.0
  0
LINE
  5
35C
100
AcDbEntity
  8
ALPHA
100
AcDbLine
 10
117.257633
 20
218.732957
 30
0.0
 11
119.317917
 21
221.675347
 31
0.0
  0
LINE
  5
35D
100
AcDbEntity
  8
ALPHA
100
AcDbLine
 10
117.016125
 20
219.179763
 30
0.0
 11
119.023232
 21
222.046208
 31
0.0
  0
LWPOLYLINE
  5
35E
100
AcDbEntity
  8
ALPHA
100
AcDbPolyline
 90
        6
 70
     0
 43
0.0
 10
99.723232
 20
194.888559
 10
99.816643
 20
195.046145
 10
99.863752
 20
195.183644
 10
99.863752
 20
195.292198
 10
99.816643
 20
195.363076
 10
99.723232
 20
195.388559
  0
LINE
  5
366
100
AcDbEntity
  8
ALPHA
100
AcDbLine
 10
92.989679
 20
185.309026
 30
0.0
 11
92.989679
 21
191.838559
 31
0.0
  0
LINE
  5
367
100
AcDbEntity
  8
ALPHA
100
AcDbLine
 10
92.369679
 20
191.238559
 30
0.0
 11
92.369679
 21
183.870217
 31
0.0
  0
LINE
  5
368
100
AcDbEntity
  8
ALPHA
100
AcDbLine
 10
55.619622
 20
197.238559
 30
0.0
 11
55.907608
 21
196.950572
 31
0.0
  0
LINE
  5
369
100
AcDbEntity
  8
ALPHA
100
AcDbLine
 10
54.119679
 20
195.738616
 30
0.0
 11
54.407665
 21
195.450629
 31
0.0
  0
LWPOLYLINE
  5
36A
100
AcDbEntity
  8
ALPHA
100
AcDbPolyline
 90
        4
 70
     0
 43
0.0
 10
145.24719
 20
225.246914
 10
145.096165
 20
225.190389
 10
144.953438
 20
225.141844
 10
144.82144
 20
225.101771
  0
LINE
  5
370
100
AcDbEntity
  8
ALPHA
100
AcDbLine
 10
152.119679
 20
85.738502
 30
0.0
 11
151.831692
 21
86.026488
 31
0.0
  0
LINE
  5
371
100
AcDbEntity
  8
ALPHA
100
AcDbLine
 10
150.619736
 20
84.238559
 30
0.0
 11
150.331749
 21
84.526545
 31
0.0
  0
LINE
  5
372
100
AcDbEntity
  8
ALPHA
100
AcDbLine
 10
154.583562
 20
121.838559
 30
0.0
 11
154.584446
 21
121.838117
 31
0.0
  0
LWPOLYLINE
  5
373
100
AcDbEntity
  8
ALPHA
100
AcDbPolyline
 90
        4
 70
     0
 43
0.0
 10
118.892167
 20
221.530203
 10
119.043192
 20
221.586728
 10
119.185919
 20
221.635273
 10
119.317917
 20
221.675347
  0
LINE
  5
379
100
AcDbEntity
  8
ALPHA
100
AcDbLine
 10
124.069679
 20
243.738559
 30
0.0
 11
122.569679
 21
242.238559
 31
0.0
  0
LINE
  5
37A
100
AcDbEntity
  8
ALPHA
100
AcDbLine
 10
70.869679
 20
100.538559
 30
0.0
 11
70.869679
 21
191.238559
 31
0.0
  0
LINE
  5
37B
100
AcDbEntity
  8
ALPHA
100
AcDbLine
 10
70.269679
 20
191.838559
 30
0.0
 11
70.269679
 21
99.938559
 31
0.0
  0
LINE
  5
37C
100
AcDbEntity
  8
ALPHA
100
AcDbLine
 10
67.019679
 20
195.388559
 30
0.0
 11
67.019679
 21
195.888559
 31
0.0
  0
LINE
  5
37D
100
AcDbEntity
  8
ALPHA
100
AcDbLine
 10
67.019679
 20
85.588559
 30
0.0
 11
67.019679
 21
86.088559
 31
0.0
  0
LINE
  5
37E
100
AcDbEntity
  8
ALPHA
100
AcDbLine
 10
66.519679
 20
108.038559
 30
0.0
 11
66.519679
 21
87.088559
 31
0.0
  0
LINE
  5
37F
100
AcDbEntity
  8
ALPHA
100
AcDbLine
 10
66.519679
 20
194.388559
 30
0.0
 11
66.519679
 21
168.888559
 31
0.0
  0
LINE
  5
380
100
AcDbEntity
  8
ALPHA
100
AcDbLine
 10
66.019679
 20
108.038559
 30
0.0
 11
66.019679
 21
87.088559
 31
0.0
  0
LINE
  5
381
100
AcDbEntity
  8
ALPHA
100
AcDbLine
 10
66.019679
 20
194.388559
 30
0.0
 11
66.019679
 21
168.888559
 31
0.0
  0
LINE
  5
382
100
AcDbEntity
  8
ALPHA
100
AcDbLine
 10
65.669679
 20
84.238559
 30
0.0
 11
65.669679
 21
84.738559
 31
0.0
  0
LINE
  5
383
100
AcDbEntity
  8
ALPHA
100
AcDbLine
 10
65.669679
 20
197.238559
 30
0.0
 11
65.669679
 21
196.738559
 31
0.0
  0
LINE
  5
384
100
AcDbEntity
  8
ALPHA
100
AcDbLine
 10
65.519679
 20
108.038559
 30
0.0
 11
65.519679
 21
87.088559
 31
0.0
  0
LINE
  5
385
100
AcDbEntity
  8
ALPHA
100
AcDbLine
 10
65.519679
 20
194.388559
 30
0.0
 11
65.519679
 21
168.888559
 31
0.0
  0
LINE
  5
386
100
AcDbEntity
  8
ALPHA
100
AcDbLine
 10
65.019679
 20
109.538559
 30
0.0
 11
65.019679
 21
108.538559
 31
0.0
  0
LINE
  5
387
100
AcDbEntity
  8
ALPHA
100
AcDbLine
 10
65.019679
 20
168.388559
 30
0.0
 11
65.019679
 21
167.388559
 31
0.0
  0
LINE
  5
388
100
AcDbEntity
  8
ALPHA
100
AcDbLine
 10
64.669679
 20
85.738559
 30
0.0
 11
64.669679
 21
92.038559
 31
0.0
  0
LINE
  5
389
100
AcDbEntity
  8
ALPHA
100
AcDbLine
 10
64.669679
 20
195.738559
 30
0.0
 11
64.669679
 21
184.738559
 31
0.0
  0
LINE
  5
38A
100
AcDbEntity
  8
ALPHA
100
AcDbLine
 10
64.169679
 20
85.738559
 30
0.0
 11
64.169679
 21
92.038559
 31
0.0
  0
LINE
  5
38B
100
AcDbEntity
  8
ALPHA
100
AcDbLine
 10
64.168642
 20
195.738795
 30
0.0
 11
64.169127
 21
184.738795
 31
0.0
  0
LINE
  5
38C
100
AcDbEntity
  8
ALPHA
100
AcDbLine
 10
61.719679
 20
188.248539
 30
0.0
 11
61.719679
 21
183.228579
 31
0.0
  0
LINE
  5
38D
100
AcDbEntity
  8
ALPHA
100
AcDbLine
 10
60.119679
 20
171.938559
 30
0.0
 11
60.119679
 21
172.538559
 31
0.0
  0
LINE
  5
38E
100
AcDbEntity
  8
ALPHA
100
AcDbLine
 10
60.119679
 20
103.938559
 30
0.0
 11
60.119679
 21
104.538559
 31
0.0
  0
LINE
  5
38F
100
AcDbEntity
  8
ALPHA
100
AcDbLine
 10
59.169679
 20
97.538559
 30
0.0
 11
59.169679
 21
97.038559
 31
0.0
  0
LINE
  5
390
100
AcDbEntity
  8
ALPHA
100
AcDbLine
 10
59.169679
 20
179.738559
 30
0.0
 11
59.169679
 21
179.238559
 31
0.0
  0
LINE
  5
391
100
AcDbEntity
  8
ALPHA
100
AcDbLine
 10
59.119679
 20
172.538559
 30
0.0
 11
59.119679
 21
173.538559
 31
0.0
  0
LINE
  5
392
100
AcDbEntity
  8
ALPHA
100
AcDbLine
 10
59.119679
 20
170.938559
 30
0.0
 11
59.119679
 21
171.938559
 31
0.0
  0
LINE
  5
393
100
AcDbEntity
  8
ALPHA
100
AcDbLine
 10
59.119679
 20
104.538559
 30
0.0
 11
59.119679
 21
105.538559
 31
0.0
  0
LINE
  5
394
100
AcDbEntity
  8
ALPHA
100
AcDbLine
 10
59.119679
 20
102.938559
 30
0.0
 11
59.119679
 21
103.938559
 31
0.0
  0
LINE
  5
395
100
AcDbEntity
  8
ALPHA
100
AcDbLine
 10
58.519679
 20
103.938559
 30
0.0
 11
58.519679
 21
102.938559
 31
0.0
  0
LINE
  5
396
100
AcDbEntity
  8
ALPHA
100
AcDbLine
 10
58.519679
 20
105.538559
 30
0.0
 11
58.519679
 21
104.538559
 31
0.0
  0
LINE
  5
397
100
AcDbEntity
  8
ALPHA
100
AcDbLine
 10
58.519679
 20
171.938559
 30
0.0
 11
58.519679
 21
170.938559
 31
0.0
  0
LINE
  5
398
100
AcDbEntity
  8
ALPHA
100
AcDbLine
 10
58.519679
 20
173.538559
 30
0.0
 11
58.519679
 21
172.538559
 31
0.0
  0
LINE
  5
399
100
AcDbEntity
  8
ALPHA
100
AcDbLine
 10
57.519679
 20
104.538559
 30
0.0
 11
57.519679
 21
103.938559
 31
0.0
  0
LINE
  5
39A
100
AcDbEntity
  8
ALPHA
100
AcDbLine
 10
57.519679
 20
172.538559
 30
0.0
 11
57.519679
 21
171.938559
 31
0.0
  0
LINE
  5
39B
100
AcDbEntity
  8
ALPHA
100
AcDbLine
 10
56.969679
 20
167.388559
 30
0.0
 11
56.969679
 21
168.388559
 31
0.0
  0
LINE
  5
39C
100
AcDbEntity
  8
ALPHA
100
AcDbLine
 10
56.969679
 20
108.538559
 30
0.0
 11
56.969679
 21
109.538559
 31
0.0
  0
LINE
  5
39D
100
AcDbEntity
  8
ALPHA
100
AcDbLine
 10
56.469679
 20
166.888559
 30
0.0
 11
56.469679
 21
110.038559
 31
0.0
  0
LINE
  5
39E
100
AcDbEntity
  8
ALPHA
100
AcDbLine
 10
56.419679
 20
183.228579
 30
0.0
 11
56.419679
 21
188.248539
 31
0.0
  0
LINE
  5
39F
100
AcDbEntity
  8
ALPHA
100
AcDbLine
 10
55.969679
 20
166.888559
 30
0.0
 11
55.969679
 21
110.038559
 31
0.0
  0
LINE
  5
3A0
100
AcDbEntity
  8
ALPHA
100
AcDbLine
 10
55.619679
 20
97.038559
 30
0.0
 11
55.619679
 21
97.538559
 31
0.0
  0
LINE
  5
3A1
100
AcDbEntity
  8
ALPHA
100
AcDbLine
 10
55.619679
 20
179.738559
 30
0.0
 11
55.619679
 21
179.238559
 31
0.0
  0
LINE
  5
3A2
100
AcDbEntity
  8
ALPHA
100
AcDbLine
 10
154.583562
 20
121.838559
 30
0.0
 11
153.5836
 21
121.838559
 31
0.0
  0
LWPOLYLINE
  5
3A3
100
AcDbEntity
  8
ALPHA
100
AcDbPolyline
 90
        6
 70
     0
 43
0.0
 10
54.407665
 20
195.450629
 10
54.481192
 20
195.9145
 10
54.694234
 20
196.332434
 10
55.025804
 20
196.664003
 10
55.443737
 20
196.877046
 10
55.907608
 20
196.950572
  0
LWPOLYLINE
  5
3AB
100
AcDbEntity
  8
ALPHA
100
AcDbPolyline
 90
        6
 70
     0
 43
0.0
 10
54.119679
 20
195.738616
 10
54.193205
 20
196.202487
 10
54.406248
 20
196.62042
 10
54.737817
 20
196.95199
 10
55.155751
 20
197.165032
 10
55.619622
 20
197.238559
  0
LINE
  5
3B3
100
AcDbEntity
  8
ALPHA
100
AcDbLine
 10
55.469679
 20
166.888559
 30
0.0
 11
55.469679
 21
110.038559
 31
0.0
  0
LINE
  5
3B4
100
AcDbEntity
  8
ALPHA
100
AcDbLine
 10
54.619679
 20
178.238559
 30
0.0
 11
54.619679
 21
98.538559
 31
0.0
  0
LINE
  5
3B5
100
AcDbEntity
  8
ALPHA
100
AcDbLine
 10
54.407665
 20
86.026488
 30
0.0
 11
54.407665
 21
97.655369
 31
0.0
  0
LINE
  5
3B6
100
AcDbEntity
  8
ALPHA
100
AcDbLine
 10
54.407665
 20
195.450629
 30
0.0
 11
54.407665
 21
179.121899
 31
0.0
  0
LINE
  5
3B7
100
AcDbEntity
  8
ALPHA
100
AcDbLine
 10
54.119679
 20
195.738616
 30
0.0
 11
54.119679
 21
85.738502
 31
0.0
  0
LWPOLYLINE
  5
3B8
100
AcDbEntity
  8
ALPHA
100
AcDbPolyline
 90
        6
 70
     0
 43
0.0
 10
66.153653
 20
86.588559
 10
66.107243
 20
86.750468
 10
66.145581
 20
86.894671
 10
66.245331
 20
87.003471
 10
66.378761
 20
87.068195
 10
66.519679
 20
87.088559
  0
LINE
  5
3C0
100
AcDbEntity
  8
ALPHA
100
AcDbLine
 10
155.076998
 20
118.175813
 30
0.0
 11
155.090088
 21
118.175813
 31
0.0
  0
LINE
  5
3C1
100
AcDbEntity
  8
ALPHA
100
AcDbLine
 10
155.014279
 20
110.988559
 30
0.0
 11
155.152808
 21
110.988559
 31
0.0
  0
LINE
  5
3C2
100
AcDbEntity
  8
ALPHA
100
AcDbLine
 10
56.469679
 20
110.038559
 30
0.0
 11
55.469679
 21
110.038559
 31
0.0
  0
LINE
  5
3C3
100
AcDbEntity
  8
ALPHA
100
AcDbLine
 10
56.969679
 20
109.538559
 30
0.0
 11
65.019679
 21
109.538559
 31
0.0
  0
LINE
  5
3C4
100
AcDbEntity
  8
ALPHA
100
AcDbLine
 10
155.014279
 20
109.488559
 30
0.0
 11
155.152808
 21
109.488559
 31
0.0
  0
LINE
  5
3C5
100
AcDbEntity
  8
ALPHA
100
AcDbLine
 10
56.969679
 20
109.038559
 30
0.0
 11
65.019679
 21
109.038559
 31
0.0
  0
LINE
  5
3C6
100
AcDbEntity
  8
ALPHA
100
AcDbLine
 10
56.969679
 20
108.538559
 30
0.0
 11
65.019679
 21
108.538559
 31
0.0
  0
LINE
  5
3C7
100
AcDbEntity
  8
ALPHA
100
AcDbLine
 10
65.519679
 20
108.038559
 30
0.0
 11
66.519679
 21
108.038559
 31
0.0
  0
LINE
  5
3C8
100
AcDbEntity
  8
ALPHA
100
AcDbLine
 10
59.119679
 20
105.538559
 30
0.0
 11
58.519679
 21
105.538559
 31
0.0
  0
LINE
  5
3C9
100
AcDbEntity
  8
ALPHA
100
AcDbLine
 10
58.519679
 20
104.538559
 30
0.0
 11
57.519679
 21
104.538559
 31
0.0
  0
LINE
  5
3CA
100
AcDbEntity
  8
ALPHA
100
AcDbLine
 10
60.119679
 20
104.538559
 30
0.0
 11
59.119679
 21
104.538559
 31
0.0
  0
LINE
  5
3CB
100
AcDbEntity
  8
ALPHA
100
AcDbLine
 10
59.119679
 20
103.938559
 30
0.0
 11
60.119679
 21
103.938559
 31
0.0
  0
LINE
  5
3CC
100
AcDbEntity
  8
ALPHA
100
AcDbLine
 10
57.519679
 20
103.938559
 30
0.0
 11
58.519679
 21
103.938559
 31
0.0
  0
LINE
  5
3CD
100
AcDbEntity
  8
ALPHA
100
AcDbLine
 10
58.519679
 20
102.938559
 30
0.0
 11
59.119679
 21
102.938559
 31
0.0
  0
LINE
  5
3CE
100
AcDbEntity
  8
ALPHA
100
AcDbLine
 10
155.076998
 20
102.301305
 30
0.0
 11
155.090088
 21
102.301305
 31
0.0
  0
LWPOLYLINE
  5
3CF
100
AcDbEntity
  8
ALPHA
100
AcDbPolyline
 90
        6
 70
     0
 43
0.0
 10
139.719679
 20
87.088559
 10
139.860594
 20
87.068194
 10
139.994021
 20
87.00347
 10
140.093775
 20
86.894675
 10
140.132114
 20
86.750474
 10
140.085704
 20
86.588559
  0
LINE
  5
3D7
100
AcDbEntity
  8
ALPHA
100
AcDbLine
 10
147.569679
 20
100.538559
 30
0.0
 11
70.869679
 21
100.538559
 31
0.0
  0
LINE
  5
3D8
100
AcDbEntity
  8
ALPHA
100
AcDbLine
 10
70.269679
 20
99.938559
 30
0.0
 11
148.169679
 21
99.938559
 31
0.0
  0
LINE
  5
3D9
100
AcDbEntity
  8
ALPHA
100
AcDbLine
 10
149.769679
 20
99.888559
 30
0.0
 11
150.769679
 21
99.888559
 31
0.0
  0
LINE
  5
3DA
100
AcDbEntity
  8
ALPHA
100
AcDbLine
 10
140.719679
 20
99.388559
 30
0.0
 11
149.269679
 21
99.388559
 31
0.0
  0
LINE
  5
3DB
100
AcDbEntity
  8
ALPHA
100
AcDbLine
 10
140.719679
 20
98.888559
 30
0.0
 11
149.269679
 21
98.888559
 31
0.0
  0
LINE
  5
3DC
100
AcDbEntity
  8
ALPHA
100
AcDbLine
 10
154.583562
 20
98.638559
 30
0.0
 11
153.5836
 21
98.638559
 31
0.0
  0
LINE
  5
3DD
100
AcDbEntity
  8
ALPHA
100
AcDbLine
 10
54.119679
 20
98.538559
 30
0.0
 11
54.619679
 21
98.538559
 31
0.0
  0
LINE
  5
3DE
100
AcDbEntity
  8
ALPHA
100
AcDbLine
 10
152.119679
 20
98.538559
 30
0.0
 11
151.619679
 21
98.538559
 31
0.0
  0
LINE
  5
3DF
100
AcDbEntity
  8
ALPHA
100
AcDbLine
 10
139.719679
 20
98.388559
 30
0.0
 11
149.269679
 21
98.388559
 31
0.0
  0
LINE
  5
3E0
100
AcDbEntity
  8
ALPHA
100
AcDbLine
 10
59.169679
 20
97.538559
 30
0.0
 11
55.619679
 21
97.538559
 31
0.0
  0
LINE
  5
3E1
100
AcDbEntity
  8
ALPHA
100
AcDbLine
 10
150.619679
 20
97.538559
 30
0.0
 11
147.069679
 21
97.538559
 31
0.0
  0
LINE
  5
3E2
100
AcDbEntity
  8
ALPHA
100
AcDbLine
 10
59.169679
 20
97.038559
 30
0.0
 11
55.619679
 21
97.038559
 31
0.0
  0
LINE
  5
3E3
100
AcDbEntity
  8
ALPHA
100
AcDbLine
 10
150.619679
 20
97.038559
 30
0.0
 11
147.069679
 21
97.038559
 31
0.0
  0
LINE
  5
3E4
100
AcDbEntity
  8
ALPHA
100
AcDbLine
 10
141.569679
 20
92.038559
 30
0.0
 11
142.069679
 21
92.038559
 31
0.0
  0
LINE
  5
3E5
100
AcDbEntity
  8
ALPHA
100
AcDbLine
 10
64.169679
 20
92.038559
 30
0.0
 11
64.669679
 21
92.038559
 31
0.0
  0
LWPOLYLINE
  5
3E6
100
AcDbEntity
  8
ALPHA
100
AcDbPolyline
 90
        8
 70
     0
 43
0.0
 10
114.119708
 20
82.874755
 10
114.135081
 20
82.869451
 10
114.258059
 20
82.858898
 10
114.502753
 20
82.848507
 10
114.866653
 20
82.838386
 10
115.346024
 20
82.828638
 10
115.935948
 20
82.819363
 10
118.303209
 20
82.795299
  0
LWPOLYLINE
  5
3F0
100
AcDbEntity
  8
ALPHA
100
AcDbPolyline
 90
        6
 70
     0
 43
0.0
 10
126.769679
 20
87.088559
 10
126.910594
 20
87.068194
 10
127.044021
 20
87.00347
 10
127.143775
 20
86.894675
 10
127.182114
 20
86.750474
 10
127.135704
 20
86.588559
  0
LWPOLYLINE
  5
3F8
100
AcDbEntity
  8
ALPHA
100
AcDbPolyline
 90
        6
 70
     0
 43
0.0
 10
135.629396
 20
84.238559
 10
136.511984
 20
84.227065
 10
137.206233
 20
84.21478
 10
137.710789
 20
84.201809
 10
138.017017
 20
84.188374
 10
138.119679
 20
84.174706
  0
LWPOLYLINE
  5
400
100
AcDbEntity
  8
ALPHA
100
AcDbPolyline
 90
        8
 70
     0
 43
0.0
 10
133.936148
 20
82.954211
 10
136.30341
 20
82.930147
 10
136.893333
 20
82.920872
 10
137.372704
 20
82.911124
 10
137.736604
 20
82.901003
 10
137.981299
 20
82.890612
 10
138.104277
 20
82.880059
 10
138.119649
 20
82.874755
  0
LWPOLYLINE
  5
40A
100
AcDbEntity
  8
ALPHA
100
AcDbPolyline
 90
        7
 70
     0
 43
0.0
 10
131.189559
 20
82.939647
 10
133.156162
 20
82.923723
 10
133.913907
 20
82.914024
 10
134.497542
 20
82.903448
 10
134.89403
 20
82.892232
 10
135.094513
 20
82.880624
 10
135.119573
 20
82.874755
  0
LWPOLYLINE
  5
413
100
AcDbEntity
  8
ALPHA
100
AcDbPolyline
 90
        7
 70
     0
 43
0.0
 10
121.049798
 20
82.809863
 10
119.083195
 20
82.825787
 10
118.32545
 20
82.835486
 10
117.741815
 20
82.846062
 10
117.345327
 20
82.857278
 10
117.144844
 20
82.868886
 10
117.119784
 20
82.874755
  0
LINE
  5
41C
100
AcDbEntity
  8
ALPHA
100
AcDbLine
 10
129.712036
 20
82.974671
 30
0.0
 11
133.936148
 21
82.954211
 31
0.0
  0
LINE
  5
41D
100
AcDbEntity
  8
ALPHA
100
AcDbLine
 10
118.303209
 20
82.795299
 30
0.0
 11
122.527321
 21
82.774839
 31
0.0
  0
LINE
  5
41E
100
AcDbEntity
  8
ALPHA
100
AcDbLine
 10
127.461059
 20
82.952417
 30
0.0
 11
131.189559
 21
82.939647
 31
0.0
  0
LINE
  5
41F
100
AcDbEntity
  8
ALPHA
100
AcDbLine
 10
124.778298
 20
82.797093
 30
0.0
 11
121.049798
 21
82.809863
 31
0.0
  0
LINE
  5
420
100
AcDbEntity
  8
ALPHA
100
AcDbLine
 10
124.905659
 20
82.978936
 30
0.0
 11
129.712036
 21
82.974671
 31
0.0
  0
LINE
  5
421
100
AcDbEntity
  8
ALPHA
100
AcDbLine
 10
122.527321
 20
82.774839
 30
0.0
 11
128.535261
 21
82.77218
 31
0.0
  0
LINE
  5
422
100
AcDbEntity
  8
ALPHA
100
AcDbLine
 10
123.466882
 20
82.949805
 30
0.0
 11
127.461059
 21
82.952417
 31
0.0
  0
LINE
  5
423
100
AcDbEntity
  8
ALPHA
100
AcDbLine
 10
128.772475
 20
82.799705
 30
0.0
 11
124.778298
 21
82.797093
 31
0.0
  0
LINE
  5
424
100
AcDbEntity
  8
ALPHA
100
AcDbLine
 10
132.369679
 20
89.838559
 30
0.0
 11
131.769679
 21
89.838559
 31
0.0
  0
LINE
  5
425
100
AcDbEntity
  8
ALPHA
100
AcDbLine
 10
131.769679
 20
88.838559
 30
0.0
 11
130.769679
 21
88.838559
 31
0.0
  0
LINE
  5
426
100
AcDbEntity
  8
ALPHA
100
AcDbLine
 10
133.369679
 20
88.838559
 30
0.0
 11
132.369679
 21
88.838559
 31
0.0
  0
LINE
  5
427
100
AcDbEntity
  8
ALPHA
100
AcDbLine
 10
136.369679
 20
88.538559
 30
0.0
 11
137.369679
 21
88.538559
 31
0.0
  0
LINE
  5
428
100
AcDbEntity
  8
ALPHA
100
AcDbLine
 10
126.769679
 20
88.538559
 30
0.0
 11
127.769679
 21
88.538559
 31
0.0
  0
LINE
  5
429
100
AcDbEntity
  8
ALPHA
100
AcDbLine
 10
132.369679
 20
88.238559
 30
0.0
 11
133.369679
 21
88.238559
 31
0.0
  0
LINE
  5
42A
100
AcDbEntity
  8
ALPHA
100
AcDbLine
 10
130.769679
 20
88.238559
 30
0.0
 11
131.769679
 21
88.238559
 31
0.0
  0
LINE
  5
42B
100
AcDbEntity
  8
ALPHA
100
AcDbLine
 10
131.769679
 20
87.238559
 30
0.0
 11
132.369679
 21
87.238559
 31
0.0
  0
LINE
  5
42C
100
AcDbEntity
  8
ALPHA
100
AcDbLine
 10
139.719679
 20
87.088559
 30
0.0
 11
140.719679
 21
87.088559
 31
0.0
  0
LINE
  5
42D
100
AcDbEntity
  8
ALPHA
100
AcDbLine
 10
137.369679
 20
87.088559
 30
0.0
 11
139.719679
 21
87.088559
 31
0.0
  0
LINE
  5
42E
100
AcDbEntity
  8
ALPHA
100
AcDbLine
 10
136.369679
 20
87.088559
 30
0.0
 11
137.369679
 21
87.088559
 31
0.0
  0
LINE
  5
42F
100
AcDbEntity
  8
ALPHA
100
AcDbLine
 10
126.769679
 20
87.088559
 30
0.0
 11
127.769679
 21
87.088559
 31
0.0
  0
LINE
  5
430
100
AcDbEntity
  8
ALPHA
100
AcDbLine
 10
66.519679
 20
87.088559
 30
0.0
 11
126.769679
 21
87.088559
 31
0.0
  0
LINE
  5
431
100
AcDbEntity
  8
ALPHA
100
AcDbLine
 10
65.519679
 20
87.088559
 30
0.0
 11
66.519679
 21
87.088559
 31
0.0
  0
LINE
  5
432
100
AcDbEntity
  8
ALPHA
100
AcDbLine
 10
137.869679
 20
86.088559
 30
0.0
 11
139.219679
 21
86.088559
 31
0.0
  0
LINE
  5
433
100
AcDbEntity
  8
ALPHA
100
AcDbLine
 10
67.019679
 20
86.088559
 30
0.0
 11
126.269679
 21
86.088559
 31
0.0
  0
LINE
  5
434
100
AcDbEntity
  8
ALPHA
100
AcDbLine
 10
64.169679
 20
85.738559
 30
0.0
 11
64.669679
 21
85.738559
 31
0.0
  0
LINE
  5
435
100
AcDbEntity
  8
ALPHA
100
AcDbLine
 10
142.069679
 20
85.738559
 30
0.0
 11
141.569679
 21
85.738559
 31
0.0
  0
LINE
  5
436
100
AcDbEntity
  8
ALPHA
100
AcDbLine
 10
137.869679
 20
85.588559
 30
0.0
 11
139.219679
 21
85.588559
 31
0.0
  0
LINE
  5
437
100
AcDbEntity
  8
ALPHA
100
AcDbLine
 10
67.019679
 20
85.588559
 30
0.0
 11
126.269679
 21
85.588559
 31
0.0
  0
LINE
  5
438
100
AcDbEntity
  8
ALPHA
100
AcDbLine
 10
65.669679
 20
84.738559
 30
0.0
 11
140.569679
 21
84.738559
 31
0.0
  0
LINE
  5
439
100
AcDbEntity
  8
ALPHA
100
AcDbLine
 10
141.452869
 20
84.526545
 30
0.0
 11
150.331749
 21
84.526545
 31
0.0
  0
LINE
  5
43A
100
AcDbEntity
  8
ALPHA
100
AcDbLine
 10
55.907608
 20
84.526545
 30
0.0
 11
64.806266
 21
84.526545
 31
0.0
  0
LINE
  5
43B
100
AcDbEntity
  8
ALPHA
100
AcDbLine
 10
55.619622
 20
84.238559
 30
0.0
 11
150.619736
 21
84.238559
 31
0.0
  0
LINE
  5
43C
100
AcDbEntity
  8
ALPHA
100
AcDbLine
 10
124.905659
 20
82.978936
 30
0.0
 11
119.26446
 21
82.960704
 31
0.0
  0
LINE
  5
43D
100
AcDbEntity
  8
ALPHA
100
AcDbLine
 10
132.974897
 20
82.788806
 30
0.0
 11
128.535261
 21
82.77218
 31
0.0
  0
LINE
  5
43E
100
AcDbEntity
  8
ALPHA
100
AcDbLine
 10
119.998124
 20
82.932328
 30
0.0
 11
123.466882
 21
82.949805
 31
0.0
  0
LINE
  5
43F
100
AcDbEntity
  8
ALPHA
100
AcDbLine
 10
132.241233
 20
82.817182
 30
0.0
 11
128.772475
 21
82.799705
 31
0.0
  0
LINE
  5
440
100
AcDbEntity
  8
ALPHA
100
AcDbLine
 10
119.26446
 20
82.960704
 30
0.0
 11
116.63037
 21
82.938854
 31
0.0
  0
LINE
  5
441
100
AcDbEntity
  8
ALPHA
100
AcDbLine
 10
135.608988
 20
82.810656
 30
0.0
 11
132.974897
 21
82.788806
 31
0.0
  0
LINE
  5
442
100
AcDbEntity
  8
ALPHA
100
AcDbLine
 10
118.32545
 20
82.914024
 30
0.0
 11
119.998124
 21
82.932328
 31
0.0
  0
LINE
  5
443
100
AcDbEntity
  8
ALPHA
100
AcDbLine
 10
133.913907
 20
82.835486
 30
0.0
 11
132.241233
 21
82.817182
 31
0.0
  0
LINE
  5
444
100
AcDbEntity
  8
ALPHA
100
AcDbLine
 10
116.609961
 20
84.238559
 30
0.0
 11
115.727374
 21
84.227065
 31
0.0
  0
LINE
  5
445
100
AcDbEntity
  8
ALPHA
100
AcDbLine
 10
116.63037
 20
82.938854
 30
0.0
 11
115.346024
 21
82.920872
 31
0.0
  0
LINE
  5
446
100
AcDbEntity
  8
ALPHA
100
AcDbLine
 10
136.893333
 20
82.828638
 30
0.0
 11
135.608988
 21
82.810656
 31
0.0
  0
LWPOLYLINE
  5
447
100
AcDbEntity
  8
ALPHA
100
AcDbPolyline
 90
        5
 70
     0
 43
0.0
 10
115.727374
 20
84.227065
 10
115.033124
 20
84.21478
 10
114.528569
 20
84.201809
 10
114.22234
 20
84.188374
 10
114.119679
 20
84.174707
  0
LWPOLYLINE
  5
44E
100
AcDbEntity
  8
ALPHA
100
AcDbPolyline
 90
        6
 70
     0
 43
0.0
 10
115.346024
 20
82.920872
 10
114.866653
 20
82.911124
 10
114.502753
 20
82.901003
 10
114.258059
 20
82.890612
 10
114.135081
 20
82.880059
 10
114.119708
 20
82.874755
  0
LWPOLYLINE
  5
456
100
AcDbEntity
  8
ALPHA
100
AcDbPolyline
 90
        5
 70
     0
 43
0.0
 10
117.119784
 20
82.874755
 10
117.144844
 20
82.880624
 10
117.345327
 20
82.892232
 10
117.741815
 20
82.903448
 10
118.32545
 20
82.914024
  0
LWPOLYLINE
  5
45D
100
AcDbEntity
  8
ALPHA
100
AcDbPolyline
 90
        6
 70
     0
 43
0.0
 10
55.907608
 20
84.526545
 10
55.443737
 20
84.600072
 10
55.025804
 20
84.813114
 10
54.694234
 20
85.144684
 10
54.481192
 20
85.562617
 10
54.407665
 20
86.026488
  0
LWPOLYLINE
  5
465
100
AcDbEntity
  8
ALPHA
100
AcDbPolyline
 90
        6
 70
     0
 43
0.0
 10
55.619622
 20
84.238559
 10
55.155751
 20
84.312085
 10
54.737817
 20
84.525128
 10
54.406248
 20
84.856697
 10
54.193205
 20
85.274631
 10
54.119679
 20
85.738502
  0
LWPOLYLINE
  5
46D
100
AcDbEntity
  8
ALPHA
100
AcDbPolyline
 90
        5
 70
     0
 43
0.0
 10
135.119573
 20
82.874755
 10
135.094513
 20
82.868886
 10
134.89403
 20
82.857278
 10
134.497542
 20
82.846062
 10
133.913907
 20
82.835486
  0
INSERT
  5
4F2
100
AcDbEntity
  8
0
100
AcDbBlockReference
  2
SCH_ISO
 10
0.0
 20
0.0
 30
0.0
  0
ENDSEC
  0
SECTION
  2
OBJECTS
  0
DICTIONARY
  5
533
100
AcDbDictionary
  3
ACAD_GROUP
350
534
  3
ACAD_MLINESTYLE
350
541
  3
ACDBVARIABLEDICTIONARY
350
580
  0
DICTIONARY
  5
534
102
{ACAD_REACTORS
330
533
102
}
100
AcDbDictionary
  0
DICTIONARY
  5
541
102
{ACAD_REACTORS
330
533
102
}
100
AcDbDictionary
  3
STANDARD
350
542
  0
DICTIONARY
  5
580
102
{ACAD_REACTORS
330
533
102
}
100
AcDbDictionary
  3
DIMADEC
350
581
  0
MLINESTYLE
  5
542
102
{ACAD_REACTORS
330
541
102
}
100
AcDbMlineStyle
  2
STANDARD
 70
     0
  3

 62
   256
 51
90.0
 52
90.0
 71
     2
 49
0.5
 62
   256
  6
BYLAYER
 49
-0.5
 62
   256
  6
BYLAYER
  0
DICTIONARYVAR
  5
581
102
{ACAD_REACTORS
330
580
102
}
100
DictionaryVariables
280
     0
  1
0
  0
ENDSEC
  0
EOF
