  0
SECTION
  2
HEADER
  9
$ACADVER
  1
AC1014
  9
$ACADMAINTVER
 70
     0
  9
$DWGCODEPAGE
  3
ANSI_1252
  9
$INSBASE
 10
0.0
 20
0.0
 30
0.0
  9
$EXTMIN
 10
66.008146
 20
142.478496
 30
0.0
  9
$EXTMAX
 10
128.208146
 20
172.349872
 30
0.0
  9
$LIMMIN
 10
0.0
 20
0.0
  9
$LIMMAX
 10
210.0
 20
297.0
  9
$ORTHOMODE
 70
     0
  9
$REGENMODE
 70
     1
  9
$FILLMODE
 70
     1
  9
$QTEXTMODE
 70
     0
  9
$MIRRTEXT
 70
     1
  9
$DRAGMODE
 70
     2
  9
$LTSCALE
 40
10.0
  9
$OSMODE
 70
     0
  9
$ATTMODE
 70
     1
  9
$TEXTSIZE
 40
2.9
  9
$TRACEWID
 40
0.05
  9
$TEXTSTYLE
  7
ROMANS
  9
$CLAYER
  8
COTATION1
  9
$CELTYPE
  6
BYLAYER
  9
$CECOLOR
 62
   256
  9
$CELTSCALE
 40
1.0
  9
$DELOBJ
 70
     1
  9
$DISPSILH
 70
     0
  9
$DIMSCALE
 40
1.0
  9
$DIMASZ
 40
3.0
  9
$DIMEXO
 40
0.0625
  9
$DIMDLI
 40
0.38
  9
$DIMRND
 40
0.01
  9
$DIMDLE
 40
0.0
  9
$DIMEXE
 40
0.18
  9
$DIMTP
 40
0.0
  9
$DIMTM
 40
0.0
  9
$DIMTXT
 40
2.5
  9
$DIMCEN
 40
0.09
  9
$DIMTSZ
 40
0.0
  9
$DIMTOL
 70
     0
  9
$DIMLIM
 70
     0
  9
$DIMTIH
 70
     0
  9
$DIMTOH
 70
     0
  9
$DIMSE1
 70
     0
  9
$DIMSE2
 70
     0
  9
$DIMTAD
 70
     1
  9
$DIMZIN
 70
    12
  9
$DIMBLK
  1

  9
$DIMASO
 70
     1
  9
$DIMSHO
 70
     1
  9
$DIMPOST
  1

  9
$DIMAPOST
  1

  9
$DIMALT
 70
     0
  9
$DIMALTD
 70
     2
  9
$DIMALTF
 40
25.4
  9
$DIMLFAC
 40
1.0
  9
$DIMTOFL
 70
     1
  9
$DIMTVP
 40
0.0
  9
$DIMTIX
 70
     0
  9
$DIMSOXD
 70
     0
  9
$DIMSAH
 70
     0
  9
$DIMBLK1
  1

  9
$DIMBLK2
  1

  9
$DIMSTYLE
  2
SC_STAND
  9
$DIMCLRD
 70
     0
  9
$DIMCLRE
 70
     0
  9
$DIMCLRT
 70
     0
  9
$DIMTFAC
 40
1.0
  9
$DIMGAP
 40
1.0
  9
$DIMJUST
 70
     0
  9
$DIMSD1
 70
     0
  9
$DIMSD2
 70
     0
  9
$DIMTOLJ
 70
     1
  9
$DIMTZIN
 70
    12
  9
$DIMALTZ
 70
    12
  9
$DIMALTTZ
 70
    12
  9
$DIMFIT
 70
     5
  9
$DIMUPT
 70
     0
  9
$DIMUNIT
 70
     2
  9
$DIMDEC
 70
     4
  9
$DIMTDEC
 70
     4
  9
$DIMALTU
 70
     2
  9
$DIMALTTD
 70
     2
  9
$DIMTXSTY
  7
ROMANS
  9
$DIMAUNIT
 70
     0
  9
$LUNITS
 70
     2
  9
$LUPREC
 70
     4
  9
$SKETCHINC
 40
0.1
  9
$FILLETRAD
 40
0.0
  9
$AUNITS
 70
     0
  9
$AUPREC
 70
     0
  9
$MENU
  1
.
  9
$ELEVATION
 40
0.0
  9
$PELEVATION
 40
0.0
  9
$THICKNESS
 40
0.0
  9
$LIMCHECK
 70
     0
  9
$BLIPMODE
 70
     1
  9
$CHAMFERA
 40
0.0
  9
$CHAMFERB
 40
0.0
  9
$CHAMFERC
 40
0.0
  9
$CHAMFERD
 40
0.0
  9
$SKPOLY
 70
     0
  9
$TDCREATE
 40
2450987.453499537
  9
$TDUPDATE
 40
2451387.898460845
  9
$TDINDWG
 40
0.0035482755
  9
$TDUSRTIMER
 40
0.0035482755
  9
$USRTIMER
 70
     1
  9
$ANGBASE
 50
0.0
  9
$ANGDIR
 70
     0
  9
$PDMODE
 70
     0
  9
$PDSIZE
 40
0.0
  9
$PLINEWID
 40
0.0
  9
$COORDS
 70
     1
  9
$SPLFRAME
 70
     0
  9
$SPLINETYPE
 70
     6
  9
$SPLINESEGS
 70
     8
  9
$ATTDIA
 70
     1
  9
$ATTREQ
 70
     1
  9
$HANDLING
 70
     1
  9
$HANDSEED
  5
29C7
  9
$SURFTAB1
 70
     6
  9
$SURFTAB2
 70
     6
  9
$SURFTYPE
 70
     6
  9
$SURFU
 70
     6
  9
$SURFV
 70
     6
  9
$UCSNAME
  2

  9
$UCSORG
 10
0.0
 20
0.0
 30
0.0
  9
$UCSXDIR
 10
1.0
 20
0.0
 30
0.0
  9
$UCSYDIR
 10
0.0
 20
1.0
 30
0.0
  9
$PUCSNAME
  2

  9
$PUCSORG
 10
0.0
 20
0.0
 30
0.0
  9
$PUCSXDIR
 10
1.0
 20
0.0
 30
0.0
  9
$PUCSYDIR
 10
0.0
 20
1.0
 30
0.0
  9
$USERI1
 70
     0
  9
$USERI2
 70
     0
  9
$USERI3
 70
     0
  9
$USERI4
 70
     0
  9
$USERI5
 70
     0
  9
$USERR1
 40
0.0
  9
$USERR2
 40
0.0
  9
$USERR3
 40
0.0
  9
$USERR4
 40
0.0
  9
$USERR5
 40
0.0
  9
$WORLDVIEW
 70
     1
  9
$SHADEDGE
 70
     3
  9
$SHADEDIF
 70
    70
  9
$TILEMODE
 70
     1
  9
$MAXACTVP
 70
    16
  9
$PINSBASE
 10
0.0
 20
0.0
 30
0.0
  9
$PLIMCHECK
 70
     0
  9
$PEXTMIN
 10
0.0
 20
0.0
 30
0.0
  9
$PEXTMAX
 10
420.0
 20
297.0
 30
0.0
  9
$PLIMMIN
 10
0.0
 20
0.0
  9
$PLIMMAX
 10
420.0
 20
297.0
  9
$UNITMODE
 70
     0
  9
$VISRETAIN
 70
     0
  9
$PLINEGEN
 70
     0
  9
$PSLTSCALE
 70
     1
  9
$TREEDEPTH
 70
  3020
  9
$PICKSTYLE
 70
     1
  9
$CMLSTYLE
  2
STANDARD
  9
$CMLJUST
 70
     0
  9
$CMLSCALE
 40
1.0
  9
$PROXYGRAPHICS
 70
     1
  9
$MEASUREMENT
 70
     0
  0
ENDSEC
  0
SECTION
  2
CLASSES
  0
CLASS
  1
DICTIONARYVAR
  2
AcDbDictionaryVar
  3
"AutoCAD"
 90
        0
280
     0
281
     0
  0
CLASS
  1
LWPOLYLINE
  2
AcDbPolyline
  3
"AutoCAD"
 90
        0
280
     0
281
     1
  0
ENDSEC
  0
SECTION
  2
TABLES
  0
TABLE
  2
VPORT
  5
296B
100
AcDbSymbolTable
 70
     1
  0
VPORT
  5
29C2
100
AcDbSymbolTableRecord
100
AcDbViewportTableRecord
  2
*ACTIVE
 70
     0
 10
0.0
 20
0.0
 11
1.0
 21
1.0
 12
257.127367
 22
153.871495
 13
0.0
 23
0.0
 14
1.0
 24
1.0
 15
10.0
 25
10.0
 16
0.0
 26
0.0
 36
1.0
 17
0.0
 27
0.0
 37
0.0
 40
307.74299
 41
1.671053
 42
50.0
 43
0.0
 44
0.0
 50
0.0
 51
0.0
 71
     0
 72
   100
 73
     1
 74
     1
 75
     0
 76
     1
 77
     0
 78
     0
  0
ENDTAB
  0
TABLE
  2
LTYPE
  5
2968
100
AcDbSymbolTable
 70
    23
  0
LTYPE
  5
2974
100
AcDbSymbolTableRecord
100
AcDbLinetypeTableRecord
  2
BYBLOCK
 70
     0
  3

 72
    65
 73
     0
 40
0.0
  0
LTYPE
  5
2975
100
AcDbSymbolTableRecord
100
AcDbLinetypeTableRecord
  2
BYLAYER
 70
     0
  3

 72
    65
 73
     0
 40
0.0
  0
LTYPE
  5
2976
100
AcDbSymbolTableRecord
100
AcDbLinetypeTableRecord
  2
CONTINUOUS
 70
     0
  3
Solid line
 72
    65
 73
     0
 40
0.0
  0
LTYPE
  5
2988
100
AcDbSymbolTableRecord
100
AcDbLinetypeTableRecord
  2
AXES
 70
     0
  3
____ _ ____ _ ____ _ ____ _ ____ _ ____ _ ____ 
 72
    65
 73
     4
 40
2.0
 49
1.25
 74
     0
 49
-0.25
 74
     0
 49
0.25
 74
     0
 49
-0.25
 74
     0
  0
LTYPE
  5
2989
100
AcDbSymbolTableRecord
100
AcDbLinetypeTableRecord
  2
AXES2
 70
     0
  3
___ _ ___ _ ___ _ ___ _ ___ _ ___ _ ___ _ ___ _
 72
    65
 73
     4
 40
1.125
 49
0.75
 74
     0
 49
-0.125
 74
     0
 49
0.125
 74
     0
 49
-0.125
 74
     0
  0
LTYPE
  5
298A
100
AcDbSymbolTableRecord
100
AcDbLinetypeTableRecord
  2
AXESX2
 70
     0
  3
________  __  ________  __  ________  __  _____
 72
    65
 73
     4
 40
4.0
 49
2.5
 74
     0
 49
-0.5
 74
     0
 49
0.5
 74
     0
 49
-0.5
 74
     0
  0
LTYPE
  5
298B
100
AcDbSymbolTableRecord
100
AcDbLinetypeTableRecord
  2
TIRETPT
 70
     0
  3
__ . __ . __ . __ . __ . __ . __ . __ . __ . __
 72
    65
 73
     4
 40
1.0
 49
0.5
 74
     0
 49
-0.25
 74
     0
 49
0.0
 74
     0
 49
-0.25
 74
     0
  0
LTYPE
  5
298C
100
AcDbSymbolTableRecord
100
AcDbLinetypeTableRecord
  2
TIRETPT2
 70
     0
  3
_._._._._._._._._._._._._._._._._._._._._._._._
 72
    65
 73
     4
 40
0.5
 49
0.25
 74
     0
 49
-0.125
 74
     0
 49
0.0
 74
     0
 49
-0.125
 74
     0
  0
LTYPE
  5
298D
100
AcDbSymbolTableRecord
100
AcDbLinetypeTableRecord
  2
TIRETPTX2
 70
     0
  3
____  .  ____  .  ____  .  ____  .  ____  .  __
 72
    65
 73
     4
 40
2.0
 49
1.0
 74
     0
 49
-0.5
 74
     0
 49
0.0
 74
     0
 49
-0.5
 74
     0
  0
LTYPE
  5
298E
100
AcDbSymbolTableRecord
100
AcDbLinetypeTableRecord
  2
DISCONTINU
 70
     0
  3
__ __ __ __ __ __ __ __ __ __ __ __ __ __ __ __
 72
    65
 73
     2
 40
0.75
 49
0.5
 74
     0
 49
-0.25
 74
     0
  0
LTYPE
  5
298F
100
AcDbSymbolTableRecord
100
AcDbLinetypeTableRecord
  2
DISCONTINU2
 70
     0
  3
_ _ _ _ _ _ _ _ _ _ _ _ _ _ _ _ _ _ _ _ _ _ _ _
 72
    65
 73
     2
 40
0.375
 49
0.25
 74
     0
 49
-0.125
 74
     0
  0
LTYPE
  5
2990
100
AcDbSymbolTableRecord
100
AcDbLinetypeTableRecord
  2
DISCONTINUX2
 70
     0
  3
____  ____  ____  ____  ____  ____  ____  ____ 
 72
    65
 73
     2
 40
1.5
 49
1.0
 74
     0
 49
-0.5
 74
     0
  0
LTYPE
  5
2991
100
AcDbSymbolTableRecord
100
AcDbLinetypeTableRecord
  2
DIVISE
 70
     0
  3
____ . . ____ . . ____ . . ____ . . ____ . . __
 72
    65
 73
     6
 40
1.25
 49
0.5
 74
     0
 49
-0.25
 74
     0
 49
0.0
 74
     0
 49
-0.25
 74
     0
 49
0.0
 74
     0
 49
-0.25
 74
     0
  0
LTYPE
  5
2992
100
AcDbSymbolTableRecord
100
AcDbLinetypeTableRecord
  2
DIVISE2
 70
     0
  3
__..__..__..__..__..__..__..__..__..__..__..__.
 72
    65
 73
     6
 40
0.625
 49
0.25
 74
     0
 49
-0.125
 74
     0
 49
0.0
 74
     0
 49
-0.125
 74
     0
 49
0.0
 74
     0
 49
-0.125
 74
     0
  0
LTYPE
  5
2993
100
AcDbSymbolTableRecord
100
AcDbLinetypeTableRecord
  2
DIVISEX2
 70
     0
  3
________  .  .  ________  .  .  ________  .  . 
 72
    65
 73
     6
 40
2.5
 49
1.0
 74
     0
 49
-0.5
 74
     0
 49
0.0
 74
     0
 49
-0.5
 74
     0
 49
0.0
 74
     0
 49
-0.5
 74
     0
  0
LTYPE
  5
2994
100
AcDbSymbolTableRecord
100
AcDbLinetypeTableRecord
  2
POINTILLE
 70
     0
  3
. . . . . . . . . . . . . . . . . . . . . . . .
 72
    65
 73
     2
 40
0.25
 49
0.0
 74
     0
 49
-0.25
 74
     0
  0
LTYPE
  5
2995
100
AcDbSymbolTableRecord
100
AcDbLinetypeTableRecord
  2
POINTILLE2
 70
     0
  3
...............................................
 72
    65
 73
     2
 40
0.125
 49
0.0
 74
     0
 49
-0.125
 74
     0
  0
LTYPE
  5
2996
100
AcDbSymbolTableRecord
100
AcDbLinetypeTableRecord
  2
POINTILLEX2
 70
     0
  3
.  .  .  .  .  .  .  .  .  .  .  .  .  .  .  . 
 72
    65
 73
     2
 40
0.5
 49
0.0
 74
     0
 49
-0.5
 74
     0
  0
LTYPE
  5
2997
100
AcDbSymbolTableRecord
100
AcDbLinetypeTableRecord
  2
CACHE
 70
     0
  3
__ __ __ __ __ __ __ __ __ __ __ __ __ __ __ __
 72
    65
 73
     2
 40
0.375
 49
0.25
 74
     0
 49
-0.125
 74
     0
  0
LTYPE
  5
2998
100
AcDbSymbolTableRecord
100
AcDbLinetypeTableRecord
  2
CACHE2
 70
     0
  3
_ _ _ _ _ _ _ _ _ _ _ _ _ _ _ _ _ _ _ _ _ _ _ _
 72
    65
 73
     2
 40
0.1875
 49
0.125
 74
     0
 49
-0.0625
 74
     0
  0
LTYPE
  5
2999
100
AcDbSymbolTableRecord
100
AcDbLinetypeTableRecord
  2
CACHEX2
 70
     0
  3
____ ____ ____ ____ ____ ____ ____ ____ ____ __
 72
    65
 73
     2
 40
0.75
 49
0.5
 74
     0
 49
-0.25
 74
     0
  0
LTYPE
  5
299A
100
AcDbSymbolTableRecord
100
AcDbLinetypeTableRecord
  2
FANTOME
 70
     0
  3
______  __  __  ______  __  __  ______  __  __ 
 72
    65
 73
     6
 40
2.5
 49
1.25
 74
     0
 49
-0.25
 74
     0
 49
0.25
 74
     0
 49
-0.25
 74
     0
 49
0.25
 74
     0
 49
-0.25
 74
     0
  0
LTYPE
  5
299B
100
AcDbSymbolTableRecord
100
AcDbLinetypeTableRecord
  2
FANTOME2
 70
     0
  3
___ _ _ ___ _ _ ___ _ _ ___ _ _ ___ _ _ ___ _ _
 72
    65
 73
     6
 40
1.25
 49
0.625
 74
     0
 49
-0.125
 74
     0
 49
0.125
 74
     0
 49
-0.125
 74
     0
 49
0.125
 74
     0
 49
-0.125
 74
     0
  0
LTYPE
  5
299C
100
AcDbSymbolTableRecord
100
AcDbLinetypeTableRecord
  2
FANTOMEX2
 70
     0
  3
____________    ____    ____    ____________   
 72
    65
 73
     6
 40
5.0
 49
2.5
 74
     0
 49
-0.5
 74
     0
 49
0.5
 74
     0
 49
-0.5
 74
     0
 49
0.5
 74
     0
 49
-0.5
 74
     0
  0
LTYPE
  5
299D
100
AcDbSymbolTableRecord
100
AcDbLinetypeTableRecord
  2
0
 70
     0
  3
MEDUSA PEN 0
 72
    65
 73
     0
 40
0.0
  0
ENDTAB
  0
TABLE
  2
LAYER
  5
2965
100
AcDbSymbolTable
 70
    21
  0
LAYER
  5
2971
100
AcDbSymbolTableRecord
100
AcDbLayerTableRecord
  2
0
 70
     0
 62
   255
  6
CONTINUOUS
  0
LAYER
  5
29A5
100
AcDbSymbolTableRecord
100
AcDbLayerTableRecord
  2
AXE
 70
     0
 62
    80
  6
AXES2
  0
LAYER
  5
29A6
100
AcDbSymbolTableRecord
100
AcDbLayerTableRecord
  2
CONSTRUCTION
 70
     0
 62
     6
  6
CONTINUOUS
  0
LAYER
  5
29A7
100
AcDbSymbolTableRecord
100
AcDbLayerTableRecord
  2
COTATION1
 70
     0
 62
     2
  6
CONTINUOUS
  0
LAYER
  5
29A8
100
AcDbSymbolTableRecord
100
AcDbLayerTableRecord
  2
HACHURES
 70
     0
 62
     9
  6
CONTINUOUS
  0
LAYER
  5
29A9
100
AcDbSymbolTableRecord
100
AcDbLayerTableRecord
  2
FMULT
 70
     0
 62
     6
  6
CONTINUOUS
  0
LAYER
  5
29AA
100
AcDbSymbolTableRecord
100
AcDbLayerTableRecord
  2
TEXTE
 70
     0
 62
   131
  6
CONTINUOUS
  0
LAYER
  5
29AB
100
AcDbSymbolTableRecord
100
AcDbLayerTableRecord
  2
FDP_CARTOUCHE
 70
     0
 62
     4
  6
CONTINUOUS
  0
LAYER
  5
29AC
100
AcDbSymbolTableRecord
100
AcDbLayerTableRecord
  2
FDP_TEXTES
 70
     0
 62
     5
  6
CONTINUOUS
  0
LAYER
  5
29AD
100
AcDbSymbolTableRecord
100
AcDbLayerTableRecord
  2
FDP_LOGO_MG
 70
     0
 62
    30
  6
CONTINUOUS
  0
LAYER
  5
29AE
100
AcDbSymbolTableRecord
100
AcDbLayerTableRecord
  2
FDP_LOGO_SCH
 70
     0
 62
     3
  6
CONTINUOUS
  0
LAYER
  5
29AF
100
AcDbSymbolTableRecord
100
AcDbLayerTableRecord
  2
FDP_FDP
 70
     0
 62
     5
  6
CONTINUOUS
  0
LAYER
  5
29B0
100
AcDbSymbolTableRecord
100
AcDbLayerTableRecord
  2
COTATION2
 70
     0
 62
     2
  6
CONTINUOUS
  0
LAYER
  5
29B1
100
AcDbSymbolTableRecord
100
AcDbLayerTableRecord
  2
COTATION3
 70
     0
 62
     2
  6
CONTINUOUS
  0
LAYER
  5
29B2
100
AcDbSymbolTableRecord
100
AcDbLayerTableRecord
  2
COTATION4
 70
     0
 62
     2
  6
CONTINUOUS
  0
LAYER
  5
29B3
100
AcDbSymbolTableRecord
100
AcDbLayerTableRecord
  2
ASHADE
 70
     0
 62
     7
  6
CONTINUOUS
  0
LAYER
  5
29B4
100
AcDbSymbolTableRecord
100
AcDbLayerTableRecord
  2
POINTILLE_COURT
 70
     0
 62
    40
  6
CACHE2
  0
LAYER
  5
29B5
100
AcDbSymbolTableRecord
100
AcDbLayerTableRecord
  2
POINTILLE_MOYEN
 70
     0
 62
   140
  6
CACHE
  0
LAYER
  5
29B6
100
AcDbSymbolTableRecord
100
AcDbLayerTableRecord
  2
POINTILLE_LONG
 70
     0
 62
   240
  6
CACHEX2
  0
LAYER
  5
29B7
100
AcDbSymbolTableRecord
100
AcDbLayerTableRecord
  2
ALPHA
 70
     0
 62
   255
  6
CONTINUOUS
  0
LAYER
  5
29B8
100
AcDbSymbolTableRecord
100
AcDbLayerTableRecord
  2
DEFPOINTS
 70
     0
 62
     7
  6
CONTINUOUS
  0
ENDTAB
  0
TABLE
  2
STYLE
  5
2966
100
AcDbSymbolTable
 70
     4
  0
STYLE
  5
2972
100
AcDbSymbolTableRecord
100
AcDbTextStyleTableRecord
  2
STANDARD
 70
     0
 40
0.0
 41
1.0
 50
0.0
 71
     0
 42
0.2
  3
txt
  4

  0
STYLE
  5
2985
100
AcDbSymbolTableRecord
100
AcDbTextStyleTableRecord
  2
ROMANS
 70
     0
 40
0.0
 41
1.0
 50
0.0
 71
     0
 42
2.9
  3
romans.shx
  4

  0
STYLE
  5
2986
100
AcDbSymbolTableRecord
100
AcDbTextStyleTableRecord
  2
INFOCAR
 70
     0
 40
0.0
 41
1.34
 50
0.0
 71
     0
 42
2.0
  3
ROMANS.SHX
  4

  0
STYLE
  5
2987
100
AcDbSymbolTableRecord
100
AcDbTextStyleTableRecord
  2
CARTOUCHE
 70
     0
 40
0.0
 41
1.0
 50
0.0
 71
     0
 42
0.2
  3
ROMANS.SHX
  4

  0
ENDTAB
  0
TABLE
  2
VIEW
  5
2969
100
AcDbSymbolTable
 70
     0
  0
ENDTAB
  0
TABLE
  2
UCS
  5
296A
100
AcDbSymbolTable
 70
     0
  0
ENDTAB
  0
TABLE
  2
APPID
  5
296C
100
AcDbSymbolTable
 70
     3
  0
APPID
  5
2973
100
AcDbSymbolTableRecord
100
AcDbRegAppTableRecord
  2
ACAD
 70
     0
  0
APPID
  5
299F
100
AcDbSymbolTableRecord
100
AcDbRegAppTableRecord
  2
AVE_RENDER
 70
     0
  0
APPID
  5
29A0
100
AcDbSymbolTableRecord
100
AcDbRegAppTableRecord
  2
AVE_MATERIAL
 70
     0
  0
ENDTAB
  0
TABLE
  2
DIMSTYLE
  5
296D
100
AcDbSymbolTable
 70
     2
  0
DIMSTYLE
105
29A1
100
AcDbSymbolTableRecord
100
AcDbDimStyleTableRecord
  2
STANDARD
 70
     0
  3

  4

  5

  6

  7

 40
1.0
 41
0.18
 42
0.0625
 43
0.38
 44
0.18
 45
0.0
 46
0.0
 47
0.0
 48
0.0
140
0.18
141
0.09
142
0.0
143
25.4
144
1.0
145
0.0
146
1.0
147
0.09
 71
     0
 72
     0
 73
     1
 74
     1
 75
     0
 76
     0
 77
     0
 78
     0
170
     0
171
     2
172
     0
173
     0
174
     0
175
     0
176
     0
177
     0
178
     0
270
     2
271
     4
272
     4
273
     2
274
     2
340
2985
275
     0
280
     0
281
     0
282
     0
283
     1
284
    12
285
    12
286
    12
287
     5
288
     0
  0
DIMSTYLE
105
29A2
102
{ACAD_REACTORS
330
225A
330
2269
330
2276
102
}
100
AcDbSymbolTableRecord
100
AcDbDimStyleTableRecord
  2
SC_STAND
 70
     0
  3

  4

  5

  6

  7

 40
1.0
 41
3.0
 42
0.0625
 43
0.38
 44
0.18
 45
0.01
 46
0.0
 47
0.0
 48
0.0
140
2.5
141
0.09
142
0.0
143
25.4
144
1.0
145
0.0
146
1.0
147
1.0
 71
     0
 72
     0
 73
     0
 74
     0
 75
     0
 76
     0
 77
     1
 78
    12
170
     0
171
     2
172
     1
173
     0
174
     0
175
     0
176
     0
177
     0
178
     0
270
     2
271
     4
272
     4
273
     2
274
     2
340
2985
275
     0
280
     0
281
     0
282
     0
283
     1
284
    12
285
    12
286
    12
287
     5
288
     0
  0
ENDTAB
  0
TABLE
  2
BLOCK_RECORD
  5
2964
100
AcDbSymbolTable
 70
     6
  0
BLOCK_RECORD
  5
297A
100
AcDbSymbolTableRecord
100
AcDbBlockTableRecord
  2
*MODEL_SPACE
  0
BLOCK_RECORD
  5
2977
100
AcDbSymbolTableRecord
100
AcDbBlockTableRecord
  2
*PAPER_SPACE
  0
BLOCK_RECORD
  5
297F
100
AcDbSymbolTableRecord
100
AcDbBlockTableRecord
  2
AVE_RENDER
  0
BLOCK_RECORD
  5
2980
100
AcDbSymbolTableRecord
100
AcDbBlockTableRecord
  2
AVE_GLOBAL
  0
BLOCK_RECORD
  5
2981
100
AcDbSymbolTableRecord
100
AcDbBlockTableRecord
  2
A$C4361
  0
BLOCK_RECORD
  5
2982
100
AcDbSymbolTableRecord
100
AcDbBlockTableRecord
  2
*D3
  0
BLOCK_RECORD
  5
2983
100
AcDbSymbolTableRecord
100
AcDbBlockTableRecord
  2
*D4
  0
BLOCK_RECORD
  5
2984
100
AcDbSymbolTableRecord
100
AcDbBlockTableRecord
  2
*D5
  0
ENDTAB
  0
ENDSEC
  0
SECTION
  2
BLOCKS
  0
BLOCK
  5
29BB
100
AcDbEntity
  8
0
100
AcDbBlockBegin
  2
*MODEL_SPACE
 70
     0
 10
0.0
 20
0.0
 30
0.0
  3
*MODEL_SPACE
  1

  0
ENDBLK
  5
29BC
100
AcDbEntity
  8
0
100
AcDbBlockEnd
  0
BLOCK
  5
29B9
100
AcDbEntity
 67
     1
  8
0
100
AcDbBlockBegin
  2
*PAPER_SPACE
 70
     0
 10
0.0
 20
0.0
 30
0.0
  3
*PAPER_SPACE
  1

  0
ENDBLK
  5
29BA
100
AcDbEntity
 67
     1
  8
0
100
AcDbBlockEnd
  0
BLOCK
  5
163A
100
AcDbEntity
  8
0
100
AcDbBlockBegin
  2
AVE_RENDER
 70
     0
 10
0.0
 20
0.0
 30
0.0
  3
AVE_RENDER
  1
AVE_RENDER
  0
ENDBLK
  5
163B
100
AcDbEntity
  8
0
100
AcDbBlockEnd
  0
BLOCK
  5
1648
100
AcDbEntity
  8
0
100
AcDbBlockBegin
  2
AVE_GLOBAL
 70
     0
 10
0.0
 20
0.0
 30
0.0
  3
AVE_GLOBAL
  1
AVE_GLOBAL
  0
ENDBLK
  5
1649
100
AcDbEntity
  8
0
100
AcDbBlockEnd
  0
BLOCK
  5
1C92
100
AcDbEntity
  8
0
100
AcDbBlockBegin
  2
A$C4361
 70
     0
 10
0.0
 20
0.0
 30
0.0
  3
A$C4361
  1

  0
LINE
  5
16DB
100
AcDbEntity
  8
0
 62
     4
100
AcDbLine
 10
32.941403
 20
10.483771
 30
0.0
 11
32.941403
 21
10.008771
 31
0.0
  0
LINE
  5
16DC
100
AcDbEntity
  8
0
 62
     4
100
AcDbLine
 10
32.941403
 20
10.008771
 30
0.0
 11
31.983956
 21
10.008771
 31
0.0
  0
LINE
  5
16DD
100
AcDbEntity
  8
0
 62
     4
100
AcDbLine
 10
31.409488
 20
9.308771
 30
0.0
 11
31.792466
 21
9.458771
 31
0.0
  0
LINE
  5
16DE
100
AcDbEntity
  8
0
 62
     4
100
AcDbLine
 10
31.792466
 20
9.458771
 30
0.0
 11
32.175445
 21
9.308771
 31
0.0
  0
LINE
  5
16DF
100
AcDbEntity
  8
0
 62
     4
100
AcDbLine
 10
32.175445
 20
9.308771
 30
0.0
 11
32.239274
 21
9.333771
 31
0.0
  0
LINE
  5
16E0
100
AcDbEntity
  8
0
 62
     4
100
AcDbLine
 10
32.239274
 20
9.333771
 30
0.0
 11
31.920126
 21
9.458771
 31
0.0
  0
LINE
  5
16E1
100
AcDbEntity
  8
0
 62
     4
100
AcDbLine
 10
31.920126
 20
9.458771
 30
0.0
 11
32.366934
 21
9.458771
 31
0.0
  0
LINE
  5
16E2
100
AcDbEntity
  8
0
 62
     4
100
AcDbLine
 10
32.366934
 20
9.458771
 30
0.0
 11
32.366934
 21
9.508771
 31
0.0
  0
LINE
  5
16E3
100
AcDbEntity
  8
0
 62
     4
100
AcDbLine
 10
32.366934
 20
9.508771
 30
0.0
 11
31.920126
 21
9.508771
 31
0.0
  0
LINE
  5
16E4
100
AcDbEntity
  8
0
 62
     4
100
AcDbLine
 10
31.920126
 20
9.508771
 30
0.0
 11
32.239274
 21
9.633771
 31
0.0
  0
LINE
  5
16E5
100
AcDbEntity
  8
0
 62
     4
100
AcDbLine
 10
32.239274
 20
9.633771
 30
0.0
 11
32.175445
 21
9.658771
 31
0.0
  0
LINE
  5
16E6
100
AcDbEntity
  8
0
 62
     4
100
AcDbLine
 10
32.175445
 20
9.658771
 30
0.0
 11
31.792466
 21
9.508771
 31
0.0
  0
LINE
  5
16E7
100
AcDbEntity
  8
0
 62
     4
100
AcDbLine
 10
31.792466
 20
9.508771
 30
0.0
 11
31.409488
 21
9.658771
 31
0.0
  0
LINE
  5
16E8
100
AcDbEntity
  8
0
 62
     4
100
AcDbLine
 10
30.324381
 20
4.683771
 30
0.0
 11
30.77119
 21
4.683771
 31
0.0
  0
LINE
  5
16E9
100
AcDbEntity
  8
0
 62
     4
100
AcDbLine
 10
30.324381
 20
3.683771
 30
0.0
 11
30.324381
 21
4.683771
 31
0.0
  0
LINE
  5
16EA
100
AcDbEntity
  8
0
 62
     4
100
AcDbLine
 10
30.64353
 20
3.683771
 30
0.0
 11
30.324381
 21
3.683771
 31
0.0
  0
LINE
  5
16EB
100
AcDbEntity
  8
0
 62
     4
100
AcDbLine
 10
30.64353
 20
4.558771
 30
0.0
 11
30.64353
 21
3.683771
 31
0.0
  0
LINE
  5
16EC
100
AcDbEntity
  8
0
 62
     4
100
AcDbLine
 10
32.813743
 20
3.683771
 30
0.0
 11
30.64353
 21
4.558771
 31
0.0
  0
LINE
  5
16ED
100
AcDbEntity
  8
0
 62
     4
100
AcDbLine
 10
33.324381
 20
3.683771
 30
0.0
 11
32.813743
 21
3.683771
 31
0.0
  0
LINE
  5
16EE
100
AcDbEntity
  8
0
 62
     4
100
AcDbLine
 10
33.324381
 20
4.683771
 30
0.0
 11
33.324381
 21
3.683771
 31
0.0
  0
LINE
  5
16EF
100
AcDbEntity
  8
0
 62
     4
100
AcDbLine
 10
32.941403
 20
4.683771
 30
0.0
 11
33.324381
 21
4.683771
 31
0.0
  0
LINE
  5
16F0
100
AcDbEntity
  8
0
 62
     4
100
AcDbLine
 10
32.941403
 20
3.833771
 30
0.0
 11
32.941403
 21
4.683771
 31
0.0
  0
LINE
  5
16F1
100
AcDbEntity
  8
0
 62
     4
100
AcDbLine
 10
30.77119
 20
4.683771
 30
0.0
 11
32.941403
 21
3.833771
 31
0.0
  0
LINE
  5
16F2
100
AcDbEntity
  8
0
 62
     4
100
AcDbLine
 10
31.728636
 20
5.708771
 30
0.0
 11
31.792466
 21
5.658771
 31
0.0
  0
LINE
  5
16F3
100
AcDbEntity
  8
0
 62
     4
100
AcDbLine
 10
31.473317
 20
5.783771
 30
0.0
 11
31.728636
 21
5.708771
 31
0.0
  0
LINE
  5
16F4
100
AcDbEntity
  8
0
 62
     4
100
AcDbLine
 10
31.281828
 20
5.808771
 30
0.0
 11
31.473317
 21
5.783771
 31
0.0
  0
LINE
  5
16F5
100
AcDbEntity
  8
0
 62
     4
100
AcDbLine
 10
31.026509
 20
5.808771
 30
0.0
 11
31.281828
 21
5.808771
 31
0.0
  0
LINE
  5
16F6
100
AcDbEntity
  8
0
 62
     4
100
AcDbLine
 10
30.835019
 20
5.783771
 30
0.0
 11
31.026509
 21
5.808771
 31
0.0
  0
LINE
  5
16F7
100
AcDbEntity
  8
0
 62
     4
100
AcDbLine
 10
30.579701
 20
5.708771
 30
0.0
 11
30.835019
 21
5.783771
 31
0.0
  0
LINE
  5
16F8
100
AcDbEntity
  8
0
 62
     4
100
AcDbLine
 10
30.388211
 20
5.608771
 30
0.0
 11
30.579701
 21
5.708771
 31
0.0
  0
LINE
  5
16F9
100
AcDbEntity
  8
0
 62
     4
100
AcDbLine
 10
30.324381
 20
5.483771
 30
0.0
 11
30.388211
 21
5.608771
 31
0.0
  0
LINE
  5
16FA
100
AcDbEntity
  8
0
 62
     4
100
AcDbLine
 10
30.324381
 20
4.883771
 30
0.0
 11
30.324381
 21
5.483771
 31
0.0
  0
LINE
  5
16FB
100
AcDbEntity
  8
0
 62
     4
100
AcDbLine
 10
33.324381
 20
4.883771
 30
0.0
 11
30.324381
 21
4.883771
 31
0.0
  0
LINE
  5
16FC
100
AcDbEntity
  8
0
 62
     4
100
AcDbLine
 10
33.324381
 20
5.483771
 30
0.0
 11
33.324381
 21
4.883771
 31
0.0
  0
LINE
  5
16FD
100
AcDbEntity
  8
0
 62
     4
100
AcDbLine
 10
33.260552
 20
5.608771
 30
0.0
 11
33.324381
 21
5.483771
 31
0.0
  0
LINE
  5
16FE
100
AcDbEntity
  8
0
 62
     4
100
AcDbLine
 10
33.069062
 20
5.708771
 30
0.0
 11
33.260552
 21
5.608771
 31
0.0
  0
LINE
  5
16FF
100
AcDbEntity
  8
0
 62
     4
100
AcDbLine
 10
32.813743
 20
5.783771
 30
0.0
 11
33.069062
 21
5.708771
 31
0.0
  0
LINE
  5
1700
100
AcDbEntity
  8
0
 62
     4
100
AcDbLine
 10
32.622254
 20
5.808771
 30
0.0
 11
32.813743
 21
5.783771
 31
0.0
  0
LINE
  5
1701
100
AcDbEntity
  8
0
 62
     4
100
AcDbLine
 10
32.303105
 20
5.808771
 30
0.0
 11
32.622254
 21
5.808771
 31
0.0
  0
LINE
  5
1702
100
AcDbEntity
  8
0
 62
     4
100
AcDbLine
 10
32.111615
 20
5.783771
 30
0.0
 11
32.303105
 21
5.808771
 31
0.0
  0
LINE
  5
1703
100
AcDbEntity
  8
0
 62
     4
100
AcDbLine
 10
31.856296
 20
5.708771
 30
0.0
 11
32.111615
 21
5.783771
 31
0.0
  0
LINE
  5
1704
100
AcDbEntity
  8
0
 62
     4
100
AcDbLine
 10
31.792466
 20
5.658771
 30
0.0
 11
31.856296
 21
5.708771
 31
0.0
  0
LINE
  5
1705
100
AcDbEntity
  8
0
 62
     4
100
AcDbLine
 10
30.70736
 20
5.508771
 30
0.0
 11
30.70736
 21
5.033771
 31
0.0
  0
LINE
  5
1706
100
AcDbEntity
  8
0
 62
     4
100
AcDbLine
 10
30.77119
 20
5.583771
 30
0.0
 11
30.70736
 21
5.508771
 31
0.0
  0
LINE
  5
1707
100
AcDbEntity
  8
0
 62
     4
100
AcDbLine
 10
30.898849
 20
5.633771
 30
0.0
 11
30.77119
 21
5.583771
 31
0.0
  0
LINE
  5
1708
100
AcDbEntity
  8
0
 62
     4
100
AcDbLine
 10
31.090339
 20
5.658771
 30
0.0
 11
30.898849
 21
5.633771
 31
0.0
  0
LINE
  5
1709
100
AcDbEntity
  8
0
 62
     4
100
AcDbLine
 10
31.409488
 20
9.658771
 30
0.0
 11
31.345658
 21
9.633771
 31
0.0
  0
LINE
  5
170A
100
AcDbEntity
  8
0
 62
     4
100
AcDbLine
 10
31.345658
 20
9.633771
 30
0.0
 11
31.664807
 21
9.508771
 31
0.0
  0
LINE
  5
170B
100
AcDbEntity
  8
0
 62
     4
100
AcDbLine
 10
31.217998
 20
5.658771
 30
0.0
 11
31.090339
 21
5.658771
 31
0.0
  0
LINE
  5
170C
100
AcDbEntity
  8
0
 62
     4
100
AcDbLine
 10
31.664807
 20
9.508771
 30
0.0
 11
31.217998
 21
9.508771
 31
0.0
  0
LINE
  5
170D
100
AcDbEntity
  8
0
 62
     4
100
AcDbLine
 10
31.409488
 20
5.633771
 30
0.0
 11
31.217998
 21
5.658771
 31
0.0
  0
LINE
  5
170E
100
AcDbEntity
  8
0
 62
     4
100
AcDbLine
 10
31.728636
 20
10.683771
 30
0.0
 11
31.792466
 21
10.633771
 31
0.0
  0
LINE
  5
170F
100
AcDbEntity
  8
0
 62
     4
100
AcDbLine
 10
31.537147
 20
5.583771
 30
0.0
 11
31.409488
 21
5.633771
 31
0.0
  0
LINE
  5
1710
100
AcDbEntity
  8
0
 62
     4
100
AcDbLine
 10
31.600977
 20
5.508771
 30
0.0
 11
31.537147
 21
5.583771
 31
0.0
  0
LINE
  5
1711
100
AcDbEntity
  8
0
 62
     4
100
AcDbLine
 10
31.600977
 20
5.033771
 30
0.0
 11
31.600977
 21
5.508771
 31
0.0
  0
LINE
  5
1712
100
AcDbEntity
  8
0
 62
     4
100
AcDbLine
 10
30.70736
 20
5.033771
 30
0.0
 11
31.600977
 21
5.033771
 31
0.0
  0
LINE
  5
1713
100
AcDbEntity
  8
0
 62
     4
100
AcDbLine
 10
32.366934
 20
5.658771
 30
0.0
 11
32.558423
 21
5.658771
 31
0.0
  0
LINE
  5
1714
100
AcDbEntity
  8
0
 62
     4
100
AcDbLine
 10
32.558423
 20
5.658771
 30
0.0
 11
32.749913
 21
5.633771
 31
0.0
  0
LINE
  5
1715
100
AcDbEntity
  8
0
 62
     4
100
AcDbLine
 10
32.749913
 20
5.633771
 30
0.0
 11
32.877572
 21
5.583771
 31
0.0
  0
LINE
  5
1716
100
AcDbEntity
  8
0
 62
     4
100
AcDbLine
 10
32.877572
 20
5.583771
 30
0.0
 11
32.941403
 21
5.508771
 31
0.0
  0
LINE
  5
1717
100
AcDbEntity
  8
0
 62
     4
100
AcDbLine
 10
31.473317
 20
10.758771
 30
0.0
 11
31.728636
 21
10.683771
 31
0.0
  0
LINE
  5
1718
100
AcDbEntity
  8
0
 62
     4
100
AcDbLine
 10
31.281828
 20
10.783771
 30
0.0
 11
31.473317
 21
10.758771
 31
0.0
  0
LINE
  5
1719
100
AcDbEntity
  8
0
 62
     4
100
AcDbLine
 10
31.026509
 20
10.783771
 30
0.0
 11
31.281828
 21
10.783771
 31
0.0
  0
LINE
  5
171A
100
AcDbEntity
  8
0
 62
     4
100
AcDbLine
 10
30.835019
 20
10.758771
 30
0.0
 11
31.026509
 21
10.783771
 31
0.0
  0
LINE
  5
171B
100
AcDbEntity
  8
0
 62
     4
100
AcDbLine
 10
30.579701
 20
10.683771
 30
0.0
 11
30.835019
 21
10.758771
 31
0.0
  0
LINE
  5
171C
100
AcDbEntity
  8
0
 62
     4
100
AcDbLine
 10
30.388211
 20
10.583771
 30
0.0
 11
30.579701
 21
10.683771
 31
0.0
  0
LINE
  5
171D
100
AcDbEntity
  8
0
 62
     4
100
AcDbLine
 10
30.324381
 20
10.458771
 30
0.0
 11
30.388211
 21
10.583771
 31
0.0
  0
LINE
  5
171E
100
AcDbEntity
  8
0
 62
     4
100
AcDbLine
 10
30.324381
 20
9.858771
 30
0.0
 11
30.324381
 21
10.458771
 31
0.0
  0
LINE
  5
171F
100
AcDbEntity
  8
0
 62
     4
100
AcDbLine
 10
33.324381
 20
9.858771
 30
0.0
 11
30.324381
 21
9.858771
 31
0.0
  0
LINE
  5
1720
100
AcDbEntity
  8
0
 62
     4
100
AcDbLine
 10
33.324381
 20
10.458771
 30
0.0
 11
33.324381
 21
9.858771
 31
0.0
  0
LINE
  5
1721
100
AcDbEntity
  8
0
 62
     4
100
AcDbLine
 10
33.260552
 20
10.583771
 30
0.0
 11
33.324381
 21
10.458771
 31
0.0
  0
LINE
  5
1722
100
AcDbEntity
  8
0
 62
     4
100
AcDbLine
 10
33.069062
 20
10.683771
 30
0.0
 11
33.260552
 21
10.583771
 31
0.0
  0
LINE
  5
1723
100
AcDbEntity
  8
0
 62
     4
100
AcDbLine
 10
32.941403
 20
5.508771
 30
0.0
 11
32.941403
 21
5.033771
 31
0.0
  0
LINE
  5
1724
100
AcDbEntity
  8
0
 62
     4
100
AcDbLine
 10
32.941403
 20
5.033771
 30
0.0
 11
31.983956
 21
5.033771
 31
0.0
  0
LINE
  5
1725
100
AcDbEntity
  8
0
 62
     4
100
AcDbLine
 10
31.983956
 20
5.033771
 30
0.0
 11
31.983956
 21
5.508771
 31
0.0
  0
LINE
  5
1726
100
AcDbEntity
  8
0
 62
     4
100
AcDbLine
 10
31.983956
 20
5.508771
 30
0.0
 11
32.047785
 21
5.583771
 31
0.0
  0
LINE
  5
1727
100
AcDbEntity
  8
0
 62
     4
100
AcDbLine
 10
32.047785
 20
5.583771
 30
0.0
 11
32.175445
 21
5.633771
 31
0.0
  0
LINE
  5
1728
100
AcDbEntity
  8
0
 62
     4
100
AcDbLine
 10
32.175445
 20
5.633771
 30
0.0
 11
32.366934
 21
5.658771
 31
0.0
  0
LINE
  5
1729
100
AcDbEntity
  8
0
 62
     4
100
AcDbLine
 10
31.856296
 20
6.858771
 30
0.0
 11
31.664807
 21
6.783771
 31
0.0
  0
LINE
  5
172A
100
AcDbEntity
  8
0
 62
     4
100
AcDbLine
 10
31.664807
 20
6.783771
 30
0.0
 11
31.473317
 21
6.658771
 31
0.0
  0
LINE
  5
172B
100
AcDbEntity
  8
0
 62
     4
100
AcDbLine
 10
31.473317
 20
6.658771
 30
0.0
 11
31.409488
 21
6.533771
 31
0.0
  0
LINE
  5
172C
100
AcDbEntity
  8
0
 62
     4
100
AcDbLine
 10
31.409488
 20
6.533771
 30
0.0
 11
31.409488
 21
6.408771
 31
0.0
  0
LINE
  5
172D
100
AcDbEntity
  8
0
 62
     4
100
AcDbLine
 10
31.409488
 20
6.408771
 30
0.0
 11
31.473317
 21
6.283771
 31
0.0
  0
LINE
  5
172E
100
AcDbEntity
  8
0
 62
     4
100
AcDbLine
 10
31.473317
 20
6.283771
 30
0.0
 11
31.728636
 21
6.133771
 31
0.0
  0
LINE
  5
172F
100
AcDbEntity
  8
0
 62
     4
100
AcDbLine
 10
31.728636
 20
6.133771
 30
0.0
 11
31.600977
 21
6.133771
 31
0.0
  0
LINE
  5
1730
100
AcDbEntity
  8
0
 62
     4
100
AcDbLine
 10
31.600977
 20
6.133771
 30
0.0
 11
31.217998
 21
6.158771
 31
0.0
  0
LINE
  5
1731
100
AcDbEntity
  8
0
 62
     4
100
AcDbLine
 10
31.217998
 20
6.158771
 30
0.0
 11
31.026509
 21
6.183771
 31
0.0
  0
LINE
  5
1732
100
AcDbEntity
  8
0
 62
     4
100
AcDbLine
 10
31.026509
 20
6.183771
 30
0.0
 11
30.835019
 21
6.233771
 31
0.0
  0
LINE
  5
1733
100
AcDbEntity
  8
0
 62
     4
100
AcDbLine
 10
30.835019
 20
6.233771
 30
0.0
 11
30.70736
 21
6.308771
 31
0.0
  0
LINE
  5
1734
100
AcDbEntity
  8
0
 62
     4
100
AcDbLine
 10
30.70736
 20
6.308771
 30
0.0
 11
30.64353
 21
6.383771
 31
0.0
  0
LINE
  5
1735
100
AcDbEntity
  8
0
 62
     4
100
AcDbLine
 10
30.64353
 20
6.383771
 30
0.0
 11
30.64353
 21
6.533771
 31
0.0
  0
LINE
  5
1736
100
AcDbEntity
  8
0
 62
     4
100
AcDbLine
 10
30.64353
 20
6.533771
 30
0.0
 11
30.70736
 21
6.608771
 31
0.0
  0
LINE
  5
1737
100
AcDbEntity
  8
0
 62
     4
100
AcDbLine
 10
30.70736
 20
6.608771
 30
0.0
 11
30.835019
 21
6.683771
 31
0.0
  0
LINE
  5
1738
100
AcDbEntity
  8
0
 62
     4
100
AcDbLine
 10
30.835019
 20
6.683771
 30
0.0
 11
31.026509
 21
6.733771
 31
0.0
  0
LINE
  5
1739
100
AcDbEntity
  8
0
 62
     4
100
AcDbLine
 10
31.026509
 20
6.733771
 30
0.0
 11
31.026509
 21
6.858771
 31
0.0
  0
LINE
  5
173A
100
AcDbEntity
  8
0
 62
     4
100
AcDbLine
 10
31.026509
 20
6.858771
 30
0.0
 11
30.835019
 21
6.833771
 31
0.0
  0
LINE
  5
173B
100
AcDbEntity
  8
0
 62
     4
100
AcDbLine
 10
30.835019
 20
6.833771
 30
0.0
 11
30.579701
 21
6.758771
 31
0.0
  0
LINE
  5
173C
100
AcDbEntity
  8
0
 62
     4
100
AcDbLine
 10
30.579701
 20
6.758771
 30
0.0
 11
30.388211
 21
6.633771
 31
0.0
  0
LINE
  5
173D
100
AcDbEntity
  8
0
 62
     4
100
AcDbLine
 10
30.388211
 20
6.633771
 30
0.0
 11
30.324381
 21
6.508771
 31
0.0
  0
LINE
  5
173E
100
AcDbEntity
  8
0
 62
     4
100
AcDbLine
 10
30.324381
 20
6.508771
 30
0.0
 11
30.324381
 21
6.408771
 31
0.0
  0
LINE
  5
173F
100
AcDbEntity
  8
0
 62
     4
100
AcDbLine
 10
30.324381
 20
6.408771
 30
0.0
 11
30.388211
 21
6.283771
 31
0.0
  0
LINE
  5
1740
100
AcDbEntity
  8
0
 62
     4
100
AcDbLine
 10
30.388211
 20
6.283771
 30
0.0
 11
30.579701
 21
6.158771
 31
0.0
  0
LINE
  5
1741
100
AcDbEntity
  8
0
 62
     4
100
AcDbLine
 10
30.579701
 20
6.158771
 30
0.0
 11
30.835019
 21
6.083771
 31
0.0
  0
LINE
  5
1742
100
AcDbEntity
  8
0
 62
     4
100
AcDbLine
 10
30.835019
 20
6.083771
 30
0.0
 11
31.154168
 21
6.033771
 31
0.0
  0
LINE
  5
1743
100
AcDbEntity
  8
0
 62
     4
100
AcDbLine
 10
31.154168
 20
6.033771
 30
0.0
 11
31.600977
 21
6.008771
 31
0.0
  0
LINE
  5
1744
100
AcDbEntity
  8
0
 62
     4
100
AcDbLine
 10
31.600977
 20
6.008771
 30
0.0
 11
32.047785
 21
6.008771
 31
0.0
  0
LINE
  5
1745
100
AcDbEntity
  8
0
 62
     4
100
AcDbLine
 10
32.047785
 20
6.008771
 30
0.0
 11
32.494594
 21
6.033771
 31
0.0
  0
LINE
  5
1746
100
AcDbEntity
  8
0
 62
     4
100
AcDbLine
 10
32.494594
 20
6.033771
 30
0.0
 11
32.813743
 21
6.083771
 31
0.0
  0
LINE
  5
1747
100
AcDbEntity
  8
0
 62
     4
100
AcDbLine
 10
32.813743
 20
6.083771
 30
0.0
 11
33.069062
 21
6.158771
 31
0.0
  0
LINE
  5
1748
100
AcDbEntity
  8
0
 62
     4
100
AcDbLine
 10
33.069062
 20
6.158771
 30
0.0
 11
33.260552
 21
6.283771
 31
0.0
  0
LINE
  5
1749
100
AcDbEntity
  8
0
 62
     4
100
AcDbLine
 10
33.260552
 20
6.283771
 30
0.0
 11
33.324381
 21
6.408771
 31
0.0
  0
LINE
  5
174A
100
AcDbEntity
  8
0
 62
     4
100
AcDbLine
 10
33.324381
 20
6.408771
 30
0.0
 11
33.324381
 21
6.533771
 31
0.0
  0
LINE
  5
174B
100
AcDbEntity
  8
0
 62
     4
100
AcDbLine
 10
33.324381
 20
6.533771
 30
0.0
 11
33.260552
 21
6.658771
 31
0.0
  0
LINE
  5
174C
100
AcDbEntity
  8
0
 62
     4
100
AcDbLine
 10
33.260552
 20
6.658771
 30
0.0
 11
33.069062
 21
6.783771
 31
0.0
  0
LINE
  5
174D
100
AcDbEntity
  8
0
 62
     4
100
AcDbLine
 10
33.069062
 20
6.783771
 30
0.0
 11
32.813743
 21
6.858771
 31
0.0
  0
LINE
  5
174E
100
AcDbEntity
  8
0
 62
     4
100
AcDbLine
 10
32.813743
 20
6.858771
 30
0.0
 11
32.494594
 21
6.908771
 31
0.0
  0
LINE
  5
174F
100
AcDbEntity
  8
0
 62
     4
100
AcDbLine
 10
32.494594
 20
6.908771
 30
0.0
 11
32.175445
 21
6.908771
 31
0.0
  0
LINE
  5
1750
100
AcDbEntity
  8
0
 62
     4
100
AcDbLine
 10
32.175445
 20
6.908771
 30
0.0
 11
31.856296
 21
6.858771
 31
0.0
  0
LINE
  5
1751
100
AcDbEntity
  8
0
 62
     4
100
AcDbLine
 10
32.239274
 20
6.783771
 30
0.0
 11
32.047785
 21
6.758771
 31
0.0
  0
LINE
  5
1752
100
AcDbEntity
  8
0
 62
     4
100
AcDbLine
 10
32.430764
 20
6.783771
 30
0.0
 11
32.239274
 21
6.783771
 31
0.0
  0
LINE
  5
1753
100
AcDbEntity
  8
0
 62
     4
100
AcDbLine
 10
32.622254
 20
6.758771
 30
0.0
 11
32.430764
 21
6.783771
 31
0.0
  0
LINE
  5
1754
100
AcDbEntity
  8
0
 62
     4
100
AcDbLine
 10
32.813743
 20
6.708771
 30
0.0
 11
32.622254
 21
6.758771
 31
0.0
  0
LINE
  5
1755
100
AcDbEntity
  8
0
 62
     4
100
AcDbLine
 10
32.941403
 20
6.633771
 30
0.0
 11
32.813743
 21
6.708771
 31
0.0
  0
LINE
  5
1756
100
AcDbEntity
  8
0
 62
     4
100
AcDbLine
 10
33.005232
 20
6.558771
 30
0.0
 11
32.941403
 21
6.633771
 31
0.0
  0
LINE
  5
1757
100
AcDbEntity
  8
0
 62
     4
100
AcDbLine
 10
33.005232
 20
6.383771
 30
0.0
 11
33.005232
 21
6.558771
 31
0.0
  0
LINE
  5
1758
100
AcDbEntity
  8
0
 62
     4
100
AcDbLine
 10
32.941403
 20
6.308771
 30
0.0
 11
33.005232
 21
6.383771
 31
0.0
  0
LINE
  5
1759
100
AcDbEntity
  8
0
 62
     4
100
AcDbLine
 10
32.813743
 20
6.233771
 30
0.0
 11
32.941403
 21
6.308771
 31
0.0
  0
LINE
  5
175A
100
AcDbEntity
  8
0
 62
     4
100
AcDbLine
 10
32.622254
 20
6.183771
 30
0.0
 11
32.813743
 21
6.233771
 31
0.0
  0
LINE
  5
175B
100
AcDbEntity
  8
0
 62
     4
100
AcDbLine
 10
32.430764
 20
6.158771
 30
0.0
 11
32.622254
 21
6.183771
 31
0.0
  0
LINE
  5
175C
100
AcDbEntity
  8
0
 62
     4
100
AcDbLine
 10
32.239274
 20
6.158771
 30
0.0
 11
32.430764
 21
6.158771
 31
0.0
  0
LINE
  5
175D
100
AcDbEntity
  8
0
 62
     4
100
AcDbLine
 10
32.047785
 20
6.183771
 30
0.0
 11
32.239274
 21
6.158771
 31
0.0
  0
LINE
  5
175E
100
AcDbEntity
  8
0
 62
     4
100
AcDbLine
 10
31.920126
 20
6.233771
 30
0.0
 11
32.047785
 21
6.183771
 31
0.0
  0
LINE
  5
175F
100
AcDbEntity
  8
0
 62
     4
100
AcDbLine
 10
31.792466
 20
6.308771
 30
0.0
 11
31.920126
 21
6.233771
 31
0.0
  0
LINE
  5
1760
100
AcDbEntity
  8
0
 62
     4
100
AcDbLine
 10
31.728636
 20
6.383771
 30
0.0
 11
31.792466
 21
6.308771
 31
0.0
  0
LINE
  5
1761
100
AcDbEntity
  8
0
 62
     4
100
AcDbLine
 10
31.728636
 20
6.558771
 30
0.0
 11
31.728636
 21
6.383771
 31
0.0
  0
LINE
  5
1762
100
AcDbEntity
  8
0
 62
     4
100
AcDbLine
 10
31.792466
 20
6.633771
 30
0.0
 11
31.728636
 21
6.558771
 31
0.0
  0
LINE
  5
1763
100
AcDbEntity
  8
0
 62
     4
100
AcDbLine
 10
31.920126
 20
6.708771
 30
0.0
 11
31.792466
 21
6.633771
 31
0.0
  0
LINE
  5
1764
100
AcDbEntity
  8
0
 62
     4
100
AcDbLine
 10
32.047785
 20
6.758771
 30
0.0
 11
31.920126
 21
6.708771
 31
0.0
  0
LINE
  5
1765
100
AcDbEntity
  8
0
 62
     4
100
AcDbLine
 10
31.920126
 20
7.458771
 30
0.0
 11
32.239274
 21
7.458771
 31
0.0
  0
LINE
  5
1766
100
AcDbEntity
  8
0
 62
     4
100
AcDbLine
 10
31.920126
 20
7.108771
 30
0.0
 11
31.920126
 21
7.458771
 31
0.0
  0
LINE
  5
1767
100
AcDbEntity
  8
0
 62
     4
100
AcDbLine
 10
32.239274
 20
7.108771
 30
0.0
 11
31.920126
 21
7.108771
 31
0.0
  0
LINE
  5
1768
100
AcDbEntity
  8
0
 62
     4
100
AcDbLine
 10
32.239274
 20
7.458771
 30
0.0
 11
32.239274
 21
7.108771
 31
0.0
  0
LINE
  5
1769
100
AcDbEntity
  8
0
 62
     4
100
AcDbLine
 10
32.941403
 20
7.808771
 30
0.0
 11
32.941403
 21
8.558771
 31
0.0
  0
LINE
  5
176A
100
AcDbEntity
  8
0
 62
     4
100
AcDbLine
 10
31.920126
 20
7.808771
 30
0.0
 11
32.941403
 21
7.808771
 31
0.0
  0
LINE
  5
176B
100
AcDbEntity
  8
0
 62
     4
100
AcDbLine
 10
32.813743
 20
10.758771
 30
0.0
 11
33.069062
 21
10.683771
 31
0.0
  0
LINE
  5
176C
100
AcDbEntity
  8
0
 62
     4
100
AcDbLine
 10
31.920126
 20
8.458771
 30
0.0
 11
31.920126
 21
7.808771
 31
0.0
  0
LINE
  5
176D
100
AcDbEntity
  8
0
 62
     4
100
AcDbLine
 10
31.983956
 20
10.008771
 30
0.0
 11
31.983956
 21
10.483771
 31
0.0
  0
LINE
  5
176E
100
AcDbEntity
  8
0
 62
     4
100
AcDbLine
 10
31.537147
 20
8.458771
 30
0.0
 11
31.920126
 21
8.458771
 31
0.0
  0
LINE
  5
176F
100
AcDbEntity
  8
0
 62
     4
100
AcDbLine
 10
31.537147
 20
7.808771
 30
0.0
 11
31.537147
 21
8.458771
 31
0.0
  0
LINE
  5
1770
100
AcDbEntity
  8
0
 62
     4
100
AcDbLine
 10
30.70736
 20
7.808771
 30
0.0
 11
31.537147
 21
7.808771
 31
0.0
  0
LINE
  5
1771
100
AcDbEntity
  8
0
 62
     4
100
AcDbLine
 10
30.70736
 20
8.558771
 30
0.0
 11
30.70736
 21
7.808771
 31
0.0
  0
LINE
  5
1772
100
AcDbEntity
  8
0
 62
     4
100
AcDbLine
 10
30.324381
 20
8.558771
 30
0.0
 11
30.70736
 21
8.558771
 31
0.0
  0
LINE
  5
1773
100
AcDbEntity
  8
0
 62
     4
100
AcDbLine
 10
30.324381
 20
7.658771
 30
0.0
 11
30.324381
 21
8.558771
 31
0.0
  0
LINE
  5
1774
100
AcDbEntity
  8
0
 62
     4
100
AcDbLine
 10
31.983956
 20
10.483771
 30
0.0
 11
32.047785
 21
10.558771
 31
0.0
  0
LINE
  5
1775
100
AcDbEntity
  8
0
 62
     4
100
AcDbLine
 10
32.047785
 20
10.558771
 30
0.0
 11
32.175445
 21
10.608771
 31
0.0
  0
LINE
  5
1776
100
AcDbEntity
  8
0
 62
     4
100
AcDbLine
 10
33.324381
 20
7.658771
 30
0.0
 11
30.324381
 21
7.658771
 31
0.0
  0
LINE
  5
1777
100
AcDbEntity
  8
0
 62
     4
100
AcDbLine
 10
32.622254
 20
10.783771
 30
0.0
 11
32.813743
 21
10.758771
 31
0.0
  0
LINE
  5
1778
100
AcDbEntity
  8
0
 62
     4
100
AcDbLine
 10
33.324381
 20
8.558771
 30
0.0
 11
33.324381
 21
7.658771
 31
0.0
  0
LINE
  5
1779
100
AcDbEntity
  8
0
 62
     4
100
AcDbLine
 10
32.303105
 20
10.783771
 30
0.0
 11
32.622254
 21
10.783771
 31
0.0
  0
LINE
  5
177A
100
AcDbEntity
  8
0
 62
     4
100
AcDbLine
 10
32.941403
 20
8.558771
 30
0.0
 11
33.324381
 21
8.558771
 31
0.0
  0
LINE
  5
177B
100
AcDbEntity
  8
0
 62
     4
100
AcDbLine
 10
31.217998
 20
8.958771
 30
0.0
 11
31.217998
 21
8.908771
 31
0.0
  0
LINE
  5
177C
100
AcDbEntity
  8
0
 62
     4
100
AcDbLine
 10
31.217998
 20
8.908771
 30
0.0
 11
31.664807
 21
8.908771
 31
0.0
  0
LINE
  5
177D
100
AcDbEntity
  8
0
 62
     4
100
AcDbLine
 10
31.664807
 20
8.908771
 30
0.0
 11
31.345658
 21
8.783771
 31
0.0
  0
LINE
  5
177E
100
AcDbEntity
  8
0
 62
     4
100
AcDbLine
 10
32.111615
 20
10.758771
 30
0.0
 11
32.303105
 21
10.783771
 31
0.0
  0
LINE
  5
177F
100
AcDbEntity
  8
0
 62
     4
100
AcDbLine
 10
31.345658
 20
8.783771
 30
0.0
 11
31.409488
 21
8.758771
 31
0.0
  0
LINE
  5
1780
100
AcDbEntity
  8
0
 62
     4
100
AcDbLine
 10
31.856296
 20
10.683771
 30
0.0
 11
32.111615
 21
10.758771
 31
0.0
  0
LINE
  5
1781
100
AcDbEntity
  8
0
 62
     4
100
AcDbLine
 10
31.792466
 20
10.633771
 30
0.0
 11
31.856296
 21
10.683771
 31
0.0
  0
LINE
  5
1782
100
AcDbEntity
  8
0
 62
     4
100
AcDbLine
 10
31.409488
 20
8.758771
 30
0.0
 11
31.792466
 21
8.908771
 31
0.0
  0
LINE
  5
1783
100
AcDbEntity
  8
0
 62
     4
100
AcDbLine
 10
31.792466
 20
8.908771
 30
0.0
 11
32.175445
 21
8.758771
 31
0.0
  0
LINE
  5
1784
100
AcDbEntity
  8
0
 62
     4
100
AcDbLine
 10
32.175445
 20
8.758771
 30
0.0
 11
32.239274
 21
8.783771
 31
0.0
  0
LINE
  5
1785
100
AcDbEntity
  8
0
 62
     4
100
AcDbLine
 10
32.239274
 20
8.783771
 30
0.0
 11
31.920126
 21
8.908771
 31
0.0
  0
LINE
  5
1786
100
AcDbEntity
  8
0
 62
     4
100
AcDbLine
 10
31.920126
 20
8.908771
 30
0.0
 11
32.366934
 21
8.908771
 31
0.0
  0
LINE
  5
1787
100
AcDbEntity
  8
0
 62
     4
100
AcDbLine
 10
32.366934
 20
8.908771
 30
0.0
 11
32.366934
 21
8.958771
 31
0.0
  0
LINE
  5
1788
100
AcDbEntity
  8
0
 62
     4
100
AcDbLine
 10
32.366934
 20
8.958771
 30
0.0
 11
31.920126
 21
8.958771
 31
0.0
  0
LINE
  5
1789
100
AcDbEntity
  8
0
 62
     4
100
AcDbLine
 10
31.920126
 20
8.958771
 30
0.0
 11
32.239274
 21
9.083771
 31
0.0
  0
LINE
  5
178A
100
AcDbEntity
  8
0
 62
     4
100
AcDbLine
 10
32.239274
 20
9.083771
 30
0.0
 11
32.175445
 21
9.108771
 31
0.0
  0
LINE
  5
178B
100
AcDbEntity
  8
0
 62
     4
100
AcDbLine
 10
32.175445
 20
9.108771
 30
0.0
 11
31.792466
 21
8.958771
 31
0.0
  0
LINE
  5
178C
100
AcDbEntity
  8
0
 62
     4
100
AcDbLine
 10
31.792466
 20
8.958771
 30
0.0
 11
31.409488
 21
9.108771
 31
0.0
  0
LINE
  5
178D
100
AcDbEntity
  8
0
 62
     4
100
AcDbLine
 10
31.409488
 20
9.108771
 30
0.0
 11
31.345658
 21
9.083771
 31
0.0
  0
LINE
  5
178E
100
AcDbEntity
  8
0
 62
     4
100
AcDbLine
 10
31.345658
 20
9.083771
 30
0.0
 11
31.664807
 21
8.958771
 31
0.0
  0
LINE
  5
178F
100
AcDbEntity
  8
0
 62
     4
100
AcDbLine
 10
31.664807
 20
8.958771
 30
0.0
 11
31.217998
 21
8.958771
 31
0.0
  0
LINE
  5
1790
100
AcDbEntity
  8
0
 62
     4
100
AcDbLine
 10
31.217998
 20
9.508771
 30
0.0
 11
31.217998
 21
9.458771
 31
0.0
  0
LINE
  5
1791
100
AcDbEntity
  8
0
 62
     4
100
AcDbLine
 10
31.217998
 20
9.458771
 30
0.0
 11
31.664807
 21
9.458771
 31
0.0
  0
LINE
  5
1792
100
AcDbEntity
  8
0
 62
     4
100
AcDbLine
 10
31.664807
 20
9.458771
 30
0.0
 11
31.345658
 21
9.333771
 31
0.0
  0
LINE
  5
1793
100
AcDbEntity
  8
0
 62
     4
100
AcDbLine
 10
31.345658
 20
9.333771
 30
0.0
 11
31.409488
 21
9.308771
 31
0.0
  0
LINE
  5
1794
100
AcDbEntity
  8
0
 62
     4
100
AcDbLine
 10
30.70736
 20
10.483771
 30
0.0
 11
30.70736
 21
10.008771
 31
0.0
  0
LINE
  5
1795
100
AcDbEntity
  8
0
 62
     4
100
AcDbLine
 10
32.175445
 20
10.608771
 30
0.0
 11
32.366934
 21
10.633771
 31
0.0
  0
LINE
  5
1796
100
AcDbEntity
  8
0
 62
     2
100
AcDbLine
 10
32.109174
 20
3.967843
 30
0.0
 11
32.247055
 21
4.105724
 31
0.0
  0
LINE
  5
1797
100
AcDbEntity
  8
0
 62
     2
100
AcDbLine
 10
33.025102
 20
4.883771
 30
0.0
 11
33.324381
 21
5.18305
 31
0.0
  0
LINE
  5
1798
100
AcDbEntity
  8
0
 62
     4
100
AcDbLine
 10
30.77119
 20
10.558771
 30
0.0
 11
30.70736
 21
10.483771
 31
0.0
  0
LINE
  5
1799
100
AcDbEntity
  8
0
 62
     4
100
AcDbLine
 10
30.898849
 20
10.608771
 30
0.0
 11
30.77119
 21
10.558771
 31
0.0
  0
LINE
  5
179A
100
AcDbEntity
  8
0
 62
     4
100
AcDbLine
 10
31.090339
 20
10.633771
 30
0.0
 11
30.898849
 21
10.608771
 31
0.0
  0
LINE
  5
179B
100
AcDbEntity
  8
0
 62
     4
100
AcDbLine
 10
31.217998
 20
10.633771
 30
0.0
 11
31.090339
 21
10.633771
 31
0.0
  0
LINE
  5
179C
100
AcDbEntity
  8
0
 62
     4
100
AcDbLine
 10
31.409488
 20
10.608771
 30
0.0
 11
31.217998
 21
10.633771
 31
0.0
  0
LINE
  5
179D
100
AcDbEntity
  8
0
 62
     4
100
AcDbLine
 10
31.537147
 20
10.558771
 30
0.0
 11
31.409488
 21
10.608771
 31
0.0
  0
LINE
  5
179E
100
AcDbEntity
  8
0
 62
     4
100
AcDbLine
 10
31.600977
 20
10.483771
 30
0.0
 11
31.537147
 21
10.558771
 31
0.0
  0
LINE
  5
179F
100
AcDbEntity
  8
0
 62
     4
100
AcDbLine
 10
31.600977
 20
10.008771
 30
0.0
 11
31.600977
 21
10.483771
 31
0.0
  0
LINE
  5
17A0
100
AcDbEntity
  8
0
 62
     4
100
AcDbLine
 10
30.70736
 20
10.008771
 30
0.0
 11
31.600977
 21
10.008771
 31
0.0
  0
LINE
  5
17A1
100
AcDbEntity
  8
0
 62
     4
100
AcDbLine
 10
32.366934
 20
10.633771
 30
0.0
 11
32.558423
 21
10.633771
 31
0.0
  0
LINE
  5
17A2
100
AcDbEntity
  8
0
 62
     4
100
AcDbLine
 10
32.558423
 20
10.633771
 30
0.0
 11
32.749913
 21
10.608771
 31
0.0
  0
LINE
  5
17A3
100
AcDbEntity
  8
0
 62
     4
100
AcDbLine
 10
32.749913
 20
10.608771
 30
0.0
 11
32.877572
 21
10.558771
 31
0.0
  0
LINE
  5
17A4
100
AcDbEntity
  8
0
 62
     4
100
AcDbLine
 10
32.877572
 20
10.558771
 30
0.0
 11
32.941403
 21
10.483771
 31
0.0
  0
LWPOLYLINE
  5
17A5
100
AcDbEntity
  8
0
100
AcDbPolyline
 90
        4
 70
     0
 43
0.0
 10
14.820791
 20
9.022625
 10
14.820791
 20
9.421219
 10
14.820791
 20
9.775987
 10
14.820791
 20
10.079821
  0
LWPOLYLINE
  5
17AB
100
AcDbEntity
  8
0
100
AcDbPolyline
 90
        4
 70
     0
 43
0.0
 10
14.820791
 20
9.022625
 10
14.695394
 20
8.87867
 10
14.579909
 20
8.737013
 10
14.474381
 20
8.597589
  0
LWPOLYLINE
  5
17B1
100
AcDbEntity
  8
0
100
AcDbPolyline
 90
        4
 70
     0
 43
0.0
 10
21.624381
 20
11.114895
 10
22.025991
 20
11.505863
 10
22.459254
 20
11.915066
 10
22.924381
 20
12.343321
  0
LINE
  5
17B7
100
AcDbEntity
  8
0
100
AcDbLine
 10
21.624381
 20
9.022625
 30
0.0
 11
14.820791
 21
9.022625
 31
0.0
  0
LINE
  5
17B8
100
AcDbEntity
  8
0
100
AcDbLine
 10
21.624381
 20
5.444916
 30
0.0
 11
14.820791
 21
5.444916
 31
0.0
  0
LWPOLYLINE
  5
17B9
100
AcDbEntity
  8
0
100
AcDbPolyline
 90
        4
 70
     0
 43
0.0
 10
14.820791
 20
4.387721
 10
14.820791
 20
4.691555
 10
14.820791
 20
5.046322
 10
14.820791
 20
5.444916
  0
LINE
  5
17BF
100
AcDbEntity
  8
0
 62
     9
100
AcDbLine
 10
29.124381
 20
1.233771
 30
0.0
 11
39.524381
 21
1.233771
 31
0.0
  0
LWPOLYLINE
  5
17C0
100
AcDbEntity
  8
0
100
AcDbPolyline
 90
        3
 70
     0
 43
0.0
 10
22.924381
 20
1.962386
 10
22.924381
 20
1.802572
 10
22.924381
 20
1.665333
  0
LINE
  5
17C5
100
AcDbEntity
  8
0
 62
     9
100
AcDbLine
 10
39.524381
 20
13.233771
 30
0.0
 11
29.124381
 21
13.233771
 31
0.0
  0
LWPOLYLINE
  5
17C6
100
AcDbEntity
  8
0
100
AcDbPolyline
 90
        4
 70
     0
 43
0.0
 10
14.820791
 20
5.444916
 10
14.695394
 20
5.588871
 10
14.579909
 20
5.730529
 10
14.474381
 20
5.869953
  0
LINE
  5
17CC
100
AcDbEntity
  8
0
100
AcDbLine
 10
26.224381
 20
2.124221
 30
0.0
 11
22.924381
 21
2.124221
 31
0.0
  0
LWPOLYLINE
  5
17CD
100
AcDbEntity
  8
0
100
AcDbPolyline
 90
        4
 70
     0
 43
0.0
 10
22.924381
 20
1.962386
 10
22.464396
 20
2.371734
 10
22.031065
 20
2.76473
 10
21.624381
 20
3.141934
  0
LWPOLYLINE
  5
17D3
100
AcDbEntity
  8
0
100
AcDbPolyline
 90
        3
 70
     0
 43
0.0
 10
22.924381
 20
12.802209
 10
22.924381
 20
12.596126
 10
22.924381
 20
12.343321
  0
LINE
  5
17D8
100
AcDbEntity
  8
0
100
AcDbLine
 10
26.224381
 20
12.343321
 30
0.0
 11
22.924381
 21
12.343321
 31
0.0
  0
LINE
  5
17D9
100
AcDbEntity
  8
0
100
AcDbLine
 10
14.474381
 20
9.883771
 30
0.0
 11
14.474381
 21
9.913771
 31
0.0
  0
LINE
  5
17DA
100
AcDbEntity
  8
0
100
AcDbLine
 10
14.474381
 20
8.597589
 30
0.0
 11
14.474381
 21
8.771251
 31
0.0
  0
LINE
  5
17DB
100
AcDbEntity
  8
0
100
AcDbLine
 10
14.585834
 20
9.913771
 30
0.0
 11
14.474381
 21
9.913771
 31
0.0
  0
LWPOLYLINE
  5
17DC
100
AcDbEntity
  8
0
100
AcDbPolyline
 90
        3
 70
     0
 43
0.0
 10
14.68436
 20
9.983771
 10
14.663126
 20
9.968765
 10
14.585834
 20
9.913771
  0
LWPOLYLINE
  5
17E1
100
AcDbEntity
  8
0
100
AcDbPolyline
 90
        3
 70
     0
 43
0.0
 10
14.820791
 20
10.079821
 10
14.741447
 20
10.024113
 10
14.68436
 20
9.983771
  0
LWPOLYLINE
  5
17E6
100
AcDbEntity
  8
0
100
AcDbPolyline
 90
        3
 70
     0
 43
0.0
 10
14.68436
 20
4.483771
 10
14.663126
 20
4.498777
 10
14.585834
 20
4.553771
  0
LWPOLYLINE
  5
17EB
100
AcDbEntity
  8
0
100
AcDbPolyline
 90
        3
 70
     0
 43
0.0
 10
14.820791
 20
4.387721
 10
14.741447
 20
4.443428
 10
14.68436
 20
4.483771
  0
LINE
  5
17F0
100
AcDbEntity
  8
0
100
AcDbLine
 10
14.585834
 20
4.553771
 30
0.0
 11
14.474381
 21
4.553771
 31
0.0
  0
LINE
  5
17F1
100
AcDbEntity
  8
0
100
AcDbLine
 10
14.474381
 20
5.69629
 30
0.0
 11
14.474381
 21
5.869953
 31
0.0
  0
LINE
  5
17F2
100
AcDbEntity
  8
0
100
AcDbLine
 10
14.474381
 20
5.623775
 30
0.0
 11
14.474381
 21
5.69629
 31
0.0
  0
LINE
  5
17F3
100
AcDbEntity
  8
0
100
AcDbLine
 10
14.474381
 20
4.553771
 30
0.0
 11
14.474381
 21
4.583771
 31
0.0
  0
LINE
  5
17F4
100
AcDbEntity
  8
0
100
AcDbLine
 10
39.524381
 20
1.233771
 30
0.0
 11
39.524381
 21
0.433771
 31
0.0
  0
LINE
  5
17F5
100
AcDbEntity
  8
0
100
AcDbLine
 10
29.124381
 20
1.233771
 30
0.0
 11
29.124381
 21
0.433771
 31
0.0
  0
LINE
  5
17F6
100
AcDbEntity
  8
0
100
AcDbLine
 10
39.524381
 20
13.233771
 30
0.0
 11
39.524381
 21
14.033771
 31
0.0
  0
LINE
  5
17F7
100
AcDbEntity
  8
0
100
AcDbLine
 10
29.124381
 20
13.233771
 30
0.0
 11
29.124381
 21
14.033771
 31
0.0
  0
LINE
  5
17F8
100
AcDbEntity
  8
0
100
AcDbLine
 10
27.210429
 20
1.233771
 30
0.0
 11
27.210429
 21
1.333771
 31
0.0
  0
LINE
  5
17F9
100
AcDbEntity
  8
0
100
AcDbLine
 10
28.938334
 20
1.333771
 30
0.0
 11
28.938334
 21
1.233771
 31
0.0
  0
LINE
  5
17FA
100
AcDbEntity
  8
0
100
AcDbLine
 10
28.938334
 20
13.233771
 30
0.0
 11
28.938334
 21
13.133771
 31
0.0
  0
LINE
  5
17FB
100
AcDbEntity
  8
0
100
AcDbLine
 10
27.210429
 20
13.133771
 30
0.0
 11
27.210429
 21
13.233771
 31
0.0
  0
LINE
  5
17FC
100
AcDbEntity
  8
0
100
AcDbLine
 10
39.710429
 20
1.233771
 30
0.0
 11
39.710429
 21
1.333771
 31
0.0
  0
LINE
  5
17FD
100
AcDbEntity
  8
0
100
AcDbLine
 10
41.438334
 20
1.333771
 30
0.0
 11
41.438334
 21
1.233771
 31
0.0
  0
LINE
  5
17FE
100
AcDbEntity
  8
0
100
AcDbLine
 10
41.438334
 20
13.233771
 30
0.0
 11
41.438334
 21
13.133771
 31
0.0
  0
LINE
  5
17FF
100
AcDbEntity
  8
0
100
AcDbLine
 10
39.710429
 20
13.133771
 30
0.0
 11
39.710429
 21
13.233771
 31
0.0
  0
LINE
  5
1800
100
AcDbEntity
  8
0
100
AcDbLine
 10
22.924381
 20
1.962386
 30
0.0
 11
22.924381
 21
2.124221
 31
0.0
  0
LINE
  5
1801
100
AcDbEntity
  8
0
100
AcDbLine
 10
21.624381
 20
3.141934
 30
0.0
 11
21.624381
 21
4.833771
 31
0.0
  0
LINE
  5
1802
100
AcDbEntity
  8
0
100
AcDbLine
 10
21.624381
 20
2.765759
 30
0.0
 11
21.624381
 21
3.141934
 31
0.0
  0
LINE
  5
1803
100
AcDbEntity
  8
0
100
AcDbLine
 10
21.624381
 20
11.114895
 30
0.0
 11
21.624381
 21
11.701782
 31
0.0
  0
LINE
  5
1804
100
AcDbEntity
  8
0
100
AcDbLine
 10
21.624381
 20
5.444916
 30
0.0
 11
21.624381
 21
4.833771
 31
0.0
  0
LINE
  5
1805
100
AcDbEntity
  8
0
100
AcDbLine
 10
21.624381
 20
11.114895
 30
0.0
 11
21.624381
 21
9.022625
 31
0.0
  0
LINE
  5
1806
100
AcDbEntity
  8
0
100
AcDbLine
 10
14.474381
 20
8.597589
 30
0.0
 11
14.474381
 21
5.869953
 31
0.0
  0
LINE
  5
1807
100
AcDbEntity
  8
0
100
AcDbLine
 10
29.124381
 20
0.433771
 30
0.0
 11
39.524381
 21
0.433771
 31
0.0
  0
LINE
  5
1808
100
AcDbEntity
  8
0
100
AcDbLine
 10
39.524381
 20
14.033771
 30
0.0
 11
29.124381
 21
14.033771
 31
0.0
  0
LINE
  5
1809
100
AcDbEntity
  8
0
100
AcDbLine
 10
29.124381
 20
13.133771
 30
0.0
 11
26.224381
 21
13.133771
 31
0.0
  0
LINE
  5
180A
100
AcDbEntity
  8
0
100
AcDbLine
 10
26.224381
 20
13.133771
 30
0.0
 11
26.224381
 21
12.343321
 31
0.0
  0
LINE
  5
180B
100
AcDbEntity
  8
0
100
AcDbLine
 10
21.624381
 20
4.833771
 30
0.0
 11
26.124381
 21
4.833771
 31
0.0
  0
LINE
  5
180C
100
AcDbEntity
  8
0
100
AcDbLine
 10
26.124381
 20
4.833771
 30
0.0
 11
26.124381
 21
3.333771
 31
0.0
  0
LINE
  5
180D
100
AcDbEntity
  8
0
100
AcDbLine
 10
22.924381
 20
3.333771
 30
0.0
 11
26.124381
 21
3.333771
 31
0.0
  0
LINE
  5
180E
100
AcDbEntity
  8
0
100
AcDbLine
 10
22.924381
 20
3.333771
 30
0.0
 11
22.924381
 21
2.124221
 31
0.0
  0
LINE
  5
180F
100
AcDbEntity
  8
0
100
AcDbLine
 10
26.224381
 20
2.124221
 30
0.0
 11
26.224381
 21
1.333771
 31
0.0
  0
LINE
  5
1810
100
AcDbEntity
  8
0
100
AcDbLine
 10
26.224381
 20
1.333771
 30
0.0
 11
29.124381
 21
1.333771
 31
0.0
  0
LINE
  5
1811
100
AcDbEntity
  8
0
100
AcDbLine
 10
29.124381
 20
1.233771
 30
0.0
 11
29.124381
 21
1.333771
 31
0.0
  0
LINE
  5
1812
100
AcDbEntity
  8
0
100
AcDbLine
 10
39.524381
 20
1.233771
 30
0.0
 11
39.524381
 21
1.333771
 31
0.0
  0
LINE
  5
1813
100
AcDbEntity
  8
0
100
AcDbLine
 10
42.224381
 20
1.333771
 30
0.0
 11
39.524381
 21
1.333771
 31
0.0
  0
LINE
  5
1814
100
AcDbEntity
  8
0
100
AcDbLine
 10
42.224381
 20
1.333771
 30
0.0
 11
42.224381
 21
5.733771
 31
0.0
  0
LINE
  5
1815
100
AcDbEntity
  8
0
100
AcDbLine
 10
42.224381
 20
5.733771
 30
0.0
 11
41.824381
 21
5.733771
 31
0.0
  0
LINE
  5
1816
100
AcDbEntity
  8
0
100
AcDbLine
 10
41.824381
 20
5.733771
 30
0.0
 11
41.824381
 21
8.733771
 31
0.0
  0
LINE
  5
1817
100
AcDbEntity
  8
0
100
AcDbLine
 10
41.824381
 20
8.733771
 30
0.0
 11
42.224381
 21
8.733771
 31
0.0
  0
LINE
  5
1818
100
AcDbEntity
  8
0
100
AcDbLine
 10
42.224381
 20
8.733771
 30
0.0
 11
42.224381
 21
13.133771
 31
0.0
  0
LINE
  5
1819
100
AcDbEntity
  8
0
100
AcDbLine
 10
42.224381
 20
13.133771
 30
0.0
 11
39.524381
 21
13.133771
 31
0.0
  0
LINE
  5
181A
100
AcDbEntity
  8
0
100
AcDbLine
 10
39.524381
 20
13.233771
 30
0.0
 11
39.524381
 21
13.133771
 31
0.0
  0
LINE
  5
181B
100
AcDbEntity
  8
0
100
AcDbLine
 10
29.124381
 20
13.233771
 30
0.0
 11
29.124381
 21
13.133771
 31
0.0
  0
LINE
  5
181C
100
AcDbEntity
  8
0
100
AcDbLine
 10
26.224381
 20
1.665333
 30
0.0
 11
22.924381
 21
1.665333
 31
0.0
  0
LWPOLYLINE
  5
181D
100
AcDbEntity
  8
0
100
AcDbPolyline
 90
        3
 70
     0
 43
0.0
 10
22.224381
 20
2.254305
 10
22.038666
 20
2.411465
 10
21.624381
 20
2.765759
  0
LINE
  5
1822
100
AcDbEntity
  8
0
100
AcDbLine
 10
22.234507
 20
2.245736
 30
0.0
 11
22.224381
 21
2.254305
 31
0.0
  0
LINE
  5
1823
100
AcDbEntity
  8
0
100
AcDbLine
 10
22.248646
 20
2.233771
 30
0.0
 11
22.234507
 21
2.245736
 31
0.0
  0
LWPOLYLINE
  5
1824
100
AcDbEntity
  8
0
100
AcDbPolyline
 90
        3
 70
     0
 43
0.0
 10
22.924381
 20
1.665333
 10
22.471968
 20
2.044786
 10
22.248646
 20
2.233771
  0
LINE
  5
1829
100
AcDbEntity
  8
0
100
AcDbLine
 10
21.624381
 20
4.387721
 30
0.0
 11
14.820791
 21
4.387721
 31
0.0
  0
LINE
  5
182A
100
AcDbEntity
  8
0
100
AcDbLine
 10
21.624381
 20
10.079821
 30
0.0
 11
14.820791
 21
10.079821
 31
0.0
  0
LWPOLYLINE
  5
182B
100
AcDbEntity
  8
0
100
AcDbPolyline
 90
        3
 70
     0
 43
0.0
 10
22.248646
 20
12.233771
 10
22.471345
 20
12.42223
 10
22.924381
 20
12.802209
  0
LINE
  5
1830
100
AcDbEntity
  8
0
100
AcDbLine
 10
22.234507
 20
12.221805
 30
0.0
 11
22.248646
 21
12.233771
 31
0.0
  0
LINE
  5
1831
100
AcDbEntity
  8
0
100
AcDbLine
 10
22.224381
 20
12.213237
 30
0.0
 11
22.234507
 21
12.221805
 31
0.0
  0
LWPOLYLINE
  5
1832
100
AcDbEntity
  8
0
100
AcDbPolyline
 90
        3
 70
     0
 43
0.0
 10
21.624381
 20
11.701782
 10
22.038061
 20
12.055563
 10
22.224381
 20
12.213237
  0
LINE
  5
1837
100
AcDbEntity
  8
0
100
AcDbLine
 10
26.224381
 20
12.802209
 30
0.0
 11
22.924381
 21
12.802209
 31
0.0
  0
LWPOLYLINE
  5
1838
100
AcDbEntity
  8
0
100
AcDbPolyline
 90
        4
 70
     0
 43
0.0
 10
23.08874
 20
13.627285
 10
22.950068
 20
13.614887
 10
22.815416
 20
13.577996
 10
22.68874
 20
13.517522
  0
LWPOLYLINE
  5
183E
100
AcDbEntity
  8
0
100
AcDbPolyline
 90
        3
 70
     0
 43
0.0
 10
24.257965
 20
1.093771
 10
24.257965
 20
1.13434
 10
24.257965
 20
1.25551
  0
LWPOLYLINE
  5
1843
100
AcDbEntity
  8
0
100
AcDbPolyline
 90
        3
 70
     0
 43
0.0
 10
22.172901
 20
13.373771
 10
22.172901
 20
13.333202
 10
22.172901
 20
13.212031
  0
LWPOLYLINE
  5
1848
100
AcDbEntity
  8
0
100
AcDbPolyline
 90
        4
 70
     0
 43
0.0
 10
14.820791
 20
4.012168
 10
14.820791
 20
3.831023
 10
14.820791
 20
3.720789
 10
14.820791
 20
3.683771
  0
LWPOLYLINE
  5
184E
100
AcDbEntity
  8
0
100
AcDbPolyline
 90
        3
 70
     0
 43
0.0
 10
22.172901
 20
1.25551
 10
22.172901
 20
1.13434
 10
22.172901
 20
1.093771
  0
LWPOLYLINE
  5
1853
100
AcDbEntity
  8
0
100
AcDbPolyline
 90
        3
 70
     0
 43
0.0
 10
22.724381
 20
1.411649
 10
22.724381
 20
1.327174
 10
22.724381
 20
1.25551
  0
LWPOLYLINE
  5
1858
100
AcDbEntity
  8
0
100
AcDbPolyline
 90
        3
 70
     0
 43
0.0
 10
22.724381
 20
13.212031
 10
22.724381
 20
13.140367
 10
22.724381
 20
13.055892
  0
LWPOLYLINE
  5
185D
100
AcDbEntity
  8
0
100
AcDbPolyline
 90
        4
 70
     0
 43
0.0
 10
22.172901
 20
13.212031
 10
22.343128
 20
13.312927
 10
22.515073
 20
13.414756
 10
22.68874
 20
13.517522
  0
LWPOLYLINE
  5
1863
100
AcDbEntity
  8
0
100
AcDbPolyline
 90
        4
 70
     0
 43
0.0
 10
21.424381
 20
2.765759
 10
21.829921
 20
2.338221
 10
22.263038
 20
1.887196
 10
22.724381
 20
1.411649
  0
LINE
  5
1869
100
AcDbEntity
  8
0
100
AcDbLine
 10
26.024381
 20
1.411649
 30
0.0
 11
22.724381
 21
1.411649
 31
0.0
  0
LINE
  5
186A
100
AcDbEntity
  8
0
100
AcDbLine
 10
22.172901
 20
13.212031
 30
0.0
 11
21.424381
 21
13.212031
 31
0.0
  0
LWPOLYLINE
  5
186B
100
AcDbEntity
  8
0
100
AcDbPolyline
 90
        4
 70
     0
 43
0.0
 10
22.724381
 20
13.212031
 10
22.268674
 20
12.75562
 10
21.835441
 20
12.319589
 10
21.424381
 20
11.90342
  0
LWPOLYLINE
  5
1871
100
AcDbEntity
  8
0
100
AcDbPolyline
 90
        4
 70
     0
 43
0.0
 10
24.257965
 20
13.212031
 10
24.164747
 20
13.348684
 10
24.07022
 20
13.487098
 10
23.974381
 20
13.627285
  0
LINE
  5
1877
100
AcDbEntity
  8
0
100
AcDbLine
 10
23.974381
 20
13.627285
 30
0.0
 11
23.08874
 21
13.627285
 31
0.0
  0
LINE
  5
1878
100
AcDbEntity
  8
0
100
AcDbLine
 10
22.724381
 20
13.055892
 30
0.0
 11
26.024381
 21
13.055892
 31
0.0
  0
LWPOLYLINE
  5
1879
100
AcDbEntity
  8
0
100
AcDbPolyline
 90
        4
 70
     0
 43
0.0
 10
22.724381
 20
13.055892
 10
22.26304
 20
12.580348
 10
21.829924
 20
12.129324
 10
21.424381
 20
11.701782
  0
LINE
  5
187F
100
AcDbEntity
  8
0
 62
     9
100
AcDbLine
 10
14.474381
 20
10.355374
 30
0.0
 11
21.424381
 21
10.355374
 31
0.0
  0
LINE
  5
1880
100
AcDbEntity
  8
0
100
AcDbLine
 10
23.974381
 20
0.840257
 30
0.0
 11
23.08874
 21
0.840257
 31
0.0
  0
LWPOLYLINE
  5
1881
100
AcDbEntity
  8
0
100
AcDbPolyline
 90
        4
 70
     0
 43
0.0
 10
23.974381
 20
0.840257
 10
24.070207
 20
0.980425
 10
24.164734
 20
1.11884
 10
24.257965
 20
1.25551
  0
LINE
  5
1887
100
AcDbEntity
  8
0
100
AcDbLine
 10
22.724381
 20
1.25551
 30
0.0
 11
24.257965
 21
1.25551
 31
0.0
  0
LWPOLYLINE
  5
1888
100
AcDbEntity
  8
0
100
AcDbPolyline
 90
        4
 70
     0
 43
0.0
 10
21.424381
 20
2.564121
 10
21.835437
 20
2.147957
 10
22.268671
 20
1.711925
 10
22.724381
 20
1.25551
  0
LINE
  5
188E
100
AcDbEntity
  8
0
100
AcDbLine
 10
22.172901
 20
1.25551
 30
0.0
 11
21.424381
 21
1.25551
 31
0.0
  0
LWPOLYLINE
  5
188F
100
AcDbEntity
  8
0
100
AcDbPolyline
 90
        4
 70
     0
 43
0.0
 10
22.68874
 20
0.950019
 10
22.515091
 20
1.052775
 10
22.343145
 20
1.154604
 10
22.172901
 20
1.25551
  0
LWPOLYLINE
  5
1895
100
AcDbEntity
  8
0
100
AcDbPolyline
 90
        3
 70
     0
 43
0.0
 10
23.974381
 20
0.688771
 10
23.974381
 20
0.705662
 10
23.974381
 20
0.840257
  0
LWPOLYLINE
  5
189A
100
AcDbEntity
  8
0
 62
     9
100
AcDbPolyline
 90
        3
 70
     0
 43
0.0
 10
22.68874
 20
13.671591
 10
22.68874
 20
13.632979
 10
22.68874
 20
13.517522
  0
LWPOLYLINE
  5
189F
100
AcDbEntity
  8
0
100
AcDbPolyline
 90
        4
 70
     0
 43
0.0
 10
14.820791
 20
10.783771
 10
14.820791
 20
10.746769
 10
14.820791
 20
10.636537
 10
14.820791
 20
10.455374
  0
LINE
  5
18A5
100
AcDbEntity
  8
0
 62
     9
100
AcDbLine
 10
14.474381
 20
4.112168
 30
0.0
 11
21.424381
 21
4.112168
 31
0.0
  0
LWPOLYLINE
  5
18A6
100
AcDbEntity
  8
0
 62
     9
100
AcDbPolyline
 90
        3
 70
     0
 43
0.0
 10
23.08874
 20
13.778771
 10
23.08874
 20
13.74081
 10
23.08874
 20
13.627285
  0
LWPOLYLINE
  5
18AB
100
AcDbEntity
  8
0
100
AcDbPolyline
 90
        3
 70
     0
 43
0.0
 10
23.974381
 20
13.627285
 10
23.974381
 20
13.761879
 10
23.974381
 20
13.778771
  0
LWPOLYLINE
  5
18B0
100
AcDbEntity
  8
0
100
AcDbPolyline
 90
        4
 70
     0
 43
0.0
 10
22.68874
 20
0.950019
 10
22.815416
 20
0.889546
 10
22.950068
 20
0.852654
 10
23.08874
 20
0.840257
  0
LWPOLYLINE
  5
18B6
100
AcDbEntity
  8
0
 62
     9
100
AcDbPolyline
 90
        3
 70
     0
 43
0.0
 10
22.68874
 20
0.950019
 10
22.68874
 20
0.834563
 10
22.68874
 20
0.79595
  0
LWPOLYLINE
  5
18BB
100
AcDbEntity
  8
0
100
AcDbPolyline
 90
        3
 70
     0
 43
0.0
 10
24.257965
 20
13.212031
 10
24.257965
 20
13.333202
 10
24.257965
 20
13.373771
  0
LWPOLYLINE
  5
18C0
100
AcDbEntity
  8
0
 62
     9
100
AcDbPolyline
 90
        3
 70
     0
 43
0.0
 10
23.08874
 20
0.840257
 10
23.08874
 20
0.726732
 10
23.08874
 20
0.688771
  0
LINE
  5
18C5
100
AcDbEntity
  8
0
100
AcDbLine
 10
21.424381
 20
3.712407
 30
0.0
 11
17.424381
 21
3.712407
 31
0.0
  0
LINE
  5
18C6
100
AcDbEntity
  8
0
100
AcDbLine
 10
22.724381
 20
13.212031
 30
0.0
 11
24.257965
 21
13.212031
 31
0.0
  0
LINE
  5
18C7
100
AcDbEntity
  8
0
100
AcDbLine
 10
42.624381
 20
9.523771
 30
0.0
 11
42.624381
 21
9.233771
 31
0.0
  0
LINE
  5
18C8
100
AcDbEntity
  8
0
100
AcDbLine
 10
42.624381
 20
10.333771
 30
0.0
 11
42.624381
 21
10.023771
 31
0.0
  0
LINE
  5
18C9
100
AcDbEntity
  8
0
100
AcDbLine
 10
42.624381
 20
4.443771
 30
0.0
 11
42.624381
 21
4.133771
 31
0.0
  0
LINE
  5
18CA
100
AcDbEntity
  8
0
100
AcDbLine
 10
42.624381
 20
5.233771
 30
0.0
 11
42.624381
 21
4.943771
 31
0.0
  0
LINE
  5
18CB
100
AcDbEntity
  8
0
100
AcDbLine
 10
14.474381
 20
10.455374
 30
0.0
 11
21.424381
 21
10.455374
 31
0.0
  0
LINE
  5
18CC
100
AcDbEntity
  8
0
100
AcDbLine
 10
14.474381
 20
4.012168
 30
0.0
 11
21.424381
 21
4.012168
 31
0.0
  0
LINE
  5
18CD
100
AcDbEntity
  8
0
100
AcDbLine
 10
21.424381
 20
2.973771
 30
0.0
 11
17.424381
 21
2.973771
 31
0.0
  0
LINE
  5
18CE
100
AcDbEntity
  8
0
100
AcDbLine
 10
17.424381
 20
2.973771
 30
0.0
 11
17.424381
 21
3.712407
 31
0.0
  0
LINE
  5
18CF
100
AcDbEntity
  8
0
100
AcDbLine
 10
42.624381
 20
0.433771
 30
0.0
 11
39.524381
 21
0.433771
 31
0.0
  0
LINE
  5
18D0
100
AcDbEntity
  8
0
100
AcDbLine
 10
42.624381
 20
4.133771
 30
0.0
 11
42.624381
 21
0.433771
 31
0.0
  0
LINE
  5
18D1
100
AcDbEntity
  8
0
100
AcDbLine
 10
42.624381
 20
4.133771
 30
0.0
 11
42.224381
 21
4.133771
 31
0.0
  0
LINE
  5
18D2
100
AcDbEntity
  8
0
100
AcDbLine
 10
41.824381
 20
1.333771
 30
0.0
 11
41.824381
 21
1.233771
 31
0.0
  0
LINE
  5
18D3
100
AcDbEntity
  8
0
100
AcDbLine
 10
41.824381
 20
1.233771
 30
0.0
 11
39.524381
 21
1.233771
 31
0.0
  0
LINE
  5
18D4
100
AcDbEntity
  8
0
100
AcDbLine
 10
29.124381
 20
1.233771
 30
0.0
 11
26.824381
 21
1.233771
 31
0.0
  0
LINE
  5
18D5
100
AcDbEntity
  8
0
100
AcDbLine
 10
26.824381
 20
1.233771
 30
0.0
 11
26.824381
 21
1.333771
 31
0.0
  0
LINE
  5
18D6
100
AcDbEntity
  8
0
100
AcDbLine
 10
22.248646
 20
2.233771
 30
0.0
 11
22.224381
 21
2.233771
 31
0.0
  0
LINE
  5
18D7
100
AcDbEntity
  8
0
100
AcDbLine
 10
22.224381
 20
2.233771
 30
0.0
 11
22.224381
 21
2.254305
 31
0.0
  0
LINE
  5
18D8
100
AcDbEntity
  8
0
100
AcDbLine
 10
14.474381
 20
4.483771
 30
0.0
 11
14.68436
 21
4.483771
 31
0.0
  0
LINE
  5
18D9
100
AcDbEntity
  8
0
100
AcDbLine
 10
14.474381
 20
4.112168
 30
0.0
 11
14.474381
 21
4.483771
 31
0.0
  0
LINE
  5
18DA
100
AcDbEntity
  8
0
100
AcDbLine
 10
26.024381
 20
0.433771
 30
0.0
 11
26.024381
 21
1.411649
 31
0.0
  0
LINE
  5
18DB
100
AcDbEntity
  8
0
100
AcDbLine
 10
29.124381
 20
0.433771
 30
0.0
 11
26.024381
 21
0.433771
 31
0.0
  0
LINE
  5
18DC
100
AcDbEntity
  8
0
100
AcDbLine
 10
26.024381
 20
14.033771
 30
0.0
 11
29.124381
 21
14.033771
 31
0.0
  0
LINE
  5
18DD
100
AcDbEntity
  8
0
100
AcDbLine
 10
26.024381
 20
13.055892
 30
0.0
 11
26.024381
 21
14.033771
 31
0.0
  0
LINE
  5
18DE
100
AcDbEntity
  8
0
100
AcDbLine
 10
14.474381
 20
9.983771
 30
0.0
 11
14.474381
 21
10.355374
 31
0.0
  0
LINE
  5
18DF
100
AcDbEntity
  8
0
100
AcDbLine
 10
14.474381
 20
9.983771
 30
0.0
 11
14.68436
 21
9.983771
 31
0.0
  0
LINE
  5
18E0
100
AcDbEntity
  8
0
100
AcDbLine
 10
22.224381
 20
12.213237
 30
0.0
 11
22.224381
 21
12.233771
 31
0.0
  0
LINE
  5
18E1
100
AcDbEntity
  8
0
100
AcDbLine
 10
22.224381
 20
12.233771
 30
0.0
 11
22.248646
 21
12.233771
 31
0.0
  0
LINE
  5
18E2
100
AcDbEntity
  8
0
100
AcDbLine
 10
26.824381
 20
13.133771
 30
0.0
 11
26.824381
 21
13.233771
 31
0.0
  0
LINE
  5
18E3
100
AcDbEntity
  8
0
100
AcDbLine
 10
26.824381
 20
13.233771
 30
0.0
 11
29.124381
 21
13.233771
 31
0.0
  0
LINE
  5
18E4
100
AcDbEntity
  8
0
100
AcDbLine
 10
39.524381
 20
13.233771
 30
0.0
 11
41.824381
 21
13.233771
 31
0.0
  0
LINE
  5
18E5
100
AcDbEntity
  8
0
100
AcDbLine
 10
41.824381
 20
13.233771
 30
0.0
 11
41.824381
 21
13.133771
 31
0.0
  0
LINE
  5
18E6
100
AcDbEntity
  8
0
100
AcDbLine
 10
42.624381
 20
10.333771
 30
0.0
 11
42.224381
 21
10.333771
 31
0.0
  0
LINE
  5
18E7
100
AcDbEntity
  8
0
100
AcDbLine
 10
42.624381
 20
14.033771
 30
0.0
 11
42.624381
 21
10.333771
 31
0.0
  0
LINE
  5
18E8
100
AcDbEntity
  8
0
100
AcDbLine
 10
39.524381
 20
14.033771
 30
0.0
 11
42.624381
 21
14.033771
 31
0.0
  0
LINE
  5
18E9
100
AcDbEntity
  8
0
100
AcDbLine
 10
42.624381
 20
5.233771
 30
0.0
 11
42.224381
 21
5.233771
 31
0.0
  0
LINE
  5
18EA
100
AcDbEntity
  8
0
100
AcDbLine
 10
42.624381
 20
9.233771
 30
0.0
 11
42.624381
 21
5.233771
 31
0.0
  0
LINE
  5
18EB
100
AcDbEntity
  8
0
100
AcDbLine
 10
42.624381
 20
9.233771
 30
0.0
 11
42.224381
 21
9.233771
 31
0.0
  0
LINE
  5
18EC
100
AcDbEntity
  8
0
100
AcDbLine
 10
14.474381
 20
10.455374
 30
0.0
 11
14.474381
 21
10.583771
 31
0.0
  0
LINE
  5
18ED
100
AcDbEntity
  8
0
100
AcDbLine
 10
21.424381
 20
2.564121
 30
0.0
 11
21.424381
 21
2.765759
 31
0.0
  0
LINE
  5
18EE
100
AcDbEntity
  8
0
100
AcDbLine
 10
21.424381
 20
11.701782
 30
0.0
 11
21.424381
 21
11.90342
 31
0.0
  0
LINE
  5
18EF
100
AcDbEntity
  8
0
100
AcDbLine
 10
21.424381
 20
13.212031
 30
0.0
 11
21.424381
 21
13.373771
 31
0.0
  0
LINE
  5
18F0
100
AcDbEntity
  8
0
100
AcDbLine
 10
21.424381
 20
11.701782
 30
0.0
 11
21.424381
 21
10.355374
 31
0.0
  0
LINE
  5
18F1
100
AcDbEntity
  8
0
100
AcDbLine
 10
21.424381
 20
13.212031
 30
0.0
 11
21.424381
 21
11.90342
 31
0.0
  0
LINE
  5
18F2
100
AcDbEntity
  8
0
100
AcDbLine
 10
14.474381
 20
4.483771
 30
0.0
 11
14.474381
 21
4.553771
 31
0.0
  0
LINE
  5
18F3
100
AcDbEntity
  8
0
100
AcDbLine
 10
14.474381
 20
9.913771
 30
0.0
 11
14.474381
 21
9.983771
 31
0.0
  0
LINE
  5
18F4
100
AcDbEntity
  8
0
100
AcDbLine
 10
21.424381
 20
2.564121
 30
0.0
 11
21.424381
 21
1.25551
 31
0.0
  0
LINE
  5
18F5
100
AcDbEntity
  8
0
100
AcDbLine
 10
21.424381
 20
4.112168
 30
0.0
 11
21.424381
 21
2.765759
 31
0.0
  0
LINE
  5
18F6
100
AcDbEntity
  8
0
100
AcDbLine
 10
17.424381
 20
3.683771
 30
0.0
 11
14.820791
 21
3.683771
 31
0.0
  0
LINE
  5
18F7
100
AcDbEntity
  8
0
100
AcDbLine
 10
21.424381
 20
10.783771
 30
0.0
 11
14.820791
 21
10.783771
 31
0.0
  0
LINE
  5
18F8
100
AcDbEntity
  8
0
100
AcDbLine
 10
26.024381
 20
1.093771
 30
0.0
 11
24.257965
 21
1.093771
 31
0.0
  0
LINE
  5
18F9
100
AcDbEntity
  8
0
100
AcDbLine
 10
22.172901
 20
1.093771
 30
0.0
 11
21.424381
 21
1.093771
 31
0.0
  0
LINE
  5
18FA
100
AcDbEntity
  8
0
100
AcDbLine
 10
21.424381
 20
1.093771
 30
0.0
 11
21.424381
 21
1.25551
 31
0.0
  0
LINE
  5
18FB
100
AcDbEntity
  8
0
100
AcDbLine
 10
26.024381
 20
13.373771
 30
0.0
 11
24.257965
 21
13.373771
 31
0.0
  0
LINE
  5
18FC
100
AcDbEntity
  8
0
100
AcDbLine
 10
22.172901
 20
13.373771
 30
0.0
 11
21.424381
 21
13.373771
 31
0.0
  0
LINE
  5
18FD
100
AcDbEntity
  8
0
100
AcDbLine
 10
22.68874
 20
0.79595
 30
0.0
 11
22.172901
 21
1.093771
 31
0.0
  0
LINE
  5
18FE
100
AcDbEntity
  8
0
100
AcDbLine
 10
22.68874
 20
13.671591
 30
0.0
 11
22.172901
 21
13.373771
 31
0.0
  0
LINE
  5
18FF
100
AcDbEntity
  8
0
100
AcDbLine
 10
23.974381
 20
0.688771
 30
0.0
 11
23.08874
 21
0.688771
 31
0.0
  0
LINE
  5
1900
100
AcDbEntity
  8
0
100
AcDbLine
 10
23.974381
 20
13.778771
 30
0.0
 11
23.08874
 21
13.778771
 31
0.0
  0
LINE
  5
1901
100
AcDbEntity
  8
0
100
AcDbLine
 10
24.045556
 20
0.790419
 30
0.0
 11
23.974381
 21
0.688771
 31
0.0
  0
LINE
  5
1902
100
AcDbEntity
  8
0
100
AcDbLine
 10
24.257965
 20
1.093771
 30
0.0
 11
24.045556
 21
0.790419
 31
0.0
  0
LINE
  5
1903
100
AcDbEntity
  8
0
100
AcDbLine
 10
24.257965
 20
13.373771
 30
0.0
 11
23.974381
 21
13.778771
 31
0.0
  0
LINE
  5
1904
100
AcDbEntity
  8
0
100
AcDbLine
 10
14.820791
 20
3.683771
 30
0.0
 11
14.474381
 21
3.883771
 31
0.0
  0
LINE
  5
1905
100
AcDbEntity
  8
0
100
AcDbLine
 10
14.474381
 20
3.883771
 30
0.0
 11
14.474381
 21
4.012168
 31
0.0
  0
LINE
  5
1906
100
AcDbEntity
  8
0
100
AcDbLine
 10
14.820791
 20
10.783771
 30
0.0
 11
14.474381
 21
10.583771
 31
0.0
  0
ARC
  5
1907
100
AcDbEntity
  8
0
100
AcDbCircle
 10
23.08874
 20
12.978771
 30
0.0
 40
0.8
100
AcDbArc
 50
90.0
 51
120.0
  0
LINE
  5
1908
100
AcDbEntity
  8
0
100
AcDbLine
 10
14.474381
 20
4.112168
 30
0.0
 11
14.474381
 21
4.012168
 31
0.0
  0
ARC
  5
1909
100
AcDbEntity
  8
0
100
AcDbCircle
 10
23.08874
 20
1.488771
 30
0.0
 40
0.8
100
AcDbArc
 50
240.0
 51
270.0
  0
LINE
  5
190A
100
AcDbEntity
  8
0
100
AcDbLine
 10
14.474381
 20
10.455374
 30
0.0
 11
21.424381
 21
10.455374
 31
0.0
  0
LINE
  5
190B
100
AcDbEntity
  8
0
100
AcDbLine
 10
14.474381
 20
10.455374
 30
0.0
 11
14.474381
 21
10.355374
 31
0.0
  0
LINE
  5
190C
100
AcDbEntity
  8
0
100
AcDbLine
 10
13.467859
 20
9.633771
 30
0.0
 11
12.774381
 21
9.633771
 31
0.0
  0
LINE
  5
190D
100
AcDbEntity
  8
0
100
AcDbLine
 10
12.774381
 20
9.633771
 30
0.0
 11
12.774381
 21
9.483771
 31
0.0
  0
LINE
  5
190E
100
AcDbEntity
  8
0
100
AcDbLine
 10
3.890113
 20
8.383771
 30
0.0
 11
2.624381
 21
8.383771
 31
0.0
  0
LINE
  5
190F
100
AcDbEntity
  8
0
100
AcDbLine
 10
1.324381
 20
7.633771
 30
0.0
 11
2.624381
 21
8.383771
 31
0.0
  0
LINE
  5
1910
100
AcDbEntity
  8
0
100
AcDbLine
 10
9.674381
 20
4.833771
 30
0.0
 11
13.467859
 21
4.833771
 31
0.0
  0
LINE
  5
1911
100
AcDbEntity
  8
0
100
AcDbLine
 10
9.524381
 20
4.983771
 30
0.0
 11
9.674381
 21
4.833771
 31
0.0
  0
LINE
  5
1912
100
AcDbEntity
  8
0
100
AcDbLine
 10
2.624381
 20
5.883771
 30
0.0
 11
3.872101
 21
5.883771
 31
0.0
  0
LINE
  5
1913
100
AcDbEntity
  8
0
100
AcDbLine
 10
2.624381
 20
5.883771
 30
0.0
 11
1.324381
 21
6.633771
 31
0.0
  0
LINE
  5
1914
100
AcDbEntity
  8
0
100
AcDbLine
 10
1.324381
 20
7.633771
 30
0.0
 11
1.324381
 21
6.633771
 31
0.0
  0
LINE
  5
1915
100
AcDbEntity
  8
0
100
AcDbLine
 10
6.974381
 20
7.883771
 30
0.0
 11
6.974381
 21
6.583771
 31
0.0
  0
LINE
  5
1916
100
AcDbEntity
  8
0
 62
     9
100
AcDbLine
 10
6.974381
 20
7.883771
 30
0.0
 11
7.374381
 21
7.883771
 31
0.0
  0
LINE
  5
1917
100
AcDbEntity
  8
0
 62
     9
100
AcDbLine
 10
6.674381
 20
7.883771
 30
0.0
 11
6.974381
 21
7.883771
 31
0.0
  0
LINE
  5
1918
100
AcDbEntity
  8
0
 62
     9
100
AcDbLine
 10
6.674381
 20
6.583771
 30
0.0
 11
6.974381
 21
6.583771
 31
0.0
  0
LWPOLYLINE
  5
1919
100
AcDbEntity
  8
0
 62
     9
100
AcDbPolyline
 90
       18
 70
     0
 43
0.0
 10
13.274381
 20
7.883771
 10
13.292835
 20
7.883771
 10
13.311131
 20
7.883771
 10
13.329114
 20
7.883771
 10
13.346629
 20
7.883771
 10
13.363529
 20
7.883771
 10
13.379668
 20
7.883771
 10
13.394908
 20
7.883771
 10
13.40912
 20
7.883771
 10
13.422183
 20
7.883771
 10
13.433985
 20
7.883771
 10
13.444425
 20
7.883771
 10
13.453414
 20
7.883771
 10
13.460876
 20
7.883771
 10
13.466746
 20
7.883771
 10
13.470976
 20
7.883771
 10
13.473528
 20
7.883771
 10
13.474381
 20
7.883771
  0
LWPOLYLINE
  5
192D
100
AcDbEntity
  8
0
100
AcDbPolyline
 90
        4
 70
     0
 43
0.0
 10
3.638638
 20
5.733771
 10
3.63961
 20
5.731998
 10
3.64059
 20
5.730854
 10
3.641573
 20
5.730341
  0
LWPOLYLINE
  5
1933
100
AcDbEntity
  8
0
100
AcDbPolyline
 90
       30
 70
     0
 43
0.0
 10
6.674381
 20
7.883771
 10
6.674381
 20
7.970393
 10
6.674381
 20
8.056761
 10
6.674381
 20
8.142622
 10
6.674381
 20
8.227724
 10
6.674381
 20
8.311816
 10
6.674381
 20
8.394653
 10
6.674381
 20
8.475992
 10
6.674381
 20
8.555593
 10
6.674381
 20
8.633224
 10
6.674381
 20
8.708657
 10
6.674381
 20
8.78167
 10
6.674381
 20
8.85205
 10
6.674381
 20
8.919589
 10
6.674381
 20
8.98409
 10
6.674381
 20
9.045364
 10
6.674381
 20
9.10323
 10
6.674381
 20
9.15752
 10
6.674381
 20
9.208073
 10
6.674381
 20
9.254742
 10
6.674381
 20
9.29739
 10
6.674381
 20
9.335891
 10
6.674381
 20
9.370134
 10
6.674381
 20
9.400016
 10
6.674381
 20
9.425451
 10
6.674381
 20
9.446364
 10
6.674381
 20
9.462693
 10
6.674381
 20
9.474392
 10
6.674381
 20
9.481424
 10
6.674381
 20
9.483771
  0
LINE
  5
1953
100
AcDbEntity
  8
0
 62
     9
100
AcDbLine
 10
6.974381
 20
6.583771
 30
0.0
 11
7.374381
 21
6.583771
 31
0.0
  0
LWPOLYLINE
  5
1954
100
AcDbEntity
  8
0
100
AcDbPolyline
 90
       27
 70
     0
 43
0.0
 10
6.974381
 20
6.583771
 10
6.974381
 20
6.505279
 10
6.974381
 20
6.427073
 10
6.974381
 20
6.349439
 10
6.974381
 20
6.27266
 10
6.974381
 20
6.197017
 10
6.974381
 20
6.122784
 10
6.974381
 20
6.050234
 10
6.974381
 20
5.979631
 10
6.974381
 20
5.911232
 10
6.974381
 20
5.845287
 10
6.974381
 20
5.782036
 10
6.974381
 20
5.721711
 10
6.974381
 20
5.664532
 10
6.974381
 20
5.610707
 10
6.974381
 20
5.560432
 10
6.974381
 20
5.513892
 10
6.974381
 20
5.471255
 10
6.974381
 20
5.432678
 10
6.974381
 20
5.398301
 10
6.974381
 20
5.36825
 10
6.974381
 20
5.342634
 10
6.974381
 20
5.321546
 10
6.974381
 20
5.305065
 10
6.974381
 20
5.293249
 10
6.974381
 20
5.286143
 10
6.974381
 20
5.283771
  0
LWPOLYLINE
  5
1971
100
AcDbEntity
  8
0
100
AcDbPolyline
 90
       27
 70
     0
 43
0.0
 10
6.974381
 20
9.183771
 10
6.974381
 20
9.181399
 10
6.974381
 20
9.174292
 10
6.974381
 20
9.162477
 10
6.974381
 20
9.145995
 10
6.974381
 20
9.124908
 10
6.974381
 20
9.099292
 10
6.974381
 20
9.069241
 10
6.974381
 20
9.034864
 10
6.974381
 20
8.996286
 10
6.974381
 20
8.95365
 10
6.974381
 20
8.907109
 10
6.974381
 20
8.856835
 10
6.974381
 20
8.80301
 10
6.974381
 20
8.74583
 10
6.974381
 20
8.685505
 10
6.974381
 20
8.622255
 10
6.974381
 20
8.55631
 10
6.974381
 20
8.487911
 10
6.974381
 20
8.417307
 10
6.974381
 20
8.344757
 10
6.974381
 20
8.270525
 10
6.974381
 20
8.194881
 10
6.974381
 20
8.118102
 10
6.974381
 20
8.040468
 10
6.974381
 20
7.962263
 10
6.974381
 20
7.883771
  0
LINE
  5
198E
100
AcDbEntity
  8
0
 62
     9
100
AcDbLine
 10
3.641573
 20
5.730341
 30
0.0
 11
1.824381
 21
5.730341
 31
0.0
  0
ARC
  5
198F
100
AcDbEntity
  8
0
 62
     9
100
AcDbCircle
 10
1.824381
 20
6.583771
 30
0.0
 40
0.653461
100
AcDbArc
 50
180.0
 51
270.0
  0
LWPOLYLINE
  5
1990
100
AcDbEntity
  8
0
100
AcDbPolyline
 90
       30
 70
     0
 43
0.0
 10
5.574381
 20
7.883771
 10
5.574381
 20
7.970393
 10
5.574381
 20
8.056761
 10
5.574381
 20
8.142622
 10
5.574381
 20
8.227724
 10
5.574381
 20
8.311816
 10
5.574381
 20
8.394653
 10
5.574381
 20
8.475992
 10
5.574381
 20
8.555593
 10
5.574381
 20
8.633224
 10
5.574381
 20
8.708657
 10
5.574381
 20
8.78167
 10
5.574381
 20
8.85205
 10
5.574381
 20
8.919589
 10
5.574381
 20
8.98409
 10
5.574381
 20
9.045364
 10
5.574381
 20
9.10323
 10
5.574381
 20
9.15752
 10
5.574381
 20
9.208073
 10
5.574381
 20
9.254742
 10
5.574381
 20
9.29739
 10
5.574381
 20
9.335891
 10
5.574381
 20
9.370134
 10
5.574381
 20
9.400016
 10
5.574381
 20
9.425451
 10
5.574381
 20
9.446364
 10
5.574381
 20
9.462693
 10
5.574381
 20
9.474392
 10
5.574381
 20
9.481424
 10
5.574381
 20
9.483771
  0
LWPOLYLINE
  5
19B0
100
AcDbEntity
  8
0
 62
     9
100
AcDbPolyline
 90
       18
 70
     0
 43
0.0
 10
1.824381
 20
5.93031
 10
1.824381
 20
5.912061
 10
1.824381
 20
5.893964
 10
1.824381
 20
5.87617
 10
1.824381
 20
5.858828
 10
1.824381
 20
5.842083
 10
1.824381
 20
5.826073
 10
1.824381
 20
5.810933
 10
1.824381
 20
5.79679
 10
1.824381
 20
5.78376
 10
1.824381
 20
5.771953
 10
1.824381
 20
5.761467
 10
1.824381
 20
5.752389
 10
1.824381
 20
5.744797
 10
1.824381
 20
5.738752
 10
1.824381
 20
5.734305
 10
1.824381
 20
5.731493
 10
1.824381
 20
5.730341
  0
ARC
  5
19C4
100
AcDbEntity
  8
0
 62
     9
100
AcDbCircle
 10
1.824381
 20
6.583771
 30
0.0
 40
0.85343
100
AcDbArc
 50
180.0
 51
270.0
  0
LINE
  5
19C5
100
AcDbEntity
  8
0
 62
     9
100
AcDbLine
 10
1.170921
 20
6.583771
 30
0.0
 11
1.170921
 21
7.883771
 31
0.0
  0
LINE
  5
19C6
100
AcDbEntity
  8
0
 62
     9
100
AcDbLine
 10
5.574381
 20
7.883771
 30
0.0
 11
5.874381
 21
7.883771
 31
0.0
  0
LINE
  5
19C7
100
AcDbEntity
  8
0
 62
     9
100
AcDbLine
 10
5.874381
 20
7.883771
 30
0.0
 11
6.274381
 21
7.883771
 31
0.0
  0
LINE
  5
19C8
100
AcDbEntity
  8
0
100
AcDbLine
 10
5.874381
 20
7.883771
 30
0.0
 11
5.874381
 21
6.583771
 31
0.0
  0
LINE
  5
19C9
100
AcDbEntity
  8
0
 62
     9
100
AcDbLine
 10
5.574381
 20
6.583771
 30
0.0
 11
5.874381
 21
6.583771
 31
0.0
  0
LINE
  5
19CA
100
AcDbEntity
  8
0
 62
     9
100
AcDbLine
 10
5.874381
 20
6.583771
 30
0.0
 11
6.274381
 21
6.583771
 31
0.0
  0
LWPOLYLINE
  5
19CB
100
AcDbEntity
  8
0
100
AcDbPolyline
 90
       27
 70
     0
 43
0.0
 10
5.874381
 20
6.583771
 10
5.874381
 20
6.505279
 10
5.874381
 20
6.427073
 10
5.874381
 20
6.349439
 10
5.874381
 20
6.27266
 10
5.874381
 20
6.197017
 10
5.874381
 20
6.122784
 10
5.874381
 20
6.050234
 10
5.874381
 20
5.979631
 10
5.874381
 20
5.911232
 10
5.874381
 20
5.845287
 10
5.874381
 20
5.782036
 10
5.874381
 20
5.721711
 10
5.874381
 20
5.664532
 10
5.874381
 20
5.610707
 10
5.874381
 20
5.560432
 10
5.874381
 20
5.513892
 10
5.874381
 20
5.471255
 10
5.874381
 20
5.432678
 10
5.874381
 20
5.398301
 10
5.874381
 20
5.36825
 10
5.874381
 20
5.342634
 10
5.874381
 20
5.321546
 10
5.874381
 20
5.305065
 10
5.874381
 20
5.293249
 10
5.874381
 20
5.286143
 10
5.874381
 20
5.283771
  0
LWPOLYLINE
  5
19E8
100
AcDbEntity
  8
0
 62
     9
100
AcDbPolyline
 90
       18
 70
     0
 43
0.0
 10
1.170921
 20
6.583771
 10
1.152671
 20
6.583771
 10
1.134574
 20
6.583771
 10
1.116781
 20
6.583771
 10
1.099439
 20
6.583771
 10
1.082693
 20
6.583771
 10
1.066684
 20
6.583771
 10
1.051544
 20
6.583771
 10
1.0374
 20
6.583771
 10
1.02437
 20
6.583771
 10
1.012563
 20
6.583771
 10
1.002077
 20
6.583771
 10
0.993
 20
6.583771
 10
0.985407
 20
6.583771
 10
0.979362
 20
6.583771
 10
0.974915
 20
6.583771
 10
0.972104
 20
6.583771
 10
0.970951
 20
6.583771
  0
LINE
  5
19FC
100
AcDbEntity
  8
0
100
AcDbLine
 10
3.764363
 20
8.761699
 30
0.0
 11
3.764363
 21
9.483771
 31
0.0
  0
LINE
  5
19FD
100
AcDbEntity
  8
0
 62
     9
100
AcDbLine
 10
0.970951
 20
6.583771
 30
0.0
 11
0.970951
 21
7.883771
 31
0.0
  0
ARC
  5
19FE
100
AcDbEntity
  8
0
 62
     9
100
AcDbCircle
 10
1.824381
 20
7.883771
 30
0.0
 40
0.653461
100
AcDbArc
 50
90.0
 51
180.0
  0
LINE
  5
19FF
100
AcDbEntity
  8
0
100
AcDbLine
 10
3.764363
 20
4.983771
 30
0.0
 11
3.764363
 21
5.705843
 31
0.0
  0
LINE
  5
1A00
100
AcDbEntity
  8
0
100
AcDbLine
 10
3.764363
 20
5.705843
 30
0.0
 11
1.824381
 21
5.705843
 31
0.0
  0
ARC
  5
1A01
100
AcDbEntity
  8
0
100
AcDbCircle
 10
1.824381
 20
6.583771
 30
0.0
 40
0.877928
100
AcDbArc
 50
180.0
 51
270.0
  0
LINE
  5
1A02
100
AcDbEntity
  8
0
100
AcDbLine
 10
0.946453
 20
7.883771
 30
0.0
 11
0.946453
 21
6.583771
 31
0.0
  0
ARC
  5
1A03
100
AcDbEntity
  8
0
100
AcDbCircle
 10
1.824381
 20
7.883771
 30
0.0
 40
0.877928
100
AcDbArc
 50
90.0
 51
180.0
  0
LINE
  5
1A04
100
AcDbEntity
  8
0
100
AcDbLine
 10
3.764363
 20
8.761699
 30
0.0
 11
1.824381
 21
8.761699
 31
0.0
  0
LWPOLYLINE
  5
1A05
100
AcDbEntity
  8
0
 62
     9
100
AcDbPolyline
 90
       12
 70
     0
 43
0.0
 10
13.274381
 20
8.733771
 10
13.274381
 20
8.683689
 10
13.274381
 20
8.610056
 10
13.274381
 20
8.534423
 10
13.274381
 20
8.457006
 10
13.274381
 20
8.378036
 10
13.274381
 20
8.297721
 10
13.274381
 20
8.216233
 10
13.274381
 20
8.133788
 10
13.274381
 20
8.050686
 10
13.274381
 20
7.967242
 10
13.274381
 20
7.883771
  0
LWPOLYLINE
  5
1A13
100
AcDbEntity
  8
0
 62
     9
100
AcDbPolyline
 90
       21
 70
     0
 43
0.0
 10
13.274381
 20
9.483771
 10
13.274381
 20
9.481592
 10
13.274381
 20
9.475041
 10
13.274381
 20
9.464116
 10
13.274381
 20
9.448849
 10
13.274381
 20
9.429295
 10
13.274381
 20
9.405514
 10
13.274381
 20
9.377558
 10
13.274381
 20
9.3455
 10
13.274381
 20
9.309432
 10
13.274381
 20
9.269459
 10
13.274381
 20
9.225686
 10
13.274381
 20
9.178232
 10
13.274381
 20
9.127228
 10
13.274381
 20
9.072815
 10
13.274381
 20
9.015142
 10
13.274381
 20
8.954366
 10
13.274381
 20
8.890654
 10
13.274381
 20
8.82418
 10
13.274381
 20
8.755128
 10
13.274381
 20
8.733771
  0
LWPOLYLINE
  5
1A2A
100
AcDbEntity
  8
0
100
AcDbPolyline
 90
       27
 70
     0
 43
0.0
 10
4.774381
 20
9.183771
 10
4.774381
 20
9.181399
 10
4.774381
 20
9.174292
 10
4.774381
 20
9.162477
 10
4.774381
 20
9.145995
 10
4.774381
 20
9.124908
 10
4.774381
 20
9.099292
 10
4.774381
 20
9.069241
 10
4.774381
 20
9.034864
 10
4.774381
 20
8.996286
 10
4.774381
 20
8.95365
 10
4.774381
 20
8.907109
 10
4.774381
 20
8.856835
 10
4.774381
 20
8.80301
 10
4.774381
 20
8.74583
 10
4.774381
 20
8.685505
 10
4.774381
 20
8.622255
 10
4.774381
 20
8.55631
 10
4.774381
 20
8.487911
 10
4.774381
 20
8.417307
 10
4.774381
 20
8.344757
 10
4.774381
 20
8.270525
 10
4.774381
 20
8.194881
 10
4.774381
 20
8.118102
 10
4.774381
 20
8.040468
 10
4.774381
 20
7.962263
 10
4.774381
 20
7.883771
  0
LWPOLYLINE
  5
1A47
100
AcDbEntity
  8
0
100
AcDbPolyline
 90
       30
 70
     0
 43
0.0
 10
4.474381
 20
7.883771
 10
4.474381
 20
7.970393
 10
4.474381
 20
8.056761
 10
4.474381
 20
8.142622
 10
4.474381
 20
8.227724
 10
4.474381
 20
8.311816
 10
4.474381
 20
8.394653
 10
4.474381
 20
8.475992
 10
4.474381
 20
8.555593
 10
4.474381
 20
8.633224
 10
4.474381
 20
8.708657
 10
4.474381
 20
8.78167
 10
4.474381
 20
8.85205
 10
4.474381
 20
8.919589
 10
4.474381
 20
8.98409
 10
4.474381
 20
9.045364
 10
4.474381
 20
9.10323
 10
4.474381
 20
9.15752
 10
4.474381
 20
9.208073
 10
4.474381
 20
9.254742
 10
4.474381
 20
9.29739
 10
4.474381
 20
9.335891
 10
4.474381
 20
9.370134
 10
4.474381
 20
9.400016
 10
4.474381
 20
9.425451
 10
4.474381
 20
9.446364
 10
4.474381
 20
9.462693
 10
4.474381
 20
9.474392
 10
4.474381
 20
9.481424
 10
4.474381
 20
9.483771
  0
LINE
  5
1A67
100
AcDbEntity
  8
0
 62
     9
100
AcDbLine
 10
13.274381
 20
7.883771
 30
0.0
 11
7.374381
 21
7.883771
 31
0.0
  0
LINE
  5
1A68
100
AcDbEntity
  8
0
100
AcDbLine
 10
3.764363
 20
5.705843
 30
0.0
 11
3.641573
 21
5.730341
 31
0.0
  0
LWPOLYLINE
  5
1A69
100
AcDbEntity
  8
0
100
AcDbPolyline
 90
       30
 70
     0
 43
0.0
 10
3.969961
 20
6.583771
 10
3.969757
 20
6.497353
 10
3.969145
 20
6.41118
 10
3.968126
 20
6.325517
 10
3.966703
 20
6.240586
 10
3.964882
 20
6.156667
 10
3.962665
 20
6.073963
 10
3.960062
 20
5.992761
 10
3.957076
 20
5.913246
 10
3.953719
 20
5.835704
 10
3.949999
 20
5.760306
 10
3.945927
 20
5.68733
 10
3.941514
 20
5.616933
 10
3.936774
 20
5.54938
 10
3.931718
 20
5.484814
 10
3.926365
 20
5.423481
 10
3.920725
 20
5.365513
 10
3.91482
 20
5.311129
 10
3.908662
 20
5.260449
 10
3.902273
 20
5.213664
 10
3.895668
 20
5.170881
 10
3.888871
 20
5.132258
 10
3.881897
 20
5.097887
 10
3.874771
 20
5.067893
 10
3.86751
 20
5.042351
 10
3.86014
 20
5.02135
 10
3.852678
 20
5.004946
 10
3.84515
 20
4.993194
 10
3.837576
 20
4.986128
 10
3.82998
 20
4.983771
  0
LWPOLYLINE
  5
1A89
100
AcDbEntity
  8
0
100
AcDbPolyline
 90
       30
 70
     0
 43
0.0
 10
3.82998
 20
9.483771
 10
3.837576
 20
9.481413
 10
3.84515
 20
9.474347
 10
3.852678
 20
9.462596
 10
3.86014
 20
9.446192
 10
3.86751
 20
9.425191
 10
3.874771
 20
9.399649
 10
3.881897
 20
9.369654
 10
3.888871
 20
9.335283
 10
3.895668
 20
9.29666
 10
3.902273
 20
9.253877
 10
3.908662
 20
9.207092
 10
3.91482
 20
9.156413
 10
3.920725
 20
9.102029
 10
3.926365
 20
9.04406
 10
3.931718
 20
8.982727
 10
3.936774
 20
8.918162
 10
3.941514
 20
8.850609
 10
3.945927
 20
8.780212
 10
3.949999
 20
8.707236
 10
3.953719
 20
8.631838
 10
3.957076
 20
8.554296
 10
3.960062
 20
8.474781
 10
3.962665
 20
8.393578
 10
3.964882
 20
8.310875
 10
3.966703
 20
8.226956
 10
3.968126
 20
8.142025
 10
3.969145
 20
8.056361
 10
3.969757
 20
7.970188
 10
3.969961
 20
7.883771
  0
LINE
  5
1AA9
100
AcDbEntity
  8
0
100
AcDbLine
 10
3.764363
 20
8.761699
 30
0.0
 11
3.641573
 21
8.737201
 31
0.0
  0
LINE
  5
1AAA
100
AcDbEntity
  8
0
100
AcDbLine
 10
3.969961
 20
7.883771
 30
0.0
 11
3.969961
 21
6.583771
 31
0.0
  0
LWPOLYLINE
  5
1AAB
100
AcDbEntity
  8
0
 62
     9
100
AcDbPolyline
 90
       18
 70
     0
 43
0.0
 10
1.170921
 20
7.883771
 10
1.152671
 20
7.883771
 10
1.134574
 20
7.883771
 10
1.116781
 20
7.883771
 10
1.099439
 20
7.883771
 10
1.082693
 20
7.883771
 10
1.066684
 20
7.883771
 10
1.051544
 20
7.883771
 10
1.0374
 20
7.883771
 10
1.02437
 20
7.883771
 10
1.012563
 20
7.883771
 10
1.002077
 20
7.883771
 10
0.993
 20
7.883771
 10
0.985407
 20
7.883771
 10
0.979362
 20
7.883771
 10
0.974915
 20
7.883771
 10
0.972104
 20
7.883771
 10
0.970951
 20
7.883771
  0
LINE
  5
1ABF
100
AcDbEntity
  8
0
 62
     9
100
AcDbLine
 10
13.274381
 20
6.583771
 30
0.0
 11
7.374381
 21
6.583771
 31
0.0
  0
LINE
  5
1AC0
100
AcDbEntity
  8
0
100
AcDbLine
 10
14.387779
 20
8.526518
 30
0.0
 11
13.474381
 21
8.526518
 31
0.0
  0
LINE
  5
1AC1
100
AcDbEntity
  8
0
 62
     9
100
AcDbLine
 10
4.474381
 20
7.883771
 30
0.0
 11
4.774381
 21
7.883771
 31
0.0
  0
LINE
  5
1AC2
100
AcDbEntity
  8
0
 62
     9
100
AcDbLine
 10
4.774381
 20
7.883771
 30
0.0
 11
5.174381
 21
7.883771
 31
0.0
  0
LINE
  5
1AC3
100
AcDbEntity
  8
0
100
AcDbLine
 10
4.774381
 20
7.883771
 30
0.0
 11
4.774381
 21
6.583771
 31
0.0
  0
LINE
  5
1AC4
100
AcDbEntity
  8
0
 62
     9
100
AcDbLine
 10
4.474381
 20
6.583771
 30
0.0
 11
4.774381
 21
6.583771
 31
0.0
  0
LINE
  5
1AC5
100
AcDbEntity
  8
0
100
AcDbLine
 10
14.387779
 20
5.941024
 30
0.0
 11
13.474381
 21
5.941024
 31
0.0
  0
LINE
  5
1AC6
100
AcDbEntity
  8
0
 62
     9
100
AcDbLine
 10
4.474381
 20
7.883771
 30
0.0
 11
3.969961
 21
7.883771
 31
0.0
  0
LINE
  5
1AC7
100
AcDbEntity
  8
0
 62
     9
100
AcDbLine
 10
4.474381
 20
6.583771
 30
0.0
 11
3.969961
 21
6.583771
 31
0.0
  0
LINE
  5
1AC8
100
AcDbEntity
  8
0
 62
     9
100
AcDbLine
 10
5.574381
 20
7.883771
 30
0.0
 11
5.174381
 21
7.883771
 31
0.0
  0
ARC
  5
1AC9
100
AcDbEntity
  8
0
 62
     9
100
AcDbCircle
 10
1.824381
 20
7.883771
 30
0.0
 40
0.85343
100
AcDbArc
 50
90.0
 51
180.0
  0
LINE
  5
1ACA
100
AcDbEntity
  8
0
 62
     9
100
AcDbLine
 10
1.824381
 20
8.537231
 30
0.0
 11
3.624381
 21
8.537231
 31
0.0
  0
LINE
  5
1ACB
100
AcDbEntity
  8
0
 62
     9
100
AcDbLine
 10
4.774381
 20
6.583771
 30
0.0
 11
5.174381
 21
6.583771
 31
0.0
  0
LWPOLYLINE
  5
1ACC
100
AcDbEntity
  8
0
100
AcDbPolyline
 90
       27
 70
     0
 43
0.0
 10
4.774381
 20
6.583771
 10
4.774381
 20
6.505279
 10
4.774381
 20
6.427073
 10
4.774381
 20
6.349439
 10
4.774381
 20
6.27266
 10
4.774381
 20
6.197017
 10
4.774381
 20
6.122784
 10
4.774381
 20
6.050234
 10
4.774381
 20
5.979631
 10
4.774381
 20
5.911232
 10
4.774381
 20
5.845287
 10
4.774381
 20
5.782036
 10
4.774381
 20
5.721711
 10
4.774381
 20
5.664532
 10
4.774381
 20
5.610707
 10
4.774381
 20
5.560432
 10
4.774381
 20
5.513892
 10
4.774381
 20
5.471255
 10
4.774381
 20
5.432678
 10
4.774381
 20
5.398301
 10
4.774381
 20
5.36825
 10
4.774381
 20
5.342634
 10
4.774381
 20
5.321546
 10
4.774381
 20
5.305065
 10
4.774381
 20
5.293249
 10
4.774381
 20
5.286143
 10
4.774381
 20
5.283771
  0
LWPOLYLINE
  5
1AE9
100
AcDbEntity
  8
0
 62
     9
100
AcDbPolyline
 90
       18
 70
     0
 43
0.0
 10
1.824381
 20
8.537231
 10
1.824381
 20
8.555481
 10
1.824381
 20
8.573577
 10
1.824381
 20
8.591371
 10
1.824381
 20
8.608713
 10
1.824381
 20
8.625459
 10
1.824381
 20
8.641468
 10
1.824381
 20
8.656608
 10
1.824381
 20
8.670752
 10
1.824381
 20
8.683782
 10
1.824381
 20
8.695589
 10
1.824381
 20
8.706075
 10
1.824381
 20
8.715152
 10
1.824381
 20
8.722745
 10
1.824381
 20
8.72879
 10
1.824381
 20
8.733237
 10
1.824381
 20
8.736048
 10
1.824381
 20
8.737201
  0
LINE
  5
1AFD
100
AcDbEntity
  8
0
100
AcDbLine
 10
4.474381
 20
7.883771
 30
0.0
 11
4.474381
 21
6.583771
 31
0.0
  0
LINE
  5
1AFE
100
AcDbEntity
  8
0
 62
     9
100
AcDbLine
 10
5.574381
 20
6.583771
 30
0.0
 11
5.174381
 21
6.583771
 31
0.0
  0
LINE
  5
1AFF
100
AcDbEntity
  8
0
 62
     9
100
AcDbLine
 10
6.674381
 20
7.883771
 30
0.0
 11
6.274381
 21
7.883771
 31
0.0
  0
LINE
  5
1B00
100
AcDbEntity
  8
0
 62
     9
100
AcDbLine
 10
1.824381
 20
8.737201
 30
0.0
 11
3.641573
 21
8.737201
 31
0.0
  0
LWPOLYLINE
  5
1B01
100
AcDbEntity
  8
0
100
AcDbPolyline
 90
        4
 70
     0
 43
0.0
 10
3.641573
 20
8.737201
 10
3.64059
 20
8.736688
 10
3.63961
 20
8.735543
 10
3.638638
 20
8.733771
  0
LINE
  5
1B07
100
AcDbEntity
  8
0
 62
     9
100
AcDbLine
 10
1.824381
 20
8.761699
 30
0.0
 11
1.824381
 21
8.737201
 31
0.0
  0
LINE
  5
1B08
100
AcDbEntity
  8
0
 62
     9
100
AcDbLine
 10
0.946453
 20
7.883771
 30
0.0
 11
0.970951
 21
7.883771
 31
0.0
  0
LINE
  5
1B09
100
AcDbEntity
  8
0
 62
     9
100
AcDbLine
 10
0.946453
 20
6.583771
 30
0.0
 11
0.970951
 21
6.583771
 31
0.0
  0
LINE
  5
1B0A
100
AcDbEntity
  8
0
 62
     9
100
AcDbLine
 10
1.824381
 20
5.705843
 30
0.0
 11
1.824381
 21
5.730341
 31
0.0
  0
LWPOLYLINE
  5
1B0B
100
AcDbEntity
  8
0
100
AcDbPolyline
 90
        4
 70
     0
 43
0.0
 10
14.474381
 20
8.843767
 10
14.44326
 20
8.739207
 10
14.414395
 20
8.633418
 10
14.387779
 20
8.526518
  0
LINE
  5
1B11
100
AcDbEntity
  8
0
100
AcDbLine
 10
14.387779
 20
5.941024
 30
0.0
 11
14.387779
 21
8.526518
 31
0.0
  0
LWPOLYLINE
  5
1B12
100
AcDbEntity
  8
0
100
AcDbPolyline
 90
        4
 70
     0
 43
0.0
 10
14.474381
 20
5.623775
 10
14.44326
 20
5.728334
 10
14.414395
 20
5.834124
 10
14.387779
 20
5.941024
  0
LINE
  5
1B18
100
AcDbEntity
  8
0
 62
     9
100
AcDbLine
 10
6.674381
 20
6.583771
 30
0.0
 11
6.274381
 21
6.583771
 31
0.0
  0
LINE
  5
1B19
100
AcDbEntity
  8
0
100
AcDbLine
 10
5.574381
 20
7.883771
 30
0.0
 11
5.574381
 21
6.583771
 31
0.0
  0
LWPOLYLINE
  5
1B1A
100
AcDbEntity
  8
0
100
AcDbPolyline
 90
       30
 70
     0
 43
0.0
 10
6.674381
 20
4.983771
 10
6.674381
 20
4.986117
 10
6.674381
 20
4.99315
 10
6.674381
 20
5.004848
 10
6.674381
 20
5.021178
 10
6.674381
 20
5.042091
 10
6.674381
 20
5.067526
 10
6.674381
 20
5.097408
 10
6.674381
 20
5.13165
 10
6.674381
 20
5.170152
 10
6.674381
 20
5.212799
 10
6.674381
 20
5.259468
 10
6.674381
 20
5.310022
 10
6.674381
 20
5.364312
 10
6.674381
 20
5.422178
 10
6.674381
 20
5.483452
 10
6.674381
 20
5.547953
 10
6.674381
 20
5.615492
 10
6.674381
 20
5.685871
 10
6.674381
 20
5.758885
 10
6.674381
 20
5.834317
 10
6.674381
 20
5.911948
 10
6.674381
 20
5.99155
 10
6.674381
 20
6.072888
 10
6.674381
 20
6.155725
 10
6.674381
 20
6.239818
 10
6.674381
 20
6.32492
 10
6.674381
 20
6.41078
 10
6.674381
 20
6.497149
 10
6.674381
 20
6.583771
  0
LWPOLYLINE
  5
1B3A
100
AcDbEntity
  8
0
100
AcDbPolyline
 90
       27
 70
     0
 43
0.0
 10
5.874381
 20
9.183771
 10
5.874381
 20
9.181399
 10
5.874381
 20
9.174292
 10
5.874381
 20
9.162477
 10
5.874381
 20
9.145995
 10
5.874381
 20
9.124908
 10
5.874381
 20
9.099292
 10
5.874381
 20
9.069241
 10
5.874381
 20
9.034864
 10
5.874381
 20
8.996286
 10
5.874381
 20
8.95365
 10
5.874381
 20
8.907109
 10
5.874381
 20
8.856835
 10
5.874381
 20
8.80301
 10
5.874381
 20
8.74583
 10
5.874381
 20
8.685505
 10
5.874381
 20
8.622255
 10
5.874381
 20
8.55631
 10
5.874381
 20
8.487911
 10
5.874381
 20
8.417307
 10
5.874381
 20
8.344757
 10
5.874381
 20
8.270525
 10
5.874381
 20
8.194881
 10
5.874381
 20
8.118102
 10
5.874381
 20
8.040468
 10
5.874381
 20
7.962263
 10
5.874381
 20
7.883771
  0
LWPOLYLINE
  5
1B57
100
AcDbEntity
  8
0
 62
     9
100
AcDbPolyline
 90
       21
 70
     0
 43
0.0
 10
13.274381
 20
5.733771
 10
13.274381
 20
5.712414
 10
13.274381
 20
5.643362
 10
13.274381
 20
5.576888
 10
13.274381
 20
5.513176
 10
13.274381
 20
5.4524
 10
13.274381
 20
5.394726
 10
13.274381
 20
5.340313
 10
13.274381
 20
5.289309
 10
13.274381
 20
5.241855
 10
13.274381
 20
5.198083
 10
13.274381
 20
5.158109
 10
13.274381
 20
5.122042
 10
13.274381
 20
5.089983
 10
13.274381
 20
5.062028
 10
13.274381
 20
5.038247
 10
13.274381
 20
5.018693
 10
13.274381
 20
5.003425
 10
13.274381
 20
4.992501
 10
13.274381
 20
4.98595
 10
13.274381
 20
4.983771
  0
LWPOLYLINE
  5
1B6E
100
AcDbEntity
  8
0
 62
     9
100
AcDbPolyline
 90
       12
 70
     0
 43
0.0
 10
13.274381
 20
6.583771
 10
13.274381
 20
6.5003
 10
13.274381
 20
6.416855
 10
13.274381
 20
6.333754
 10
13.274381
 20
6.251308
 10
13.274381
 20
6.16982
 10
13.274381
 20
6.089505
 10
13.274381
 20
6.010536
 10
13.274381
 20
5.933119
 10
13.274381
 20
5.857486
 10
13.274381
 20
5.783853
 10
13.274381
 20
5.733771
  0
LWPOLYLINE
  5
1B7C
100
AcDbEntity
  8
0
100
AcDbPolyline
 90
       30
 70
     0
 43
0.0
 10
4.474381
 20
4.983771
 10
4.474381
 20
4.986117
 10
4.474381
 20
4.99315
 10
4.474381
 20
5.004848
 10
4.474381
 20
5.021178
 10
4.474381
 20
5.042091
 10
4.474381
 20
5.067526
 10
4.474381
 20
5.097408
 10
4.474381
 20
5.13165
 10
4.474381
 20
5.170152
 10
4.474381
 20
5.212799
 10
4.474381
 20
5.259468
 10
4.474381
 20
5.310022
 10
4.474381
 20
5.364312
 10
4.474381
 20
5.422178
 10
4.474381
 20
5.483452
 10
4.474381
 20
5.547953
 10
4.474381
 20
5.615492
 10
4.474381
 20
5.685871
 10
4.474381
 20
5.758885
 10
4.474381
 20
5.834317
 10
4.474381
 20
5.911948
 10
4.474381
 20
5.99155
 10
4.474381
 20
6.072888
 10
4.474381
 20
6.155725
 10
4.474381
 20
6.239818
 10
4.474381
 20
6.32492
 10
4.474381
 20
6.41078
 10
4.474381
 20
6.497149
 10
4.474381
 20
6.583771
  0
LWPOLYLINE
  5
1B9C
100
AcDbEntity
  8
0
 62
     9
100
AcDbPolyline
 90
       18
 70
     0
 43
0.0
 10
13.274381
 20
6.583771
 10
13.292835
 20
6.583771
 10
13.311131
 20
6.583771
 10
13.329114
 20
6.583771
 10
13.346629
 20
6.583771
 10
13.363529
 20
6.583771
 10
13.379668
 20
6.583771
 10
13.394908
 20
6.583771
 10
13.40912
 20
6.583771
 10
13.422183
 20
6.583771
 10
13.433985
 20
6.583771
 10
13.444425
 20
6.583771
 10
13.453414
 20
6.583771
 10
13.460876
 20
6.583771
 10
13.466746
 20
6.583771
 10
13.470976
 20
6.583771
 10
13.473528
 20
6.583771
 10
13.474381
 20
6.583771
  0
LINE
  5
1BB0
100
AcDbEntity
  8
0
 62
     9
100
AcDbLine
 10
13.274381
 20
7.883771
 30
0.0
 11
13.274381
 21
6.583771
 31
0.0
  0
LWPOLYLINE
  5
1BB1
100
AcDbEntity
  8
0
100
AcDbPolyline
 90
       30
 70
     0
 43
0.0
 10
5.574381
 20
4.983771
 10
5.574381
 20
4.986117
 10
5.574381
 20
4.99315
 10
5.574381
 20
5.004848
 10
5.574381
 20
5.021178
 10
5.574381
 20
5.042091
 10
5.574381
 20
5.067526
 10
5.574381
 20
5.097408
 10
5.574381
 20
5.13165
 10
5.574381
 20
5.170152
 10
5.574381
 20
5.212799
 10
5.574381
 20
5.259468
 10
5.574381
 20
5.310022
 10
5.574381
 20
5.364312
 10
5.574381
 20
5.422178
 10
5.574381
 20
5.483452
 10
5.574381
 20
5.547953
 10
5.574381
 20
5.615492
 10
5.574381
 20
5.685871
 10
5.574381
 20
5.758885
 10
5.574381
 20
5.834317
 10
5.574381
 20
5.911948
 10
5.574381
 20
5.99155
 10
5.574381
 20
6.072888
 10
5.574381
 20
6.155725
 10
5.574381
 20
6.239818
 10
5.574381
 20
6.32492
 10
5.574381
 20
6.41078
 10
5.574381
 20
6.497149
 10
5.574381
 20
6.583771
  0
LINE
  5
1BD1
100
AcDbEntity
  8
0
 62
     9
100
AcDbLine
 10
2.543713
 20
5.93031
 30
0.0
 11
1.824381
 21
5.93031
 31
0.0
  0
LINE
  5
1BD2
100
AcDbEntity
  8
0
100
AcDbLine
 10
6.674381
 20
7.883771
 30
0.0
 11
6.674381
 21
6.583771
 31
0.0
  0
LINE
  5
1BD3
100
AcDbEntity
  8
0
100
AcDbLine
 10
6.974381
 20
9.183771
 30
0.0
 11
7.374381
 21
9.183771
 31
0.0
  0
LINE
  5
1BD4
100
AcDbEntity
  8
0
100
AcDbLine
 10
6.674381
 20
9.483771
 30
0.0
 11
6.974381
 21
9.183771
 31
0.0
  0
LINE
  5
1BD5
100
AcDbEntity
  8
0
100
AcDbLine
 10
6.674381
 20
4.983771
 30
0.0
 11
6.974381
 21
5.283771
 31
0.0
  0
LINE
  5
1BD6
100
AcDbEntity
  8
0
100
AcDbLine
 10
6.974381
 20
5.283771
 30
0.0
 11
7.374381
 21
5.283771
 31
0.0
  0
LINE
  5
1BD7
100
AcDbEntity
  8
0
100
AcDbLine
 10
6.274381
 20
9.183771
 30
0.0
 11
6.274381
 21
9.483771
 31
0.0
  0
LINE
  5
1BD8
100
AcDbEntity
  8
0
100
AcDbLine
 10
6.274381
 20
7.883771
 30
0.0
 11
6.274381
 21
9.183771
 31
0.0
  0
LINE
  5
1BD9
100
AcDbEntity
  8
0
100
AcDbLine
 10
5.574381
 20
9.483771
 30
0.0
 11
5.874381
 21
9.183771
 31
0.0
  0
LINE
  5
1BDA
100
AcDbEntity
  8
0
100
AcDbLine
 10
5.874381
 20
9.183771
 30
0.0
 11
6.274381
 21
9.183771
 31
0.0
  0
LINE
  5
1BDB
100
AcDbEntity
  8
0
100
AcDbLine
 10
7.374381
 20
9.183771
 30
0.0
 11
7.374381
 21
9.483771
 31
0.0
  0
LINE
  5
1BDC
100
AcDbEntity
  8
0
100
AcDbLine
 10
7.374381
 20
7.883771
 30
0.0
 11
7.374381
 21
9.183771
 31
0.0
  0
LINE
  5
1BDD
100
AcDbEntity
  8
0
100
AcDbLine
 10
5.574381
 20
4.983771
 30
0.0
 11
5.874381
 21
5.283771
 31
0.0
  0
ARC
  5
1BDE
100
AcDbEntity
  8
0
100
AcDbCircle
 10
1.824381
 20
7.883771
 30
0.0
 40
1.6
100
AcDbArc
 50
90.0
 51
180.0
  0
ARC
  5
1BDF
100
AcDbEntity
  8
0
100
AcDbCircle
 10
1.824381
 20
6.583771
 30
0.0
 40
1.6
100
AcDbArc
 50
180.0
 51
270.0
  0
LINE
  5
1BE0
100
AcDbEntity
  8
0
100
AcDbLine
 10
5.874381
 20
5.283771
 30
0.0
 11
6.274381
 21
5.283771
 31
0.0
  0
LINE
  5
1BE1
100
AcDbEntity
  8
0
100
AcDbLine
 10
5.174381
 20
9.183771
 30
0.0
 11
5.174381
 21
9.483771
 31
0.0
  0
LINE
  5
1BE2
100
AcDbEntity
  8
0
100
AcDbLine
 10
5.174381
 20
7.883771
 30
0.0
 11
5.174381
 21
9.183771
 31
0.0
  0
LINE
  5
1BE3
100
AcDbEntity
  8
0
100
AcDbLine
 10
4.474381
 20
9.483771
 30
0.0
 11
4.774381
 21
9.183771
 31
0.0
  0
LINE
  5
1BE4
100
AcDbEntity
  8
0
100
AcDbLine
 10
3.82998
 20
8.733771
 30
0.0
 11
3.638638
 21
8.733771
 31
0.0
  0
LWPOLYLINE
  5
1BE5
100
AcDbEntity
  8
0
100
AcDbPolyline
 90
       26
 70
     0
 43
0.0
 10
3.904345
 20
7.883771
 10
3.904199
 20
7.937017
 10
3.903761
 20
7.990061
 10
3.903034
 20
8.042681
 10
3.902019
 20
8.094696
 10
3.900721
 20
8.145873
 10
3.899144
 20
8.196047
 10
3.897296
 20
8.244982
 10
3.895182
 20
8.292529
 10
3.892811
 20
8.338455
 10
3.890191
 20
8.382626
 10
3.887334
 20
8.424819
 10
3.884249
 20
8.464914
 10
3.88095
 20
8.502706
 10
3.877447
 20
8.538085
 10
3.873758
 20
8.570872
 10
3.869893
 20
8.600968
 10
3.86587
 20
8.628221
 10
3.861703
 20
8.652548
 10
3.857411
 20
8.673827
 10
3.853008
 20
8.691988
 10
3.848515
 20
8.706946
 10
3.843946
 20
8.718646
 10
3.839322
 20
8.727037
 10
3.83466
 20
8.732086
 10
3.82998
 20
8.733771
  0
LINE
  5
1C01
100
AcDbEntity
  8
0
100
AcDbLine
 10
4.774381
 20
9.183771
 30
0.0
 11
5.174381
 21
9.183771
 31
0.0
  0
LINE
  5
1C02
100
AcDbEntity
  8
0
100
AcDbLine
 10
3.638638
 20
5.733771
 30
0.0
 11
3.82998
 21
5.733771
 31
0.0
  0
LINE
  5
1C03
100
AcDbEntity
  8
0
100
AcDbLine
 10
4.474381
 20
4.983771
 30
0.0
 11
4.774381
 21
5.283771
 31
0.0
  0
LINE
  5
1C04
100
AcDbEntity
  8
0
100
AcDbLine
 10
4.774381
 20
5.283771
 30
0.0
 11
5.174381
 21
5.283771
 31
0.0
  0
LINE
  5
1C05
100
AcDbEntity
  8
0
100
AcDbLine
 10
8.474381
 20
9.233771
 30
0.0
 11
8.474381
 21
9.483771
 31
0.0
  0
LINE
  5
1C06
100
AcDbEntity
  8
0
100
AcDbLine
 10
10.474381
 20
9.233771
 30
0.0
 11
8.474381
 21
9.233771
 31
0.0
  0
LINE
  5
1C07
100
AcDbEntity
  8
0
100
AcDbLine
 10
10.474381
 20
9.233771
 30
0.0
 11
10.474381
 21
9.483771
 31
0.0
  0
LINE
  5
1C08
100
AcDbEntity
  8
0
100
AcDbLine
 10
14.474381
 20
8.771251
 30
0.0
 11
14.474381
 21
8.843767
 31
0.0
  0
LINE
  5
1C09
100
AcDbEntity
  8
0
100
AcDbLine
 10
14.474381
 20
5.623775
 30
0.0
 11
14.474381
 21
5.69629
 31
0.0
  0
LWPOLYLINE
  5
1C0A
100
AcDbEntity
  8
0
100
AcDbPolyline
 90
       14
 70
     0
 43
0.0
 10
3.62488
 20
5.883771
 10
3.625045
 20
5.875739
 10
3.625556
 20
5.858255
 10
3.626205
 20
5.841396
 10
3.626989
 20
5.825267
 10
3.627898
 20
5.810046
 10
3.628928
 20
5.795822
 10
3.630067
 20
5.782755
 10
3.631309
 20
5.770925
 10
3.63264
 20
5.760462
 10
3.634052
 20
5.751435
 10
3.63553
 20
5.743941
 10
3.637063
 20
5.738033
 10
3.638638
 20
5.733771
  0
LINE
  5
1C1A
100
AcDbEntity
  8
0
100
AcDbLine
 10
14.474381
 20
9.883771
 30
0.0
 11
13.474381
 21
9.883771
 31
0.0
  0
LINE
  5
1C1B
100
AcDbEntity
  8
0
100
AcDbLine
 10
14.474381
 20
4.583771
 30
0.0
 11
13.474381
 21
4.583771
 31
0.0
  0
LINE
  5
1C1C
100
AcDbEntity
  8
0
100
AcDbLine
 10
13.474381
 20
4.583771
 30
0.0
 11
13.474381
 21
5.941024
 31
0.0
  0
LINE
  5
1C1D
100
AcDbEntity
  8
0
100
AcDbLine
 10
13.474381
 20
5.941024
 30
0.0
 11
13.474381
 21
8.526518
 31
0.0
  0
LINE
  5
1C1E
100
AcDbEntity
  8
0
100
AcDbLine
 10
13.474381
 20
8.526518
 30
0.0
 11
13.474381
 21
9.883771
 31
0.0
  0
LWPOLYLINE
  5
1C1F
100
AcDbEntity
  8
0
100
AcDbPolyline
 90
       16
 70
     0
 43
0.0
 10
3.638638
 20
8.733771
 10
3.637063
 20
8.729508
 10
3.63553
 20
8.723601
 10
3.634052
 20
8.716106
 10
3.63264
 20
8.70708
 10
3.631309
 20
8.696617
 10
3.630067
 20
8.684787
 10
3.628928
 20
8.67172
 10
3.627898
 20
8.657496
 10
3.626989
 20
8.642274
 10
3.626205
 20
8.626145
 10
3.625556
 20
8.609286
 10
3.625045
 20
8.591803
 10
3.624677
 20
8.573875
 10
3.624455
 20
8.555627
 10
3.624381
 20
8.537231
  0
LINE
  5
1C31
100
AcDbEntity
  8
0
100
AcDbLine
 10
14.474381
 20
8.843767
 30
0.0
 11
14.474381
 21
9.883771
 31
0.0
  0
LINE
  5
1C32
100
AcDbEntity
  8
0
100
AcDbLine
 10
14.474381
 20
4.583771
 30
0.0
 11
14.474381
 21
5.623775
 31
0.0
  0
ARC
  5
1C33
100
AcDbEntity
  8
0
100
AcDbCircle
 10
13.274381
 20
4.783771
 30
0.0
 40
0.2
100
AcDbArc
 50
5.294117
 51
84.705882
  0
ARC
  5
1C34
100
AcDbEntity
  8
0
100
AcDbCircle
 10
13.274381
 20
4.783771
 30
0.0
 40
0.2
100
AcDbArc
 50
84.705882
 51
90.0
  0
LINE
  5
1C35
100
AcDbEntity
  8
0
100
AcDbLine
 10
3.624381
 20
8.537231
 30
0.0
 11
3.624381
 21
8.383771
 31
0.0
  0
LINE
  5
1C36
100
AcDbEntity
  8
0
100
AcDbLine
 10
3.904345
 20
7.883771
 30
0.0
 11
3.904345
 21
6.583771
 31
0.0
  0
LINE
  5
1C37
100
AcDbEntity
  8
0
100
AcDbLine
 10
13.274381
 20
4.983771
 30
0.0
 11
7.374381
 21
4.983771
 31
0.0
  0
LINE
  5
1C38
100
AcDbEntity
  8
0
100
AcDbLine
 10
7.374381
 20
5.283771
 30
0.0
 11
7.374381
 21
6.583771
 31
0.0
  0
LINE
  5
1C39
100
AcDbEntity
  8
0
100
AcDbLine
 10
7.374381
 20
4.983771
 30
0.0
 11
7.374381
 21
5.283771
 31
0.0
  0
LINE
  5
1C3A
100
AcDbEntity
  8
0
100
AcDbLine
 10
13.274381
 20
4.983771
 30
0.0
 11
7.374381
 21
4.983771
 31
0.0
  0
LINE
  5
1C3B
100
AcDbEntity
  8
0
100
AcDbLine
 10
4.474381
 20
4.983771
 30
0.0
 11
3.82998
 21
4.983771
 31
0.0
  0
LINE
  5
1C3C
100
AcDbEntity
  8
0
100
AcDbLine
 10
5.574381
 20
4.983771
 30
0.0
 11
5.174381
 21
4.983771
 31
0.0
  0
LINE
  5
1C3D
100
AcDbEntity
  8
0
100
AcDbLine
 10
6.674381
 20
4.983771
 30
0.0
 11
6.274381
 21
4.983771
 31
0.0
  0
LINE
  5
1C3E
100
AcDbEntity
  8
0
100
AcDbLine
 10
6.674381
 20
4.983771
 30
0.0
 11
6.274381
 21
4.983771
 31
0.0
  0
LINE
  5
1C3F
100
AcDbEntity
  8
0
100
AcDbLine
 10
6.274381
 20
5.283771
 30
0.0
 11
6.274381
 21
6.583771
 31
0.0
  0
LINE
  5
1C40
100
AcDbEntity
  8
0
100
AcDbLine
 10
6.274381
 20
4.983771
 30
0.0
 11
6.274381
 21
5.283771
 31
0.0
  0
LINE
  5
1C41
100
AcDbEntity
  8
0
100
AcDbLine
 10
5.574381
 20
4.983771
 30
0.0
 11
5.174381
 21
4.983771
 31
0.0
  0
LINE
  5
1C42
100
AcDbEntity
  8
0
100
AcDbLine
 10
5.174381
 20
5.283771
 30
0.0
 11
5.174381
 21
6.583771
 31
0.0
  0
LINE
  5
1C43
100
AcDbEntity
  8
0
100
AcDbLine
 10
5.174381
 20
4.983771
 30
0.0
 11
5.174381
 21
5.283771
 31
0.0
  0
LINE
  5
1C44
100
AcDbEntity
  8
0
100
AcDbLine
 10
13.274381
 20
9.483771
 30
0.0
 11
10.474381
 21
9.483771
 31
0.0
  0
LINE
  5
1C45
100
AcDbEntity
  8
0
100
AcDbLine
 10
8.474381
 20
9.483771
 30
0.0
 11
7.374381
 21
9.483771
 31
0.0
  0
LINE
  5
1C46
100
AcDbEntity
  8
0
100
AcDbLine
 10
4.474381
 20
9.483771
 30
0.0
 11
3.82998
 21
9.483771
 31
0.0
  0
LINE
  5
1C47
100
AcDbEntity
  8
0
100
AcDbLine
 10
5.574381
 20
9.483771
 30
0.0
 11
5.174381
 21
9.483771
 31
0.0
  0
LINE
  5
1C48
100
AcDbEntity
  8
0
100
AcDbLine
 10
6.674381
 20
9.483771
 30
0.0
 11
6.274381
 21
9.483771
 31
0.0
  0
LINE
  5
1C49
100
AcDbEntity
  8
0
100
AcDbLine
 10
4.474381
 20
4.983771
 30
0.0
 11
3.82998
 21
4.983771
 31
0.0
  0
LWPOLYLINE
  5
1C4A
100
AcDbEntity
  8
0
100
AcDbPolyline
 90
       26
 70
     0
 43
0.0
 10
3.82998
 20
5.733771
 10
3.83466
 20
5.735456
 10
3.839322
 20
5.740505
 10
3.843946
 20
5.748895
 10
3.848515
 20
5.760596
 10
3.853008
 20
5.775553
 10
3.857411
 20
5.793715
 10
3.861703
 20
5.814994
 10
3.86587
 20
5.83932
 10
3.869893
 20
5.866574
 10
3.873758
 20
5.89667
 10
3.877447
 20
5.929456
 10
3.88095
 20
5.964836
 10
3.884249
 20
6.002628
 10
3.887334
 20
6.042722
 10
3.890191
 20
6.084916
 10
3.892811
 20
6.129087
 10
3.895182
 20
6.175013
 10
3.897296
 20
6.22256
 10
3.899144
 20
6.271494
 10
3.900721
 20
6.321669
 10
3.902019
 20
6.372845
 10
3.903034
 20
6.42486
 10
3.903761
 20
6.477481
 10
3.904199
 20
6.530525
 10
3.904345
 20
6.583771
  0
LINE
  5
1C66
100
AcDbEntity
  8
0
100
AcDbLine
 10
3.82998
 20
4.983771
 30
0.0
 11
3.764363
 21
4.983771
 31
0.0
  0
LINE
  5
1C67
100
AcDbEntity
  8
0
100
AcDbLine
 10
1.824381
 20
4.983771
 30
0.0
 11
3.764363
 21
4.983771
 31
0.0
  0
LINE
  5
1C68
100
AcDbEntity
  8
0
100
AcDbLine
 10
6.674381
 20
9.483771
 30
0.0
 11
6.974381
 21
9.183771
 31
0.0
  0
LINE
  5
1C69
100
AcDbEntity
  8
0
100
AcDbLine
 10
6.974381
 20
9.183771
 30
0.0
 11
7.374381
 21
9.183771
 31
0.0
  0
LINE
  5
1C6A
100
AcDbEntity
  8
0
100
AcDbLine
 10
7.374381
 20
7.883771
 30
0.0
 11
7.374381
 21
6.583771
 31
0.0
  0
LINE
  5
1C6B
100
AcDbEntity
  8
0
100
AcDbLine
 10
5.174381
 20
7.883771
 30
0.0
 11
5.174381
 21
6.583771
 31
0.0
  0
LINE
  5
1C6C
100
AcDbEntity
  8
0
100
AcDbLine
 10
6.274381
 20
7.883771
 30
0.0
 11
6.274381
 21
6.583771
 31
0.0
  0
LINE
  5
1C6D
100
AcDbEntity
  8
0
100
AcDbLine
 10
5.574381
 20
9.483771
 30
0.0
 11
5.874381
 21
9.183771
 31
0.0
  0
LINE
  5
1C6E
100
AcDbEntity
  8
0
100
AcDbLine
 10
5.874381
 20
9.183771
 30
0.0
 11
6.274381
 21
9.183771
 31
0.0
  0
LINE
  5
1C6F
100
AcDbEntity
  8
0
100
AcDbLine
 10
4.474381
 20
9.483771
 30
0.0
 11
4.774381
 21
9.183771
 31
0.0
  0
LINE
  5
1C70
100
AcDbEntity
  8
0
100
AcDbLine
 10
4.774381
 20
9.183771
 30
0.0
 11
5.174381
 21
9.183771
 31
0.0
  0
ARC
  5
1C71
100
AcDbEntity
  8
0
100
AcDbCircle
 10
13.274381
 20
4.783771
 30
0.0
 40
0.2
100
AcDbArc
 50
5.294117
 51
84.705882
  0
ARC
  5
1C72
100
AcDbEntity
  8
0
100
AcDbCircle
 10
13.274381
 20
4.783771
 30
0.0
 40
0.2
100
AcDbArc
 50
84.705882
 51
90.0
  0
LINE
  5
1C73
100
AcDbEntity
  8
0
100
AcDbLine
 10
1.824381
 20
9.483771
 30
0.0
 11
3.764363
 21
9.483771
 31
0.0
  0
LINE
  5
1C74
100
AcDbEntity
  8
0
100
AcDbLine
 10
3.82998
 20
9.483771
 30
0.0
 11
3.764363
 21
9.483771
 31
0.0
  0
ARC
  5
1C75
100
AcDbEntity
  8
0
100
AcDbCircle
 10
13.274381
 20
9.683771
 30
0.0
 40
0.2
100
AcDbArc
 50
270.0
 51
0.0
  0
ARC
  5
1C76
100
AcDbEntity
  8
0
100
AcDbCircle
 10
13.274381
 20
9.683771
 30
0.0
 40
0.2
100
AcDbArc
 50
270.0
 51
0.0
  0
LINE
  5
1C77
100
AcDbEntity
  8
0
100
AcDbLine
 10
0.224381
 20
7.883771
 30
0.0
 11
0.224381
 21
6.583771
 31
0.0
  0
LINE
  5
1C78
100
AcDbEntity
  8
0
100
AcDbLine
 10
49.924381
 20
4.943771
 30
0.0
 11
49.924381
 21
4.443771
 31
0.0
  0
LINE
  5
1C79
100
AcDbEntity
  8
0
100
AcDbLine
 10
49.924381
 20
4.443771
 30
0.0
 11
42.224381
 21
4.443771
 31
0.0
  0
LINE
  5
1C7A
100
AcDbEntity
  8
0
100
AcDbLine
 10
50.424381
 20
4.855607
 30
0.0
 11
50.424381
 21
4.531934
 31
0.0
  0
LINE
  5
1C7B
100
AcDbEntity
  8
0
100
AcDbLine
 10
50.424381
 20
4.855607
 30
0.0
 11
49.924381
 21
4.943771
 31
0.0
  0
LINE
  5
1C7C
100
AcDbEntity
  8
0
100
AcDbLine
 10
50.424381
 20
4.531934
 30
0.0
 11
49.924381
 21
4.443771
 31
0.0
  0
LINE
  5
1C7D
100
AcDbEntity
  8
0
100
AcDbLine
 10
49.924381
 20
4.943771
 30
0.0
 11
42.224381
 21
4.943771
 31
0.0
  0
LINE
  5
1C7E
100
AcDbEntity
  8
0
100
AcDbLine
 10
49.924381
 20
10.023771
 30
0.0
 11
49.924381
 21
9.523771
 31
0.0
  0
LINE
  5
1C7F
100
AcDbEntity
  8
0
100
AcDbLine
 10
49.924381
 20
9.523771
 30
0.0
 11
42.224381
 21
9.523771
 31
0.0
  0
LINE
  5
1C80
100
AcDbEntity
  8
0
100
AcDbLine
 10
50.424381
 20
9.935607
 30
0.0
 11
50.424381
 21
9.611934
 31
0.0
  0
LINE
  5
1C81
100
AcDbEntity
  8
0
100
AcDbLine
 10
50.424381
 20
9.935607
 30
0.0
 11
49.924381
 21
10.023771
 31
0.0
  0
LINE
  5
1C82
100
AcDbEntity
  8
0
100
AcDbLine
 10
50.424381
 20
9.611934
 30
0.0
 11
49.924381
 21
9.523771
 31
0.0
  0
LINE
  5
1C83
100
AcDbEntity
  8
0
100
AcDbLine
 10
49.924381
 20
10.023771
 30
0.0
 11
42.224381
 21
10.023771
 31
0.0
  0
LINE
  5
1C84
100
AcDbEntity
  8
0
 62
     4
100
AcDbLine
 10
3.902041
 20
7.003771
 30
0.0
 11
3.904345
 21
7.009186
 31
0.0
  0
LINE
  5
1C85
100
AcDbEntity
  8
0
 62
     4
100
AcDbLine
 10
3.902041
 20
6.778771
 30
0.0
 11
3.902041
 21
7.003771
 31
0.0
  0
LINE
  5
1C86
100
AcDbEntity
  8
0
 62
     4
100
AcDbLine
 10
3.774381
 20
7.003771
 30
0.0
 11
3.795658
 21
7.066271
 31
0.0
  0
LINE
  5
1C87
100
AcDbEntity
  8
0
 62
     4
100
AcDbLine
 10
3.795658
 20
7.066271
 30
0.0
 11
3.838211
 21
7.116271
 31
0.0
  0
LINE
  5
1C88
100
AcDbEntity
  8
0
 62
     4
100
AcDbLine
 10
3.838211
 20
7.116271
 30
0.0
 11
3.904345
 21
7.155124
 31
0.0
  0
LINE
  5
1C89
100
AcDbEntity
  8
0
 62
     4
100
AcDbLine
 10
3.904345
 20
6.703771
 30
0.0
 11
3.774381
 21
6.703771
 31
0.0
  0
LINE
  5
1C8A
100
AcDbEntity
  8
0
 62
     4
100
AcDbLine
 10
3.774381
 20
6.703771
 30
0.0
 11
3.774381
 21
7.003771
 31
0.0
  0
LINE
  5
1C8B
100
AcDbEntity
  8
0
 62
     4
100
AcDbLine
 10
3.904345
 20
6.778771
 30
0.0
 11
3.902041
 21
6.778771
 31
0.0
  0
LINE
  5
1C8C
100
AcDbEntity
  8
0
 62
     4
100
AcDbLine
 10
3.774381
 20
7.453771
 30
0.0
 11
3.904345
 21
7.453771
 31
0.0
  0
LINE
  5
1C8D
100
AcDbEntity
  8
0
 62
     4
100
AcDbLine
 10
3.774381
 20
7.378771
 30
0.0
 11
3.774381
 21
7.453771
 31
0.0
  0
LINE
  5
1C8E
100
AcDbEntity
  8
0
 62
     4
100
AcDbLine
 10
3.904345
 20
7.313325
 30
0.0
 11
3.774381
 21
7.378771
 31
0.0
  0
LINE
  5
1C8F
100
AcDbEntity
  8
0
100
AcDbLine
 10
3.901789
 20
8.103771
 30
0.0
 11
2.774381
 21
8.103771
 31
0.0
  0
LINE
  5
1C90
100
AcDbEntity
  8
0
100
AcDbLine
 10
2.774381
 20
8.103771
 30
0.0
 11
2.774381
 21
6.103771
 31
0.0
  0
LINE
  5
1C91
100
AcDbEntity
  8
0
100
AcDbLine
 10
2.774381
 20
6.103771
 30
0.0
 11
3.891309
 21
6.103771
 31
0.0
  0
ENDBLK
  5
1C93
100
AcDbEntity
  8
0
100
AcDbBlockEnd
  0
BLOCK
  5
224D
100
AcDbEntity
  8
0
100
AcDbBlockBegin
  2
*D3
 70
     1
 10
0.0
 20
0.0
 30
0.0
  3
*D3
  1
AVE_RENDER
  0
LINE
  5
224E
100
AcDbEntity
  8
0
  6
BYBLOCK
 62
     0
100
AcDbLine
 10
72.008146
 20
164.837372
 30
0.0
 11
72.008146
 21
151.883403
 31
0.0
  0
LINE
  5
224F
100
AcDbEntity
  8
0
  6
BYBLOCK
 62
     0
100
AcDbLine
 10
86.258146
 20
162.137372
 30
0.0
 11
86.258146
 21
151.883403
 31
0.0
  0
LINE
  5
2250
100
AcDbEntity
  8
0
  6
BYBLOCK
 62
     0
100
AcDbLine
 10
69.008146
 20
152.063403
 30
0.0
 11
66.008146
 21
152.063403
 31
0.0
  0
LINE
  5
2251
100
AcDbEntity
  8
0
  6
BYBLOCK
 62
     0
100
AcDbLine
 10
89.258146
 20
152.063403
 30
0.0
 11
92.258146
 21
152.063403
 31
0.0
  0
LINE
  5
2252
100
AcDbEntity
  8
0
  6
BYBLOCK
 62
     0
100
AcDbLine
 10
72.008146
 20
152.063403
 30
0.0
 11
86.258146
 21
152.063403
 31
0.0
  0
SOLID
  5
2253
100
AcDbEntity
  8
0
  6
BYBLOCK
 62
     0
100
AcDbTrace
 10
69.008146
 20
152.563403
 30
0.0
 11
69.008146
 21
151.563403
 31
0.0
 12
72.008146
 22
152.063403
 32
0.0
 13
72.008146
 23
152.063403
 33
0.0
  0
SOLID
  5
2254
100
AcDbEntity
  8
0
  6
BYBLOCK
 62
     0
100
AcDbTrace
 10
89.258146
 20
152.563403
 30
0.0
 11
89.258146
 21
151.563403
 31
0.0
 12
86.258146
 22
152.063403
 32
0.0
 13
86.258146
 23
152.063403
 33
0.0
  0
TEXT
  5
2255
100
AcDbEntity
  8
0
  6
BYBLOCK
 62
     0
100
AcDbText
 10
73.597432
 20
153.063403
 30
0.0
 40
2.5
  1
14.25
  7
ROMANS
100
AcDbText
  0
POINT
  5
2256
100
AcDbEntity
  8
DEFPOINTS
  6
BYBLOCK
 62
     0
100
AcDbPoint
 10
72.008146
 20
164.899872
 30
0.0
  0
POINT
  5
2257
100
AcDbEntity
  8
DEFPOINTS
  6
BYBLOCK
 62
     0
100
AcDbPoint
 10
86.258146
 20
162.199872
 30
0.0
  0
POINT
  5
2258
100
AcDbEntity
  8
DEFPOINTS
  6
BYBLOCK
 62
     0
100
AcDbPoint
 10
86.258146
 20
152.063403
 30
0.0
  0
ENDBLK
  5
2259
100
AcDbEntity
  8
0
100
AcDbBlockEnd
  0
BLOCK
  5
225C
100
AcDbEntity
  8
0
100
AcDbBlockBegin
  2
*D4
 70
     1
 10
0.0
 20
0.0
 30
0.0
  3
*D4
  1
AVE_RENDER
  0
LINE
  5
225D
100
AcDbEntity
  8
0
  6
BYBLOCK
 62
     0
100
AcDbLine
 10
122.208146
 20
162.785536
 30
0.0
 11
122.208146
 21
151.883403
 31
0.0
  0
LINE
  5
225E
100
AcDbEntity
  8
0
  6
BYBLOCK
 62
     0
100
AcDbLine
 10
114.408146
 20
158.687372
 30
0.0
 11
114.408146
 21
151.883403
 31
0.0
  0
LINE
  5
225F
100
AcDbEntity
  8
0
  6
BYBLOCK
 62
     0
100
AcDbLine
 10
125.208146
 20
152.063403
 30
0.0
 11
128.208146
 21
152.063403
 31
0.0
  0
LINE
  5
2260
100
AcDbEntity
  8
0
  6
BYBLOCK
 62
     0
100
AcDbLine
 10
111.408146
 20
152.063403
 30
0.0
 11
108.408146
 21
152.063403
 31
0.0
  0
LINE
  5
2261
100
AcDbEntity
  8
0
  6
BYBLOCK
 62
     0
100
AcDbLine
 10
122.208146
 20
152.063403
 30
0.0
 11
114.408146
 21
152.063403
 31
0.0
  0
SOLID
  5
2262
100
AcDbEntity
  8
0
  6
BYBLOCK
 62
     0
100
AcDbTrace
 10
125.208146
 20
152.563403
 30
0.0
 11
125.208146
 21
151.563403
 31
0.0
 12
122.208146
 22
152.063403
 32
0.0
 13
122.208146
 23
152.063403
 33
0.0
  0
SOLID
  5
2263
100
AcDbEntity
  8
0
  6
BYBLOCK
 62
     0
100
AcDbTrace
 10
111.408146
 20
152.563403
 30
0.0
 11
111.408146
 21
151.563403
 31
0.0
 12
114.408146
 22
152.063403
 32
0.0
 13
114.408146
 23
152.063403
 33
0.0
  0
TEXT
  5
2264
100
AcDbEntity
  8
0
  6
BYBLOCK
 62
     0
100
AcDbText
 10
115.331955
 20
153.063403
 30
0.0
 40
2.5
  1
7.8
  7
ROMANS
100
AcDbText
  0
POINT
  5
2265
100
AcDbEntity
  8
DEFPOINTS
  6
BYBLOCK
 62
     0
100
AcDbPoint
 10
122.208146
 20
162.848036
 30
0.0
  0
POINT
  5
2266
100
AcDbEntity
  8
DEFPOINTS
  6
BYBLOCK
 62
     0
100
AcDbPoint
 10
114.408146
 20
158.749872
 30
0.0
  0
POINT
  5
2267
100
AcDbEntity
  8
DEFPOINTS
  6
BYBLOCK
 62
     0
100
AcDbPoint
 10
114.408146
 20
152.063403
 30
0.0
  0
ENDBLK
  5
2268
100
AcDbEntity
  8
0
100
AcDbBlockEnd
  0
BLOCK
  5
226B
100
AcDbEntity
  8
0
100
AcDbBlockBegin
  2
*D5
 70
     1
 10
0.0
 20
0.0
 30
0.0
  3
*D5
  1
AVE_RENDER
  0
LINE
  5
226C
100
AcDbEntity
  8
0
  6
BYBLOCK
 62
     0
100
AcDbLine
 10
122.208146
 20
162.785536
 30
0.0
 11
122.208146
 21
142.798496
 31
0.0
  0
LINE
  5
226D
100
AcDbEntity
  8
0
  6
BYBLOCK
 62
     0
100
AcDbLine
 10
72.008146
 20
164.774872
 30
0.0
 11
72.008146
 21
142.798496
 31
0.0
  0
LINE
  5
226E
100
AcDbEntity
  8
0
  6
BYBLOCK
 62
     0
100
AcDbLine
 10
119.208146
 20
142.978496
 30
0.0
 11
75.008146
 21
142.978496
 31
0.0
  0
SOLID
  5
226F
100
AcDbEntity
  8
0
  6
BYBLOCK
 62
     0
100
AcDbTrace
 10
119.208146
 20
143.478496
 30
0.0
 11
119.208146
 21
142.478496
 31
0.0
 12
122.208146
 22
142.978496
 32
0.0
 13
122.208146
 23
142.978496
 33
0.0
  0
SOLID
  5
2270
100
AcDbEntity
  8
0
  6
BYBLOCK
 62
     0
100
AcDbTrace
 10
75.008146
 20
143.478496
 30
0.0
 11
75.008146
 21
142.478496
 31
0.0
 12
72.008146
 22
142.978496
 32
0.0
 13
72.008146
 23
142.978496
 33
0.0
  0
TEXT
  5
2271
100
AcDbEntity
  8
0
  6
BYBLOCK
 62
     0
100
AcDbText
 10
92.941479
 20
143.978496
 30
0.0
 40
2.5
  1
50.2
  7
ROMANS
100
AcDbText
  0
POINT
  5
2272
100
AcDbEntity
  8
DEFPOINTS
  6
BYBLOCK
 62
     0
100
AcDbPoint
 10
122.208146
 20
162.848036
 30
0.0
  0
POINT
  5
2273
100
AcDbEntity
  8
DEFPOINTS
  6
BYBLOCK
 62
     0
100
AcDbPoint
 10
72.008146
 20
164.837372
 30
0.0
  0
POINT
  5
2274
100
AcDbEntity
  8
DEFPOINTS
  6
BYBLOCK
 62
     0
100
AcDbPoint
 10
72.008146
 20
142.978496
 30
0.0
  0
ENDBLK
  5
2275
100
AcDbEntity
  8
0
100
AcDbBlockEnd
  0
ENDSEC
  0
SECTION
  2
ENTITIES
  0
INSERT
  5
163C
100
AcDbEntity
  8
ALPHA
100
AcDbBlockReference
  2
AVE_RENDER
 10
0.0
 20
0.0
 30
0.0
1001
AVE_RENDER
1002
{
1070
     6
1000
Pref
1070
    50
1070
    20
1070
     1
1070
     0
1000

1070
    10
1070
     1
1070
    30
1040
25.4
1070
     1
1040
0.3
1040
0.7
1040
0.0
1040
10.0
1010
-1.0
1020
-1.0
1030
-1.0
1040
0.3
1070
    49
1070
     0
1070
     0
1010
1.0
1020
1.0
1030
1.0
1040
45.0
1070
     1
1070
     0
1000
WCS
1040
0.0
1002
}
  0
INSERT
  5
163D
100
AcDbEntity
  8
ALPHA
100
AcDbBlockReference
  2
AVE_RENDER
 10
0.0
 20
0.0
 30
0.0
1001
AVE_RENDER
1002
{
1070
     0
1000
Full Opt
1070
     0
1070
     1
1070
     1
1070
     1
1070
     0
1070
     0
1070
     0
1070
     1
1070
     1
1040
0.0001
1040
0.0001
1002
}
  0
INSERT
  5
163E
100
AcDbEntity
  8
ALPHA
100
AcDbBlockReference
  2
AVE_RENDER
 10
0.0
 20
0.0
 30
0.0
1001
AVE_RENDER
1002
{
1070
     0
1000
Quick Opt
1070
     0
1070
     1
1070
     1
1070
     1
1070
     0
1070
     0
1070
     1
1002
}
  0
INSERT
  5
163F
100
AcDbEntity
  8
ALPHA
100
AcDbBlockReference
  2
AVE_RENDER
 10
0.0
 20
0.0
 30
0.0
1001
AVE_RENDER
1002
{
1070
     1
1000
Scanl Opt
1070
     2
1070
     0
1070
     2
1040
2.0
1040
4.0
1070
     0
1070
     1
1070
     0
1040
0.03
1002
}
  0
INSERT
  5
1640
100
AcDbEntity
  8
ALPHA
100
AcDbBlockReference
  2
AVE_RENDER
 10
0.0
 20
0.0
 30
0.0
1001
AVE_RENDER
1002
{
1070
     2
1000
Raytr Opt
1070
     2
1070
     0
1070
     2
1040
2.0
1040
4.0
1070
     0
1070
     1
1070
     1
1040
0.03
1070
     3
1040
0.03
1002
}
  0
INSERT
  5
1641
100
AcDbEntity
  8
ALPHA
100
AcDbBlockReference
  2
AVE_RENDER
 10
0.0
 20
0.0
 30
0.0
1001
AVE_RENDER
1002
{
1070
     0
1000
RFile Opt
1070
     5
1070
   640
1070
   480
1070
 10000
1070
     3
1070
    32
1070
    24
1070
     0
1070
     0
1070
     0
1070
     1
1070
     0
1070
     0
1070
     0
1002
}
  0
INSERT
  5
1642
100
AcDbEntity
  8
ALPHA
100
AcDbBlockReference
  2
AVE_RENDER
 10
0.0
 20
0.0
 30
0.0
1001
AVE_RENDER
1002
{
1070
     0
1000
Fog Opt
1070
     0
1070
     0
1040
0.0
1040
1.0
1040
0.0
1040
1.0
1010
0.5
1020
0.5
1030
0.5
1002
}
  0
INSERT
  5
1643
100
AcDbEntity
  8
ALPHA
100
AcDbBlockReference
  2
AVE_RENDER
 10
0.0
 20
0.0
 30
0.0
1001
AVE_RENDER
1002
{
1070
     0
1000
BG Opt
1070
     0
1070
     1
1010
0.0
1020
0.0
1030
0.0
1010
1.0
1020
0.0
1030
0.0
1010
0.0
1020
1.0
1030
0.0
1010
0.0
1020
0.0
1030
1.0
1040
0.5
1040
0.33
1040
0.0
1000

1070
     1
1000

1070
     1
1070
     1
1040
1.0
1040
1.0
1040
0.0
1040
0.0
1070
     0
1002
}
  0
INSERT
  5
164A
100
AcDbEntity
  8
ALPHA
100
AcDbBlockReference
  2
AVE_GLOBAL
 10
0.0
 20
0.0
 30
0.0
1001
AVE_MATERIAL
1002
{
1000
*GLOBAL*
1000
1
1000
Finition globale.
1002
{
1002
}
1002
{
1070
    63
1002
{
1002
{
1010
-1.0
1020
-1.0
1030
-1.0
1002
}
1040
0.1
1000

1040
0.0
1002
{
1002
}
1040
0.0
1002
{
1002
}
1040
0.0
1002
}
1002
{
1002
{
1010
-1.0
1020
-1.0
1030
-1.0
1002
}
1040
0.7
1000

1040
0.0
1002
{
1002
}
1040
0.0
1002
{
1002
}
1040
0.0
1002
}
1002
{
1002
{
1010
-1.0
1020
-1.0
1030
-1.0
1002
}
1040
0.2
1000

1040
0.0
1002
{
1002
}
1040
0.0
1002
{
1002
}
1040
0.0
1002
}
1002
{
1070
     0
1002
{
1070
     1
1002
{
1040
1.0
1040
1.0
1000

1040
0.0
1002
{
1002
}
1040
0.0
1002
{
1002
}
1040
0.0
1002
}
1002
}
1040
1.0
1040
0.0
1040
0.0
1002
}
1002
{
1040
1.0
1040
1.0
1000

1040
0.0
1002
{
1002
}
1040
0.0
1002
{
1002
}
1040
0.0
1002
}
1002
{
1040
0.5
1040
1.0
1000

1040
0.0
1002
{
1002
}
1040
0.0
1002
{
1002
}
1040
0.0
1002
}
1002
{
1070
     0
1040
0.0
1002
{
1002
}
1040
1.0
1002
{
1002
}
1040
0.0
1002
}
1002
{
1040
0.0
1002
{
1002
{
1010
0.0
1020
0.0
1030
0.0
1002
}
1040
1.0
1000

1040
0.0
1002
{
1002
}
1040
0.0
1002
{
1002
}
1040
0.0
1002
}
1002
}
1002
{
1002
{
1070
     1
1002
{
1040
0.0
1040
1.0
1000

1040
0.0
1002
{
1002
}
1040
0.0
1002
{
1002
}
1040
0.0
1002
}
1002
}
1040
0.0
1002
{
1002
}
1010
1.0
1020
0.0
1030
0.0
1010
0.0
1020
1.0
1030
0.0
1010
0.0
1020
0.0
1030
1.0
1070
     0
1002
}
1002
{
1002
{
1040
1.0
1040
1.0
1002
{
1070
     1
1002
{
1040
1.0
1040
1.0
1000

1040
0.0
1002
{
1002
}
1040
0.0
1002
{
1002
}
1040
0.0
1002
}
1002
}
1002
}
1070
     0
1040
0.0
1002
{
1002
}
1002
}
1002
{
1002
}
1002
}
1002
{
1071
        3
1070
     3
1070
     0
1002
{
1070
     2
1070
     0
1070
     0
1040
0.0
1002
}
1070
     0
1070
     2
1002
{
1002
}
1002
}
1002
{
1040
8030.0
1040
190.300003
1040
0.305
1040
228.0
1040
545.0
1040
14.0
1040
17.4
1040
0.456
1002
}
1002
}
  0
LINE
  5
1C95
100
AcDbEntity
  8
ALPHA
100
AcDbLine
 10
104.725168
 20
168.799872
 30
0.0
 11
104.725168
 21
168.324872
 31
0.0
  0
LINE
  5
1C96
100
AcDbEntity
  8
ALPHA
100
AcDbLine
 10
104.725168
 20
168.324872
 30
0.0
 11
103.76772
 21
168.324872
 31
0.0
  0
LINE
  5
1C97
100
AcDbEntity
  8
ALPHA
100
AcDbLine
 10
103.193253
 20
167.624872
 30
0.0
 11
103.576231
 21
167.774872
 31
0.0
  0
LINE
  5
1C98
100
AcDbEntity
  8
ALPHA
100
AcDbLine
 10
103.576231
 20
167.774872
 30
0.0
 11
103.95921
 21
167.624872
 31
0.0
  0
LINE
  5
1C99
100
AcDbEntity
  8
ALPHA
100
AcDbLine
 10
103.95921
 20
167.624872
 30
0.0
 11
104.023039
 21
167.649872
 31
0.0
  0
LINE
  5
1C9A
100
AcDbEntity
  8
ALPHA
100
AcDbLine
 10
104.023039
 20
167.649872
 30
0.0
 11
103.703891
 21
167.774872
 31
0.0
  0
LINE
  5
1C9B
100
AcDbEntity
  8
ALPHA
100
AcDbLine
 10
103.703891
 20
167.774872
 30
0.0
 11
104.150699
 21
167.774872
 31
0.0
  0
LINE
  5
1C9C
100
AcDbEntity
  8
ALPHA
100
AcDbLine
 10
104.150699
 20
167.774872
 30
0.0
 11
104.150699
 21
167.824872
 31
0.0
  0
LINE
  5
1C9D
100
AcDbEntity
  8
ALPHA
100
AcDbLine
 10
104.150699
 20
167.824872
 30
0.0
 11
103.703891
 21
167.824872
 31
0.0
  0
LINE
  5
1C9E
100
AcDbEntity
  8
ALPHA
100
AcDbLine
 10
103.703891
 20
167.824872
 30
0.0
 11
104.023039
 21
167.949872
 31
0.0
  0
LINE
  5
1C9F
100
AcDbEntity
  8
ALPHA
100
AcDbLine
 10
104.023039
 20
167.949872
 30
0.0
 11
103.95921
 21
167.974872
 31
0.0
  0
LINE
  5
1CA0
100
AcDbEntity
  8
ALPHA
100
AcDbLine
 10
103.95921
 20
167.974872
 30
0.0
 11
103.576231
 21
167.824872
 31
0.0
  0
LINE
  5
1CA1
100
AcDbEntity
  8
ALPHA
100
AcDbLine
 10
103.576231
 20
167.824872
 30
0.0
 11
103.193253
 21
167.974872
 31
0.0
  0
LINE
  5
1CA2
100
AcDbEntity
  8
ALPHA
100
AcDbLine
 10
102.108146
 20
162.999872
 30
0.0
 11
102.554955
 21
162.999872
 31
0.0
  0
LINE
  5
1CA3
100
AcDbEntity
  8
ALPHA
100
AcDbLine
 10
102.108146
 20
161.999872
 30
0.0
 11
102.108146
 21
162.999872
 31
0.0
  0
LINE
  5
1CA4
100
AcDbEntity
  8
ALPHA
100
AcDbLine
 10
102.427295
 20
161.999872
 30
0.0
 11
102.108146
 21
161.999872
 31
0.0
  0
LINE
  5
1CA5
100
AcDbEntity
  8
ALPHA
100
AcDbLine
 10
102.427295
 20
162.874872
 30
0.0
 11
102.427295
 21
161.999872
 31
0.0
  0
LINE
  5
1CA6
100
AcDbEntity
  8
ALPHA
100
AcDbLine
 10
104.597508
 20
161.999872
 30
0.0
 11
102.427295
 21
162.874872
 31
0.0
  0
LINE
  5
1CA7
100
AcDbEntity
  8
ALPHA
100
AcDbLine
 10
105.108146
 20
161.999872
 30
0.0
 11
104.597508
 21
161.999872
 31
0.0
  0
LINE
  5
1CA8
100
AcDbEntity
  8
ALPHA
100
AcDbLine
 10
105.108146
 20
162.999872
 30
0.0
 11
105.108146
 21
161.999872
 31
0.0
  0
LINE
  5
1CA9
100
AcDbEntity
  8
ALPHA
100
AcDbLine
 10
104.725168
 20
162.999872
 30
0.0
 11
105.108146
 21
162.999872
 31
0.0
  0
LINE
  5
1CAA
100
AcDbEntity
  8
ALPHA
100
AcDbLine
 10
104.725168
 20
162.149872
 30
0.0
 11
104.725168
 21
162.999872
 31
0.0
  0
LINE
  5
1CAB
100
AcDbEntity
  8
ALPHA
100
AcDbLine
 10
102.554955
 20
162.999872
 30
0.0
 11
104.725168
 21
162.149872
 31
0.0
  0
LINE
  5
1CAC
100
AcDbEntity
  8
ALPHA
100
AcDbLine
 10
103.512401
 20
164.024872
 30
0.0
 11
103.576231
 21
163.974872
 31
0.0
  0
LINE
  5
1CAD
100
AcDbEntity
  8
ALPHA
100
AcDbLine
 10
103.257082
 20
164.099872
 30
0.0
 11
103.512401
 21
164.024872
 31
0.0
  0
LINE
  5
1CAE
100
AcDbEntity
  8
ALPHA
100
AcDbLine
 10
103.065593
 20
164.124872
 30
0.0
 11
103.257082
 21
164.099872
 31
0.0
  0
LINE
  5
1CAF
100
AcDbEntity
  8
ALPHA
100
AcDbLine
 10
102.810273
 20
164.124872
 30
0.0
 11
103.065593
 21
164.124872
 31
0.0
  0
LINE
  5
1CB0
100
AcDbEntity
  8
ALPHA
100
AcDbLine
 10
102.618784
 20
164.099872
 30
0.0
 11
102.810273
 21
164.124872
 31
0.0
  0
LINE
  5
1CB1
100
AcDbEntity
  8
ALPHA
100
AcDbLine
 10
102.363466
 20
164.024872
 30
0.0
 11
102.618784
 21
164.099872
 31
0.0
  0
LINE
  5
1CB2
100
AcDbEntity
  8
ALPHA
100
AcDbLine
 10
102.171975
 20
163.924872
 30
0.0
 11
102.363466
 21
164.024872
 31
0.0
  0
LINE
  5
1CB3
100
AcDbEntity
  8
ALPHA
100
AcDbLine
 10
102.108146
 20
163.799872
 30
0.0
 11
102.171975
 21
163.924872
 31
0.0
  0
LINE
  5
1CB4
100
AcDbEntity
  8
ALPHA
100
AcDbLine
 10
102.108146
 20
163.199872
 30
0.0
 11
102.108146
 21
163.799872
 31
0.0
  0
LINE
  5
1CB5
100
AcDbEntity
  8
ALPHA
100
AcDbLine
 10
105.108146
 20
163.199872
 30
0.0
 11
102.108146
 21
163.199872
 31
0.0
  0
LINE
  5
1CB6
100
AcDbEntity
  8
ALPHA
100
AcDbLine
 10
105.108146
 20
163.799872
 30
0.0
 11
105.108146
 21
163.199872
 31
0.0
  0
LINE
  5
1CB7
100
AcDbEntity
  8
ALPHA
100
AcDbLine
 10
105.044317
 20
163.924872
 30
0.0
 11
105.108146
 21
163.799872
 31
0.0
  0
LINE
  5
1CB8
100
AcDbEntity
  8
ALPHA
100
AcDbLine
 10
104.852826
 20
164.024872
 30
0.0
 11
105.044317
 21
163.924872
 31
0.0
  0
LINE
  5
1CB9
100
AcDbEntity
  8
ALPHA
100
AcDbLine
 10
104.597508
 20
164.099872
 30
0.0
 11
104.852826
 21
164.024872
 31
0.0
  0
LINE
  5
1CBA
100
AcDbEntity
  8
ALPHA
100
AcDbLine
 10
104.406019
 20
164.124872
 30
0.0
 11
104.597508
 21
164.099872
 31
0.0
  0
LINE
  5
1CBB
100
AcDbEntity
  8
ALPHA
100
AcDbLine
 10
104.08687
 20
164.124872
 30
0.0
 11
104.406019
 21
164.124872
 31
0.0
  0
LINE
  5
1CBC
100
AcDbEntity
  8
ALPHA
100
AcDbLine
 10
103.89538
 20
164.099872
 30
0.0
 11
104.08687
 21
164.124872
 31
0.0
  0
LINE
  5
1CBD
100
AcDbEntity
  8
ALPHA
100
AcDbLine
 10
103.640061
 20
164.024872
 30
0.0
 11
103.89538
 21
164.099872
 31
0.0
  0
LINE
  5
1CBE
100
AcDbEntity
  8
ALPHA
100
AcDbLine
 10
103.576231
 20
163.974872
 30
0.0
 11
103.640061
 21
164.024872
 31
0.0
  0
LINE
  5
1CBF
100
AcDbEntity
  8
ALPHA
100
AcDbLine
 10
102.491124
 20
163.824872
 30
0.0
 11
102.491124
 21
163.349872
 31
0.0
  0
LINE
  5
1CC0
100
AcDbEntity
  8
ALPHA
100
AcDbLine
 10
102.554955
 20
163.899872
 30
0.0
 11
102.491124
 21
163.824872
 31
0.0
  0
LINE
  5
1CC1
100
AcDbEntity
  8
ALPHA
100
AcDbLine
 10
102.682614
 20
163.949872
 30
0.0
 11
102.554955
 21
163.899872
 31
0.0
  0
LINE
  5
1CC2
100
AcDbEntity
  8
ALPHA
100
AcDbLine
 10
102.874104
 20
163.974872
 30
0.0
 11
102.682614
 21
163.949872
 31
0.0
  0
LINE
  5
1CC3
100
AcDbEntity
  8
ALPHA
100
AcDbLine
 10
103.193253
 20
167.974872
 30
0.0
 11
103.129422
 21
167.949872
 31
0.0
  0
LINE
  5
1CC4
100
AcDbEntity
  8
ALPHA
100
AcDbLine
 10
103.129422
 20
167.949872
 30
0.0
 11
103.448571
 21
167.824872
 31
0.0
  0
LINE
  5
1CC5
100
AcDbEntity
  8
ALPHA
100
AcDbLine
 10
103.001763
 20
163.974872
 30
0.0
 11
102.874104
 21
163.974872
 31
0.0
  0
LINE
  5
1CC6
100
AcDbEntity
  8
ALPHA
100
AcDbLine
 10
103.448571
 20
167.824872
 30
0.0
 11
103.001763
 21
167.824872
 31
0.0
  0
LINE
  5
1CC7
100
AcDbEntity
  8
ALPHA
100
AcDbLine
 10
103.193253
 20
163.949872
 30
0.0
 11
103.001763
 21
163.974872
 31
0.0
  0
LINE
  5
1CC8
100
AcDbEntity
  8
ALPHA
100
AcDbLine
 10
103.512401
 20
168.999872
 30
0.0
 11
103.576231
 21
168.949872
 31
0.0
  0
LINE
  5
1CC9
100
AcDbEntity
  8
ALPHA
100
AcDbLine
 10
103.320912
 20
163.899872
 30
0.0
 11
103.193253
 21
163.949872
 31
0.0
  0
LINE
  5
1CCA
100
AcDbEntity
  8
ALPHA
100
AcDbLine
 10
103.384742
 20
163.824872
 30
0.0
 11
103.320912
 21
163.899872
 31
0.0
  0
LINE
  5
1CCB
100
AcDbEntity
  8
ALPHA
100
AcDbLine
 10
103.384742
 20
163.349872
 30
0.0
 11
103.384742
 21
163.824872
 31
0.0
  0
LINE
  5
1CCC
100
AcDbEntity
  8
ALPHA
100
AcDbLine
 10
102.491124
 20
163.349872
 30
0.0
 11
103.384742
 21
163.349872
 31
0.0
  0
LINE
  5
1CCD
100
AcDbEntity
  8
ALPHA
100
AcDbLine
 10
104.150699
 20
163.974872
 30
0.0
 11
104.342188
 21
163.974872
 31
0.0
  0
LINE
  5
1CCE
100
AcDbEntity
  8
ALPHA
100
AcDbLine
 10
104.342188
 20
163.974872
 30
0.0
 11
104.533678
 21
163.949872
 31
0.0
  0
LINE
  5
1CCF
100
AcDbEntity
  8
ALPHA
100
AcDbLine
 10
104.533678
 20
163.949872
 30
0.0
 11
104.661337
 21
163.899872
 31
0.0
  0
LINE
  5
1CD0
100
AcDbEntity
  8
ALPHA
100
AcDbLine
 10
104.661337
 20
163.899872
 30
0.0
 11
104.725168
 21
163.824872
 31
0.0
  0
LINE
  5
1CD1
100
AcDbEntity
  8
ALPHA
100
AcDbLine
 10
103.257082
 20
169.074872
 30
0.0
 11
103.512401
 21
168.999872
 31
0.0
  0
LINE
  5
1CD2
100
AcDbEntity
  8
ALPHA
100
AcDbLine
 10
103.065593
 20
169.099872
 30
0.0
 11
103.257082
 21
169.074872
 31
0.0
  0
LINE
  5
1CD3
100
AcDbEntity
  8
ALPHA
100
AcDbLine
 10
102.810273
 20
169.099872
 30
0.0
 11
103.065593
 21
169.099872
 31
0.0
  0
LINE
  5
1CD4
100
AcDbEntity
  8
ALPHA
100
AcDbLine
 10
102.618784
 20
169.074872
 30
0.0
 11
102.810273
 21
169.099872
 31
0.0
  0
LINE
  5
1CD5
100
AcDbEntity
  8
ALPHA
100
AcDbLine
 10
102.363466
 20
168.999872
 30
0.0
 11
102.618784
 21
169.074872
 31
0.0
  0
LINE
  5
1CD6
100
AcDbEntity
  8
ALPHA
100
AcDbLine
 10
102.171975
 20
168.899872
 30
0.0
 11
102.363466
 21
168.999872
 31
0.0
  0
LINE
  5
1CD7
100
AcDbEntity
  8
ALPHA
100
AcDbLine
 10
102.108146
 20
168.774872
 30
0.0
 11
102.171975
 21
168.899872
 31
0.0
  0
LINE
  5
1CD8
100
AcDbEntity
  8
ALPHA
100
AcDbLine
 10
102.108146
 20
168.174872
 30
0.0
 11
102.108146
 21
168.774872
 31
0.0
  0
LINE
  5
1CD9
100
AcDbEntity
  8
ALPHA
100
AcDbLine
 10
105.108146
 20
168.174872
 30
0.0
 11
102.108146
 21
168.174872
 31
0.0
  0
LINE
  5
1CDA
100
AcDbEntity
  8
ALPHA
100
AcDbLine
 10
105.108146
 20
168.774872
 30
0.0
 11
105.108146
 21
168.174872
 31
0.0
  0
LINE
  5
1CDB
100
AcDbEntity
  8
ALPHA
100
AcDbLine
 10
105.044317
 20
168.899872
 30
0.0
 11
105.108146
 21
168.774872
 31
0.0
  0
LINE
  5
1CDC
100
AcDbEntity
  8
ALPHA
100
AcDbLine
 10
104.852826
 20
168.999872
 30
0.0
 11
105.044317
 21
168.899872
 31
0.0
  0
LINE
  5
1CDD
100
AcDbEntity
  8
ALPHA
100
AcDbLine
 10
104.725168
 20
163.824872
 30
0.0
 11
104.725168
 21
163.349872
 31
0.0
  0
LINE
  5
1CDE
100
AcDbEntity
  8
ALPHA
100
AcDbLine
 10
104.725168
 20
163.349872
 30
0.0
 11
103.76772
 21
163.349872
 31
0.0
  0
LINE
  5
1CDF
100
AcDbEntity
  8
ALPHA
100
AcDbLine
 10
103.76772
 20
163.349872
 30
0.0
 11
103.76772
 21
163.824872
 31
0.0
  0
LINE
  5
1CE0
100
AcDbEntity
  8
ALPHA
100
AcDbLine
 10
103.76772
 20
163.824872
 30
0.0
 11
103.83155
 21
163.899872
 31
0.0
  0
LINE
  5
1CE1
100
AcDbEntity
  8
ALPHA
100
AcDbLine
 10
103.83155
 20
163.899872
 30
0.0
 11
103.95921
 21
163.949872
 31
0.0
  0
LINE
  5
1CE2
100
AcDbEntity
  8
ALPHA
100
AcDbLine
 10
103.95921
 20
163.949872
 30
0.0
 11
104.150699
 21
163.974872
 31
0.0
  0
LINE
  5
1CE3
100
AcDbEntity
  8
ALPHA
100
AcDbLine
 10
103.640061
 20
165.174872
 30
0.0
 11
103.448571
 21
165.099872
 31
0.0
  0
LINE
  5
1CE4
100
AcDbEntity
  8
ALPHA
100
AcDbLine
 10
103.448571
 20
165.099872
 30
0.0
 11
103.257082
 21
164.974872
 31
0.0
  0
LINE
  5
1CE5
100
AcDbEntity
  8
ALPHA
100
AcDbLine
 10
103.257082
 20
164.974872
 30
0.0
 11
103.193253
 21
164.849872
 31
0.0
  0
LINE
  5
1CE6
100
AcDbEntity
  8
ALPHA
100
AcDbLine
 10
103.193253
 20
164.849872
 30
0.0
 11
103.193253
 21
164.724872
 31
0.0
  0
LINE
  5
1CE7
100
AcDbEntity
  8
ALPHA
100
AcDbLine
 10
103.193253
 20
164.724872
 30
0.0
 11
103.257082
 21
164.599872
 31
0.0
  0
LINE
  5
1CE8
100
AcDbEntity
  8
ALPHA
100
AcDbLine
 10
103.257082
 20
164.599872
 30
0.0
 11
103.512401
 21
164.449872
 31
0.0
  0
LINE
  5
1CE9
100
AcDbEntity
  8
ALPHA
100
AcDbLine
 10
103.512401
 20
164.449872
 30
0.0
 11
103.384742
 21
164.449872
 31
0.0
  0
LINE
  5
1CEA
100
AcDbEntity
  8
ALPHA
100
AcDbLine
 10
103.384742
 20
164.449872
 30
0.0
 11
103.001763
 21
164.474872
 31
0.0
  0
LINE
  5
1CEB
100
AcDbEntity
  8
ALPHA
100
AcDbLine
 10
103.001763
 20
164.474872
 30
0.0
 11
102.810273
 21
164.499872
 31
0.0
  0
LINE
  5
1CEC
100
AcDbEntity
  8
ALPHA
100
AcDbLine
 10
102.810273
 20
164.499872
 30
0.0
 11
102.618784
 21
164.549872
 31
0.0
  0
LINE
  5
1CED
100
AcDbEntity
  8
ALPHA
100
AcDbLine
 10
102.618784
 20
164.549872
 30
0.0
 11
102.491124
 21
164.624872
 31
0.0
  0
LINE
  5
1CEE
100
AcDbEntity
  8
ALPHA
100
AcDbLine
 10
102.491124
 20
164.624872
 30
0.0
 11
102.427295
 21
164.699872
 31
0.0
  0
LINE
  5
1CEF
100
AcDbEntity
  8
ALPHA
100
AcDbLine
 10
102.427295
 20
164.699872
 30
0.0
 11
102.427295
 21
164.849872
 31
0.0
  0
LINE
  5
1CF0
100
AcDbEntity
  8
ALPHA
100
AcDbLine
 10
102.427295
 20
164.849872
 30
0.0
 11
102.491124
 21
164.924872
 31
0.0
  0
LINE
  5
1CF1
100
AcDbEntity
  8
ALPHA
100
AcDbLine
 10
102.491124
 20
164.924872
 30
0.0
 11
102.618784
 21
164.999872
 31
0.0
  0
LINE
  5
1CF2
100
AcDbEntity
  8
ALPHA
100
AcDbLine
 10
102.618784
 20
164.999872
 30
0.0
 11
102.810273
 21
165.049872
 31
0.0
  0
LINE
  5
1CF3
100
AcDbEntity
  8
ALPHA
100
AcDbLine
 10
102.810273
 20
165.049872
 30
0.0
 11
102.810273
 21
165.174872
 31
0.0
  0
LINE
  5
1CF4
100
AcDbEntity
  8
ALPHA
100
AcDbLine
 10
102.810273
 20
165.174872
 30
0.0
 11
102.618784
 21
165.149872
 31
0.0
  0
LINE
  5
1CF5
100
AcDbEntity
  8
ALPHA
100
AcDbLine
 10
102.618784
 20
165.149872
 30
0.0
 11
102.363466
 21
165.074872
 31
0.0
  0
LINE
  5
1CF6
100
AcDbEntity
  8
ALPHA
100
AcDbLine
 10
102.363466
 20
165.074872
 30
0.0
 11
102.171975
 21
164.949872
 31
0.0
  0
LINE
  5
1CF7
100
AcDbEntity
  8
ALPHA
100
AcDbLine
 10
102.171975
 20
164.949872
 30
0.0
 11
102.108146
 21
164.824872
 31
0.0
  0
LINE
  5
1CF8
100
AcDbEntity
  8
ALPHA
100
AcDbLine
 10
102.108146
 20
164.824872
 30
0.0
 11
102.108146
 21
164.724872
 31
0.0
  0
LINE
  5
1CF9
100
AcDbEntity
  8
ALPHA
100
AcDbLine
 10
102.108146
 20
164.724872
 30
0.0
 11
102.171975
 21
164.599872
 31
0.0
  0
LINE
  5
1CFA
100
AcDbEntity
  8
ALPHA
100
AcDbLine
 10
102.171975
 20
164.599872
 30
0.0
 11
102.363466
 21
164.474872
 31
0.0
  0
LINE
  5
1CFB
100
AcDbEntity
  8
ALPHA
100
AcDbLine
 10
102.363466
 20
164.474872
 30
0.0
 11
102.618784
 21
164.399872
 31
0.0
  0
LINE
  5
1CFC
100
AcDbEntity
  8
ALPHA
100
AcDbLine
 10
102.618784
 20
164.399872
 30
0.0
 11
102.937933
 21
164.349872
 31
0.0
  0
LINE
  5
1CFD
100
AcDbEntity
  8
ALPHA
100
AcDbLine
 10
102.937933
 20
164.349872
 30
0.0
 11
103.384742
 21
164.324872
 31
0.0
  0
LINE
  5
1CFE
100
AcDbEntity
  8
ALPHA
100
AcDbLine
 10
103.384742
 20
164.324872
 30
0.0
 11
103.83155
 21
164.324872
 31
0.0
  0
LINE
  5
1CFF
100
AcDbEntity
  8
ALPHA
100
AcDbLine
 10
103.83155
 20
164.324872
 30
0.0
 11
104.278359
 21
164.349872
 31
0.0
  0
LINE
  5
1D00
100
AcDbEntity
  8
ALPHA
100
AcDbLine
 10
104.278359
 20
164.349872
 30
0.0
 11
104.597508
 21
164.399872
 31
0.0
  0
LINE
  5
1D01
100
AcDbEntity
  8
ALPHA
100
AcDbLine
 10
104.597508
 20
164.399872
 30
0.0
 11
104.852826
 21
164.474872
 31
0.0
  0
LINE
  5
1D02
100
AcDbEntity
  8
ALPHA
100
AcDbLine
 10
104.852826
 20
164.474872
 30
0.0
 11
105.044317
 21
164.599872
 31
0.0
  0
LINE
  5
1D03
100
AcDbEntity
  8
ALPHA
100
AcDbLine
 10
105.044317
 20
164.599872
 30
0.0
 11
105.108146
 21
164.724872
 31
0.0
  0
LINE
  5
1D04
100
AcDbEntity
  8
ALPHA
100
AcDbLine
 10
105.108146
 20
164.724872
 30
0.0
 11
105.108146
 21
164.849872
 31
0.0
  0
LINE
  5
1D05
100
AcDbEntity
  8
ALPHA
100
AcDbLine
 10
105.108146
 20
164.849872
 30
0.0
 11
105.044317
 21
164.974872
 31
0.0
  0
LINE
  5
1D06
100
AcDbEntity
  8
ALPHA
100
AcDbLine
 10
105.044317
 20
164.974872
 30
0.0
 11
104.852826
 21
165.099872
 31
0.0
  0
LINE
  5
1D07
100
AcDbEntity
  8
ALPHA
100
AcDbLine
 10
104.852826
 20
165.099872
 30
0.0
 11
104.597508
 21
165.174872
 31
0.0
  0
LINE
  5
1D08
100
AcDbEntity
  8
ALPHA
100
AcDbLine
 10
104.597508
 20
165.174872
 30
0.0
 11
104.278359
 21
165.224872
 31
0.0
  0
LINE
  5
1D09
100
AcDbEntity
  8
ALPHA
100
AcDbLine
 10
104.278359
 20
165.224872
 30
0.0
 11
103.95921
 21
165.224872
 31
0.0
  0
LINE
  5
1D0A
100
AcDbEntity
  8
ALPHA
100
AcDbLine
 10
103.95921
 20
165.224872
 30
0.0
 11
103.640061
 21
165.174872
 31
0.0
  0
LINE
  5
1D0B
100
AcDbEntity
  8
ALPHA
100
AcDbLine
 10
104.023039
 20
165.099872
 30
0.0
 11
103.83155
 21
165.074872
 31
0.0
  0
LINE
  5
1D0C
100
AcDbEntity
  8
ALPHA
100
AcDbLine
 10
104.214529
 20
165.099872
 30
0.0
 11
104.023039
 21
165.099872
 31
0.0
  0
LINE
  5
1D0D
100
AcDbEntity
  8
ALPHA
100
AcDbLine
 10
104.406019
 20
165.074872
 30
0.0
 11
104.214529
 21
165.099872
 31
0.0
  0
LINE
  5
1D0E
100
AcDbEntity
  8
ALPHA
100
AcDbLine
 10
104.597508
 20
165.024872
 30
0.0
 11
104.406019
 21
165.074872
 31
0.0
  0
LINE
  5
1D0F
100
AcDbEntity
  8
ALPHA
100
AcDbLine
 10
104.725168
 20
164.949872
 30
0.0
 11
104.597508
 21
165.024872
 31
0.0
  0
LINE
  5
1D10
100
AcDbEntity
  8
ALPHA
100
AcDbLine
 10
104.788997
 20
164.874872
 30
0.0
 11
104.725168
 21
164.949872
 31
0.0
  0
LINE
  5
1D11
100
AcDbEntity
  8
ALPHA
100
AcDbLine
 10
104.788997
 20
164.699872
 30
0.0
 11
104.788997
 21
164.874872
 31
0.0
  0
LINE
  5
1D12
100
AcDbEntity
  8
ALPHA
100
AcDbLine
 10
104.725168
 20
164.624872
 30
0.0
 11
104.788997
 21
164.699872
 31
0.0
  0
LINE
  5
1D13
100
AcDbEntity
  8
ALPHA
100
AcDbLine
 10
104.597508
 20
164.549872
 30
0.0
 11
104.725168
 21
164.624872
 31
0.0
  0
LINE
  5
1D14
100
AcDbEntity
  8
ALPHA
100
AcDbLine
 10
104.406019
 20
164.499872
 30
0.0
 11
104.597508
 21
164.549872
 31
0.0
  0
LINE
  5
1D15
100
AcDbEntity
  8
ALPHA
100
AcDbLine
 10
104.214529
 20
164.474872
 30
0.0
 11
104.406019
 21
164.499872
 31
0.0
  0
LINE
  5
1D16
100
AcDbEntity
  8
ALPHA
100
AcDbLine
 10
104.023039
 20
164.474872
 30
0.0
 11
104.214529
 21
164.474872
 31
0.0
  0
LINE
  5
1D17
100
AcDbEntity
  8
ALPHA
100
AcDbLine
 10
103.83155
 20
164.499872
 30
0.0
 11
104.023039
 21
164.474872
 31
0.0
  0
LINE
  5
1D18
100
AcDbEntity
  8
ALPHA
100
AcDbLine
 10
103.703891
 20
164.549872
 30
0.0
 11
103.83155
 21
164.499872
 31
0.0
  0
LINE
  5
1D19
100
AcDbEntity
  8
ALPHA
100
AcDbLine
 10
103.576231
 20
164.624872
 30
0.0
 11
103.703891
 21
164.549872
 31
0.0
  0
LINE
  5
1D1A
100
AcDbEntity
  8
ALPHA
100
AcDbLine
 10
103.512401
 20
164.699872
 30
0.0
 11
103.576231
 21
164.624872
 31
0.0
  0
LINE
  5
1D1B
100
AcDbEntity
  8
ALPHA
100
AcDbLine
 10
103.512401
 20
164.874872
 30
0.0
 11
103.512401
 21
164.699872
 31
0.0
  0
LINE
  5
1D1C
100
AcDbEntity
  8
ALPHA
100
AcDbLine
 10
103.576231
 20
164.949872
 30
0.0
 11
103.512401
 21
164.874872
 31
0.0
  0
LINE
  5
1D1D
100
AcDbEntity
  8
ALPHA
100
AcDbLine
 10
103.703891
 20
165.024872
 30
0.0
 11
103.576231
 21
164.949872
 31
0.0
  0
LINE
  5
1D1E
100
AcDbEntity
  8
ALPHA
100
AcDbLine
 10
103.83155
 20
165.074872
 30
0.0
 11
103.703891
 21
165.024872
 31
0.0
  0
LINE
  5
1D1F
100
AcDbEntity
  8
ALPHA
100
AcDbLine
 10
103.703891
 20
165.774872
 30
0.0
 11
104.023039
 21
165.774872
 31
0.0
  0
LINE
  5
1D20
100
AcDbEntity
  8
ALPHA
100
AcDbLine
 10
103.703891
 20
165.424872
 30
0.0
 11
103.703891
 21
165.774872
 31
0.0
  0
LINE
  5
1D21
100
AcDbEntity
  8
ALPHA
100
AcDbLine
 10
104.023039
 20
165.424872
 30
0.0
 11
103.703891
 21
165.424872
 31
0.0
  0
LINE
  5
1D22
100
AcDbEntity
  8
ALPHA
100
AcDbLine
 10
104.023039
 20
165.774872
 30
0.0
 11
104.023039
 21
165.424872
 31
0.0
  0
LINE
  5
1D23
100
AcDbEntity
  8
ALPHA
100
AcDbLine
 10
104.725168
 20
166.124872
 30
0.0
 11
104.725168
 21
166.874872
 31
0.0
  0
LINE
  5
1D24
100
AcDbEntity
  8
ALPHA
100
AcDbLine
 10
103.703891
 20
166.124872
 30
0.0
 11
104.725168
 21
166.124872
 31
0.0
  0
LINE
  5
1D25
100
AcDbEntity
  8
ALPHA
100
AcDbLine
 10
104.597508
 20
169.074872
 30
0.0
 11
104.852826
 21
168.999872
 31
0.0
  0
LINE
  5
1D26
100
AcDbEntity
  8
ALPHA
100
AcDbLine
 10
103.703891
 20
166.774872
 30
0.0
 11
103.703891
 21
166.124872
 31
0.0
  0
LINE
  5
1D27
100
AcDbEntity
  8
ALPHA
100
AcDbLine
 10
103.76772
 20
168.324872
 30
0.0
 11
103.76772
 21
168.799872
 31
0.0
  0
LINE
  5
1D28
100
AcDbEntity
  8
ALPHA
100
AcDbLine
 10
103.320912
 20
166.774872
 30
0.0
 11
103.703891
 21
166.774872
 31
0.0
  0
LINE
  5
1D29
100
AcDbEntity
  8
ALPHA
100
AcDbLine
 10
103.320912
 20
166.124872
 30
0.0
 11
103.320912
 21
166.774872
 31
0.0
  0
LINE
  5
1D2A
100
AcDbEntity
  8
ALPHA
100
AcDbLine
 10
102.491124
 20
166.124872
 30
0.0
 11
103.320912
 21
166.124872
 31
0.0
  0
LINE
  5
1D2B
100
AcDbEntity
  8
ALPHA
100
AcDbLine
 10
102.491124
 20
166.874872
 30
0.0
 11
102.491124
 21
166.124872
 31
0.0
  0
LINE
  5
1D2C
100
AcDbEntity
  8
ALPHA
100
AcDbLine
 10
102.108146
 20
166.874872
 30
0.0
 11
102.491124
 21
166.874872
 31
0.0
  0
LINE
  5
1D2D
100
AcDbEntity
  8
ALPHA
100
AcDbLine
 10
102.108146
 20
165.974872
 30
0.0
 11
102.108146
 21
166.874872
 31
0.0
  0
LINE
  5
1D2E
100
AcDbEntity
  8
ALPHA
100
AcDbLine
 10
103.76772
 20
168.799872
 30
0.0
 11
103.83155
 21
168.874872
 31
0.0
  0
LINE
  5
1D2F
100
AcDbEntity
  8
ALPHA
100
AcDbLine
 10
103.83155
 20
168.874872
 30
0.0
 11
103.95921
 21
168.924872
 31
0.0
  0
LINE
  5
1D30
100
AcDbEntity
  8
ALPHA
100
AcDbLine
 10
105.108146
 20
165.974872
 30
0.0
 11
102.108146
 21
165.974872
 31
0.0
  0
LINE
  5
1D31
100
AcDbEntity
  8
ALPHA
100
AcDbLine
 10
104.406019
 20
169.099872
 30
0.0
 11
104.597508
 21
169.074872
 31
0.0
  0
LINE
  5
1D32
100
AcDbEntity
  8
ALPHA
100
AcDbLine
 10
105.108146
 20
166.874872
 30
0.0
 11
105.108146
 21
165.974872
 31
0.0
  0
LINE
  5
1D33
100
AcDbEntity
  8
ALPHA
100
AcDbLine
 10
104.08687
 20
169.099872
 30
0.0
 11
104.406019
 21
169.099872
 31
0.0
  0
LINE
  5
1D34
100
AcDbEntity
  8
ALPHA
100
AcDbLine
 10
104.725168
 20
166.874872
 30
0.0
 11
105.108146
 21
166.874872
 31
0.0
  0
LINE
  5
1D35
100
AcDbEntity
  8
ALPHA
100
AcDbLine
 10
103.001763
 20
167.274872
 30
0.0
 11
103.001763
 21
167.224872
 31
0.0
  0
LINE
  5
1D36
100
AcDbEntity
  8
ALPHA
100
AcDbLine
 10
103.001763
 20
167.224872
 30
0.0
 11
103.448571
 21
167.224872
 31
0.0
  0
LINE
  5
1D37
100
AcDbEntity
  8
ALPHA
100
AcDbLine
 10
103.448571
 20
167.224872
 30
0.0
 11
103.129422
 21
167.099872
 31
0.0
  0
LINE
  5
1D38
100
AcDbEntity
  8
ALPHA
100
AcDbLine
 10
103.89538
 20
169.074872
 30
0.0
 11
104.08687
 21
169.099872
 31
0.0
  0
LINE
  5
1D39
100
AcDbEntity
  8
ALPHA
100
AcDbLine
 10
103.129422
 20
167.099872
 30
0.0
 11
103.193253
 21
167.074872
 31
0.0
  0
LINE
  5
1D3A
100
AcDbEntity
  8
ALPHA
100
AcDbLine
 10
103.640061
 20
168.999872
 30
0.0
 11
103.89538
 21
169.074872
 31
0.0
  0
LINE
  5
1D3B
100
AcDbEntity
  8
ALPHA
100
AcDbLine
 10
103.576231
 20
168.949872
 30
0.0
 11
103.640061
 21
168.999872
 31
0.0
  0
LINE
  5
1D3C
100
AcDbEntity
  8
ALPHA
100
AcDbLine
 10
103.193253
 20
167.074872
 30
0.0
 11
103.576231
 21
167.224872
 31
0.0
  0
LINE
  5
1D3D
100
AcDbEntity
  8
ALPHA
100
AcDbLine
 10
103.576231
 20
167.224872
 30
0.0
 11
103.95921
 21
167.074872
 31
0.0
  0
LINE
  5
1D3E
100
AcDbEntity
  8
ALPHA
100
AcDbLine
 10
103.95921
 20
167.074872
 30
0.0
 11
104.023039
 21
167.099872
 31
0.0
  0
LINE
  5
1D3F
100
AcDbEntity
  8
ALPHA
100
AcDbLine
 10
104.023039
 20
167.099872
 30
0.0
 11
103.703891
 21
167.224872
 31
0.0
  0
LINE
  5
1D40
100
AcDbEntity
  8
ALPHA
100
AcDbLine
 10
103.703891
 20
167.224872
 30
0.0
 11
104.150699
 21
167.224872
 31
0.0
  0
LINE
  5
1D41
100
AcDbEntity
  8
ALPHA
100
AcDbLine
 10
104.150699
 20
167.224872
 30
0.0
 11
104.150699
 21
167.274872
 31
0.0
  0
LINE
  5
1D42
100
AcDbEntity
  8
ALPHA
100
AcDbLine
 10
104.150699
 20
167.274872
 30
0.0
 11
103.703891
 21
167.274872
 31
0.0
  0
LINE
  5
1D43
100
AcDbEntity
  8
ALPHA
100
AcDbLine
 10
103.703891
 20
167.274872
 30
0.0
 11
104.023039
 21
167.399872
 31
0.0
  0
LINE
  5
1D44
100
AcDbEntity
  8
ALPHA
100
AcDbLine
 10
104.023039
 20
167.399872
 30
0.0
 11
103.95921
 21
167.424872
 31
0.0
  0
LINE
  5
1D45
100
AcDbEntity
  8
ALPHA
100
AcDbLine
 10
103.95921
 20
167.424872
 30
0.0
 11
103.576231
 21
167.274872
 31
0.0
  0
LINE
  5
1D46
100
AcDbEntity
  8
ALPHA
100
AcDbLine
 10
103.576231
 20
167.274872
 30
0.0
 11
103.193253
 21
167.424872
 31
0.0
  0
LINE
  5
1D47
100
AcDbEntity
  8
ALPHA
100
AcDbLine
 10
103.193253
 20
167.424872
 30
0.0
 11
103.129422
 21
167.399872
 31
0.0
  0
LINE
  5
1D48
100
AcDbEntity
  8
ALPHA
100
AcDbLine
 10
103.129422
 20
167.399872
 30
0.0
 11
103.448571
 21
167.274872
 31
0.0
  0
LINE
  5
1D49
100
AcDbEntity
  8
ALPHA
100
AcDbLine
 10
103.448571
 20
167.274872
 30
0.0
 11
103.001763
 21
167.274872
 31
0.0
  0
LINE
  5
1D4A
100
AcDbEntity
  8
ALPHA
100
AcDbLine
 10
103.001763
 20
167.824872
 30
0.0
 11
103.001763
 21
167.774872
 31
0.0
  0
LINE
  5
1D4B
100
AcDbEntity
  8
ALPHA
100
AcDbLine
 10
103.001763
 20
167.774872
 30
0.0
 11
103.448571
 21
167.774872
 31
0.0
  0
LINE
  5
1D4C
100
AcDbEntity
  8
ALPHA
100
AcDbLine
 10
103.448571
 20
167.774872
 30
0.0
 11
103.129422
 21
167.649872
 31
0.0
  0
LINE
  5
1D4D
100
AcDbEntity
  8
ALPHA
100
AcDbLine
 10
103.129422
 20
167.649872
 30
0.0
 11
103.193253
 21
167.624872
 31
0.0
  0
LINE
  5
1D4E
100
AcDbEntity
  8
ALPHA
100
AcDbLine
 10
102.491124
 20
168.799872
 30
0.0
 11
102.491124
 21
168.324872
 31
0.0
  0
LINE
  5
1D4F
100
AcDbEntity
  8
ALPHA
100
AcDbLine
 10
103.95921
 20
168.924872
 30
0.0
 11
104.150699
 21
168.949872
 31
0.0
  0
LINE
  5
1D50
100
AcDbEntity
  8
ALPHA
100
AcDbLine
 10
103.892939
 20
162.283945
 30
0.0
 11
104.030819
 21
162.421825
 31
0.0
  0
LINE
  5
1D51
100
AcDbEntity
  8
ALPHA
100
AcDbLine
 10
104.808867
 20
163.199872
 30
0.0
 11
105.108146
 21
163.499152
 31
0.0
  0
LINE
  5
1D52
100
AcDbEntity
  8
ALPHA
100
AcDbLine
 10
102.554955
 20
168.874872
 30
0.0
 11
102.491124
 21
168.799872
 31
0.0
  0
LINE
  5
1D53
100
AcDbEntity
  8
ALPHA
100
AcDbLine
 10
102.682614
 20
168.924872
 30
0.0
 11
102.554955
 21
168.874872
 31
0.0
  0
LINE
  5
1D54
100
AcDbEntity
  8
ALPHA
100
AcDbLine
 10
102.874104
 20
168.949872
 30
0.0
 11
102.682614
 21
168.924872
 31
0.0
  0
LINE
  5
1D55
100
AcDbEntity
  8
ALPHA
100
AcDbLine
 10
103.001763
 20
168.949872
 30
0.0
 11
102.874104
 21
168.949872
 31
0.0
  0
LINE
  5
1D56
100
AcDbEntity
  8
ALPHA
100
AcDbLine
 10
103.193253
 20
168.924872
 30
0.0
 11
103.001763
 21
168.949872
 31
0.0
  0
LINE
  5
1D57
100
AcDbEntity
  8
ALPHA
100
AcDbLine
 10
103.320912
 20
168.874872
 30
0.0
 11
103.193253
 21
168.924872
 31
0.0
  0
LINE
  5
1D58
100
AcDbEntity
  8
ALPHA
100
AcDbLine
 10
103.384742
 20
168.799872
 30
0.0
 11
103.320912
 21
168.874872
 31
0.0
  0
LINE
  5
1D59
100
AcDbEntity
  8
ALPHA
100
AcDbLine
 10
103.384742
 20
168.324872
 30
0.0
 11
103.384742
 21
168.799872
 31
0.0
  0
LINE
  5
1D5A
100
AcDbEntity
  8
ALPHA
100
AcDbLine
 10
102.491124
 20
168.324872
 30
0.0
 11
103.384742
 21
168.324872
 31
0.0
  0
LINE
  5
1D5B
100
AcDbEntity
  8
ALPHA
100
AcDbLine
 10
104.150699
 20
168.949872
 30
0.0
 11
104.342188
 21
168.949872
 31
0.0
  0
LINE
  5
1D5C
100
AcDbEntity
  8
ALPHA
100
AcDbLine
 10
104.342188
 20
168.949872
 30
0.0
 11
104.533678
 21
168.924872
 31
0.0
  0
LINE
  5
1D5D
100
AcDbEntity
  8
ALPHA
100
AcDbLine
 10
104.533678
 20
168.924872
 30
0.0
 11
104.661337
 21
168.874872
 31
0.0
  0
LINE
  5
1D5E
100
AcDbEntity
  8
ALPHA
100
AcDbLine
 10
104.661337
 20
168.874872
 30
0.0
 11
104.725168
 21
168.799872
 31
0.0
  0
LWPOLYLINE
  5
1D5F
100
AcDbEntity
  8
ALPHA
100
AcDbPolyline
 90
        4
 70
     0
 43
0.0
 10
86.604556
 20
167.338727
 10
86.604556
 20
167.737321
 10
86.604556
 20
168.092088
 10
86.604556
 20
168.395922
  0
LWPOLYLINE
  5
1D65
100
AcDbEntity
  8
ALPHA
100
AcDbPolyline
 90
        4
 70
     0
 43
0.0
 10
86.604556
 20
167.338727
 10
86.479159
 20
167.194772
 10
86.363674
 20
167.053114
 10
86.258146
 20
166.91369
  0
LWPOLYLINE
  5
1D6B
100
AcDbEntity
  8
ALPHA
100
AcDbPolyline
 90
        4
 70
     0
 43
0.0
 10
93.408146
 20
169.430996
 10
93.809756
 20
169.821965
 10
94.243019
 20
170.231167
 10
94.708146
 20
170.659422
  0
LINE
  5
1D71
100
AcDbEntity
  8
ALPHA
100
AcDbLine
 10
93.408146
 20
167.338727
 30
0.0
 11
86.604556
 21
167.338727
 31
0.0
  0
LINE
  5
1D72
100
AcDbEntity
  8
ALPHA
100
AcDbLine
 10
93.408146
 20
163.761018
 30
0.0
 11
86.604556
 21
163.761018
 31
0.0
  0
LWPOLYLINE
  5
1D73
100
AcDbEntity
  8
ALPHA
100
AcDbPolyline
 90
        4
 70
     0
 43
0.0
 10
86.604556
 20
162.703822
 10
86.604556
 20
163.007656
 10
86.604556
 20
163.362424
 10
86.604556
 20
163.761018
  0
LINE
  5
1D79
100
AcDbEntity
  8
ALPHA
100
AcDbLine
 10
100.908146
 20
159.549872
 30
0.0
 11
111.308146
 21
159.549872
 31
0.0
  0
LWPOLYLINE
  5
1D7A
100
AcDbEntity
  8
ALPHA
100
AcDbPolyline
 90
        3
 70
     0
 43
0.0
 10
94.708146
 20
160.278487
 10
94.708146
 20
160.118674
 10
94.708146
 20
159.981434
  0
LINE
  5
1D7F
100
AcDbEntity
  8
ALPHA
100
AcDbLine
 10
111.308146
 20
171.549872
 30
0.0
 11
100.908146
 21
171.549872
 31
0.0
  0
LWPOLYLINE
  5
1D80
100
AcDbEntity
  8
ALPHA
100
AcDbPolyline
 90
        4
 70
     0
 43
0.0
 10
86.604556
 20
163.761018
 10
86.479159
 20
163.904973
 10
86.363674
 20
164.04663
 10
86.258146
 20
164.186054
  0
LINE
  5
1D86
100
AcDbEntity
  8
ALPHA
100
AcDbLine
 10
98.008146
 20
160.440322
 30
0.0
 11
94.708146
 21
160.440322
 31
0.0
  0
LWPOLYLINE
  5
1D87
100
AcDbEntity
  8
ALPHA
100
AcDbPolyline
 90
        4
 70
     0
 43
0.0
 10
94.708146
 20
160.278487
 10
94.248161
 20
160.687835
 10
93.81483
 20
161.080831
 10
93.408146
 20
161.458036
  0
LWPOLYLINE
  5
1D8D
100
AcDbEntity
  8
ALPHA
100
AcDbPolyline
 90
        3
 70
     0
 43
0.0
 10
94.708146
 20
171.11831
 10
94.708146
 20
170.912228
 10
94.708146
 20
170.659422
  0
LINE
  5
1D92
100
AcDbEntity
  8
ALPHA
100
AcDbLine
 10
98.008146
 20
170.659422
 30
0.0
 11
94.708146
 21
170.659422
 31
0.0
  0
LINE
  5
1D93
100
AcDbEntity
  8
ALPHA
100
AcDbLine
 10
86.258146
 20
168.199872
 30
0.0
 11
86.258146
 21
168.229872
 31
0.0
  0
LINE
  5
1D94
100
AcDbEntity
  8
ALPHA
100
AcDbLine
 10
86.258146
 20
166.91369
 30
0.0
 11
86.258146
 21
167.087353
 31
0.0
  0
LINE
  5
1D95
100
AcDbEntity
  8
ALPHA
100
AcDbLine
 10
86.369599
 20
168.229872
 30
0.0
 11
86.258146
 21
168.229872
 31
0.0
  0
LWPOLYLINE
  5
1D96
100
AcDbEntity
  8
ALPHA
100
AcDbPolyline
 90
        3
 70
     0
 43
0.0
 10
86.468125
 20
168.299872
 10
86.446891
 20
168.284866
 10
86.369599
 20
168.229872
  0
LWPOLYLINE
  5
1D9B
100
AcDbEntity
  8
ALPHA
100
AcDbPolyline
 90
        3
 70
     0
 43
0.0
 10
86.604556
 20
168.395922
 10
86.525211
 20
168.340215
 10
86.468125
 20
168.299872
  0
LWPOLYLINE
  5
1DA0
100
AcDbEntity
  8
ALPHA
100
AcDbPolyline
 90
        3
 70
     0
 43
0.0
 10
86.468125
 20
162.799872
 10
86.446891
 20
162.814878
 10
86.369599
 20
162.869872
  0
LWPOLYLINE
  5
1DA5
100
AcDbEntity
  8
ALPHA
100
AcDbPolyline
 90
        3
 70
     0
 43
0.0
 10
86.604556
 20
162.703822
 10
86.525211
 20
162.75953
 10
86.468125
 20
162.799872
  0
LINE
  5
1DAA
100
AcDbEntity
  8
ALPHA
100
AcDbLine
 10
86.369599
 20
162.869872
 30
0.0
 11
86.258146
 21
162.869872
 31
0.0
  0
LINE
  5
1DAB
100
AcDbEntity
  8
ALPHA
100
AcDbLine
 10
86.258146
 20
164.012392
 30
0.0
 11
86.258146
 21
164.186054
 31
0.0
  0
LINE
  5
1DAC
100
AcDbEntity
  8
ALPHA
100
AcDbLine
 10
86.258146
 20
163.939876
 30
0.0
 11
86.258146
 21
164.012392
 31
0.0
  0
LINE
  5
1DAD
100
AcDbEntity
  8
ALPHA
100
AcDbLine
 10
86.258146
 20
162.869872
 30
0.0
 11
86.258146
 21
162.899872
 31
0.0
  0
LINE
  5
1DAE
100
AcDbEntity
  8
ALPHA
100
AcDbLine
 10
111.308146
 20
159.549872
 30
0.0
 11
111.308146
 21
158.749872
 31
0.0
  0
LINE
  5
1DAF
100
AcDbEntity
  8
ALPHA
100
AcDbLine
 10
100.908146
 20
159.549872
 30
0.0
 11
100.908146
 21
158.749872
 31
0.0
  0
LINE
  5
1DB0
100
AcDbEntity
  8
ALPHA
100
AcDbLine
 10
111.308146
 20
171.549872
 30
0.0
 11
111.308146
 21
172.349872
 31
0.0
  0
LINE
  5
1DB1
100
AcDbEntity
  8
ALPHA
100
AcDbLine
 10
100.908146
 20
171.549872
 30
0.0
 11
100.908146
 21
172.349872
 31
0.0
  0
LINE
  5
1DB2
100
AcDbEntity
  8
ALPHA
100
AcDbLine
 10
98.994194
 20
159.549872
 30
0.0
 11
98.994194
 21
159.649872
 31
0.0
  0
LINE
  5
1DB3
100
AcDbEntity
  8
ALPHA
100
AcDbLine
 10
100.722098
 20
159.649872
 30
0.0
 11
100.722098
 21
159.549872
 31
0.0
  0
LINE
  5
1DB4
100
AcDbEntity
  8
ALPHA
100
AcDbLine
 10
100.722098
 20
171.549872
 30
0.0
 11
100.722098
 21
171.449872
 31
0.0
  0
LINE
  5
1DB5
100
AcDbEntity
  8
ALPHA
100
AcDbLine
 10
98.994194
 20
171.449872
 30
0.0
 11
98.994194
 21
171.549872
 31
0.0
  0
LINE
  5
1DB6
100
AcDbEntity
  8
ALPHA
100
AcDbLine
 10
111.494194
 20
159.549872
 30
0.0
 11
111.494194
 21
159.649872
 31
0.0
  0
LINE
  5
1DB7
100
AcDbEntity
  8
ALPHA
100
AcDbLine
 10
113.222098
 20
159.649872
 30
0.0
 11
113.222098
 21
159.549872
 31
0.0
  0
LINE
  5
1DB8
100
AcDbEntity
  8
ALPHA
100
AcDbLine
 10
113.222098
 20
171.549872
 30
0.0
 11
113.222098
 21
171.449872
 31
0.0
  0
LINE
  5
1DB9
100
AcDbEntity
  8
ALPHA
100
AcDbLine
 10
111.494194
 20
171.449872
 30
0.0
 11
111.494194
 21
171.549872
 31
0.0
  0
LINE
  5
1DBA
100
AcDbEntity
  8
ALPHA
100
AcDbLine
 10
94.708146
 20
160.278487
 30
0.0
 11
94.708146
 21
160.440322
 31
0.0
  0
LINE
  5
1DBB
100
AcDbEntity
  8
ALPHA
100
AcDbLine
 10
93.408146
 20
161.458036
 30
0.0
 11
93.408146
 21
163.149872
 31
0.0
  0
LINE
  5
1DBC
100
AcDbEntity
  8
ALPHA
100
AcDbLine
 10
93.408146
 20
161.081861
 30
0.0
 11
93.408146
 21
161.458036
 31
0.0
  0
LINE
  5
1DBD
100
AcDbEntity
  8
ALPHA
100
AcDbLine
 10
93.408146
 20
169.430996
 30
0.0
 11
93.408146
 21
170.017884
 31
0.0
  0
LINE
  5
1DBE
100
AcDbEntity
  8
ALPHA
100
AcDbLine
 10
93.408146
 20
163.761018
 30
0.0
 11
93.408146
 21
163.149872
 31
0.0
  0
LINE
  5
1DBF
100
AcDbEntity
  8
ALPHA
100
AcDbLine
 10
93.408146
 20
169.430996
 30
0.0
 11
93.408146
 21
167.338727
 31
0.0
  0
LINE
  5
1DC0
100
AcDbEntity
  8
ALPHA
100
AcDbLine
 10
86.258146
 20
166.91369
 30
0.0
 11
86.258146
 21
164.186054
 31
0.0
  0
LINE
  5
1DC1
100
AcDbEntity
  8
ALPHA
100
AcDbLine
 10
100.908146
 20
158.749872
 30
0.0
 11
111.308146
 21
158.749872
 31
0.0
  0
LINE
  5
1DC2
100
AcDbEntity
  8
ALPHA
100
AcDbLine
 10
111.308146
 20
172.349872
 30
0.0
 11
100.908146
 21
172.349872
 31
0.0
  0
LINE
  5
1DC3
100
AcDbEntity
  8
ALPHA
100
AcDbLine
 10
100.908146
 20
171.449872
 30
0.0
 11
98.008146
 21
171.449872
 31
0.0
  0
LINE
  5
1DC4
100
AcDbEntity
  8
ALPHA
100
AcDbLine
 10
98.008146
 20
171.449872
 30
0.0
 11
98.008146
 21
170.659422
 31
0.0
  0
LINE
  5
1DC5
100
AcDbEntity
  8
ALPHA
100
AcDbLine
 10
93.408146
 20
163.149872
 30
0.0
 11
97.908146
 21
163.149872
 31
0.0
  0
LINE
  5
1DC6
100
AcDbEntity
  8
ALPHA
100
AcDbLine
 10
97.908146
 20
163.149872
 30
0.0
 11
97.908146
 21
161.649872
 31
0.0
  0
LINE
  5
1DC7
100
AcDbEntity
  8
ALPHA
100
AcDbLine
 10
94.708146
 20
161.649872
 30
0.0
 11
97.908146
 21
161.649872
 31
0.0
  0
LINE
  5
1DC8
100
AcDbEntity
  8
ALPHA
100
AcDbLine
 10
94.708146
 20
161.649872
 30
0.0
 11
94.708146
 21
160.440322
 31
0.0
  0
LINE
  5
1DC9
100
AcDbEntity
  8
ALPHA
100
AcDbLine
 10
98.008146
 20
160.440322
 30
0.0
 11
98.008146
 21
159.649872
 31
0.0
  0
LINE
  5
1DCA
100
AcDbEntity
  8
ALPHA
100
AcDbLine
 10
98.008146
 20
159.649872
 30
0.0
 11
100.908146
 21
159.649872
 31
0.0
  0
LINE
  5
1DCB
100
AcDbEntity
  8
ALPHA
100
AcDbLine
 10
100.908146
 20
159.549872
 30
0.0
 11
100.908146
 21
159.649872
 31
0.0
  0
LINE
  5
1DCC
100
AcDbEntity
  8
ALPHA
100
AcDbLine
 10
111.308146
 20
159.549872
 30
0.0
 11
111.308146
 21
159.649872
 31
0.0
  0
LINE
  5
1DCD
100
AcDbEntity
  8
ALPHA
100
AcDbLine
 10
114.008146
 20
159.649872
 30
0.0
 11
111.308146
 21
159.649872
 31
0.0
  0
LINE
  5
1DCE
100
AcDbEntity
  8
ALPHA
100
AcDbLine
 10
114.008146
 20
159.649872
 30
0.0
 11
114.008146
 21
164.049872
 31
0.0
  0
LINE
  5
1DCF
100
AcDbEntity
  8
ALPHA
100
AcDbLine
 10
114.008146
 20
164.049872
 30
0.0
 11
113.608146
 21
164.049872
 31
0.0
  0
LINE
  5
1DD0
100
AcDbEntity
  8
ALPHA
100
AcDbLine
 10
113.608146
 20
164.049872
 30
0.0
 11
113.608146
 21
167.049872
 31
0.0
  0
LINE
  5
1DD1
100
AcDbEntity
  8
ALPHA
100
AcDbLine
 10
113.608146
 20
167.049872
 30
0.0
 11
114.008146
 21
167.049872
 31
0.0
  0
LINE
  5
1DD2
100
AcDbEntity
  8
ALPHA
100
AcDbLine
 10
114.008146
 20
167.049872
 30
0.0
 11
114.008146
 21
171.449872
 31
0.0
  0
LINE
  5
1DD3
100
AcDbEntity
  8
ALPHA
100
AcDbLine
 10
114.008146
 20
171.449872
 30
0.0
 11
111.308146
 21
171.449872
 31
0.0
  0
LINE
  5
1DD4
100
AcDbEntity
  8
ALPHA
100
AcDbLine
 10
111.308146
 20
171.549872
 30
0.0
 11
111.308146
 21
171.449872
 31
0.0
  0
LINE
  5
1DD5
100
AcDbEntity
  8
ALPHA
100
AcDbLine
 10
100.908146
 20
171.549872
 30
0.0
 11
100.908146
 21
171.449872
 31
0.0
  0
LINE
  5
1DD6
100
AcDbEntity
  8
ALPHA
100
AcDbLine
 10
98.008146
 20
159.981434
 30
0.0
 11
94.708146
 21
159.981434
 31
0.0
  0
LWPOLYLINE
  5
1DD7
100
AcDbEntity
  8
ALPHA
100
AcDbPolyline
 90
        3
 70
     0
 43
0.0
 10
94.008146
 20
160.570406
 10
93.82243
 20
160.727566
 10
93.408146
 20
161.081861
  0
LINE
  5
1DDC
100
AcDbEntity
  8
ALPHA
100
AcDbLine
 10
94.018271
 20
160.561837
 30
0.0
 11
94.008146
 21
160.570406
 31
0.0
  0
LINE
  5
1DDD
100
AcDbEntity
  8
ALPHA
100
AcDbLine
 10
94.032411
 20
160.549872
 30
0.0
 11
94.018271
 21
160.561837
 31
0.0
  0
LWPOLYLINE
  5
1DDE
100
AcDbEntity
  8
ALPHA
100
AcDbPolyline
 90
        3
 70
     0
 43
0.0
 10
94.708146
 20
159.981434
 10
94.255733
 20
160.360887
 10
94.032411
 20
160.549872
  0
LINE
  5
1DE3
100
AcDbEntity
  8
ALPHA
100
AcDbLine
 10
93.408146
 20
162.703822
 30
0.0
 11
86.604556
 21
162.703822
 31
0.0
  0
LINE
  5
1DE4
100
AcDbEntity
  8
ALPHA
100
AcDbLine
 10
93.408146
 20
168.395922
 30
0.0
 11
86.604556
 21
168.395922
 31
0.0
  0
LWPOLYLINE
  5
1DE5
100
AcDbEntity
  8
ALPHA
100
AcDbPolyline
 90
        3
 70
     0
 43
0.0
 10
94.032411
 20
170.549872
 10
94.25511
 20
170.738332
 10
94.708146
 20
171.11831
  0
LINE
  5
1DEA
100
AcDbEntity
  8
ALPHA
100
AcDbLine
 10
94.018272
 20
170.537907
 30
0.0
 11
94.032411
 21
170.549872
 31
0.0
  0
LINE
  5
1DEB
100
AcDbEntity
  8
ALPHA
100
AcDbLine
 10
94.008146
 20
170.529338
 30
0.0
 11
94.018272
 21
170.537907
 31
0.0
  0
LWPOLYLINE
  5
1DEC
100
AcDbEntity
  8
ALPHA
100
AcDbPolyline
 90
        3
 70
     0
 43
0.0
 10
93.408146
 20
170.017884
 10
93.821826
 20
170.371664
 10
94.008146
 20
170.529338
  0
LINE
  5
1DF1
100
AcDbEntity
  8
ALPHA
100
AcDbLine
 10
98.008146
 20
171.11831
 30
0.0
 11
94.708146
 21
171.11831
 31
0.0
  0
LWPOLYLINE
  5
1DF2
100
AcDbEntity
  8
ALPHA
100
AcDbPolyline
 90
        4
 70
     0
 43
0.0
 10
94.872505
 20
171.943387
 10
94.733833
 20
171.930989
 10
94.599181
 20
171.894097
 10
94.472505
 20
171.833624
  0
LWPOLYLINE
  5
1DF8
100
AcDbEntity
  8
ALPHA
100
AcDbPolyline
 90
        3
 70
     0
 43
0.0
 10
96.04173
 20
159.409872
 10
96.04173
 20
159.450441
 10
96.04173
 20
159.571612
  0
LWPOLYLINE
  5
1DFD
100
AcDbEntity
  8
ALPHA
100
AcDbPolyline
 90
        3
 70
     0
 43
0.0
 10
93.956665
 20
171.689872
 10
93.956665
 20
171.649303
 10
93.956665
 20
171.528133
  0
LWPOLYLINE
  5
1E02
100
AcDbEntity
  8
ALPHA
100
AcDbPolyline
 90
        4
 70
     0
 43
0.0
 10
86.604556
 20
162.328269
 10
86.604556
 20
162.147124
 10
86.604556
 20
162.036891
 10
86.604556
 20
161.999872
  0
LWPOLYLINE
  5
1E08
100
AcDbEntity
  8
ALPHA
100
AcDbPolyline
 90
        3
 70
     0
 43
0.0
 10
93.956665
 20
159.571612
 10
93.956665
 20
159.450441
 10
93.956665
 20
159.409872
  0
LWPOLYLINE
  5
1E0D
100
AcDbEntity
  8
ALPHA
100
AcDbPolyline
 90
        3
 70
     0
 43
0.0
 10
94.508146
 20
159.727751
 10
94.508146
 20
159.643276
 10
94.508146
 20
159.571612
  0
LWPOLYLINE
  5
1E12
100
AcDbEntity
  8
ALPHA
100
AcDbPolyline
 90
        3
 70
     0
 43
0.0
 10
94.508146
 20
171.528133
 10
94.508146
 20
171.456469
 10
94.508146
 20
171.371994
  0
LWPOLYLINE
  5
1E17
100
AcDbEntity
  8
ALPHA
100
AcDbPolyline
 90
        4
 70
     0
 43
0.0
 10
93.956665
 20
171.528133
 10
94.126892
 20
171.629029
 10
94.298838
 20
171.730858
 10
94.472505
 20
171.833624
  0
LWPOLYLINE
  5
1E1D
100
AcDbEntity
  8
ALPHA
100
AcDbPolyline
 90
        4
 70
     0
 43
0.0
 10
93.208146
 20
161.081861
 10
93.613686
 20
160.654322
 10
94.046802
 20
160.203298
 10
94.508146
 20
159.727751
  0
LINE
  5
1E23
100
AcDbEntity
  8
ALPHA
100
AcDbLine
 10
97.808146
 20
159.727751
 30
0.0
 11
94.508146
 21
159.727751
 31
0.0
  0
LINE
  5
1E24
100
AcDbEntity
  8
ALPHA
100
AcDbLine
 10
93.956665
 20
171.528133
 30
0.0
 11
93.208146
 21
171.528133
 31
0.0
  0
LWPOLYLINE
  5
1E25
100
AcDbEntity
  8
ALPHA
100
AcDbPolyline
 90
        4
 70
     0
 43
0.0
 10
94.508146
 20
171.528133
 10
94.052439
 20
171.071721
 10
93.619205
 20
170.63569
 10
93.208146
 20
170.219522
  0
LWPOLYLINE
  5
1E2B
100
AcDbEntity
  8
ALPHA
100
AcDbPolyline
 90
        4
 70
     0
 43
0.0
 10
96.04173
 20
171.528133
 10
95.948512
 20
171.664785
 10
95.853985
 20
171.8032
 10
95.758146
 20
171.943387
  0
LINE
  5
1E31
100
AcDbEntity
  8
ALPHA
100
AcDbLine
 10
95.758146
 20
171.943387
 30
0.0
 11
94.872505
 21
171.943387
 31
0.0
  0
LINE
  5
1E32
100
AcDbEntity
  8
ALPHA
100
AcDbLine
 10
94.508146
 20
171.371994
 30
0.0
 11
97.808146
 21
171.371994
 31
0.0
  0
LWPOLYLINE
  5
1E33
100
AcDbEntity
  8
ALPHA
100
AcDbPolyline
 90
        4
 70
     0
 43
0.0
 10
94.508146
 20
171.371994
 10
94.046805
 20
170.896449
 10
93.613689
 20
170.445425
 10
93.208146
 20
170.017884
  0
LINE
  5
1E39
100
AcDbEntity
  8
ALPHA
100
AcDbLine
 10
86.258146
 20
168.671475
 30
0.0
 11
93.208146
 21
168.671475
 31
0.0
  0
LINE
  5
1E3A
100
AcDbEntity
  8
ALPHA
100
AcDbLine
 10
95.758146
 20
159.156358
 30
0.0
 11
94.872505
 21
159.156358
 31
0.0
  0
LWPOLYLINE
  5
1E3B
100
AcDbEntity
  8
ALPHA
100
AcDbPolyline
 90
        4
 70
     0
 43
0.0
 10
95.758146
 20
159.156358
 10
95.853972
 20
159.296526
 10
95.948499
 20
159.434941
 10
96.04173
 20
159.571612
  0
LINE
  5
1E41
100
AcDbEntity
  8
ALPHA
100
AcDbLine
 10
94.508146
 20
159.571612
 30
0.0
 11
96.04173
 21
159.571612
 31
0.0
  0
LWPOLYLINE
  5
1E42
100
AcDbEntity
  8
ALPHA
100
AcDbPolyline
 90
        4
 70
     0
 43
0.0
 10
93.208146
 20
160.880223
 10
93.619201
 20
160.464058
 10
94.052436
 20
160.028026
 10
94.508146
 20
159.571612
  0
LINE
  5
1E48
100
AcDbEntity
  8
ALPHA
100
AcDbLine
 10
93.956665
 20
159.571612
 30
0.0
 11
93.208146
 21
159.571612
 31
0.0
  0
LWPOLYLINE
  5
1E49
100
AcDbEntity
  8
ALPHA
100
AcDbPolyline
 90
        4
 70
     0
 43
0.0
 10
94.472505
 20
159.266121
 10
94.298856
 20
159.368876
 10
94.12691
 20
159.470705
 10
93.956665
 20
159.571612
  0
LWPOLYLINE
  5
1E4F
100
AcDbEntity
  8
ALPHA
100
AcDbPolyline
 90
        3
 70
     0
 43
0.0
 10
95.758146
 20
159.004872
 10
95.758146
 20
159.021764
 10
95.758146
 20
159.156358
  0
LWPOLYLINE
  5
1E54
100
AcDbEntity
  8
ALPHA
100
AcDbPolyline
 90
        3
 70
     0
 43
0.0
 10
94.472505
 20
171.987693
 10
94.472505
 20
171.94908
 10
94.472505
 20
171.833624
  0
LWPOLYLINE
  5
1E59
100
AcDbEntity
  8
ALPHA
100
AcDbPolyline
 90
        4
 70
     0
 43
0.0
 10
86.604556
 20
169.099872
 10
86.604556
 20
169.06287
 10
86.604556
 20
168.952639
 10
86.604556
 20
168.771475
  0
LINE
  5
1E5F
100
AcDbEntity
  8
ALPHA
100
AcDbLine
 10
86.258146
 20
162.428269
 30
0.0
 11
93.208146
 21
162.428269
 31
0.0
  0
LWPOLYLINE
  5
1E60
100
AcDbEntity
  8
ALPHA
100
AcDbPolyline
 90
        3
 70
     0
 43
0.0
 10
94.872505
 20
172.094872
 10
94.872505
 20
172.056911
 10
94.872505
 20
171.943387
  0
LWPOLYLINE
  5
1E65
100
AcDbEntity
  8
ALPHA
100
AcDbPolyline
 90
        3
 70
     0
 43
0.0
 10
95.758146
 20
171.943387
 10
95.758146
 20
172.077981
 10
95.758146
 20
172.094872
  0
LWPOLYLINE
  5
1E6A
100
AcDbEntity
  8
ALPHA
100
AcDbPolyline
 90
        4
 70
     0
 43
0.0
 10
94.472505
 20
159.266121
 10
94.599181
 20
159.205647
 10
94.733833
 20
159.168756
 10
94.872505
 20
159.156358
  0
LWPOLYLINE
  5
1E70
100
AcDbEntity
  8
ALPHA
100
AcDbPolyline
 90
        3
 70
     0
 43
0.0
 10
94.472505
 20
159.266121
 10
94.472505
 20
159.150664
 10
94.472505
 20
159.112052
  0
LWPOLYLINE
  5
1E75
100
AcDbEntity
  8
ALPHA
100
AcDbPolyline
 90
        3
 70
     0
 43
0.0
 10
96.04173
 20
171.528133
 10
96.04173
 20
171.649303
 10
96.04173
 20
171.689872
  0
LWPOLYLINE
  5
1E7A
100
AcDbEntity
  8
ALPHA
100
AcDbPolyline
 90
        3
 70
     0
 43
0.0
 10
94.872505
 20
159.156358
 10
94.872505
 20
159.042833
 10
94.872505
 20
159.004872
  0
LINE
  5
1E7F
100
AcDbEntity
  8
ALPHA
100
AcDbLine
 10
93.208146
 20
162.028509
 30
0.0
 11
89.208146
 21
162.028509
 31
0.0
  0
LINE
  5
1E80
100
AcDbEntity
  8
ALPHA
100
AcDbLine
 10
94.508146
 20
171.528133
 30
0.0
 11
96.04173
 21
171.528133
 31
0.0
  0
LINE
  5
1E81
100
AcDbEntity
  8
ALPHA
100
AcDbLine
 10
114.408146
 20
167.839872
 30
0.0
 11
114.408146
 21
167.549872
 31
0.0
  0
LINE
  5
1E82
100
AcDbEntity
  8
ALPHA
100
AcDbLine
 10
114.408146
 20
168.649872
 30
0.0
 11
114.408146
 21
168.339872
 31
0.0
  0
LINE
  5
1E83
100
AcDbEntity
  8
ALPHA
100
AcDbLine
 10
114.408146
 20
162.759872
 30
0.0
 11
114.408146
 21
162.449872
 31
0.0
  0
LINE
  5
1E84
100
AcDbEntity
  8
ALPHA
100
AcDbLine
 10
114.408146
 20
163.549872
 30
0.0
 11
114.408146
 21
163.259872
 31
0.0
  0
LINE
  5
1E85
100
AcDbEntity
  8
ALPHA
100
AcDbLine
 10
86.258146
 20
168.771475
 30
0.0
 11
93.208146
 21
168.771475
 31
0.0
  0
LINE
  5
1E86
100
AcDbEntity
  8
ALPHA
100
AcDbLine
 10
86.258146
 20
162.328269
 30
0.0
 11
93.208146
 21
162.328269
 31
0.0
  0
LINE
  5
1E87
100
AcDbEntity
  8
ALPHA
100
AcDbLine
 10
93.208146
 20
161.289872
 30
0.0
 11
89.208146
 21
161.289872
 31
0.0
  0
LINE
  5
1E88
100
AcDbEntity
  8
ALPHA
100
AcDbLine
 10
89.208146
 20
161.289872
 30
0.0
 11
89.208146
 21
162.028509
 31
0.0
  0
LINE
  5
1E89
100
AcDbEntity
  8
ALPHA
100
AcDbLine
 10
114.408146
 20
158.749872
 30
0.0
 11
111.308146
 21
158.749872
 31
0.0
  0
LINE
  5
1E8A
100
AcDbEntity
  8
ALPHA
100
AcDbLine
 10
114.408146
 20
162.449872
 30
0.0
 11
114.408146
 21
158.749872
 31
0.0
  0
LINE
  5
1E8B
100
AcDbEntity
  8
ALPHA
100
AcDbLine
 10
114.408146
 20
162.449872
 30
0.0
 11
114.008146
 21
162.449872
 31
0.0
  0
LINE
  5
1E8C
100
AcDbEntity
  8
ALPHA
100
AcDbLine
 10
113.608146
 20
159.649872
 30
0.0
 11
113.608146
 21
159.549872
 31
0.0
  0
LINE
  5
1E8D
100
AcDbEntity
  8
ALPHA
100
AcDbLine
 10
113.608146
 20
159.549872
 30
0.0
 11
111.308146
 21
159.549872
 31
0.0
  0
LINE
  5
1E8E
100
AcDbEntity
  8
ALPHA
100
AcDbLine
 10
100.908146
 20
159.549872
 30
0.0
 11
98.608146
 21
159.549872
 31
0.0
  0
LINE
  5
1E8F
100
AcDbEntity
  8
ALPHA
100
AcDbLine
 10
98.608146
 20
159.549872
 30
0.0
 11
98.608146
 21
159.649872
 31
0.0
  0
LINE
  5
1E90
100
AcDbEntity
  8
ALPHA
100
AcDbLine
 10
94.032411
 20
160.549872
 30
0.0
 11
94.008146
 21
160.549872
 31
0.0
  0
LINE
  5
1E91
100
AcDbEntity
  8
ALPHA
100
AcDbLine
 10
94.008146
 20
160.549872
 30
0.0
 11
94.008146
 21
160.570406
 31
0.0
  0
LINE
  5
1E92
100
AcDbEntity
  8
ALPHA
100
AcDbLine
 10
86.258146
 20
162.799872
 30
0.0
 11
86.468125
 21
162.799872
 31
0.0
  0
LINE
  5
1E93
100
AcDbEntity
  8
ALPHA
100
AcDbLine
 10
86.258146
 20
162.428269
 30
0.0
 11
86.258146
 21
162.799872
 31
0.0
  0
LINE
  5
1E94
100
AcDbEntity
  8
ALPHA
100
AcDbLine
 10
97.808146
 20
158.749872
 30
0.0
 11
97.808146
 21
159.727751
 31
0.0
  0
LINE
  5
1E95
100
AcDbEntity
  8
ALPHA
100
AcDbLine
 10
100.908146
 20
158.749872
 30
0.0
 11
97.808146
 21
158.749872
 31
0.0
  0
LINE
  5
1E96
100
AcDbEntity
  8
ALPHA
100
AcDbLine
 10
97.808146
 20
172.349872
 30
0.0
 11
100.908146
 21
172.349872
 31
0.0
  0
LINE
  5
1E97
100
AcDbEntity
  8
ALPHA
100
AcDbLine
 10
97.808146
 20
171.371994
 30
0.0
 11
97.808146
 21
172.349872
 31
0.0
  0
LINE
  5
1E98
100
AcDbEntity
  8
ALPHA
100
AcDbLine
 10
86.258146
 20
168.299872
 30
0.0
 11
86.258146
 21
168.671475
 31
0.0
  0
LINE
  5
1E99
100
AcDbEntity
  8
ALPHA
100
AcDbLine
 10
86.258146
 20
168.299872
 30
0.0
 11
86.468125
 21
168.299872
 31
0.0
  0
LINE
  5
1E9A
100
AcDbEntity
  8
ALPHA
100
AcDbLine
 10
94.008146
 20
170.529338
 30
0.0
 11
94.008146
 21
170.549872
 31
0.0
  0
LINE
  5
1E9B
100
AcDbEntity
  8
ALPHA
100
AcDbLine
 10
94.008146
 20
170.549872
 30
0.0
 11
94.032411
 21
170.549872
 31
0.0
  0
LINE
  5
1E9C
100
AcDbEntity
  8
ALPHA
100
AcDbLine
 10
98.608146
 20
171.449872
 30
0.0
 11
98.608146
 21
171.549872
 31
0.0
  0
LINE
  5
1E9D
100
AcDbEntity
  8
ALPHA
100
AcDbLine
 10
98.608146
 20
171.549872
 30
0.0
 11
100.908146
 21
171.549872
 31
0.0
  0
LINE
  5
1E9E
100
AcDbEntity
  8
ALPHA
100
AcDbLine
 10
111.308146
 20
171.549872
 30
0.0
 11
113.608146
 21
171.549872
 31
0.0
  0
LINE
  5
1E9F
100
AcDbEntity
  8
ALPHA
100
AcDbLine
 10
113.608146
 20
171.549872
 30
0.0
 11
113.608146
 21
171.449872
 31
0.0
  0
LINE
  5
1EA0
100
AcDbEntity
  8
ALPHA
100
AcDbLine
 10
114.408146
 20
168.649872
 30
0.0
 11
114.008146
 21
168.649872
 31
0.0
  0
LINE
  5
1EA1
100
AcDbEntity
  8
ALPHA
100
AcDbLine
 10
114.408146
 20
172.349872
 30
0.0
 11
114.408146
 21
168.649872
 31
0.0
  0
LINE
  5
1EA2
100
AcDbEntity
  8
ALPHA
100
AcDbLine
 10
111.308146
 20
172.349872
 30
0.0
 11
114.408146
 21
172.349872
 31
0.0
  0
LINE
  5
1EA3
100
AcDbEntity
  8
ALPHA
100
AcDbLine
 10
114.408146
 20
163.549872
 30
0.0
 11
114.008146
 21
163.549872
 31
0.0
  0
LINE
  5
1EA4
100
AcDbEntity
  8
ALPHA
100
AcDbLine
 10
114.408146
 20
167.549872
 30
0.0
 11
114.408146
 21
163.549872
 31
0.0
  0
LINE
  5
1EA5
100
AcDbEntity
  8
ALPHA
100
AcDbLine
 10
114.408146
 20
167.549872
 30
0.0
 11
114.008146
 21
167.549872
 31
0.0
  0
LINE
  5
1EA6
100
AcDbEntity
  8
ALPHA
100
AcDbLine
 10
86.258146
 20
168.771475
 30
0.0
 11
86.258146
 21
168.899872
 31
0.0
  0
LINE
  5
1EA7
100
AcDbEntity
  8
ALPHA
100
AcDbLine
 10
93.208146
 20
160.880223
 30
0.0
 11
93.208146
 21
161.081861
 31
0.0
  0
LINE
  5
1EA8
100
AcDbEntity
  8
ALPHA
100
AcDbLine
 10
93.208146
 20
170.017884
 30
0.0
 11
93.208146
 21
170.219522
 31
0.0
  0
LINE
  5
1EA9
100
AcDbEntity
  8
ALPHA
100
AcDbLine
 10
93.208146
 20
171.528133
 30
0.0
 11
93.208146
 21
171.689872
 31
0.0
  0
LINE
  5
1EAA
100
AcDbEntity
  8
ALPHA
100
AcDbLine
 10
93.208146
 20
170.017884
 30
0.0
 11
93.208146
 21
168.671475
 31
0.0
  0
LINE
  5
1EAB
100
AcDbEntity
  8
ALPHA
100
AcDbLine
 10
93.208146
 20
171.528133
 30
0.0
 11
93.208146
 21
170.219522
 31
0.0
  0
LINE
  5
1EAC
100
AcDbEntity
  8
ALPHA
100
AcDbLine
 10
86.258146
 20
162.799872
 30
0.0
 11
86.258146
 21
162.869872
 31
0.0
  0
LINE
  5
1EAD
100
AcDbEntity
  8
ALPHA
100
AcDbLine
 10
86.258146
 20
168.229872
 30
0.0
 11
86.258146
 21
168.299872
 31
0.0
  0
LINE
  5
1EAE
100
AcDbEntity
  8
ALPHA
100
AcDbLine
 10
93.208146
 20
160.880223
 30
0.0
 11
93.208146
 21
159.571612
 31
0.0
  0
LINE
  5
1EAF
100
AcDbEntity
  8
ALPHA
100
AcDbLine
 10
93.208146
 20
162.428269
 30
0.0
 11
93.208146
 21
161.081861
 31
0.0
  0
LINE
  5
1EB0
100
AcDbEntity
  8
ALPHA
100
AcDbLine
 10
89.208146
 20
161.999872
 30
0.0
 11
86.604556
 21
161.999872
 31
0.0
  0
LINE
  5
1EB1
100
AcDbEntity
  8
ALPHA
100
AcDbLine
 10
93.208146
 20
169.099872
 30
0.0
 11
86.604556
 21
169.099872
 31
0.0
  0
LINE
  5
1EB2
100
AcDbEntity
  8
ALPHA
100
AcDbLine
 10
97.808146
 20
159.409872
 30
0.0
 11
96.04173
 21
159.409872
 31
0.0
  0
LINE
  5
1EB3
100
AcDbEntity
  8
ALPHA
100
AcDbLine
 10
93.956665
 20
159.409872
 30
0.0
 11
93.208146
 21
159.409872
 31
0.0
  0
LINE
  5
1EB4
100
AcDbEntity
  8
ALPHA
100
AcDbLine
 10
93.208146
 20
159.409872
 30
0.0
 11
93.208146
 21
159.571612
 31
0.0
  0
LINE
  5
1EB5
100
AcDbEntity
  8
ALPHA
100
AcDbLine
 10
97.808146
 20
171.689872
 30
0.0
 11
96.04173
 21
171.689872
 31
0.0
  0
LINE
  5
1EB6
100
AcDbEntity
  8
ALPHA
100
AcDbLine
 10
93.956665
 20
171.689872
 30
0.0
 11
93.208146
 21
171.689872
 31
0.0
  0
LINE
  5
1EB7
100
AcDbEntity
  8
ALPHA
100
AcDbLine
 10
94.472505
 20
159.112052
 30
0.0
 11
93.956665
 21
159.409872
 31
0.0
  0
LINE
  5
1EB8
100
AcDbEntity
  8
ALPHA
100
AcDbLine
 10
94.472505
 20
171.987693
 30
0.0
 11
93.956665
 21
171.689872
 31
0.0
  0
LINE
  5
1EB9
100
AcDbEntity
  8
ALPHA
100
AcDbLine
 10
95.758146
 20
159.004872
 30
0.0
 11
94.872505
 21
159.004872
 31
0.0
  0
LINE
  5
1EBA
100
AcDbEntity
  8
ALPHA
100
AcDbLine
 10
95.758146
 20
172.094872
 30
0.0
 11
94.872505
 21
172.094872
 31
0.0
  0
LINE
  5
1EBB
100
AcDbEntity
  8
ALPHA
100
AcDbLine
 10
95.829321
 20
159.106521
 30
0.0
 11
95.758146
 21
159.004872
 31
0.0
  0
LINE
  5
1EBC
100
AcDbEntity
  8
ALPHA
100
AcDbLine
 10
96.04173
 20
159.409872
 30
0.0
 11
95.829321
 21
159.106521
 31
0.0
  0
LINE
  5
1EBD
100
AcDbEntity
  8
ALPHA
100
AcDbLine
 10
96.04173
 20
171.689872
 30
0.0
 11
95.758146
 21
172.094872
 31
0.0
  0
LINE
  5
1EBE
100
AcDbEntity
  8
ALPHA
100
AcDbLine
 10
86.604556
 20
161.999872
 30
0.0
 11
86.258146
 21
162.199872
 31
0.0
  0
LINE
  5
1EBF
100
AcDbEntity
  8
ALPHA
100
AcDbLine
 10
86.258146
 20
162.199872
 30
0.0
 11
86.258146
 21
162.328269
 31
0.0
  0
LINE
  5
1EC0
100
AcDbEntity
  8
ALPHA
100
AcDbLine
 10
86.604556
 20
169.099872
 30
0.0
 11
86.258146
 21
168.899872
 31
0.0
  0
ARC
  5
1EC1
100
AcDbEntity
  8
ALPHA
100
AcDbCircle
 10
94.872505
 20
171.294872
 30
0.0
 40
0.8
100
AcDbArc
 50
90.0
 51
120.0
  0
LINE
  5
1EC2
100
AcDbEntity
  8
ALPHA
100
AcDbLine
 10
86.258146
 20
162.428269
 30
0.0
 11
86.258146
 21
162.328269
 31
0.0
  0
ARC
  5
1EC3
100
AcDbEntity
  8
ALPHA
100
AcDbCircle
 10
94.872505
 20
159.804872
 30
0.0
 40
0.8
100
AcDbArc
 50
240.0
 51
270.0
  0
LINE
  5
1EC4
100
AcDbEntity
  8
ALPHA
100
AcDbLine
 10
86.258146
 20
168.771475
 30
0.0
 11
93.208146
 21
168.771475
 31
0.0
  0
LINE
  5
1EC5
100
AcDbEntity
  8
ALPHA
100
AcDbLine
 10
86.258146
 20
168.771475
 30
0.0
 11
86.258146
 21
168.671475
 31
0.0
  0
LINE
  5
1EC6
100
AcDbEntity
  8
ALPHA
100
AcDbLine
 10
85.251624
 20
167.949872
 30
0.0
 11
84.558146
 21
167.949872
 31
0.0
  0
LINE
  5
1EC7
100
AcDbEntity
  8
ALPHA
100
AcDbLine
 10
84.558146
 20
167.949872
 30
0.0
 11
84.558146
 21
167.799872
 31
0.0
  0
LINE
  5
1EC8
100
AcDbEntity
  8
ALPHA
100
AcDbLine
 10
75.673878
 20
166.699872
 30
0.0
 11
74.408146
 21
166.699872
 31
0.0
  0
LINE
  5
1EC9
100
AcDbEntity
  8
ALPHA
100
AcDbLine
 10
73.108146
 20
165.949872
 30
0.0
 11
74.408146
 21
166.699872
 31
0.0
  0
LINE
  5
1ECA
100
AcDbEntity
  8
ALPHA
100
AcDbLine
 10
81.458146
 20
163.149872
 30
0.0
 11
85.251624
 21
163.149872
 31
0.0
  0
LINE
  5
1ECB
100
AcDbEntity
  8
ALPHA
100
AcDbLine
 10
81.308146
 20
163.299872
 30
0.0
 11
81.458146
 21
163.149872
 31
0.0
  0
LINE
  5
1ECC
100
AcDbEntity
  8
ALPHA
100
AcDbLine
 10
74.408146
 20
164.199872
 30
0.0
 11
75.655866
 21
164.199872
 31
0.0
  0
LINE
  5
1ECD
100
AcDbEntity
  8
ALPHA
100
AcDbLine
 10
74.408146
 20
164.199872
 30
0.0
 11
73.108146
 21
164.949872
 31
0.0
  0
LINE
  5
1ECE
100
AcDbEntity
  8
ALPHA
100
AcDbLine
 10
73.108146
 20
165.949872
 30
0.0
 11
73.108146
 21
164.949872
 31
0.0
  0
LINE
  5
1ECF
100
AcDbEntity
  8
ALPHA
100
AcDbLine
 10
78.758146
 20
166.199872
 30
0.0
 11
78.758146
 21
164.899872
 31
0.0
  0
LINE
  5
1ED0
100
AcDbEntity
  8
ALPHA
100
AcDbLine
 10
78.758146
 20
166.199872
 30
0.0
 11
79.158146
 21
166.199872
 31
0.0
  0
LINE
  5
1ED1
100
AcDbEntity
  8
ALPHA
100
AcDbLine
 10
78.458146
 20
166.199872
 30
0.0
 11
78.758146
 21
166.199872
 31
0.0
  0
LINE
  5
1ED2
100
AcDbEntity
  8
ALPHA
100
AcDbLine
 10
78.458146
 20
164.899872
 30
0.0
 11
78.758146
 21
164.899872
 31
0.0
  0
LWPOLYLINE
  5
1ED3
100
AcDbEntity
  8
ALPHA
100
AcDbPolyline
 90
       18
 70
     0
 43
0.0
 10
85.058146
 20
166.199872
 10
85.0766
 20
166.199872
 10
85.094896
 20
166.199872
 10
85.112879
 20
166.199872
 10
85.130394
 20
166.199872
 10
85.147294
 20
166.199872
 10
85.163432
 20
166.199872
 10
85.178673
 20
166.199872
 10
85.192885
 20
166.199872
 10
85.205948
 20
166.199872
 10
85.217749
 20
166.199872
 10
85.228189
 20
166.199872
 10
85.237179
 20
166.199872
 10
85.24464
 20
166.199872
 10
85.250511
 20
166.199872
 10
85.254741
 20
166.199872
 10
85.257293
 20
166.199872
 10
85.258146
 20
166.199872
  0
LWPOLYLINE
  5
1EE7
100
AcDbEntity
  8
ALPHA
100
AcDbPolyline
 90
        4
 70
     0
 43
0.0
 10
75.422403
 20
164.049872
 10
75.423375
 20
164.0481
 10
75.424355
 20
164.046955
 10
75.425338
 20
164.046442
  0
LWPOLYLINE
  5
1EED
100
AcDbEntity
  8
ALPHA
100
AcDbPolyline
 90
       30
 70
     0
 43
0.0
 10
78.458146
 20
166.199872
 10
78.458146
 20
166.286494
 10
78.458146
 20
166.372863
 10
78.458146
 20
166.458723
 10
78.458146
 20
166.543825
 10
78.458146
 20
166.627918
 10
78.458146
 20
166.710755
 10
78.458146
 20
166.792093
 10
78.458146
 20
166.871695
 10
78.458146
 20
166.949326
 10
78.458146
 20
167.024758
 10
78.458146
 20
167.097772
 10
78.458146
 20
167.168151
 10
78.458146
 20
167.23569
 10
78.458146
 20
167.300191
 10
78.458146
 20
167.361465
 10
78.458146
 20
167.419332
 10
78.458146
 20
167.473621
 10
78.458146
 20
167.524175
 10
78.458146
 20
167.570844
 10
78.458146
 20
167.613492
 10
78.458146
 20
167.651993
 10
78.458146
 20
167.686235
 10
78.458146
 20
167.716117
 10
78.458146
 20
167.741552
 10
78.458146
 20
167.762465
 10
78.458146
 20
167.778795
 10
78.458146
 20
167.790493
 10
78.458146
 20
167.797526
 10
78.458146
 20
167.799872
  0
LINE
  5
1F0D
100
AcDbEntity
  8
ALPHA
100
AcDbLine
 10
78.758146
 20
164.899872
 30
0.0
 11
79.158146
 21
164.899872
 31
0.0
  0
LWPOLYLINE
  5
1F0E
100
AcDbEntity
  8
ALPHA
100
AcDbPolyline
 90
       27
 70
     0
 43
0.0
 10
78.758146
 20
164.899872
 10
78.758146
 20
164.82138
 10
78.758146
 20
164.743175
 10
78.758146
 20
164.665541
 10
78.758146
 20
164.588762
 10
78.758146
 20
164.513118
 10
78.758146
 20
164.438886
 10
78.758146
 20
164.366336
 10
78.758146
 20
164.295732
 10
78.758146
 20
164.227333
 10
78.758146
 20
164.161388
 10
78.758146
 20
164.098138
 10
78.758146
 20
164.037813
 10
78.758146
 20
163.980633
 10
78.758146
 20
163.926808
 10
78.758146
 20
163.876534
 10
78.758146
 20
163.829993
 10
78.758146
 20
163.787357
 10
78.758146
 20
163.748779
 10
78.758146
 20
163.714402
 10
78.758146
 20
163.684351
 10
78.758146
 20
163.658735
 10
78.758146
 20
163.637648
 10
78.758146
 20
163.621166
 10
78.758146
 20
163.609351
 10
78.758146
 20
163.602244
 10
78.758146
 20
163.599872
  0
LWPOLYLINE
  5
1F2B
100
AcDbEntity
  8
ALPHA
100
AcDbPolyline
 90
       27
 70
     0
 43
0.0
 10
78.758146
 20
167.499872
 10
78.758146
 20
167.4975
 10
78.758146
 20
167.490394
 10
78.758146
 20
167.478578
 10
78.758146
 20
167.462097
 10
78.758146
 20
167.441009
 10
78.758146
 20
167.415393
 10
78.758146
 20
167.385342
 10
78.758146
 20
167.350965
 10
78.758146
 20
167.312388
 10
78.758146
 20
167.269751
 10
78.758146
 20
167.223211
 10
78.758146
 20
167.172936
 10
78.758146
 20
167.119111
 10
78.758146
 20
167.061932
 10
78.758146
 20
167.001607
 10
78.758146
 20
166.938356
 10
78.758146
 20
166.872411
 10
78.758146
 20
166.804012
 10
78.758146
 20
166.733409
 10
78.758146
 20
166.660859
 10
78.758146
 20
166.586626
 10
78.758146
 20
166.510983
 10
78.758146
 20
166.434204
 10
78.758146
 20
166.35657
 10
78.758146
 20
166.278364
 10
78.758146
 20
166.199872
  0
LINE
  5
1F48
100
AcDbEntity
  8
ALPHA
100
AcDbLine
 10
75.425338
 20
164.046442
 30
0.0
 11
73.608146
 21
164.046442
 31
0.0
  0
ARC
  5
1F49
100
AcDbEntity
  8
ALPHA
100
AcDbCircle
 10
73.608146
 20
164.899872
 30
0.0
 40
0.653461
100
AcDbArc
 50
180.0
 51
270.0
  0
LWPOLYLINE
  5
1F4A
100
AcDbEntity
  8
ALPHA
100
AcDbPolyline
 90
       30
 70
     0
 43
0.0
 10
77.358146
 20
166.199872
 10
77.358146
 20
166.286494
 10
77.358146
 20
166.372863
 10
77.358146
 20
166.458723
 10
77.358146
 20
166.543825
 10
77.358146
 20
166.627918
 10
77.358146
 20
166.710755
 10
77.358146
 20
166.792093
 10
77.358146
 20
166.871695
 10
77.358146
 20
166.949326
 10
77.358146
 20
167.024758
 10
77.358146
 20
167.097772
 10
77.358146
 20
167.168151
 10
77.358146
 20
167.23569
 10
77.358146
 20
167.300191
 10
77.358146
 20
167.361465
 10
77.358146
 20
167.419332
 10
77.358146
 20
167.473621
 10
77.358146
 20
167.524175
 10
77.358146
 20
167.570844
 10
77.358146
 20
167.613492
 10
77.358146
 20
167.651993
 10
77.358146
 20
167.686235
 10
77.358146
 20
167.716117
 10
77.358146
 20
167.741552
 10
77.358146
 20
167.762465
 10
77.358146
 20
167.778795
 10
77.358146
 20
167.790493
 10
77.358146
 20
167.797526
 10
77.358146
 20
167.799872
  0
LWPOLYLINE
  5
1F6A
100
AcDbEntity
  8
ALPHA
100
AcDbPolyline
 90
       18
 70
     0
 43
0.0
 10
73.608146
 20
164.246412
 10
73.608146
 20
164.228162
 10
73.608146
 20
164.210066
 10
73.608146
 20
164.192272
 10
73.608146
 20
164.17493
 10
73.608146
 20
164.158184
 10
73.608146
 20
164.142175
 10
73.608146
 20
164.127035
 10
73.608146
 20
164.112891
 10
73.608146
 20
164.099861
 10
73.608146
 20
164.088054
 10
73.608146
 20
164.077568
 10
73.608146
 20
164.068491
 10
73.608146
 20
164.060898
 10
73.608146
 20
164.054853
 10
73.608146
 20
164.050406
 10
73.608146
 20
164.047595
 10
73.608146
 20
164.046442
  0
ARC
  5
1F7E
100
AcDbEntity
  8
ALPHA
100
AcDbCircle
 10
73.608146
 20
164.899872
 30
0.0
 40
0.85343
100
AcDbArc
 50
180.0
 51
270.0
  0
LINE
  5
1F7F
100
AcDbEntity
  8
ALPHA
100
AcDbLine
 10
72.954685
 20
164.899872
 30
0.0
 11
72.954685
 21
166.199872
 31
0.0
  0
LINE
  5
1F80
100
AcDbEntity
  8
ALPHA
100
AcDbLine
 10
77.358146
 20
166.199872
 30
0.0
 11
77.658146
 21
166.199872
 31
0.0
  0
LINE
  5
1F81
100
AcDbEntity
  8
ALPHA
100
AcDbLine
 10
77.658146
 20
166.199872
 30
0.0
 11
78.058146
 21
166.199872
 31
0.0
  0
LINE
  5
1F82
100
AcDbEntity
  8
ALPHA
100
AcDbLine
 10
77.658146
 20
166.199872
 30
0.0
 11
77.658146
 21
164.899872
 31
0.0
  0
LINE
  5
1F83
100
AcDbEntity
  8
ALPHA
100
AcDbLine
 10
77.358146
 20
164.899872
 30
0.0
 11
77.658146
 21
164.899872
 31
0.0
  0
LINE
  5
1F84
100
AcDbEntity
  8
ALPHA
100
AcDbLine
 10
77.658146
 20
164.899872
 30
0.0
 11
78.058146
 21
164.899872
 31
0.0
  0
LWPOLYLINE
  5
1F85
100
AcDbEntity
  8
ALPHA
100
AcDbPolyline
 90
       27
 70
     0
 43
0.0
 10
77.658146
 20
164.899872
 10
77.658146
 20
164.82138
 10
77.658146
 20
164.743175
 10
77.658146
 20
164.665541
 10
77.658146
 20
164.588762
 10
77.658146
 20
164.513118
 10
77.658146
 20
164.438886
 10
77.658146
 20
164.366336
 10
77.658146
 20
164.295732
 10
77.658146
 20
164.227333
 10
77.658146
 20
164.161388
 10
77.658146
 20
164.098138
 10
77.658146
 20
164.037813
 10
77.658146
 20
163.980633
 10
77.658146
 20
163.926808
 10
77.658146
 20
163.876534
 10
77.658146
 20
163.829993
 10
77.658146
 20
163.787357
 10
77.658146
 20
163.748779
 10
77.658146
 20
163.714402
 10
77.658146
 20
163.684351
 10
77.658146
 20
163.658735
 10
77.658146
 20
163.637648
 10
77.658146
 20
163.621166
 10
77.658146
 20
163.609351
 10
77.658146
 20
163.602244
 10
77.658146
 20
163.599872
  0
LWPOLYLINE
  5
1FA2
100
AcDbEntity
  8
ALPHA
100
AcDbPolyline
 90
       18
 70
     0
 43
0.0
 10
72.954685
 20
164.899872
 10
72.936436
 20
164.899872
 10
72.918339
 20
164.899872
 10
72.900546
 20
164.899872
 10
72.883204
 20
164.899872
 10
72.866458
 20
164.899872
 10
72.850448
 20
164.899872
 10
72.835309
 20
164.899872
 10
72.821165
 20
164.899872
 10
72.808135
 20
164.899872
 10
72.796328
 20
164.899872
 10
72.785842
 20
164.899872
 10
72.776765
 20
164.899872
 10
72.769172
 20
164.899872
 10
72.763127
 20
164.899872
 10
72.75868
 20
164.899872
 10
72.755869
 20
164.899872
 10
72.754716
 20
164.899872
  0
LINE
  5
1FB6
100
AcDbEntity
  8
ALPHA
100
AcDbLine
 10
75.548128
 20
167.0778
 30
0.0
 11
75.548128
 21
167.799872
 31
0.0
  0
LINE
  5
1FB7
100
AcDbEntity
  8
ALPHA
100
AcDbLine
 10
72.754716
 20
164.899872
 30
0.0
 11
72.754716
 21
166.199872
 31
0.0
  0
ARC
  5
1FB8
100
AcDbEntity
  8
ALPHA
100
AcDbCircle
 10
73.608146
 20
166.199872
 30
0.0
 40
0.653461
100
AcDbArc
 50
90.0
 51
180.0
  0
LINE
  5
1FB9
100
AcDbEntity
  8
ALPHA
100
AcDbLine
 10
75.548128
 20
163.299872
 30
0.0
 11
75.548128
 21
164.021944
 31
0.0
  0
LINE
  5
1FBA
100
AcDbEntity
  8
ALPHA
100
AcDbLine
 10
75.548128
 20
164.021944
 30
0.0
 11
73.608146
 21
164.021944
 31
0.0
  0
ARC
  5
1FBB
100
AcDbEntity
  8
ALPHA
100
AcDbCircle
 10
73.608146
 20
164.899872
 30
0.0
 40
0.877928
100
AcDbArc
 50
180.0
 51
270.0
  0
LINE
  5
1FBC
100
AcDbEntity
  8
ALPHA
100
AcDbLine
 10
72.730218
 20
166.199872
 30
0.0
 11
72.730218
 21
164.899872
 31
0.0
  0
ARC
  5
1FBD
100
AcDbEntity
  8
ALPHA
100
AcDbCircle
 10
73.608146
 20
166.199872
 30
0.0
 40
0.877928
100
AcDbArc
 50
90.0
 51
180.0
  0
LINE
  5
1FBE
100
AcDbEntity
  8
ALPHA
100
AcDbLine
 10
75.548128
 20
167.0778
 30
0.0
 11
73.608146
 21
167.0778
 31
0.0
  0
LWPOLYLINE
  5
1FBF
100
AcDbEntity
  8
ALPHA
100
AcDbPolyline
 90
       12
 70
     0
 43
0.0
 10
85.058146
 20
167.049872
 10
85.058146
 20
166.999791
 10
85.058146
 20
166.926157
 10
85.058146
 20
166.850525
 10
85.058146
 20
166.773107
 10
85.058146
 20
166.694138
 10
85.058146
 20
166.613823
 10
85.058146
 20
166.532335
 10
85.058146
 20
166.449889
 10
85.058146
 20
166.366788
 10
85.058146
 20
166.283343
 10
85.058146
 20
166.199872
  0
LWPOLYLINE
  5
1FCD
100
AcDbEntity
  8
ALPHA
100
AcDbPolyline
 90
       21
 70
     0
 43
0.0
 10
85.058146
 20
167.799872
 10
85.058146
 20
167.797693
 10
85.058146
 20
167.791142
 10
85.058146
 20
167.780218
 10
85.058146
 20
167.76495
 10
85.058146
 20
167.745396
 10
85.058146
 20
167.721615
 10
85.058146
 20
167.69366
 10
85.058146
 20
167.661601
 10
85.058146
 20
167.625534
 10
85.058146
 20
167.58556
 10
85.058146
 20
167.541788
 10
85.058146
 20
167.494334
 10
85.058146
 20
167.44333
 10
85.058146
 20
167.388917
 10
85.058146
 20
167.331243
 10
85.058146
 20
167.270467
 10
85.058146
 20
167.206755
 10
85.058146
 20
167.140281
 10
85.058146
 20
167.071229
 10
85.058146
 20
167.049872
  0
LWPOLYLINE
  5
1FE4
100
AcDbEntity
  8
ALPHA
100
AcDbPolyline
 90
       27
 70
     0
 43
0.0
 10
76.558146
 20
167.499872
 10
76.558146
 20
167.4975
 10
76.558146
 20
167.490394
 10
76.558146
 20
167.478578
 10
76.558146
 20
167.462097
 10
76.558146
 20
167.441009
 10
76.558146
 20
167.415393
 10
76.558146
 20
167.385342
 10
76.558146
 20
167.350965
 10
76.558146
 20
167.312388
 10
76.558146
 20
167.269751
 10
76.558146
 20
167.223211
 10
76.558146
 20
167.172936
 10
76.558146
 20
167.119111
 10
76.558146
 20
167.061932
 10
76.558146
 20
167.001607
 10
76.558146
 20
166.938356
 10
76.558146
 20
166.872411
 10
76.558146
 20
166.804012
 10
76.558146
 20
166.733409
 10
76.558146
 20
166.660859
 10
76.558146
 20
166.586626
 10
76.558146
 20
166.510983
 10
76.558146
 20
166.434204
 10
76.558146
 20
166.35657
 10
76.558146
 20
166.278364
 10
76.558146
 20
166.199872
  0
LWPOLYLINE
  5
2001
100
AcDbEntity
  8
ALPHA
100
AcDbPolyline
 90
       30
 70
     0
 43
0.0
 10
76.258146
 20
166.199872
 10
76.258146
 20
166.286494
 10
76.258146
 20
166.372863
 10
76.258146
 20
166.458723
 10
76.258146
 20
166.543825
 10
76.258146
 20
166.627918
 10
76.258146
 20
166.710755
 10
76.258146
 20
166.792093
 10
76.258146
 20
166.871695
 10
76.258146
 20
166.949326
 10
76.258146
 20
167.024758
 10
76.258146
 20
167.097772
 10
76.258146
 20
167.168151
 10
76.258146
 20
167.23569
 10
76.258146
 20
167.300191
 10
76.258146
 20
167.361465
 10
76.258146
 20
167.419332
 10
76.258146
 20
167.473621
 10
76.258146
 20
167.524175
 10
76.258146
 20
167.570844
 10
76.258146
 20
167.613492
 10
76.258146
 20
167.651993
 10
76.258146
 20
167.686235
 10
76.258146
 20
167.716117
 10
76.258146
 20
167.741552
 10
76.258146
 20
167.762465
 10
76.258146
 20
167.778795
 10
76.258146
 20
167.790493
 10
76.258146
 20
167.797526
 10
76.258146
 20
167.799872
  0
LINE
  5
2021
100
AcDbEntity
  8
ALPHA
100
AcDbLine
 10
85.058146
 20
166.199872
 30
0.0
 11
79.158146
 21
166.199872
 31
0.0
  0
LINE
  5
2022
100
AcDbEntity
  8
ALPHA
100
AcDbLine
 10
75.548128
 20
164.021944
 30
0.0
 11
75.425338
 21
164.046442
 31
0.0
  0
LWPOLYLINE
  5
2023
100
AcDbEntity
  8
ALPHA
100
AcDbPolyline
 90
       30
 70
     0
 43
0.0
 10
75.753726
 20
164.899872
 10
75.753522
 20
164.813455
 10
75.752909
 20
164.727282
 10
75.751891
 20
164.641618
 10
75.750468
 20
164.556688
 10
75.748647
 20
164.472768
 10
75.74643
 20
164.390065
 10
75.743826
 20
164.308862
 10
75.740841
 20
164.229347
 10
75.737484
 20
164.151805
 10
75.733764
 20
164.076407
 10
75.729692
 20
164.003431
 10
75.725279
 20
163.933034
 10
75.720539
 20
163.865481
 10
75.715483
 20
163.800916
 10
75.71013
 20
163.739583
 10
75.70449
 20
163.681614
 10
75.698585
 20
163.62723
 10
75.692427
 20
163.576551
 10
75.686038
 20
163.529766
 10
75.679433
 20
163.486983
 10
75.672636
 20
163.44836
 10
75.665662
 20
163.413989
 10
75.658536
 20
163.383994
 10
75.651275
 20
163.358452
 10
75.643904
 20
163.337451
 10
75.636443
 20
163.321047
 10
75.628915
 20
163.309296
 10
75.621341
 20
163.30223
 10
75.613744
 20
163.299872
  0
LWPOLYLINE
  5
2043
100
AcDbEntity
  8
ALPHA
100
AcDbPolyline
 90
       30
 70
     0
 43
0.0
 10
75.613744
 20
167.799872
 10
75.621341
 20
167.797515
 10
75.628915
 20
167.790449
 10
75.636443
 20
167.778697
 10
75.643904
 20
167.762294
 10
75.651275
 20
167.741292
 10
75.658536
 20
167.71575
 10
75.665662
 20
167.685756
 10
75.672636
 20
167.651385
 10
75.679433
 20
167.612762
 10
75.686038
 20
167.569979
 10
75.692427
 20
167.523194
 10
75.698585
 20
167.472514
 10
75.70449
 20
167.41813
 10
75.71013
 20
167.360162
 10
75.715483
 20
167.298829
 10
75.720539
 20
167.234264
 10
75.725279
 20
167.16671
 10
75.729692
 20
167.096313
 10
75.733764
 20
167.023337
 10
75.737484
 20
166.947939
 10
75.740841
 20
166.870397
 10
75.743826
 20
166.790882
 10
75.74643
 20
166.70968
 10
75.748647
 20
166.626976
 10
75.750468
 20
166.543057
 10
75.751891
 20
166.458126
 10
75.752909
 20
166.372463
 10
75.753522
 20
166.28629
 10
75.753726
 20
166.199872
  0
LINE
  5
2063
100
AcDbEntity
  8
ALPHA
100
AcDbLine
 10
75.548128
 20
167.0778
 30
0.0
 11
75.425338
 21
167.053302
 31
0.0
  0
LINE
  5
2064
100
AcDbEntity
  8
ALPHA
100
AcDbLine
 10
75.753726
 20
166.199872
 30
0.0
 11
75.753726
 21
164.899872
 31
0.0
  0
LWPOLYLINE
  5
2065
100
AcDbEntity
  8
ALPHA
100
AcDbPolyline
 90
       18
 70
     0
 43
0.0
 10
72.954685
 20
166.199872
 10
72.936436
 20
166.199872
 10
72.918339
 20
166.199872
 10
72.900546
 20
166.199872
 10
72.883204
 20
166.199872
 10
72.866458
 20
166.199872
 10
72.850448
 20
166.199872
 10
72.835309
 20
166.199872
 10
72.821165
 20
166.199872
 10
72.808135
 20
166.199872
 10
72.796328
 20
166.199872
 10
72.785842
 20
166.199872
 10
72.776765
 20
166.199872
 10
72.769172
 20
166.199872
 10
72.763127
 20
166.199872
 10
72.75868
 20
166.199872
 10
72.755869
 20
166.199872
 10
72.754716
 20
166.199872
  0
LINE
  5
2079
100
AcDbEntity
  8
ALPHA
100
AcDbLine
 10
85.058146
 20
164.899872
 30
0.0
 11
79.158146
 21
164.899872
 31
0.0
  0
LINE
  5
207A
100
AcDbEntity
  8
ALPHA
100
AcDbLine
 10
86.171543
 20
166.842619
 30
0.0
 11
85.258146
 21
166.842619
 31
0.0
  0
LINE
  5
207B
100
AcDbEntity
  8
ALPHA
100
AcDbLine
 10
76.258146
 20
166.199872
 30
0.0
 11
76.558146
 21
166.199872
 31
0.0
  0
LINE
  5
207C
100
AcDbEntity
  8
ALPHA
100
AcDbLine
 10
76.558146
 20
166.199872
 30
0.0
 11
76.958146
 21
166.199872
 31
0.0
  0
LINE
  5
207D
100
AcDbEntity
  8
ALPHA
100
AcDbLine
 10
76.558146
 20
166.199872
 30
0.0
 11
76.558146
 21
164.899872
 31
0.0
  0
LINE
  5
207E
100
AcDbEntity
  8
ALPHA
100
AcDbLine
 10
76.258146
 20
164.899872
 30
0.0
 11
76.558146
 21
164.899872
 31
0.0
  0
LINE
  5
207F
100
AcDbEntity
  8
ALPHA
100
AcDbLine
 10
86.171543
 20
164.257125
 30
0.0
 11
85.258146
 21
164.257125
 31
0.0
  0
LINE
  5
2080
100
AcDbEntity
  8
ALPHA
100
AcDbLine
 10
76.258146
 20
166.199872
 30
0.0
 11
75.753726
 21
166.199872
 31
0.0
  0
LINE
  5
2081
100
AcDbEntity
  8
ALPHA
100
AcDbLine
 10
76.258146
 20
164.899872
 30
0.0
 11
75.753726
 21
164.899872
 31
0.0
  0
LINE
  5
2082
100
AcDbEntity
  8
ALPHA
100
AcDbLine
 10
77.358146
 20
166.199872
 30
0.0
 11
76.958146
 21
166.199872
 31
0.0
  0
ARC
  5
2083
100
AcDbEntity
  8
ALPHA
100
AcDbCircle
 10
73.608146
 20
166.199872
 30
0.0
 40
0.85343
100
AcDbArc
 50
90.0
 51
180.0
  0
LINE
  5
2084
100
AcDbEntity
  8
ALPHA
100
AcDbLine
 10
73.608146
 20
166.853333
 30
0.0
 11
75.408146
 21
166.853333
 31
0.0
  0
LINE
  5
2085
100
AcDbEntity
  8
ALPHA
100
AcDbLine
 10
76.558146
 20
164.899872
 30
0.0
 11
76.958146
 21
164.899872
 31
0.0
  0
LWPOLYLINE
  5
2086
100
AcDbEntity
  8
ALPHA
100
AcDbPolyline
 90
       27
 70
     0
 43
0.0
 10
76.558146
 20
164.899872
 10
76.558146
 20
164.82138
 10
76.558146
 20
164.743175
 10
76.558146
 20
164.665541
 10
76.558146
 20
164.588762
 10
76.558146
 20
164.513118
 10
76.558146
 20
164.438886
 10
76.558146
 20
164.366336
 10
76.558146
 20
164.295732
 10
76.558146
 20
164.227333
 10
76.558146
 20
164.161388
 10
76.558146
 20
164.098138
 10
76.558146
 20
164.037813
 10
76.558146
 20
163.980633
 10
76.558146
 20
163.926808
 10
76.558146
 20
163.876534
 10
76.558146
 20
163.829993
 10
76.558146
 20
163.787357
 10
76.558146
 20
163.748779
 10
76.558146
 20
163.714402
 10
76.558146
 20
163.684351
 10
76.558146
 20
163.658735
 10
76.558146
 20
163.637648
 10
76.558146
 20
163.621166
 10
76.558146
 20
163.609351
 10
76.558146
 20
163.602244
 10
76.558146
 20
163.599872
  0
LWPOLYLINE
  5
20A3
100
AcDbEntity
  8
ALPHA
100
AcDbPolyline
 90
       18
 70
     0
 43
0.0
 10
73.608146
 20
166.853333
 10
73.608146
 20
166.871582
 10
73.608146
 20
166.889679
 10
73.608146
 20
166.907473
 10
73.608146
 20
166.924815
 10
73.608146
 20
166.94156
 10
73.608146
 20
166.95757
 10
73.608146
 20
166.97271
 10
73.608146
 20
166.986853
 10
73.608146
 20
166.999883
 10
73.608146
 20
167.01169
 10
73.608146
 20
167.022176
 10
73.608146
 20
167.031254
 10
73.608146
 20
167.038846
 10
73.608146
 20
167.044891
 10
73.608146
 20
167.049338
 10
73.608146
 20
167.05215
 10
73.608146
 20
167.053302
  0
LINE
  5
20B7
100
AcDbEntity
  8
ALPHA
100
AcDbLine
 10
76.258146
 20
166.199872
 30
0.0
 11
76.258146
 21
164.899872
 31
0.0
  0
LINE
  5
20B8
100
AcDbEntity
  8
ALPHA
100
AcDbLine
 10
77.358146
 20
164.899872
 30
0.0
 11
76.958146
 21
164.899872
 31
0.0
  0
LINE
  5
20B9
100
AcDbEntity
  8
ALPHA
100
AcDbLine
 10
78.458146
 20
166.199872
 30
0.0
 11
78.058146
 21
166.199872
 31
0.0
  0
LINE
  5
20BA
100
AcDbEntity
  8
ALPHA
100
AcDbLine
 10
73.608146
 20
167.053302
 30
0.0
 11
75.425338
 21
167.053302
 31
0.0
  0
LWPOLYLINE
  5
20BB
100
AcDbEntity
  8
ALPHA
100
AcDbPolyline
 90
        4
 70
     0
 43
0.0
 10
75.425338
 20
167.053302
 10
75.424355
 20
167.052789
 10
75.423375
 20
167.051645
 10
75.422403
 20
167.049872
  0
LINE
  5
20C1
100
AcDbEntity
  8
ALPHA
100
AcDbLine
 10
73.608146
 20
167.0778
 30
0.0
 11
73.608146
 21
167.053302
 31
0.0
  0
LINE
  5
20C2
100
AcDbEntity
  8
ALPHA
100
AcDbLine
 10
72.730218
 20
166.199872
 30
0.0
 11
72.754716
 21
166.199872
 31
0.0
  0
LINE
  5
20C3
100
AcDbEntity
  8
ALPHA
100
AcDbLine
 10
72.730218
 20
164.899872
 30
0.0
 11
72.754716
 21
164.899872
 31
0.0
  0
LINE
  5
20C4
100
AcDbEntity
  8
ALPHA
100
AcDbLine
 10
73.608146
 20
164.021944
 30
0.0
 11
73.608146
 21
164.046442
 31
0.0
  0
LWPOLYLINE
  5
20C5
100
AcDbEntity
  8
ALPHA
100
AcDbPolyline
 90
        4
 70
     0
 43
0.0
 10
86.258146
 20
167.159868
 10
86.227025
 20
167.055309
 10
86.19816
 20
166.949519
 10
86.171543
 20
166.842619
  0
LINE
  5
20CB
100
AcDbEntity
  8
ALPHA
100
AcDbLine
 10
86.171543
 20
164.257125
 30
0.0
 11
86.171543
 21
166.842619
 31
0.0
  0
LWPOLYLINE
  5
20CC
100
AcDbEntity
  8
ALPHA
100
AcDbPolyline
 90
        4
 70
     0
 43
0.0
 10
86.258146
 20
163.939876
 10
86.227025
 20
164.044436
 10
86.19816
 20
164.150225
 10
86.171543
 20
164.257125
  0
LINE
  5
20D2
100
AcDbEntity
  8
ALPHA
100
AcDbLine
 10
78.458146
 20
164.899872
 30
0.0
 11
78.058146
 21
164.899872
 31
0.0
  0
LINE
  5
20D3
100
AcDbEntity
  8
ALPHA
100
AcDbLine
 10
77.358146
 20
166.199872
 30
0.0
 11
77.358146
 21
164.899872
 31
0.0
  0
LWPOLYLINE
  5
20D4
100
AcDbEntity
  8
ALPHA
100
AcDbPolyline
 90
       30
 70
     0
 43
0.0
 10
78.458146
 20
163.299872
 10
78.458146
 20
163.302219
 10
78.458146
 20
163.309252
 10
78.458146
 20
163.32095
 10
78.458146
 20
163.337279
 10
78.458146
 20
163.358192
 10
78.458146
 20
163.383627
 10
78.458146
 20
163.413509
 10
78.458146
 20
163.447752
 10
78.458146
 20
163.486253
 10
78.458146
 20
163.528901
 10
78.458146
 20
163.57557
 10
78.458146
 20
163.626123
 10
78.458146
 20
163.680413
 10
78.458146
 20
163.738279
 10
78.458146
 20
163.799553
 10
78.458146
 20
163.864054
 10
78.458146
 20
163.931593
 10
78.458146
 20
164.001973
 10
78.458146
 20
164.074986
 10
78.458146
 20
164.150419
 10
78.458146
 20
164.22805
 10
78.458146
 20
164.307651
 10
78.458146
 20
164.38899
 10
78.458146
 20
164.471827
 10
78.458146
 20
164.55592
 10
78.458146
 20
164.641021
 10
78.458146
 20
164.726882
 10
78.458146
 20
164.81325
 10
78.458146
 20
164.899872
  0
LWPOLYLINE
  5
20F4
100
AcDbEntity
  8
ALPHA
100
AcDbPolyline
 90
       27
 70
     0
 43
0.0
 10
77.658146
 20
167.499872
 10
77.658146
 20
167.4975
 10
77.658146
 20
167.490394
 10
77.658146
 20
167.478578
 10
77.658146
 20
167.462097
 10
77.658146
 20
167.441009
 10
77.658146
 20
167.415393
 10
77.658146
 20
167.385342
 10
77.658146
 20
167.350965
 10
77.658146
 20
167.312388
 10
77.658146
 20
167.269751
 10
77.658146
 20
167.223211
 10
77.658146
 20
167.172936
 10
77.658146
 20
167.119111
 10
77.658146
 20
167.061932
 10
77.658146
 20
167.001607
 10
77.658146
 20
166.938356
 10
77.658146
 20
166.872411
 10
77.658146
 20
166.804012
 10
77.658146
 20
166.733409
 10
77.658146
 20
166.660859
 10
77.658146
 20
166.586626
 10
77.658146
 20
166.510983
 10
77.658146
 20
166.434204
 10
77.658146
 20
166.35657
 10
77.658146
 20
166.278364
 10
77.658146
 20
166.199872
  0
LWPOLYLINE
  5
2111
100
AcDbEntity
  8
ALPHA
100
AcDbPolyline
 90
       21
 70
     0
 43
0.0
 10
85.058146
 20
164.049872
 10
85.058146
 20
164.028515
 10
85.058146
 20
163.959463
 10
85.058146
 20
163.892989
 10
85.058146
 20
163.829277
 10
85.058146
 20
163.768501
 10
85.058146
 20
163.710828
 10
85.058146
 20
163.656415
 10
85.058146
 20
163.605411
 10
85.058146
 20
163.557957
 10
85.058146
 20
163.514184
 10
85.058146
 20
163.474211
 10
85.058146
 20
163.438143
 10
85.058146
 20
163.406085
 10
85.058146
 20
163.378129
 10
85.058146
 20
163.354348
 10
85.058146
 20
163.334794
 10
85.058146
 20
163.319527
 10
85.058146
 20
163.308603
 10
85.058146
 20
163.302051
 10
85.058146
 20
163.299872
  0
LWPOLYLINE
  5
2128
100
AcDbEntity
  8
ALPHA
100
AcDbPolyline
 90
       12
 70
     0
 43
0.0
 10
85.058146
 20
164.899872
 10
85.058146
 20
164.816401
 10
85.058146
 20
164.732957
 10
85.058146
 20
164.649855
 10
85.058146
 20
164.56741
 10
85.058146
 20
164.485922
 10
85.058146
 20
164.405607
 10
85.058146
 20
164.326637
 10
85.058146
 20
164.24922
 10
85.058146
 20
164.173587
 10
85.058146
 20
164.099954
 10
85.058146
 20
164.049872
  0
LWPOLYLINE
  5
2136
100
AcDbEntity
  8
ALPHA
100
AcDbPolyline
 90
       30
 70
     0
 43
0.0
 10
76.258146
 20
163.299872
 10
76.258146
 20
163.302219
 10
76.258146
 20
163.309252
 10
76.258146
 20
163.32095
 10
76.258146
 20
163.337279
 10
76.258146
 20
163.358192
 10
76.258146
 20
163.383627
 10
76.258146
 20
163.413509
 10
76.258146
 20
163.447752
 10
76.258146
 20
163.486253
 10
76.258146
 20
163.528901
 10
76.258146
 20
163.57557
 10
76.258146
 20
163.626123
 10
76.258146
 20
163.680413
 10
76.258146
 20
163.738279
 10
76.258146
 20
163.799553
 10
76.258146
 20
163.864054
 10
76.258146
 20
163.931593
 10
76.258146
 20
164.001973
 10
76.258146
 20
164.074986
 10
76.258146
 20
164.150419
 10
76.258146
 20
164.22805
 10
76.258146
 20
164.307651
 10
76.258146
 20
164.38899
 10
76.258146
 20
164.471827
 10
76.258146
 20
164.55592
 10
76.258146
 20
164.641021
 10
76.258146
 20
164.726882
 10
76.258146
 20
164.81325
 10
76.258146
 20
164.899872
  0
LWPOLYLINE
  5
2156
100
AcDbEntity
  8
ALPHA
100
AcDbPolyline
 90
       18
 70
     0
 43
0.0
 10
85.058146
 20
164.899872
 10
85.0766
 20
164.899872
 10
85.094896
 20
164.899872
 10
85.112879
 20
164.899872
 10
85.130394
 20
164.899872
 10
85.147294
 20
164.899872
 10
85.163432
 20
164.899872
 10
85.178673
 20
164.899872
 10
85.192885
 20
164.899872
 10
85.205948
 20
164.899872
 10
85.217749
 20
164.899872
 10
85.228189
 20
164.899872
 10
85.237179
 20
164.899872
 10
85.24464
 20
164.899872
 10
85.250511
 20
164.899872
 10
85.254741
 20
164.899872
 10
85.257293
 20
164.899872
 10
85.258146
 20
164.899872
  0
LINE
  5
216A
100
AcDbEntity
  8
ALPHA
100
AcDbLine
 10
85.058146
 20
166.199872
 30
0.0
 11
85.058146
 21
164.899872
 31
0.0
  0
LWPOLYLINE
  5
216B
100
AcDbEntity
  8
ALPHA
100
AcDbPolyline
 90
       30
 70
     0
 43
0.0
 10
77.358146
 20
163.299872
 10
77.358146
 20
163.302219
 10
77.358146
 20
163.309252
 10
77.358146
 20
163.32095
 10
77.358146
 20
163.337279
 10
77.358146
 20
163.358192
 10
77.358146
 20
163.383627
 10
77.358146
 20
163.413509
 10
77.358146
 20
163.447752
 10
77.358146
 20
163.486253
 10
77.358146
 20
163.528901
 10
77.358146
 20
163.57557
 10
77.358146
 20
163.626123
 10
77.358146
 20
163.680413
 10
77.358146
 20
163.738279
 10
77.358146
 20
163.799553
 10
77.358146
 20
163.864054
 10
77.358146
 20
163.931593
 10
77.358146
 20
164.001973
 10
77.358146
 20
164.074986
 10
77.358146
 20
164.150419
 10
77.358146
 20
164.22805
 10
77.358146
 20
164.307651
 10
77.358146
 20
164.38899
 10
77.358146
 20
164.471827
 10
77.358146
 20
164.55592
 10
77.358146
 20
164.641021
 10
77.358146
 20
164.726882
 10
77.358146
 20
164.81325
 10
77.358146
 20
164.899872
  0
LINE
  5
218B
100
AcDbEntity
  8
ALPHA
100
AcDbLine
 10
74.327478
 20
164.246412
 30
0.0
 11
73.608146
 21
164.246412
 31
0.0
  0
LINE
  5
218C
100
AcDbEntity
  8
ALPHA
100
AcDbLine
 10
78.458146
 20
166.199872
 30
0.0
 11
78.458146
 21
164.899872
 31
0.0
  0
LINE
  5
218D
100
AcDbEntity
  8
ALPHA
100
AcDbLine
 10
78.758146
 20
167.499872
 30
0.0
 11
79.158146
 21
167.499872
 31
0.0
  0
LINE
  5
218E
100
AcDbEntity
  8
ALPHA
100
AcDbLine
 10
78.458146
 20
167.799872
 30
0.0
 11
78.758146
 21
167.499872
 31
0.0
  0
LINE
  5
218F
100
AcDbEntity
  8
ALPHA
100
AcDbLine
 10
78.458146
 20
163.299872
 30
0.0
 11
78.758146
 21
163.599872
 31
0.0
  0
LINE
  5
2190
100
AcDbEntity
  8
ALPHA
100
AcDbLine
 10
78.758146
 20
163.599872
 30
0.0
 11
79.158146
 21
163.599872
 31
0.0
  0
LINE
  5
2191
100
AcDbEntity
  8
ALPHA
100
AcDbLine
 10
78.058146
 20
167.499872
 30
0.0
 11
78.058146
 21
167.799872
 31
0.0
  0
LINE
  5
2192
100
AcDbEntity
  8
ALPHA
100
AcDbLine
 10
78.058146
 20
166.199872
 30
0.0
 11
78.058146
 21
167.499872
 31
0.0
  0
LINE
  5
2193
100
AcDbEntity
  8
ALPHA
100
AcDbLine
 10
77.358146
 20
167.799872
 30
0.0
 11
77.658146
 21
167.499872
 31
0.0
  0
LINE
  5
2194
100
AcDbEntity
  8
ALPHA
100
AcDbLine
 10
77.658146
 20
167.499872
 30
0.0
 11
78.058146
 21
167.499872
 31
0.0
  0
LINE
  5
2195
100
AcDbEntity
  8
ALPHA
100
AcDbLine
 10
79.158146
 20
167.499872
 30
0.0
 11
79.158146
 21
167.799872
 31
0.0
  0
LINE
  5
2196
100
AcDbEntity
  8
ALPHA
100
AcDbLine
 10
79.158146
 20
166.199872
 30
0.0
 11
79.158146
 21
167.499872
 31
0.0
  0
LINE
  5
2197
100
AcDbEntity
  8
ALPHA
100
AcDbLine
 10
77.358146
 20
163.299872
 30
0.0
 11
77.658146
 21
163.599872
 31
0.0
  0
ARC
  5
2198
100
AcDbEntity
  8
ALPHA
100
AcDbCircle
 10
73.608146
 20
166.199872
 30
0.0
 40
1.6
100
AcDbArc
 50
90.0
 51
180.0
  0
ARC
  5
2199
100
AcDbEntity
  8
ALPHA
100
AcDbCircle
 10
73.608146
 20
164.899872
 30
0.0
 40
1.6
100
AcDbArc
 50
180.0
 51
270.0
  0
LINE
  5
219A
100
AcDbEntity
  8
ALPHA
100
AcDbLine
 10
77.658146
 20
163.599872
 30
0.0
 11
78.058146
 21
163.599872
 31
0.0
  0
LINE
  5
219B
100
AcDbEntity
  8
ALPHA
100
AcDbLine
 10
76.958146
 20
167.499872
 30
0.0
 11
76.958146
 21
167.799872
 31
0.0
  0
LINE
  5
219C
100
AcDbEntity
  8
ALPHA
100
AcDbLine
 10
76.958146
 20
166.199872
 30
0.0
 11
76.958146
 21
167.499872
 31
0.0
  0
LINE
  5
219D
100
AcDbEntity
  8
ALPHA
100
AcDbLine
 10
76.258146
 20
167.799872
 30
0.0
 11
76.558146
 21
167.499872
 31
0.0
  0
LINE
  5
219E
100
AcDbEntity
  8
ALPHA
100
AcDbLine
 10
75.613744
 20
167.049872
 30
0.0
 11
75.422403
 21
167.049872
 31
0.0
  0
LWPOLYLINE
  5
219F
100
AcDbEntity
  8
ALPHA
100
AcDbPolyline
 90
       26
 70
     0
 43
0.0
 10
75.68811
 20
166.199872
 10
75.687964
 20
166.253118
 10
75.687526
 20
166.306162
 10
75.686799
 20
166.358783
 10
75.685784
 20
166.410798
 10
75.684486
 20
166.461974
 10
75.682909
 20
166.512149
 10
75.681061
 20
166.561083
 10
75.678946
 20
166.60863
 10
75.676576
 20
166.654556
 10
75.673956
 20
166.698727
 10
75.671099
 20
166.740921
 10
75.668014
 20
166.781015
 10
75.664715
 20
166.818807
 10
75.661212
 20
166.854187
 10
75.657523
 20
166.886973
 10
75.653658
 20
166.917069
 10
75.649635
 20
166.944323
 10
75.645468
 20
166.968649
 10
75.641176
 20
166.989928
 10
75.636773
 20
167.00809
 10
75.632279
 20
167.023047
 10
75.62771
 20
167.034748
 10
75.623087
 20
167.043138
 10
75.618425
 20
167.048187
 10
75.613744
 20
167.049872
  0
LINE
  5
21BB
100
AcDbEntity
  8
ALPHA
100
AcDbLine
 10
76.558146
 20
167.499872
 30
0.0
 11
76.958146
 21
167.499872
 31
0.0
  0
LINE
  5
21BC
100
AcDbEntity
  8
ALPHA
100
AcDbLine
 10
75.422403
 20
164.049872
 30
0.0
 11
75.613744
 21
164.049872
 31
0.0
  0
LINE
  5
21BD
100
AcDbEntity
  8
ALPHA
100
AcDbLine
 10
76.258146
 20
163.299872
 30
0.0
 11
76.558146
 21
163.599872
 31
0.0
  0
LINE
  5
21BE
100
AcDbEntity
  8
ALPHA
100
AcDbLine
 10
76.558146
 20
163.599872
 30
0.0
 11
76.958146
 21
163.599872
 31
0.0
  0
LINE
  5
21BF
100
AcDbEntity
  8
ALPHA
100
AcDbLine
 10
80.258146
 20
167.549872
 30
0.0
 11
80.258146
 21
167.799872
 31
0.0
  0
LINE
  5
21C0
100
AcDbEntity
  8
ALPHA
100
AcDbLine
 10
82.258146
 20
167.549872
 30
0.0
 11
80.258146
 21
167.549872
 31
0.0
  0
LINE
  5
21C1
100
AcDbEntity
  8
ALPHA
100
AcDbLine
 10
82.258146
 20
167.549872
 30
0.0
 11
82.258146
 21
167.799872
 31
0.0
  0
LINE
  5
21C2
100
AcDbEntity
  8
ALPHA
100
AcDbLine
 10
86.258146
 20
167.087353
 30
0.0
 11
86.258146
 21
167.159868
 31
0.0
  0
LINE
  5
21C3
100
AcDbEntity
  8
ALPHA
100
AcDbLine
 10
86.258146
 20
163.939876
 30
0.0
 11
86.258146
 21
164.012392
 31
0.0
  0
LWPOLYLINE
  5
21C4
100
AcDbEntity
  8
ALPHA
100
AcDbPolyline
 90
       14
 70
     0
 43
0.0
 10
75.408645
 20
164.199872
 10
75.40881
 20
164.19184
 10
75.409321
 20
164.174357
 10
75.40997
 20
164.157498
 10
75.410754
 20
164.141369
 10
75.411663
 20
164.126147
 10
75.412693
 20
164.111923
 10
75.413832
 20
164.098856
 10
75.415074
 20
164.087026
 10
75.416405
 20
164.076563
 10
75.417817
 20
164.067537
 10
75.419295
 20
164.060042
 10
75.420828
 20
164.054135
 10
75.422403
 20
164.049872
  0
LINE
  5
21D4
100
AcDbEntity
  8
ALPHA
100
AcDbLine
 10
86.258146
 20
168.199872
 30
0.0
 11
85.258146
 21
168.199872
 31
0.0
  0
LINE
  5
21D5
100
AcDbEntity
  8
ALPHA
100
AcDbLine
 10
86.258146
 20
162.899872
 30
0.0
 11
85.258146
 21
162.899872
 31
0.0
  0
LINE
  5
21D6
100
AcDbEntity
  8
ALPHA
100
AcDbLine
 10
85.258146
 20
162.899872
 30
0.0
 11
85.258146
 21
164.257125
 31
0.0
  0
LINE
  5
21D7
100
AcDbEntity
  8
ALPHA
100
AcDbLine
 10
85.258146
 20
164.257125
 30
0.0
 11
85.258146
 21
166.842619
 31
0.0
  0
LINE
  5
21D8
100
AcDbEntity
  8
ALPHA
100
AcDbLine
 10
85.258146
 20
166.842619
 30
0.0
 11
85.258146
 21
168.199872
 31
0.0
  0
LWPOLYLINE
  5
21D9
100
AcDbEntity
  8
ALPHA
100
AcDbPolyline
 90
       16
 70
     0
 43
0.0
 10
75.422403
 20
167.049872
 10
75.420828
 20
167.04561
 10
75.419295
 20
167.039702
 10
75.417817
 20
167.032208
 10
75.416405
 20
167.023181
 10
75.415074
 20
167.012719
 10
75.413832
 20
167.000888
 10
75.412693
 20
166.987821
 10
75.411663
 20
166.973598
 10
75.410754
 20
166.958376
 10
75.40997
 20
166.942247
 10
75.409321
 20
166.925388
 10
75.40881
 20
166.907904
 10
75.408442
 20
166.889976
 10
75.40822
 20
166.871729
 10
75.408146
 20
166.853333
  0
LINE
  5
21EB
100
AcDbEntity
  8
ALPHA
100
AcDbLine
 10
86.258146
 20
167.159868
 30
0.0
 11
86.258146
 21
168.199872
 31
0.0
  0
LINE
  5
21EC
100
AcDbEntity
  8
ALPHA
100
AcDbLine
 10
86.258146
 20
162.899872
 30
0.0
 11
86.258146
 21
163.939876
 31
0.0
  0
ARC
  5
21ED
100
AcDbEntity
  8
ALPHA
100
AcDbCircle
 10
85.058146
 20
163.099872
 30
0.0
 40
0.2
100
AcDbArc
 50
5.294117
 51
84.705882
  0
ARC
  5
21EE
100
AcDbEntity
  8
ALPHA
100
AcDbCircle
 10
85.058146
 20
163.099872
 30
0.0
 40
0.2
100
AcDbArc
 50
84.705882
 51
90.0
  0
LINE
  5
21EF
100
AcDbEntity
  8
ALPHA
100
AcDbLine
 10
75.408146
 20
166.853333
 30
0.0
 11
75.408146
 21
166.699872
 31
0.0
  0
LINE
  5
21F0
100
AcDbEntity
  8
ALPHA
100
AcDbLine
 10
75.68811
 20
166.199872
 30
0.0
 11
75.68811
 21
164.899872
 31
0.0
  0
LINE
  5
21F1
100
AcDbEntity
  8
ALPHA
100
AcDbLine
 10
85.058146
 20
163.299872
 30
0.0
 11
79.158146
 21
163.299872
 31
0.0
  0
LINE
  5
21F2
100
AcDbEntity
  8
ALPHA
100
AcDbLine
 10
79.158146
 20
163.599872
 30
0.0
 11
79.158146
 21
164.899872
 31
0.0
  0
LINE
  5
21F3
100
AcDbEntity
  8
ALPHA
100
AcDbLine
 10
79.158146
 20
163.299872
 30
0.0
 11
79.158146
 21
163.599872
 31
0.0
  0
LINE
  5
21F4
100
AcDbEntity
  8
ALPHA
100
AcDbLine
 10
85.058146
 20
163.299872
 30
0.0
 11
79.158146
 21
163.299872
 31
0.0
  0
LINE
  5
21F5
100
AcDbEntity
  8
ALPHA
100
AcDbLine
 10
76.258146
 20
163.299872
 30
0.0
 11
75.613744
 21
163.299872
 31
0.0
  0
LINE
  5
21F6
100
AcDbEntity
  8
ALPHA
100
AcDbLine
 10
77.358146
 20
163.299872
 30
0.0
 11
76.958146
 21
163.299872
 31
0.0
  0
LINE
  5
21F7
100
AcDbEntity
  8
ALPHA
100
AcDbLine
 10
78.458146
 20
163.299872
 30
0.0
 11
78.058146
 21
163.299872
 31
0.0
  0
LINE
  5
21F8
100
AcDbEntity
  8
ALPHA
100
AcDbLine
 10
78.458146
 20
163.299872
 30
0.0
 11
78.058146
 21
163.299872
 31
0.0
  0
LINE
  5
21F9
100
AcDbEntity
  8
ALPHA
100
AcDbLine
 10
78.058146
 20
163.599872
 30
0.0
 11
78.058146
 21
164.899872
 31
0.0
  0
LINE
  5
21FA
100
AcDbEntity
  8
ALPHA
100
AcDbLine
 10
78.058146
 20
163.299872
 30
0.0
 11
78.058146
 21
163.599872
 31
0.0
  0
LINE
  5
21FB
100
AcDbEntity
  8
ALPHA
100
AcDbLine
 10
77.358146
 20
163.299872
 30
0.0
 11
76.958146
 21
163.299872
 31
0.0
  0
LINE
  5
21FC
100
AcDbEntity
  8
ALPHA
100
AcDbLine
 10
76.958146
 20
163.599872
 30
0.0
 11
76.958146
 21
164.899872
 31
0.0
  0
LINE
  5
21FD
100
AcDbEntity
  8
ALPHA
100
AcDbLine
 10
76.958146
 20
163.299872
 30
0.0
 11
76.958146
 21
163.599872
 31
0.0
  0
LINE
  5
21FE
100
AcDbEntity
  8
ALPHA
100
AcDbLine
 10
85.058146
 20
167.799872
 30
0.0
 11
82.258146
 21
167.799872
 31
0.0
  0
LINE
  5
21FF
100
AcDbEntity
  8
ALPHA
100
AcDbLine
 10
80.258146
 20
167.799872
 30
0.0
 11
79.158146
 21
167.799872
 31
0.0
  0
LINE
  5
2200
100
AcDbEntity
  8
ALPHA
100
AcDbLine
 10
76.258146
 20
167.799872
 30
0.0
 11
75.613744
 21
167.799872
 31
0.0
  0
LINE
  5
2201
100
AcDbEntity
  8
ALPHA
100
AcDbLine
 10
77.358146
 20
167.799872
 30
0.0
 11
76.958146
 21
167.799872
 31
0.0
  0
LINE
  5
2202
100
AcDbEntity
  8
ALPHA
100
AcDbLine
 10
78.458146
 20
167.799872
 30
0.0
 11
78.058146
 21
167.799872
 31
0.0
  0
LINE
  5
2203
100
AcDbEntity
  8
ALPHA
100
AcDbLine
 10
76.258146
 20
163.299872
 30
0.0
 11
75.613744
 21
163.299872
 31
0.0
  0
LWPOLYLINE
  5
2204
100
AcDbEntity
  8
ALPHA
100
AcDbPolyline
 90
       26
 70
     0
 43
0.0
 10
75.613744
 20
164.049872
 10
75.618425
 20
164.051557
 10
75.623087
 20
164.056606
 10
75.62771
 20
164.064997
 10
75.632279
 20
164.076698
 10
75.636773
 20
164.091655
 10
75.641176
 20
164.109817
 10
75.645468
 20
164.131095
 10
75.649635
 20
164.155422
 10
75.653658
 20
164.182675
 10
75.657523
 20
164.212771
 10
75.661212
 20
164.245558
 10
75.664715
 20
164.280937
 10
75.668014
 20
164.318729
 10
75.671099
 20
164.358824
 10
75.673956
 20
164.401017
 10
75.676576
 20
164.445188
 10
75.678946
 20
164.491114
 10
75.681061
 20
164.538661
 10
75.682909
 20
164.587596
 10
75.684486
 20
164.63777
 10
75.685784
 20
164.688947
 10
75.686799
 20
164.740962
 10
75.687526
 20
164.793582
 10
75.687964
 20
164.846626
 10
75.68811
 20
164.899872
  0
LINE
  5
2220
100
AcDbEntity
  8
ALPHA
100
AcDbLine
 10
75.613744
 20
163.299872
 30
0.0
 11
75.548128
 21
163.299872
 31
0.0
  0
LINE
  5
2221
100
AcDbEntity
  8
ALPHA
100
AcDbLine
 10
73.608146
 20
163.299872
 30
0.0
 11
75.548128
 21
163.299872
 31
0.0
  0
LINE
  5
2222
100
AcDbEntity
  8
ALPHA
100
AcDbLine
 10
78.458146
 20
167.799872
 30
0.0
 11
78.758146
 21
167.499872
 31
0.0
  0
LINE
  5
2223
100
AcDbEntity
  8
ALPHA
100
AcDbLine
 10
78.758146
 20
167.499872
 30
0.0
 11
79.158146
 21
167.499872
 31
0.0
  0
LINE
  5
2224
100
AcDbEntity
  8
ALPHA
100
AcDbLine
 10
79.158146
 20
166.199872
 30
0.0
 11
79.158146
 21
164.899872
 31
0.0
  0
LINE
  5
2225
100
AcDbEntity
  8
ALPHA
100
AcDbLine
 10
76.958146
 20
166.199872
 30
0.0
 11
76.958146
 21
164.899872
 31
0.0
  0
LINE
  5
2226
100
AcDbEntity
  8
ALPHA
100
AcDbLine
 10
78.058146
 20
166.199872
 30
0.0
 11
78.058146
 21
164.899872
 31
0.0
  0
LINE
  5
2227
100
AcDbEntity
  8
ALPHA
100
AcDbLine
 10
77.358146
 20
167.799872
 30
0.0
 11
77.658146
 21
167.499872
 31
0.0
  0
LINE
  5
2228
100
AcDbEntity
  8
ALPHA
100
AcDbLine
 10
77.658146
 20
167.499872
 30
0.0
 11
78.058146
 21
167.499872
 31
0.0
  0
LINE
  5
2229
100
AcDbEntity
  8
ALPHA
100
AcDbLine
 10
76.258146
 20
167.799872
 30
0.0
 11
76.558146
 21
167.499872
 31
0.0
  0
LINE
  5
222A
100
AcDbEntity
  8
ALPHA
100
AcDbLine
 10
76.558146
 20
167.499872
 30
0.0
 11
76.958146
 21
167.499872
 31
0.0
  0
ARC
  5
222B
100
AcDbEntity
  8
ALPHA
100
AcDbCircle
 10
85.058146
 20
163.099872
 30
0.0
 40
0.2
100
AcDbArc
 50
5.294117
 51
84.705882
  0
ARC
  5
222C
100
AcDbEntity
  8
ALPHA
100
AcDbCircle
 10
85.058146
 20
163.099872
 30
0.0
 40
0.2
100
AcDbArc
 50
84.705882
 51
90.0
  0
LINE
  5
222D
100
AcDbEntity
  8
ALPHA
100
AcDbLine
 10
73.608146
 20
167.799872
 30
0.0
 11
75.548128
 21
167.799872
 31
0.0
  0
LINE
  5
222E
100
AcDbEntity
  8
ALPHA
100
AcDbLine
 10
75.613744
 20
167.799872
 30
0.0
 11
75.548128
 21
167.799872
 31
0.0
  0
ARC
  5
222F
100
AcDbEntity
  8
ALPHA
100
AcDbCircle
 10
85.058146
 20
167.999872
 30
0.0
 40
0.2
100
AcDbArc
 50
270.0
 51
0.0
  0
ARC
  5
2230
100
AcDbEntity
  8
ALPHA
100
AcDbCircle
 10
85.058146
 20
167.999872
 30
0.0
 40
0.2
100
AcDbArc
 50
270.0
 51
0.0
  0
LINE
  5
2231
100
AcDbEntity
  8
ALPHA
100
AcDbLine
 10
72.008146
 20
166.199872
 30
0.0
 11
72.008146
 21
164.899872
 31
0.0
  0
LINE
  5
2232
100
AcDbEntity
  8
ALPHA
100
AcDbLine
 10
121.708146
 20
163.259872
 30
0.0
 11
121.708146
 21
162.759872
 31
0.0
  0
LINE
  5
2233
100
AcDbEntity
  8
ALPHA
100
AcDbLine
 10
121.708146
 20
162.759872
 30
0.0
 11
114.008146
 21
162.759872
 31
0.0
  0
LINE
  5
2234
100
AcDbEntity
  8
ALPHA
100
AcDbLine
 10
122.208146
 20
163.171709
 30
0.0
 11
122.208146
 21
162.848036
 31
0.0
  0
LINE
  5
2235
100
AcDbEntity
  8
ALPHA
100
AcDbLine
 10
122.208146
 20
163.171709
 30
0.0
 11
121.708146
 21
163.259872
 31
0.0
  0
LINE
  5
2236
100
AcDbEntity
  8
ALPHA
100
AcDbLine
 10
122.208146
 20
162.848036
 30
0.0
 11
121.708146
 21
162.759872
 31
0.0
  0
LINE
  5
2237
100
AcDbEntity
  8
ALPHA
100
AcDbLine
 10
121.708146
 20
163.259872
 30
0.0
 11
114.008146
 21
163.259872
 31
0.0
  0
LINE
  5
2238
100
AcDbEntity
  8
ALPHA
100
AcDbLine
 10
121.708146
 20
168.339872
 30
0.0
 11
121.708146
 21
167.839872
 31
0.0
  0
LINE
  5
2239
100
AcDbEntity
  8
ALPHA
100
AcDbLine
 10
121.708146
 20
167.839872
 30
0.0
 11
114.008146
 21
167.839872
 31
0.0
  0
LINE
  5
223A
100
AcDbEntity
  8
ALPHA
100
AcDbLine
 10
122.208146
 20
168.251709
 30
0.0
 11
122.208146
 21
167.928036
 31
0.0
  0
LINE
  5
223B
100
AcDbEntity
  8
ALPHA
100
AcDbLine
 10
122.208146
 20
168.251709
 30
0.0
 11
121.708146
 21
168.339872
 31
0.0
  0
LINE
  5
223C
100
AcDbEntity
  8
ALPHA
100
AcDbLine
 10
122.208146
 20
167.928036
 30
0.0
 11
121.708146
 21
167.839872
 31
0.0
  0
LINE
  5
223D
100
AcDbEntity
  8
ALPHA
100
AcDbLine
 10
121.708146
 20
168.339872
 30
0.0
 11
114.008146
 21
168.339872
 31
0.0
  0
LINE
  5
223E
100
AcDbEntity
  8
ALPHA
100
AcDbLine
 10
75.685806
 20
165.319872
 30
0.0
 11
75.68811
 21
165.325287
 31
0.0
  0
LINE
  5
223F
100
AcDbEntity
  8
ALPHA
100
AcDbLine
 10
75.685806
 20
165.094872
 30
0.0
 11
75.685806
 21
165.319872
 31
0.0
  0
LINE
  5
2240
100
AcDbEntity
  8
ALPHA
100
AcDbLine
 10
75.558146
 20
165.319872
 30
0.0
 11
75.579423
 21
165.382372
 31
0.0
  0
LINE
  5
2241
100
AcDbEntity
  8
ALPHA
100
AcDbLine
 10
75.579423
 20
165.382372
 30
0.0
 11
75.621976
 21
165.432372
 31
0.0
  0
LINE
  5
2242
100
AcDbEntity
  8
ALPHA
100
AcDbLine
 10
75.621976
 20
165.432372
 30
0.0
 11
75.68811
 21
165.471226
 31
0.0
  0
LINE
  5
2243
100
AcDbEntity
  8
ALPHA
100
AcDbLine
 10
75.68811
 20
165.019872
 30
0.0
 11
75.558146
 21
165.019872
 31
0.0
  0
LINE
  5
2244
100
AcDbEntity
  8
ALPHA
100
AcDbLine
 10
75.558146
 20
165.019872
 30
0.0
 11
75.558146
 21
165.319872
 31
0.0
  0
LINE
  5
2245
100
AcDbEntity
  8
ALPHA
100
AcDbLine
 10
75.68811
 20
165.094872
 30
0.0
 11
75.685806
 21
165.094872
 31
0.0
  0
LINE
  5
2246
100
AcDbEntity
  8
ALPHA
100
AcDbLine
 10
75.558146
 20
165.769872
 30
0.0
 11
75.68811
 21
165.769872
 31
0.0
  0
LINE
  5
2247
100
AcDbEntity
  8
ALPHA
100
AcDbLine
 10
75.558146
 20
165.694872
 30
0.0
 11
75.558146
 21
165.769872
 31
0.0
  0
LINE
  5
2248
100
AcDbEntity
  8
ALPHA
100
AcDbLine
 10
75.68811
 20
165.629426
 30
0.0
 11
75.558146
 21
165.694872
 31
0.0
  0
LINE
  5
2249
100
AcDbEntity
  8
ALPHA
100
AcDbLine
 10
75.685554
 20
166.419872
 30
0.0
 11
74.558146
 21
166.419872
 31
0.0
  0
LINE
  5
224A
100
AcDbEntity
  8
ALPHA
100
AcDbLine
 10
74.558146
 20
166.419872
 30
0.0
 11
74.558146
 21
164.419872
 31
0.0
  0
LINE
  5
224B
100
AcDbEntity
  8
ALPHA
100
AcDbLine
 10
74.558146
 20
164.419872
 30
0.0
 11
75.675074
 21
164.419872
 31
0.0
  0
DIMENSION
  5
225A
100
AcDbEntity
  8
COTATION1
100
AcDbDimension
  2
*D3
 10
86.258146
 20
152.063403
 30
0.0
 11
79.133146
 21
154.313403
 31
0.0
  3
SC_STAND
100
AcDbAlignedDimension
 13
72.008146
 23
164.899872
 33
0.0
 14
86.258146
 24
162.199872
 34
0.0
100
AcDbRotatedDimension
  0
DIMENSION
  5
2269
100
AcDbEntity
  8
COTATION1
100
AcDbDimension
  2
*D4
 10
114.408146
 20
152.063403
 30
0.0
 11
118.308146
 21
154.313403
 31
0.0
  3
SC_STAND
100
AcDbAlignedDimension
 13
122.208146
 23
162.848036
 33
0.0
 14
114.408146
 24
158.749872
 34
0.0
100
AcDbRotatedDimension
  0
DIMENSION
  5
2276
100
AcDbEntity
  8
COTATION1
100
AcDbDimension
  2
*D5
 10
72.008146
 20
142.978496
 30
0.0
 11
97.108146
 21
145.228496
 31
0.0
  3
SC_STAND
100
AcDbAlignedDimension
 13
122.208146
 23
162.848036
 33
0.0
 14
72.008146
 24
164.837372
 34
0.0
100
AcDbRotatedDimension
  0
VIEWPORT
  5
1FE
100
AcDbEntity
 67
     1
  8
0
100
AcDbViewport
 10
251.108558
 20
148.5
 30
0.0
 40
8035.473851
 41
4752.0
 68
    -1
 69
     1
1001
ACAD
1000
MVIEW
1002
{
1070
    16
1010
0.0
1020
0.0
1030
0.0
1010
0.0
1020
0.0
1030
1.0
1040
0.0
1040
4752.0
1040
251.108558
1040
148.5
1040
50.0
1040
0.0
1040
0.0
1070
     0
1070
   100
1070
     1
1070
     1
1070
     0
1070
     0
1070
     0
1070
     0
1040
0.0
1040
0.0
1040
0.0
1040
1.0
1040
1.0
1040
0.0
1040
0.0
1070
     0
1002
{
1002
}
1002
}
  0
ENDSEC
  0
SECTION
  2
OBJECTS
  0
DICTIONARY
  5
296F
100
AcDbDictionary
  3
ACAD_GROUP
350
2970
  3
ACAD_MLINESTYLE
350
297D
  3
ACDBVARIABLEDICTIONARY
350
29BD
  0
DICTIONARY
  5
2970
102
{ACAD_REACTORS
330
296F
102
}
100
AcDbDictionary
  0
DICTIONARY
  5
297D
102
{ACAD_REACTORS
330
296F
102
}
100
AcDbDictionary
  3
STANDARD
350
297E
  0
DICTIONARY
  5
29BD
102
{ACAD_REACTORS
330
296F
102
}
100
AcDbDictionary
  3
DIMADEC
350
29BE
  0
MLINESTYLE
  5
297E
102
{ACAD_REACTORS
330
297D
102
}
100
AcDbMlineStyle
  2
STANDARD
 70
     0
  3

 62
   256
 51
90.0
 52
90.0
 71
     2
 49
0.5
 62
   256
  6
BYLAYER
 49
-0.5
 62
   256
  6
BYLAYER
  0
DICTIONARYVAR
  5
29BE
102
{ACAD_REACTORS
330
29BD
102
}
100
DictionaryVariables
280
     0
  1
0
  0
ENDSEC
  0
EOF
