  0
SECTION
  2
HEADER
  9
$ACADVER
  1
AC1009
  9
$INSBASE
 10
402.590624
 20
-1.041018
 30
0.0
  9
$EXTMIN
 10
1082.731944
 20
8.887007
 30
0.0
  9
$EXTMAX
 10
1163.279563
 20
200.728457
 30
0.0
  9
$LIMMIN
 10
-407.970438
 20
-367.832444
  9
$LIMMAX
 10
429.804077
 20
234.370848
  9
$ORTHOMODE
 70
     1
  9
$REGENMODE
 70
     1
  9
$FILLMODE
 70
     1
  9
$QTEXTMODE
 70
     0
  9
$MIRRTEXT
 70
     1
  9
$DRAGMODE
 70
     2
  9
$LTSCALE
 40
10.0
  9
$OSMODE
 70
    35
  9
$ATTMODE
 70
     1
  9
$TEXTSIZE
 40
6.0
  9
$TRACEWID
 40
1.0
  9
$TEXTSTYLE
  7
ROMANS
  9
$CLAYER
  8
ALPHA
  9
$CELTYPE
  6
BYLAYER
  9
$CECOLOR
 62
   256
  9
$DIMSCALE
 40
1.0
  9
$DIMASZ
 40
5.0
  9
$DIMEXO
 40
2.0
  9
$DIMDLI
 40
0.38
  9
$DIMRND
 40
0.0
  9
$DIMDLE
 40
0.0
  9
$DIMEXE
 40
2.5
  9
$DIMTP
 40
0.0
  9
$DIMTM
 40
0.0
  9
$DIMTXT
 40
2.5
  9
$DIMCEN
 40
0.0
  9
$DIMTSZ
 40
0.0
  9
$DIMTOL
 70
     0
  9
$DIMLIM
 70
     0
  9
$DIMTIH
 70
     1
  9
$DIMTOH
 70
     1
  9
$DIMSE1
 70
     0
  9
$DIMSE2
 70
     0
  9
$DIMTAD
 70
     1
  9
$DIMZIN
 70
    12
  9
$DIMBLK
  1
OPEN30
  9
$DIMASO
 70
     1
  9
$DIMSHO
 70
     1
  9
$DIMPOST
  1

  9
$DIMAPOST
  1

  9
$DIMALT
 70
     0
  9
$DIMALTD
 70
     2
  9
$DIMALTF
 40
25.4
  9
$DIMLFAC
 40
1.0
  9
$DIMTOFL
 70
     0
  9
$DIMTVP
 40
0.0
  9
$DIMTIX
 70
     0
  9
$DIMSOXD
 70
     0
  9
$DIMSAH
 70
     0
  9
$DIMBLK1
  1

  9
$DIMBLK2
  1

  9
$DIMSTYLE
  2
SC_DEFAUT
  9
$DIMCLRD
 70
     0
  9
$DIMCLRE
 70
     0
  9
$DIMCLRT
 70
     0
  9
$DIMTFAC
 40
1.0
  9
$DIMGAP
 40
2.0
  9
$LUNITS
 70
     2
  9
$LUPREC
 70
     1
  9
$SKETCHINC
 40
0.1
  9
$FILLETRAD
 40
0.0
  9
$AUNITS
 70
     0
  9
$AUPREC
 70
     0
  9
$MENU
  1
acad
  9
$ELEVATION
 40
0.0
  9
$PELEVATION
 40
0.0
  9
$THICKNESS
 40
0.0
  9
$LIMCHECK
 70
     0
  9
$BLIPMODE
 70
     0
  9
$CHAMFERA
 40
0.0
  9
$CHAMFERB
 40
0.0
  9
$SKPOLY
 70
     0
  9
$TDCREATE
 40
2450373.687919
  9
$TDUPDATE
 40
2453055.424678
  9
$TDINDWG
 40
0.812387
  9
$TDUSRTIMER
 40
0.812387
  9
$USRTIMER
 70
     1
  9
$ANGBASE
 50
0.0
  9
$ANGDIR
 70
     0
  9
$PDMODE
 70
    32
  9
$PDSIZE
 40
0.0
  9
$PLINEWID
 40
0.0
  9
$COORDS
 70
     1
  9
$SPLFRAME
 70
     0
  9
$SPLINETYPE
 70
     6
  9
$SPLINESEGS
 70
     8
  9
$ATTDIA
 70
     0
  9
$ATTREQ
 70
     1
  9
$HANDLING
 70
     1
  9
$HANDSEED
  5
7379
  9
$SURFTAB1
 70
     6
  9
$SURFTAB2
 70
     6
  9
$SURFTYPE
 70
     6
  9
$SURFU
 70
     6
  9
$SURFV
 70
     6
  9
$UCSNAME
  2

  9
$UCSORG
 10
0.0
 20
0.0
 30
0.0
  9
$UCSXDIR
 10
1.0
 20
0.0
 30
0.0
  9
$UCSYDIR
 10
0.0
 20
1.0
 30
0.0
  9
$PUCSNAME
  2

  9
$PUCSORG
 10
0.0
 20
0.0
 30
0.0
  9
$PUCSXDIR
 10
1.0
 20
0.0
 30
0.0
  9
$PUCSYDIR
 10
0.0
 20
1.0
 30
0.0
  9
$USERI1
 70
     0
  9
$USERI2
 70
     0
  9
$USERI3
 70
     0
  9
$USERI4
 70
     0
  9
$USERI5
 70
     0
  9
$USERR1
 40
0.0
  9
$USERR2
 40
0.0
  9
$USERR3
 40
0.0
  9
$USERR4
 40
0.0
  9
$USERR5
 40
0.0
  9
$WORLDVIEW
 70
     1
  9
$SHADEDGE
 70
     3
  9
$SHADEDIF
 70
    70
  9
$TILEMODE
 70
     1
  9
$MAXACTVP
 70
    16
  9
$PLIMCHECK
 70
     0
  9
$PEXTMIN
 10
-1.452248
 20
-0.437698
 30
0.0
  9
$PEXTMAX
 10
12.749749
 20
8.310198
 30
0.0
  9
$PLIMMIN
 10
0.0
 20
0.0
  9
$PLIMMAX
 10
12.0
 20
9.0
  9
$UNITMODE
 70
     0
  9
$VISRETAIN
 70
     0
  9
$PLINEGEN
 70
     0
  9
$PSLTSCALE
 70
     0
  0
ENDSEC
  0
SECTION
  2
TABLES
  0
TABLE
  2
VPORT
 70
     2
  0
VPORT
  2
*ACTIVE
 70
     0
 10
0.0
 20
0.0
 11
1.0
 21
1.0
 12
1123.018332
 22
104.802864
 13
0.0
 23
0.0
 14
1.0
 24
1.0
 15
10.0
 25
10.0
 16
0.0
 26
0.0
 36
1.0
 17
0.0
 27
0.0
 37
0.0
 40
193.292335
 41
1.466346
 42
50.0
 43
0.0
 44
0.0
 50
0.0
 51
0.0
 71
     0
 72
   100
 73
     1
 74
     0
 75
     0
 76
     0
 77
     0
 78
     0
  0
ENDTAB
  0
TABLE
  2
LTYPE
 70
     3
  0
LTYPE
  2
CONTINUOUS
 70
     0
  3
Solid line
 72
    65
 73
     0
 40
0.0
  0
LTYPE
  2
AXES2
 70
     0
  3
___ _ ___ _ ___ _ ___ _ ___ _ ___ _ ___ _ ___ _
 72
    65
 73
     4
 40
1.125
 49
0.75
 49
-0.125
 49
0.125
 49
-0.125
  0
LTYPE
  2
CACHE2
 70
     0
  3
Caché (x.5) _ _ _ _ _ _ _ _ _ _ _ _ _ _ _ _ _
 72
    65
 73
     2
 40
0.1875
 49
0.125
 49
-0.0625
  0
ENDTAB
  0
TABLE
  2
LAYER
 70
     6
  0
LAYER
  2
0
 70
     0
 62
   255
  6
CONTINUOUS
  0
LAYER
  2
COTATION1
 70
     0
 62
     2
  6
CONTINUOUS
  0
LAYER
  2
AXE
 70
     0
 62
    80
  6
AXES2
  0
LAYER
  2
DEFPOINTS
 70
     0
 62
     7
  6
CONTINUOUS
  0
LAYER
  2
ALPHA
 70
     0
 62
   254
  6
CONTINUOUS
  0
LAYER
  2
POINTILLE_COURT
 70
     0
 62
    41
  6
CACHE2
  0
ENDTAB
  0
TABLE
  2
STYLE
 70
     2
  0
STYLE
  2
ROMANS
 70
     0
 40
0.0
 41
1.0
 50
0.0
 71
     0
 42
6.0
  3
romans
  4

  0
STYLE
  2
STANDARD
 70
     0
 40
0.2
 41
1.0
 50
0.0
 71
     0
 42
0.2
  3
txt
  4

  0
ENDTAB
  0
TABLE
  2
VIEW
 70
     0
  0
ENDTAB
  0
TABLE
  2
UCS
 70
     0
  0
ENDTAB
  0
TABLE
  2
APPID
 70
     1
  0
APPID
  2
ACAD
 70
     0
  0
ENDTAB
  0
TABLE
  2
DIMSTYLE
 70
     1
  0
DIMSTYLE
  2
SC_DEFAUT
 70
     0
  3

  4

  5
OPEN30
  6

  7

 40
1.0
 41
5.0
 42
2.0
 43
0.38
 44
2.5
 45
0.0
 46
0.0
 47
0.0
 48
0.0
140
2.5
141
0.0
142
0.0
143
25.4
144
1.0
145
0.0
146
1.0
147
2.0
 71
     0
 72
     0
 73
     1
 74
     1
 75
     0
 76
     0
 77
     1
 78
    12
170
     0
171
     2
172
     0
173
     0
174
     0
175
     0
176
     0
177
     0
178
     0
  0
ENDTAB
  0
ENDSEC
  0
SECTION
  2
BLOCKS
  0
BLOCK
  8
0
  2
$MODEL_SPACE
 70
     0
 10
0.0
 20
0.0
 30
0.0
  3
$MODEL_SPACE
  1

  0
ENDBLK
  5
72F0
  8
0
  0
BLOCK
 67
     1
  8
0
  2
$PAPER_SPACE
 70
     0
 10
0.0
 20
0.0
 30
0.0
  3
$PAPER_SPACE
  1

  0
ENDBLK
  5
72EE
 67
     1
  8
0
  0
BLOCK
  8
0
  2
COTE
 70
     0
 10
0.0
 20
0.0
 30
0.0
  3
COTE
  1

  0
ENDBLK
  5
F
  8
0
  0
BLOCK
  8
0
  2
FOND
 70
     0
 10
0.0
 20
0.0
 30
0.0
  3
FOND
  1

  0
ENDBLK
  5
75
  8
0
  0
BLOCK
  8
0
  2
_OPEN30
 70
     0
 10
0.0
 20
0.0
 30
0.0
  3
_OPEN30
  1

  0
LINE
  5
4B05
  8
COTATION1
 62
     0
 10
-1.0
 20
0.267949
 30
0.0
 11
0.0
 21
0.0
 31
0.0
1001
ACAD
1000
RTLwPs
1070
   158
  0
LINE
  5
4B06
  8
COTATION1
 62
     0
 10
0.0
 20
0.0
 30
0.0
 11
-1.0
 21
-0.267949
 31
0.0
1001
ACAD
1000
RTLwPs
1070
   158
  0
LINE
  5
4B07
  8
COTATION1
 62
     0
 10
0.0
 20
0.0
 30
0.0
 11
-1.0
 21
0.0
 31
0.0
1001
ACAD
1000
RTLwPs
1070
   158
  0
ENDBLK
  5
4B09
  8
0
  0
BLOCK
  8
0
  2
*D4
 70
     1
 10
0.0
 20
0.0
 30
0.0
  3
*D4
  1

  0
LINE
  5
6F28
  8
COTATION1
 62
     0
 10
1098.100991
 20
166.228457
 30
0.0
 11
1098.100991
 21
198.728457
 31
0.0
1001
ACAD
1000
RTLwPs
1070
   158
  0
LINE
  5
6F29
  8
COTATION1
 62
     0
 10
1138.100991
 20
120.728457
 30
0.0
 11
1138.100991
 21
198.728457
 31
0.0
1001
ACAD
1000
RTLwPs
1070
   158
  0
LINE
  5
6F2A
  8
COTATION1
 62
     0
 10
1103.100991
 20
196.228457
 30
0.0
 11
1133.100991
 21
196.228457
 31
0.0
1001
ACAD
1000
RTLwPs
1070
   158
  0
INSERT
  5
6F2B
  8
COTATION1
 62
     0
  2
_OPEN30
 10
1098.100991
 20
196.228457
 30
0.0
 41
5.0
 42
5.0
 43
5.0
 50
180.0
1001
ACAD
1000
RTLwPs
1070
   158
  0
INSERT
  5
6F2C
  8
COTATION1
 62
     0
  2
_OPEN30
 10
1138.100991
 20
196.228457
 30
0.0
 41
5.0
 42
5.0
 43
5.0
1001
ACAD
1000
RTLwPs
1070
   158
  0
TEXT
  5
6F2D
  8
COTATION1
 62
     0
 10
1115.720039
 20
198.228457
 30
0.0
 40
2.5
  1
40
1001
ACAD
1000
MTEXTBEGIN
1070
    73
1070
     1
1070
    44
1040
1.0
1070
    74
1070
     0
1000
MTEXTEND
  0
POINT
  5
6F2E
  8
DEFPOINTS
 62
     0
 10
1098.100991
 20
164.228457
 30
0.0
  0
POINT
  5
6F2F
  8
DEFPOINTS
 62
     0
 10
1138.100991
 20
118.728457
 30
0.0
  0
POINT
  5
6F30
  8
DEFPOINTS
 62
     0
 10
1138.100991
 20
196.228457
 30
0.0
  0
ENDBLK
  5
6E45
  8
0
  0
BLOCK
  8
0
  2
*D5
 70
     1
 10
0.0
 20
0.0
 30
0.0
  3
*D5
  1

  0
LINE
  5
6EDE
  8
COTATION1
 62
     0
 10
1095.350991
 20
163.228457
 30
0.0
 11
1095.350991
 21
188.728457
 31
0.0
1001
ACAD
1000
RTLwPs
1070
   158
  0
LINE
  5
6EDF
  8
COTATION1
 62
     0
 10
1100.850991
 20
163.228457
 30
0.0
 11
1100.850991
 21
188.728457
 31
0.0
1001
ACAD
1000
RTLwPs
1070
   158
  0
LINE
  5
6EE0
  8
COTATION1
 62
     0
 10
1090.350991
 20
186.228457
 30
0.0
 11
1085.350991
 21
186.228457
 31
0.0
1001
ACAD
1000
RTLwPs
1070
   158
  0
LINE
  5
6EE1
  8
COTATION1
 62
     0
 10
1105.850991
 20
186.228457
 30
0.0
 11
1110.850991
 21
186.228457
 31
0.0
1001
ACAD
1000
RTLwPs
1070
   158
  0
TEXT
  5
6EE2
  8
COTATION1
 62
     0
 10
1082.374801
 20
188.228457
 30
0.0
 40
2.5
  1
5.5
1001
ACAD
1000
MTEXTBEGIN
1070
    73
1070
     1
1070
    44
1040
1.0
1070
    74
1070
     0
1000
MTEXTEND
  0
INSERT
  5
6EE3
  8
COTATION1
 62
     0
  2
_OPEN30
 10
1095.350991
 20
186.228457
 30
0.0
 41
5.0
 42
5.0
 43
5.0
1001
ACAD
1000
RTLwPs
1070
   158
  0
INSERT
  5
6EE4
  8
COTATION1
 62
     0
  2
_OPEN30
 10
1100.850991
 20
186.228457
 30
0.0
 41
5.0
 42
5.0
 43
5.0
 50
180.0
1001
ACAD
1000
RTLwPs
1070
   158
  0
POINT
  5
6EE5
  8
DEFPOINTS
 62
     0
 10
1095.350991
 20
161.228457
 30
0.0
  0
POINT
  5
6EE6
  8
DEFPOINTS
 62
     0
 10
1100.850991
 20
161.228457
 30
0.0
  0
POINT
  5
6EE7
  8
DEFPOINTS
 62
     0
 10
1100.850991
 20
186.228457
 30
0.0
  0
ENDBLK
  5
6E52
  8
0
  0
BLOCK
  8
0
  2
*D6
 70
     1
 10
0.0
 20
0.0
 30
0.0
  3
*D6
  1

  0
LINE
  5
6ECB
  8
COTATION1
 62
     0
 10
1114.100991
 20
166.228457
 30
0.0
 11
1114.100991
 21
188.728457
 31
0.0
1001
ACAD
1000
RTLwPs
1070
   158
  0
LINE
  5
6ECC
  8
COTATION1
 62
     0
 10
1138.100991
 20
120.728457
 30
0.0
 11
1138.100991
 21
188.728457
 31
0.0
1001
ACAD
1000
RTLwPs
1070
   158
  0
LINE
  5
6ECD
  8
COTATION1
 62
     0
 10
1119.100991
 20
186.228457
 30
0.0
 11
1133.100991
 21
186.228457
 31
0.0
1001
ACAD
1000
RTLwPs
1070
   158
  0
INSERT
  5
6ECE
  8
COTATION1
 62
     0
  2
_OPEN30
 10
1114.100991
 20
186.228457
 30
0.0
 41
5.0
 42
5.0
 43
5.0
 50
180.0
1001
ACAD
1000
RTLwPs
1070
   158
  0
INSERT
  5
6ECF
  8
COTATION1
 62
     0
  2
_OPEN30
 10
1138.100991
 20
186.228457
 30
0.0
 41
5.0
 42
5.0
 43
5.0
1001
ACAD
1000
RTLwPs
1070
   158
  0
TEXT
  5
6ED0
  8
COTATION1
 62
     0
 10
1123.660515
 20
188.228457
 30
0.0
 40
2.5
  1
24
1001
ACAD
1000
MTEXTBEGIN
1070
    73
1070
     1
1070
    44
1040
1.0
1070
    74
1070
     0
1000
MTEXTEND
  0
POINT
  5
6ED1
  8
DEFPOINTS
 62
     0
 10
1114.100991
 20
164.228457
 30
0.0
  0
POINT
  5
6ED2
  8
DEFPOINTS
 62
     0
 10
1138.100991
 20
118.728457
 30
0.0
  0
POINT
  5
6ED3
  8
DEFPOINTS
 62
     0
 10
1138.100991
 20
186.228457
 30
0.0
  0
ENDBLK
  5
6E5E
  8
0
  0
BLOCK
  8
0
  2
*D7
 70
     1
 10
0.0
 20
0.0
 30
0.0
  3
*D7
  1

  0
LINE
  5
6ED4
  8
COTATION1
 62
     0
 10
1125.600991
 20
143.390128
 30
0.0
 11
1125.600991
 21
178.728457
 31
0.0
1001
ACAD
1000
RTLwPs
1070
   158
  0
LINE
  5
6ED5
  8
COTATION1
 62
     0
 10
1138.100991
 20
120.728457
 30
0.0
 11
1138.100991
 21
178.728457
 31
0.0
1001
ACAD
1000
RTLwPs
1070
   158
  0
LINE
  5
6ED6
  8
COTATION1
 62
     0
 10
1120.600991
 20
176.228457
 30
0.0
 11
1115.600991
 21
176.228457
 31
0.0
1001
ACAD
1000
RTLwPs
1070
   158
  0
LINE
  5
6ED7
  8
COTATION1
 62
     0
 10
1143.100991
 20
176.228457
 30
0.0
 11
1148.100991
 21
176.228457
 31
0.0
1001
ACAD
1000
RTLwPs
1070
   158
  0
INSERT
  5
6ED8
  8
COTATION1
 62
     0
  2
_OPEN30
 10
1125.600991
 20
176.228457
 30
0.0
 41
5.0
 42
5.0
 43
5.0
1001
ACAD
1000
RTLwPs
1070
   158
  0
INSERT
  5
6ED9
  8
COTATION1
 62
     0
  2
_OPEN30
 10
1138.100991
 20
176.228457
 30
0.0
 41
5.0
 42
5.0
 43
5.0
 50
180.0
1001
ACAD
1000
RTLwPs
1070
   158
  0
TEXT
  5
6EDA
  8
COTATION1
 62
     0
 10
1127.505753
 20
178.228457
 30
0.0
 40
2.5
  1
12.5
1001
ACAD
1000
MTEXTBEGIN
1070
    73
1070
     1
1070
    44
1040
1.0
1070
    74
1070
     0
1000
MTEXTEND
  0
POINT
  5
6EDB
  8
DEFPOINTS
 62
     0
 10
1125.600991
 20
141.390128
 30
0.0
  0
POINT
  5
6EDC
  8
DEFPOINTS
 62
     0
 10
1138.100991
 20
118.728457
 30
0.0
  0
POINT
  5
6EDD
  8
DEFPOINTS
 62
     0
 10
1138.100991
 20
176.228457
 30
0.0
  0
ENDBLK
  5
6E6B
  8
0
  0
BLOCK
  8
0
  2
*D8
 70
     1
 10
0.0
 20
0.0
 30
0.0
  3
*D8
  1

  0
LINE
  5
71E7
  8
COTATION1
 62
     0
 10
1101.100991
 20
125.703713
 30
0.0
 11
1101.100991
 21
8.887007
 31
0.0
1001
ACAD
1000
RTLwPs
1070
   158
  0
LINE
  5
71E8
  8
COTATION1
 62
     0
 10
1138.100991
 20
41.728457
 30
0.0
 11
1138.100991
 21
8.887007
 31
0.0
1001
ACAD
1000
RTLwPs
1070
   158
  0
LINE
  5
71E9
  8
COTATION1
 62
     0
 10
1106.100991
 20
11.387007
 30
0.0
 11
1133.100991
 21
11.387007
 31
0.0
1001
ACAD
1000
RTLwPs
1070
   158
  0
INSERT
  5
71EA
  8
COTATION1
 62
     0
  2
_OPEN30
 10
1101.100991
 20
11.387007
 30
0.0
 41
5.0
 42
5.0
 43
5.0
 50
180.0
1001
ACAD
1000
RTLwPs
1070
   158
  0
INSERT
  5
71EB
  8
COTATION1
 62
     0
  2
_OPEN30
 10
1138.100991
 20
11.387007
 30
0.0
 41
5.0
 42
5.0
 43
5.0
1001
ACAD
1000
RTLwPs
1070
   158
  0
TEXT
  5
71EC
  8
COTATION1
 62
     0
 10
1117.220039
 20
13.387007
 30
0.0
 40
2.5
  1
37
1001
ACAD
1000
MTEXTBEGIN
1070
    73
1070
     1
1070
    44
1040
1.0
1070
    74
1070
     0
1000
MTEXTEND
  0
POINT
  5
71ED
  8
DEFPOINTS
 62
     0
 10
1101.100991
 20
127.703713
 30
0.0
  0
POINT
  5
71EE
  8
DEFPOINTS
 62
     0
 10
1138.100991
 20
43.728457
 30
0.0
  0
POINT
  5
71EF
  8
DEFPOINTS
 62
     0
 10
1138.100991
 20
11.387007
 30
0.0
  0
ENDBLK
  5
7088
  8
0
  0
BLOCK
  8
0
  2
*D9
 70
     1
 10
0.0
 20
0.0
 30
0.0
  3
*D9
  1

  0
LINE
  5
70CD
  8
COTATION1
 62
     0
 10
1134.100991
 20
59.728457
 30
0.0
 11
1134.100991
 21
74.087159
 31
0.0
1001
ACAD
1000
RTLwPs
1070
   158
  0
LINE
  5
70CE
  8
COTATION1
 62
     0
 10
1138.100991
 20
61.728457
 30
0.0
 11
1138.100991
 21
74.087159
 31
0.0
1001
ACAD
1000
RTLwPs
1070
   158
  0
LINE
  5
70CF
  8
COTATION1
 62
     0
 10
1129.100991
 20
71.587159
 30
0.0
 11
1124.100991
 21
71.587159
 31
0.0
1001
ACAD
1000
RTLwPs
1070
   158
  0
LINE
  5
70D0
  8
COTATION1
 62
     0
 10
1143.100991
 20
71.587159
 30
0.0
 11
1148.100991
 21
71.587159
 31
0.0
1001
ACAD
1000
RTLwPs
1070
   158
  0
TEXT
  5
70D1
  8
COTATION1
 62
     0
 10
1145.610505
 20
72.574117
 30
0.0
 40
2.5
  1
4
1001
ACAD
1000
MTEXTBEGIN
1070
    73
1070
     1
1070
    44
1040
1.0
1070
    74
1070
     0
1000
MTEXTEND
  0
INSERT
  5
70D2
  8
COTATION1
 62
     0
  2
_OPEN30
 10
1134.100991
 20
71.587159
 30
0.0
 41
5.0
 42
5.0
 43
5.0
1001
ACAD
1000
RTLwPs
1070
   158
  0
INSERT
  5
70D3
  8
COTATION1
 62
     0
  2
_OPEN30
 10
1138.100991
 20
71.587159
 30
0.0
 41
5.0
 42
5.0
 43
5.0
 50
180.0
1001
ACAD
1000
RTLwPs
1070
   158
  0
POINT
  5
70D4
  8
DEFPOINTS
 62
     0
 10
1134.100991
 20
57.728457
 30
0.0
  0
POINT
  5
70D5
  8
DEFPOINTS
 62
     0
 10
1138.100991
 20
59.728457
 30
0.0
  0
POINT
  5
70D6
  8
DEFPOINTS
 62
     0
 10
1138.100991
 20
71.587159
 30
0.0
  0
ENDBLK
  5
70C2
  8
0
  0
BLOCK
  8
0
  2
*D10
 70
     1
 10
0.0
 20
0.0
 30
0.0
  3
*D10
  1

  0
LINE
  5
71A3
  8
COTATION1
 62
     0
 10
1118.850991
 20
161.228457
 30
0.0
 11
1163.100991
 21
161.228457
 31
0.0
1001
ACAD
1000
RTLwPs
1070
   158
  0
LINE
  5
71A4
  8
COTATION1
 62
     0
 10
1138.450991
 20
50.228457
 30
0.0
 11
1163.100991
 21
50.228457
 31
0.0
1001
ACAD
1000
RTLwPs
1070
   158
  0
LINE
  5
71A5
  8
COTATION1
 62
     0
 10
1160.600991
 20
156.228457
 30
0.0
 11
1160.600991
 21
108.978457
 31
0.0
1001
ACAD
1000
RTLwPs
1070
   158
  0
LINE
  5
71A6
  8
COTATION1
 62
     0
 10
1160.600991
 20
55.228457
 30
0.0
 11
1160.600991
 21
102.478457
 31
0.0
1001
ACAD
1000
RTLwPs
1070
   158
  0
INSERT
  5
71A7
  8
COTATION1
 62
     0
  2
_OPEN30
 10
1160.600991
 20
161.228457
 30
0.0
 41
5.0
 42
5.0
 43
5.0
 50
90.0
1001
ACAD
1000
RTLwPs
1070
   158
  0
INSERT
  5
71A8
  8
COTATION1
 62
     0
  2
_OPEN30
 10
1160.600991
 20
50.228457
 30
0.0
 41
5.0
 42
5.0
 43
5.0
 50
270.0
1001
ACAD
1000
RTLwPs
1070
   158
  0
TEXT
  5
71A9
  8
COTATION1
 62
     0
 10
1157.208134
 20
104.478457
 30
0.0
 40
2.5
  1
111
1001
ACAD
1000
MTEXTBEGIN
1070
    73
1070
     1
1070
    44
1040
1.0
1070
    74
1070
     0
1000
MTEXTEND
  0
POINT
  5
71AA
  8
DEFPOINTS
 62
     0
 10
1116.850991
 20
161.228457
 30
0.0
  0
POINT
  5
71AB
  8
DEFPOINTS
 62
     0
 10
1136.450991
 20
50.228457
 30
0.0
  0
POINT
  5
71AC
  8
DEFPOINTS
 62
     0
 10
1160.600991
 20
50.228457
 30
0.0
  0
ENDBLK
  5
71AE
  8
0
  0
BLOCK
  8
0
  2
*D11
 70
     1
 10
0.0
 20
0.0
 30
0.0
  3
*D11
  1

  0
LINE
  5
71F1
  8
COTATION1
 62
     0
 10
1108.100991
 20
57.045918
 30
0.0
 11
1108.100991
 21
18.887007
 31
0.0
1001
ACAD
1000
RTLwPs
1070
   158
  0
LINE
  5
71F2
  8
COTATION1
 62
     0
 10
1138.100991
 20
51.728457
 30
0.0
 11
1138.100991
 21
18.887007
 31
0.0
1001
ACAD
1000
RTLwPs
1070
   158
  0
LINE
  5
71F3
  8
COTATION1
 62
     0
 10
1113.100991
 20
21.387007
 30
0.0
 11
1133.100991
 21
21.387007
 31
0.0
1001
ACAD
1000
RTLwPs
1070
   158
  0
INSERT
  5
71F4
  8
COTATION1
 62
     0
  2
_OPEN30
 10
1108.100991
 20
21.387007
 30
0.0
 41
5.0
 42
5.0
 43
5.0
 50
180.0
1001
ACAD
1000
RTLwPs
1070
   158
  0
INSERT
  5
71F5
  8
COTATION1
 62
     0
  2
_OPEN30
 10
1138.100991
 20
21.387007
 30
0.0
 41
5.0
 42
5.0
 43
5.0
1001
ACAD
1000
RTLwPs
1070
   158
  0
TEXT
  5
71F6
  8
COTATION1
 62
     0
 10
1120.720039
 20
23.387007
 30
0.0
 40
2.5
  1
30
1001
ACAD
1000
MTEXTBEGIN
1070
    73
1070
     1
1070
    44
1040
1.0
1070
    74
1070
     0
1000
MTEXTEND
  0
POINT
  5
71F7
  8
DEFPOINTS
 62
     0
 10
1108.100991
 20
59.045918
 30
0.0
  0
POINT
  5
71F8
  8
DEFPOINTS
 62
     0
 10
1138.100991
 20
53.728457
 30
0.0
  0
POINT
  5
71F9
  8
DEFPOINTS
 62
     0
 10
1138.100991
 20
21.387007
 30
0.0
  0
ENDBLK
  5
71FB
  8
0
  0
ENDSEC
  0
SECTION
  2
ENTITIES
  0
INSERT
  5
A
  8
0
  2
COTE
 10
0.0
 20
0.0
 30
0.0
  0
INSERT
  5
17
  8
0
  2
COTE
 10
284.010391
 20
6.373258
 30
0.0
  0
INSERT
  5
72
  8
0
  2
FOND
 10
0.0
 20
0.0
 30
0.0
  0
POLYLINE
  5
662C
  8
ALPHA
 66
     1
 10
0.0
 20
0.0
 30
0.0
 70
   128
210
0.0
220
0.0
230
-1.0
  0
VERTEX
  5
72F6
  8
ALPHA
 10
-1126.147734
 20
58.413808
 30
0.0
  0
VERTEX
  5
72F7
  8
ALPHA
 10
-1126.887576
 20
58.413808
 30
0.0
  0
VERTEX
  5
72F8
  8
ALPHA
 10
-1127.337529
 20
58.282761
 30
0.0
  0
VERTEX
  5
72F9
  8
ALPHA
 10
-1127.730024
 20
57.699099
 30
0.0
  0
VERTEX
  5
72FA
  8
ALPHA
 10
-1128.12566
 20
56.893738
 30
0.0
  0
VERTEX
  5
72FB
  8
ALPHA
 10
-1128.340684
 20
56.440208
 30
0.0
  0
SEQEND
  5
72FC
  8
ALPHA
  0
POLYLINE
  5
662D
  8
ALPHA
 66
     1
 10
0.0
 20
0.0
 30
0.0
 70
   128
210
0.0
220
0.0
230
-1.0
  0
VERTEX
  5
72FD
  8
ALPHA
 10
-1120.923893
 20
54.728457
 30
0.0
  0
VERTEX
  5
72FE
  8
ALPHA
 10
-1119.236833
 20
54.883982
 30
0.0
  0
VERTEX
  5
72FF
  8
ALPHA
 10
-1117.323207
 20
55.250769
 30
0.0
  0
VERTEX
  5
7300
  8
ALPHA
 10
-1113.340514
 20
56.356367
 30
0.0
  0
VERTEX
  5
7301
  8
ALPHA
 10
-1111.533574
 20
56.964297
 30
0.0
  0
VERTEX
  5
7302
  8
ALPHA
 10
-1110.024324
 20
57.521728
 30
0.0
  0
VERTEX
  5
7303
  8
ALPHA
 10
-1108.943826
 20
57.963219
 30
0.0
  0
VERTEX
  5
7304
  8
ALPHA
 10
-1108.423144
 20
58.22333
 30
0.0
  0
SEQEND
  5
7305
  8
ALPHA
  0
LINE
  5
662E
  8
ALPHA
 10
1108.423144
 20
58.22333
 30
0.0
 11
1108.100991
 21
58.780776
 31
0.0
  0
POLYLINE
  5
662F
  8
ALPHA
 66
     1
 10
0.0
 20
0.0
 30
0.0
 70
   128
  0
VERTEX
  5
7306
  8
ALPHA
 10
1122.585142
 20
56.728457
 30
0.0
  0
VERTEX
  5
7307
  8
ALPHA
 10
1121.779375
 20
69.214045
 30
0.0
  0
VERTEX
  5
7308
  8
ALPHA
 10
1120.150045
 20
81.073691
 30
0.0
  0
VERTEX
  5
7309
  8
ALPHA
 10
1117.940614
 20
92.082127
 30
0.0
  0
VERTEX
  5
730A
  8
ALPHA
 10
1116.694443
 20
97.196747
 30
0.0
  0
VERTEX
  5
730B
  8
ALPHA
 10
1115.394545
 20
102.014089
 30
0.0
  0
SEQEND
  5
730C
  8
ALPHA
  0
POLYLINE
  5
6630
  8
ALPHA
 66
     1
 10
0.0
 20
0.0
 30
0.0
 70
   128
210
0.0
220
0.0
230
-1.0
  0
VERTEX
  5
730D
  8
ALPHA
 10
-1125.490234
 20
57.976207
 30
0.0
  0
VERTEX
  5
730E
  8
ALPHA
 10
-1125.752808
 20
58.342615
 30
0.0
  0
VERTEX
  5
730F
  8
ALPHA
 10
-1126.147734
 20
58.413808
 30
0.0
  0
SEQEND
  5
7310
  8
ALPHA
  0
POLYLINE
  5
6631
  8
ALPHA
 66
     1
 10
0.0
 20
0.0
 30
0.0
 70
   128
210
0.0
220
0.0
230
-1.0
  0
VERTEX
  5
7311
  8
ALPHA
 10
-1128.340684
 20
56.440208
 30
0.0
  0
VERTEX
  5
7312
  8
ALPHA
 10
-1128.570362
 20
55.94747
 30
0.0
  0
VERTEX
  5
7313
  8
ALPHA
 10
-1128.648426
 20
55.37562
 30
0.0
  0
VERTEX
  5
7314
  8
ALPHA
 10
-1128.331238
 20
54.728457
 30
0.0
  0
SEQEND
  5
7315
  8
ALPHA
  0
DIMENSION
  5
6642
  8
COTATION1
  2
*D11
 10
1138.100991
 20
21.387007
 30
0.0
 11
1123.100991
 21
24.637007
 31
0.0
 13
1108.100991
 23
59.045918
 33
0.0
 14
1138.100991
 24
53.728457
 34
0.0
  0
LINE
  5
6651
  8
AXE
 10
1103.100991
 20
86.228457
 30
0.0
 11
1153.100991
 21
86.228457
 31
0.0
  0
LINE
  5
6654
  8
ALPHA
 10
1113.100991
 20
116.028457
 30
0.0
 11
1138.100991
 21
116.028457
 31
0.0
  0
LINE
  5
6655
  8
ALPHA
 10
1114.100991
 20
53.728457
 30
0.0
 11
1138.100991
 21
53.728457
 31
0.0
  0
ARC
  5
6656
  8
ALPHA
 10
963.75876
 20
55.387689
 30
0.0
 40
156.451664
 50
0.857269
 51
18.449068
  0
LINE
  5
6657
  8
ALPHA
 10
1108.100991
 20
102.228457
 30
0.0
 11
1108.100991
 21
58.780776
 31
0.0
  0
LINE
  5
6658
  8
ALPHA
 10
1113.450516
 20
56.331078
 30
0.0
 11
1114.100991
 21
53.728457
 31
0.0
  0
ARC
  5
6659
  8
ALPHA
 10
1141.770578
 20
106.515651
 30
0.0
 40
33.671021
 50
166.958519
 51
180.528913
  0
LINE
  5
665A
  8
ALPHA
 10
1113.100991
 20
118.728457
 30
0.0
 11
1113.100991
 21
102.014089
 31
0.0
  0
LINE
  5
665B
  8
ALPHA
 10
1113.100991
 20
104.898623
 30
0.0
 11
1112.169644
 21
104.898623
 31
0.0
  0
LINE
  5
665C
  8
ALPHA
 10
1113.100991
 20
102.014089
 30
0.0
 11
1115.394545
 21
102.014089
 31
0.0
  0
LINE
  5
665D
  8
ALPHA
 10
1108.100991
 20
103.014089
 30
0.0
 11
1112.785097
 21
103.014089
 31
0.0
  0
LINE
  5
665E
  8
ALPHA
 10
1108.100991
 20
102.228457
 30
0.0
 11
1108.100991
 21
106.204829
 31
0.0
  0
ARC
  5
665F
  8
ALPHA
 10
1110.437819
 20
113.814173
 30
0.0
 40
1.5
 50
90.0
 51
168.480193
  0
LINE
  5
6660
  8
ALPHA
 10
1110.437819
 20
115.314173
 30
0.0
 11
1113.100991
 21
115.314173
 31
0.0
  0
DIMENSION
  5
6661
  8
COTATION1
  2
*D10
 10
1160.600991
 20
50.228457
 30
0.0
 11
1160.600991
 21
105.728457
 31
0.0
 13
1116.850991
 23
161.228457
 33
0.0
 14
1136.450991
 24
50.228457
 34
0.0
 50
90.0
  0
LINE
  5
6663
  8
ALPHA
 10
1138.100991
 20
118.728457
 30
0.0
 11
1138.100991
 21
53.728457
 31
0.0
  0
TEXT
  5
6665
  8
AXE
 10
1118.124801
 20
33.728457
 30
0.0
 40
8.0
  1
Y
 72
     2
 11
1124.600991
 21
33.728457
 31
0.0
  0
LINE
  5
6666
  8
ALPHA
 10
1126.074747
 20
59.728457
 30
0.0
 11
1138.100991
 21
59.728457
 31
0.0
  0
LINE
  5
6667
  8
ALPHA
 10
1120.923893
 20
54.728457
 30
0.0
 11
1138.100991
 21
54.728457
 31
0.0
  0
LINE
  5
6668
  8
ALPHA
 10
1122.585142
 20
56.728457
 30
0.0
 11
1125.074011
 21
56.728457
 31
0.0
  0
LINE
  5
6669
  8
ALPHA
 10
1120.192912
 20
57.728457
 30
0.0
 11
1122.55724
 21
57.728457
 31
0.0
  0
LINE
  5
666A
  8
ALPHA
 10
1126.074747
 20
59.728457
 30
0.0
 11
1125.074011
 21
56.728457
 31
0.0
  0
TEXT
  5
667F
  8
AXE
 10
1146.624801
 20
87.228457
 30
0.0
 40
8.0
  1
Z
 72
     2
 11
1153.100991
 21
87.228457
 31
0.0
  0
LINE
  5
6C3D
  8
AXE
 10
1125.600991
 20
141.390128
 30
0.0
 11
1125.600991
 21
33.728457
 31
0.0
  0
POLYLINE
  5
6DE6
  8
ALPHA
 66
     1
 10
0.0
 20
0.0
 30
0.0
 70
   128
210
0.0
220
0.0
230
-1.0
  0
VERTEX
  5
7316
  8
ALPHA
 10
-1101.100991
 20
128.709459
 30
0.0
  0
VERTEX
  5
7317
  8
ALPHA
 10
-1101.305987
 20
130.191553
 30
0.0
  0
VERTEX
  5
7318
  8
ALPHA
 10
-1101.64158
 20
131.255287
 30
0.0
  0
VERTEX
  5
7319
  8
ALPHA
 10
-1101.954981
 20
131.896545
 30
0.0
  0
VERTEX
  5
731A
  8
ALPHA
 10
-1102.093401
 20
132.111213
 30
0.0
  0
SEQEND
  5
731B
  8
ALPHA
  0
LINE
  5
6DE7
  8
ALPHA
 10
1102.011719
 20
128.709459
 30
0.0
 11
1101.100991
 21
128.709459
 31
0.0
  0
POLYLINE
  5
6DE8
  8
ALPHA
 66
     1
 10
0.0
 20
0.0
 30
0.0
 70
   128
  0
VERTEX
  5
731C
  8
ALPHA
 10
1104.40606
 20
119.602511
 30
0.0
  0
VERTEX
  5
731D
  8
ALPHA
 10
1104.40606
 20
120.072548
 30
0.0
  0
VERTEX
  5
731E
  8
ALPHA
 10
1104.40606
 20
121.361104
 30
0.0
  0
VERTEX
  5
731F
  8
ALPHA
 10
1104.40606
 20
123.285852
 30
0.0
  0
VERTEX
  5
7320
  8
ALPHA
 10
1104.40606
 20
125.664461
 30
0.0
  0
VERTEX
  5
7321
  8
ALPHA
 10
1104.40606
 20
131.053947
 30
0.0
  0
VERTEX
  5
7322
  8
ALPHA
 10
1104.40606
 20
136.070928
 30
0.0
  0
SEQEND
  5
7323
  8
ALPHA
  0
POLYLINE
  5
6DE9
  8
ALPHA
 66
     1
 10
0.0
 20
0.0
 30
0.0
 70
   128
  0
VERTEX
  5
7324
  8
ALPHA
 10
1106.415361
 20
119.602498
 30
0.0
  0
VERTEX
  5
7325
  8
ALPHA
 10
1106.101408
 20
119.6025
 30
0.0
  0
VERTEX
  5
7326
  8
ALPHA
 10
1105.410711
 20
119.602505
 30
0.0
  0
VERTEX
  5
7327
  8
ALPHA
 10
1104.720014
 20
119.602509
 30
0.0
  0
VERTEX
  5
7328
  8
ALPHA
 10
1104.40606
 20
119.602511
 30
0.0
  0
SEQEND
  5
7329
  8
ALPHA
  0
POLYLINE
  5
6DEA
  8
ALPHA
 66
     1
 10
0.0
 20
0.0
 30
0.0
 70
   128
  0
VERTEX
  5
732A
  8
ALPHA
 10
1103.902632
 20
132.228457
 30
0.0
  0
VERTEX
  5
732B
  8
ALPHA
 10
1103.902632
 20
131.882828
 30
0.0
  0
VERTEX
  5
732C
  8
ALPHA
 10
1103.902632
 20
130.971622
 30
0.0
  0
VERTEX
  5
732D
  8
ALPHA
 10
1103.902632
 20
128.206586
 30
0.0
  0
VERTEX
  5
732E
  8
ALPHA
 10
1103.902632
 20
125.44155
 30
0.0
  0
VERTEX
  5
732F
  8
ALPHA
 10
1103.902632
 20
124.530344
 30
0.0
  0
VERTEX
  5
7330
  8
ALPHA
 10
1103.902632
 20
124.184715
 30
0.0
  0
SEQEND
  5
7331
  8
ALPHA
  0
POLYLINE
  5
6DEB
  8
ALPHA
 66
     1
 10
0.0
 20
0.0
 30
0.0
 70
   128
  0
VERTEX
  5
7332
  8
ALPHA
 10
1103.902632
 20
124.184715
 30
0.0
  0
VERTEX
  5
7333
  8
ALPHA
 10
1103.61994
 20
124.202861
 30
0.0
  0
VERTEX
  5
7334
  8
ALPHA
 10
1102.998016
 20
124.242781
 30
0.0
  0
VERTEX
  5
7335
  8
ALPHA
 10
1102.376093
 20
124.282702
 30
0.0
  0
VERTEX
  5
7336
  8
ALPHA
 10
1102.093401
 20
124.300848
 30
0.0
  0
SEQEND
  5
7337
  8
ALPHA
  0
LINE
  5
6DEC
  8
ALPHA
 10
1102.011719
 20
127.703713
 30
0.0
 11
1102.011719
 21
128.709459
 31
0.0
  0
LINE
  5
6DED
  8
ALPHA
 10
1101.100991
 20
127.703713
 30
0.0
 11
1102.011719
 21
127.703713
 31
0.0
  0
POLYLINE
  5
6DEE
  8
ALPHA
 66
     1
 10
0.0
 20
0.0
 30
0.0
 70
   128
210
0.0
220
0.0
230
-1.0
  0
VERTEX
  5
7338
  8
ALPHA
 10
-1102.093401
 20
124.300848
 30
0.0
  0
VERTEX
  5
7339
  8
ALPHA
 10
-1101.954981
 20
124.515689
 30
0.0
  0
VERTEX
  5
733A
  8
ALPHA
 10
-1101.64158
 20
125.157329
 30
0.0
  0
VERTEX
  5
733B
  8
ALPHA
 10
-1101.305987
 20
126.221445
 30
0.0
  0
VERTEX
  5
733C
  8
ALPHA
 10
-1101.100991
 20
127.703713
 30
0.0
  0
SEQEND
  5
733D
  8
ALPHA
  0
POLYLINE
  5
6DEF
  8
ALPHA
 66
     1
 10
0.0
 20
0.0
 30
0.0
 70
   128
  0
VERTEX
  5
733E
  8
ALPHA
 10
1102.093401
 20
132.111213
 30
0.0
  0
VERTEX
  5
733F
  8
ALPHA
 10
1102.376093
 20
132.129532
 30
0.0
  0
VERTEX
  5
7340
  8
ALPHA
 10
1102.998016
 20
132.169835
 30
0.0
  0
VERTEX
  5
7341
  8
ALPHA
 10
1103.61994
 20
132.210138
 30
0.0
  0
VERTEX
  5
7342
  8
ALPHA
 10
1103.902632
 20
132.228457
 30
0.0
  0
SEQEND
  5
7343
  8
ALPHA
  0
POLYLINE
  5
6DF0
  8
ALPHA
 66
     1
 10
0.0
 20
0.0
 30
0.0
 70
   128
  0
VERTEX
  5
7344
  8
ALPHA
 10
1117.557698
 20
119.097416
 30
0.0
  0
VERTEX
  5
7345
  8
ALPHA
 10
1106.415329
 20
119.097416
 30
0.0
  0
VERTEX
  5
7346
  8
ALPHA
 10
1106.415341
 20
119.291621
 30
0.0
  0
VERTEX
  5
7347
  8
ALPHA
 10
1106.415377
 20
119.840462
 30
0.0
  0
VERTEX
  5
7348
  8
ALPHA
 10
1106.415503
 20
121.799402
 30
0.0
  0
VERTEX
  5
7349
  8
ALPHA
 10
1106.415681
 20
124.568938
 30
0.0
  0
VERTEX
  5
734A
  8
ALPHA
 10
1106.415885
 20
127.743772
 30
0.0
  0
VERTEX
  5
734B
  8
ALPHA
 10
1106.416089
 20
130.918606
 30
0.0
  0
VERTEX
  5
734C
  8
ALPHA
 10
1106.416267
 20
133.688142
 30
0.0
  0
VERTEX
  5
734D
  8
ALPHA
 10
1106.416392
 20
135.647082
 30
0.0
  0
VERTEX
  5
734E
  8
ALPHA
 10
1106.416428
 20
136.195923
 30
0.0
  0
VERTEX
  5
734F
  8
ALPHA
 10
1106.41644
 20
136.390128
 30
0.0
  0
VERTEX
  5
7350
  8
ALPHA
 10
1131.63258
 20
136.390128
 30
0.0
  0
SEQEND
  5
7351
  8
ALPHA
  0
POLYLINE
  5
6DF1
  8
ALPHA
 66
     1
 10
0.0
 20
0.0
 30
0.0
 70
   128
  0
VERTEX
  5
7352
  8
ALPHA
 10
1133.643515
 20
134.378081
 30
0.0
  0
VERTEX
  5
7353
  8
ALPHA
 10
1133.643515
 20
134.202329
 30
0.0
  0
VERTEX
  5
7354
  8
ALPHA
 10
1133.643515
 20
133.705636
 30
0.0
  0
VERTEX
  5
7355
  8
ALPHA
 10
1133.643515
 20
131.932827
 30
0.0
  0
VERTEX
  5
7356
  8
ALPHA
 10
1133.643515
 20
129.426442
 30
0.0
  0
VERTEX
  5
7357
  8
ALPHA
 10
1133.643515
 20
126.553269
 30
0.0
  0
VERTEX
  5
7358
  8
ALPHA
 10
1133.643515
 20
123.680096
 30
0.0
  0
VERTEX
  5
7359
  8
ALPHA
 10
1133.643515
 20
121.173711
 30
0.0
  0
VERTEX
  5
735A
  8
ALPHA
 10
1133.643515
 20
119.400902
 30
0.0
  0
VERTEX
  5
735B
  8
ALPHA
 10
1133.643515
 20
118.90421
 30
0.0
  0
VERTEX
  5
735C
  8
ALPHA
 10
1133.643515
 20
118.728457
 30
0.0
  0
SEQEND
  5
735D
  8
ALPHA
  0
POLYLINE
  5
6DF2
  8
ALPHA
 66
     1
 10
0.0
 20
0.0
 30
0.0
 70
   128
  0
VERTEX
  5
735E
  8
ALPHA
 10
1133.643515
 20
118.728457
 30
0.0
  0
VERTEX
  5
735F
  8
ALPHA
 10
1133.462864
 20
118.728457
 30
0.0
  0
VERTEX
  5
7360
  8
ALPHA
 10
1132.952328
 20
118.728457
 30
0.0
  0
VERTEX
  5
7361
  8
ALPHA
 10
1131.130106
 20
118.728457
 30
0.0
  0
VERTEX
  5
7362
  8
ALPHA
 10
1128.553862
 20
118.728457
 30
0.0
  0
VERTEX
  5
7363
  8
ALPHA
 10
1125.600607
 20
118.728457
 30
0.0
  0
VERTEX
  5
7364
  8
ALPHA
 10
1122.647351
 20
118.728457
 30
0.0
  0
VERTEX
  5
7365
  8
ALPHA
 10
1120.071107
 20
118.728457
 30
0.0
  0
VERTEX
  5
7366
  8
ALPHA
 10
1118.248885
 20
118.728457
 30
0.0
  0
VERTEX
  5
7367
  8
ALPHA
 10
1117.738349
 20
118.728457
 30
0.0
  0
VERTEX
  5
7368
  8
ALPHA
 10
1117.557698
 20
118.728457
 30
0.0
  0
SEQEND
  5
7369
  8
ALPHA
  0
POLYLINE
  5
6DF4
  8
ALPHA
 66
     1
 10
0.0
 20
0.0
 30
0.0
 70
   128
  0
VERTEX
  5
736A
  8
ALPHA
 10
1125.600329
 20
124.733481
 30
0.0
  0
VERTEX
  5
736B
  8
ALPHA
 10
1124.253275
 20
124.491306
 30
0.0
  0
VERTEX
  5
736C
  8
ALPHA
 10
1122.986067
 20
123.852846
 30
0.0
  0
VERTEX
  5
736D
  8
ALPHA
 10
1120.726769
 20
121.915448
 30
0.0
  0
VERTEX
  5
736E
  8
ALPHA
 10
1118.893593
 20
119.978051
 30
0.0
  0
VERTEX
  5
736F
  8
ALPHA
 10
1118.159038
 20
119.33959
 30
0.0
  0
VERTEX
  5
7370
  8
ALPHA
 10
1117.557698
 20
119.097416
 30
0.0
  0
SEQEND
  5
7371
  8
ALPHA
  0
LINE
  5
6DF5
  8
ALPHA
 10
1117.557698
 20
118.728457
 30
0.0
 11
1117.557698
 21
119.097416
 31
0.0
  0
POLYLINE
  5
6DF7
  8
ALPHA
 66
     1
 10
0.0
 20
0.0
 30
0.0
 70
   128
210
0.0
220
0.0
230
-1.0
  0
VERTEX
  5
7372
  8
ALPHA
 10
-1131.63258
 20
136.390128
 30
0.0
  0
VERTEX
  5
7373
  8
ALPHA
 10
-1132.415861
 20
136.232103
 30
0.0
  0
VERTEX
  5
7374
  8
ALPHA
 10
-1133.055001
 20
135.801058
 30
0.0
  0
VERTEX
  5
7375
  8
ALPHA
 10
-1133.485664
 20
135.161537
 30
0.0
  0
VERTEX
  5
7376
  8
ALPHA
 10
-1133.643515
 20
134.378081
 30
0.0
  0
SEQEND
  5
7377
  8
ALPHA
  0
DIMENSION
  5
6DF8
  8
COTATION1
  2
*D4
 10
1138.100991
 20
196.228457
 30
0.0
 11
1118.100991
 21
199.478457
 31
0.0
 13
1098.100991
 23
164.228457
 33
0.0
 14
1138.100991
 24
118.728457
 34
0.0
  0
DIMENSION
  5
6DF9
  8
COTATION1
  2
*D5
 10
1100.850991
 20
186.228457
 30
0.0
 11
1085.350991
 21
186.228457
 31
0.0
 70
   128
 13
1095.350991
 23
161.228457
 33
0.0
 14
1100.850991
 24
161.228457
 34
0.0
  0
DIMENSION
  5
6DFA
  8
COTATION1
  2
*D6
 10
1138.100991
 20
186.228457
 30
0.0
 11
1126.100991
 21
189.478457
 31
0.0
 13
1114.100991
 23
164.228457
 33
0.0
 14
1138.100991
 24
118.728457
 34
0.0
  0
DIMENSION
  5
6DFB
  8
COTATION1
  2
*D7
 10
1138.100991
 20
176.228457
 30
0.0
 11
1131.850991
 21
179.478457
 31
0.0
 13
1125.600991
 23
141.390128
 33
0.0
 14
1138.100991
 24
118.728457
 34
0.0
  0
LINE
  5
6DFC
  8
ALPHA
 10
1095.350991
 20
161.228457
 30
0.0
 11
1100.850991
 21
161.228457
 31
0.0
  0
LINE
  5
6DFD
  8
ALPHA
 10
1095.350991
 20
142.228457
 30
0.0
 11
1100.850991
 21
142.228457
 31
0.0
  0
LINE
  5
6DFE
  8
ALPHA
 10
1095.350991
 20
161.228457
 30
0.0
 11
1095.350991
 21
142.228457
 31
0.0
  0
LINE
  5
6DFF
  8
AXE
 10
1098.100991
 20
164.228457
 30
0.0
 11
1098.100991
 21
139.228457
 31
0.0
  0
LINE
  5
6E02
  8
ALPHA
 10
1113.100991
 20
118.728457
 30
0.0
 11
1138.100991
 21
118.728457
 31
0.0
  0
LINE
  5
6E11
  8
POINTILLE_COURT
 10
1111.350991
 20
161.228457
 30
0.0
 11
1111.350991
 21
141.642671
 31
0.0
  0
LINE
  5
6E12
  8
POINTILLE_COURT
 10
1109.350991
 20
159.728457
 30
0.0
 11
1109.350991
 21
142.471098
 31
0.0
  0
LINE
  5
6E13
  8
ALPHA
 10
1102.850991
 20
159.728457
 30
0.0
 11
1102.850991
 21
142.471098
 31
0.0
  0
LINE
  5
6E14
  8
ALPHA
 10
1100.850991
 20
161.228457
 30
0.0
 11
1100.850991
 21
141.642671
 31
0.0
  0
LINE
  5
6E15
  8
POINTILLE_COURT
 10
1116.850991
 20
161.228457
 30
0.0
 11
1116.850991
 21
142.228457
 31
0.0
  0
LINE
  5
6E16
  8
AXE
 10
1114.100991
 20
164.228457
 30
0.0
 11
1114.100991
 21
139.228457
 31
0.0
  0
LINE
  5
6E17
  8
ALPHA
 10
1125.600328
 20
124.733481
 30
0.0
 11
1107.733599
 21
124.733481
 31
0.0
  0
LINE
  5
6E18
  8
POINTILLE_COURT
 10
1111.350991
 20
142.228457
 30
0.0
 11
1116.850991
 21
142.228457
 31
0.0
  0
ARC
  5
6E19
  8
POINTILLE_COURT
 10
1110.350991
 20
141.642671
 30
0.0
 40
1.0
 50
315.0
 51
0.0
  0
ARC
  5
6E1B
  8
POINTILLE_COURT
 10
1108.350991
 20
142.471098
 30
0.0
 40
1.0
 50
315.0
 51
0.0
  0
ARC
  5
6E1D
  8
ALPHA
 10
1103.347141
 20
136.031559
 30
0.0
 40
3.069531
 50
0.73486
 51
44.741953
  0
ARC
  5
6E1E
  8
ALPHA
 10
1103.850991
 20
142.471098
 30
0.0
 40
1.0
 50
180.0
 51
225.0
  0
LINE
  5
6E1F
  8
ALPHA
 10
1105.527381
 20
138.192248
 30
0.0
 11
1103.143885
 21
141.763991
 31
0.0
  0
ARC
  5
6E20
  8
ALPHA
 10
1103.40606
 20
136.070928
 30
0.0
 40
1.0
 50
360.0
 51
45.0
  0
ARC
  5
6E21
  8
ALPHA
 10
1101.850991
 20
141.642671
 30
0.0
 40
1.0
 50
180.0
 51
225.0
  0
LINE
  5
6E22
  8
ALPHA
 10
1104.113167
 20
136.778035
 30
0.0
 11
1101.143885
 21
140.935564
 31
0.0
  0
LINE
  5
6E23
  8
ALPHA
 10
1106.416439
 20
133.233092
 30
0.0
 11
1104.406062
 21
133.233092
 31
0.0
  0
LINE
  5
6E24
  8
ALPHA
 10
1104.406062
 20
131.467202
 30
0.0
 11
1106.416439
 21
131.467202
 31
0.0
  0
LINE
  5
6E25
  8
ALPHA
 10
1104.406062
 20
132.131773
 30
0.0
 11
1106.416439
 21
132.131773
 31
0.0
  0
LINE
  5
6E26
  8
ALPHA
 10
1104.406062
 20
132.774673
 30
0.0
 11
1106.416439
 21
132.774673
 31
0.0
  0
LINE
  5
6E27
  8
ALPHA
 10
1104.406062
 20
134.741154
 30
0.0
 11
1103.902633
 21
134.741154
 31
0.0
  0
LINE
  5
6E28
  8
ALPHA
 10
1104.406062
 20
123.17897
 30
0.0
 11
1106.416439
 21
123.17897
 31
0.0
  0
LINE
  5
6E29
  8
ALPHA
 10
1104.406062
 20
128.763357
 30
0.0
 11
1106.416439
 21
128.763357
 31
0.0
  0
LINE
  5
6E2A
  8
ALPHA
 10
1104.406062
 20
129.664641
 30
0.0
 11
1106.416439
 21
129.664641
 31
0.0
  0
LINE
  5
6E2B
  8
ALPHA
 10
1104.406062
 20
130.565921
 30
0.0
 11
1106.416439
 21
130.565921
 31
0.0
  0
LINE
  5
6E2C
  8
ALPHA
 10
1104.406062
 20
127.649815
 30
0.0
 11
1106.416439
 21
127.649815
 31
0.0
  0
LINE
  5
6E2D
  8
ALPHA
 10
1104.406062
 20
126.748534
 30
0.0
 11
1106.416439
 21
126.748534
 31
0.0
  0
LINE
  5
6E2E
  8
ALPHA
 10
1104.406062
 20
125.846141
 30
0.0
 11
1106.416439
 21
125.846141
 31
0.0
  0
LINE
  5
6E2F
  8
ALPHA
 10
1104.406062
 20
124.94486
 30
0.0
 11
1106.416439
 21
124.94486
 31
0.0
  0
LINE
  5
6E30
  8
ALPHA
 10
1104.406062
 20
124.280289
 30
0.0
 11
1106.416439
 21
124.280289
 31
0.0
  0
LINE
  5
6E31
  8
ALPHA
 10
1104.406062
 20
123.637389
 30
0.0
 11
1106.416439
 21
123.637389
 31
0.0
  0
LINE
  5
6E32
  8
ALPHA
 10
1103.902633
 20
121.670905
 30
0.0
 11
1104.406062
 21
121.670905
 31
0.0
  0
LINE
  5
6E33
  8
ALPHA
 10
1103.902633
 20
134.741154
 30
0.0
 11
1103.902633
 21
121.670905
 31
0.0
  0
LINE
  5
6E34
  8
ALPHA
 10
1104.406062
 20
121.670905
 30
0.0
 11
1104.406062
 21
134.741154
 31
0.0
  0
LINE
  5
6E35
  8
ALPHA
 10
1104.406062
 20
133.233092
 30
0.0
 11
1104.406062
 21
123.17897
 31
0.0
  0
LINE
  5
6E36
  8
ALPHA
 10
1106.416439
 20
123.17897
 30
0.0
 11
1106.416439
 21
133.233092
 31
0.0
  0
LINE
  5
6E37
  8
POINTILLE_COURT
 10
1111.350991
 20
161.228457
 30
0.0
 11
1116.850991
 21
161.228457
 31
0.0
  0
LINE
  5
6E38
  8
POINTILLE_COURT
 10
1111.350991
 20
159.728457
 30
0.0
 11
1109.350991
 21
159.728457
 31
0.0
  0
LINE
  5
6E39
  8
ALPHA
 10
1100.850991
 20
159.728457
 30
0.0
 11
1102.850991
 21
159.728457
 31
0.0
  0
DIMENSION
  5
707C
  8
COTATION1
  2
*D8
 10
1138.100991
 20
11.387007
 30
0.0
 11
1119.600991
 21
14.637007
 31
0.0
 13
1101.100991
 23
127.703713
 33
0.0
 14
1138.100991
 24
43.728457
 34
0.0
  0
DIMENSION
  5
70B1
  8
COTATION1
  2
*D9
 10
1138.100991
 20
71.587159
 30
0.0
 11
1146.860505
 21
73.824117
 31
0.0
 70
   128
 13
1134.100991
 23
57.728457
 33
0.0
 14
1138.100991
 24
59.728457
 34
0.0
  0
LINE
  5
70B2
  8
POINTILLE_COURT
 10
1138.100991
 20
59.228457
 30
0.0
 11
1135.600991
 21
59.228457
 31
0.0
  0
LINE
  5
70B3
  8
POINTILLE_COURT
 10
1138.100991
 20
56.228457
 30
0.0
 11
1135.600991
 21
56.228457
 31
0.0
  0
ARC
  5
70B4
  8
POINTILLE_COURT
 10
1135.600991
 20
57.728457
 30
0.0
 40
1.5
 50
90.0
 51
270.0
  0
LINE
  5
70E5
  8
POINTILLE_COURT
 10
1107.760354
 20
139.819281
 30
0.0
 11
1109.058098
 21
141.763991
 31
0.0
  0
LINE
  5
70E6
  8
POINTILLE_COURT
 10
1109.453777
 20
138.689226
 30
0.0
 11
1111.058098
 21
140.935564
 31
0.0
  0
LINE
  5
719E
  8
ALPHA
 10
1114.750991
 20
50.228457
 30
0.0
 11
1136.450991
 21
50.228457
 31
0.0
  0
LINE
  5
719F
  8
ALPHA
 10
1114.750991
 20
50.228457
 30
0.0
 11
1114.750991
 21
53.728457
 31
0.0
  0
LINE
  5
71A0
  8
ALPHA
 10
1136.450991
 20
53.728457
 30
0.0
 11
1136.450991
 21
50.228457
 31
0.0
  0
VIEWPORT
  5
494D
 67
     1
  8
0
 10
4.995325
 20
6.556512
 30
0.0
 40
22.70986
 41
13.988421
 68
    -1
 69
     1
1001
ACAD
1000
MVIEW
1002
{
1070
    16
1010
0.0
1020
0.0
1030
0.0
1010
0.0
1020
0.0
1030
1.0
1040
0.0
1040
13.988421
1040
4.995325
1040
6.556512
1040
50.0
1040
0.0
1040
0.0
1070
     0
1070
   100
1070
     1
1070
     1
1070
     0
1070
     0
1070
     0
1070
     0
1040
0.0
1040
0.0
1040
0.0
1040
10.0
1040
10.0
1040
10.0
1040
10.0
1070
     0
1002
{
1002
}
1002
}
  0
ENDSEC
  0
EOF
