  0
SECTION
  2
HEADER
  9
$ACADVER
  1
AC1014
  9
$ACADMAINTVER
 70
     0
  9
$DWGCODEPAGE
  3
ANSI_1252
  9
$INSBASE
 10
93.894301
 20
236.06014
 30
0.0
  9
$EXTMIN
 10
-23.421276
 20
-20.546512
 30
0.0
  9
$EXTMAX
 10
111.350324
 20
125.475555
 30
0.0
  9
$LIMMIN
 10
0.0
 20
0.0
  9
$LIMMAX
 10
210.0
 20
297.0
  9
$ORTHOMODE
 70
     0
  9
$REGENMODE
 70
     1
  9
$FILLMODE
 70
     1
  9
$QTEXTMODE
 70
     0
  9
$MIRRTEXT
 70
     0
  9
$DRAGMODE
 70
     1
  9
$LTSCALE
 40
7.0
  9
$OSMODE
 70
  4095
  9
$ATTMODE
 70
     1
  9
$TEXTSIZE
 40
2.5
  9
$TRACEWID
 40
0.05
  9
$TEXTSTYLE
  7
STANDARD
  9
$CLAYER
  8
COTATION1
  9
$CELTYPE
  6
BYLAYER
  9
$CECOLOR
 62
   256
  9
$CELTSCALE
 40
1.0
  9
$DELOBJ
 70
     1
  9
$DISPSILH
 70
     0
  9
$DIMSCALE
 40
1.0
  9
$DIMASZ
 40
3.0
  9
$DIMEXO
 40
0.0625
  9
$DIMDLI
 40
0.38
  9
$DIMRND
 40
0.01
  9
$DIMDLE
 40
0.0
  9
$DIMEXE
 40
0.18
  9
$DIMTP
 40
0.0
  9
$DIMTM
 40
0.0
  9
$DIMTXT
 40
2.5
  9
$DIMCEN
 40
0.09
  9
$DIMTSZ
 40
0.0
  9
$DIMTOL
 70
     0
  9
$DIMLIM
 70
     0
  9
$DIMTIH
 70
     0
  9
$DIMTOH
 70
     0
  9
$DIMSE1
 70
     0
  9
$DIMSE2
 70
     0
  9
$DIMTAD
 70
     1
  9
$DIMZIN
 70
    12
  9
$DIMBLK
  1

  9
$DIMASO
 70
     1
  9
$DIMSHO
 70
     0
  9
$DIMPOST
  1

  9
$DIMAPOST
  1

  9
$DIMALT
 70
     0
  9
$DIMALTD
 70
     2
  9
$DIMALTF
 40
25.4
  9
$DIMLFAC
 40
1.0
  9
$DIMTOFL
 70
     1
  9
$DIMTVP
 40
0.0
  9
$DIMTIX
 70
     0
  9
$DIMSOXD
 70
     0
  9
$DIMSAH
 70
     0
  9
$DIMBLK1
  1

  9
$DIMBLK2
  1

  9
$DIMSTYLE
  2
SC_STAND
  9
$DIMCLRD
 70
     0
  9
$DIMCLRE
 70
     0
  9
$DIMCLRT
 70
     0
  9
$DIMTFAC
 40
1.0
  9
$DIMGAP
 40
1.0
  9
$DIMJUST
 70
     0
  9
$DIMSD1
 70
     0
  9
$DIMSD2
 70
     0
  9
$DIMTOLJ
 70
     1
  9
$DIMTZIN
 70
    12
  9
$DIMALTZ
 70
    12
  9
$DIMALTTZ
 70
    12
  9
$DIMFIT
 70
     5
  9
$DIMUPT
 70
     0
  9
$DIMUNIT
 70
     2
  9
$DIMDEC
 70
     3
  9
$DIMTDEC
 70
     3
  9
$DIMALTU
 70
     2
  9
$DIMALTTD
 70
     2
  9
$DIMTXSTY
  7
STANDARD
  9
$DIMAUNIT
 70
     0
  9
$LUNITS
 70
     2
  9
$LUPREC
 70
     3
  9
$SKETCHINC
 40
0.1
  9
$FILLETRAD
 40
0.0625
  9
$AUNITS
 70
     0
  9
$AUPREC
 70
     0
  9
$MENU
  1
ACAD
  9
$ELEVATION
 40
0.0
  9
$PELEVATION
 40
0.0
  9
$THICKNESS
 40
0.0
  9
$LIMCHECK
 70
     0
  9
$BLIPMODE
 70
     1
  9
$CHAMFERA
 40
0.0
  9
$CHAMFERB
 40
0.0
  9
$CHAMFERC
 40
0.0
  9
$CHAMFERD
 40
0.0
  9
$SKPOLY
 70
     0
  9
$TDCREATE
 40
2450953.590960648
  9
$TDUPDATE
 40
2453877.887646840
  9
$TDINDWG
 40
0.0050615741
  9
$TDUSRTIMER
 40
0.0050615741
  9
$USRTIMER
 70
     1
  9
$ANGBASE
 50
0.0
  9
$ANGDIR
 70
     0
  9
$PDMODE
 70
     0
  9
$PDSIZE
 40
0.0
  9
$PLINEWID
 40
0.0
  9
$COORDS
 70
     0
  9
$SPLFRAME
 70
     0
  9
$SPLINETYPE
 70
     6
  9
$SPLINESEGS
 70
     8
  9
$ATTDIA
 70
     0
  9
$ATTREQ
 70
     1
  9
$HANDLING
 70
     1
  9
$HANDSEED
  5
13F0
  9
$SURFTAB1
 70
     6
  9
$SURFTAB2
 70
     6
  9
$SURFTYPE
 70
     6
  9
$SURFU
 70
     6
  9
$SURFV
 70
     6
  9
$UCSNAME
  2

  9
$UCSORG
 10
0.0
 20
0.0
 30
0.0
  9
$UCSXDIR
 10
1.0
 20
0.0
 30
0.0
  9
$UCSYDIR
 10
0.0
 20
1.0
 30
0.0
  9
$PUCSNAME
  2

  9
$PUCSORG
 10
0.0
 20
0.0
 30
0.0
  9
$PUCSXDIR
 10
1.0
 20
0.0
 30
0.0
  9
$PUCSYDIR
 10
0.0
 20
1.0
 30
0.0
  9
$USERI1
 70
     0
  9
$USERI2
 70
     0
  9
$USERI3
 70
     0
  9
$USERI4
 70
     0
  9
$USERI5
 70
     0
  9
$USERR1
 40
0.0
  9
$USERR2
 40
0.0
  9
$USERR3
 40
0.0
  9
$USERR4
 40
0.0
  9
$USERR5
 40
0.0
  9
$WORLDVIEW
 70
     1
  9
$SHADEDGE
 70
     3
  9
$SHADEDIF
 70
    70
  9
$TILEMODE
 70
     1
  9
$MAXACTVP
 70
    32
  9
$PINSBASE
 10
0.0
 20
0.0
 30
0.0
  9
$PLIMCHECK
 70
     0
  9
$PEXTMIN
 10
-3.174999
 20
-3.175
 30
0.0
  9
$PEXTMAX
 10
203.812116
 20
370.276807
 30
0.0
  9
$PLIMMIN
 10
-3.175
 20
-3.175
  9
$PLIMMAX
 10
203.812115
 20
370.276807
  9
$UNITMODE
 70
     0
  9
$VISRETAIN
 70
     0
  9
$PLINEGEN
 70
     0
  9
$PSLTSCALE
 70
     1
  9
$TREEDEPTH
 70
  3020
  9
$PICKSTYLE
 70
     1
  9
$CMLSTYLE
  2
STANDARD
  9
$CMLJUST
 70
     0
  9
$CMLSCALE
 40
1.0
  9
$PROXYGRAPHICS
 70
     1
  9
$MEASUREMENT
 70
     0
  0
ENDSEC
  0
SECTION
  2
CLASSES
  0
CLASS
  1
DICTIONARYVAR
  2
AcDbDictionaryVar
  3
"AutoCAD"
 90
        0
280
     0
281
     0
  0
CLASS
  1
HATCH
  2
AcDbHatch
  3
"ACAD_SEDONA"
 90
        0
280
     0
281
     1
  0
ENDSEC
  0
SECTION
  2
TABLES
  0
TABLE
  2
VPORT
  5
F4
100
AcDbSymbolTable
 70
     2
  0
VPORT
  5
13EF
100
AcDbSymbolTableRecord
100
AcDbViewportTableRecord
  2
*ACTIVE
 70
     0
 10
0.0
 20
0.0
 11
1.0
 21
1.0
 12
43.964524
 22
52.464522
 13
0.0
 23
0.0
 14
1.0
 24
1.0
 15
10.0
 25
10.0
 16
0.0
 26
0.0
 36
1.0
 17
0.0
 27
0.0
 37
0.0
 40
147.736612
 41
1.966667
 42
50.0
 43
0.0
 44
0.0
 50
0.0
 51
0.0
 71
     0
 72
   100
 73
     1
 74
     1
 75
     0
 76
     1
 77
     0
 78
     0
  0
ENDTAB
  0
TABLE
  2
LTYPE
  5
F1
100
AcDbSymbolTable
 70
     5
  0
LTYPE
  5
FD
100
AcDbSymbolTableRecord
100
AcDbLinetypeTableRecord
  2
BYBLOCK
 70
     0
  3

 72
    65
 73
     0
 40
0.0
  0
LTYPE
  5
FE
100
AcDbSymbolTableRecord
100
AcDbLinetypeTableRecord
  2
BYLAYER
 70
     0
  3

 72
    65
 73
     0
 40
0.0
  0
LTYPE
  5
FF
100
AcDbSymbolTableRecord
100
AcDbLinetypeTableRecord
  2
CONTINUOUS
 70
     0
  3
Solid line
 72
    65
 73
     0
 40
0.0
  0
LTYPE
  5
112
100
AcDbSymbolTableRecord
100
AcDbLinetypeTableRecord
  2
AXES2
 70
     0
  3
___ _ ___ _ ___ _ ___ _ ___ _ ___ _ ___ _ ___ _
 72
    65
 73
     4
 40
1.125
 49
0.75
 74
     0
 49
-0.125
 74
     0
 49
0.125
 74
     0
 49
-0.125
 74
     0
  0
ENDTAB
  0
TABLE
  2
LAYER
  5
EE
100
AcDbSymbolTable
 70
     6
  0
LAYER
  5
FA
100
AcDbSymbolTableRecord
100
AcDbLayerTableRecord
  2
0
 70
     0
 62
     7
  6
CONTINUOUS
  0
LAYER
  5
12C
100
AcDbSymbolTableRecord
100
AcDbLayerTableRecord
  2
ALPHA
 70
     0
 62
   255
  6
CONTINUOUS
  0
LAYER
  5
12D
100
AcDbSymbolTableRecord
100
AcDbLayerTableRecord
  2
AXE
 70
     0
 62
    80
  6
AXES2
  0
LAYER
  5
12F
100
AcDbSymbolTableRecord
100
AcDbLayerTableRecord
  2
COTATION1
 70
     0
 62
     2
  6
CONTINUOUS
  0
LAYER
  5
13B
100
AcDbSymbolTableRecord
100
AcDbLayerTableRecord
  2
ASHADE
 70
     0
 62
     7
  6
CONTINUOUS
  0
LAYER
  5
13E
100
AcDbSymbolTableRecord
100
AcDbLayerTableRecord
  2
DEFPOINTS
 70
     0
 62
     7
  6
CONTINUOUS
  0
ENDTAB
  0
TABLE
  2
STYLE
  5
EF
100
AcDbSymbolTable
 70
     2
  0
STYLE
  5
FB
100
AcDbSymbolTableRecord
100
AcDbTextStyleTableRecord
  2
STANDARD
 70
     0
 40
0.0
 41
1.0
 50
0.0
 71
     0
 42
2.5
  3
txt
  4

  0
ENDTAB
  0
TABLE
  2
VIEW
  5
F2
100
AcDbSymbolTable
 70
     0
  0
ENDTAB
  0
TABLE
  2
UCS
  5
F3
100
AcDbSymbolTable
 70
     0
  0
ENDTAB
  0
TABLE
  2
APPID
  5
F5
100
AcDbSymbolTable
 70
     3
  0
APPID
  5
FC
100
AcDbSymbolTableRecord
100
AcDbRegAppTableRecord
  2
ACAD
 70
     0
  0
APPID
  5
127
100
AcDbSymbolTableRecord
100
AcDbRegAppTableRecord
  2
AVE_RENDER
 70
     0
  0
APPID
  5
128
100
AcDbSymbolTableRecord
100
AcDbRegAppTableRecord
  2
AVE_MATERIAL
 70
     0
  0
ENDTAB
  0
TABLE
  2
DIMSTYLE
  5
F6
100
AcDbSymbolTable
 70
     2
  0
DIMSTYLE
105
129
100
AcDbSymbolTableRecord
100
AcDbDimStyleTableRecord
  2
STANDARD
 70
     0
  3

  4

  5

  6

  7

 40
1.0
 41
0.18
 42
0.0625
 43
0.38
 44
0.18
 45
0.0
 46
0.0
 47
0.0
 48
0.0
140
0.18
141
0.09
142
0.0
143
25.4
144
1.0
145
0.0
146
1.0
147
0.09
 71
     0
 72
     0
 73
     1
 74
     1
 75
     0
 76
     0
 77
     0
 78
     0
170
     0
171
     2
172
     0
173
     0
174
     0
175
     0
176
     0
177
     0
178
     0
270
     2
271
     3
272
     3
273
     2
274
     2
340
FB
275
     0
280
     0
281
     0
282
     0
283
     1
284
    12
285
    12
286
    12
287
     5
288
     0
  0
DIMSTYLE
105
12A
102
{ACAD_REACTORS
330
1363
330
1370
330
137D
330
1395
330
13D9
330
13E6
102
}
100
AcDbSymbolTableRecord
100
AcDbDimStyleTableRecord
  2
SC_STAND
 70
     0
  3

  4

  5

  6

  7

 40
1.0
 41
3.0
 42
0.0625
 43
0.38
 44
0.18
 45
0.01
 46
0.0
 47
0.0
 48
0.0
140
2.5
141
0.09
142
0.0
143
25.4
144
1.0
145
0.0
146
1.0
147
1.0
 71
     0
 72
     0
 73
     0
 74
     0
 75
     0
 76
     0
 77
     1
 78
    12
170
     0
171
     2
172
     1
173
     0
174
     0
175
     0
176
     0
177
     0
178
     0
270
     2
271
     3
272
     3
273
     2
274
     2
340
FB
275
     0
280
     0
281
     0
282
     0
283
     1
284
    12
285
    12
286
    12
287
     5
288
     0
  0
ENDTAB
  0
TABLE
  2
BLOCK_RECORD
  5
ED
100
AcDbSymbolTable
 70
    13
  0
BLOCK_RECORD
  5
103
100
AcDbSymbolTableRecord
100
AcDbBlockTableRecord
  2
*MODEL_SPACE
  0
BLOCK_RECORD
  5
100
100
AcDbSymbolTableRecord
100
AcDbBlockTableRecord
  2
*PAPER_SPACE
  0
BLOCK_RECORD
  5
108
100
AcDbSymbolTableRecord
100
AcDbBlockTableRecord
  2
AVE_RENDER
  0
BLOCK_RECORD
  5
109
100
AcDbSymbolTableRecord
100
AcDbBlockTableRecord
  2
AVE_GLOBAL
  0
BLOCK_RECORD
  5
10A
100
AcDbSymbolTableRecord
100
AcDbBlockTableRecord
  2
SCH_IS
  0
BLOCK_RECORD
  5
1357
100
AcDbSymbolTableRecord
100
AcDbBlockTableRecord
  2
*D7
  0
BLOCK_RECORD
  5
1364
100
AcDbSymbolTableRecord
100
AcDbBlockTableRecord
  2
*D8
  0
BLOCK_RECORD
  5
1371
100
AcDbSymbolTableRecord
100
AcDbBlockTableRecord
  2
*D9
  0
BLOCK_RECORD
  5
1389
100
AcDbSymbolTableRecord
100
AcDbBlockTableRecord
  2
*D10
  0
BLOCK_RECORD
  5
13CD
100
AcDbSymbolTableRecord
100
AcDbBlockTableRecord
  2
*D11
  0
BLOCK_RECORD
  5
13DA
100
AcDbSymbolTableRecord
100
AcDbBlockTableRecord
  2
*D12
  0
ENDTAB
  0
ENDSEC
  0
SECTION
  2
BLOCKS
  0
BLOCK
  5
141
100
AcDbEntity
  8
0
100
AcDbBlockBegin
  2
*MODEL_SPACE
 70
     0
 10
0.0
 20
0.0
 30
0.0
  3
*MODEL_SPACE
  1

  0
ENDBLK
  5
142
100
AcDbEntity
  8
0
100
AcDbBlockEnd
  0
BLOCK
  5
13F
100
AcDbEntity
 67
     1
  8
0
100
AcDbBlockBegin
  2
*PAPER_SPACE
 70
     0
 10
0.0
 20
0.0
 30
0.0
  3
*PAPER_SPACE
  1

  0
ENDBLK
  5
140
100
AcDbEntity
 67
     1
  8
0
100
AcDbBlockEnd
  0
BLOCK
  5
8D
100
AcDbEntity
  8
0
100
AcDbBlockBegin
  2
AVE_RENDER
 70
     0
 10
0.0
 20
0.0
 30
0.0
  3
AVE_RENDER
  1
AVE_RENDER
  0
ENDBLK
  5
8E
100
AcDbEntity
  8
0
100
AcDbBlockEnd
  0
BLOCK
  5
90
100
AcDbEntity
  8
0
100
AcDbBlockBegin
  2
AVE_GLOBAL
 70
     0
 10
0.0
 20
0.0
 30
0.0
  3
AVE_GLOBAL
  1
AVE_GLOBAL
  0
ENDBLK
  5
91
100
AcDbEntity
  8
0
100
AcDbBlockEnd
  0
BLOCK
  5
C9
100
AcDbEntity
  8
0
100
AcDbBlockBegin
  2
SCH_IS
 70
     0
 10
0.0
 20
0.0
 30
0.0
  3
SCH_IS
  1

  0
INSERT
  5
C0
100
AcDbEntity
  8
ASHADE
 62
     1
100
AcDbBlockReference
  2
AVE_RENDER
 10
0.0
 20
0.0
 30
0.0
1001
AVE_RENDER
1002
{
1070
     6
1000
Pref
1070
    50
1070
    20
1070
     1
1070
     0
1000

1070
    10
1070
     1
1070
    30
1040
25.4
1070
     1
1040
0.3
1040
0.7
1040
0.0
1040
10.0
1010
-1.0
1020
-1.0
1030
-1.0
1040
0.3
1070
    49
1070
     0
1070
     0
1010
1.0
1020
1.0
1030
1.0
1040
45.0
1070
     1
1070
     0
1000
WCS
1040
0.0
1002
}
  0
INSERT
  5
C1
100
AcDbEntity
  8
ASHADE
 62
     3
100
AcDbBlockReference
  2
AVE_RENDER
 10
0.0
 20
0.0
 30
0.0
1001
AVE_RENDER
1002
{
1070
     0
1000
Full Opt
1070
     0
1070
     1
1070
     1
1070
     1
1070
     0
1070
     0
1070
     0
1070
     1
1070
     1
1040
0.0001
1040
0.0001
1002
}
  0
INSERT
  5
C2
100
AcDbEntity
  8
ASHADE
 62
     4
100
AcDbBlockReference
  2
AVE_RENDER
 10
0.0
 20
0.0
 30
0.0
1001
AVE_RENDER
1002
{
1070
     0
1000
Quick Opt
1070
     0
1070
     1
1070
     1
1070
     1
1070
     0
1070
     0
1070
     1
1002
}
  0
INSERT
  5
C3
100
AcDbEntity
  8
ASHADE
 62
     5
100
AcDbBlockReference
  2
AVE_RENDER
 10
0.0
 20
0.0
 30
0.0
1001
AVE_RENDER
1002
{
1070
     1
1000
Scanl Opt
1070
     2
1070
     0
1070
     2
1040
2.0
1040
4.0
1070
     0
1070
     1
1070
     0
1040
0.03
1002
}
  0
INSERT
  5
C4
100
AcDbEntity
  8
ASHADE
 62
     6
100
AcDbBlockReference
  2
AVE_RENDER
 10
0.0
 20
0.0
 30
0.0
1001
AVE_RENDER
1002
{
1070
     2
1000
Raytr Opt
1070
     2
1070
     0
1070
     2
1040
2.0
1040
4.0
1070
     0
1070
     1
1070
     1
1040
0.03
1070
     3
1040
0.03
1002
}
  0
INSERT
  5
C5
100
AcDbEntity
  8
ASHADE
 62
     7
100
AcDbBlockReference
  2
AVE_RENDER
 10
0.0
 20
0.0
 30
0.0
1001
AVE_RENDER
1002
{
1070
     0
1000
RFile Opt
1070
     5
1070
   640
1070
   480
1070
 10000
1070
     3
1070
    32
1070
    24
1070
     0
1070
     0
1070
     0
1070
     1
1070
     0
1070
     0
1070
     0
1002
}
  0
INSERT
  5
C6
100
AcDbEntity
  8
ASHADE
 62
     8
100
AcDbBlockReference
  2
AVE_RENDER
 10
0.0
 20
0.0
 30
0.0
1001
AVE_RENDER
1002
{
1070
     0
1000
Fog Opt
1070
     0
1070
     0
1040
0.0
1040
1.0
1040
0.0
1040
1.0
1010
0.5
1020
0.5
1030
0.5
1002
}
  0
INSERT
  5
C7
100
AcDbEntity
  8
ASHADE
 62
     9
100
AcDbBlockReference
  2
AVE_RENDER
 10
0.0
 20
0.0
 30
0.0
1001
AVE_RENDER
1002
{
1070
     0
1000
BG Opt
1070
     0
1070
     1
1010
0.0
1020
0.0
1030
0.0
1010
1.0
1020
0.0
1030
0.0
1010
0.0
1020
1.0
1030
0.0
1010
0.0
1020
0.0
1030
1.0
1040
0.5
1040
0.33
1040
0.0
1000

1070
     1
1000

1070
     1
1070
     1
1040
1.0
1040
1.0
1040
0.0
1040
0.0
1070
     0
1002
}
  0
INSERT
  5
C8
100
AcDbEntity
  8
ASHADE
 62
     1
100
AcDbBlockReference
  2
AVE_GLOBAL
 10
0.0
 20
0.0
 30
0.0
1001
AVE_MATERIAL
1002
{
1000
*GLOBAL*
1000
1
1000
Finition globale.
1002
{
1002
}
1002
{
1070
    63
1002
{
1002
{
1010
-1.0
1020
-1.0
1030
-1.0
1002
}
1040
0.1
1000

1040
0.0
1002
{
1002
}
1040
0.0
1002
{
1002
}
1040
0.0
1002
}
1002
{
1002
{
1010
-1.0
1020
-1.0
1030
-1.0
1002
}
1040
0.7
1000

1040
0.0
1002
{
1002
}
1040
0.0
1002
{
1002
}
1040
0.0
1002
}
1002
{
1002
{
1010
-1.0
1020
-1.0
1030
-1.0
1002
}
1040
0.2
1000

1040
0.0
1002
{
1002
}
1040
0.0
1002
{
1002
}
1040
0.0
1002
}
1002
{
1070
     0
1002
{
1070
     1
1002
{
1040
1.0
1040
1.0
1000

1040
0.0
1002
{
1002
}
1040
0.0
1002
{
1002
}
1040
0.0
1002
}
1002
}
1040
1.0
1040
0.0
1040
0.0
1002
}
1002
{
1040
1.0
1040
1.0
1000

1040
0.0
1002
{
1002
}
1040
0.0
1002
{
1002
}
1040
0.0
1002
}
1002
{
1040
0.5
1040
1.0
1000

1040
0.0
1002
{
1002
}
1040
0.0
1002
{
1002
}
1040
0.0
1002
}
1002
{
1070
     0
1040
0.0
1002
{
1002
}
1040
1.0
1002
{
1002
}
1040
0.0
1002
}
1002
{
1040
0.0
1002
{
1002
{
1010
0.0
1020
0.0
1030
0.0
1002
}
1040
1.0
1000

1040
0.0
1002
{
1002
}
1040
0.0
1002
{
1002
}
1040
0.0
1002
}
1002
}
1002
{
1002
{
1070
     1
1002
{
1040
0.0
1040
1.0
1000

1040
0.0
1002
{
1002
}
1040
0.0
1002
{
1002
}
1040
0.0
1002
}
1002
}
1040
0.0
1002
{
1002
}
1010
1.0
1020
0.0
1030
0.0
1010
0.0
1020
1.0
1030
0.0
1010
0.0
1020
0.0
1030
1.0
1070
     0
1002
}
1002
{
1002
{
1040
1.0
1040
1.0
1002
{
1070
     1
1002
{
1040
1.0
1040
1.0
1000

1040
0.0
1002
{
1002
}
1040
0.0
1002
{
1002
}
1040
0.0
1002
}
1002
}
1002
}
1070
     0
1040
0.0
1002
{
1002
}
1002
}
1002
{
1002
}
1002
}
1002
{
1071
        3
1070
     3
1070
     0
1002
{
1070
     2
1070
     0
1070
     0
1040
0.0
1002
}
1070
     0
1070
     2
1002
{
1002
}
1002
}
1002
{
1040
8030.0
1040
190.300003
1040
0.305
1040
228.0
1040
545.0
1040
14.0
1040
17.4
1040
0.456
1002
}
1002
}
  0
ENDBLK
  5
CA
100
AcDbEntity
  8
0
100
AcDbBlockEnd
  0
BLOCK
  5
1358
100
AcDbEntity
  8
0
100
AcDbBlockBegin
  2
*D7
 70
     1
 10
0.0
 20
0.0
 30
0.0
  3
*D7
  1

  0
LINE
  5
1359
100
AcDbEntity
  8
0
  6
BYBLOCK
 62
     0
100
AcDbLine
 10
9.972876
 20
24.777793
 30
0.0
 11
9.972876
 21
-10.259748
 31
0.0
  0
LINE
  5
135A
100
AcDbEntity
  8
0
  6
BYBLOCK
 62
     0
100
AcDbLine
 10
77.973118
 20
21.57928
 30
0.0
 11
77.973118
 21
-10.259748
 31
0.0
  0
LINE
  5
135B
100
AcDbEntity
  8
0
  6
BYBLOCK
 62
     0
100
AcDbLine
 10
12.972876
 20
-10.079748
 30
0.0
 11
74.973118
 21
-10.079748
 31
0.0
  0
SOLID
  5
135C
100
AcDbEntity
  8
0
  6
BYBLOCK
 62
     0
100
AcDbTrace
 10
12.972876
 20
-9.579748
 30
0.0
 11
12.972876
 21
-10.579748
 31
0.0
 12
9.972876
 22
-10.079748
 32
0.0
 13
9.972876
 23
-10.079748
 33
0.0
  0
SOLID
  5
135D
100
AcDbEntity
  8
0
  6
BYBLOCK
 62
     0
100
AcDbTrace
 10
74.973118
 20
-9.579748
 30
0.0
 11
74.973118
 21
-10.579748
 31
0.0
 12
77.973118
 22
-10.079748
 32
0.0
 13
77.973118
 23
-10.079748
 33
0.0
  0
MTEXT
  5
135E
100
AcDbEntity
  8
0
  6
BYBLOCK
 62
     0
100
AcDbMText
 10
43.972997
 20
-7.829748
 30
0.0
 40
2.5
 41
0.0
 71
     5
 72
     1
  1
\A1;68
  0
POINT
  5
135F
100
AcDbEntity
  8
DEFPOINTS
  6
BYBLOCK
 62
     0
100
AcDbPoint
 10
9.972876
 20
24.840293
 30
0.0
  0
POINT
  5
1360
100
AcDbEntity
  8
DEFPOINTS
  6
BYBLOCK
 62
     0
100
AcDbPoint
 10
77.973118
 20
21.64178
 30
0.0
  0
POINT
  5
1361
100
AcDbEntity
  8
DEFPOINTS
  6
BYBLOCK
 62
     0
100
AcDbPoint
 10
77.973118
 20
-10.079748
 30
0.0
  0
ENDBLK
  5
1362
100
AcDbEntity
  8
0
100
AcDbBlockEnd
  0
BLOCK
  5
1365
100
AcDbEntity
  8
0
100
AcDbBlockBegin
  2
*D8
 70
     1
 10
0.0
 20
0.0
 30
0.0
  3
*D8
  1

  0
LINE
  5
1366
100
AcDbEntity
  8
0
  6
BYBLOCK
 62
     0
100
AcDbLine
 10
85.426037
 20
28.965364
 30
0.0
 11
100.381431
 21
28.965364
 31
0.0
  0
LINE
  5
1367
100
AcDbEntity
  8
0
  6
BYBLOCK
 62
     0
100
AcDbLine
 10
85.426037
 20
96.965348
 30
0.0
 11
100.381431
 21
96.965348
 31
0.0
  0
LINE
  5
1368
100
AcDbEntity
  8
0
  6
BYBLOCK
 62
     0
100
AcDbLine
 10
100.201431
 20
31.965364
 30
0.0
 11
100.201431
 21
93.965348
 31
0.0
  0
SOLID
  5
1369
100
AcDbEntity
  8
0
  6
BYBLOCK
 62
     0
100
AcDbTrace
 10
99.701431
 20
31.965364
 30
0.0
 11
100.701431
 21
31.965364
 31
0.0
 12
100.201431
 22
28.965364
 32
0.0
 13
100.201431
 23
28.965364
 33
0.0
  0
SOLID
  5
136A
100
AcDbEntity
  8
0
  6
BYBLOCK
 62
     0
100
AcDbTrace
 10
99.701431
 20
93.965348
 30
0.0
 11
100.701431
 21
93.965348
 31
0.0
 12
100.201431
 22
96.965348
 32
0.0
 13
100.201431
 23
96.965348
 33
0.0
  0
MTEXT
  5
136B
100
AcDbEntity
  8
0
  6
BYBLOCK
 62
     0
100
AcDbMText
 10
97.951431
 20
62.965356
 30
0.0
 40
2.5
 41
0.0
 71
     5
 72
     1
  1
\A1;68
 11
0.0
 21
1.0
 31
0.0
  0
POINT
  5
136C
100
AcDbEntity
  8
DEFPOINTS
  6
BYBLOCK
 62
     0
100
AcDbPoint
 10
85.363537
 20
28.965364
 30
0.0
  0
POINT
  5
136D
100
AcDbEntity
  8
DEFPOINTS
  6
BYBLOCK
 62
     0
100
AcDbPoint
 10
85.363537
 20
96.965348
 30
0.0
  0
POINT
  5
136E
100
AcDbEntity
  8
DEFPOINTS
  6
BYBLOCK
 62
     0
100
AcDbPoint
 10
100.201431
 20
96.965348
 30
0.0
  0
ENDBLK
  5
136F
100
AcDbEntity
  8
0
100
AcDbBlockEnd
  0
BLOCK
  5
13C2
100
AcDbEntity
  8
0
100
AcDbBlockBegin
  2
*D9
 70
     1
 10
0.0
 20
0.0
 30
0.0
  3
*D9
  1

  0
LINE
  5
13C3
100
AcDbEntity
  8
0
  6
BYBLOCK
 62
     0
100
AcDbLine
 10
85.361441
 20
0.465123
 30
0.0
 11
100.381431
 21
0.465123
 31
0.0
  0
LINE
  5
13C4
100
AcDbEntity
  8
0
  6
BYBLOCK
 62
     0
100
AcDbLine
 10
92.966234
 20
28.965364
 30
0.0
 11
100.381431
 21
28.965364
 31
0.0
  0
LINE
  5
13C5
100
AcDbEntity
  8
0
  6
BYBLOCK
 62
     0
100
AcDbLine
 10
100.201431
 20
3.465123
 30
0.0
 11
100.201431
 21
25.965364
 31
0.0
  0
SOLID
  5
13C6
100
AcDbEntity
  8
0
  6
BYBLOCK
 62
     0
100
AcDbTrace
 10
99.701431
 20
3.465123
 30
0.0
 11
100.701431
 21
3.465123
 31
0.0
 12
100.201431
 22
0.465123
 32
0.0
 13
100.201431
 23
0.465123
 33
0.0
  0
SOLID
  5
13C7
100
AcDbEntity
  8
0
  6
BYBLOCK
 62
     0
100
AcDbTrace
 10
99.701431
 20
25.965364
 30
0.0
 11
100.701431
 21
25.965364
 31
0.0
 12
100.201431
 22
28.965364
 32
0.0
 13
100.201431
 23
28.965364
 33
0.0
  0
MTEXT
  5
13C8
100
AcDbEntity
  8
0
  6
BYBLOCK
 62
     0
100
AcDbMText
 10
97.951431
 20
14.715243
 30
0.0
 40
2.5
 41
0.0
 71
     5
 72
     1
  1
\A1;=
 11
0.0
 21
1.0
 31
0.0
  0
POINT
  5
13C9
100
AcDbEntity
  8
DEFPOINTS
  6
BYBLOCK
 62
     0
100
AcDbPoint
 10
85.298941
 20
0.465123
 30
0.0
  0
POINT
  5
13CA
100
AcDbEntity
  8
DEFPOINTS
  6
BYBLOCK
 62
     0
100
AcDbPoint
 10
92.903734
 20
28.965364
 30
0.0
  0
POINT
  5
13CB
100
AcDbEntity
  8
DEFPOINTS
  6
BYBLOCK
 62
     0
100
AcDbPoint
 10
100.201431
 20
28.965364
 30
0.0
  0
ENDBLK
  5
13CC
100
AcDbEntity
  8
0
100
AcDbBlockEnd
  0
BLOCK
  5
13B7
100
AcDbEntity
  8
0
100
AcDbBlockBegin
  2
*D10
 70
     1
 10
0.0
 20
0.0
 30
0.0
  3
*D10
  1

  0
LINE
  5
13B8
100
AcDbEntity
  8
0
  6
BYBLOCK
 62
     0
100
AcDbLine
 10
92.966234
 20
96.965348
 30
0.0
 11
100.381431
 21
96.965348
 31
0.0
  0
LINE
  5
13B9
100
AcDbEntity
  8
0
  6
BYBLOCK
 62
     0
100
AcDbLine
 10
85.361441
 20
125.465245
 30
0.0
 11
100.381431
 21
125.465245
 31
0.0
  0
LINE
  5
13BA
100
AcDbEntity
  8
0
  6
BYBLOCK
 62
     0
100
AcDbLine
 10
100.201431
 20
99.965348
 30
0.0
 11
100.201431
 21
122.465245
 31
0.0
  0
SOLID
  5
13BB
100
AcDbEntity
  8
0
  6
BYBLOCK
 62
     0
100
AcDbTrace
 10
99.701431
 20
99.965348
 30
0.0
 11
100.701431
 21
99.965348
 31
0.0
 12
100.201431
 22
96.965348
 32
0.0
 13
100.201431
 23
96.965348
 33
0.0
  0
SOLID
  5
13BC
100
AcDbEntity
  8
0
  6
BYBLOCK
 62
     0
100
AcDbTrace
 10
99.701431
 20
122.465245
 30
0.0
 11
100.701431
 21
122.465245
 31
0.0
 12
100.201431
 22
125.465245
 32
0.0
 13
100.201431
 23
125.465245
 33
0.0
  0
MTEXT
  5
13BD
100
AcDbEntity
  8
0
  6
BYBLOCK
 62
     0
100
AcDbMText
 10
97.951431
 20
111.215296
 30
0.0
 40
2.5
 41
0.0
 71
     5
 72
     1
  1
\A1;=
 11
0.0
 21
1.0
 31
0.0
  0
POINT
  5
13BE
100
AcDbEntity
  8
DEFPOINTS
  6
BYBLOCK
 62
     0
100
AcDbPoint
 10
92.903734
 20
96.965348
 30
0.0
  0
POINT
  5
13BF
100
AcDbEntity
  8
DEFPOINTS
  6
BYBLOCK
 62
     0
100
AcDbPoint
 10
85.298941
 20
125.465245
 30
0.0
  0
POINT
  5
13C0
100
AcDbEntity
  8
DEFPOINTS
  6
BYBLOCK
 62
     0
100
AcDbPoint
 10
100.201431
 20
125.465245
 30
0.0
  0
ENDBLK
  5
13C1
100
AcDbEntity
  8
0
100
AcDbBlockEnd
  0
BLOCK
  5
13CE
100
AcDbEntity
  8
0
100
AcDbBlockBegin
  2
*D11
 70
     1
 10
0.0
 20
0.0
 30
0.0
  3
*D11
  1

  0
LINE
  5
13CF
100
AcDbEntity
  8
0
  6
BYBLOCK
 62
     0
100
AcDbLine
 10
92.933936
 20
0.465123
 30
0.0
 11
111.019564
 21
0.465123
 31
0.0
  0
LINE
  5
13D0
100
AcDbEntity
  8
0
  6
BYBLOCK
 62
     0
100
AcDbLine
 10
92.933936
 20
125.465245
 30
0.0
 11
111.019564
 21
125.465245
 31
0.0
  0
LINE
  5
13D1
100
AcDbEntity
  8
0
  6
BYBLOCK
 62
     0
100
AcDbLine
 10
110.839564
 20
3.465123
 30
0.0
 11
110.839564
 21
122.465245
 31
0.0
  0
SOLID
  5
13D2
100
AcDbEntity
  8
0
  6
BYBLOCK
 62
     0
100
AcDbTrace
 10
110.339564
 20
3.465123
 30
0.0
 11
111.339564
 21
3.465123
 31
0.0
 12
110.839564
 22
0.465123
 32
0.0
 13
110.839564
 23
0.465123
 33
0.0
  0
SOLID
  5
13D3
100
AcDbEntity
  8
0
  6
BYBLOCK
 62
     0
100
AcDbTrace
 10
110.339564
 20
122.465245
 30
0.0
 11
111.339564
 21
122.465245
 31
0.0
 12
110.839564
 22
125.465245
 32
0.0
 13
110.839564
 23
125.465245
 33
0.0
  0
MTEXT
  5
13D4
100
AcDbEntity
  8
0
  6
BYBLOCK
 62
     0
100
AcDbMText
 10
108.589564
 20
62.965184
 30
0.0
 40
2.5
 41
0.0
 71
     5
 72
     1
  1
\A1;125
 11
0.0
 21
1.0
 31
0.0
  0
POINT
  5
13D5
100
AcDbEntity
  8
DEFPOINTS
  6
BYBLOCK
 62
     0
100
AcDbPoint
 10
92.871436
 20
0.465123
 30
0.0
  0
POINT
  5
13D6
100
AcDbEntity
  8
DEFPOINTS
  6
BYBLOCK
 62
     0
100
AcDbPoint
 10
92.871436
 20
125.465245
 30
0.0
  0
POINT
  5
13D7
100
AcDbEntity
  8
DEFPOINTS
  6
BYBLOCK
 62
     0
100
AcDbPoint
 10
110.839564
 20
125.465245
 30
0.0
  0
ENDBLK
  5
13D8
100
AcDbEntity
  8
0
100
AcDbBlockEnd
  0
BLOCK
  5
13DB
100
AcDbEntity
  8
0
100
AcDbBlockBegin
  2
*D12
 70
     1
 10
0.0
 20
0.0
 30
0.0
  3
*D12
  1

  0
LINE
  5
13DC
100
AcDbEntity
  8
0
  6
BYBLOCK
 62
     0
100
AcDbLine
 10
-1.027056
 20
6.799476
 30
0.0
 11
-1.027056
 21
-20.223405
 31
0.0
  0
LINE
  5
13DD
100
AcDbEntity
  8
0
  6
BYBLOCK
 62
     0
100
AcDbLine
 10
88.972791
 20
6.799476
 30
0.0
 11
88.972791
 21
-20.223405
 31
0.0
  0
LINE
  5
13DE
100
AcDbEntity
  8
0
  6
BYBLOCK
 62
     0
100
AcDbLine
 10
1.972944
 20
-20.043405
 30
0.0
 11
85.972791
 21
-20.043405
 31
0.0
  0
SOLID
  5
13DF
100
AcDbEntity
  8
0
  6
BYBLOCK
 62
     0
100
AcDbTrace
 10
1.972944
 20
-19.543405
 30
0.0
 11
1.972944
 21
-20.543405
 31
0.0
 12
-1.027056
 22
-20.043405
 32
0.0
 13
-1.027056
 23
-20.043405
 33
0.0
  0
SOLID
  5
13E0
100
AcDbEntity
  8
0
  6
BYBLOCK
 62
     0
100
AcDbTrace
 10
85.972791
 20
-19.543405
 30
0.0
 11
85.972791
 21
-20.543405
 31
0.0
 12
88.972791
 22
-20.043405
 32
0.0
 13
88.972791
 23
-20.043405
 33
0.0
  0
MTEXT
  5
13E1
100
AcDbEntity
  8
0
  6
BYBLOCK
 62
     0
100
AcDbMText
 10
43.972868
 20
-17.793405
 30
0.0
 40
2.5
 41
0.0
 71
     5
 72
     1
  1
\A1;90
  0
POINT
  5
13E2
100
AcDbEntity
  8
DEFPOINTS
  6
BYBLOCK
 62
     0
100
AcDbPoint
 10
-1.027056
 20
6.861976
 30
0.0
  0
POINT
  5
13E3
100
AcDbEntity
  8
DEFPOINTS
  6
BYBLOCK
 62
     0
100
AcDbPoint
 10
88.972791
 20
6.861976
 30
0.0
  0
POINT
  5
13E4
100
AcDbEntity
  8
DEFPOINTS
  6
BYBLOCK
 62
     0
100
AcDbPoint
 10
88.972791
 20
-20.043405
 30
0.0
  0
ENDBLK
  5
13E5
100
AcDbEntity
  8
0
100
AcDbBlockEnd
  0
ENDSEC
  0
SECTION
  2
ENTITIES
  0
INSERT
  5
CC
100
AcDbEntity
  8
0
100
AcDbBlockReference
  2
SCH_IS
 10
-68.718396
 20
-140.042541
 30
0.0
  0
INSERT
  5
EC
100
AcDbEntity
  8
COTATION1
100
AcDbBlockReference
  2
SCH_IS
 10
0.0
 20
0.0
 30
0.0
  0
POLYLINE
  5
1011
100
AcDbEntity
  8
ALPHA
100
AcDb3dPolyline
 66
     1
 10
0.0
 20
0.0
 30
0.0
 70
     8
  0
VERTEX
  5
1012
100
AcDbEntity
  8
ALPHA
100
AcDbVertex
100
AcDb3dPolylineVertex
 10
70.605781
 20
28.434819
 30
0.0
 70
    32
  0
VERTEX
  5
1013
100
AcDbEntity
  8
ALPHA
100
AcDbVertex
100
AcDb3dPolylineVertex
 10
70.610718
 20
28.428825
 30
0.0
 70
    32
  0
VERTEX
  5
1014
100
AcDbEntity
  8
ALPHA
100
AcDbVertex
100
AcDb3dPolylineVertex
 10
70.625368
 20
28.41107
 30
0.0
 70
    32
  0
VERTEX
  5
1015
100
AcDbEntity
  8
ALPHA
100
AcDbVertex
100
AcDb3dPolylineVertex
 10
70.682828
 20
28.341659
 30
0.0
 70
    32
  0
VERTEX
  5
1016
100
AcDbEntity
  8
ALPHA
100
AcDbVertex
100
AcDb3dPolylineVertex
 10
70.903563
 20
28.076881
 30
0.0
 70
    32
  0
VERTEX
  5
1017
100
AcDbEntity
  8
ALPHA
100
AcDbVertex
100
AcDb3dPolylineVertex
 10
71.713662
 20
27.120704
 30
0.0
 70
    32
  0
VERTEX
  5
1018
100
AcDbEntity
  8
ALPHA
100
AcDbVertex
100
AcDb3dPolylineVertex
 10
74.371335
 20
24.11945
 30
0.0
 70
    32
  0
VERTEX
  5
1019
100
AcDbEntity
  8
ALPHA
100
AcDbVertex
100
AcDb3dPolylineVertex
 10
77.579847
 20
20.842695
 30
0.0
 70
    32
  0
VERTEX
  5
101A
100
AcDbEntity
  8
ALPHA
100
AcDbVertex
100
AcDb3dPolylineVertex
 10
79.078494
 20
19.542143
 30
0.0
 70
    32
  0
VERTEX
  5
101B
100
AcDbEntity
  8
ALPHA
100
AcDbVertex
100
AcDb3dPolylineVertex
 10
79.746785
 20
19.053522
 30
0.0
 70
    32
  0
VERTEX
  5
101C
100
AcDbEntity
  8
ALPHA
100
AcDbVertex
100
AcDb3dPolylineVertex
 10
80.340243
 20
18.70208
 30
0.0
 70
    32
  0
VERTEX
  5
101D
100
AcDbEntity
  8
ALPHA
100
AcDbVertex
100
AcDb3dPolylineVertex
 10
80.921553
 20
18.459914
 30
0.0
 70
    32
  0
VERTEX
  5
101E
100
AcDbEntity
  8
ALPHA
100
AcDbVertex
100
AcDb3dPolylineVertex
 10
81.55504
 20
18.289335
 30
0.0
 70
    32
  0
VERTEX
  5
101F
100
AcDbEntity
  8
ALPHA
100
AcDbVertex
100
AcDb3dPolylineVertex
 10
82.228329
 20
18.197334
 30
0.0
 70
    32
  0
VERTEX
  5
1020
100
AcDbEntity
  8
ALPHA
100
AcDbVertex
100
AcDb3dPolylineVertex
 10
82.929046
 20
18.190903
 30
0.0
 70
    32
  0
VERTEX
  5
1021
100
AcDbEntity
  8
ALPHA
100
AcDbVertex
100
AcDb3dPolylineVertex
 10
83.644818
 20
18.277034
 30
0.0
 70
    32
  0
VERTEX
  5
1022
100
AcDbEntity
  8
ALPHA
100
AcDbVertex
100
AcDb3dPolylineVertex
 10
84.363268
 20
18.462717
 30
0.0
 70
    32
  0
VERTEX
  5
1023
100
AcDbEntity
  8
ALPHA
100
AcDbVertex
100
AcDb3dPolylineVertex
 10
85.072024
 20
18.754945
 30
0.0
 70
    32
  0
VERTEX
  5
1024
100
AcDbEntity
  8
ALPHA
100
AcDbVertex
100
AcDb3dPolylineVertex
 10
85.758711
 20
19.160708
 30
0.0
 70
    32
  0
VERTEX
  5
1025
100
AcDbEntity
  8
ALPHA
100
AcDbVertex
100
AcDb3dPolylineVertex
 10
86.410954
 20
19.686999
 30
0.0
 70
    32
  0
VERTEX
  5
1026
100
AcDbEntity
  8
ALPHA
100
AcDbVertex
100
AcDb3dPolylineVertex
 10
87.016379
 20
20.340808
 30
0.0
 70
    32
  0
VERTEX
  5
1027
100
AcDbEntity
  8
ALPHA
100
AcDbVertex
100
AcDb3dPolylineVertex
 10
87.562612
 20
21.129128
 30
0.0
 70
    32
  0
VERTEX
  5
1028
100
AcDbEntity
  8
ALPHA
100
AcDbVertex
100
AcDb3dPolylineVertex
 10
88.037278
 20
22.058949
 30
0.0
 70
    32
  0
VERTEX
  5
1029
100
AcDbEntity
  8
ALPHA
100
AcDbVertex
100
AcDb3dPolylineVertex
 10
88.428003
 20
23.137263
 30
0.0
 70
    32
  0
VERTEX
  5
102A
100
AcDbEntity
  8
ALPHA
100
AcDbVertex
100
AcDb3dPolylineVertex
 10
88.722414
 20
24.371061
 30
0.0
 70
    32
  0
VERTEX
  5
102B
100
AcDbEntity
  8
ALPHA
100
AcDbVertex
100
AcDb3dPolylineVertex
 10
88.908134
 20
25.767336
 30
0.0
 70
    32
  0
VERTEX
  5
102C
100
AcDbEntity
  8
ALPHA
100
AcDbVertex
100
AcDb3dPolylineVertex
 10
88.972791
 20
27.333078
 30
0.0
 70
    32
  0
VERTEX
  5
102D
100
AcDbEntity
  8
ALPHA
100
AcDbVertex
100
AcDb3dPolylineVertex
 10
88.972791
 20
98.597634
 30
0.0
 70
    32
  0
VERTEX
  5
102E
100
AcDbEntity
  8
ALPHA
100
AcDbVertex
100
AcDb3dPolylineVertex
 10
88.908127
 20
100.164094
 30
0.0
 70
    32
  0
VERTEX
  5
102F
100
AcDbEntity
  8
ALPHA
100
AcDbVertex
100
AcDb3dPolylineVertex
 10
88.722388
 20
101.56098
 30
0.0
 70
    32
  0
VERTEX
  5
1030
100
AcDbEntity
  8
ALPHA
100
AcDbVertex
100
AcDb3dPolylineVertex
 10
88.42795
 20
102.79529
 30
0.0
 70
    32
  0
VERTEX
  5
1031
100
AcDbEntity
  8
ALPHA
100
AcDbVertex
100
AcDb3dPolylineVertex
 10
88.037191
 20
103.874026
 30
0.0
 70
    32
  0
VERTEX
  5
1032
100
AcDbEntity
  8
ALPHA
100
AcDbVertex
100
AcDb3dPolylineVertex
 10
87.562487
 20
104.804187
 30
0.0
 70
    32
  0
VERTEX
  5
1033
100
AcDbEntity
  8
ALPHA
100
AcDbVertex
100
AcDb3dPolylineVertex
 10
87.016215
 20
105.592774
 30
0.0
 70
    32
  0
VERTEX
  5
1034
100
AcDbEntity
  8
ALPHA
100
AcDbVertex
100
AcDb3dPolylineVertex
 10
86.410753
 20
106.246786
 30
0.0
 70
    32
  0
VERTEX
  5
1035
100
AcDbEntity
  8
ALPHA
100
AcDbVertex
100
AcDb3dPolylineVertex
 10
85.758478
 20
106.773225
 30
0.0
 70
    32
  0
VERTEX
  5
1036
100
AcDbEntity
  8
ALPHA
100
AcDbVertex
100
AcDb3dPolylineVertex
 10
85.071766
 20
107.179089
 30
0.0
 70
    32
  0
VERTEX
  5
1037
100
AcDbEntity
  8
ALPHA
100
AcDbVertex
100
AcDb3dPolylineVertex
 10
84.362996
 20
107.471379
 30
0.0
 70
    32
  0
VERTEX
  5
1038
100
AcDbEntity
  8
ALPHA
100
AcDbVertex
100
AcDb3dPolylineVertex
 10
83.644543
 20
107.657096
 30
0.0
 70
    32
  0
VERTEX
  5
1039
100
AcDbEntity
  8
ALPHA
100
AcDbVertex
100
AcDb3dPolylineVertex
 10
82.928785
 20
107.743239
 30
0.0
 70
    32
  0
VERTEX
  5
103A
100
AcDbEntity
  8
ALPHA
100
AcDbVertex
100
AcDb3dPolylineVertex
 10
82.228099
 20
107.736808
 30
0.0
 70
    32
  0
VERTEX
  5
103B
100
AcDbEntity
  8
ALPHA
100
AcDbVertex
100
AcDb3dPolylineVertex
 10
81.554862
 20
107.644804
 30
0.0
 70
    32
  0
VERTEX
  5
103C
100
AcDbEntity
  8
ALPHA
100
AcDbVertex
100
AcDb3dPolylineVertex
 10
80.921451
 20
107.474227
 30
0.0
 70
    32
  0
VERTEX
  5
103D
100
AcDbEntity
  8
ALPHA
100
AcDbVertex
100
AcDb3dPolylineVertex
 10
80.340243
 20
107.232077
 30
0.0
 70
    32
  0
VERTEX
  5
103E
100
AcDbEntity
  8
ALPHA
100
AcDbVertex
100
AcDb3dPolylineVertex
 10
79.746615
 20
106.880483
 30
0.0
 70
    32
  0
VERTEX
  5
103F
100
AcDbEntity
  8
ALPHA
100
AcDbVertex
100
AcDb3dPolylineVertex
 10
79.078197
 20
106.391668
 30
0.0
 70
    32
  0
VERTEX
  5
1040
100
AcDbEntity
  8
ALPHA
100
AcDbVertex
100
AcDb3dPolylineVertex
 10
77.579411
 20
105.090632
 30
0.0
 70
    32
  0
VERTEX
  5
1041
100
AcDbEntity
  8
ALPHA
100
AcDbVertex
100
AcDb3dPolylineVertex
 10
74.370947
 20
101.812726
 30
0.0
 70
    32
  0
VERTEX
  5
1042
100
AcDbEntity
  8
ALPHA
100
AcDbVertex
100
AcDb3dPolylineVertex
 10
71.713517
 20
98.810449
 30
0.0
 70
    32
  0
VERTEX
  5
1043
100
AcDbEntity
  8
ALPHA
100
AcDbVertex
100
AcDb3dPolylineVertex
 10
70.90352
 20
97.85395
 30
0.0
 70
    32
  0
VERTEX
  5
1044
100
AcDbEntity
  8
ALPHA
100
AcDbVertex
100
AcDb3dPolylineVertex
 10
70.682817
 20
97.589084
 30
0.0
 70
    32
  0
VERTEX
  5
1045
100
AcDbEntity
  8
ALPHA
100
AcDbVertex
100
AcDb3dPolylineVertex
 10
70.625365
 20
97.51965
 30
0.0
 70
    32
  0
VERTEX
  5
1046
100
AcDbEntity
  8
ALPHA
100
AcDbVertex
100
AcDb3dPolylineVertex
 10
70.610718
 20
97.501889
 30
0.0
 70
    32
  0
VERTEX
  5
1047
100
AcDbEntity
  8
ALPHA
100
AcDbVertex
100
AcDb3dPolylineVertex
 10
70.605781
 20
97.495893
 30
0.0
 70
    32
  0
SEQEND
  5
1048
100
AcDbEntity
  8
ALPHA
  0
POLYLINE
  5
1049
100
AcDbEntity
  8
ALPHA
100
AcDb3dPolyline
 66
     1
 10
0.0
 20
0.0
 30
0.0
 70
     8
  0
VERTEX
  5
104A
100
AcDbEntity
  8
ALPHA
100
AcDbVertex
100
AcDb3dPolylineVertex
 10
17.339954
 20
97.495893
 30
0.0
 70
    32
  0
VERTEX
  5
104B
100
AcDbEntity
  8
ALPHA
100
AcDbVertex
100
AcDb3dPolylineVertex
 10
17.335018
 20
97.50189
 30
0.0
 70
    32
  0
VERTEX
  5
104C
100
AcDbEntity
  8
ALPHA
100
AcDbVertex
100
AcDb3dPolylineVertex
 10
17.320372
 20
97.519653
 30
0.0
 70
    32
  0
VERTEX
  5
104D
100
AcDbEntity
  8
ALPHA
100
AcDbVertex
100
AcDb3dPolylineVertex
 10
17.262926
 20
97.589096
 30
0.0
 70
    32
  0
VERTEX
  5
104E
100
AcDbEntity
  8
ALPHA
100
AcDbVertex
100
AcDb3dPolylineVertex
 10
17.042243
 20
97.853993
 30
0.0
 70
    32
  0
VERTEX
  5
104F
100
AcDbEntity
  8
ALPHA
100
AcDbVertex
100
AcDb3dPolylineVertex
 10
16.232315
 20
98.810595
 30
0.0
 70
    32
  0
VERTEX
  5
1050
100
AcDbEntity
  8
ALPHA
100
AcDbVertex
100
AcDb3dPolylineVertex
 10
13.575046
 20
101.813114
 30
0.0
 70
    32
  0
VERTEX
  5
1051
100
AcDbEntity
  8
ALPHA
100
AcDbVertex
100
AcDb3dPolylineVertex
 10
10.366615
 20
105.091069
 30
0.0
 70
    32
  0
VERTEX
  5
1052
100
AcDbEntity
  8
ALPHA
100
AcDbVertex
100
AcDb3dPolylineVertex
 10
8.867736
 20
106.391965
 30
0.0
 70
    32
  0
VERTEX
  5
1053
100
AcDbEntity
  8
ALPHA
100
AcDbVertex
100
AcDb3dPolylineVertex
 10
8.199234
 20
106.880653
 30
0.0
 70
    32
  0
VERTEX
  5
1054
100
AcDbEntity
  8
ALPHA
100
AcDbVertex
100
AcDb3dPolylineVertex
 10
7.605492
 20
107.232077
 30
0.0
 70
    32
  0
VERTEX
  5
1055
100
AcDbEntity
  8
ALPHA
100
AcDbVertex
100
AcDb3dPolylineVertex
 10
7.024239
 20
107.474023
 30
0.0
 70
    32
  0
VERTEX
  5
1056
100
AcDbEntity
  8
ALPHA
100
AcDbVertex
100
AcDb3dPolylineVertex
 10
6.390794
 20
107.644448
 30
0.0
 70
    32
  0
VERTEX
  5
1057
100
AcDbEntity
  8
ALPHA
100
AcDbVertex
100
AcDb3dPolylineVertex
 10
5.717534
 20
107.736348
 30
0.0
 70
    32
  0
VERTEX
  5
1058
100
AcDbEntity
  8
ALPHA
100
AcDbVertex
100
AcDb3dPolylineVertex
 10
5.016834
 20
107.742715
 30
0.0
 70
    32
  0
VERTEX
  5
1059
100
AcDbEntity
  8
ALPHA
100
AcDbVertex
100
AcDb3dPolylineVertex
 10
4.30107
 20
107.656546
 30
0.0
 70
    32
  0
VERTEX
  5
105A
100
AcDbEntity
  8
ALPHA
100
AcDbVertex
100
AcDb3dPolylineVertex
 10
3.582618
 20
107.470834
 30
0.0
 70
    32
  0
VERTEX
  5
105B
100
AcDbEntity
  8
ALPHA
100
AcDbVertex
100
AcDb3dPolylineVertex
 10
2.873854
 20
107.178574
 30
0.0
 70
    32
  0
VERTEX
  5
105C
100
AcDbEntity
  8
ALPHA
100
AcDbVertex
100
AcDb3dPolylineVertex
 10
2.187154
 20
106.77276
 30
0.0
 70
    32
  0
VERTEX
  5
105D
100
AcDbEntity
  8
ALPHA
100
AcDbVertex
100
AcDb3dPolylineVertex
 10
1.534893
 20
106.246386
 30
0.0
 70
    32
  0
VERTEX
  5
105E
100
AcDbEntity
  8
ALPHA
100
AcDbVertex
100
AcDb3dPolylineVertex
 10
0.929447
 20
105.592447
 30
0.0
 70
    32
  0
VERTEX
  5
105F
100
AcDbEntity
  8
ALPHA
100
AcDbVertex
100
AcDb3dPolylineVertex
 10
0.383193
 20
104.803937
 30
0.0
 70
    32
  0
VERTEX
  5
1060
100
AcDbEntity
  8
ALPHA
100
AcDbVertex
100
AcDb3dPolylineVertex
 10
-0.091494
 20
103.873852
 30
0.0
 70
    32
  0
VERTEX
  5
1061
100
AcDbEntity
  8
ALPHA
100
AcDbVertex
100
AcDb3dPolylineVertex
 10
-0.482239
 20
102.795184
 30
0.0
 70
    32
  0
VERTEX
  5
1062
100
AcDbEntity
  8
ALPHA
100
AcDbVertex
100
AcDb3dPolylineVertex
 10
-0.776664
 20
101.560929
 30
0.0
 70
    32
  0
VERTEX
  5
1063
100
AcDbEntity
  8
ALPHA
100
AcDbVertex
100
AcDb3dPolylineVertex
 10
-0.962395
 20
100.164081
 30
0.0
 70
    32
  0
VERTEX
  5
1064
100
AcDbEntity
  8
ALPHA
100
AcDbVertex
100
AcDb3dPolylineVertex
 10
-1.027056
 20
98.597634
 30
0.0
 70
    32
  0
VERTEX
  5
1065
100
AcDbEntity
  8
ALPHA
100
AcDbVertex
100
AcDb3dPolylineVertex
 10
-1.027056
 20
27.333078
 30
0.0
 70
    32
  0
SEQEND
  5
1066
100
AcDbEntity
  8
ALPHA
  0
POLYLINE
  5
1067
100
AcDbEntity
  8
ALPHA
100
AcDb2dPolyline
 66
     1
 10
0.0
 20
0.0
 30
0.0
  0
VERTEX
  5
1068
100
AcDbEntity
  8
ALPHA
100
AcDbVertex
100
AcDb2dVertex
 10
2.829556
 20
3.007603
 30
0.0
  0
VERTEX
  5
1069
100
AcDbEntity
  8
ALPHA
100
AcDbVertex
100
AcDb2dVertex
 10
84.930488
 20
3.007603
 30
0.0
  0
SEQEND
  5
106A
100
AcDbEntity
  8
ALPHA
  0
POLYLINE
  5
106B
100
AcDbEntity
  8
ALPHA
100
AcDb2dPolyline
 66
     1
 10
0.0
 20
0.0
 30
0.0
  0
VERTEX
  5
106C
100
AcDbEntity
  8
ALPHA
100
AcDbVertex
100
AcDb2dVertex
 10
50.272311
 20
11.163522
 30
0.0
 42
1.0
  0
VERTEX
  5
106D
100
AcDbEntity
  8
ALPHA
100
AcDbVertex
100
AcDb2dVertex
 10
38.828393
 20
11.163522
 30
0.0
 42
1.0
  0
VERTEX
  5
106E
100
AcDbEntity
  8
ALPHA
100
AcDbVertex
100
AcDb2dVertex
 10
50.272311
 20
11.163522
 30
0.0
  0
SEQEND
  5
106F
100
AcDbEntity
  8
ALPHA
  0
POLYLINE
  5
1070
100
AcDbEntity
  8
ALPHA
100
AcDb2dPolyline
 66
     1
 10
0.0
 20
0.0
 30
0.0
  0
VERTEX
  5
1071
100
AcDbEntity
  8
ALPHA
100
AcDbVertex
100
AcDb2dVertex
 10
44.573262
 20
12.708648
 30
0.0
  0
VERTEX
  5
1072
100
AcDbEntity
  8
ALPHA
100
AcDbVertex
100
AcDb2dVertex
 10
47.767382
 20
15.811645
 30
0.0
  0
SEQEND
  5
1073
100
AcDbEntity
  8
ALPHA
  0
POLYLINE
  5
1074
100
AcDbEntity
  8
ALPHA
100
AcDb2dPolyline
 66
     1
 10
0.0
 20
0.0
 30
0.0
  0
VERTEX
  5
1075
100
AcDbEntity
  8
ALPHA
100
AcDbVertex
100
AcDb2dVertex
 10
46.941937
 20
7.592336
 30
0.0
  0
VERTEX
  5
1076
100
AcDbEntity
  8
ALPHA
100
AcDbVertex
100
AcDb2dVertex
 10
44.66559
 20
9.77446
 30
0.0
  0
SEQEND
  5
1077
100
AcDbEntity
  8
ALPHA
  0
POLYLINE
  5
1078
100
AcDbEntity
  8
ALPHA
100
AcDb2dPolyline
 66
     1
 10
0.0
 20
0.0
 30
0.0
  0
VERTEX
  5
1079
100
AcDbEntity
  8
ALPHA
100
AcDbVertex
100
AcDb2dVertex
 10
31.666211
 20
0.465123
 30
0.0
  0
VERTEX
  5
107A
100
AcDbEntity
  8
ALPHA
100
AcDbVertex
100
AcDb2dVertex
 10
57.013157
 20
0.465123
 30
0.0
  0
SEQEND
  5
107B
100
AcDbEntity
  8
ALPHA
  0
POLYLINE
  5
107C
100
AcDbEntity
  8
ALPHA
100
AcDb2dPolyline
 66
     1
 10
0.0
 20
0.0
 30
0.0
  0
VERTEX
  5
107D
100
AcDbEntity
  8
ALPHA
100
AcDbVertex
100
AcDb2dVertex
 10
17.339954
 20
28.434819
 30
0.0
  0
VERTEX
  5
107E
100
AcDbEntity
  8
ALPHA
100
AcDbVertex
100
AcDb2dVertex
 10
70.237328
 20
28.434819
 30
0.0
  0
SEQEND
  5
107F
100
AcDbEntity
  8
ALPHA
  0
POLYLINE
  5
1080
100
AcDbEntity
  8
ALPHA
100
AcDb2dPolyline
 66
     1
 10
0.0
 20
0.0
 30
0.0
  0
VERTEX
  5
1081
100
AcDbEntity
  8
ALPHA
100
AcDbVertex
100
AcDb2dVertex
 10
19.047688
 20
11.163522
 30
0.0
 42
1.0
  0
VERTEX
  5
1082
100
AcDbEntity
  8
ALPHA
100
AcDbVertex
100
AcDb2dVertex
 10
7.60377
 20
11.163522
 30
0.0
 42
1.0
  0
VERTEX
  5
1083
100
AcDbEntity
  8
ALPHA
100
AcDbVertex
100
AcDb2dVertex
 10
19.047688
 20
11.163522
 30
0.0
  0
SEQEND
  5
1084
100
AcDbEntity
  8
ALPHA
  0
POLYLINE
  5
1085
100
AcDbEntity
  8
AXE
100
AcDb2dPolyline
 66
     1
 10
0.0
 20
0.0
 30
0.0
  0
VERTEX
  5
1086
100
AcDbEntity
  8
AXE
100
AcDbVertex
100
AcDb2dVertex
 10
17.362864
 20
28.965364
 30
0.0
  0
VERTEX
  5
1087
100
AcDbEntity
  8
AXE
100
AcDbVertex
100
AcDb2dVertex
 10
2.914133
 20
28.965364
 30
0.0
  0
SEQEND
  5
1088
100
AcDbEntity
  8
AXE
  0
POLYLINE
  5
1089
100
AcDbEntity
  8
ALPHA
100
AcDb2dPolyline
 66
     1
 10
0.0
 20
0.0
 30
0.0
  0
VERTEX
  5
108A
100
AcDbEntity
  8
ALPHA
100
AcDbVertex
100
AcDb2dVertex
 10
14.097947
 20
28.965364
 30
0.0
 42
1.0
  0
VERTEX
  5
108B
100
AcDbEntity
  8
ALPHA
100
AcDbVertex
100
AcDb2dVertex
 10
5.847804
 20
28.965364
 30
0.0
 42
1.0
  0
VERTEX
  5
108C
100
AcDbEntity
  8
ALPHA
100
AcDbVertex
100
AcDb2dVertex
 10
14.097947
 20
28.965364
 30
0.0
  0
SEQEND
  5
108D
100
AcDbEntity
  8
ALPHA
  0
POLYLINE
  5
108E
100
AcDbEntity
  8
ALPHA
100
AcDb2dPolyline
 66
     1
 10
0.0
 20
0.0
 30
0.0
  0
VERTEX
  5
108F
100
AcDbEntity
  8
ALPHA
100
AcDbVertex
100
AcDb2dVertex
 10
2.647138
 20
0.465123
 30
0.0
  0
VERTEX
  5
1090
100
AcDbEntity
  8
ALPHA
100
AcDbVertex
100
AcDb2dVertex
 10
27.625287
 20
0.465123
 30
0.0
  0
SEQEND
  5
1091
100
AcDbEntity
  8
ALPHA
  0
POLYLINE
  5
1092
100
AcDbEntity
  8
ALPHA
100
AcDb2dPolyline
 66
     1
 10
0.0
 20
0.0
 30
0.0
  0
VERTEX
  5
1093
100
AcDbEntity
  8
ALPHA
100
AcDbVertex
100
AcDb2dVertex
 10
-1.027056
 20
27.333078
 30
0.0
  0
VERTEX
  5
1094
100
AcDbEntity
  8
ALPHA
100
AcDbVertex
100
AcDb2dVertex
 10
-0.962408
 20
25.767361
 30
0.0
  0
VERTEX
  5
1095
100
AcDbEntity
  8
ALPHA
100
AcDbVertex
100
AcDb2dVertex
 10
-0.776711
 20
24.371155
 30
0.0
  0
VERTEX
  5
1096
100
AcDbEntity
  8
ALPHA
100
AcDbVertex
100
AcDb2dVertex
 10
-0.482336
 20
23.137458
 30
0.0
  0
VERTEX
  5
1097
100
AcDbEntity
  8
ALPHA
100
AcDbVertex
100
AcDb2dVertex
 10
-0.091654
 20
22.059269
 30
0.0
  0
VERTEX
  5
1098
100
AcDbEntity
  8
ALPHA
100
AcDbVertex
100
AcDb2dVertex
 10
0.382964
 20
21.129586
 30
0.0
  0
VERTEX
  5
1099
100
AcDbEntity
  8
ALPHA
100
AcDbVertex
100
AcDb2dVertex
 10
0.929148
 20
20.341408
 30
0.0
  0
VERTEX
  5
109A
100
AcDbEntity
  8
ALPHA
100
AcDbVertex
100
AcDb2dVertex
 10
1.534526
 20
19.687734
 30
0.0
  0
VERTEX
  5
109B
100
AcDbEntity
  8
ALPHA
100
AcDbVertex
100
AcDb2dVertex
 10
2.186728
 20
19.161562
 30
0.0
  0
VERTEX
  5
109C
100
AcDbEntity
  8
ALPHA
100
AcDbVertex
100
AcDb2dVertex
 10
2.873382
 20
18.75589
 30
0.0
  0
VERTEX
  5
109D
100
AcDbEntity
  8
ALPHA
100
AcDbVertex
100
AcDb2dVertex
 10
3.582119
 20
18.463717
 30
0.0
  0
VERTEX
  5
109E
100
AcDbEntity
  8
ALPHA
100
AcDbVertex
100
AcDb2dVertex
 10
4.300567
 20
18.278042
 30
0.0
  0
VERTEX
  5
109F
100
AcDbEntity
  8
ALPHA
100
AcDbVertex
100
AcDb2dVertex
 10
5.016355
 20
18.191863
 30
0.0
  0
VERTEX
  5
10A0
100
AcDbEntity
  8
ALPHA
100
AcDbVertex
100
AcDb2dVertex
 10
5.717112
 20
18.198179
 30
0.0
  0
VERTEX
  5
10A1
100
AcDbEntity
  8
ALPHA
100
AcDbVertex
100
AcDb2dVertex
 10
6.390468
 20
18.289988
 30
0.0
  0
VERTEX
  5
10A2
100
AcDbEntity
  8
ALPHA
100
AcDbVertex
100
AcDb2dVertex
 10
7.024052
 20
18.460289
 30
0.0
  0
VERTEX
  5
10A3
100
AcDbEntity
  8
ALPHA
100
AcDbVertex
100
AcDb2dVertex
 10
7.605492
 20
18.70208
 30
0.0
  0
VERTEX
  5
10A4
100
AcDbEntity
  8
ALPHA
100
AcDbVertex
100
AcDb2dVertex
 10
8.199149
 20
19.053181
 30
0.0
  0
VERTEX
  5
10A5
100
AcDbEntity
  8
ALPHA
100
AcDbVertex
100
AcDb2dVertex
 10
8.867587
 20
19.54155
 30
0.0
  0
VERTEX
  5
10A6
100
AcDbEntity
  8
ALPHA
100
AcDbVertex
100
AcDb2dVertex
 10
10.366397
 20
20.841824
 30
0.0
  0
VERTEX
  5
10A7
100
AcDbEntity
  8
ALPHA
100
AcDbVertex
100
AcDb2dVertex
 10
13.574852
 20
24.118675
 30
0.0
  0
VERTEX
  5
10A8
100
AcDbEntity
  8
ALPHA
100
AcDbVertex
100
AcDb2dVertex
 10
16.232243
 20
27.120413
 30
0.0
  0
VERTEX
  5
10A9
100
AcDbEntity
  8
ALPHA
100
AcDbVertex
100
AcDb2dVertex
 10
17.042222
 20
28.076797
 30
0.0
  0
VERTEX
  5
10AA
100
AcDbEntity
  8
ALPHA
100
AcDbVertex
100
AcDb2dVertex
 10
17.26292
 20
28.341636
 30
0.0
  0
VERTEX
  5
10AB
100
AcDbEntity
  8
ALPHA
100
AcDbVertex
100
AcDb2dVertex
 10
17.32037
 20
28.411064
 30
0.0
  0
VERTEX
  5
10AC
100
AcDbEntity
  8
ALPHA
100
AcDbVertex
100
AcDb2dVertex
 10
17.335017
 20
28.428823
 30
0.0
  0
VERTEX
  5
10AD
100
AcDbEntity
  8
ALPHA
100
AcDbVertex
100
AcDb2dVertex
 10
17.339954
 20
28.434819
 30
0.0
  0
SEQEND
  5
10AE
100
AcDbEntity
  8
ALPHA
  0
POLYLINE
  5
10AF
100
AcDbEntity
  8
ALPHA
100
AcDb2dPolyline
 66
     1
 10
0.0
 20
0.0
 30
0.0
  0
VERTEX
  5
10B0
100
AcDbEntity
  8
ALPHA
100
AcDbVertex
100
AcDb2dVertex
 10
-1.027056
 20
27.333078
 30
0.0
  0
VERTEX
  5
10B1
100
AcDbEntity
  8
ALPHA
100
AcDbVertex
100
AcDb2dVertex
 10
-1.027056
 20
6.861976
 30
0.0
  0
SEQEND
  5
10B2
100
AcDbEntity
  8
ALPHA
  0
POLYLINE
  5
10B3
100
AcDbEntity
  8
ALPHA
100
AcDb2dPolyline
 66
     1
 10
0.0
 20
0.0
 30
0.0
  0
VERTEX
  5
10B4
100
AcDbEntity
  8
ALPHA
100
AcDbVertex
100
AcDb2dVertex
 10
2.647138
 20
18.500542
 30
0.0
  0
VERTEX
  5
10B5
100
AcDbEntity
  8
ALPHA
100
AcDbVertex
100
AcDb2dVertex
 10
2.647138
 20
0.465123
 30
0.0
  0
SEQEND
  5
10B6
100
AcDbEntity
  8
ALPHA
  0
POLYLINE
  5
10B7
100
AcDbEntity
  8
ALPHA
100
AcDb2dPolyline
 66
     1
 10
0.0
 20
0.0
 30
0.0
  0
VERTEX
  5
10B8
100
AcDbEntity
  8
ALPHA
100
AcDbVertex
100
AcDb2dVertex
 10
-1.027056
 20
6.861976
 30
0.0
  0
VERTEX
  5
10B9
100
AcDbEntity
  8
ALPHA
100
AcDbVertex
100
AcDb2dVertex
 10
2.829556
 20
6.861976
 30
0.0
  0
SEQEND
  5
10BA
100
AcDbEntity
  8
ALPHA
  0
POLYLINE
  5
10BB
100
AcDbEntity
  8
ALPHA
100
AcDb2dPolyline
 66
     1
 10
0.0
 20
0.0
 30
0.0
  0
VERTEX
  5
10BC
100
AcDbEntity
  8
ALPHA
100
AcDbVertex
100
AcDb2dVertex
 10
36.073694
 20
24.746845
 30
0.0
  0
VERTEX
  5
10BD
100
AcDbEntity
  8
ALPHA
100
AcDbVertex
100
AcDb2dVertex
 10
36.073694
 20
5.944203
 30
0.0
  0
SEQEND
  5
10BE
100
AcDbEntity
  8
ALPHA
  0
POLYLINE
  5
10BF
100
AcDbEntity
  8
ALPHA
100
AcDb2dPolyline
 66
     1
 10
0.0
 20
0.0
 30
0.0
  0
VERTEX
  5
10C0
100
AcDbEntity
  8
ALPHA
100
AcDbVertex
100
AcDb2dVertex
 10
22.482448
 20
5.944203
 30
0.0
  0
VERTEX
  5
10C1
100
AcDbEntity
  8
ALPHA
100
AcDbVertex
100
AcDb2dVertex
 10
22.482448
 20
24.746845
 30
0.0
  0
SEQEND
  5
10C2
100
AcDbEntity
  8
ALPHA
  0
POLYLINE
  5
10C3
100
AcDbEntity
  8
ALPHA
100
AcDb2dPolyline
 66
     1
 10
0.0
 20
0.0
 30
0.0
  0
VERTEX
  5
10C4
100
AcDbEntity
  8
ALPHA
100
AcDbVertex
100
AcDb2dVertex
 10
22.849351
 20
21.4554
 30
0.0
  0
VERTEX
  5
10C5
100
AcDbEntity
  8
ALPHA
100
AcDbVertex
100
AcDb2dVertex
 10
35.889726
 20
21.4554
 30
0.0
  0
SEQEND
  5
10C6
100
AcDbEntity
  8
ALPHA
  0
POLYLINE
  5
10C7
100
AcDbEntity
  8
ALPHA
100
AcDb2dPolyline
 66
     1
 10
0.0
 20
0.0
 30
0.0
  0
VERTEX
  5
10C8
100
AcDbEntity
  8
ALPHA
100
AcDbVertex
100
AcDb2dVertex
 10
36.073694
 20
5.944203
 30
0.0
  0
VERTEX
  5
10C9
100
AcDbEntity
  8
ALPHA
100
AcDbVertex
100
AcDb2dVertex
 10
22.482448
 20
5.944203
 30
0.0
  0
SEQEND
  5
10CA
100
AcDbEntity
  8
ALPHA
  0
POLYLINE
  5
10CB
100
AcDbEntity
  8
ALPHA
100
AcDb2dPolyline
 66
     1
 10
0.0
 20
0.0
 30
0.0
  0
VERTEX
  5
10CC
100
AcDbEntity
  8
ALPHA
100
AcDbVertex
100
AcDb2dVertex
 10
8.742546
 20
8.010226
 30
0.0
  0
VERTEX
  5
10CD
100
AcDbEntity
  8
ALPHA
100
AcDbVertex
100
AcDb2dVertex
 10
11.878272
 20
11.237936
 30
0.0
  0
SEQEND
  5
10CE
100
AcDbEntity
  8
ALPHA
  0
POLYLINE
  5
10CF
100
AcDbEntity
  8
ALPHA
100
AcDb2dPolyline
 66
     1
 10
0.0
 20
0.0
 30
0.0
  0
VERTEX
  5
10D0
100
AcDbEntity
  8
ALPHA
100
AcDbVertex
100
AcDb2dVertex
 10
14.735979
 20
11.348179
 30
0.0
  0
VERTEX
  5
10D1
100
AcDbEntity
  8
ALPHA
100
AcDbVertex
100
AcDb2dVertex
 10
17.026623
 20
9.055813
 30
0.0
  0
SEQEND
  5
10D2
100
AcDbEntity
  8
ALPHA
  0
POLYLINE
  5
10D3
100
AcDbEntity
  8
ALPHA
100
AcDb2dPolyline
 66
     1
 10
0.0
 20
0.0
 30
0.0
  0
VERTEX
  5
10D4
100
AcDbEntity
  8
ALPHA
100
AcDbVertex
100
AcDb2dVertex
 10
15.717314
 20
7.592336
 30
0.0
  0
VERTEX
  5
10D5
100
AcDbEntity
  8
ALPHA
100
AcDbVertex
100
AcDb2dVertex
 10
13.440795
 20
9.77446
 30
0.0
  0
SEQEND
  5
10D6
100
AcDbEntity
  8
ALPHA
  0
POLYLINE
  5
10D7
100
AcDbEntity
  8
ALPHA
100
AcDb2dPolyline
 66
     1
 10
0.0
 20
0.0
 30
0.0
  0
VERTEX
  5
10D8
100
AcDbEntity
  8
ALPHA
100
AcDbVertex
100
AcDb2dVertex
 10
13.440795
 20
9.77446
 30
0.0
  0
VERTEX
  5
10D9
100
AcDbEntity
  8
ALPHA
100
AcDbVertex
100
AcDb2dVertex
 10
10.144011
 20
6.543305
 30
0.0
  0
SEQEND
  5
10DA
100
AcDbEntity
  8
ALPHA
  0
POLYLINE
  5
10DB
100
AcDbEntity
  8
ALPHA
100
AcDb2dPolyline
 66
     1
 10
0.0
 20
0.0
 30
0.0
  0
VERTEX
  5
10DC
100
AcDbEntity
  8
ALPHA
100
AcDbVertex
100
AcDb2dVertex
 10
17.026623
 20
9.055813
 30
0.0
  0
VERTEX
  5
10DD
100
AcDbEntity
  8
ALPHA
100
AcDbVertex
100
AcDb2dVertex
 10
15.717314
 20
7.592336
 30
0.0
  0
SEQEND
  5
10DE
100
AcDbEntity
  8
ALPHA
  0
POLYLINE
  5
10DF
100
AcDbEntity
  8
ALPHA
100
AcDb2dPolyline
 66
     1
 10
0.0
 20
0.0
 30
0.0
  0
VERTEX
  5
10E0
100
AcDbEntity
  8
ALPHA
100
AcDbVertex
100
AcDb2dVertex
 10
17.853618
 20
14.529036
 30
0.0
  0
VERTEX
  5
10E1
100
AcDbEntity
  8
ALPHA
100
AcDbVertex
100
AcDb2dVertex
 10
14.735979
 20
11.348179
 30
0.0
  0
SEQEND
  5
10E2
100
AcDbEntity
  8
ALPHA
  0
POLYLINE
  5
10E3
100
AcDbEntity
  8
ALPHA
100
AcDb2dPolyline
 66
     1
 10
0.0
 20
0.0
 30
0.0
  0
VERTEX
  5
10E4
100
AcDbEntity
  8
ALPHA
100
AcDbVertex
100
AcDb2dVertex
 10
13.348811
 20
12.708648
 30
0.0
  0
VERTEX
  5
10E5
100
AcDbEntity
  8
ALPHA
100
AcDbVertex
100
AcDb2dVertex
 10
16.542587
 20
15.811645
 30
0.0
  0
SEQEND
  5
10E6
100
AcDbEntity
  8
ALPHA
  0
POLYLINE
  5
10E7
100
AcDbEntity
  8
ALPHA
100
AcDb2dPolyline
 66
     1
 10
0.0
 20
0.0
 30
0.0
  0
VERTEX
  5
10E8
100
AcDbEntity
  8
ALPHA
100
AcDbVertex
100
AcDb2dVertex
 10
11.246097
 20
14.745043
 30
0.0
  0
VERTEX
  5
10E9
100
AcDbEntity
  8
ALPHA
100
AcDbVertex
100
AcDb2dVertex
 10
13.267334
 20
12.725528
 30
0.0
  0
SEQEND
  5
10EA
100
AcDbEntity
  8
ALPHA
  0
POLYLINE
  5
10EB
100
AcDbEntity
  8
ALPHA
100
AcDb2dPolyline
 66
     1
 10
0.0
 20
0.0
 30
0.0
  0
VERTEX
  5
10EC
100
AcDbEntity
  8
ALPHA
100
AcDbVertex
100
AcDb2dVertex
 10
11.926159
 20
11.199351
 30
0.0
  0
VERTEX
  5
10ED
100
AcDbEntity
  8
ALPHA
100
AcDbVertex
100
AcDb2dVertex
 10
9.844804
 20
13.282256
 30
0.0
  0
SEQEND
  5
10EE
100
AcDbEntity
  8
ALPHA
  0
POLYLINE
  5
10EF
100
AcDbEntity
  8
ALPHA
100
AcDb2dPolyline
 66
     1
 10
0.0
 20
0.0
 30
0.0
  0
VERTEX
  5
10F0
100
AcDbEntity
  8
ALPHA
100
AcDbVertex
100
AcDb2dVertex
 10
11.878272
 20
11.237936
 30
0.0
  0
VERTEX
  5
10F1
100
AcDbEntity
  8
ALPHA
100
AcDbVertex
100
AcDb2dVertex
 10
11.926159
 20
11.199351
 30
0.0
  0
SEQEND
  5
10F2
100
AcDbEntity
  8
ALPHA
  0
POLYLINE
  5
10F3
100
AcDbEntity
  8
ALPHA
100
AcDb2dPolyline
 66
     1
 10
0.0
 20
0.0
 30
0.0
  0
VERTEX
  5
10F4
100
AcDbEntity
  8
ALPHA
100
AcDbVertex
100
AcDb2dVertex
 10
9.844804
 20
13.282256
 30
0.0
  0
VERTEX
  5
10F5
100
AcDbEntity
  8
ALPHA
100
AcDbVertex
100
AcDb2dVertex
 10
11.246097
 20
14.745043
 30
0.0
  0
SEQEND
  5
10F6
100
AcDbEntity
  8
ALPHA
  0
POLYLINE
  5
10F7
100
AcDbEntity
  8
ALPHA
100
AcDb2dPolyline
 66
     1
 10
0.0
 20
0.0
 30
0.0
  0
VERTEX
  5
10F8
100
AcDbEntity
  8
ALPHA
100
AcDbVertex
100
AcDb2dVertex
 10
13.267334
 20
12.725528
 30
0.0
  0
VERTEX
  5
10F9
100
AcDbEntity
  8
ALPHA
100
AcDbVertex
100
AcDb2dVertex
 10
13.348811
 20
12.708648
 30
0.0
  0
SEQEND
  5
10FA
100
AcDbEntity
  8
ALPHA
  0
POLYLINE
  5
10FB
100
AcDbEntity
  8
ALPHA
100
AcDb2dPolyline
 66
     1
 10
0.0
 20
0.0
 30
0.0
  0
VERTEX
  5
10FC
100
AcDbEntity
  8
ALPHA
100
AcDbVertex
100
AcDb2dVertex
 10
39.967686
 20
8.010226
 30
0.0
  0
VERTEX
  5
10FD
100
AcDbEntity
  8
ALPHA
100
AcDbVertex
100
AcDb2dVertex
 10
43.104962
 20
11.237936
 30
0.0
  0
SEQEND
  5
10FE
100
AcDbEntity
  8
ALPHA
  0
POLYLINE
  5
10FF
100
AcDbEntity
  8
ALPHA
100
AcDb2dPolyline
 66
     1
 10
0.0
 20
0.0
 30
0.0
  0
VERTEX
  5
1100
100
AcDbEntity
  8
ALPHA
100
AcDbVertex
100
AcDb2dVertex
 10
44.66559
 20
9.77446
 30
0.0
  0
VERTEX
  5
1101
100
AcDbEntity
  8
ALPHA
100
AcDbVertex
100
AcDb2dVertex
 10
41.368978
 20
6.543305
 30
0.0
  0
SEQEND
  5
1102
100
AcDbEntity
  8
ALPHA
  0
POLYLINE
  5
1103
100
AcDbEntity
  8
ALPHA
100
AcDb2dPolyline
 66
     1
 10
0.0
 20
0.0
 30
0.0
  0
VERTEX
  5
1104
100
AcDbEntity
  8
ALPHA
100
AcDbVertex
100
AcDb2dVertex
 10
27.625287
 20
0.465123
 30
0.0
  0
VERTEX
  5
1105
100
AcDbEntity
  8
ALPHA
100
AcDbVertex
100
AcDb2dVertex
 10
27.625287
 20
2.91493
 30
0.0
  0
SEQEND
  5
1106
100
AcDbEntity
  8
ALPHA
  0
POLYLINE
  5
1107
100
AcDbEntity
  8
ALPHA
100
AcDb2dPolyline
 66
     1
 10
0.0
 20
0.0
 30
0.0
  0
VERTEX
  5
1108
100
AcDbEntity
  8
ALPHA
100
AcDbVertex
100
AcDb2dVertex
 10
31.666211
 20
2.88358
 30
0.0
  0
VERTEX
  5
1109
100
AcDbEntity
  8
ALPHA
100
AcDbVertex
100
AcDb2dVertex
 10
31.666211
 20
0.465123
 30
0.0
  0
SEQEND
  5
110A
100
AcDbEntity
  8
ALPHA
  0
POLYLINE
  5
110B
100
AcDbEntity
  8
ALPHA
100
AcDb2dPolyline
 66
     1
 10
0.0
 20
0.0
 30
0.0
  0
VERTEX
  5
110C
100
AcDbEntity
  8
ALPHA
100
AcDbVertex
100
AcDb2dVertex
 10
43.150954
 20
11.199351
 30
0.0
  0
VERTEX
  5
110D
100
AcDbEntity
  8
ALPHA
100
AcDbVertex
100
AcDb2dVertex
 10
41.069427
 20
13.282256
 30
0.0
  0
SEQEND
  5
110E
100
AcDbEntity
  8
ALPHA
  0
POLYLINE
  5
110F
100
AcDbEntity
  8
ALPHA
100
AcDb2dPolyline
 66
     1
 10
0.0
 20
0.0
 30
0.0
  0
VERTEX
  5
1110
100
AcDbEntity
  8
ALPHA
100
AcDbVertex
100
AcDb2dVertex
 10
43.104962
 20
11.237936
 30
0.0
  0
VERTEX
  5
1111
100
AcDbEntity
  8
ALPHA
100
AcDbVertex
100
AcDb2dVertex
 10
43.150954
 20
11.199351
 30
0.0
  0
SEQEND
  5
1112
100
AcDbEntity
  8
ALPHA
  0
POLYLINE
  5
1113
100
AcDbEntity
  8
ALPHA
100
AcDb2dPolyline
 66
     1
 10
0.0
 20
0.0
 30
0.0
  0
VERTEX
  5
1114
100
AcDbEntity
  8
ALPHA
100
AcDbVertex
100
AcDb2dVertex
 10
41.069427
 20
13.282256
 30
0.0
  0
VERTEX
  5
1115
100
AcDbEntity
  8
ALPHA
100
AcDbVertex
100
AcDb2dVertex
 10
42.470548
 20
14.745043
 30
0.0
  0
SEQEND
  5
1116
100
AcDbEntity
  8
ALPHA
  0
POLYLINE
  5
1117
100
AcDbEntity
  8
ALPHA
100
AcDb2dPolyline
 66
     1
 10
0.0
 20
0.0
 30
0.0
  0
VERTEX
  5
1118
100
AcDbEntity
  8
ALPHA
100
AcDbVertex
100
AcDb2dVertex
 10
42.470548
 20
14.745043
 30
0.0
  0
VERTEX
  5
1119
100
AcDbEntity
  8
ALPHA
100
AcDbVertex
100
AcDb2dVertex
 10
44.491957
 20
12.725528
 30
0.0
  0
SEQEND
  5
111A
100
AcDbEntity
  8
ALPHA
  0
POLYLINE
  5
111B
100
AcDbEntity
  8
ALPHA
100
AcDb2dPolyline
 66
     1
 10
0.0
 20
0.0
 30
0.0
  0
VERTEX
  5
111C
100
AcDbEntity
  8
ALPHA
100
AcDbVertex
100
AcDb2dVertex
 10
44.491957
 20
12.725528
 30
0.0
  0
VERTEX
  5
111D
100
AcDbEntity
  8
ALPHA
100
AcDbVertex
100
AcDb2dVertex
 10
44.573262
 20
12.708648
 30
0.0
  0
SEQEND
  5
111E
100
AcDbEntity
  8
ALPHA
  0
POLYLINE
  5
111F
100
AcDbEntity
  8
ALPHA
100
AcDb2dPolyline
 66
     1
 10
0.0
 20
0.0
 30
0.0
  0
VERTEX
  5
1120
100
AcDbEntity
  8
ALPHA
100
AcDbVertex
100
AcDb2dVertex
 10
22.482448
 20
24.746845
 30
0.0
  0
VERTEX
  5
1121
100
AcDbEntity
  8
ALPHA
100
AcDbVertex
100
AcDb2dVertex
 10
27.258728
 20
24.746845
 30
0.0
  0
SEQEND
  5
1122
100
AcDbEntity
  8
ALPHA
  0
POLYLINE
  5
1123
100
AcDbEntity
  8
AXE
100
AcDb2dPolyline
 66
     1
 10
0.0
 20
0.0
 30
0.0
  0
VERTEX
  5
1124
100
AcDbEntity
  8
AXE
100
AcDbVertex
100
AcDb2dVertex
 10
9.973134
 20
21.64178
 30
0.0
  0
VERTEX
  5
1125
100
AcDbEntity
  8
AXE
100
AcDbVertex
100
AcDb2dVertex
 10
9.973134
 20
36.090511
 30
0.0
  0
SEQEND
  5
1126
100
AcDbEntity
  8
AXE
  0
POLYLINE
  5
1127
100
AcDbEntity
  8
ALPHA
100
AcDb2dPolyline
 66
     1
 10
0.0
 20
0.0
 30
0.0
  0
VERTEX
  5
1128
100
AcDbEntity
  8
ALPHA
100
AcDbVertex
100
AcDb2dVertex
 10
31.115341
 20
24.746845
 30
0.0
  0
VERTEX
  5
1129
100
AcDbEntity
  8
ALPHA
100
AcDbVertex
100
AcDb2dVertex
 10
36.073694
 20
24.746845
 30
0.0
  0
SEQEND
  5
112A
100
AcDbEntity
  8
ALPHA
  0
POLYLINE
  5
112B
100
AcDbEntity
  8
ALPHA
100
AcDb2dPolyline
 66
     1
 10
0.0
 20
0.0
 30
0.0
  0
VERTEX
  5
112C
100
AcDbEntity
  8
ALPHA
100
AcDbVertex
100
AcDb2dVertex
 10
31.115341
 20
28.053103
 30
0.0
  0
VERTEX
  5
112D
100
AcDbEntity
  8
ALPHA
100
AcDbVertex
100
AcDb2dVertex
 10
31.115341
 20
24.746845
 30
0.0
  0
SEQEND
  5
112E
100
AcDbEntity
  8
ALPHA
  0
POLYLINE
  5
112F
100
AcDbEntity
  8
ALPHA
100
AcDb2dPolyline
 66
     1
 10
0.0
 20
0.0
 30
0.0
  0
VERTEX
  5
1130
100
AcDbEntity
  8
ALPHA
100
AcDbVertex
100
AcDb2dVertex
 10
27.258728
 20
24.746845
 30
0.0
  0
VERTEX
  5
1131
100
AcDbEntity
  8
ALPHA
100
AcDbVertex
100
AcDb2dVertex
 10
27.258728
 20
28.237071
 30
0.0
  0
SEQEND
  5
1132
100
AcDbEntity
  8
ALPHA
  0
POLYLINE
  5
1133
100
AcDbEntity
  8
AXE
100
AcDb2dPolyline
 66
     1
 10
0.0
 20
0.0
 30
0.0
  0
VERTEX
  5
1134
100
AcDbEntity
  8
AXE
100
AcDbVertex
100
AcDb2dVertex
 10
85.363537
 20
28.965364
 30
0.0
  0
VERTEX
  5
1135
100
AcDbEntity
  8
AXE
100
AcDbVertex
100
AcDb2dVertex
 10
70.914117
 20
28.965364
 30
0.0
  0
SEQEND
  5
1136
100
AcDbEntity
  8
AXE
  0
POLYLINE
  5
1137
100
AcDbEntity
  8
ALPHA
100
AcDb2dPolyline
 66
     1
 10
0.0
 20
0.0
 30
0.0
  0
VERTEX
  5
1138
100
AcDbEntity
  8
ALPHA
100
AcDbVertex
100
AcDb2dVertex
 10
82.097931
 20
28.965364
 30
0.0
 42
1.0
  0
VERTEX
  5
1139
100
AcDbEntity
  8
ALPHA
100
AcDbVertex
100
AcDb2dVertex
 10
73.848305
 20
28.965364
 30
0.0
 42
1.0
  0
VERTEX
  5
113A
100
AcDbEntity
  8
ALPHA
100
AcDbVertex
100
AcDb2dVertex
 10
82.097931
 20
28.965364
 30
0.0
  0
SEQEND
  5
113B
100
AcDbEntity
  8
ALPHA
  0
POLYLINE
  5
113C
100
AcDbEntity
  8
ALPHA
100
AcDb2dPolyline
 66
     1
 10
0.0
 20
0.0
 30
0.0
  0
VERTEX
  5
113D
100
AcDbEntity
  8
ALPHA
100
AcDbVertex
100
AcDb2dVertex
 10
85.298941
 20
0.465123
 30
0.0
  0
VERTEX
  5
113E
100
AcDbEntity
  8
ALPHA
100
AcDbVertex
100
AcDb2dVertex
 10
61.422707
 20
0.465123
 30
0.0
  0
SEQEND
  5
113F
100
AcDbEntity
  8
ALPHA
  0
POLYLINE
  5
1140
100
AcDbEntity
  8
ALPHA
100
AcDb2dPolyline
 66
     1
 10
0.0
 20
0.0
 30
0.0
  0
VERTEX
  5
1141
100
AcDbEntity
  8
ALPHA
100
AcDbVertex
100
AcDb2dVertex
 10
66.931759
 20
24.746845
 30
0.0
  0
VERTEX
  5
1142
100
AcDbEntity
  8
ALPHA
100
AcDbVertex
100
AcDb2dVertex
 10
66.931759
 20
5.944203
 30
0.0
  0
SEQEND
  5
1143
100
AcDbEntity
  8
ALPHA
  0
POLYLINE
  5
1144
100
AcDbEntity
  8
ALPHA
100
AcDb2dPolyline
 66
     1
 10
0.0
 20
0.0
 30
0.0
  0
VERTEX
  5
1145
100
AcDbEntity
  8
ALPHA
100
AcDbVertex
100
AcDb2dVertex
 10
52.603779
 20
5.944203
 30
0.0
  0
VERTEX
  5
1146
100
AcDbEntity
  8
ALPHA
100
AcDbVertex
100
AcDb2dVertex
 10
52.603779
 20
24.746845
 30
0.0
  0
SEQEND
  5
1147
100
AcDbEntity
  8
ALPHA
  0
POLYLINE
  5
1148
100
AcDbEntity
  8
ALPHA
100
AcDb2dPolyline
 66
     1
 10
0.0
 20
0.0
 30
0.0
  0
VERTEX
  5
1149
100
AcDbEntity
  8
ALPHA
100
AcDbVertex
100
AcDb2dVertex
 10
52.789814
 20
21.4554
 30
0.0
  0
VERTEX
  5
114A
100
AcDbEntity
  8
ALPHA
100
AcDbVertex
100
AcDb2dVertex
 10
66.931759
 20
21.4554
 30
0.0
  0
SEQEND
  5
114B
100
AcDbEntity
  8
ALPHA
  0
POLYLINE
  5
114C
100
AcDbEntity
  8
ALPHA
100
AcDb2dPolyline
 66
     1
 10
0.0
 20
0.0
 30
0.0
  0
VERTEX
  5
114D
100
AcDbEntity
  8
ALPHA
100
AcDbVertex
100
AcDb2dVertex
 10
66.931759
 20
5.944203
 30
0.0
  0
VERTEX
  5
114E
100
AcDbEntity
  8
ALPHA
100
AcDbVertex
100
AcDb2dVertex
 10
52.603779
 20
5.944203
 30
0.0
  0
SEQEND
  5
114F
100
AcDbEntity
  8
ALPHA
  0
POLYLINE
  5
1150
100
AcDbEntity
  8
ALPHA
100
AcDb2dPolyline
 66
     1
 10
0.0
 20
0.0
 30
0.0
  0
VERTEX
  5
1151
100
AcDbEntity
  8
ALPHA
100
AcDbVertex
100
AcDb2dVertex
 10
45.960601
 20
11.348179
 30
0.0
  0
VERTEX
  5
1152
100
AcDbEntity
  8
ALPHA
100
AcDbVertex
100
AcDb2dVertex
 10
48.251073
 20
9.055813
 30
0.0
  0
SEQEND
  5
1153
100
AcDbEntity
  8
ALPHA
  0
POLYLINE
  5
1154
100
AcDbEntity
  8
ALPHA
100
AcDb2dPolyline
 66
     1
 10
0.0
 20
0.0
 30
0.0
  0
VERTEX
  5
1155
100
AcDbEntity
  8
ALPHA
100
AcDbVertex
100
AcDb2dVertex
 10
48.251073
 20
9.055813
 30
0.0
  0
VERTEX
  5
1156
100
AcDbEntity
  8
ALPHA
100
AcDbVertex
100
AcDb2dVertex
 10
46.941937
 20
7.592336
 30
0.0
  0
SEQEND
  5
1157
100
AcDbEntity
  8
ALPHA
  0
POLYLINE
  5
1158
100
AcDbEntity
  8
ALPHA
100
AcDb2dPolyline
 66
     1
 10
0.0
 20
0.0
 30
0.0
  0
VERTEX
  5
1159
100
AcDbEntity
  8
ALPHA
100
AcDbVertex
100
AcDb2dVertex
 10
57.013157
 20
0.465123
 30
0.0
  0
VERTEX
  5
115A
100
AcDbEntity
  8
ALPHA
100
AcDbVertex
100
AcDb2dVertex
 10
57.013157
 20
3.022073
 30
0.0
  0
SEQEND
  5
115B
100
AcDbEntity
  8
ALPHA
  0
POLYLINE
  5
115C
100
AcDbEntity
  8
ALPHA
100
AcDb2dPolyline
 66
     1
 10
0.0
 20
0.0
 30
0.0
  0
VERTEX
  5
115D
100
AcDbEntity
  8
ALPHA
100
AcDbVertex
100
AcDb2dVertex
 10
61.422707
 20
0.465123
 30
0.0
  0
VERTEX
  5
115E
100
AcDbEntity
  8
ALPHA
100
AcDbVertex
100
AcDb2dVertex
 10
61.422707
 20
2.929399
 30
0.0
  0
SEQEND
  5
115F
100
AcDbEntity
  8
ALPHA
  0
POLYLINE
  5
1160
100
AcDbEntity
  8
ALPHA
100
AcDb2dPolyline
 66
     1
 10
0.0
 20
0.0
 30
0.0
  0
VERTEX
  5
1161
100
AcDbEntity
  8
ALPHA
100
AcDbVertex
100
AcDb2dVertex
 10
49.078413
 20
14.529036
 30
0.0
  0
VERTEX
  5
1162
100
AcDbEntity
  8
ALPHA
100
AcDbVertex
100
AcDb2dVertex
 10
45.960601
 20
11.348179
 30
0.0
  0
SEQEND
  5
1163
100
AcDbEntity
  8
ALPHA
  0
POLYLINE
  5
1164
100
AcDbEntity
  8
ALPHA
100
AcDb2dPolyline
 66
     1
 10
0.0
 20
0.0
 30
0.0
  0
VERTEX
  5
1165
100
AcDbEntity
  8
ALPHA
100
AcDbVertex
100
AcDb2dVertex
 10
81.312966
 20
11.163522
 30
0.0
 42
1.0
  0
VERTEX
  5
1166
100
AcDbEntity
  8
ALPHA
100
AcDbVertex
100
AcDb2dVertex
 10
69.869047
 20
11.163522
 30
0.0
 42
1.0
  0
VERTEX
  5
1167
100
AcDbEntity
  8
ALPHA
100
AcDbVertex
100
AcDb2dVertex
 10
81.312966
 20
11.163522
 30
0.0
  0
SEQEND
  5
1168
100
AcDbEntity
  8
ALPHA
  0
POLYLINE
  5
1169
100
AcDbEntity
  8
ALPHA
100
AcDb2dPolyline
 66
     1
 10
0.0
 20
0.0
 30
0.0
  0
VERTEX
  5
116A
100
AcDbEntity
  8
ALPHA
100
AcDbVertex
100
AcDb2dVertex
 10
71.007996
 20
8.010226
 30
0.0
  0
VERTEX
  5
116B
100
AcDbEntity
  8
ALPHA
100
AcDbVertex
100
AcDb2dVertex
 10
74.143722
 20
11.237936
 30
0.0
  0
SEQEND
  5
116C
100
AcDbEntity
  8
ALPHA
  0
POLYLINE
  5
116D
100
AcDbEntity
  8
ALPHA
100
AcDb2dPolyline
 66
     1
 10
0.0
 20
0.0
 30
0.0
  0
VERTEX
  5
116E
100
AcDbEntity
  8
ALPHA
100
AcDbVertex
100
AcDb2dVertex
 10
77.001256
 20
11.348179
 30
0.0
  0
VERTEX
  5
116F
100
AcDbEntity
  8
ALPHA
100
AcDbVertex
100
AcDb2dVertex
 10
79.291556
 20
9.055813
 30
0.0
  0
SEQEND
  5
1170
100
AcDbEntity
  8
ALPHA
  0
POLYLINE
  5
1171
100
AcDbEntity
  8
ALPHA
100
AcDb2dPolyline
 66
     1
 10
0.0
 20
0.0
 30
0.0
  0
VERTEX
  5
1172
100
AcDbEntity
  8
ALPHA
100
AcDbVertex
100
AcDb2dVertex
 10
77.982592
 20
7.592336
 30
0.0
  0
VERTEX
  5
1173
100
AcDbEntity
  8
ALPHA
100
AcDbVertex
100
AcDb2dVertex
 10
75.7059
 20
9.77446
 30
0.0
  0
SEQEND
  5
1174
100
AcDbEntity
  8
ALPHA
  0
POLYLINE
  5
1175
100
AcDbEntity
  8
ALPHA
100
AcDb2dPolyline
 66
     1
 10
0.0
 20
0.0
 30
0.0
  0
VERTEX
  5
1176
100
AcDbEntity
  8
ALPHA
100
AcDbVertex
100
AcDb2dVertex
 10
75.7059
 20
9.77446
 30
0.0
  0
VERTEX
  5
1177
100
AcDbEntity
  8
ALPHA
100
AcDbVertex
100
AcDb2dVertex
 10
72.409289
 20
6.543305
 30
0.0
  0
SEQEND
  5
1178
100
AcDbEntity
  8
ALPHA
  0
POLYLINE
  5
1179
100
AcDbEntity
  8
ALPHA
100
AcDb2dPolyline
 66
     1
 10
0.0
 20
0.0
 30
0.0
  0
VERTEX
  5
117A
100
AcDbEntity
  8
ALPHA
100
AcDbVertex
100
AcDb2dVertex
 10
79.291556
 20
9.055813
 30
0.0
  0
VERTEX
  5
117B
100
AcDbEntity
  8
ALPHA
100
AcDbVertex
100
AcDb2dVertex
 10
77.982592
 20
7.592336
 30
0.0
  0
SEQEND
  5
117C
100
AcDbEntity
  8
ALPHA
  0
POLYLINE
  5
117D
100
AcDbEntity
  8
ALPHA
100
AcDb2dPolyline
 66
     1
 10
0.0
 20
0.0
 30
0.0
  0
VERTEX
  5
117E
100
AcDbEntity
  8
ALPHA
100
AcDbVertex
100
AcDb2dVertex
 10
74.189714
 20
11.199351
 30
0.0
  0
VERTEX
  5
117F
100
AcDbEntity
  8
ALPHA
100
AcDbVertex
100
AcDb2dVertex
 10
72.109737
 20
13.282256
 30
0.0
  0
SEQEND
  5
1180
100
AcDbEntity
  8
ALPHA
  0
POLYLINE
  5
1181
100
AcDbEntity
  8
ALPHA
100
AcDb2dPolyline
 66
     1
 10
0.0
 20
0.0
 30
0.0
  0
VERTEX
  5
1182
100
AcDbEntity
  8
ALPHA
100
AcDbVertex
100
AcDb2dVertex
 10
72.109737
 20
13.282256
 30
0.0
  0
VERTEX
  5
1183
100
AcDbEntity
  8
ALPHA
100
AcDbVertex
100
AcDb2dVertex
 10
73.51103
 20
14.745043
 30
0.0
  0
SEQEND
  5
1184
100
AcDbEntity
  8
ALPHA
  0
POLYLINE
  5
1185
100
AcDbEntity
  8
ALPHA
100
AcDb2dPolyline
 66
     1
 10
0.0
 20
0.0
 30
0.0
  0
VERTEX
  5
1186
100
AcDbEntity
  8
ALPHA
100
AcDbVertex
100
AcDb2dVertex
 10
75.613916
 20
12.708648
 30
0.0
  0
VERTEX
  5
1187
100
AcDbEntity
  8
ALPHA
100
AcDbVertex
100
AcDb2dVertex
 10
78.808037
 20
15.811645
 30
0.0
  0
SEQEND
  5
1188
100
AcDbEntity
  8
ALPHA
  0
POLYLINE
  5
1189
100
AcDbEntity
  8
ALPHA
100
AcDb2dPolyline
 66
     1
 10
0.0
 20
0.0
 30
0.0
  0
VERTEX
  5
118A
100
AcDbEntity
  8
ALPHA
100
AcDbVertex
100
AcDb2dVertex
 10
74.143722
 20
11.237936
 30
0.0
  0
VERTEX
  5
118B
100
AcDbEntity
  8
ALPHA
100
AcDbVertex
100
AcDb2dVertex
 10
74.189714
 20
11.199351
 30
0.0
  0
SEQEND
  5
118C
100
AcDbEntity
  8
ALPHA
  0
POLYLINE
  5
118D
100
AcDbEntity
  8
ALPHA
100
AcDb2dPolyline
 66
     1
 10
0.0
 20
0.0
 30
0.0
  0
VERTEX
  5
118E
100
AcDbEntity
  8
ALPHA
100
AcDbVertex
100
AcDb2dVertex
 10
73.51103
 20
14.745043
 30
0.0
  0
VERTEX
  5
118F
100
AcDbEntity
  8
ALPHA
100
AcDbVertex
100
AcDb2dVertex
 10
75.532612
 20
12.725528
 30
0.0
  0
SEQEND
  5
1190
100
AcDbEntity
  8
ALPHA
  0
POLYLINE
  5
1191
100
AcDbEntity
  8
ALPHA
100
AcDb2dPolyline
 66
     1
 10
0.0
 20
0.0
 30
0.0
  0
VERTEX
  5
1192
100
AcDbEntity
  8
ALPHA
100
AcDbVertex
100
AcDb2dVertex
 10
75.532612
 20
12.725528
 30
0.0
  0
VERTEX
  5
1193
100
AcDbEntity
  8
ALPHA
100
AcDbVertex
100
AcDb2dVertex
 10
75.613916
 20
12.708648
 30
0.0
  0
SEQEND
  5
1194
100
AcDbEntity
  8
ALPHA
  0
POLYLINE
  5
1195
100
AcDbEntity
  8
ALPHA
100
AcDb2dPolyline
 66
     1
 10
0.0
 20
0.0
 30
0.0
  0
VERTEX
  5
1196
100
AcDbEntity
  8
ALPHA
100
AcDbVertex
100
AcDb2dVertex
 10
80.118895
 20
14.529036
 30
0.0
  0
VERTEX
  5
1197
100
AcDbEntity
  8
ALPHA
100
AcDbVertex
100
AcDb2dVertex
 10
77.001256
 20
11.348179
 30
0.0
  0
SEQEND
  5
1198
100
AcDbEntity
  8
ALPHA
  0
POLYLINE
  5
1199
100
AcDbEntity
  8
ALPHA
100
AcDb2dPolyline
 66
     1
 10
0.0
 20
0.0
 30
0.0
  0
VERTEX
  5
119A
100
AcDbEntity
  8
ALPHA
100
AcDbVertex
100
AcDb2dVertex
 10
62.155995
 20
24.746845
 30
0.0
  0
VERTEX
  5
119B
100
AcDbEntity
  8
ALPHA
100
AcDbVertex
100
AcDb2dVertex
 10
66.931759
 20
24.746845
 30
0.0
  0
SEQEND
  5
119C
100
AcDbEntity
  8
ALPHA
  0
POLYLINE
  5
119D
100
AcDbEntity
  8
ALPHA
100
AcDb2dPolyline
 66
     1
 10
0.0
 20
0.0
 30
0.0
  0
VERTEX
  5
119E
100
AcDbEntity
  8
ALPHA
100
AcDbVertex
100
AcDb2dVertex
 10
52.603779
 20
24.746845
 30
0.0
  0
VERTEX
  5
119F
100
AcDbEntity
  8
ALPHA
100
AcDbVertex
100
AcDb2dVertex
 10
57.564028
 20
24.746845
 30
0.0
  0
SEQEND
  5
11A0
100
AcDbEntity
  8
ALPHA
  0
POLYLINE
  5
11A1
100
AcDbEntity
  8
ALPHA
100
AcDb2dPolyline
 66
     1
 10
0.0
 20
0.0
 30
0.0
  0
VERTEX
  5
11A2
100
AcDbEntity
  8
ALPHA
100
AcDbVertex
100
AcDb2dVertex
 10
62.155995
 20
28.145087
 30
0.0
  0
VERTEX
  5
11A3
100
AcDbEntity
  8
ALPHA
100
AcDbVertex
100
AcDb2dVertex
 10
62.155995
 20
24.746845
 30
0.0
  0
SEQEND
  5
11A4
100
AcDbEntity
  8
ALPHA
  0
POLYLINE
  5
11A5
100
AcDbEntity
  8
ALPHA
100
AcDb2dPolyline
 66
     1
 10
0.0
 20
0.0
 30
0.0
  0
VERTEX
  5
11A6
100
AcDbEntity
  8
ALPHA
100
AcDbVertex
100
AcDb2dVertex
 10
57.564028
 20
24.746845
 30
0.0
  0
VERTEX
  5
11A7
100
AcDbEntity
  8
ALPHA
100
AcDbVertex
100
AcDb2dVertex
 10
57.564028
 20
28.145087
 30
0.0
  0
SEQEND
  5
11A8
100
AcDbEntity
  8
ALPHA
  0
POLYLINE
  5
11A9
100
AcDbEntity
  8
AXE
100
AcDb2dPolyline
 66
     1
 10
0.0
 20
0.0
 30
0.0
  0
VERTEX
  5
11AA
100
AcDbEntity
  8
AXE
100
AcDbVertex
100
AcDb2dVertex
 10
77.973118
 20
21.64178
 30
0.0
  0
VERTEX
  5
11AB
100
AcDbEntity
  8
AXE
100
AcDbVertex
100
AcDb2dVertex
 10
77.973118
 20
36.090511
 30
0.0
  0
SEQEND
  5
11AC
100
AcDbEntity
  8
AXE
  0
POLYLINE
  5
11AD
100
AcDbEntity
  8
ALPHA
100
AcDb2dPolyline
 66
     1
 10
0.0
 20
0.0
 30
0.0
  0
VERTEX
  5
11AE
100
AcDbEntity
  8
ALPHA
100
AcDbVertex
100
AcDb2dVertex
 10
70.237328
 20
28.434819
 30
0.0
  0
VERTEX
  5
11AF
100
AcDbEntity
  8
ALPHA
100
AcDbVertex
100
AcDb2dVertex
 10
70.605781
 20
28.434819
 30
0.0
  0
SEQEND
  5
11B0
100
AcDbEntity
  8
ALPHA
  0
POLYLINE
  5
11B1
100
AcDbEntity
  8
ALPHA
100
AcDb2dPolyline
 66
     1
 10
0.0
 20
0.0
 30
0.0
  0
VERTEX
  5
11B2
100
AcDbEntity
  8
ALPHA
100
AcDbVertex
100
AcDb2dVertex
 10
88.972791
 20
27.333078
 30
0.0
  0
VERTEX
  5
11B3
100
AcDbEntity
  8
ALPHA
100
AcDbVertex
100
AcDb2dVertex
 10
88.972791
 20
6.861976
 30
0.0
  0
SEQEND
  5
11B4
100
AcDbEntity
  8
ALPHA
  0
POLYLINE
  5
11B5
100
AcDbEntity
  8
ALPHA
100
AcDb2dPolyline
 66
     1
 10
0.0
 20
0.0
 30
0.0
  0
VERTEX
  5
11B6
100
AcDbEntity
  8
ALPHA
100
AcDbVertex
100
AcDb2dVertex
 10
85.298941
 20
17.951394
 30
0.0
  0
VERTEX
  5
11B7
100
AcDbEntity
  8
ALPHA
100
AcDbVertex
100
AcDb2dVertex
 10
85.298941
 20
0.465123
 30
0.0
  0
SEQEND
  5
11B8
100
AcDbEntity
  8
ALPHA
  0
POLYLINE
  5
11B9
100
AcDbEntity
  8
ALPHA
100
AcDb2dPolyline
 66
     1
 10
0.0
 20
0.0
 30
0.0
  0
VERTEX
  5
11BA
100
AcDbEntity
  8
ALPHA
100
AcDbVertex
100
AcDb2dVertex
 10
88.972791
 20
6.861976
 30
0.0
  0
VERTEX
  5
11BB
100
AcDbEntity
  8
ALPHA
100
AcDbVertex
100
AcDb2dVertex
 10
85.114628
 20
6.861976
 30
0.0
  0
SEQEND
  5
11BC
100
AcDbEntity
  8
ALPHA
  0
POLYLINE
  5
11BD
100
AcDbEntity
  8
ALPHA
100
AcDb2dPolyline
 66
     1
 10
0.0
 20
0.0
 30
0.0
  0
VERTEX
  5
11BE
100
AcDbEntity
  8
ALPHA
100
AcDbVertex
100
AcDb2dVertex
 10
53.093844
 20
62.598626
 30
0.0
 42
1.0
  0
VERTEX
  5
11BF
100
AcDbEntity
  8
ALPHA
100
AcDbVertex
100
AcDb2dVertex
 10
35.950015
 20
62.598626
 30
0.0
 42
1.0
  0
VERTEX
  5
11C0
100
AcDbEntity
  8
ALPHA
100
AcDbVertex
100
AcDb2dVertex
 10
53.093844
 20
62.598626
 30
0.0
  0
SEQEND
  5
11C1
100
AcDbEntity
  8
ALPHA
  0
POLYLINE
  5
11C2
100
AcDbEntity
  8
ALPHA
100
AcDb2dPolyline
 66
     1
 10
0.0
 20
0.0
 30
0.0
  0
VERTEX
  5
11C3
100
AcDbEntity
  8
ALPHA
100
AcDbVertex
100
AcDb2dVertex
 10
2.829556
 20
122.926554
 30
0.0
  0
VERTEX
  5
11C4
100
AcDbEntity
  8
ALPHA
100
AcDbVertex
100
AcDb2dVertex
 10
84.930488
 20
122.926554
 30
0.0
  0
SEQEND
  5
11C5
100
AcDbEntity
  8
ALPHA
  0
POLYLINE
  5
11C6
100
AcDbEntity
  8
ALPHA
100
AcDb2dPolyline
 66
     1
 10
0.0
 20
0.0
 30
0.0
  0
VERTEX
  5
11C7
100
AcDbEntity
  8
ALPHA
100
AcDbVertex
100
AcDb2dVertex
 10
50.274206
 20
114.769085
 30
0.0
 42
1.0
  0
VERTEX
  5
11C8
100
AcDbEntity
  8
ALPHA
100
AcDbVertex
100
AcDb2dVertex
 10
38.826498
 20
114.769085
 30
0.0
 42
1.0
  0
VERTEX
  5
11C9
100
AcDbEntity
  8
ALPHA
100
AcDbVertex
100
AcDb2dVertex
 10
50.274206
 20
114.769085
 30
0.0
  0
SEQEND
  5
11CA
100
AcDbEntity
  8
ALPHA
  0
POLYLINE
  5
11CB
100
AcDbEntity
  8
ALPHA
100
AcDb2dPolyline
 66
     1
 10
0.0
 20
0.0
 30
0.0
  0
VERTEX
  5
11CC
100
AcDbEntity
  8
ALPHA
100
AcDbVertex
100
AcDb2dVertex
 10
44.573262
 20
113.225854
 30
0.0
  0
VERTEX
  5
11CD
100
AcDbEntity
  8
ALPHA
100
AcDbVertex
100
AcDb2dVertex
 10
47.767382
 20
110.122857
 30
0.0
  0
SEQEND
  5
11CE
100
AcDbEntity
  8
ALPHA
  0
POLYLINE
  5
11CF
100
AcDbEntity
  8
ALPHA
100
AcDb2dPolyline
 66
     1
 10
0.0
 20
0.0
 30
0.0
  0
VERTEX
  5
11D0
100
AcDbEntity
  8
ALPHA
100
AcDbVertex
100
AcDb2dVertex
 10
46.941937
 20
118.340098
 30
0.0
  0
VERTEX
  5
11D1
100
AcDbEntity
  8
ALPHA
100
AcDbVertex
100
AcDb2dVertex
 10
44.66559
 20
116.155908
 30
0.0
  0
SEQEND
  5
11D2
100
AcDbEntity
  8
ALPHA
  0
POLYLINE
  5
11D3
100
AcDbEntity
  8
ALPHA
100
AcDb2dPolyline
 66
     1
 10
0.0
 20
0.0
 30
0.0
  0
VERTEX
  5
11D4
100
AcDbEntity
  8
ALPHA
100
AcDbVertex
100
AcDb2dVertex
 10
31.666211
 20
125.465245
 30
0.0
  0
VERTEX
  5
11D5
100
AcDbEntity
  8
ALPHA
100
AcDbVertex
100
AcDb2dVertex
 10
57.013157
 20
125.465245
 30
0.0
  0
SEQEND
  5
11D6
100
AcDbEntity
  8
ALPHA
  0
POLYLINE
  5
11D7
100
AcDbEntity
  8
ALPHA
100
AcDb2dPolyline
 66
     1
 10
0.0
 20
0.0
 30
0.0
  0
VERTEX
  5
11D8
100
AcDbEntity
  8
ALPHA
100
AcDbVertex
100
AcDb2dVertex
 10
70.237328
 20
97.495893
 30
0.0
  0
VERTEX
  5
11D9
100
AcDbEntity
  8
ALPHA
100
AcDbVertex
100
AcDb2dVertex
 10
17.339954
 20
97.495893
 30
0.0
  0
SEQEND
  5
11DA
100
AcDbEntity
  8
ALPHA
  0
POLYLINE
  5
11DB
100
AcDbEntity
  8
ALPHA
100
AcDb2dPolyline
 66
     1
 10
0.0
 20
0.0
 30
0.0
  0
VERTEX
  5
11DC
100
AcDbEntity
  8
ALPHA
100
AcDbVertex
100
AcDb2dVertex
 10
47.787536
 20
67.496346
 30
0.0
  0
VERTEX
  5
11DD
100
AcDbEntity
  8
ALPHA
100
AcDbVertex
100
AcDb2dVertex
 10
41.257702
 20
67.496346
 30
0.0
  0
SEQEND
  5
11DE
100
AcDbEntity
  8
ALPHA
  0
POLYLINE
  5
11DF
100
AcDbEntity
  8
ALPHA
100
AcDb2dPolyline
 66
     1
 10
0.0
 20
0.0
 30
0.0
  0
VERTEX
  5
11E0
100
AcDbEntity
  8
ALPHA
100
AcDbVertex
100
AcDb2dVertex
 10
41.257702
 20
57.57826
 30
0.0
  0
VERTEX
  5
11E1
100
AcDbEntity
  8
ALPHA
100
AcDbVertex
100
AcDb2dVertex
 10
47.787536
 20
57.57826
 30
0.0
  0
SEQEND
  5
11E2
100
AcDbEntity
  8
ALPHA
  0
POLYLINE
  5
11E3
100
AcDbEntity
  8
AXE
100
AcDb2dPolyline
 66
     1
 10
0.0
 20
0.0
 30
0.0
  0
VERTEX
  5
11E4
100
AcDbEntity
  8
AXE
100
AcDbVertex
100
AcDb2dVertex
 10
9.973134
 20
89.641419
 30
0.0
  0
VERTEX
  5
11E5
100
AcDbEntity
  8
AXE
100
AcDbVertex
100
AcDb2dVertex
 10
9.973134
 20
104.090494
 30
0.0
  0
SEQEND
  5
11E6
100
AcDbEntity
  8
AXE
  0
POLYLINE
  5
11E7
100
AcDbEntity
  8
ALPHA
100
AcDb2dPolyline
 66
     1
 10
0.0
 20
0.0
 30
0.0
  0
VERTEX
  5
11E8
100
AcDbEntity
  8
ALPHA
100
AcDbVertex
100
AcDb2dVertex
 10
14.097947
 20
96.965348
 30
0.0
 42
1.0
  0
VERTEX
  5
11E9
100
AcDbEntity
  8
ALPHA
100
AcDbVertex
100
AcDb2dVertex
 10
5.847804
 20
96.965348
 30
0.0
 42
1.0
  0
VERTEX
  5
11EA
100
AcDbEntity
  8
ALPHA
100
AcDbVertex
100
AcDb2dVertex
 10
14.097947
 20
96.965348
 30
0.0
  0
SEQEND
  5
11EB
100
AcDbEntity
  8
ALPHA
  0
POLYLINE
  5
11EC
100
AcDbEntity
  8
ALPHA
100
AcDb2dPolyline
 66
     1
 10
0.0
 20
0.0
 30
0.0
  0
VERTEX
  5
11ED
100
AcDbEntity
  8
ALPHA
100
AcDbVertex
100
AcDb2dVertex
 10
39.870017
 20
58.966978
 30
0.0
  0
VERTEX
  5
11EE
100
AcDbEntity
  8
ALPHA
100
AcDbVertex
100
AcDb2dVertex
 10
39.877182
 20
58.824891
 30
0.0
  0
VERTEX
  5
11EF
100
AcDbEntity
  8
ALPHA
100
AcDbVertex
100
AcDb2dVertex
 10
39.898211
 20
58.686931
 30
0.0
  0
VERTEX
  5
11F0
100
AcDbEntity
  8
ALPHA
100
AcDbVertex
100
AcDb2dVertex
 10
39.932408
 20
58.553793
 30
0.0
  0
VERTEX
  5
11F1
100
AcDbEntity
  8
ALPHA
100
AcDbVertex
100
AcDb2dVertex
 10
39.979073
 20
58.426174
 30
0.0
  0
VERTEX
  5
11F2
100
AcDbEntity
  8
ALPHA
100
AcDbVertex
100
AcDb2dVertex
 10
40.03751
 20
58.304767
 30
0.0
  0
VERTEX
  5
11F3
100
AcDbEntity
  8
ALPHA
100
AcDbVertex
100
AcDb2dVertex
 10
40.107021
 20
58.190269
 30
0.0
  0
VERTEX
  5
11F4
100
AcDbEntity
  8
ALPHA
100
AcDbVertex
100
AcDb2dVertex
 10
40.186908
 20
58.083376
 30
0.0
  0
VERTEX
  5
11F5
100
AcDbEntity
  8
ALPHA
100
AcDbVertex
100
AcDb2dVertex
 10
40.276474
 20
57.984781
 30
0.0
  0
VERTEX
  5
11F6
100
AcDbEntity
  8
ALPHA
100
AcDbVertex
100
AcDb2dVertex
 10
40.37502
 20
57.895182
 30
0.0
  0
VERTEX
  5
11F7
100
AcDbEntity
  8
ALPHA
100
AcDbVertex
100
AcDb2dVertex
 10
40.48185
 20
57.815273
 30
0.0
  0
VERTEX
  5
11F8
100
AcDbEntity
  8
ALPHA
100
AcDbVertex
100
AcDb2dVertex
 10
40.596265
 20
57.74575
 30
0.0
  0
VERTEX
  5
11F9
100
AcDbEntity
  8
ALPHA
100
AcDbVertex
100
AcDb2dVertex
 10
40.717567
 20
57.687308
 30
0.0
  0
VERTEX
  5
11FA
100
AcDbEntity
  8
ALPHA
100
AcDbVertex
100
AcDb2dVertex
 10
40.84506
 20
57.640643
 30
0.0
  0
VERTEX
  5
11FB
100
AcDbEntity
  8
ALPHA
100
AcDbVertex
100
AcDb2dVertex
 10
40.978045
 20
57.606449
 30
0.0
  0
VERTEX
  5
11FC
100
AcDbEntity
  8
ALPHA
100
AcDbVertex
100
AcDb2dVertex
 10
41.115825
 20
57.585423
 30
0.0
  0
VERTEX
  5
11FD
100
AcDbEntity
  8
ALPHA
100
AcDbVertex
100
AcDb2dVertex
 10
41.257702
 20
57.57826
 30
0.0
  0
SEQEND
  5
11FE
100
AcDbEntity
  8
ALPHA
  0
POLYLINE
  5
11FF
100
AcDbEntity
  8
ALPHA
100
AcDb2dPolyline
 66
     1
 10
0.0
 20
0.0
 30
0.0
  0
VERTEX
  5
1200
100
AcDbEntity
  8
ALPHA
100
AcDbVertex
100
AcDb2dVertex
 10
39.870017
 20
66.108661
 30
0.0
  0
VERTEX
  5
1201
100
AcDbEntity
  8
ALPHA
100
AcDbVertex
100
AcDb2dVertex
 10
39.870017
 20
58.966978
 30
0.0
  0
SEQEND
  5
1202
100
AcDbEntity
  8
ALPHA
  0
POLYLINE
  5
1203
100
AcDbEntity
  8
ALPHA
100
AcDb2dPolyline
 66
     1
 10
0.0
 20
0.0
 30
0.0
  0
VERTEX
  5
1204
100
AcDbEntity
  8
ALPHA
100
AcDbVertex
100
AcDb2dVertex
 10
41.257702
 20
67.496346
 30
0.0
  0
VERTEX
  5
1205
100
AcDbEntity
  8
ALPHA
100
AcDbVertex
100
AcDb2dVertex
 10
41.115825
 20
67.489183
 30
0.0
  0
VERTEX
  5
1206
100
AcDbEntity
  8
ALPHA
100
AcDbVertex
100
AcDb2dVertex
 10
40.978045
 20
67.468158
 30
0.0
  0
VERTEX
  5
1207
100
AcDbEntity
  8
ALPHA
100
AcDbVertex
100
AcDb2dVertex
 10
40.84506
 20
67.43397
 30
0.0
  0
VERTEX
  5
1208
100
AcDbEntity
  8
ALPHA
100
AcDbVertex
100
AcDb2dVertex
 10
40.717567
 20
67.387314
 30
0.0
  0
VERTEX
  5
1209
100
AcDbEntity
  8
ALPHA
100
AcDbVertex
100
AcDb2dVertex
 10
40.596265
 20
67.328887
 30
0.0
  0
VERTEX
  5
120A
100
AcDbEntity
  8
ALPHA
100
AcDbVertex
100
AcDb2dVertex
 10
40.48185
 20
67.259387
 30
0.0
  0
VERTEX
  5
120B
100
AcDbEntity
  8
ALPHA
100
AcDbVertex
100
AcDb2dVertex
 10
40.37502
 20
67.17951
 30
0.0
  0
VERTEX
  5
120C
100
AcDbEntity
  8
ALPHA
100
AcDbVertex
100
AcDb2dVertex
 10
40.276474
 20
67.089953
 30
0.0
  0
VERTEX
  5
120D
100
AcDbEntity
  8
ALPHA
100
AcDbVertex
100
AcDb2dVertex
 10
40.186908
 20
66.991414
 30
0.0
  0
VERTEX
  5
120E
100
AcDbEntity
  8
ALPHA
100
AcDbVertex
100
AcDb2dVertex
 10
40.107021
 20
66.884589
 30
0.0
  0
VERTEX
  5
120F
100
AcDbEntity
  8
ALPHA
100
AcDbVertex
100
AcDb2dVertex
 10
40.03751
 20
66.770175
 30
0.0
  0
VERTEX
  5
1210
100
AcDbEntity
  8
ALPHA
100
AcDbVertex
100
AcDb2dVertex
 10
39.979073
 20
66.648868
 30
0.0
  0
VERTEX
  5
1211
100
AcDbEntity
  8
ALPHA
100
AcDbVertex
100
AcDb2dVertex
 10
39.932408
 20
66.521367
 30
0.0
  0
VERTEX
  5
1212
100
AcDbEntity
  8
ALPHA
100
AcDbVertex
100
AcDb2dVertex
 10
39.898211
 20
66.388367
 30
0.0
  0
VERTEX
  5
1213
100
AcDbEntity
  8
ALPHA
100
AcDbVertex
100
AcDb2dVertex
 10
39.877182
 20
66.250566
 30
0.0
  0
VERTEX
  5
1214
100
AcDbEntity
  8
ALPHA
100
AcDbVertex
100
AcDb2dVertex
 10
39.870017
 20
66.108661
 30
0.0
  0
SEQEND
  5
1215
100
AcDbEntity
  8
ALPHA
  0
POLYLINE
  5
1216
100
AcDbEntity
  8
AXE
100
AcDb2dPolyline
 66
     1
 10
0.0
 20
0.0
 30
0.0
  0
VERTEX
  5
1217
100
AcDbEntity
  8
AXE
100
AcDbVertex
100
AcDb2dVertex
 10
17.362864
 20
96.965348
 30
0.0
  0
VERTEX
  5
1218
100
AcDbEntity
  8
AXE
100
AcDbVertex
100
AcDb2dVertex
 10
2.914133
 20
96.965348
 30
0.0
  0
SEQEND
  5
1219
100
AcDbEntity
  8
AXE
  0
POLYLINE
  5
121A
100
AcDbEntity
  8
ALPHA
100
AcDb2dPolyline
 66
     1
 10
0.0
 20
0.0
 30
0.0
  0
VERTEX
  5
121B
100
AcDbEntity
  8
ALPHA
100
AcDbVertex
100
AcDb2dVertex
 10
19.049583
 20
114.769085
 30
0.0
 42
1.0
  0
VERTEX
  5
121C
100
AcDbEntity
  8
ALPHA
100
AcDbVertex
100
AcDb2dVertex
 10
7.601875
 20
114.769085
 30
0.0
 42
1.0
  0
VERTEX
  5
121D
100
AcDbEntity
  8
ALPHA
100
AcDbVertex
100
AcDb2dVertex
 10
19.049583
 20
114.769085
 30
0.0
  0
SEQEND
  5
121E
100
AcDbEntity
  8
ALPHA
  0
POLYLINE
  5
121F
100
AcDbEntity
  8
ALPHA
100
AcDb2dPolyline
 66
     1
 10
0.0
 20
0.0
 30
0.0
  0
VERTEX
  5
1220
100
AcDbEntity
  8
ALPHA
100
AcDbVertex
100
AcDb2dVertex
 10
2.647138
 20
125.465245
 30
0.0
  0
VERTEX
  5
1221
100
AcDbEntity
  8
ALPHA
100
AcDbVertex
100
AcDb2dVertex
 10
27.625287
 20
125.465245
 30
0.0
  0
SEQEND
  5
1222
100
AcDbEntity
  8
ALPHA
  0
POLYLINE
  5
1223
100
AcDbEntity
  8
ALPHA
100
AcDb2dPolyline
 66
     1
 10
0.0
 20
0.0
 30
0.0
  0
VERTEX
  5
1224
100
AcDbEntity
  8
ALPHA
100
AcDbVertex
100
AcDb2dVertex
 10
2.647138
 20
107.061545
 30
0.0
  0
VERTEX
  5
1225
100
AcDbEntity
  8
ALPHA
100
AcDbVertex
100
AcDb2dVertex
 10
2.647138
 20
125.465245
 30
0.0
  0
SEQEND
  5
1226
100
AcDbEntity
  8
ALPHA
  0
POLYLINE
  5
1227
100
AcDbEntity
  8
ALPHA
100
AcDb2dPolyline
 66
     1
 10
0.0
 20
0.0
 30
0.0
  0
VERTEX
  5
1228
100
AcDbEntity
  8
ALPHA
100
AcDbVertex
100
AcDb2dVertex
 10
-1.027056
 20
103.524465
 30
0.0
  0
VERTEX
  5
1229
100
AcDbEntity
  8
ALPHA
100
AcDbVertex
100
AcDb2dVertex
 10
-1.027056
 20
119.068391
 30
0.0
  0
SEQEND
  5
122A
100
AcDbEntity
  8
ALPHA
  0
POLYLINE
  5
122B
100
AcDbEntity
  8
ALPHA
100
AcDb2dPolyline
 66
     1
 10
0.0
 20
0.0
 30
0.0
  0
VERTEX
  5
122C
100
AcDbEntity
  8
ALPHA
100
AcDbVertex
100
AcDb2dVertex
 10
-1.027056
 20
119.068391
 30
0.0
  0
VERTEX
  5
122D
100
AcDbEntity
  8
ALPHA
100
AcDbVertex
100
AcDb2dVertex
 10
2.647138
 20
119.068391
 30
0.0
  0
SEQEND
  5
122E
100
AcDbEntity
  8
ALPHA
  0
POLYLINE
  5
122F
100
AcDbEntity
  8
ALPHA
100
AcDb2dPolyline
 66
     1
 10
0.0
 20
0.0
 30
0.0
  0
VERTEX
  5
1230
100
AcDbEntity
  8
ALPHA
100
AcDbVertex
100
AcDb2dVertex
 10
22.849351
 20
104.475311
 30
0.0
  0
VERTEX
  5
1231
100
AcDbEntity
  8
ALPHA
100
AcDbVertex
100
AcDb2dVertex
 10
35.889726
 20
104.475311
 30
0.0
  0
SEQEND
  5
1232
100
AcDbEntity
  8
ALPHA
  0
POLYLINE
  5
1233
100
AcDbEntity
  8
ALPHA
100
AcDb2dPolyline
 66
     1
 10
0.0
 20
0.0
 30
0.0
  0
VERTEX
  5
1234
100
AcDbEntity
  8
ALPHA
100
AcDbVertex
100
AcDb2dVertex
 10
36.073694
 20
119.986165
 30
0.0
  0
VERTEX
  5
1235
100
AcDbEntity
  8
ALPHA
100
AcDbVertex
100
AcDb2dVertex
 10
22.482448
 20
119.986165
 30
0.0
  0
SEQEND
  5
1236
100
AcDbEntity
  8
ALPHA
  0
POLYLINE
  5
1237
100
AcDbEntity
  8
ALPHA
100
AcDb2dPolyline
 66
     1
 10
0.0
 20
0.0
 30
0.0
  0
VERTEX
  5
1238
100
AcDbEntity
  8
ALPHA
100
AcDbVertex
100
AcDb2dVertex
 10
22.482448
 20
101.18559
 30
0.0
  0
VERTEX
  5
1239
100
AcDbEntity
  8
ALPHA
100
AcDbVertex
100
AcDb2dVertex
 10
27.809599
 20
101.18559
 30
0.0
  0
SEQEND
  5
123A
100
AcDbEntity
  8
ALPHA
  0
POLYLINE
  5
123B
100
AcDbEntity
  8
ALPHA
100
AcDb2dPolyline
 66
     1
 10
0.0
 20
0.0
 30
0.0
  0
VERTEX
  5
123C
100
AcDbEntity
  8
ALPHA
100
AcDbVertex
100
AcDb2dVertex
 10
22.482448
 20
119.986165
 30
0.0
  0
VERTEX
  5
123D
100
AcDbEntity
  8
ALPHA
100
AcDbVertex
100
AcDb2dVertex
 10
22.482448
 20
101.18559
 30
0.0
  0
SEQEND
  5
123E
100
AcDbEntity
  8
ALPHA
  0
POLYLINE
  5
123F
100
AcDbEntity
  8
ALPHA
100
AcDb2dPolyline
 66
     1
 10
0.0
 20
0.0
 30
0.0
  0
VERTEX
  5
1240
100
AcDbEntity
  8
ALPHA
100
AcDbVertex
100
AcDb2dVertex
 10
17.853618
 20
111.404777
 30
0.0
  0
VERTEX
  5
1241
100
AcDbEntity
  8
ALPHA
100
AcDbVertex
100
AcDb2dVertex
 10
14.735979
 20
114.584944
 30
0.0
  0
SEQEND
  5
1242
100
AcDbEntity
  8
ALPHA
  0
POLYLINE
  5
1243
100
AcDbEntity
  8
ALPHA
100
AcDb2dPolyline
 66
     1
 10
0.0
 20
0.0
 30
0.0
  0
VERTEX
  5
1244
100
AcDbEntity
  8
ALPHA
100
AcDbVertex
100
AcDb2dVertex
 10
11.926159
 20
114.731705
 30
0.0
  0
VERTEX
  5
1245
100
AcDbEntity
  8
ALPHA
100
AcDbVertex
100
AcDb2dVertex
 10
9.844804
 20
112.651901
 30
0.0
  0
SEQEND
  5
1246
100
AcDbEntity
  8
ALPHA
  0
POLYLINE
  5
1247
100
AcDbEntity
  8
ALPHA
100
AcDb2dPolyline
 66
     1
 10
0.0
 20
0.0
 30
0.0
  0
VERTEX
  5
1248
100
AcDbEntity
  8
ALPHA
100
AcDbVertex
100
AcDb2dVertex
 10
11.246097
 20
111.185324
 30
0.0
  0
VERTEX
  5
1249
100
AcDbEntity
  8
ALPHA
100
AcDbVertex
100
AcDb2dVertex
 10
13.267334
 20
113.206217
 30
0.0
  0
SEQEND
  5
124A
100
AcDbEntity
  8
ALPHA
  0
POLYLINE
  5
124B
100
AcDbEntity
  8
ALPHA
100
AcDb2dPolyline
 66
     1
 10
0.0
 20
0.0
 30
0.0
  0
VERTEX
  5
124C
100
AcDbEntity
  8
ALPHA
100
AcDbVertex
100
AcDb2dVertex
 10
9.844804
 20
112.651901
 30
0.0
  0
VERTEX
  5
124D
100
AcDbEntity
  8
ALPHA
100
AcDbVertex
100
AcDb2dVertex
 10
11.246097
 20
111.185324
 30
0.0
  0
SEQEND
  5
124E
100
AcDbEntity
  8
ALPHA
  0
POLYLINE
  5
124F
100
AcDbEntity
  8
ALPHA
100
AcDb2dPolyline
 66
     1
 10
0.0
 20
0.0
 30
0.0
  0
VERTEX
  5
1250
100
AcDbEntity
  8
ALPHA
100
AcDbVertex
100
AcDb2dVertex
 10
13.348811
 20
113.225854
 30
0.0
  0
VERTEX
  5
1251
100
AcDbEntity
  8
ALPHA
100
AcDbVertex
100
AcDb2dVertex
 10
16.542587
 20
110.122857
 30
0.0
  0
SEQEND
  5
1252
100
AcDbEntity
  8
ALPHA
  0
POLYLINE
  5
1253
100
AcDbEntity
  8
ALPHA
100
AcDb2dPolyline
 66
     1
 10
0.0
 20
0.0
 30
0.0
  0
VERTEX
  5
1254
100
AcDbEntity
  8
ALPHA
100
AcDbVertex
100
AcDb2dVertex
 10
13.267334
 20
113.206217
 30
0.0
  0
VERTEX
  5
1255
100
AcDbEntity
  8
ALPHA
100
AcDbVertex
100
AcDb2dVertex
 10
13.348811
 20
113.225854
 30
0.0
  0
SEQEND
  5
1256
100
AcDbEntity
  8
ALPHA
  0
POLYLINE
  5
1257
100
AcDbEntity
  8
ALPHA
100
AcDb2dPolyline
 66
     1
 10
0.0
 20
0.0
 30
0.0
  0
VERTEX
  5
1258
100
AcDbEntity
  8
ALPHA
100
AcDbVertex
100
AcDb2dVertex
 10
13.440795
 20
116.155908
 30
0.0
  0
VERTEX
  5
1259
100
AcDbEntity
  8
ALPHA
100
AcDbVertex
100
AcDb2dVertex
 10
10.144011
 20
119.387063
 30
0.0
  0
SEQEND
  5
125A
100
AcDbEntity
  8
ALPHA
  0
POLYLINE
  5
125B
100
AcDbEntity
  8
ALPHA
100
AcDb2dPolyline
 66
     1
 10
0.0
 20
0.0
 30
0.0
  0
VERTEX
  5
125C
100
AcDbEntity
  8
ALPHA
100
AcDbVertex
100
AcDb2dVertex
 10
8.742546
 20
117.923586
 30
0.0
  0
VERTEX
  5
125D
100
AcDbEntity
  8
ALPHA
100
AcDbVertex
100
AcDb2dVertex
 10
11.878272
 20
114.693809
 30
0.0
  0
SEQEND
  5
125E
100
AcDbEntity
  8
ALPHA
  0
POLYLINE
  5
125F
100
AcDbEntity
  8
ALPHA
100
AcDb2dPolyline
 66
     1
 10
0.0
 20
0.0
 30
0.0
  0
VERTEX
  5
1260
100
AcDbEntity
  8
ALPHA
100
AcDbVertex
100
AcDb2dVertex
 10
11.878272
 20
114.693809
 30
0.0
  0
VERTEX
  5
1261
100
AcDbEntity
  8
ALPHA
100
AcDbVertex
100
AcDb2dVertex
 10
11.926159
 20
114.731705
 30
0.0
  0
SEQEND
  5
1262
100
AcDbEntity
  8
ALPHA
  0
POLYLINE
  5
1263
100
AcDbEntity
  8
ALPHA
100
AcDb2dPolyline
 66
     1
 10
0.0
 20
0.0
 30
0.0
  0
VERTEX
  5
1264
100
AcDbEntity
  8
ALPHA
100
AcDbVertex
100
AcDb2dVertex
 10
17.026623
 20
116.875244
 30
0.0
  0
VERTEX
  5
1265
100
AcDbEntity
  8
ALPHA
100
AcDbVertex
100
AcDb2dVertex
 10
15.717314
 20
118.340098
 30
0.0
  0
SEQEND
  5
1266
100
AcDbEntity
  8
ALPHA
  0
POLYLINE
  5
1267
100
AcDbEntity
  8
ALPHA
100
AcDb2dPolyline
 66
     1
 10
0.0
 20
0.0
 30
0.0
  0
VERTEX
  5
1268
100
AcDbEntity
  8
ALPHA
100
AcDbVertex
100
AcDb2dVertex
 10
15.717314
 20
118.340098
 30
0.0
  0
VERTEX
  5
1269
100
AcDbEntity
  8
ALPHA
100
AcDbVertex
100
AcDb2dVertex
 10
13.440795
 20
116.155908
 30
0.0
  0
SEQEND
  5
126A
100
AcDbEntity
  8
ALPHA
  0
POLYLINE
  5
126B
100
AcDbEntity
  8
ALPHA
100
AcDb2dPolyline
 66
     1
 10
0.0
 20
0.0
 30
0.0
  0
VERTEX
  5
126C
100
AcDbEntity
  8
ALPHA
100
AcDbVertex
100
AcDb2dVertex
 10
14.735979
 20
114.584944
 30
0.0
  0
VERTEX
  5
126D
100
AcDbEntity
  8
ALPHA
100
AcDbVertex
100
AcDb2dVertex
 10
17.026623
 20
116.875244
 30
0.0
  0
SEQEND
  5
126E
100
AcDbEntity
  8
ALPHA
  0
POLYLINE
  5
126F
100
AcDbEntity
  8
ALPHA
100
AcDb2dPolyline
 66
     1
 10
0.0
 20
0.0
 30
0.0
  0
VERTEX
  5
1270
100
AcDbEntity
  8
ALPHA
100
AcDbVertex
100
AcDb2dVertex
 10
36.073694
 20
101.18559
 30
0.0
  0
VERTEX
  5
1271
100
AcDbEntity
  8
ALPHA
100
AcDbVertex
100
AcDb2dVertex
 10
36.073694
 20
119.986165
 30
0.0
  0
SEQEND
  5
1272
100
AcDbEntity
  8
ALPHA
  0
POLYLINE
  5
1273
100
AcDbEntity
  8
ALPHA
100
AcDb2dPolyline
 66
     1
 10
0.0
 20
0.0
 30
0.0
  0
VERTEX
  5
1274
100
AcDbEntity
  8
ALPHA
100
AcDbVertex
100
AcDb2dVertex
 10
31.666211
 20
101.18559
 30
0.0
  0
VERTEX
  5
1275
100
AcDbEntity
  8
ALPHA
100
AcDbVertex
100
AcDb2dVertex
 10
36.073694
 20
101.18559
 30
0.0
  0
SEQEND
  5
1276
100
AcDbEntity
  8
ALPHA
  0
POLYLINE
  5
1277
100
AcDbEntity
  8
ALPHA
100
AcDb2dPolyline
 66
     1
 10
0.0
 20
0.0
 30
0.0
  0
VERTEX
  5
1278
100
AcDbEntity
  8
ALPHA
100
AcDbVertex
100
AcDb2dVertex
 10
27.809599
 20
101.18559
 30
0.0
  0
VERTEX
  5
1279
100
AcDbEntity
  8
ALPHA
100
AcDbVertex
100
AcDb2dVertex
 10
27.809599
 20
97.696397
 30
0.0
  0
SEQEND
  5
127A
100
AcDbEntity
  8
ALPHA
  0
POLYLINE
  5
127B
100
AcDbEntity
  8
ALPHA
100
AcDb2dPolyline
 66
     1
 10
0.0
 20
0.0
 30
0.0
  0
VERTEX
  5
127C
100
AcDbEntity
  8
ALPHA
100
AcDbVertex
100
AcDb2dVertex
 10
31.666211
 20
97.696397
 30
0.0
  0
VERTEX
  5
127D
100
AcDbEntity
  8
ALPHA
100
AcDbVertex
100
AcDb2dVertex
 10
31.666211
 20
101.18559
 30
0.0
  0
SEQEND
  5
127E
100
AcDbEntity
  8
ALPHA
  0
POLYLINE
  5
127F
100
AcDbEntity
  8
ALPHA
100
AcDb2dPolyline
 66
     1
 10
0.0
 20
0.0
 30
0.0
  0
VERTEX
  5
1280
100
AcDbEntity
  8
ALPHA
100
AcDbVertex
100
AcDb2dVertex
 10
43.150954
 20
114.731705
 30
0.0
  0
VERTEX
  5
1281
100
AcDbEntity
  8
ALPHA
100
AcDbVertex
100
AcDb2dVertex
 10
41.069427
 20
112.651901
 30
0.0
  0
SEQEND
  5
1282
100
AcDbEntity
  8
ALPHA
  0
POLYLINE
  5
1283
100
AcDbEntity
  8
ALPHA
100
AcDb2dPolyline
 66
     1
 10
0.0
 20
0.0
 30
0.0
  0
VERTEX
  5
1284
100
AcDbEntity
  8
ALPHA
100
AcDbVertex
100
AcDb2dVertex
 10
41.069427
 20
112.651901
 30
0.0
  0
VERTEX
  5
1285
100
AcDbEntity
  8
ALPHA
100
AcDbVertex
100
AcDb2dVertex
 10
42.470548
 20
111.185324
 30
0.0
  0
SEQEND
  5
1286
100
AcDbEntity
  8
ALPHA
  0
POLYLINE
  5
1287
100
AcDbEntity
  8
ALPHA
100
AcDb2dPolyline
 66
     1
 10
0.0
 20
0.0
 30
0.0
  0
VERTEX
  5
1288
100
AcDbEntity
  8
ALPHA
100
AcDbVertex
100
AcDb2dVertex
 10
42.470548
 20
111.185324
 30
0.0
  0
VERTEX
  5
1289
100
AcDbEntity
  8
ALPHA
100
AcDbVertex
100
AcDb2dVertex
 10
44.491957
 20
113.206217
 30
0.0
  0
SEQEND
  5
128A
100
AcDbEntity
  8
ALPHA
  0
POLYLINE
  5
128B
100
AcDbEntity
  8
ALPHA
100
AcDb2dPolyline
 66
     1
 10
0.0
 20
0.0
 30
0.0
  0
VERTEX
  5
128C
100
AcDbEntity
  8
ALPHA
100
AcDbVertex
100
AcDb2dVertex
 10
44.491957
 20
113.206217
 30
0.0
  0
VERTEX
  5
128D
100
AcDbEntity
  8
ALPHA
100
AcDbVertex
100
AcDb2dVertex
 10
44.573262
 20
113.225854
 30
0.0
  0
SEQEND
  5
128E
100
AcDbEntity
  8
ALPHA
  0
POLYLINE
  5
128F
100
AcDbEntity
  8
ALPHA
100
AcDb2dPolyline
 66
     1
 10
0.0
 20
0.0
 30
0.0
  0
VERTEX
  5
1290
100
AcDbEntity
  8
ALPHA
100
AcDbVertex
100
AcDb2dVertex
 10
39.967686
 20
117.923586
 30
0.0
  0
VERTEX
  5
1291
100
AcDbEntity
  8
ALPHA
100
AcDbVertex
100
AcDb2dVertex
 10
43.104962
 20
114.693809
 30
0.0
  0
SEQEND
  5
1292
100
AcDbEntity
  8
ALPHA
  0
POLYLINE
  5
1293
100
AcDbEntity
  8
ALPHA
100
AcDb2dPolyline
 66
     1
 10
0.0
 20
0.0
 30
0.0
  0
VERTEX
  5
1294
100
AcDbEntity
  8
ALPHA
100
AcDbVertex
100
AcDb2dVertex
 10
44.66559
 20
116.155908
 30
0.0
  0
VERTEX
  5
1295
100
AcDbEntity
  8
ALPHA
100
AcDbVertex
100
AcDb2dVertex
 10
41.368978
 20
119.387063
 30
0.0
  0
SEQEND
  5
1296
100
AcDbEntity
  8
ALPHA
  0
POLYLINE
  5
1297
100
AcDbEntity
  8
ALPHA
100
AcDb2dPolyline
 66
     1
 10
0.0
 20
0.0
 30
0.0
  0
VERTEX
  5
1298
100
AcDbEntity
  8
ALPHA
100
AcDbVertex
100
AcDb2dVertex
 10
43.104962
 20
114.693809
 30
0.0
  0
VERTEX
  5
1299
100
AcDbEntity
  8
ALPHA
100
AcDbVertex
100
AcDb2dVertex
 10
43.150954
 20
114.731705
 30
0.0
  0
SEQEND
  5
129A
100
AcDbEntity
  8
ALPHA
  0
POLYLINE
  5
129B
100
AcDbEntity
  8
ALPHA
100
AcDb2dPolyline
 66
     1
 10
0.0
 20
0.0
 30
0.0
  0
VERTEX
  5
129C
100
AcDbEntity
  8
ALPHA
100
AcDbVertex
100
AcDb2dVertex
 10
27.625287
 20
125.465245
 30
0.0
  0
VERTEX
  5
129D
100
AcDbEntity
  8
ALPHA
100
AcDbVertex
100
AcDb2dVertex
 10
27.625287
 20
123.016815
 30
0.0
  0
SEQEND
  5
129E
100
AcDbEntity
  8
ALPHA
  0
POLYLINE
  5
129F
100
AcDbEntity
  8
ALPHA
100
AcDb2dPolyline
 66
     1
 10
0.0
 20
0.0
 30
0.0
  0
VERTEX
  5
12A0
100
AcDbEntity
  8
ALPHA
100
AcDbVertex
100
AcDb2dVertex
 10
31.666211
 20
123.048855
 30
0.0
  0
VERTEX
  5
12A1
100
AcDbEntity
  8
ALPHA
100
AcDbVertex
100
AcDb2dVertex
 10
31.666211
 20
125.465245
 30
0.0
  0
SEQEND
  5
12A2
100
AcDbEntity
  8
ALPHA
  0
POLYLINE
  5
12A3
100
AcDbEntity
  8
AXE
100
AcDb2dPolyline
 66
     1
 10
0.0
 20
0.0
 30
0.0
  0
VERTEX
  5
12A4
100
AcDbEntity
  8
AXE
100
AcDbVertex
100
AcDb2dVertex
 10
77.973118
 20
89.641419
 30
0.0
  0
VERTEX
  5
12A5
100
AcDbEntity
  8
AXE
100
AcDbVertex
100
AcDb2dVertex
 10
77.973118
 20
104.090494
 30
0.0
  0
SEQEND
  5
12A6
100
AcDbEntity
  8
AXE
  0
POLYLINE
  5
12A7
100
AcDbEntity
  8
ALPHA
100
AcDb2dPolyline
 66
     1
 10
0.0
 20
0.0
 30
0.0
  0
VERTEX
  5
12A8
100
AcDbEntity
  8
ALPHA
100
AcDbVertex
100
AcDb2dVertex
 10
82.097931
 20
96.965348
 30
0.0
 42
1.0
  0
VERTEX
  5
12A9
100
AcDbEntity
  8
ALPHA
100
AcDbVertex
100
AcDb2dVertex
 10
73.848305
 20
96.965348
 30
0.0
 42
1.0
  0
VERTEX
  5
12AA
100
AcDbEntity
  8
ALPHA
100
AcDbVertex
100
AcDb2dVertex
 10
82.097931
 20
96.965348
 30
0.0
  0
SEQEND
  5
12AB
100
AcDbEntity
  8
ALPHA
  0
POLYLINE
  5
12AC
100
AcDbEntity
  8
ALPHA
100
AcDb2dPolyline
 66
     1
 10
0.0
 20
0.0
 30
0.0
  0
VERTEX
  5
12AD
100
AcDbEntity
  8
ALPHA
100
AcDbVertex
100
AcDb2dVertex
 10
47.787536
 20
57.57826
 30
0.0
  0
VERTEX
  5
12AE
100
AcDbEntity
  8
ALPHA
100
AcDbVertex
100
AcDb2dVertex
 10
47.929412
 20
57.585423
 30
0.0
  0
VERTEX
  5
12AF
100
AcDbEntity
  8
ALPHA
100
AcDbVertex
100
AcDb2dVertex
 10
48.067192
 20
57.606449
 30
0.0
  0
VERTEX
  5
12B0
100
AcDbEntity
  8
ALPHA
100
AcDbVertex
100
AcDb2dVertex
 10
48.200177
 20
57.640643
 30
0.0
  0
VERTEX
  5
12B1
100
AcDbEntity
  8
ALPHA
100
AcDbVertex
100
AcDb2dVertex
 10
48.32767
 20
57.687308
 30
0.0
  0
VERTEX
  5
12B2
100
AcDbEntity
  8
ALPHA
100
AcDbVertex
100
AcDb2dVertex
 10
48.448973
 20
57.74575
 30
0.0
  0
VERTEX
  5
12B3
100
AcDbEntity
  8
ALPHA
100
AcDbVertex
100
AcDb2dVertex
 10
48.563388
 20
57.815273
 30
0.0
  0
VERTEX
  5
12B4
100
AcDbEntity
  8
ALPHA
100
AcDbVertex
100
AcDb2dVertex
 10
48.670217
 20
57.895182
 30
0.0
  0
VERTEX
  5
12B5
100
AcDbEntity
  8
ALPHA
100
AcDbVertex
100
AcDb2dVertex
 10
48.768763
 20
57.984781
 30
0.0
  0
VERTEX
  5
12B6
100
AcDbEntity
  8
ALPHA
100
AcDbVertex
100
AcDb2dVertex
 10
48.858329
 20
58.083376
 30
0.0
  0
VERTEX
  5
12B7
100
AcDbEntity
  8
ALPHA
100
AcDbVertex
100
AcDb2dVertex
 10
48.938216
 20
58.190269
 30
0.0
  0
VERTEX
  5
12B8
100
AcDbEntity
  8
ALPHA
100
AcDbVertex
100
AcDb2dVertex
 10
49.007727
 20
58.304767
 30
0.0
  0
VERTEX
  5
12B9
100
AcDbEntity
  8
ALPHA
100
AcDbVertex
100
AcDb2dVertex
 10
49.066164
 20
58.426174
 30
0.0
  0
VERTEX
  5
12BA
100
AcDbEntity
  8
ALPHA
100
AcDbVertex
100
AcDb2dVertex
 10
49.112829
 20
58.553793
 30
0.0
  0
VERTEX
  5
12BB
100
AcDbEntity
  8
ALPHA
100
AcDbVertex
100
AcDb2dVertex
 10
49.147026
 20
58.686931
 30
0.0
  0
VERTEX
  5
12BC
100
AcDbEntity
  8
ALPHA
100
AcDbVertex
100
AcDb2dVertex
 10
49.168055
 20
58.824891
 30
0.0
  0
VERTEX
  5
12BD
100
AcDbEntity
  8
ALPHA
100
AcDbVertex
100
AcDb2dVertex
 10
49.17522
 20
58.966978
 30
0.0
  0
SEQEND
  5
12BE
100
AcDbEntity
  8
ALPHA
  0
POLYLINE
  5
12BF
100
AcDbEntity
  8
ALPHA
100
AcDb2dPolyline
 66
     1
 10
0.0
 20
0.0
 30
0.0
  0
VERTEX
  5
12C0
100
AcDbEntity
  8
ALPHA
100
AcDbVertex
100
AcDb2dVertex
 10
49.17522
 20
58.966978
 30
0.0
  0
VERTEX
  5
12C1
100
AcDbEntity
  8
ALPHA
100
AcDbVertex
100
AcDb2dVertex
 10
49.17522
 20
66.108661
 30
0.0
  0
SEQEND
  5
12C2
100
AcDbEntity
  8
ALPHA
  0
POLYLINE
  5
12C3
100
AcDbEntity
  8
ALPHA
100
AcDb2dPolyline
 66
     1
 10
0.0
 20
0.0
 30
0.0
  0
VERTEX
  5
12C4
100
AcDbEntity
  8
ALPHA
100
AcDbVertex
100
AcDb2dVertex
 10
49.17522
 20
66.108661
 30
0.0
  0
VERTEX
  5
12C5
100
AcDbEntity
  8
ALPHA
100
AcDbVertex
100
AcDb2dVertex
 10
49.168055
 20
66.250566
 30
0.0
  0
VERTEX
  5
12C6
100
AcDbEntity
  8
ALPHA
100
AcDbVertex
100
AcDb2dVertex
 10
49.147026
 20
66.388367
 30
0.0
  0
VERTEX
  5
12C7
100
AcDbEntity
  8
ALPHA
100
AcDbVertex
100
AcDb2dVertex
 10
49.112829
 20
66.521367
 30
0.0
  0
VERTEX
  5
12C8
100
AcDbEntity
  8
ALPHA
100
AcDbVertex
100
AcDb2dVertex
 10
49.066164
 20
66.648868
 30
0.0
  0
VERTEX
  5
12C9
100
AcDbEntity
  8
ALPHA
100
AcDbVertex
100
AcDb2dVertex
 10
49.007727
 20
66.770175
 30
0.0
  0
VERTEX
  5
12CA
100
AcDbEntity
  8
ALPHA
100
AcDbVertex
100
AcDb2dVertex
 10
48.938216
 20
66.884589
 30
0.0
  0
VERTEX
  5
12CB
100
AcDbEntity
  8
ALPHA
100
AcDbVertex
100
AcDb2dVertex
 10
48.858329
 20
66.991414
 30
0.0
  0
VERTEX
  5
12CC
100
AcDbEntity
  8
ALPHA
100
AcDbVertex
100
AcDb2dVertex
 10
48.768763
 20
67.089953
 30
0.0
  0
VERTEX
  5
12CD
100
AcDbEntity
  8
ALPHA
100
AcDbVertex
100
AcDb2dVertex
 10
48.670217
 20
67.17951
 30
0.0
  0
VERTEX
  5
12CE
100
AcDbEntity
  8
ALPHA
100
AcDbVertex
100
AcDb2dVertex
 10
48.563388
 20
67.259387
 30
0.0
  0
VERTEX
  5
12CF
100
AcDbEntity
  8
ALPHA
100
AcDbVertex
100
AcDb2dVertex
 10
48.448973
 20
67.328887
 30
0.0
  0
VERTEX
  5
12D0
100
AcDbEntity
  8
ALPHA
100
AcDbVertex
100
AcDb2dVertex
 10
48.32767
 20
67.387314
 30
0.0
  0
VERTEX
  5
12D1
100
AcDbEntity
  8
ALPHA
100
AcDbVertex
100
AcDb2dVertex
 10
48.200177
 20
67.43397
 30
0.0
  0
VERTEX
  5
12D2
100
AcDbEntity
  8
ALPHA
100
AcDbVertex
100
AcDb2dVertex
 10
48.067192
 20
67.468158
 30
0.0
  0
VERTEX
  5
12D3
100
AcDbEntity
  8
ALPHA
100
AcDbVertex
100
AcDb2dVertex
 10
47.929412
 20
67.489183
 30
0.0
  0
VERTEX
  5
12D4
100
AcDbEntity
  8
ALPHA
100
AcDbVertex
100
AcDb2dVertex
 10
47.787536
 20
67.496346
 30
0.0
  0
SEQEND
  5
12D5
100
AcDbEntity
  8
ALPHA
  0
POLYLINE
  5
12D6
100
AcDbEntity
  8
AXE
100
AcDb2dPolyline
 66
     1
 10
0.0
 20
0.0
 30
0.0
  0
VERTEX
  5
12D7
100
AcDbEntity
  8
AXE
100
AcDbVertex
100
AcDb2dVertex
 10
85.363537
 20
96.965348
 30
0.0
  0
VERTEX
  5
12D8
100
AcDbEntity
  8
AXE
100
AcDbVertex
100
AcDb2dVertex
 10
70.914117
 20
96.965348
 30
0.0
  0
SEQEND
  5
12D9
100
AcDbEntity
  8
AXE
  0
POLYLINE
  5
12DA
100
AcDbEntity
  8
ALPHA
100
AcDb2dPolyline
 66
     1
 10
0.0
 20
0.0
 30
0.0
  0
VERTEX
  5
12DB
100
AcDbEntity
  8
ALPHA
100
AcDbVertex
100
AcDb2dVertex
 10
85.298941
 20
125.465245
 30
0.0
  0
VERTEX
  5
12DC
100
AcDbEntity
  8
ALPHA
100
AcDbVertex
100
AcDb2dVertex
 10
61.422707
 20
125.465245
 30
0.0
  0
SEQEND
  5
12DD
100
AcDbEntity
  8
ALPHA
  0
POLYLINE
  5
12DE
100
AcDbEntity
  8
ALPHA
100
AcDb2dPolyline
 66
     1
 10
0.0
 20
0.0
 30
0.0
  0
VERTEX
  5
12DF
100
AcDbEntity
  8
ALPHA
100
AcDbVertex
100
AcDb2dVertex
 10
52.789814
 20
104.475311
 30
0.0
  0
VERTEX
  5
12E0
100
AcDbEntity
  8
ALPHA
100
AcDbVertex
100
AcDb2dVertex
 10
66.563306
 20
104.475311
 30
0.0
  0
SEQEND
  5
12E1
100
AcDbEntity
  8
ALPHA
  0
POLYLINE
  5
12E2
100
AcDbEntity
  8
ALPHA
100
AcDb2dPolyline
 66
     1
 10
0.0
 20
0.0
 30
0.0
  0
VERTEX
  5
12E3
100
AcDbEntity
  8
ALPHA
100
AcDbVertex
100
AcDb2dVertex
 10
62.339963
 20
101.18559
 30
0.0
  0
VERTEX
  5
12E4
100
AcDbEntity
  8
ALPHA
100
AcDbVertex
100
AcDb2dVertex
 10
66.931759
 20
101.18559
 30
0.0
  0
SEQEND
  5
12E5
100
AcDbEntity
  8
ALPHA
  0
POLYLINE
  5
12E6
100
AcDbEntity
  8
ALPHA
100
AcDb2dPolyline
 66
     1
 10
0.0
 20
0.0
 30
0.0
  0
VERTEX
  5
12E7
100
AcDbEntity
  8
ALPHA
100
AcDbVertex
100
AcDb2dVertex
 10
66.931759
 20
119.986165
 30
0.0
  0
VERTEX
  5
12E8
100
AcDbEntity
  8
ALPHA
100
AcDbVertex
100
AcDb2dVertex
 10
52.603779
 20
119.986165
 30
0.0
  0
SEQEND
  5
12E9
100
AcDbEntity
  8
ALPHA
  0
POLYLINE
  5
12EA
100
AcDbEntity
  8
ALPHA
100
AcDb2dPolyline
 66
     1
 10
0.0
 20
0.0
 30
0.0
  0
VERTEX
  5
12EB
100
AcDbEntity
  8
ALPHA
100
AcDbVertex
100
AcDb2dVertex
 10
52.603779
 20
119.986165
 30
0.0
  0
VERTEX
  5
12EC
100
AcDbEntity
  8
ALPHA
100
AcDbVertex
100
AcDb2dVertex
 10
52.603779
 20
101.18559
 30
0.0
  0
SEQEND
  5
12ED
100
AcDbEntity
  8
ALPHA
  0
POLYLINE
  5
12EE
100
AcDbEntity
  8
ALPHA
100
AcDb2dPolyline
 66
     1
 10
0.0
 20
0.0
 30
0.0
  0
VERTEX
  5
12EF
100
AcDbEntity
  8
ALPHA
100
AcDbVertex
100
AcDb2dVertex
 10
52.603779
 20
101.18559
 30
0.0
  0
VERTEX
  5
12F0
100
AcDbEntity
  8
ALPHA
100
AcDbVertex
100
AcDb2dVertex
 10
57.748168
 20
101.18559
 30
0.0
  0
SEQEND
  5
12F1
100
AcDbEntity
  8
ALPHA
  0
POLYLINE
  5
12F2
100
AcDbEntity
  8
ALPHA
100
AcDb2dPolyline
 66
     1
 10
0.0
 20
0.0
 30
0.0
  0
VERTEX
  5
12F3
100
AcDbEntity
  8
ALPHA
100
AcDbVertex
100
AcDb2dVertex
 10
57.748168
 20
101.18559
 30
0.0
  0
VERTEX
  5
12F4
100
AcDbEntity
  8
ALPHA
100
AcDbVertex
100
AcDb2dVertex
 10
57.748168
 20
97.605791
 30
0.0
  0
SEQEND
  5
12F5
100
AcDbEntity
  8
ALPHA
  0
POLYLINE
  5
12F6
100
AcDbEntity
  8
ALPHA
100
AcDb2dPolyline
 66
     1
 10
0.0
 20
0.0
 30
0.0
  0
VERTEX
  5
12F7
100
AcDbEntity
  8
ALPHA
100
AcDbVertex
100
AcDb2dVertex
 10
62.339963
 20
97.605791
 30
0.0
  0
VERTEX
  5
12F8
100
AcDbEntity
  8
ALPHA
100
AcDbVertex
100
AcDb2dVertex
 10
62.339963
 20
101.18559
 30
0.0
  0
SEQEND
  5
12F9
100
AcDbEntity
  8
ALPHA
  0
POLYLINE
  5
12FA
100
AcDbEntity
  8
ALPHA
100
AcDb2dPolyline
 66
     1
 10
0.0
 20
0.0
 30
0.0
  0
VERTEX
  5
12FB
100
AcDbEntity
  8
ALPHA
100
AcDbVertex
100
AcDb2dVertex
 10
49.078413
 20
111.404777
 30
0.0
  0
VERTEX
  5
12FC
100
AcDbEntity
  8
ALPHA
100
AcDbVertex
100
AcDb2dVertex
 10
45.960601
 20
114.584944
 30
0.0
  0
SEQEND
  5
12FD
100
AcDbEntity
  8
ALPHA
  0
POLYLINE
  5
12FE
100
AcDbEntity
  8
ALPHA
100
AcDb2dPolyline
 66
     1
 10
0.0
 20
0.0
 30
0.0
  0
VERTEX
  5
12FF
100
AcDbEntity
  8
ALPHA
100
AcDbVertex
100
AcDb2dVertex
 10
48.251073
 20
116.875244
 30
0.0
  0
VERTEX
  5
1300
100
AcDbEntity
  8
ALPHA
100
AcDbVertex
100
AcDb2dVertex
 10
46.941937
 20
118.340098
 30
0.0
  0
SEQEND
  5
1301
100
AcDbEntity
  8
ALPHA
  0
POLYLINE
  5
1302
100
AcDbEntity
  8
ALPHA
100
AcDb2dPolyline
 66
     1
 10
0.0
 20
0.0
 30
0.0
  0
VERTEX
  5
1303
100
AcDbEntity
  8
ALPHA
100
AcDbVertex
100
AcDb2dVertex
 10
45.960601
 20
114.584944
 30
0.0
  0
VERTEX
  5
1304
100
AcDbEntity
  8
ALPHA
100
AcDbVertex
100
AcDb2dVertex
 10
48.251073
 20
116.875244
 30
0.0
  0
SEQEND
  5
1305
100
AcDbEntity
  8
ALPHA
  0
POLYLINE
  5
1306
100
AcDbEntity
  8
ALPHA
100
AcDb2dPolyline
 66
     1
 10
0.0
 20
0.0
 30
0.0
  0
VERTEX
  5
1307
100
AcDbEntity
  8
ALPHA
100
AcDbVertex
100
AcDb2dVertex
 10
66.931759
 20
101.18559
 30
0.0
  0
VERTEX
  5
1308
100
AcDbEntity
  8
ALPHA
100
AcDbVertex
100
AcDb2dVertex
 10
66.931759
 20
119.986165
 30
0.0
  0
SEQEND
  5
1309
100
AcDbEntity
  8
ALPHA
  0
POLYLINE
  5
130A
100
AcDbEntity
  8
ALPHA
100
AcDb2dPolyline
 66
     1
 10
0.0
 20
0.0
 30
0.0
  0
VERTEX
  5
130B
100
AcDbEntity
  8
ALPHA
100
AcDbVertex
100
AcDb2dVertex
 10
70.605781
 20
97.495893
 30
0.0
  0
VERTEX
  5
130C
100
AcDbEntity
  8
ALPHA
100
AcDbVertex
100
AcDb2dVertex
 10
70.237328
 20
97.495893
 30
0.0
  0
SEQEND
  5
130D
100
AcDbEntity
  8
ALPHA
  0
POLYLINE
  5
130E
100
AcDbEntity
  8
ALPHA
100
AcDb2dPolyline
 66
     1
 10
0.0
 20
0.0
 30
0.0
  0
VERTEX
  5
130F
100
AcDbEntity
  8
ALPHA
100
AcDbVertex
100
AcDb2dVertex
 10
81.31486
 20
114.769085
 30
0.0
 42
1.0
  0
VERTEX
  5
1310
100
AcDbEntity
  8
ALPHA
100
AcDbVertex
100
AcDb2dVertex
 10
69.867153
 20
114.769085
 30
0.0
 42
1.0
  0
VERTEX
  5
1311
100
AcDbEntity
  8
ALPHA
100
AcDbVertex
100
AcDb2dVertex
 10
81.31486
 20
114.769085
 30
0.0
  0
SEQEND
  5
1312
100
AcDbEntity
  8
ALPHA
  0
POLYLINE
  5
1313
100
AcDbEntity
  8
ALPHA
100
AcDb2dPolyline
 66
     1
 10
0.0
 20
0.0
 30
0.0
  0
VERTEX
  5
1314
100
AcDbEntity
  8
ALPHA
100
AcDbVertex
100
AcDb2dVertex
 10
71.007996
 20
117.923586
 30
0.0
  0
VERTEX
  5
1315
100
AcDbEntity
  8
ALPHA
100
AcDbVertex
100
AcDb2dVertex
 10
74.143722
 20
114.693809
 30
0.0
  0
SEQEND
  5
1316
100
AcDbEntity
  8
ALPHA
  0
POLYLINE
  5
1317
100
AcDbEntity
  8
ALPHA
100
AcDb2dPolyline
 66
     1
 10
0.0
 20
0.0
 30
0.0
  0
VERTEX
  5
1318
100
AcDbEntity
  8
ALPHA
100
AcDbVertex
100
AcDb2dVertex
 10
74.189714
 20
114.731705
 30
0.0
  0
VERTEX
  5
1319
100
AcDbEntity
  8
ALPHA
100
AcDbVertex
100
AcDb2dVertex
 10
72.109737
 20
112.651901
 30
0.0
  0
SEQEND
  5
131A
100
AcDbEntity
  8
ALPHA
  0
POLYLINE
  5
131B
100
AcDbEntity
  8
ALPHA
100
AcDb2dPolyline
 66
     1
 10
0.0
 20
0.0
 30
0.0
  0
VERTEX
  5
131C
100
AcDbEntity
  8
ALPHA
100
AcDbVertex
100
AcDb2dVertex
 10
72.109737
 20
112.651901
 30
0.0
  0
VERTEX
  5
131D
100
AcDbEntity
  8
ALPHA
100
AcDbVertex
100
AcDb2dVertex
 10
73.51103
 20
111.185324
 30
0.0
  0
SEQEND
  5
131E
100
AcDbEntity
  8
ALPHA
  0
POLYLINE
  5
131F
100
AcDbEntity
  8
ALPHA
100
AcDb2dPolyline
 66
     1
 10
0.0
 20
0.0
 30
0.0
  0
VERTEX
  5
1320
100
AcDbEntity
  8
ALPHA
100
AcDbVertex
100
AcDb2dVertex
 10
80.118895
 20
111.404777
 30
0.0
  0
VERTEX
  5
1321
100
AcDbEntity
  8
ALPHA
100
AcDbVertex
100
AcDb2dVertex
 10
77.001256
 20
114.584944
 30
0.0
  0
SEQEND
  5
1322
100
AcDbEntity
  8
ALPHA
  0
POLYLINE
  5
1323
100
AcDbEntity
  8
ALPHA
100
AcDb2dPolyline
 66
     1
 10
0.0
 20
0.0
 30
0.0
  0
VERTEX
  5
1324
100
AcDbEntity
  8
ALPHA
100
AcDbVertex
100
AcDb2dVertex
 10
75.613916
 20
113.225854
 30
0.0
  0
VERTEX
  5
1325
100
AcDbEntity
  8
ALPHA
100
AcDbVertex
100
AcDb2dVertex
 10
78.808037
 20
110.122857
 30
0.0
  0
SEQEND
  5
1326
100
AcDbEntity
  8
ALPHA
  0
POLYLINE
  5
1327
100
AcDbEntity
  8
ALPHA
100
AcDb2dPolyline
 66
     1
 10
0.0
 20
0.0
 30
0.0
  0
VERTEX
  5
1328
100
AcDbEntity
  8
ALPHA
100
AcDbVertex
100
AcDb2dVertex
 10
73.51103
 20
111.185324
 30
0.0
  0
VERTEX
  5
1329
100
AcDbEntity
  8
ALPHA
100
AcDbVertex
100
AcDb2dVertex
 10
75.532612
 20
113.206217
 30
0.0
  0
SEQEND
  5
132A
100
AcDbEntity
  8
ALPHA
  0
POLYLINE
  5
132B
100
AcDbEntity
  8
ALPHA
100
AcDb2dPolyline
 66
     1
 10
0.0
 20
0.0
 30
0.0
  0
VERTEX
  5
132C
100
AcDbEntity
  8
ALPHA
100
AcDbVertex
100
AcDb2dVertex
 10
75.532612
 20
113.206217
 30
0.0
  0
VERTEX
  5
132D
100
AcDbEntity
  8
ALPHA
100
AcDbVertex
100
AcDb2dVertex
 10
75.613916
 20
113.225854
 30
0.0
  0
SEQEND
  5
132E
100
AcDbEntity
  8
ALPHA
  0
POLYLINE
  5
132F
100
AcDbEntity
  8
ALPHA
100
AcDb2dPolyline
 66
     1
 10
0.0
 20
0.0
 30
0.0
  0
VERTEX
  5
1330
100
AcDbEntity
  8
ALPHA
100
AcDbVertex
100
AcDb2dVertex
 10
77.982592
 20
118.340098
 30
0.0
  0
VERTEX
  5
1331
100
AcDbEntity
  8
ALPHA
100
AcDbVertex
100
AcDb2dVertex
 10
75.7059
 20
116.155908
 30
0.0
  0
SEQEND
  5
1332
100
AcDbEntity
  8
ALPHA
  0
POLYLINE
  5
1333
100
AcDbEntity
  8
ALPHA
100
AcDb2dPolyline
 66
     1
 10
0.0
 20
0.0
 30
0.0
  0
VERTEX
  5
1334
100
AcDbEntity
  8
ALPHA
100
AcDbVertex
100
AcDb2dVertex
 10
75.7059
 20
116.155908
 30
0.0
  0
VERTEX
  5
1335
100
AcDbEntity
  8
ALPHA
100
AcDbVertex
100
AcDb2dVertex
 10
72.409289
 20
119.387063
 30
0.0
  0
SEQEND
  5
1336
100
AcDbEntity
  8
ALPHA
  0
POLYLINE
  5
1337
100
AcDbEntity
  8
ALPHA
100
AcDb2dPolyline
 66
     1
 10
0.0
 20
0.0
 30
0.0
  0
VERTEX
  5
1338
100
AcDbEntity
  8
ALPHA
100
AcDbVertex
100
AcDb2dVertex
 10
74.143722
 20
114.693809
 30
0.0
  0
VERTEX
  5
1339
100
AcDbEntity
  8
ALPHA
100
AcDbVertex
100
AcDb2dVertex
 10
74.189714
 20
114.731705
 30
0.0
  0
SEQEND
  5
133A
100
AcDbEntity
  8
ALPHA
  0
POLYLINE
  5
133B
100
AcDbEntity
  8
ALPHA
100
AcDb2dPolyline
 66
     1
 10
0.0
 20
0.0
 30
0.0
  0
VERTEX
  5
133C
100
AcDbEntity
  8
ALPHA
100
AcDbVertex
100
AcDb2dVertex
 10
79.291556
 20
116.875244
 30
0.0
  0
VERTEX
  5
133D
100
AcDbEntity
  8
ALPHA
100
AcDbVertex
100
AcDb2dVertex
 10
77.982592
 20
118.340098
 30
0.0
  0
SEQEND
  5
133E
100
AcDbEntity
  8
ALPHA
  0
POLYLINE
  5
133F
100
AcDbEntity
  8
ALPHA
100
AcDb2dPolyline
 66
     1
 10
0.0
 20
0.0
 30
0.0
  0
VERTEX
  5
1340
100
AcDbEntity
  8
ALPHA
100
AcDbVertex
100
AcDb2dVertex
 10
77.001256
 20
114.584944
 30
0.0
  0
VERTEX
  5
1341
100
AcDbEntity
  8
ALPHA
100
AcDbVertex
100
AcDb2dVertex
 10
79.291556
 20
116.875244
 30
0.0
  0
SEQEND
  5
1342
100
AcDbEntity
  8
ALPHA
  0
POLYLINE
  5
1343
100
AcDbEntity
  8
ALPHA
100
AcDb2dPolyline
 66
     1
 10
0.0
 20
0.0
 30
0.0
  0
VERTEX
  5
1344
100
AcDbEntity
  8
ALPHA
100
AcDbVertex
100
AcDb2dVertex
 10
57.013157
 20
125.465245
 30
0.0
  0
VERTEX
  5
1345
100
AcDbEntity
  8
ALPHA
100
AcDbVertex
100
AcDb2dVertex
 10
57.013157
 20
123.277265
 30
0.0
  0
SEQEND
  5
1346
100
AcDbEntity
  8
ALPHA
  0
POLYLINE
  5
1347
100
AcDbEntity
  8
ALPHA
100
AcDb2dPolyline
 66
     1
 10
0.0
 20
0.0
 30
0.0
  0
VERTEX
  5
1348
100
AcDbEntity
  8
ALPHA
100
AcDbVertex
100
AcDb2dVertex
 10
61.422707
 20
125.465245
 30
0.0
  0
VERTEX
  5
1349
100
AcDbEntity
  8
ALPHA
100
AcDbVertex
100
AcDb2dVertex
 10
61.422707
 20
123.001312
 30
0.0
  0
SEQEND
  5
134A
100
AcDbEntity
  8
ALPHA
  0
POLYLINE
  5
134B
100
AcDbEntity
  8
ALPHA
100
AcDb2dPolyline
 66
     1
 10
0.0
 20
0.0
 30
0.0
  0
VERTEX
  5
134C
100
AcDbEntity
  8
ALPHA
100
AcDbVertex
100
AcDb2dVertex
 10
85.298941
 20
107.044664
 30
0.0
  0
VERTEX
  5
134D
100
AcDbEntity
  8
ALPHA
100
AcDbVertex
100
AcDb2dVertex
 10
85.298941
 20
125.465245
 30
0.0
  0
SEQEND
  5
134E
100
AcDbEntity
  8
ALPHA
  0
POLYLINE
  5
134F
100
AcDbEntity
  8
ALPHA
100
AcDb2dPolyline
 66
     1
 10
0.0
 20
0.0
 30
0.0
  0
VERTEX
  5
1350
100
AcDbEntity
  8
ALPHA
100
AcDbVertex
100
AcDb2dVertex
 10
88.972791
 20
98.597634
 30
0.0
  0
VERTEX
  5
1351
100
AcDbEntity
  8
ALPHA
100
AcDbVertex
100
AcDb2dVertex
 10
88.972791
 20
119.068391
 30
0.0
  0
SEQEND
  5
1352
100
AcDbEntity
  8
ALPHA
  0
POLYLINE
  5
1353
100
AcDbEntity
  8
ALPHA
100
AcDb2dPolyline
 66
     1
 10
0.0
 20
0.0
 30
0.0
  0
VERTEX
  5
1354
100
AcDbEntity
  8
ALPHA
100
AcDbVertex
100
AcDb2dVertex
 10
88.972791
 20
119.068391
 30
0.0
  0
VERTEX
  5
1355
100
AcDbEntity
  8
ALPHA
100
AcDbVertex
100
AcDb2dVertex
 10
85.114628
 20
119.068391
 30
0.0
  0
SEQEND
  5
1356
100
AcDbEntity
  8
ALPHA
  0
DIMENSION
  5
1363
100
AcDbEntity
  8
COTATION1
100
AcDbDimension
  2
*D7
 10
77.973118
 20
-10.079748
 30
0.0
 11
43.972997
 21
-7.829748
 31
0.0
 70
    32
  3
SC_STAND
100
AcDbAlignedDimension
 13
9.972876
 23
24.840293
 33
0.0
 14
77.973118
 24
21.64178
 34
0.0
100
AcDbRotatedDimension
  0
DIMENSION
  5
1370
100
AcDbEntity
  8
COTATION1
100
AcDbDimension
  2
*D8
 10
100.201431
 20
96.965348
 30
0.0
 11
97.951431
 21
62.965356
 31
0.0
 70
    32
  3
SC_STAND
100
AcDbAlignedDimension
 13
85.363537
 23
28.965364
 33
0.0
 14
85.363537
 24
96.965348
 34
0.0
 50
90.0
100
AcDbRotatedDimension
  0
DIMENSION
  5
137D
100
AcDbEntity
  8
COTATION1
100
AcDbDimension
  2
*D9
 10
100.201431
 20
28.965364
 30
0.0
 11
97.951431
 21
14.715243
 31
0.0
 70
    32
  1
=
  3
SC_STAND
100
AcDbAlignedDimension
 13
85.298941
 23
0.465123
 33
0.0
 14
92.903734
 24
28.965364
 34
0.0
 50
90.0
100
AcDbRotatedDimension
  0
DIMENSION
  5
1395
100
AcDbEntity
  8
COTATION1
100
AcDbDimension
  2
*D10
 10
100.201431
 20
125.465245
 30
0.0
 11
97.951431
 21
111.215296
 31
0.0
 70
    32
  1
=
  3
SC_STAND
100
AcDbAlignedDimension
 13
92.903734
 23
96.965348
 33
0.0
 14
85.298941
 24
125.465245
 34
0.0
 50
90.0
100
AcDbRotatedDimension
  0
DIMENSION
  5
13D9
100
AcDbEntity
  8
COTATION1
100
AcDbDimension
  2
*D11
 10
110.839564
 20
125.465245
 30
0.0
 11
108.589564
 21
62.965184
 31
0.0
 70
    32
  3
SC_STAND
100
AcDbAlignedDimension
 13
92.871436
 23
0.465123
 33
0.0
 14
92.871436
 24
125.465245
 34
0.0
 50
90.0
100
AcDbRotatedDimension
  0
DIMENSION
  5
13E6
100
AcDbEntity
  8
COTATION1
100
AcDbDimension
  2
*D12
 10
88.972791
 20
-20.043405
 30
0.0
 11
43.972868
 21
-17.793405
 31
0.0
 70
    32
  3
SC_STAND
100
AcDbAlignedDimension
 13
-1.027056
 23
6.861976
 33
0.0
 14
88.972791
 24
6.861976
 34
0.0
100
AcDbRotatedDimension
  0
LEADER
  5
13E7
100
AcDbEntity
  8
COTATION1
100
AcDbLeader
  3
SC_STAND
 73
     0
 75
     1
 40
2.916667
 41
7.916667
 76
     3
 10
7.095199
 20
99.920883
 30
0.0
 10
-11.490944
 20
119.650066
 30
0.0
 10
-14.490944
 20
119.650066
 30
0.0
 77
   256
340
13E8
  0
MTEXT
  5
13E8
102
{ACAD_REACTORS
330
13E7
102
}
100
AcDbEntity
  8
COTATION1
100
AcDbMText
 10
-15.490944
 20
122.1084
 30
0.0
 40
2.5
 41
0.0
 71
     6
 72
     1
  1
\A1;%%c5,5
  0
ENDSEC
  0
SECTION
  2
OBJECTS
  0
DICTIONARY
  5
F8
100
AcDbDictionary
  3
ACAD_GROUP
350
F9
  3
ACAD_MLINESTYLE
350
106
  3
ACDBVARIABLEDICTIONARY
350
143
  0
DICTIONARY
  5
F9
102
{ACAD_REACTORS
330
F8
102
}
100
AcDbDictionary
  0
DICTIONARY
  5
106
102
{ACAD_REACTORS
330
F8
102
}
100
AcDbDictionary
  3
STANDARD
350
107
  0
DICTIONARY
  5
143
102
{ACAD_REACTORS
330
F8
102
}
100
AcDbDictionary
  3
DIMADEC
350
144
  0
MLINESTYLE
  5
107
102
{ACAD_REACTORS
330
106
102
}
100
AcDbMlineStyle
  2
STANDARD
 70
     0
  3

 62
   256
 51
90.0
 52
90.0
 71
     2
 49
0.5
 62
   256
  6
BYLAYER
 49
-0.5
 62
   256
  6
BYLAYER
  0
DICTIONARYVAR
  5
144
102
{ACAD_REACTORS
330
143
102
}
100
DictionaryVariables
280
     0
  1
0
  0
ENDSEC
  0
EOF
