  0
SECTION
  2
HEADER
  9
$ACADVER
  1
AC1009
  9
$INSBASE
 10
402.590624
 20
-1.041018
 30
0.0
  9
$EXTMIN
 10
-11.593085
 20
14.396444
 30
0.0
  9
$EXTMAX
 10
41.022435
 20
169.189336
 30
0.0
  9
$LIMMIN
 10
-407.970438
 20
-367.832444
  9
$LIMMAX
 10
429.804077
 20
234.370848
  9
$ORTHOMODE
 70
     0
  9
$REGENMODE
 70
     1
  9
$FILLMODE
 70
     1
  9
$QTEXTMODE
 70
     0
  9
$MIRRTEXT
 70
     1
  9
$DRAGMODE
 70
     2
  9
$LTSCALE
 40
10.0
  9
$OSMODE
 70
    35
  9
$ATTMODE
 70
     1
  9
$TEXTSIZE
 40
6.0
  9
$TRACEWID
 40
1.0
  9
$TEXTSTYLE
  7
ROMANS
  9
$CLAYER
  8
ALPHA
  9
$CELTYPE
  6
BYLAYER
  9
$CECOLOR
 62
   256
  9
$DIMSCALE
 40
1.0
  9
$DIMASZ
 40
5.0
  9
$DIMEXO
 40
2.0
  9
$DIMDLI
 40
0.38
  9
$DIMRND
 40
0.0
  9
$DIMDLE
 40
0.0
  9
$DIMEXE
 40
2.5
  9
$DIMTP
 40
0.0
  9
$DIMTM
 40
0.0
  9
$DIMTXT
 40
2.5
  9
$DIMCEN
 40
0.0
  9
$DIMTSZ
 40
0.0
  9
$DIMTOL
 70
     0
  9
$DIMLIM
 70
     0
  9
$DIMTIH
 70
     1
  9
$DIMTOH
 70
     1
  9
$DIMSE1
 70
     0
  9
$DIMSE2
 70
     0
  9
$DIMTAD
 70
     1
  9
$DIMZIN
 70
    12
  9
$DIMBLK
  1
OPEN30
  9
$DIMASO
 70
     1
  9
$DIMSHO
 70
     1
  9
$DIMPOST
  1

  9
$DIMAPOST
  1

  9
$DIMALT
 70
     0
  9
$DIMALTD
 70
     2
  9
$DIMALTF
 40
25.4
  9
$DIMLFAC
 40
1.0
  9
$DIMTOFL
 70
     0
  9
$DIMTVP
 40
0.0
  9
$DIMTIX
 70
     0
  9
$DIMSOXD
 70
     0
  9
$DIMSAH
 70
     0
  9
$DIMBLK1
  1

  9
$DIMBLK2
  1

  9
$DIMSTYLE
  2
SC_DEFAUT
  9
$DIMCLRD
 70
     0
  9
$DIMCLRE
 70
     0
  9
$DIMCLRT
 70
     0
  9
$DIMTFAC
 40
1.0
  9
$DIMGAP
 40
2.0
  9
$LUNITS
 70
     2
  9
$LUPREC
 70
     1
  9
$SKETCHINC
 40
0.1
  9
$FILLETRAD
 40
0.0
  9
$AUNITS
 70
     0
  9
$AUPREC
 70
     0
  9
$MENU
  1
acad
  9
$ELEVATION
 40
0.0
  9
$PELEVATION
 40
0.0
  9
$THICKNESS
 40
0.0
  9
$LIMCHECK
 70
     0
  9
$BLIPMODE
 70
     0
  9
$CHAMFERA
 40
0.0
  9
$CHAMFERB
 40
0.0
  9
$SKPOLY
 70
     0
  9
$TDCREATE
 40
2450373.687919
  9
$TDUPDATE
 40
2453032.661518
  9
$TDINDWG
 40
1.114354
  9
$TDUSRTIMER
 40
1.114354
  9
$USRTIMER
 70
     1
  9
$ANGBASE
 50
0.0
  9
$ANGDIR
 70
     0
  9
$PDMODE
 70
    32
  9
$PDSIZE
 40
0.0
  9
$PLINEWID
 40
0.0
  9
$COORDS
 70
     1
  9
$SPLFRAME
 70
     0
  9
$SPLINETYPE
 70
     6
  9
$SPLINESEGS
 70
     8
  9
$ATTDIA
 70
     0
  9
$ATTREQ
 70
     1
  9
$HANDLING
 70
     1
  9
$HANDSEED
  5
D368
  9
$SURFTAB1
 70
     6
  9
$SURFTAB2
 70
     6
  9
$SURFTYPE
 70
     6
  9
$SURFU
 70
     6
  9
$SURFV
 70
     6
  9
$UCSNAME
  2

  9
$UCSORG
 10
0.0
 20
0.0
 30
0.0
  9
$UCSXDIR
 10
1.0
 20
0.0
 30
0.0
  9
$UCSYDIR
 10
0.0
 20
1.0
 30
0.0
  9
$PUCSNAME
  2

  9
$PUCSORG
 10
0.0
 20
0.0
 30
0.0
  9
$PUCSXDIR
 10
1.0
 20
0.0
 30
0.0
  9
$PUCSYDIR
 10
0.0
 20
1.0
 30
0.0
  9
$USERI1
 70
     0
  9
$USERI2
 70
     0
  9
$USERI3
 70
     0
  9
$USERI4
 70
     0
  9
$USERI5
 70
     0
  9
$USERR1
 40
0.0
  9
$USERR2
 40
0.0
  9
$USERR3
 40
0.0
  9
$USERR4
 40
0.0
  9
$USERR5
 40
0.0
  9
$WORLDVIEW
 70
     1
  9
$SHADEDGE
 70
     3
  9
$SHADEDIF
 70
    70
  9
$TILEMODE
 70
     1
  9
$MAXACTVP
 70
    16
  9
$PLIMCHECK
 70
     0
  9
$PEXTMIN
 10
-1.452248
 20
-0.437698
 30
0.0
  9
$PEXTMAX
 10
12.749749
 20
8.310198
 30
0.0
  9
$PLIMMIN
 10
0.0
 20
0.0
  9
$PLIMMAX
 10
12.0
 20
9.0
  9
$UNITMODE
 70
     0
  9
$VISRETAIN
 70
     0
  9
$PLINEGEN
 70
     0
  9
$PSLTSCALE
 70
     0
  0
ENDSEC
  0
SECTION
  2
TABLES
  0
TABLE
  2
VPORT
 70
     2
  0
VPORT
  2
*ACTIVE
 70
     0
 10
0.0
 20
0.0
 11
1.0
 21
1.0
 12
14.71989
 22
91.777608
 13
0.0
 23
0.0
 14
1.0
 24
1.0
 15
10.0
 25
10.0
 16
0.0
 26
0.0
 36
1.0
 17
0.0
 27
0.0
 37
0.0
 40
155.948089
 41
1.466346
 42
50.0
 43
0.0
 44
0.0
 50
0.0
 51
0.0
 71
     0
 72
   100
 73
     1
 74
     0
 75
     0
 76
     0
 77
     0
 78
     0
  0
ENDTAB
  0
TABLE
  2
LTYPE
 70
     2
  0
LTYPE
  2
CONTINUOUS
 70
     0
  3
Solid line
 72
    65
 73
     0
 40
0.0
  0
LTYPE
  2
AXES2
 70
     0
  3
___ _ ___ _ ___ _ ___ _ ___ _ ___ _ ___ _ ___ _
 72
    65
 73
     4
 40
1.125
 49
0.75
 49
-0.125
 49
0.125
 49
-0.125
  0
ENDTAB
  0
TABLE
  2
LAYER
 70
     5
  0
LAYER
  2
0
 70
     0
 62
   255
  6
CONTINUOUS
  0
LAYER
  2
COTATION1
 70
     0
 62
     2
  6
CONTINUOUS
  0
LAYER
  2
AXE
 70
     0
 62
    80
  6
AXES2
  0
LAYER
  2
DEFPOINTS
 70
     0
 62
     7
  6
CONTINUOUS
  0
LAYER
  2
ALPHA
 70
     0
 62
   254
  6
CONTINUOUS
  0
ENDTAB
  0
TABLE
  2
STYLE
 70
     2
  0
STYLE
  2
ROMANS
 70
     0
 40
0.0
 41
1.0
 50
0.0
 71
     0
 42
6.0
  3
romans
  4

  0
STYLE
  2
STANDARD
 70
     0
 40
0.0
 41
1.0
 50
0.0
 71
     0
 42
0.2
  3
txt
  4

  0
ENDTAB
  0
TABLE
  2
VIEW
 70
     0
  0
ENDTAB
  0
TABLE
  2
UCS
 70
     0
  0
ENDTAB
  0
TABLE
  2
APPID
 70
     1
  0
APPID
  2
ACAD
 70
     0
  0
ENDTAB
  0
TABLE
  2
DIMSTYLE
 70
     2
  0
DIMSTYLE
  2
SC_DEFAUT
 70
     0
  3

  4

  5
OPEN30
  6

  7

 40
1.0
 41
5.0
 42
2.0
 43
0.38
 44
2.5
 45
0.0
 46
0.0
 47
0.0
 48
0.0
140
2.5
141
0.0
142
0.0
143
25.4
144
1.0
145
0.0
146
1.0
147
2.0
 71
     0
 72
     0
 73
     1
 74
     1
 75
     0
 76
     0
 77
     1
 78
    12
170
     0
171
     2
172
     0
173
     0
174
     0
175
     0
176
     0
177
     0
178
     0
  0
DIMSTYLE
  2
STANDARD
 70
     0
  3

  4

  5

  6

  7

 40
1.0
 41
0.18
 42
0.0625
 43
0.38
 44
0.18
 45
0.0
 46
0.0
 47
0.0
 48
0.0
140
0.18
141
0.09
142
0.0
143
25.4
144
1.0
145
0.0
146
1.0
147
0.09
 71
     0
 72
     0
 73
     1
 74
     1
 75
     0
 76
     0
 77
     0
 78
     0
170
     0
171
     2
172
     0
173
     0
174
     0
175
     0
176
     0
177
     0
178
     0
  0
ENDTAB
  0
ENDSEC
  0
SECTION
  2
BLOCKS
  0
BLOCK
  8
0
  2
$MODEL_SPACE
 70
     0
 10
0.0
 20
0.0
 30
0.0
  3
$MODEL_SPACE
  1

  0
ENDBLK
  5
D357
  8
0
  0
BLOCK
 67
     1
  8
0
  2
$PAPER_SPACE
 70
     0
 10
0.0
 20
0.0
 30
0.0
  3
$PAPER_SPACE
  1

  0
ENDBLK
  5
D355
 67
     1
  8
0
  0
BLOCK
  8
0
  2
COTE
 70
     0
 10
0.0
 20
0.0
 30
0.0
  3
COTE
  1

  0
ENDBLK
  5
F
  8
0
  0
BLOCK
  8
0
  2
FOND
 70
     0
 10
0.0
 20
0.0
 30
0.0
  3
FOND
  1

  0
ENDBLK
  5
75
  8
0
  0
BLOCK
  8
0
  2
_OPEN30
 70
     0
 10
0.0
 20
0.0
 30
0.0
  3
_OPEN30
  1

  0
LINE
  5
4B05
  8
COTATION1
 62
     0
 10
-1.0
 20
0.267949
 30
0.0
 11
0.0
 21
0.0
 31
0.0
1001
ACAD
1000
RTLwPs
1070
   158
  0
LINE
  5
4B06
  8
COTATION1
 62
     0
 10
0.0
 20
0.0
 30
0.0
 11
-1.0
 21
-0.267949
 31
0.0
1001
ACAD
1000
RTLwPs
1070
   158
  0
LINE
  5
4B07
  8
COTATION1
 62
     0
 10
0.0
 20
0.0
 30
0.0
 11
-1.0
 21
0.0
 31
0.0
1001
ACAD
1000
RTLwPs
1070
   158
  0
ENDBLK
  5
4B09
  8
0
  0
BLOCK
  8
0
  2
*D3
 70
     1
 10
0.0
 20
0.0
 30
0.0
  3
*D3
  1

  0
LINE
  5
D285
  8
COTATION1
 62
     0
 10
24.64532
 20
43.182597
 30
0.0
 11
24.64532
 21
30.550396
 31
0.0
1001
ACAD
1000
RTLwPs
1070
   158
  0
LINE
  5
D286
  8
COTATION1
 62
     0
 10
31.022435
 20
44.682597
 30
0.0
 11
31.022435
 21
30.550396
 31
0.0
1001
ACAD
1000
RTLwPs
1070
   158
  0
LINE
  5
D287
  8
COTATION1
 62
     0
 10
19.64532
 20
33.050396
 30
0.0
 11
14.64532
 21
33.050396
 31
0.0
1001
ACAD
1000
RTLwPs
1070
   158
  0
LINE
  5
D288
  8
COTATION1
 62
     0
 10
36.022435
 20
33.050396
 30
0.0
 11
41.022435
 21
33.050396
 31
0.0
1001
ACAD
1000
RTLwPs
1070
   158
  0
TEXT
  5
D289
  8
COTATION1
 62
     0
 10
13.186476
 20
34.831575
 30
0.0
 40
2.5
  1
6.4
1001
ACAD
1000
MTEXTBEGIN
1070
    73
1070
     1
1070
    44
1040
1.0
1070
    74
1070
     0
1000
MTEXTEND
  0
INSERT
  5
D28A
  8
COTATION1
 62
     0
  2
_OPEN30
 10
24.64532
 20
33.050396
 30
0.0
 41
5.0
 42
5.0
 43
5.0
1001
ACAD
1000
RTLwPs
1070
   158
  0
INSERT
  5
D28B
  8
COTATION1
 62
     0
  2
_OPEN30
 10
31.022435
 20
33.050396
 30
0.0
 41
5.0
 42
5.0
 43
5.0
 50
180.0
1001
ACAD
1000
RTLwPs
1070
   158
  0
POINT
  5
D28C
  8
DEFPOINTS
 62
     0
 10
24.64532
 20
45.182597
 30
0.0
  0
POINT
  5
D28D
  8
DEFPOINTS
 62
     0
 10
31.022435
 20
46.682597
 30
0.0
  0
POINT
  5
D28E
  8
DEFPOINTS
 62
     0
 10
31.022435
 20
33.050396
 30
0.0
  0
ENDBLK
  5
C4DD
  8
0
  0
BLOCK
  8
0
  2
*D4
 70
     1
 10
0.0
 20
0.0
 30
0.0
  3
*D4
  1

  0
LINE
  5
D28F
  8
COTATION1
 62
     0
 10
26.64532
 20
152.182597
 30
0.0
 11
26.64532
 21
167.682597
 31
0.0
1001
ACAD
1000
RTLwPs
1070
   158
  0
LINE
  5
D290
  8
COTATION1
 62
     0
 10
29.64532
 20
152.182597
 30
0.0
 11
29.64532
 21
167.682597
 31
0.0
1001
ACAD
1000
RTLwPs
1070
   158
  0
LINE
  5
D291
  8
COTATION1
 62
     0
 10
21.64532
 20
165.182597
 30
0.0
 11
16.64532
 21
165.182597
 31
0.0
1001
ACAD
1000
RTLwPs
1070
   158
  0
LINE
  5
D292
  8
COTATION1
 62
     0
 10
34.64532
 20
165.182597
 30
0.0
 11
39.64532
 21
165.182597
 31
0.0
1001
ACAD
1000
RTLwPs
1070
   158
  0
TEXT
  5
D293
  8
COTATION1
 62
     0
 10
36.882155
 20
166.689336
 30
0.0
 40
2.5
  1
3
1001
ACAD
1000
MTEXTBEGIN
1070
    73
1070
     1
1070
    44
1040
1.0
1070
    74
1070
     0
1000
MTEXTEND
  0
INSERT
  5
D294
  8
COTATION1
 62
     0
  2
_OPEN30
 10
26.64532
 20
165.182597
 30
0.0
 41
5.0
 42
5.0
 43
5.0
1001
ACAD
1000
RTLwPs
1070
   158
  0
INSERT
  5
D295
  8
COTATION1
 62
     0
  2
_OPEN30
 10
29.64532
 20
165.182597
 30
0.0
 41
5.0
 42
5.0
 43
5.0
 50
180.0
1001
ACAD
1000
RTLwPs
1070
   158
  0
POINT
  5
D296
  8
DEFPOINTS
 62
     0
 10
26.64532
 20
150.182597
 30
0.0
  0
POINT
  5
D297
  8
DEFPOINTS
 62
     0
 10
29.64532
 20
150.182597
 30
0.0
  0
POINT
  5
D298
  8
DEFPOINTS
 62
     0
 10
29.64532
 20
165.182597
 30
0.0
  0
ENDBLK
  5
D21E
  8
0
  0
ENDSEC
  0
SECTION
  2
ENTITIES
  0
INSERT
  5
A
  8
0
  2
COTE
 10
0.0
 20
0.0
 30
0.0
  0
INSERT
  5
17
  8
0
  2
COTE
 10
284.010391
 20
6.373258
 30
0.0
  0
INSERT
  5
72
  8
0
  2
FOND
 10
0.0
 20
0.0
 30
0.0
  0
LINE
  5
9A33
  8
COTATION1
 10
22.14532
 20
79.885372
 30
0.0
 11
14.906915
 21
79.885372
 31
0.0
  0
LINE
  5
9A4A
  8
COTATION1
 10
24.64532
 20
83.901273
 30
0.0
 11
24.64532
 21
63.182597
 31
0.0
  0
SOLID
  5
9A78
  8
COTATION1
 10
24.64532
 20
78.441996
 30
0.0
 11
24.64532
 21
81.328747
 31
0.0
 12
22.14532
 22
79.885372
 32
0.0
 13
22.14532
 23
79.885372
 33
0.0
  0
LINE
  5
9B48
  8
COTATION1
 10
-11.593085
 20
82.385372
 30
0.0
 11
14.906915
 21
82.385372
 31
0.0
  0
LINE
  5
9B49
  8
COTATION1
 10
14.906915
 20
77.385372
 30
0.0
 11
-11.593085
 21
77.385372
 31
0.0
  0
TEXT
  5
9B4A
  8
COTATION1
 10
-10.343085
 20
78.635372
 30
0.0
 40
2.5
  1
PLANE_TO_LINE_UP
 41
0.626087
  7
STANDARD
 72
     5
 11
13.656915
 21
78.635372
 31
0.0
  0
LINE
  5
9B4B
  8
COTATION1
 10
-11.593085
 20
77.385372
 30
0.0
 11
-11.593085
 21
82.385372
 31
0.0
  0
LINE
  5
9B4C
  8
COTATION1
 10
14.906915
 20
82.385372
 30
0.0
 11
14.906915
 21
77.385372
 31
0.0
  0
LINE
  5
C059
  8
ALPHA
 10
29.64532
 20
61.182597
 30
0.0
 11
29.64532
 21
150.182597
 31
0.0
  0
LINE
  5
C05A
  8
ALPHA
 10
26.64532
 20
61.182597
 30
0.0
 11
26.64532
 21
150.182597
 31
0.0
  0
LINE
  5
C05D
  8
ALPHA
 10
29.64532
 20
25.182597
 30
0.0
 11
29.64532
 21
45.182597
 31
0.0
  0
LINE
  5
C05E
  8
ALPHA
 10
26.64532
 20
25.182597
 30
0.0
 11
26.64532
 21
45.182597
 31
0.0
  0
LINE
  5
C05F
  8
ALPHA
 10
26.64532
 20
25.182597
 30
0.0
 11
29.64532
 21
25.182597
 31
0.0
  0
LINE
  5
C060
  8
ALPHA
 10
30.975295
 20
61.182597
 30
0.0
 11
29.56715
 21
61.182597
 31
0.0
  0
LINE
  5
C061
  8
ALPHA
 10
31.022435
 20
59.682597
 30
0.0
 11
28.64532
 21
59.682597
 31
0.0
  0
LINE
  5
C062
  8
ALPHA
 10
31.022435
 20
46.682597
 30
0.0
 11
28.64532
 21
46.682597
 31
0.0
  0
LINE
  5
C063
  8
ALPHA
 10
30.975295
 20
45.182597
 30
0.0
 11
29.567144
 21
45.182597
 31
0.0
  0
LINE
  5
C064
  8
ALPHA
 10
28.64532
 20
45.182806
 30
0.0
 11
28.64532
 21
61.182389
 31
0.0
  0
LINE
  5
C065
  8
ALPHA
 10
27.44532
 20
61.182389
 30
0.0
 11
27.44532
 21
45.182806
 31
0.0
  0
LINE
  5
C066
  8
ALPHA
 10
26.088695
 20
59.682597
 30
0.0
 11
26.088695
 21
46.682597
 31
0.0
  0
LINE
  5
C067
  8
ALPHA
 10
24.64532
 20
61.182597
 30
0.0
 11
24.64532
 21
45.182597
 31
0.0
  0
POLYLINE
  5
C068
  8
ALPHA
 66
     1
 10
0.0
 20
0.0
 30
0.0
 70
   128
  0
VERTEX
  5
D35D
  8
ALPHA
 10
25.22267
 20
45.182597
 30
0.0
  0
VERTEX
  5
D35E
  8
ALPHA
 10
25.644276
 20
45.372638
 30
0.0
  0
VERTEX
  5
D35F
  8
ALPHA
 10
25.906606
 20
45.762392
 30
0.0
  0
VERTEX
  5
D360
  8
ALPHA
 10
26.088695
 20
46.682597
 30
0.0
  0
SEQEND
  5
D361
  8
ALPHA
  0
LINE
  5
C069
  8
ALPHA
 10
24.64532
 20
45.182597
 30
0.0
 11
26.723495
 21
45.182597
 31
0.0
  0
LINE
  5
C06A
  8
ALPHA
 10
26.82032
 20
45.182806
 30
0.0
 11
26.723495
 21
45.182597
 31
0.0
  0
LINE
  5
C06B
  8
ALPHA
 10
27.44532
 20
46.682597
 30
0.0
 11
26.088695
 21
46.682597
 31
0.0
  0
LINE
  5
C06C
  8
ALPHA
 10
27.44532
 20
45.182806
 30
0.0
 11
26.82032
 21
45.182806
 31
0.0
  0
LINE
  5
C06D
  8
ALPHA
 10
29.567144
 20
45.182597
 30
0.0
 11
29.47032
 21
45.182806
 31
0.0
  0
LINE
  5
C06E
  8
ALPHA
 10
29.47032
 20
45.182806
 30
0.0
 11
28.64532
 21
45.182806
 31
0.0
  0
POLYLINE
  5
C06F
  8
ALPHA
 66
     1
 10
0.0
 20
0.0
 30
0.0
 70
   128
  0
VERTEX
  5
D362
  8
ALPHA
 10
26.088695
 20
59.682597
 30
0.0
  0
VERTEX
  5
D363
  8
ALPHA
 10
25.906606
 20
60.602803
 30
0.0
  0
VERTEX
  5
D364
  8
ALPHA
 10
25.644276
 20
60.992557
 30
0.0
  0
VERTEX
  5
D365
  8
ALPHA
 10
25.22267
 20
61.182597
 30
0.0
  0
SEQEND
  5
D366
  8
ALPHA
  0
LINE
  5
C070
  8
ALPHA
 10
24.64532
 20
61.182597
 30
0.0
 11
26.72349
 21
61.182597
 31
0.0
  0
LINE
  5
C071
  8
ALPHA
 10
26.723495
 20
61.182597
 30
0.0
 11
26.82032
 21
61.182389
 31
0.0
  0
LINE
  5
C072
  8
ALPHA
 10
26.82032
 20
61.182389
 30
0.0
 11
27.44532
 21
61.182389
 31
0.0
  0
LINE
  5
C073
  8
ALPHA
 10
27.44532
 20
59.682597
 30
0.0
 11
26.088695
 21
59.682597
 31
0.0
  0
LINE
  5
C074
  8
ALPHA
 10
29.47032
 20
61.182389
 30
0.0
 11
29.567144
 21
61.182597
 31
0.0
  0
LINE
  5
C075
  8
ALPHA
 10
28.64532
 20
61.182389
 30
0.0
 11
29.47032
 21
61.182389
 31
0.0
  0
LINE
  5
C076
  8
ALPHA
 10
31.022435
 20
59.682597
 30
0.0
 11
31.022435
 21
46.682597
 31
0.0
  0
LINE
  5
C077
  8
ALPHA
 10
31.022435
 20
46.682597
 30
0.0
 11
30.975295
 21
45.182597
 31
0.0
  0
LINE
  5
C078
  8
ALPHA
 10
30.975295
 20
61.182597
 30
0.0
 11
31.022435
 21
59.682597
 31
0.0
  0
LINE
  5
C423
  8
ALPHA
 10
26.64532
 20
150.182597
 30
0.0
 11
29.64532
 21
150.182597
 31
0.0
  0
TEXT
  5
C461
  8
AXE
 10
36.974816
 20
54.182597
 30
0.0
 40
5.0
  1
Z
 72
     2
 11
41.022435
 21
54.182597
 31
0.0
  0
LINE
  5
C462
  8
AXE
 10
19.64532
 20
53.182597
 30
0.0
 11
41.022435
 21
53.182597
 31
0.0
  0
LINE
  5
C466
  8
AXE
 10
28.14532
 20
14.396444
 30
0.0
 11
28.14532
 21
155.182597
 31
0.0
  0
TEXT
  5
C467
  8
AXE
 10
23.097701
 20
14.396444
 30
0.0
 40
5.0
  1
Y
 72
     2
 11
27.14532
 21
14.396444
 31
0.0
  0
DIMENSION
  5
C4D1
  8
COTATION1
  2
*D3
 10
31.022435
 20
33.050396
 30
0.0
 11
16.281714
 21
36.081575
 31
0.0
 70
   128
 13
24.64532
 23
45.182597
 33
0.0
 14
31.022435
 24
46.682597
 34
0.0
  0
DIMENSION
  5
D211
  8
COTATION1
  2
*D4
 10
29.64532
 20
165.182597
 30
0.0
 11
38.072631
 21
167.939336
 31
0.0
 70
   128
 13
26.64532
 23
150.182597
 33
0.0
 14
29.64532
 24
150.182597
 34
0.0
  0
VIEWPORT
  5
494D
 67
     1
  8
0
 10
4.995325
 20
6.556512
 30
0.0
 40
22.70986
 41
13.988421
 68
    -1
 69
     1
1001
ACAD
1000
MVIEW
1002
{
1070
    16
1010
0.0
1020
0.0
1030
0.0
1010
0.0
1020
0.0
1030
1.0
1040
0.0
1040
13.988421
1040
4.995325
1040
6.556512
1040
50.0
1040
0.0
1040
0.0
1070
     0
1070
   100
1070
     1
1070
     1
1070
     0
1070
     0
1070
     0
1070
     0
1040
0.0
1040
0.0
1040
0.0
1040
10.0
1040
10.0
1040
10.0
1040
10.0
1070
     0
1002
{
1002
}
1002
}
  0
ENDSEC
  0
EOF
