  0
SECTION
  2
HEADER
  9
$ACADVER
  1
AC1012
  9
$DWGCODEPAGE
  3
ANSI_1252
  9
$INSBASE
 10
0.0
 20
0.0
 30
0.0
  9
$EXTMIN
 10
13.86418
 20
5.889923
 30
0.0
  9
$EXTMAX
 10
193.870133
 20
248.865209
 30
0.0
  9
$LIMMIN
 10
19.077216
 20
43.616976
  9
$LIMMAX
 10
194.084622
 20
146.65737
  9
$ORTHOMODE
 70
     1
  9
$REGENMODE
 70
     1
  9
$FILLMODE
 70
     1
  9
$QTEXTMODE
 70
     0
  9
$MIRRTEXT
 70
     1
  9
$DRAGMODE
 70
     2
  9
$LTSCALE
 40
10.0
  9
$OSMODE
 70
    37
  9
$ATTMODE
 70
     1
  9
$TEXTSIZE
 40
0.2
  9
$TRACEWID
 40
0.05
  9
$TEXTSTYLE
  7
STANDARD
  9
$CLAYER
  8
ALPHA
  9
$CELTYPE
  6
CONTINUOUS
  9
$CECOLOR
 62
   256
  9
$CELTSCALE
 40
1.0
  9
$DELOBJ
 70
     1
  9
$DISPSILH
 70
     0
  9
$DIMSCALE
 40
1.0
  9
$DIMASZ
 40
5.0
  9
$DIMEXO
 40
2.0
  9
$DIMDLI
 40
0.38
  9
$DIMRND
 40
0.0
  9
$DIMDLE
 40
0.0
  9
$DIMEXE
 40
2.5
  9
$DIMTP
 40
0.0
  9
$DIMTM
 40
0.0
  9
$DIMTXT
 40
2.5
  9
$DIMCEN
 40
0.0
  9
$DIMTSZ
 40
0.0
  9
$DIMTOL
 70
     0
  9
$DIMLIM
 70
     0
  9
$DIMTIH
 70
     1
  9
$DIMTOH
 70
     1
  9
$DIMSE1
 70
     0
  9
$DIMSE2
 70
     0
  9
$DIMTAD
 70
     1
  9
$DIMZIN
 70
    12
  9
$DIMBLK
  1
OPEN30
  9
$DIMASO
 70
     1
  9
$DIMSHO
 70
     1
  9
$DIMPOST
  1

  9
$DIMAPOST
  1

  9
$DIMALT
 70
     0
  9
$DIMALTD
 70
     2
  9
$DIMALTF
 40
25.4
  9
$DIMLFAC
 40
1.0
  9
$DIMTOFL
 70
     0
  9
$DIMTVP
 40
0.0
  9
$DIMTIX
 70
     0
  9
$DIMSOXD
 70
     0
  9
$DIMSAH
 70
     0
  9
$DIMBLK1
  1

  9
$DIMBLK2
  1

  9
$DIMSTYLE
  2
SC_DEFAUT
  9
$DIMCLRD
 70
     0
  9
$DIMCLRE
 70
     0
  9
$DIMCLRT
 70
     0
  9
$DIMTFAC
 40
1.0
  9
$DIMGAP
 40
2.0
  9
$DIMJUST
 70
     0
  9
$DIMSD1
 70
     0
  9
$DIMSD2
 70
     0
  9
$DIMTOLJ
 70
     1
  9
$DIMTZIN
 70
    12
  9
$DIMALTZ
 70
    12
  9
$DIMALTTZ
 70
    12
  9
$DIMFIT
 70
     5
  9
$DIMUPT
 70
     0
  9
$DIMUNIT
 70
     2
  9
$DIMDEC
 70
     1
  9
$DIMTDEC
 70
     1
  9
$DIMALTU
 70
     2
  9
$DIMALTTD
 70
     2
  9
$DIMTXSTY
  7
ROMANS
  9
$DIMAUNIT
 70
     0
  9
$LUNITS
 70
     2
  9
$LUPREC
 70
     4
  9
$SKETCHINC
 40
0.1
  9
$FILLETRAD
 40
0.0
  9
$AUNITS
 70
     0
  9
$AUPREC
 70
     0
  9
$MENU
  1
acad
  9
$ELEVATION
 40
0.0
  9
$PELEVATION
 40
0.0
  9
$THICKNESS
 40
0.0
  9
$LIMCHECK
 70
     0
  9
$BLIPMODE
 70
     0
  9
$CHAMFERA
 40
0.0
  9
$CHAMFERB
 40
0.0
  9
$CHAMFERC
 40
0.0
  9
$CHAMFERD
 40
0.0
  9
$SKPOLY
 70
     0
  9
$TDCREATE
 40
2453634.371764132
  9
$TDUPDATE
 40
2454062.346726377
  9
$TDINDWG
 40
2.9248937500
  9
$TDUSRTIMER
 40
2.9248926620
  9
$USRTIMER
 70
     1
  9
$ANGBASE
 50
0.0
  9
$ANGDIR
 70
     0
  9
$PDMODE
 70
     0
  9
$PDSIZE
 40
0.0
  9
$PLINEWID
 40
0.0
  9
$COORDS
 70
     1
  9
$SPLFRAME
 70
     0
  9
$SPLINETYPE
 70
     6
  9
$SPLINESEGS
 70
     8
  9
$ATTDIA
 70
     0
  9
$ATTREQ
 70
     1
  9
$HANDLING
 70
     1
  9
$HANDSEED
  5
20491
  9
$SURFTAB1
 70
     6
  9
$SURFTAB2
 70
     6
  9
$SURFTYPE
 70
     6
  9
$SURFU
 70
     6
  9
$SURFV
 70
     6
  9
$UCSNAME
  2

  9
$UCSORG
 10
0.0
 20
0.0
 30
0.0
  9
$UCSXDIR
 10
1.0
 20
0.0
 30
0.0
  9
$UCSYDIR
 10
0.0
 20
1.0
 30
0.0
  9
$PUCSNAME
  2

  9
$PUCSORG
 10
0.0
 20
0.0
 30
0.0
  9
$PUCSXDIR
 10
1.0
 20
0.0
 30
0.0
  9
$PUCSYDIR
 10
0.0
 20
1.0
 30
0.0
  9
$USERI1
 70
     0
  9
$USERI2
 70
     0
  9
$USERI3
 70
     0
  9
$USERI4
 70
     0
  9
$USERI5
 70
     0
  9
$USERR1
 40
0.0
  9
$USERR2
 40
0.0
  9
$USERR3
 40
0.0
  9
$USERR4
 40
0.0
  9
$USERR5
 40
0.0
  9
$WORLDVIEW
 70
     1
  9
$SHADEDGE
 70
     3
  9
$SHADEDIF
 70
    70
  9
$TILEMODE
 70
     1
  9
$MAXACTVP
 70
    16
  9
$PINSBASE
 10
0.0
 20
0.0
 30
0.0
  9
$PLIMCHECK
 70
     0
  9
$PEXTMIN
 10
1.000000E+20
 20
1.000000E+20
 30
1.000000E+20
  9
$PEXTMAX
 10
-1.000000E+20
 20
-1.000000E+20
 30
-1.000000E+20
  9
$PLIMMIN
 10
0.0
 20
0.0
  9
$PLIMMAX
 10
12.0
 20
9.0
  9
$UNITMODE
 70
     0
  9
$VISRETAIN
 70
     0
  9
$PLINEGEN
 70
     1
  9
$PSLTSCALE
 70
     0
  9
$TREEDEPTH
 70
  3020
  9
$PICKSTYLE
 70
     0
  9
$CMLSTYLE
  2
STANDARD
  9
$CMLJUST
 70
     0
  9
$CMLSCALE
 40
1.0
  9
$SAVEIMAGES
 70
     0
  0
ENDSEC
  0
SECTION
  2
CLASSES
  0
CLASS
  1
LWPOLYLINE
  2
AcDbPolyline
  3
"AutoCAD"
 90
    32768
280
     0
281
     1
  0
CLASS
  1
IMAGE
  2
AcDbRasterImage
  3
ISM
 90
    32895
280
     0
281
     1
  0
CLASS
  1
OLE2FRAME
  2
AcDbOle2Frame
  3
""
 90
    32768
280
     0
281
     1
  0
CLASS
  1
HATCH
  2
AcDbHatch
  3
"ACAD_SEDONA"
 90
    32768
280
     0
281
     1
  0
CLASS
  1
DICTIONARYVAR
  2
AcDbDictionaryVar
  3
"AutoCAD"
 90
    32768
280
     0
281
     0
  0
CLASS
  1
RASTERVARIABLES
  2
AcDbRasterVariables
  3
ISM
 90
    32768
280
     0
281
     0
  0
CLASS
  1
IMAGEDEF
  2
AcDbRasterImageDef
  3
ISM
 90
    32768
280
     0
281
     0
  0
CLASS
  1
IMAGEDEF_REACTOR
  2
AcDbRasterImageDefReactor
  3
ISM
 90
    32769
280
     0
281
     0
  0
CLASS
  1
SPATIAL_FILTER
  2
AcDbSpatialFilter
  3
"Acad"
 90
    32768
280
     0
281
     0
  0
CLASS
  1
XRECORD
  2
AcDbXrecord
  3
"<Built In>"
 90
    32768
280
     0
281
     0
  0
CLASS
  1
SORTENTSTABLE
  2
AcDbSortentsTable
  3
"AutoCAD"
 90
    32768
280
     0
281
     0
  0
CLASS
  1
LAYER_INDEX
  2
AcDbLayerIndex
  3
"Acad"
 90
    32768
280
     0
281
     0
  0
CLASS
  1
SPATIAL_INDEX
  2
AcDbSpatialIndex
  3
"Acad"
 90
    32768
280
     0
281
     0
  0
CLASS
  1
OBJECT_PTR
  2
CAseDLPNTableRecord
  3
ASE-LPNTableRecord
 90
    32769
280
     0
281
     0
  0
CLASS
  1
LAYOUT
  2
AcDbLayout
  3
AutoCAD 2000
 90
    32768
280
     0
281
     0
  0
CLASS
  1
PLOTSETTINGS
  2
AcDbPlotSettings
  3
AutoCAD 2000
 90
    32768
280
     0
281
     0
  0
CLASS
  1
ACDBDICTIONARYWDFLT
  2
AcDbDictionaryWithDefault
  3
AutoCAD 2000
 90
    32768
280
     0
281
     0
  0
CLASS
  1
ACDBPLACEHOLDER
  2
AcDbPlaceHolder
  3
AutoCAD 2000
 90
    32768
280
     0
281
     0
  0
CLASS
  1
VBA_PROJECT
  2
AcDbVbaProject
  3
acad
 90
    32768
280
     0
281
     0
  0
CLASS
  1
WIPEOUT
  2
AcDbWipeout
  3
WipeOut|AutoCAD Express Tool|expresstools@autodesk.com
 90
    32895
280
     0
281
     1
  0
CLASS
  1
WIPEOUTVARIABLES
  2
AcDbWipeoutVariables
  3
WipeOut|AutoCAD Express Tool|expresstools@autodesk.com
 90
    32768
280
     0
281
     0
  0
CLASS
  1
RTEXT
  2
RText
  3
RText|AutoCAD Express Tool|expresstools@autodesk.com
 90
    32768
280
     0
281
     1
  0
CLASS
  1
ARCALIGNEDTEXT
  2
AcDbArcAlignedText
  3
ATEXT|AutoCAD Express Tool|expresstools@autodesk.com
 90
    32768
280
     0
281
     1
  0
CLASS
  1
TABLESTYLE
  2
AcDbTableStyle
  3
ObjectDBX Classes
 90
    34815
280
     0
281
     0
  0
CLASS
  1
ACAD_PROXY_OBJECT_WRAPPER
  2
AcDbProxyObjectWrapper
  3
AutoCAD 2000
 90
    32768
280
     0
281
     0
  0
CLASS
  1
LONG_TRANSACTION
  2
AcDbLongTransaction
  3
AutoCAD 2000
 90
    32768
280
     0
281
     0
  0
CLASS
  1
LWPOLYLINE
  2
AcDbPolyline
  3
"AutoCAD"
 90
    32768
280
     0
281
     1
  0
CLASS
  1
HATCH
  2
AcDbHatch
  3
"ACAD_SEDONA"
 90
    32768
280
     0
281
     1
  0
CLASS
  1
XRECORD
  2
AcDbXrecord
  3
"<Built In>"
 90
    32768
280
     0
281
     0
  0
ENDSEC
  0
SECTION
  2
TABLES
  0
TABLE
  2
VPORT
  5
7
100
AcDbSymbolTable
 70
     2
  0
VPORT
  5
20490
100
AcDbSymbolTableRecord
100
AcDbViewportTableRecord
  2
*ACTIVE
 70
     0
 10
0.0
 20
0.0
 11
1.0
 21
1.0
 12
103.867157
 22
127.377566
 13
0.0
 23
0.0
 14
1.0
 24
1.0
 15
0.0
 25
0.0
 16
0.0
 26
0.0
 36
1.0
 17
0.0
 27
0.0
 37
0.0
 40
245.501892
 41
1.673611
 42
50.0
 43
0.0
 44
0.0
 50
0.0
 51
0.0
 71
     0
 72
   100
 73
     1
 74
     2
 75
     0
 76
     0
 77
     0
 78
     0
  0
ENDTAB
  0
TABLE
  2
LTYPE
  5
4
100
AcDbSymbolTable
 70
     2
  0
LTYPE
  5
11
102
{ACAD_XDICTIONARY
360
20431
102
}
100
AcDbSymbolTableRecord
100
AcDbLinetypeTableRecord
  2
BYBLOCK
 70
     0
  3

 72
    65
 73
     0
 40
0.0
  0
LTYPE
  5
12
102
{ACAD_XDICTIONARY
360
20433
102
}
100
AcDbSymbolTableRecord
100
AcDbLinetypeTableRecord
  2
BYLAYER
 70
     0
  3

 72
    65
 73
     0
 40
0.0
  0
LTYPE
  5
13
102
{ACAD_XDICTIONARY
360
20435
102
}
100
AcDbSymbolTableRecord
100
AcDbLinetypeTableRecord
  2
CONTINUOUS
 70
     0
  3
Solid line
 72
    65
 73
     0
 40
0.0
  0
LTYPE
  5
725
100
AcDbSymbolTableRecord
100
AcDbLinetypeTableRecord
  2
AXES2
 70
     0
  3
___ _ ___ _ ___ _ ___ _ ___ _ ___ _ ___ _ ___ _
 72
    65
 73
     4
 40
1.125
 49
0.75
 74
     0
 49
-0.125
 74
     0
 49
0.125
 74
     0
 49
-0.125
 74
     0
  0
ENDTAB
  0
TABLE
  2
LAYER
  5
2
102
{ACAD_XDICTIONARY
360
26F0
102
}
100
AcDbSymbolTable
 70
     5
  0
LAYER
  5
14
100
AcDbSymbolTableRecord
100
AcDbLayerTableRecord
  2
0
 70
     0
 62
     7
  6
CONTINUOUS
  0
LAYER
  5
6EC
102
{ACAD_XDICTIONARY
360
2042F
102
}
100
AcDbSymbolTableRecord
100
AcDbLayerTableRecord
  2
DEFPOINTS
 70
     0
 62
     7
  6
CONTINUOUS
  0
LAYER
  5
727
100
AcDbSymbolTableRecord
100
AcDbLayerTableRecord
  2
COTATION1
 70
     0
 62
     2
  6
CONTINUOUS
  0
LAYER
  5
728
100
AcDbSymbolTableRecord
100
AcDbLayerTableRecord
  2
AXE
 70
     0
 62
    80
  6
AXES2
  0
LAYER
  5
729
100
AcDbSymbolTableRecord
100
AcDbLayerTableRecord
  2
ALPHA
 70
     0
 62
   254
  6
CONTINUOUS
  0
ENDTAB
  0
TABLE
  2
STYLE
  5
3
100
AcDbSymbolTable
 70
     2
  0
STYLE
  5
17
102
{ACAD_XDICTIONARY
360
2043F
102
}
100
AcDbSymbolTableRecord
100
AcDbTextStyleTableRecord
  2
STANDARD
 70
     0
 40
0.0
 41
1.0
 50
0.0
 71
     0
 42
0.0
  3
txt
  4

  0
STYLE
  5
72B
100
AcDbSymbolTableRecord
100
AcDbTextStyleTableRecord
  2
ROMANS
 70
     0
 40
0.0
 41
1.0
 50
0.0
 71
     0
 42
6.0
  3
romans
  4

  0
ENDTAB
  0
TABLE
  2
VIEW
  5
5
100
AcDbSymbolTable
 70
     0
  0
ENDTAB
  0
TABLE
  2
UCS
  5
6
100
AcDbSymbolTable
 70
     0
  0
ENDTAB
  0
TABLE
  2
APPID
  5
8
100
AcDbSymbolTable
 70
    10
  0
APPID
  5
16
100
AcDbSymbolTableRecord
100
AcDbRegAppTableRecord
  2
ACAD
 70
     0
  0
APPID
  5
26EF
102
{ACAD_XDICTIONARY
360
20437
102
}
100
AcDbSymbolTableRecord
100
AcDbRegAppTableRecord
  2
ACAECLAYERSTANDARD
 70
     0
  0
APPID
  5
320E
100
AcDbSymbolTableRecord
100
AcDbRegAppTableRecord
  2
DCO15
 70
     0
  0
APPID
  5
3569
102
{ACAD_XDICTIONARY
360
20439
102
}
100
AcDbSymbolTableRecord
100
AcDbRegAppTableRecord
  2
ACAD_EXEMPT_FROM_CAD_STAND
 70
     0
  0
APPID
  5
1F129
100
AcDbSymbolTableRecord
100
AcDbRegAppTableRecord
  2
ACAD_DSTYLE_DIMTEXT_FILL
 70
     0
  0
APPID
  5
1F12A
100
AcDbSymbolTableRecord
100
AcDbRegAppTableRecord
  2
ACAD_DSTYLE_DIMEXT_LENGTH
 70
     0
  0
APPID
  5
1F12B
100
AcDbSymbolTableRecord
100
AcDbRegAppTableRecord
  2
ACAD_DSTYLE_DIMEXT_ENABLED
 70
     0
  0
APPID
  5
1F12C
100
AcDbSymbolTableRecord
100
AcDbRegAppTableRecord
  2
ACAD_DSTYLE_DIM_LINETYPE
 70
     0
  0
APPID
  5
1F12D
102
{ACAD_XDICTIONARY
360
2043B
102
}
100
AcDbSymbolTableRecord
100
AcDbRegAppTableRecord
  2
ACAD_DSTYLE_DIM_EXT1_LINET
 70
     0
  0
APPID
  5
1F12E
102
{ACAD_XDICTIONARY
360
2043D
102
}
100
AcDbSymbolTableRecord
100
AcDbRegAppTableRecord
  2
ACAD_DSTYLE_DIM_EXT2_LINET
 70
     0
  0
ENDTAB
  0
TABLE
  2
DIMSTYLE
  5
9
100
AcDbSymbolTable
 70
     2
  0
DIMSTYLE
105
18
102
{ACAD_XDICTIONARY
360
2042D
102
}
100
AcDbSymbolTableRecord
100
AcDbDimStyleTableRecord
  2
STANDARD
 70
     0
  3

  4

  5

  6

  7

 40
1.0
 41
0.18
 42
0.0625
 43
0.38
 44
0.18
 45
0.0
 46
0.0
 47
0.0
 48
0.0
140
0.18
141
0.09
142
0.0
143
25.4
144
1.0
145
0.0
146
1.0
147
0.09
 71
     0
 72
     0
 73
     1
 74
     1
 75
     0
 76
     0
 77
     0
 78
     0
170
     0
171
     2
172
     0
173
     0
174
     0
175
     0
176
     0
177
     0
178
     0
270
     2
271
     4
272
     4
273
     2
274
     2
340
17
275
     0
280
     0
281
     0
282
     0
283
     1
284
     0
285
     0
286
     0
287
     3
288
     0
  0
DIMSTYLE
105
72C
102
{ACAD_XDICTIONARY
360
2046F
102
}
102
{ACAD_REACTORS
330
1FE9D
330
1FE9E
330
1FE9F
330
1FFAB
330
1FFD8
330
1FFD9
330
1FFDA
330
20062
330
201FD
330
201DD
102
}
100
AcDbSymbolTableRecord
100
AcDbDimStyleTableRecord
  2
SC_DEFAUT
 70
     0
  3

  4

  5
OPEN30
  6

  7

 40
1.0
 41
5.0
 42
2.0
 43
0.38
 44
2.5
 45
0.0
 46
0.0
 47
0.0
 48
0.0
140
2.5
141
0.0
142
0.0
143
25.4
144
1.0
145
0.0
146
1.0
147
2.0
 71
     0
 72
     0
 73
     1
 74
     1
 75
     0
 76
     0
 77
     1
 78
    12
170
     0
171
     2
172
     0
173
     0
174
     0
175
     0
176
     0
177
     0
178
     0
270
     2
271
     1
272
     1
273
     2
274
     2
340
72B
275
     0
280
     0
281
     0
282
     0
283
     1
284
    12
285
    12
286
    12
287
     5
288
     0
  0
ENDTAB
  0
TABLE
  2
BLOCK_RECORD
  5
1
100
AcDbSymbolTable
 70
    11
  0
BLOCK_RECORD
  5
A
102
{ACAD_XDICTIONARY
360
7D7
102
}
100
AcDbSymbolTableRecord
100
AcDbBlockTableRecord
  2
*MODEL_SPACE
  0
BLOCK_RECORD
  5
B
102
{ACAD_XDICTIONARY
360
20465
102
}
100
AcDbSymbolTableRecord
100
AcDbBlockTableRecord
  2
*PAPER_SPACE
  0
BLOCK_RECORD
  5
6FA
100
AcDbSymbolTableRecord
100
AcDbBlockTableRecord
  2
_OPEN30
  0
BLOCK_RECORD
  5
1FEA0
100
AcDbSymbolTableRecord
100
AcDbBlockTableRecord
  2
*D1
  0
BLOCK_RECORD
  5
1FEAD
100
AcDbSymbolTableRecord
100
AcDbBlockTableRecord
  2
*D2
  0
BLOCK_RECORD
  5
1FEBA
100
AcDbSymbolTableRecord
100
AcDbBlockTableRecord
  2
*D3
  0
BLOCK_RECORD
  5
1FFAC
100
AcDbSymbolTableRecord
100
AcDbBlockTableRecord
  2
*D4
  0
BLOCK_RECORD
  5
1FFDB
100
AcDbSymbolTableRecord
100
AcDbBlockTableRecord
  2
*D5
  0
BLOCK_RECORD
  5
1FFE7
100
AcDbSymbolTableRecord
100
AcDbBlockTableRecord
  2
*D6
  0
BLOCK_RECORD
  5
1FFF3
100
AcDbSymbolTableRecord
100
AcDbBlockTableRecord
  2
*D7
  0
BLOCK_RECORD
  5
20063
100
AcDbSymbolTableRecord
100
AcDbBlockTableRecord
  2
*D8
  0
BLOCK_RECORD
  5
201DE
100
AcDbSymbolTableRecord
100
AcDbBlockTableRecord
  2
*D9
  0
BLOCK_RECORD
  5
201FE
100
AcDbSymbolTableRecord
100
AcDbBlockTableRecord
  2
*D10
  0
ENDTAB
  0
ENDSEC
  0
SECTION
  2
BLOCKS
  0
BLOCK
  5
D
100
AcDbEntity
  8
0
100
AcDbBlockBegin
  2
*MODEL_SPACE
 70
     0
 10
0.0
 20
0.0
 30
0.0
  3
*MODEL_SPACE
  1

  0
ENDBLK
  5
E
100
AcDbEntity
  8
0
100
AcDbBlockEnd
  0
BLOCK
  5
F
100
AcDbEntity
 67
     1
  8
0
100
AcDbBlockBegin
  2
*PAPER_SPACE
 70
     0
 10
0.0
 20
0.0
 30
0.0
  3
*PAPER_SPACE
  1

  0
ENDBLK
  5
10
100
AcDbEntity
 67
     1
  8
0
100
AcDbBlockEnd
  0
BLOCK
  5
6FB
100
AcDbEntity
  8
0
100
AcDbBlockBegin
  2
_OPEN30
 70
     0
 10
0.0
 20
0.0
 30
0.0
  3
_OPEN30
  1

  0
LINE
  5
6FC
100
AcDbEntity
  8
COTATION1
 62
     0
100
AcDbLine
 10
-1.0
 20
0.267949
 30
0.0
 11
0.0
 21
0.0
 31
0.0
1001
ACAD
1000
RTLwPs
1070
   158
  0
LINE
  5
6FD
100
AcDbEntity
  8
COTATION1
 62
     0
100
AcDbLine
 10
0.0
 20
0.0
 30
0.0
 11
-1.0
 21
-0.267949
 31
0.0
1001
ACAD
1000
RTLwPs
1070
   158
  0
LINE
  5
6FE
100
AcDbEntity
  8
COTATION1
 62
     0
100
AcDbLine
 10
0.0
 20
0.0
 30
0.0
 11
-1.0
 21
0.0
 31
0.0
1001
ACAD
1000
RTLwPs
1070
   158
  0
ENDBLK
  5
6FF
100
AcDbEntity
  8
0
100
AcDbBlockEnd
  0
BLOCK
  5
1FEAB
100
AcDbEntity
  8
0
100
AcDbBlockBegin
  2
*D1
 70
     1
 10
0.0
 20
0.0
 30
0.0
  3
*D1
  1

1001
ACAD
1000
RTLwPs
1070
   128
  0
LINE
  5
203B3
100
AcDbEntity
  8
COTATION1
 62
     0
100
AcDbLine
 10
159.327914
 20
137.897337
 30
0.0
 11
183.86968
 21
137.897337
 31
0.0
1001
ACAD
1000
RTLwPs
1070
   158
  0
LINE
  5
203B4
100
AcDbEntity
  8
COTATION1
 62
     0
100
AcDbLine
 10
137.61968
 20
175.397337
 30
0.0
 11
183.86968
 21
175.397337
 31
0.0
1001
ACAD
1000
RTLwPs
1070
   158
  0
LINE
  5
203B5
100
AcDbEntity
  8
COTATION1
 62
     0
100
AcDbLine
 10
181.36968
 20
142.897337
 30
0.0
 11
181.36968
 21
153.397337
 31
0.0
1001
ACAD
1000
RTLwPs
1070
   158
  0
LINE
  5
203B6
100
AcDbEntity
  8
COTATION1
 62
     0
100
AcDbLine
 10
181.36968
 20
170.397337
 30
0.0
 11
181.36968
 21
159.897337
 31
0.0
1001
ACAD
1000
RTLwPs
1070
   158
  0
INSERT
  5
203B7
100
AcDbEntity
  8
COTATION1
 62
     0
100
AcDbBlockReference
  2
_OPEN30
 10
181.36968
 20
137.897337
 30
0.0
 41
5.0
 42
5.0
 43
5.0
 50
270.0
1001
ACAD
1000
RTLwPs
1070
   158
  0
INSERT
  5
203B8
100
AcDbEntity
  8
COTATION1
 62
     0
100
AcDbBlockReference
  2
_OPEN30
 10
181.36968
 20
175.397337
 30
0.0
 41
5.0
 42
5.0
 43
5.0
 50
90.0
1001
ACAD
1000
RTLwPs
1070
   158
  0
MTEXT
  5
203B9
100
AcDbEntity
  8
COTATION1
 62
     0
100
AcDbMText
 10
181.36968
 20
156.647337
 30
0.0
 40
2.5
 41
0.0
 71
     5
 72
     1
  1
\A1;=
  7
ROMANS
1001
ACAD
1000
MTEXTBEGIN
1070
    73
1070
     1
1070
    44
1040
1.0
1070
    74
1070
     0
1000
MTEXTEND
1000
MTEXTBEGIN
1070
    73
1070
     1
1070
    44
1040
1.0
1070
    74
1070
     0
1000
MTEXTEND
  0
POINT
  5
203BA
100
AcDbEntity
  8
DEFPOINTS
 62
     0
100
AcDbPoint
 10
157.327914
 20
137.897337
 30
0.0
1001
ACAD
1000
RTLwPs
1070
   128
  0
POINT
  5
203BB
100
AcDbEntity
  8
DEFPOINTS
 62
     0
100
AcDbPoint
 10
135.61968
 20
175.397337
 30
0.0
1001
ACAD
1000
RTLwPs
1070
   128
  0
POINT
  5
203BC
100
AcDbEntity
  8
DEFPOINTS
 62
     0
100
AcDbPoint
 10
181.36968
 20
175.397337
 30
0.0
1001
ACAD
1000
RTLwPs
1070
   128
  0
ENDBLK
  5
1FEAC
100
AcDbEntity
  8
0
100
AcDbBlockEnd
1001
ACAD
1000
RTLwPs
1070
   128
  0
BLOCK
  5
1FEB8
100
AcDbEntity
  8
0
100
AcDbBlockBegin
  2
*D2
 70
     1
 10
0.0
 20
0.0
 30
0.0
  3
*D2
  1

1001
ACAD
1000
RTLwPs
1070
   128
  0
LINE
  5
203BD
100
AcDbEntity
  8
COTATION1
 62
     0
100
AcDbLine
 10
137.61968
 20
175.397337
 30
0.0
 11
193.86968
 21
175.397337
 31
0.0
1001
ACAD
1000
RTLwPs
1070
   158
  0
LINE
  5
203BE
100
AcDbEntity
  8
COTATION1
 62
     0
100
AcDbLine
 10
137.61968
 20
100.397337
 30
0.0
 11
193.86968
 21
100.397337
 31
0.0
1001
ACAD
1000
RTLwPs
1070
   158
  0
LINE
  5
203BF
100
AcDbEntity
  8
COTATION1
 62
     0
100
AcDbLine
 10
191.36968
 20
170.397337
 30
0.0
 11
191.36968
 21
141.147337
 31
0.0
1001
ACAD
1000
RTLwPs
1070
   158
  0
LINE
  5
203C0
100
AcDbEntity
  8
COTATION1
 62
     0
100
AcDbLine
 10
191.36968
 20
105.397337
 30
0.0
 11
191.36968
 21
134.647337
 31
0.0
1001
ACAD
1000
RTLwPs
1070
   158
  0
INSERT
  5
203C1
100
AcDbEntity
  8
COTATION1
 62
     0
100
AcDbBlockReference
  2
_OPEN30
 10
191.36968
 20
175.397337
 30
0.0
 41
5.0
 42
5.0
 43
5.0
 50
90.0
1001
ACAD
1000
RTLwPs
1070
   158
  0
INSERT
  5
203C2
100
AcDbEntity
  8
COTATION1
 62
     0
100
AcDbBlockReference
  2
_OPEN30
 10
191.36968
 20
100.397337
 30
0.0
 41
5.0
 42
5.0
 43
5.0
 50
270.0
1001
ACAD
1000
RTLwPs
1070
   158
  0
MTEXT
  5
203C3
100
AcDbEntity
  8
COTATION1
 62
     0
100
AcDbMText
 10
191.36968
 20
137.897337
 30
0.0
 40
2.5
 41
0.0
 71
     5
 72
     1
  1
\A1;75
  7
ROMANS
1001
ACAD
1000
MTEXTBEGIN
1070
    73
1070
     1
1070
    44
1040
1.0
1070
    74
1070
     0
1000
MTEXTEND
1000
MTEXTBEGIN
1070
    73
1070
     1
1070
    44
1040
1.0
1070
    74
1070
     0
1000
MTEXTEND
  0
POINT
  5
203C4
100
AcDbEntity
  8
DEFPOINTS
 62
     0
100
AcDbPoint
 10
135.61968
 20
175.397337
 30
0.0
1001
ACAD
1000
RTLwPs
1070
   128
  0
POINT
  5
203C5
100
AcDbEntity
  8
DEFPOINTS
 62
     0
100
AcDbPoint
 10
135.61968
 20
100.397337
 30
0.0
1001
ACAD
1000
RTLwPs
1070
   128
  0
POINT
  5
203C6
100
AcDbEntity
  8
DEFPOINTS
 62
     0
100
AcDbPoint
 10
191.36968
 20
100.397337
 30
0.0
1001
ACAD
1000
RTLwPs
1070
   128
  0
ENDBLK
  5
1FEB9
100
AcDbEntity
  8
0
100
AcDbBlockEnd
1001
ACAD
1000
RTLwPs
1070
   128
  0
BLOCK
  5
1FEC5
100
AcDbEntity
  8
0
100
AcDbBlockBegin
  2
*D3
 70
     1
 10
0.0
 20
0.0
 30
0.0
  3
*D3
  1

1001
ACAD
1000
RTLwPs
1070
   128
  0
LINE
  5
203C7
100
AcDbEntity
  8
COTATION1
 62
     0
100
AcDbLine
 10
97.86968
 20
128.897337
 30
0.0
 11
173.86968
 21
128.897337
 31
0.0
1001
ACAD
1000
RTLwPs
1070
   158
  0
LINE
  5
203C8
100
AcDbEntity
  8
COTATION1
 62
     0
100
AcDbLine
 10
159.327914
 20
137.897337
 30
0.0
 11
173.86968
 21
137.897337
 31
0.0
1001
ACAD
1000
RTLwPs
1070
   158
  0
LINE
  5
203C9
100
AcDbEntity
  8
COTATION1
 62
     0
100
AcDbLine
 10
171.36968
 20
123.897337
 30
0.0
 11
171.36968
 21
118.897337
 31
0.0
1001
ACAD
1000
RTLwPs
1070
   158
  0
LINE
  5
203CA
100
AcDbEntity
  8
COTATION1
 62
     0
100
AcDbLine
 10
171.36968
 20
142.897337
 30
0.0
 11
171.36968
 21
147.897337
 31
0.0
1001
ACAD
1000
RTLwPs
1070
   158
  0
INSERT
  5
203CB
100
AcDbEntity
  8
COTATION1
 62
     0
100
AcDbBlockReference
  2
_OPEN30
 10
171.36968
 20
128.897337
 30
0.0
 41
5.0
 42
5.0
 43
5.0
 50
90.0
1001
ACAD
1000
RTLwPs
1070
   158
  0
INSERT
  5
203CC
100
AcDbEntity
  8
COTATION1
 62
     0
100
AcDbBlockReference
  2
_OPEN30
 10
171.36968
 20
137.897337
 30
0.0
 41
5.0
 42
5.0
 43
5.0
 50
270.0
1001
ACAD
1000
RTLwPs
1070
   158
  0
MTEXT
  5
203CD
100
AcDbEntity
  8
COTATION1
 62
     0
100
AcDbMText
 10
171.36968
 20
133.397337
 30
0.0
 40
2.5
 41
0.0
 71
     5
 72
     1
  1
\A1;9
  7
ROMANS
1001
ACAD
1000
MTEXTBEGIN
1070
    73
1070
     1
1070
    44
1040
1.0
1070
    74
1070
     0
1000
MTEXTEND
1000
MTEXTBEGIN
1070
    73
1070
     1
1070
    44
1040
1.0
1070
    74
1070
     0
1000
MTEXTEND
  0
POINT
  5
203CE
100
AcDbEntity
  8
DEFPOINTS
 62
     0
100
AcDbPoint
 10
95.86968
 20
128.897337
 30
0.0
1001
ACAD
1000
RTLwPs
1070
   128
  0
POINT
  5
203CF
100
AcDbEntity
  8
DEFPOINTS
 62
     0
100
AcDbPoint
 10
157.327914
 20
137.897337
 30
0.0
1001
ACAD
1000
RTLwPs
1070
   128
  0
POINT
  5
203D0
100
AcDbEntity
  8
DEFPOINTS
 62
     0
100
AcDbPoint
 10
171.36968
 20
137.897337
 30
0.0
1001
ACAD
1000
RTLwPs
1070
   128
  0
ENDBLK
  5
1FEC6
100
AcDbEntity
  8
0
100
AcDbBlockEnd
1001
ACAD
1000
RTLwPs
1070
   128
  0
BLOCK
  5
1FFB7
100
AcDbEntity
  8
0
100
AcDbBlockBegin
  2
*D4
 70
     1
 10
0.0
 20
0.0
 30
0.0
  3
*D4
  1

1001
ACAD
1000
RTLwPs
1070
   128
  0
LINE
  5
203D1
100
AcDbEntity
  8
COTATION1
 62
     0
100
AcDbLine
 10
137.61968
 20
100.397337
 30
0.0
 11
183.86968
 21
100.397337
 31
0.0
1001
ACAD
1000
RTLwPs
1070
   158
  0
LINE
  5
203D2
100
AcDbEntity
  8
COTATION1
 62
     0
100
AcDbLine
 10
159.327914
 20
137.897337
 30
0.0
 11
183.86968
 21
137.897337
 31
0.0
1001
ACAD
1000
RTLwPs
1070
   158
  0
LINE
  5
203D3
100
AcDbEntity
  8
COTATION1
 62
     0
100
AcDbLine
 10
181.36968
 20
105.397337
 30
0.0
 11
181.36968
 21
115.897337
 31
0.0
1001
ACAD
1000
RTLwPs
1070
   158
  0
LINE
  5
203D4
100
AcDbEntity
  8
COTATION1
 62
     0
100
AcDbLine
 10
181.36968
 20
132.897337
 30
0.0
 11
181.36968
 21
122.397337
 31
0.0
1001
ACAD
1000
RTLwPs
1070
   158
  0
INSERT
  5
203D5
100
AcDbEntity
  8
COTATION1
 62
     0
100
AcDbBlockReference
  2
_OPEN30
 10
181.36968
 20
100.397337
 30
0.0
 41
5.0
 42
5.0
 43
5.0
 50
270.0
1001
ACAD
1000
RTLwPs
1070
   158
  0
INSERT
  5
203D6
100
AcDbEntity
  8
COTATION1
 62
     0
100
AcDbBlockReference
  2
_OPEN30
 10
181.36968
 20
137.897337
 30
0.0
 41
5.0
 42
5.0
 43
5.0
 50
90.0
1001
ACAD
1000
RTLwPs
1070
   158
  0
MTEXT
  5
203D7
100
AcDbEntity
  8
COTATION1
 62
     0
100
AcDbMText
 10
181.36968
 20
119.147337
 30
0.0
 40
2.5
 41
0.0
 71
     5
 72
     1
  1
\A1;=
  7
ROMANS
1001
ACAD
1000
MTEXTBEGIN
1070
    73
1070
     1
1070
    44
1040
1.0
1070
    74
1070
     0
1000
MTEXTEND
1000
MTEXTBEGIN
1070
    73
1070
     1
1070
    44
1040
1.0
1070
    74
1070
     0
1000
MTEXTEND
  0
POINT
  5
203D8
100
AcDbEntity
  8
DEFPOINTS
 62
     0
100
AcDbPoint
 10
135.61968
 20
100.397337
 30
0.0
1001
ACAD
1000
RTLwPs
1070
   128
  0
POINT
  5
203D9
100
AcDbEntity
  8
DEFPOINTS
 62
     0
100
AcDbPoint
 10
157.327914
 20
137.897337
 30
0.0
1001
ACAD
1000
RTLwPs
1070
   128
  0
POINT
  5
203DA
100
AcDbEntity
  8
DEFPOINTS
 62
     0
100
AcDbPoint
 10
181.36968
 20
137.897337
 30
0.0
1001
ACAD
1000
RTLwPs
1070
   128
  0
ENDBLK
  5
1FFB8
100
AcDbEntity
  8
0
100
AcDbBlockEnd
1001
ACAD
1000
RTLwPs
1070
   128
  0
BLOCK
  5
1FFE5
100
AcDbEntity
  8
0
100
AcDbBlockBegin
  2
*D5
 70
     1
 10
0.0
 20
0.0
 30
0.0
  3
*D5
  1

1001
ACAD
1000
RTLwPs
1070
   128
  0
LINE
  5
203DB
100
AcDbEntity
  8
COTATION1
 62
     0
100
AcDbLine
 10
135.61968
 20
98.397337
 30
0.0
 11
135.61968
 21
20.897337
 31
0.0
1001
ACAD
1000
RTLwPs
1070
   158
  0
LINE
  5
203DC
100
AcDbEntity
  8
COTATION1
 62
     0
100
AcDbLine
 10
98.11968
 20
83.397337
 30
0.0
 11
98.11968
 21
20.897337
 31
0.0
1001
ACAD
1000
RTLwPs
1070
   158
  0
LINE
  5
203DD
100
AcDbEntity
  8
COTATION1
 62
     0
100
AcDbLine
 10
130.61968
 20
23.397337
 30
0.0
 11
103.11968
 21
23.397337
 31
0.0
1001
ACAD
1000
RTLwPs
1070
   158
  0
INSERT
  5
203DE
100
AcDbEntity
  8
COTATION1
 62
     0
100
AcDbBlockReference
  2
_OPEN30
 10
135.61968
 20
23.397337
 30
0.0
 41
5.0
 42
5.0
 43
5.0
1001
ACAD
1000
RTLwPs
1070
   158
  0
INSERT
  5
203DF
100
AcDbEntity
  8
COTATION1
 62
     0
100
AcDbBlockReference
  2
_OPEN30
 10
98.11968
 20
23.397337
 30
0.0
 41
5.0
 42
5.0
 43
5.0
 50
180.0
1001
ACAD
1000
RTLwPs
1070
   158
  0
MTEXT
  5
203E0
100
AcDbEntity
  8
COTATION1
 62
     0
100
AcDbMText
 10
116.86968
 20
26.647337
 30
0.0
 40
2.5
 41
0.0
 71
     5
 72
     1
  1
\A1;=
  7
ROMANS
1001
ACAD
1000
MTEXTBEGIN
1070
    73
1070
     1
1070
    44
1040
1.0
1070
    74
1070
     0
1000
MTEXTEND
1000
MTEXTBEGIN
1070
    73
1070
     1
1070
    44
1040
1.0
1070
    74
1070
     0
1000
MTEXTEND
  0
POINT
  5
203E1
100
AcDbEntity
  8
DEFPOINTS
 62
     0
100
AcDbPoint
 10
135.61968
 20
100.397337
 30
0.0
1001
ACAD
1000
RTLwPs
1070
   128
  0
POINT
  5
203E2
100
AcDbEntity
  8
DEFPOINTS
 62
     0
100
AcDbPoint
 10
98.11968
 20
85.397337
 30
0.0
1001
ACAD
1000
RTLwPs
1070
   128
  0
POINT
  5
203E3
100
AcDbEntity
  8
DEFPOINTS
 62
     0
100
AcDbPoint
 10
98.11968
 20
23.397337
 30
0.0
1001
ACAD
1000
RTLwPs
1070
   128
  0
ENDBLK
  5
1FFE6
100
AcDbEntity
  8
0
100
AcDbBlockEnd
1001
ACAD
1000
RTLwPs
1070
   128
  0
BLOCK
  5
1FFF1
100
AcDbEntity
  8
0
100
AcDbBlockBegin
  2
*D6
 70
     1
 10
0.0
 20
0.0
 30
0.0
  3
*D6
  1

1001
ACAD
1000
RTLwPs
1070
   128
  0
LINE
  5
203E4
100
AcDbEntity
  8
COTATION1
 62
     0
100
AcDbLine
 10
135.61968
 20
98.397337
 30
0.0
 11
135.61968
 21
5.897337
 31
0.0
1001
ACAD
1000
RTLwPs
1070
   158
  0
LINE
  5
203E5
100
AcDbEntity
  8
COTATION1
 62
     0
100
AcDbLine
 10
60.61968
 20
98.397337
 30
0.0
 11
60.61968
 21
5.897337
 31
0.0
1001
ACAD
1000
RTLwPs
1070
   158
  0
LINE
  5
203E6
100
AcDbEntity
  8
COTATION1
 62
     0
100
AcDbLine
 10
130.61968
 20
8.397337
 30
0.0
 11
65.61968
 21
8.397337
 31
0.0
1001
ACAD
1000
RTLwPs
1070
   158
  0
INSERT
  5
203E7
100
AcDbEntity
  8
COTATION1
 62
     0
100
AcDbBlockReference
  2
_OPEN30
 10
135.61968
 20
8.397337
 30
0.0
 41
5.0
 42
5.0
 43
5.0
1001
ACAD
1000
RTLwPs
1070
   158
  0
INSERT
  5
203E8
100
AcDbEntity
  8
COTATION1
 62
     0
100
AcDbBlockReference
  2
_OPEN30
 10
60.61968
 20
8.397337
 30
0.0
 41
5.0
 42
5.0
 43
5.0
 50
180.0
1001
ACAD
1000
RTLwPs
1070
   158
  0
MTEXT
  5
203E9
100
AcDbEntity
  8
COTATION1
 62
     0
100
AcDbMText
 10
98.11968
 20
11.647337
 30
0.0
 40
2.5
 41
0.0
 71
     5
 72
     1
  1
\A1;75
  7
ROMANS
1001
ACAD
1000
MTEXTBEGIN
1070
    73
1070
     1
1070
    44
1040
1.0
1070
    74
1070
     0
1000
MTEXTEND
1000
MTEXTBEGIN
1070
    73
1070
     1
1070
    44
1040
1.0
1070
    74
1070
     0
1000
MTEXTEND
  0
POINT
  5
203EA
100
AcDbEntity
  8
DEFPOINTS
 62
     0
100
AcDbPoint
 10
135.61968
 20
100.397337
 30
0.0
1001
ACAD
1000
RTLwPs
1070
   128
  0
POINT
  5
203EB
100
AcDbEntity
  8
DEFPOINTS
 62
     0
100
AcDbPoint
 10
60.61968
 20
100.397337
 30
0.0
1001
ACAD
1000
RTLwPs
1070
   128
  0
POINT
  5
203EC
100
AcDbEntity
  8
DEFPOINTS
 62
     0
100
AcDbPoint
 10
60.61968
 20
8.397337
 30
0.0
1001
ACAD
1000
RTLwPs
1070
   128
  0
ENDBLK
  5
1FFF2
100
AcDbEntity
  8
0
100
AcDbBlockEnd
1001
ACAD
1000
RTLwPs
1070
   128
  0
BLOCK
  5
1FFFD
100
AcDbEntity
  8
0
100
AcDbBlockBegin
  2
*D7
 70
     1
 10
0.0
 20
0.0
 30
0.0
  3
*D7
  1

1001
ACAD
1000
RTLwPs
1070
   128
  0
LINE
  5
203ED
100
AcDbEntity
  8
COTATION1
 62
     0
100
AcDbLine
 10
98.11968
 20
83.397337
 30
0.0
 11
98.11968
 21
20.897337
 31
0.0
1001
ACAD
1000
RTLwPs
1070
   158
  0
LINE
  5
203EE
100
AcDbEntity
  8
COTATION1
 62
     0
100
AcDbLine
 10
60.61968
 20
98.397337
 30
0.0
 11
60.61968
 21
20.897337
 31
0.0
1001
ACAD
1000
RTLwPs
1070
   158
  0
LINE
  5
203EF
100
AcDbEntity
  8
COTATION1
 62
     0
100
AcDbLine
 10
93.11968
 20
23.397337
 30
0.0
 11
65.61968
 21
23.397337
 31
0.0
1001
ACAD
1000
RTLwPs
1070
   158
  0
INSERT
  5
203F0
100
AcDbEntity
  8
COTATION1
 62
     0
100
AcDbBlockReference
  2
_OPEN30
 10
98.11968
 20
23.397337
 30
0.0
 41
5.0
 42
5.0
 43
5.0
1001
ACAD
1000
RTLwPs
1070
   158
  0
INSERT
  5
203F1
100
AcDbEntity
  8
COTATION1
 62
     0
100
AcDbBlockReference
  2
_OPEN30
 10
60.61968
 20
23.397337
 30
0.0
 41
5.0
 42
5.0
 43
5.0
 50
180.0
1001
ACAD
1000
RTLwPs
1070
   158
  0
MTEXT
  5
203F2
100
AcDbEntity
  8
COTATION1
 62
     0
100
AcDbMText
 10
79.36968
 20
26.647337
 30
0.0
 40
2.5
 41
0.0
 71
     5
 72
     1
  1
\A1;=
  7
ROMANS
1001
ACAD
1000
MTEXTBEGIN
1070
    73
1070
     1
1070
    44
1040
1.0
1070
    74
1070
     0
1000
MTEXTEND
1000
MTEXTBEGIN
1070
    73
1070
     1
1070
    44
1040
1.0
1070
    74
1070
     0
1000
MTEXTEND
  0
POINT
  5
203F3
100
AcDbEntity
  8
DEFPOINTS
 62
     0
100
AcDbPoint
 10
98.11968
 20
85.397337
 30
0.0
1001
ACAD
1000
RTLwPs
1070
   128
  0
POINT
  5
203F4
100
AcDbEntity
  8
DEFPOINTS
 62
     0
100
AcDbPoint
 10
60.61968
 20
100.397337
 30
0.0
1001
ACAD
1000
RTLwPs
1070
   128
  0
POINT
  5
203F5
100
AcDbEntity
  8
DEFPOINTS
 62
     0
100
AcDbPoint
 10
60.61968
 20
23.397337
 30
0.0
1001
ACAD
1000
RTLwPs
1070
   128
  0
ENDBLK
  5
1FFFE
100
AcDbEntity
  8
0
100
AcDbBlockEnd
1001
ACAD
1000
RTLwPs
1070
   128
  0
BLOCK
  5
2006D
100
AcDbEntity
  8
0
100
AcDbBlockBegin
  2
*D8
 70
     1
 10
0.0
 20
0.0
 30
0.0
  3
*D8
  1

1001
ACAD
1000
RTLwPs
1070
   128
  0
LINE
  5
20418
100
AcDbEntity
  8
COTATION1
 62
     0
100
AcDbLine
 10
98.11968
 20
174.397337
 30
0.0
 11
98.11968
 21
246.897337
 31
0.0
1001
ACAD
1000
RTLwPs
1070
   158
  0
LINE
  5
20419
100
AcDbEntity
  8
COTATION1
 62
     0
100
AcDbLine
 10
88.86968
 20
137.897337
 30
0.0
 11
88.86968
 21
246.897337
 31
0.0
1001
ACAD
1000
RTLwPs
1070
   158
  0
LINE
  5
2041A
100
AcDbEntity
  8
COTATION1
 62
     0
100
AcDbLine
 10
103.11968
 20
244.397337
 30
0.0
 11
108.11968
 21
244.397337
 31
0.0
1001
ACAD
1000
RTLwPs
1070
   158
  0
LINE
  5
2041B
100
AcDbEntity
  8
COTATION1
 62
     0
100
AcDbLine
 10
83.86968
 20
244.397337
 30
0.0
 11
78.86968
 21
244.397337
 31
0.0
1001
ACAD
1000
RTLwPs
1070
   158
  0
MTEXT
  5
2041C
100
AcDbEntity
  8
COTATION1
 62
     0
100
AcDbMText
 10
108.11968
 20
247.607794
 30
0.0
 40
2.5
 41
0.0
 71
     5
 72
     1
  1
\A1;9.25
  7
ROMANS
1001
ACAD
1000
MTEXTBEGIN
1070
    73
1070
     1
1070
    44
1040
1.0
1070
    74
1070
     0
1000
MTEXTEND
1000
MTEXTBEGIN
1070
    73
1070
     1
1070
    44
1040
1.0
1070
    74
1070
     0
1000
MTEXTEND
  0
INSERT
  5
2041D
100
AcDbEntity
  8
COTATION1
 62
     0
100
AcDbBlockReference
  2
_OPEN30
 10
98.11968
 20
244.397337
 30
0.0
 41
5.0
 42
5.0
 43
5.0
 50
180.0
1001
ACAD
1000
RTLwPs
1070
   158
  0
INSERT
  5
2041E
100
AcDbEntity
  8
COTATION1
 62
     0
100
AcDbBlockReference
  2
_OPEN30
 10
88.86968
 20
244.397337
 30
0.0
 41
5.0
 42
5.0
 43
5.0
1001
ACAD
1000
RTLwPs
1070
   158
  0
POINT
  5
2041F
100
AcDbEntity
  8
DEFPOINTS
 62
     0
100
AcDbPoint
 10
98.11968
 20
172.397337
 30
0.0
1001
ACAD
1000
RTLwPs
1070
   128
  0
POINT
  5
20420
100
AcDbEntity
  8
DEFPOINTS
 62
     0
100
AcDbPoint
 10
88.86968
 20
135.897337
 30
0.0
1001
ACAD
1000
RTLwPs
1070
   128
  0
POINT
  5
20421
100
AcDbEntity
  8
DEFPOINTS
 62
     0
100
AcDbPoint
 10
88.86968
 20
244.397337
 30
0.0
1001
ACAD
1000
RTLwPs
1070
   128
  0
ENDBLK
  5
2006E
100
AcDbEntity
  8
0
100
AcDbBlockEnd
1001
ACAD
1000
RTLwPs
1070
   128
  0
BLOCK
  5
201EB
100
AcDbEntity
  8
0
100
AcDbBlockBegin
  2
*D9
 70
     1
 10
0.0
 20
0.0
 30
0.0
  3
*D9
  1

1001
ACAD
1000
RTLwPs
1070
   128
  0
LINE
  5
20473
100
AcDbEntity
  8
COTATION1
 62
     0
100
AcDbLine
 10
79.61968
 20
170.190277
 30
0.0
 11
69.305767
 21
188.054498
 31
0.0
  0
LINE
  5
20474
100
AcDbEntity
  8
COTATION1
 62
     0
100
AcDbLine
 10
48.61968
 20
137.897337
 30
0.0
 11
40.347516
 21
137.897337
 31
0.0
  0
ARC
  5
20475
100
AcDbEntity
  8
COTATION1
 62
     0
100
AcDbCircle
 10
98.264017
 20
137.897337
 30
0.0
 40
55.416501
100
AcDbArc
 50
125.171315
 51
146.037734
  0
ARC
  5
20476
100
AcDbEntity
  8
COTATION1
 62
     0
100
AcDbCircle
 10
98.264017
 20
137.897337
 30
0.0
 40
55.416501
100
AcDbArc
 50
153.809747
 51
174.828685
  0
INSERT
  5
20477
100
AcDbEntity
  8
COTATION1
 62
     0
100
AcDbBlockReference
  2
_OPEN30
 10
70.555767
 20
185.889435
 30
0.0
 41
5.0
 42
5.0
 43
5.0
 50
32.585657
  0
INSERT
  5
20478
100
AcDbEntity
  8
COTATION1
 62
     0
100
AcDbBlockReference
  2
_OPEN30
 10
42.847516
 20
137.897337
 30
0.0
 41
5.0
 42
5.0
 43
5.0
 50
267.414343
  0
MTEXT
  5
20479
100
AcDbEntity
  8
COTATION1
 62
     0
100
AcDbMText
 10
50.271919
 20
165.605588
 30
0.0
 40
2.5
 41
0.0
 71
     5
 72
     1
  1
\A1;60°
  7
ROMANS
  0
POINT
  5
2047A
100
AcDbEntity
  8
DEFPOINTS
 62
     0
100
AcDbPoint
 10
55.812514
 20
173.518377
 30
0.0
  0
POINT
  5
2047B
100
AcDbEntity
  8
DEFPOINTS
 62
     0
100
AcDbPoint
 10
98.11968
 20
138.147337
 30
0.0
  0
POINT
  5
2047C
100
AcDbEntity
  8
DEFPOINTS
 62
     0
100
AcDbPoint
 10
157.327914
 20
137.897337
 30
0.0
  0
POINT
  5
2047D
100
AcDbEntity
  8
DEFPOINTS
 62
     0
100
AcDbPoint
 10
50.61968
 20
137.897337
 30
0.0
  0
POINT
  5
2047E
100
AcDbEntity
  8
DEFPOINTS
 62
     0
100
AcDbPoint
 10
80.61968
 20
168.458226
 30
0.0
  0
ENDBLK
  5
201EC
100
AcDbEntity
  8
0
100
AcDbBlockEnd
1001
ACAD
1000
RTLwPs
1070
   128
  0
BLOCK
  5
2020A
100
AcDbEntity
  8
0
100
AcDbBlockBegin
  2
*D10
 70
     1
 10
0.0
 20
0.0
 30
0.0
  3
*D10
  1

1001
ACAD
1000
RTLwPs
1070
   128
  0
LINE
  5
2047F
100
AcDbEntity
  8
COTATION1
 62
     0
100
AcDbLine
 10
41.040068
 20
137.897337
 30
0.0
 11
40.286853
 21
137.897337
 31
0.0
  0
LINE
  5
20480
100
AcDbEntity
  8
COTATION1
 62
     0
100
AcDbLine
 10
79.61968
 20
106.104397
 30
0.0
 11
69.131098
 21
87.93764
 31
0.0
  0
ARC
  5
20481
100
AcDbEntity
  8
COTATION1
 62
     0
100
AcDbCircle
 10
97.975342
 20
137.897337
 30
0.0
 40
55.188489
100
AcDbArc
 50
185.192695
 51
206.174783
  0
ARC
  5
20482
100
AcDbEntity
  8
COTATION1
 62
     0
100
AcDbCircle
 10
97.975342
 20
137.897337
 30
0.0
 40
55.188489
100
AcDbArc
 50
213.979006
 51
234.807305
  0
INSERT
  5
20483
100
AcDbEntity
  8
COTATION1
 62
     0
100
AcDbBlockReference
  2
_OPEN30
 10
42.786853
 20
137.897337
 30
0.0
 41
5.0
 42
5.0
 43
5.0
 50
92.596347
  0
INSERT
  5
20484
100
AcDbEntity
  8
COTATION1
 62
     0
100
AcDbBlockReference
  2
_OPEN30
 10
70.381098
 20
90.102704
 30
0.0
 41
5.0
 42
5.0
 43
5.0
 50
327.403653
  0
MTEXT
  5
20485
100
AcDbEntity
  8
COTATION1
 62
     0
100
AcDbMText
 10
50.180709
 20
110.303093
 30
0.0
 40
2.5
 41
0.0
 71
     5
 72
     1
  1
\A1;60°
  7
ROMANS
  0
POINT
  5
20486
100
AcDbEntity
  8
DEFPOINTS
 62
     0
100
AcDbPoint
 10
46.115126
 20
119.021762
 30
0.0
  0
POINT
  5
20487
100
AcDbEntity
  8
DEFPOINTS
 62
     0
100
AcDbPoint
 10
157.327914
 20
137.897337
 30
0.0
  0
POINT
  5
20488
100
AcDbEntity
  8
DEFPOINTS
 62
     0
100
AcDbPoint
 10
98.11968
 20
138.147337
 30
0.0
  0
POINT
  5
20489
100
AcDbEntity
  8
DEFPOINTS
 62
     0
100
AcDbPoint
 10
80.61968
 20
107.836448
 30
0.0
  0
POINT
  5
2048A
100
AcDbEntity
  8
DEFPOINTS
 62
     0
100
AcDbPoint
 10
43.040068
 20
137.897337
 30
0.0
  0
ENDBLK
  5
2020B
100
AcDbEntity
  8
0
100
AcDbBlockEnd
1001
ACAD
1000
RTLwPs
1070
   128
  0
ENDSEC
  0
SECTION
  2
ENTITIES
  0
LINE
  5
1FE48
100
AcDbEntity
  8
AXE
100
AcDbLine
 10
13.86968
 20
48.397337
 30
0.0
 11
13.86968
 21
219.397337
 31
0.0
  0
LINE
  5
1FE49
100
AcDbEntity
  8
AXE
100
AcDbLine
 10
13.86968
 20
219.397337
 30
0.0
 11
163.86968
 21
219.397337
 31
0.0
  0
LINE
  5
1FE4A
100
AcDbEntity
  8
AXE
100
AcDbLine
 10
13.86968
 20
48.397337
 30
0.0
 11
163.86968
 21
48.397337
 31
0.0
  0
LINE
  5
1FE4B
100
AcDbEntity
  8
AXE
100
AcDbLine
 10
163.86968
 20
48.397337
 30
0.0
 11
163.86968
 21
219.397337
 31
0.0
  0
LINE
  5
1FE4E
100
AcDbEntity
  8
AXE
100
AcDbLine
 10
36.36968
 20
209.397337
 30
0.0
 11
48.86968
 21
209.397337
 31
0.0
  0
LINE
  5
1FE4F
100
AcDbEntity
  8
AXE
100
AcDbLine
 10
58.86968
 20
209.397337
 30
0.0
 11
83.86968
 21
209.397337
 31
0.0
  0
LINE
  5
1FE50
100
AcDbEntity
  8
AXE
100
AcDbLine
 10
93.86968
 20
209.397337
 30
0.0
 11
118.86968
 21
209.397337
 31
0.0
  0
LINE
  5
1FE51
100
AcDbEntity
  8
AXE
100
AcDbLine
 10
128.86968
 20
209.397337
 30
0.0
 11
141.36968
 21
209.397337
 31
0.0
  0
LINE
  5
1FE53
100
AcDbEntity
  8
AXE
100
AcDbLine
 10
141.36968
 20
182.397337
 30
0.0
 11
36.36968
 21
182.397337
 31
0.0
  0
LINE
  5
1FE54
100
AcDbEntity
  8
AXE
100
AcDbLine
 10
83.86968
 20
209.397337
 30
0.0
 11
83.86968
 21
197.897337
 31
0.0
  0
ARC
  5
1FE55
100
AcDbEntity
  8
AXE
100
AcDbCircle
 10
88.86968
 20
197.897337
 30
0.0
 40
5.0
100
AcDbArc
 50
180.0
 51
270.0
  0
LINE
  5
1FE56
100
AcDbEntity
  8
AXE
100
AcDbLine
 10
93.86968
 20
209.397337
 30
0.0
 11
93.86968
 21
197.897337
 31
0.0
  0
ARC
  5
1FE57
100
AcDbEntity
  8
AXE
100
AcDbCircle
 10
88.86968
 20
197.897337
 30
0.0
 40
5.0
100
AcDbArc
 50
270.0
 51
0.0
  0
LINE
  5
1FE58
100
AcDbEntity
  8
AXE
100
AcDbLine
 10
118.86968
 20
209.397337
 30
0.0
 11
118.86968
 21
197.897337
 31
0.0
  0
ARC
  5
1FE59
100
AcDbEntity
  8
AXE
100
AcDbCircle
 10
123.86968
 20
197.897337
 30
0.0
 40
5.0
100
AcDbArc
 50
180.0
 51
270.0
  0
LINE
  5
1FE5A
100
AcDbEntity
  8
AXE
100
AcDbLine
 10
128.86968
 20
209.397337
 30
0.0
 11
128.86968
 21
197.897337
 31
0.0
  0
ARC
  5
1FE5B
100
AcDbEntity
  8
AXE
100
AcDbCircle
 10
123.86968
 20
197.897337
 30
0.0
 40
5.0
100
AcDbArc
 50
270.0
 51
0.0
  0
LINE
  5
1FE5C
100
AcDbEntity
  8
AXE
100
AcDbLine
 10
106.36968
 20
202.397337
 30
0.0
 11
106.36968
 21
180.397337
 31
0.0
  0
CIRCLE
  5
1FE5D
100
AcDbEntity
  8
AXE
100
AcDbCircle
 10
106.36968
 20
191.397337
 30
0.0
 40
5.0
  0
LINE
  5
1FE5F
100
AcDbEntity
  8
AXE
100
AcDbLine
 10
58.86968
 20
48.397337
 30
0.0
 11
83.86968
 21
48.397337
 31
0.0
  0
LINE
  5
1FE60
100
AcDbEntity
  8
AXE
100
AcDbLine
 10
93.86968
 20
48.397337
 30
0.0
 11
118.86968
 21
48.397337
 31
0.0
  0
LINE
  5
1FE61
100
AcDbEntity
  8
AXE
100
AcDbLine
 10
141.36968
 20
66.397337
 30
0.0
 11
36.36968
 21
66.397337
 31
0.0
  0
LINE
  5
1FE62
100
AcDbEntity
  8
AXE
100
AcDbLine
 10
141.36968
 20
75.397337
 30
0.0
 11
36.36968
 21
75.397337
 31
0.0
  0
LINE
  5
1FE63
100
AcDbEntity
  8
AXE
100
AcDbLine
 10
83.86968
 20
48.397337
 30
0.0
 11
83.86968
 21
59.897337
 31
0.0
  0
ARC
  5
1FE64
100
AcDbEntity
  8
AXE
100
AcDbCircle
 10
88.86968
 20
59.897337
 30
0.0
 40
5.0
100
AcDbArc
 50
90.0
 51
180.0
  0
LINE
  5
1FE65
100
AcDbEntity
  8
AXE
100
AcDbLine
 10
93.86968
 20
48.397337
 30
0.0
 11
93.86968
 21
59.897337
 31
0.0
  0
ARC
  5
1FE66
100
AcDbEntity
  8
AXE
100
AcDbCircle
 10
88.86968
 20
59.897337
 30
0.0
 40
5.0
100
AcDbArc
 50
0.0
 51
90.0
  0
LINE
  5
1FE67
100
AcDbEntity
  8
AXE
100
AcDbLine
 10
71.36968
 20
55.397337
 30
0.0
 11
71.36968
 21
77.397337
 31
0.0
  0
CIRCLE
  5
1FE68
100
AcDbEntity
  8
AXE
100
AcDbCircle
 10
71.36968
 20
66.397337
 30
0.0
 40
5.0
  0
LINE
  5
1FE69
100
AcDbEntity
  8
AXE
100
AcDbLine
 10
36.36968
 20
100.397337
 30
0.0
 11
141.36968
 21
100.397337
 31
0.0
  0
LINE
  5
1FE6B
100
AcDbEntity
  8
AXE
100
AcDbLine
 10
58.86968
 20
209.397337
 30
0.0
 11
58.86968
 21
197.897337
 31
0.0
  0
ARC
  5
1FE6C
100
AcDbEntity
  8
AXE
100
AcDbCircle
 10
53.86968
 20
197.897337
 30
0.0
 40
5.0
100
AcDbArc
 50
270.0
 51
0.0
  0
LINE
  5
1FE6D
100
AcDbEntity
  8
AXE
100
AcDbLine
 10
48.86968
 20
209.397337
 30
0.0
 11
48.86968
 21
197.897337
 31
0.0
  0
ARC
  5
1FE6E
100
AcDbEntity
  8
AXE
100
AcDbCircle
 10
53.86968
 20
197.897337
 30
0.0
 40
5.0
100
AcDbArc
 50
180.0
 51
270.0
  0
LINE
  5
1FE6F
100
AcDbEntity
  8
AXE
100
AcDbLine
 10
36.36968
 20
48.397337
 30
0.0
 11
48.86968
 21
48.397337
 31
0.0
  0
LINE
  5
1FE70
100
AcDbEntity
  8
AXE
100
AcDbLine
 10
118.86968
 20
48.397337
 30
0.0
 11
118.86968
 21
59.897337
 31
0.0
  0
ARC
  5
1FE71
100
AcDbEntity
  8
AXE
100
AcDbCircle
 10
123.86968
 20
59.897337
 30
0.0
 40
5.0
100
AcDbArc
 50
90.0
 51
180.0
  0
LINE
  5
1FE72
100
AcDbEntity
  8
AXE
100
AcDbLine
 10
128.86968
 20
48.397337
 30
0.0
 11
128.86968
 21
59.897337
 31
0.0
  0
ARC
  5
1FE73
100
AcDbEntity
  8
AXE
100
AcDbCircle
 10
123.86968
 20
59.897337
 30
0.0
 40
5.0
100
AcDbArc
 50
0.0
 51
90.0
  0
LINE
  5
1FE74
100
AcDbEntity
  8
AXE
100
AcDbLine
 10
58.86968
 20
48.397337
 30
0.0
 11
58.86968
 21
59.897337
 31
0.0
  0
ARC
  5
1FE75
100
AcDbEntity
  8
AXE
100
AcDbCircle
 10
53.86968
 20
59.897337
 30
0.0
 40
5.0
100
AcDbArc
 50
0.0
 51
90.0
  0
LINE
  5
1FE76
100
AcDbEntity
  8
AXE
100
AcDbLine
 10
48.86968
 20
48.397337
 30
0.0
 11
48.86968
 21
59.897337
 31
0.0
  0
ARC
  5
1FE77
100
AcDbEntity
  8
AXE
100
AcDbCircle
 10
53.86968
 20
59.897337
 30
0.0
 40
5.0
100
AcDbArc
 50
90.0
 51
180.0
  0
LINE
  5
1FE78
100
AcDbEntity
  8
AXE
100
AcDbLine
 10
128.86968
 20
48.397337
 30
0.0
 11
141.36968
 21
48.397337
 31
0.0
  0
LINE
  5
1FE79
100
AcDbEntity
  8
AXE
100
AcDbLine
 10
88.86968
 20
135.897337
 30
0.0
 11
88.86968
 21
121.897337
 31
0.0
  0
TEXT
  5
1FE7B
100
AcDbEntity
  8
AXE
100
AcDbText
 10
81.393489
 20
33.397337
 30
0.0
 40
8.0
  1
Y
  7
ROMANS
 72
     2
 11
87.86968
 21
33.397337
 31
0.0
100
AcDbText
  0
LINE
  5
1FE7C
100
AcDbEntity
  8
AXE
100
AcDbLine
 10
95.86968
 20
128.897337
 30
0.0
 11
81.86968
 21
128.897337
 31
0.0
  0
TEXT
  5
1FE7D
100
AcDbEntity
  8
AXE
100
AcDbText
 10
149.853807
 20
138.901607
 30
0.0
 40
8.0
  1
X
  7
ROMANS
 72
     2
 11
156.329998
 21
138.901607
 31
0.0
100
AcDbText
  0
LINE
  5
1FE7E
100
AcDbEntity
  8
AXE
100
AcDbLine
 10
36.36968
 20
209.397337
 30
0.0
 11
36.36968
 21
48.397337
 31
0.0
  0
LINE
  5
1FE81
100
AcDbEntity
  8
AXE
100
AcDbLine
 10
141.36968
 20
209.397337
 30
0.0
 11
141.36968
 21
48.397337
 31
0.0
  0
LINE
  5
1FE85
100
AcDbEntity
  8
AXE
100
AcDbLine
 10
98.11968
 20
172.397337
 30
0.0
 11
98.11968
 21
103.897337
 31
0.0
  0
CIRCLE
  5
1FE86
100
AcDbEntity
  8
ALPHA
  6
CONTINUOUS
100
AcDbCircle
 10
98.11968
 20
137.897337
 30
0.0
 40
27.0
1001
ACAD
1000
RTLwPs
1070
   128
  0
SPLINE
  5
1FE87
100
AcDbEntity
  8
ALPHA
  6
CONTINUOUS
100
AcDbSpline
210
0.0
220
0.0
230
-1.0
 70
     8
 71
     3
 72
     8
 73
     4
 74
     0
 42
0.0000001
 43
0.0000001
 40
0.0
 40
0.0
 40
0.0
 40
0.0
 40
1.0
 40
1.0
 40
1.0
 40
1.0
 10
74.39699962311715
 20
150.7905313901125
 30
0.0
 10
74.68649720226039
 20
142.3081950749465
 30
0.0
 10
78.82202540563866
 20
129.3498366347221
 30
0.0
 10
89.574398734424
 20
126.3167458826065
 30
0.0
1001
ACAD
1000
RTLwPs
1070
   128
  0
SPLINE
  5
1FE88
100
AcDbEntity
  8
ALPHA
  6
CONTINUOUS
100
AcDbSpline
210
0.0
220
0.0
230
1.0
 70
     8
 71
     3
 72
     8
 73
     4
 74
     0
 42
0.0000001
 43
0.0000001
 40
1.0
 40
1.0
 40
1.0
 40
1.0
 40
2.0
 40
2.0
 40
2.0
 40
2.0
 10
89.574398734424
 20
126.3167458826065
 30
0.0
 10
100.0492198347938
 20
123.2858755483185
 30
0.0
 10
99.77499823311973
 20
119.7010109661142
 30
0.0
 10
102.8532662176605
 20
111.3155170784959
 30
0.0
1001
ACAD
1000
RTLwPs
1070
   128
  0
SPLINE
  5
1FE89
100
AcDbEntity
  8
ALPHA
  6
CONTINUOUS
100
AcDbSpline
210
0.0
220
0.0
230
1.0
 70
     8
 71
     3
 72
     8
 73
     4
 74
     0
 42
0.0000001
 43
0.0000001
 40
0.0
 40
0.0
 40
0.0
 40
0.0
 40
1.0
 40
1.0
 40
1.0
 40
1.0
 10
122.1950655244161
 20
125.6753982897133
 30
0.0
 10
121.0854583307991
 20
134.5067570386677
 30
0.0
 10
115.8341701691924
 20
147.0532279719241
 30
0.0
 10
104.8564244309354
 20
149.135979893948
 30
0.0
1001
ACAD
1000
RTLwPs
1070
   128
  0
SPLINE
  5
1FE8A
100
AcDbEntity
  8
ALPHA
  6
CONTINUOUS
100
AcDbSpline
210
0.0
220
0.0
230
1.0
 70
     8
 71
     3
 72
     8
 73
     4
 74
     0
 42
0.0000001
 43
0.0000001
 40
1.0
 40
1.0
 40
1.0
 40
1.0
 40
2.0
 40
2.0
 40
2.0
 40
2.0
 10
104.8564244309354
 20
149.135979893948
 30
0.0
 10
94.15623092109308
 20
151.2409359942449
 30
0.0
 10
94.11737360911502
 20
154.8357924566717
 30
0.0
 10
90.02081627637199
 20
163.6540530283926
 30
0.0
1001
ACAD
1000
RTLwPs
1070
   128
  0
POLYLINE
  5
1FE8B
100
AcDbEntity
  8
ALPHA
  6
CONTINUOUS
100
AcDb2dPolyline
 66
     1
 10
0.0
 20
0.0
 30
0.0
 70
     1
1001
ACAD
1000
RTLwPs
1070
   128
  0
VERTEX
  5
1FE8C
100
AcDbEntity
  8
ALPHA
  6
CONTINUOUS
100
AcDbVertex
100
AcDb2dVertex
 10
97.648951
 20
147.16203
 30
0.0
1001
ACAD
1000
RTLwPs
1070
   128
  0
VERTEX
  5
1FE8D
100
AcDbEntity
  8
ALPHA
  6
CONTINUOUS
100
AcDbVertex
100
AcDb2dVertex
 10
88.458642
 20
161.918924
 30
0.0
1001
ACAD
1000
RTLwPs
1070
   128
  0
VERTEX
  5
1FE8E
100
AcDbEntity
  8
ALPHA
  6
CONTINUOUS
100
AcDbVertex
100
AcDb2dVertex
 10
81.38217
 20
157.525828
 30
0.0
1001
ACAD
1000
RTLwPs
1070
   128
  0
VERTEX
  5
1FE8F
100
AcDbEntity
  8
ALPHA
  6
CONTINUOUS
100
AcDbVertex
100
AcDb2dVertex
 10
90.572479
 20
142.766711
 30
0.0
1001
ACAD
1000
RTLwPs
1070
   128
  0
SEQEND
  5
1FE90
100
AcDbEntity
  8
ALPHA
  6
CONTINUOUS
1001
ACAD
1000
RTLwPs
1070
   128
  0
LINE
  5
1FE92
100
AcDbEntity
  8
AXE
100
AcDbLine
 10
141.36968
 20
191.397337
 30
0.0
 11
36.36968
 21
191.397337
 31
0.0
  0
LINE
  5
1FE9C
100
AcDbEntity
  8
AXE
100
AcDbLine
 10
157.327914
 20
137.897337
 30
0.0
 11
50.61968
 21
137.897337
 31
0.0
  0
DIMENSION
  5
1FE9D
100
AcDbEntity
  8
COTATION1
100
AcDbDimension
  2
*D1
 10
181.36968
 20
175.397337
 30
0.0
 11
181.36968
 21
156.647337
 31
0.0
 70
    32
  1
=
  3
SC_DEFAUT
100
AcDbAlignedDimension
 13
157.327914
 23
137.897337
 33
0.0
 14
135.61968
 24
175.397337
 34
0.0
 50
90.0
100
AcDbRotatedDimension
  0
DIMENSION
  5
1FE9E
100
AcDbEntity
  8
COTATION1
100
AcDbDimension
  2
*D2
 10
191.36968
 20
100.397337
 30
0.0
 11
191.36968
 21
137.897337
 31
0.0
 70
    32
  3
SC_DEFAUT
100
AcDbAlignedDimension
 13
135.61968
 23
175.397337
 33
0.0
 14
135.61968
 24
100.397337
 34
0.0
 50
90.0
100
AcDbRotatedDimension
  0
DIMENSION
  5
1FE9F
100
AcDbEntity
  8
COTATION1
100
AcDbDimension
  2
*D3
 10
171.36968
 20
137.897337
 30
0.0
 11
171.36968
 21
133.397337
 31
0.0
 70
    32
  3
SC_DEFAUT
100
AcDbAlignedDimension
 13
95.86968
 23
128.897337
 33
0.0
 14
157.327914
 24
137.897337
 34
0.0
 50
90.0
100
AcDbRotatedDimension
  0
LINE
  5
1FF6A
100
AcDbEntity
  8
ALPHA
  6
CONTINUOUS
100
AcDbLine
 10
135.61968
 20
175.397337
 30
0.0
 11
60.61968
 21
175.397337
 31
0.0
1001
ACAD
1000
RTLwPs
1070
   128
  0
LINE
  5
1FF6B
100
AcDbEntity
  8
ALPHA
  6
CONTINUOUS
100
AcDbLine
 10
135.61968
 20
100.397337
 30
0.0
 11
60.61968
 21
100.397337
 31
0.0
1001
ACAD
1000
RTLwPs
1070
   128
  0
LINE
  5
1FF6C
100
AcDbEntity
  8
ALPHA
  6
CONTINUOUS
100
AcDbLine
 10
60.61968
 20
175.397337
 30
0.0
 11
60.61968
 21
100.397337
 31
0.0
1001
ACAD
1000
RTLwPs
1070
   128
  0
LINE
  5
1FF6D
100
AcDbEntity
  8
ALPHA
  6
CONTINUOUS
100
AcDbLine
 10
135.61968
 20
175.397337
 30
0.0
 11
135.61968
 21
100.397337
 31
0.0
1001
ACAD
1000
RTLwPs
1070
   128
  0
DIMENSION
  5
1FFAB
100
AcDbEntity
  8
COTATION1
100
AcDbDimension
  2
*D4
 10
181.36968
 20
137.897337
 30
0.0
 11
181.36968
 21
119.147337
 31
0.0
 70
    32
  1
=
  3
SC_DEFAUT
100
AcDbAlignedDimension
 13
135.61968
 23
100.397337
 33
0.0
 14
157.327914
 24
137.897337
 34
0.0
 50
90.0
100
AcDbRotatedDimension
  0
DIMENSION
  5
1FFD8
100
AcDbEntity
  8
COTATION1
100
AcDbDimension
  2
*D5
 10
98.11968
 20
23.397337
 30
0.0
 11
116.86968
 21
26.647337
 31
0.0
 70
    32
  1
=
  3
SC_DEFAUT
100
AcDbAlignedDimension
 13
135.61968
 23
100.397337
 33
0.0
 14
98.11968
 24
85.397337
 34
0.0
100
AcDbRotatedDimension
  0
DIMENSION
  5
1FFD9
100
AcDbEntity
  8
COTATION1
100
AcDbDimension
  2
*D6
 10
60.61968
 20
8.397337
 30
0.0
 11
98.11968
 21
11.647337
 31
0.0
 70
    32
  3
SC_DEFAUT
100
AcDbAlignedDimension
 13
135.61968
 23
100.397337
 33
0.0
 14
60.61968
 24
100.397337
 34
0.0
100
AcDbRotatedDimension
  0
DIMENSION
  5
1FFDA
100
AcDbEntity
  8
COTATION1
100
AcDbDimension
  2
*D7
 10
60.61968
 20
23.397337
 30
0.0
 11
79.36968
 21
26.647337
 31
0.0
 70
    32
  1
=
  3
SC_DEFAUT
100
AcDbAlignedDimension
 13
98.11968
 23
85.397337
 33
0.0
 14
60.61968
 24
100.397337
 34
0.0
100
AcDbRotatedDimension
  0
DIMENSION
  5
20062
100
AcDbEntity
  8
COTATION1
100
AcDbDimension
  2
*D8
 10
88.86968
 20
244.397337
 30
0.0
 11
108.11968
 21
247.607794
 31
0.0
 70
   160
  3
SC_DEFAUT
100
AcDbAlignedDimension
 13
98.11968
 23
172.397337
 33
0.0
 14
88.86968
 24
135.897337
 34
0.0
100
AcDbRotatedDimension
1001
ACAD
1000
DSTYLE
1002
{
1070
   271
1070
     2
1002
}
  0
LINE
  5
200F1
100
AcDbEntity
  8
AXE
100
AcDbLine
 10
98.11968
 20
190.897337
 30
0.0
 11
98.11968
 21
85.397337
 31
0.0
  0
TEXT
  5
200F2
100
AcDbEntity
  8
AXE
100
AcDbText
 10
90.643489
 20
85.397337
 30
0.0
 40
8.0
  1
Y
  7
ROMANS
 72
     2
 11
97.11968
 21
85.397337
 31
0.0
100
AcDbText
  0
LINE
  5
2018D
100
AcDbEntity
  8
AXE
100
AcDbLine
 10
98.11968
 20
138.147337
 30
0.0
 11
80.61968
 21
168.458226
 31
0.0
  0
LINE
  5
2018F
100
AcDbEntity
  8
AXE
100
AcDbLine
 10
98.11968
 20
138.147337
 30
0.0
 11
80.61968
 21
107.836448
 31
0.0
  0
DIMENSION
  5
201DD
100
AcDbEntity
  8
COTATION1
100
AcDbDimension
  2
*D9
 10
80.61968
 20
168.458226
 30
0.0
 11
50.271919
 21
165.605588
 31
0.0
 70
    34
  3
SC_DEFAUT
100
AcDb2LineAngularDimension
 13
157.327914
 23
137.897337
 33
0.0
 14
50.61968
 24
137.897337
 34
0.0
 15
98.11968
 25
138.147337
 35
0.0
 16
55.812514
 26
173.518377
 36
0.0
1001
ACAD
1000
DSTYLE
1002
{
1070
   271
1070
     0
1002
}
  0
DIMENSION
  5
201FD
100
AcDbEntity
  8
COTATION1
100
AcDbDimension
  2
*D10
 10
43.040068
 20
137.897337
 30
0.0
 11
50.180709
 21
110.303093
 31
0.0
 70
    34
  3
SC_DEFAUT
100
AcDb2LineAngularDimension
 13
98.11968
 23
138.147337
 33
0.0
 14
80.61968
 24
107.836448
 34
0.0
 15
157.327914
 25
137.897337
 35
0.0
 16
46.115126
 26
119.021762
 36
0.0
1001
ACAD
1000
DSTYLE
1002
{
1070
   271
1070
     0
1002
}
  0
ENDSEC
  0
SECTION
  2
OBJECTS
  0
DICTIONARY
  5
19
102
{ACAD_XDICTIONARY
360
20467
102
}
100
AcDbDictionary
  3
ACAD_COLOR
350
6DB
  3
ACAD_GROUP
350
1A
  3
ACAD_LAYOUT
350
1E
  3
ACAD_MATERIAL
350
6DA
  3
ACAD_MLINESTYLE
350
1B
  3
ACAD_PLOTSETTINGS
350
22
  3
ACAD_PLOTSTYLENAME
350
1F
  3
ACAD_TABLESTYLE
350
6DC
  3
ACAD_WIPEOUT_VARS
350
23
  3
ACDBHEADERROUNDTRIPXREC
350
20443
  3
ACDBVARIABLEDICTIONARY
350
7DA
  3
ASE_INDEX_DICTIONARY
350
3571
  0
DICTIONARY
  5
20431
100
AcDbDictionary
  3
ACAD_XREC_ROUNDTRIP
360
20432
  0
DICTIONARY
  5
20433
100
AcDbDictionary
  3
ACAD_XREC_ROUNDTRIP
360
20434
  0
DICTIONARY
  5
20435
100
AcDbDictionary
  3
ACAD_XREC_ROUNDTRIP
360
20436
  0
DICTIONARY
  5
26F0
100
AcDbDictionary
  3
ACAD_LAYERFILTERS
360
26F2
  3
ACAD_LAYERSTATES
360
3474
  3
ACLYDICTIONARY
360
26F1
  0
DICTIONARY
  5
2042F
100
AcDbDictionary
  3
ACAD_XREC_ROUNDTRIP
360
20430
  0
DICTIONARY
  5
2043F
100
AcDbDictionary
  3
ACAD_XREC_ROUNDTRIP
360
20440
  0
DICTIONARY
  5
20437
100
AcDbDictionary
  3
ACAD_XREC_ROUNDTRIP
360
20438
  0
DICTIONARY
  5
20439
100
AcDbDictionary
  3
ACAD_XREC_ROUNDTRIP
360
2043A
  0
DICTIONARY
  5
2043B
100
AcDbDictionary
  3
ACAD_XREC_ROUNDTRIP
360
2043C
  0
DICTIONARY
  5
2043D
100
AcDbDictionary
  3
ACAD_XREC_ROUNDTRIP
360
2043E
  0
DICTIONARY
  5
2042D
100
AcDbDictionary
  3
ACAD_XREC_ROUNDTRIP
360
2042E
  0
DICTIONARY
  5
2046F
100
AcDbDictionary
  3
ACAD_XREC_ROUNDTRIP
360
20470
  0
DICTIONARY
  5
7D7
100
AcDbDictionary
  3
ACAD_LAYOUTSELFREF
360
20464
  3
ACAD_SORTENTS
360
7D8
  0
DICTIONARY
  5
20465
100
AcDbDictionary
  3
ACAD_LAYOUTSELFREF
360
20466
  0
DICTIONARY
  5
20467
100
AcDbDictionary
  3
ACAD_XREC_ROUNDTRIP
360
20468
  0
DICTIONARY
  5
6DB
102
{ACAD_REACTORS
330
19
102
}
100
AcDbDictionary
  0
DICTIONARY
  5
1A
102
{ACAD_REACTORS
330
19
102
}
100
AcDbDictionary
  0
DICTIONARY
  5
1E
102
{ACAD_XDICTIONARY
360
2046B
102
}
102
{ACAD_REACTORS
330
19
102
}
100
AcDbDictionary
  3
LAYOUT1
350
21
  3
MODEL
350
20
  0
DICTIONARY
  5
6DA
102
{ACAD_REACTORS
330
19
102
}
100
AcDbDictionary
  0
DICTIONARY
  5
1B
102
{ACAD_XDICTIONARY
360
20469
102
}
102
{ACAD_REACTORS
330
19
102
}
100
AcDbDictionary
  3
STANDARD
350
1C
  0
DICTIONARY
  5
22
102
{ACAD_REACTORS
330
19
102
}
100
AcDbDictionary
  0
ACAD_ZOMBIE_OBJECT
  5
1F
102
{ACAD_REACTORS
330
19
102
}
100
AcDbZombieObject
 90
      499
 91
      517
 93
       86
310
405010041939BDC9B585B1
350
1D
340
1D
 94
        0
  0
DICTIONARY
  5
6DC
102
{ACAD_XDICTIONARY
360
2046D
102
}
102
{ACAD_REACTORS
330
19
102
}
100
AcDbDictionary
  3
STANDARD
350
6DD
  0
ACAD_ZOMBIE_OBJECT
  5
23
102
{ACAD_REACTORS
330
19
102
}
100
AcDbZombieObject
 90
      499
 91
      521
 93
       10
310
406A
 94
        0
  0
DICTIONARY
  5
20443
102
{ACAD_REACTORS
330
19
102
}
100
AcDbDictionary
  3
CEPSNTYPE
350
2044D
  3
DIMSTYLEDATA
350
20451
  3
FINGERPRINTGUID
350
2044E
  3
HYPERLINKBASE
350
20446
  3
INSUNITS
350
2044C
  3
LAYOUTDICT
350
20448
  3
LWETCUNION
350
2044B
  3
PLOTSETDICT
350
20449
  3
PLOTSTYLNAMDICT
350
2044A
  3
PSVPSCALE
350
20450
  3
PUCSBASE
350
20454
  3
PUCSORGBACK
350
2045A
  3
PUCSORGBOTTOM
350
20456
  3
PUCSORGFRONT
350
20459
  3
PUCSORGLEFT
350
20457
  3
PUCSORGRIGHT
350
20458
  3
PUCSORGTOP
350
20455
  3
PUCSORTHOREF
350
20452
  3
PUCSORTHOVIEW
350
20453
  3
STYLESHEET
350
20447
  3
TSTACKALIGN
350
20444
  3
TSTACKSIZE
350
20445
  3
UCSBASE
350
2045D
  3
UCSORGBACK
350
20463
  3
UCSORGBOTTOM
350
2045F
  3
UCSORGFRONT
350
20462
  3
UCSORGLEFT
350
20460
  3
UCSORGRIGHT
350
20461
  3
UCSORGTOP
350
2045E
  3
UCSORTHOREF
350
2045B
  3
UCSORTHOVIEW
350
2045C
  3
VERSIONGUID
350
2044F
  0
DICTIONARY
  5
7DA
102
{ACAD_REACTORS
330
19
102
}
100
AcDbDictionary
  3
CTABLESTYLE
350
7DB
  3
DIMASSOC
350
1A71
  3
PROJECTNAME
350
1A72
  0
DICTIONARY
  5
3571
102
{ACAD_XDICTIONARY
360
20471
102
}
102
{ACAD_REACTORS
330
19
102
}
100
AcDbDictionary
  3
ASEBLOCKHIERARCHYINDEXRECORD
350
3572
1001
DCO15
1040
1558939622.437
  0
XRECORD
  5
20432
102
{ACAD_REACTORS
330
20431
102
}
100
AcDbXrecord
102
EXTNAMES
  1
BYBLOCK
  2
ByBlock
  0
XRECORD
  5
20434
102
{ACAD_REACTORS
330
20433
102
}
100
AcDbXrecord
102
EXTNAMES
  1
BYLAYER
  2
ByLayer
  0
XRECORD
  5
20436
102
{ACAD_REACTORS
330
20435
102
}
100
AcDbXrecord
102
EXTNAMES
  1
CONTINUOUS
  2
Continuous
  0
DICTIONARY
  5
26F2
102
{ACAD_REACTORS
330
26F0
102
}
100
AcDbDictionary
  0
DICTIONARY
  5
3474
102
{ACAD_REACTORS
330
26F0
102
}
100
AcDbDictionary
  0
DICTIONARY
  5
26F1
102
{ACAD_REACTORS
330
26F0
102
}
100
AcDbDictionary
1001
ACAD
1000
<All
  0
XRECORD
  5
20430
102
{ACAD_REACTORS
330
2042F
102
}
100
AcDbXrecord
102
EXTNAMES
  1
DEFPOINTS
  2
Defpoints
102
PLOTBIT
280
     0
  0
XRECORD
  5
20440
102
{ACAD_REACTORS
330
2043F
102
}
100
AcDbXrecord
102
EXTNAMES
  1
STANDARD
  2
Standard
  0
XRECORD
  5
20438
102
{ACAD_REACTORS
330
20437
102
}
100
AcDbXrecord
102
EXTNAMES
  1
ACAECLAYERSTANDARD
  2
AcAecLayerStandard
  0
XRECORD
  5
2043A
102
{ACAD_REACTORS
330
20439
102
}
100
AcDbXrecord
102
EXTNAMES
  1
ACAD_EXEMPT_FROM_CAD_STAND
  2
ACAD_EXEMPT_FROM_CAD_STANDARDS
  0
XRECORD
  5
2043C
102
{ACAD_REACTORS
330
2043B
102
}
100
AcDbXrecord
102
EXTNAMES
  1
ACAD_DSTYLE_DIM_EXT1_LINET
  2
ACAD_DSTYLE_DIM_EXT1_LINETYPE
  0
XRECORD
  5
2043E
102
{ACAD_REACTORS
330
2043D
102
}
100
AcDbXrecord
102
EXTNAMES
  1
ACAD_DSTYLE_DIM_EXT2_LINET
  2
ACAD_DSTYLE_DIM_EXT2_LINETYPE
  0
XRECORD
  5
2042E
102
{ACAD_REACTORS
330
2042D
102
}
100
AcDbXrecord
102
EXTNAMES
  1
STANDARD
  2
Standard
  0
XRECORD
  5
20470
102
{ACAD_REACTORS
330
2046F
102
}
100
AcDbXrecord
102
ACADR14ROUNDTRIP
1000
DSTYLE
1002
{
1070
   279
 70
     2
1070
   341
340
6FA
1070
   342
340
6FA
1002
}
  0
XRECORD
  5
20464
102
{ACAD_REACTORS
330
7D7
102
}
100
AcDbXrecord
340
A
  0
SORTENTSTABLE
  5
7D8
102
{ACAD_REACTORS
330
7D7
102
}
100
AcDbSortentsTable
330
A
331
1FE85
  5
1FE89
331
1FE60
  5
1FE62
331
1FE73
  5
1FE75
331
1FE4E
  5
1FE4F
331
200F1
  5
200F2
331
1FE81
  5
1FE88
331
1FE6F
  5
1FE71
331
1FE4A
  5
1FE4E
331
1FE5D
  5
1FE60
331
2018F
  5
201DD
331
1FE6B
  5
1FE6D
331
1FE7E
  5
1FE87
331
1FE59
  5
1FE5B
331
1FFD8
  5
1FFD9
331
1FE67
  5
1FE69
331
1FE9F
  5
1FFAB
331
1FE55
  5
1FE57
331
1FE88
  5
1FE9C
331
1FE63
  5
1FE65
331
1FE76
  5
1FE78
331
1FE51
  5
1FE53
331
1FE72
  5
1FE74
331
1FF6A
  5
1FF6C
331
1FE6E
  5
1FE70
331
1FE49
  5
1FE4B
331
1FE5C
  5
1FE5E
331
1FE7D
  5
1FE83
331
1FE58
  5
1FE5A
331
1FE8B
  5
1FF03
331
1FE66
  5
1FE68
331
1FE9E
  5
1FF6E
331
1FE79
  5
1FE7D
331
1FE54
  5
1FE56
331
201DD
  5
201FD
331
1FE87
  5
1FE99
331
1FE62
  5
1FE64
331
1FE75
  5
1FE77
331
1FE50
  5
1FE51
331
1FF6D
  5
1FE8A
331
1FE71
  5
1FE73
331
1FE5F
  5
1FE61
331
2018D
  5
2018F
331
1FE92
  5
1FE54
331
1FE6D
  5
1FE6F
331
1FE48
  5
1FE49
331
1FE5B
  5
1FE5D
331
1FFDA
  5
20062
331
1FE69
  5
1FE6C
331
1FE7C
  5
1FE82
331
1FE57
  5
1FE59
331
1FE8A
  5
1FE9F
331
1FE65
  5
1FE67
331
1FE9D
  5
1FF6D
331
1FE78
  5
1FE7A
331
1FE53
  5
1FE55
331
1FE86
  5
1FE92
331
1FE61
  5
1FE63
331
200F2
  5
2018D
331
1FE74
  5
1FE76
331
1FE4F
  5
1FE50
331
1FF6C
  5
1FE8B
331
1FE70
  5
1FE72
331
1FE4B
  5
1FE4A
331
1FE5A
  5
1FE5C
331
1FE6C
  5
1FE6E
331
1FE68
  5
1FE6A
331
201FD
  5
2025F
331
1FE7B
  5
1FE7F
331
1FE56
  5
1FE58
331
1FFD9
  5
1FFDA
331
1FE89
  5
1FE9D
331
1FE64
  5
1FE66
331
20062
  5
200F1
331
1FE9C
  5
1FF6A
331
1FE77
  5
1FE79
331
1FFAB
  5
1FFD8
  0
XRECORD
  5
20466
102
{ACAD_REACTORS
330
20465
102
}
100
AcDbXrecord
340
B
  0
XRECORD
  5
20468
102
{ACAD_REACTORS
330
20467
102
}
100
AcDbXrecord
102
EXTNAMES
  1
ACDBVARIABLEDICTIONARY
  2
AcDbVariableDictionary
  0
DICTIONARY
  5
2046B
100
AcDbDictionary
  3
ACAD_XREC_ROUNDTRIP
360
2046C
  0
ACAD_ZOMBIE_OBJECT
  5
21
102
{ACAD_XDICTIONARY
360
20426
102
}
102
{ACAD_REACTORS
330
1E
102
}
100
AcDbZombieObject
 90
      499
 91
      515
 93
      812
310
AAAAAAAAAA5A69074C61796F757431406A800000000000000000000000000000000000000000000A1000000000000008902A6A6A10232D5E076BC5510408CB5781DAF154410232D5E076BC5510408CB5781DAF15C410232D5E076BC5710408CB5781DAF15C41
330
B
330
0
340
0
340
0
 94
        0
  0
ACAD_ZOMBIE_OBJECT
  5
20
102
{ACAD_XDICTIONARY
360
20424
102
}
102
{ACAD_REACTORS
330
1E
102
}
100
AcDbZombieObject
 90
      499
 91
      515
 93
      420
310
A00012AAAAAAAA5A69054D6F64656CAA80000000000000000000000000000000000000000000000000000000000000002AAAAAAAA0
330
A
330
0
340
0
340
0
 94
        0
  0
DICTIONARY
  5
20469
100
AcDbDictionary
  3
ACAD_XREC_ROUNDTRIP
360
2046A
  0
MLINESTYLE
  5
1C
102
{ACAD_REACTORS
330
1B
102
}
100
AcDbMlineStyle
  2
STANDARD
 70
     0
  3

 62
     0
 51
90.0
 52
90.0
 71
     2
 49
0.5
 62
   256
  6
BYLAYER
 49
-0.5
 62
   256
  6
BYLAYER
  0
ACAD_ZOMBIE_OBJECT
  5
1D
102
{ACAD_REACTORS
330
1F
102
}
100
AcDbZombieObject
 90
      499
 91
      518
 93
        0
 94
        0
  0
DICTIONARY
  5
2046D
100
AcDbDictionary
  3
ACAD_XREC_ROUNDTRIP
360
2046E
  0
ACAD_ZOMBIE_OBJECT
  5
6DD
102
{ACAD_REACTORS
330
6DC
102
}
100
AcDbZombieObject
 90
      499
 91
      525
 93
     1841
310
4214DD185B99185C9928000000000000F83F0000000000003E0FC00000000000004901028000000C1008070000C3001FDFF8000000C1003FBFF000000182007F7FE00000030400FEFFC00000060801FDFF8000000C1003FBFF000000182000000000000000C2020B0000001820100E000186003FBFF000000182007F7FE000
310
00030400FEFFC00000060801FDFF8000000C1003FBFF000000182007F7FE0000003040000000000000012404160000003040201C00030C007F7FE00000030400FEFFC00000060801FDFF8000000C1003FBFF000000182007F7FE00000030400FEFFC000000608000
340
17
340
17
340
17
 94
        0
1001
ACAD
1000
AcadProxyRoundTripData
1071
      524
1071
   393239
1070
     0
  0
XRECORD
  5
2044D
102
{ACAD_REACTORS
330
20443
102
}
100
AcDbXrecord
 90
        0
  0
XRECORD
  5
20451
102
{ACAD_REACTORS
330
20443
102
}
100
AcDbXrecord
1000
DSTYLE
1002
{
1070
   279
 70
     2
1070
   341
340
6FA
1070
   342
340
6FA
1002
}
  0
XRECORD
  5
2044E
102
{ACAD_REACTORS
330
20443
102
}
100
AcDbXrecord
  1

  0
XRECORD
  5
20446
102
{ACAD_REACTORS
330
20443
102
}
100
AcDbXrecord
  1

  0
XRECORD
  5
2044C
102
{ACAD_REACTORS
330
20443
102
}
100
AcDbXrecord
 90
        0
  0
XRECORD
  5
20448
102
{ACAD_REACTORS
330
20443
102
}
100
AcDbXrecord
340
1E
  0
XRECORD
  5
2044B
102
{ACAD_REACTORS
330
20443
102
}
100
AcDbXrecord
 90
    10752
  0
XRECORD
  5
20449
102
{ACAD_REACTORS
330
20443
102
}
100
AcDbXrecord
340
22
  0
XRECORD
  5
2044A
102
{ACAD_REACTORS
330
20443
102
}
100
AcDbXrecord
340
1F
  0
XRECORD
  5
20450
102
{ACAD_REACTORS
330
20443
102
}
100
AcDbXrecord
 40
0.0
  0
XRECORD
  5
20454
102
{ACAD_REACTORS
330
20443
102
}
100
AcDbXrecord
340
0
  0
XRECORD
  5
2045A
102
{ACAD_REACTORS
330
20443
102
}
100
AcDbXrecord
 10
0.0
 20
0.0
 30
0.0
  0
XRECORD
  5
20456
102
{ACAD_REACTORS
330
20443
102
}
100
AcDbXrecord
 10
0.0
 20
0.0
 30
0.0
  0
XRECORD
  5
20459
102
{ACAD_REACTORS
330
20443
102
}
100
AcDbXrecord
 10
0.0
 20
0.0
 30
0.0
  0
XRECORD
  5
20457
102
{ACAD_REACTORS
330
20443
102
}
100
AcDbXrecord
 10
0.0
 20
0.0
 30
0.0
  0
XRECORD
  5
20458
102
{ACAD_REACTORS
330
20443
102
}
100
AcDbXrecord
 10
0.0
 20
0.0
 30
0.0
  0
XRECORD
  5
20455
102
{ACAD_REACTORS
330
20443
102
}
100
AcDbXrecord
 10
0.0
 20
0.0
 30
0.0
  0
XRECORD
  5
20452
102
{ACAD_REACTORS
330
20443
102
}
100
AcDbXrecord
340
0
  0
XRECORD
  5
20453
102
{ACAD_REACTORS
330
20443
102
}
100
AcDbXrecord
 70
     0
  0
XRECORD
  5
20447
102
{ACAD_REACTORS
330
20443
102
}
100
AcDbXrecord
  1

  0
XRECORD
  5
20444
102
{ACAD_REACTORS
330
20443
102
}
100
AcDbXrecord
 90
        1
  0
XRECORD
  5
20445
102
{ACAD_REACTORS
330
20443
102
}
100
AcDbXrecord
 90
       70
  0
XRECORD
  5
2045D
102
{ACAD_REACTORS
330
20443
102
}
100
AcDbXrecord
340
0
  0
XRECORD
  5
20463
102
{ACAD_REACTORS
330
20443
102
}
100
AcDbXrecord
 10
0.0
 20
0.0
 30
0.0
  0
XRECORD
  5
2045F
102
{ACAD_REACTORS
330
20443
102
}
100
AcDbXrecord
 10
0.0
 20
0.0
 30
0.0
  0
XRECORD
  5
20462
102
{ACAD_REACTORS
330
20443
102
}
100
AcDbXrecord
 10
0.0
 20
0.0
 30
0.0
  0
XRECORD
  5
20460
102
{ACAD_REACTORS
330
20443
102
}
100
AcDbXrecord
 10
0.0
 20
0.0
 30
0.0
  0
XRECORD
  5
20461
102
{ACAD_REACTORS
330
20443
102
}
100
AcDbXrecord
 10
0.0
 20
0.0
 30
0.0
  0
XRECORD
  5
2045E
102
{ACAD_REACTORS
330
20443
102
}
100
AcDbXrecord
 10
0.0
 20
0.0
 30
0.0
  0
XRECORD
  5
2045B
102
{ACAD_REACTORS
330
20443
102
}
100
AcDbXrecord
340
0
  0
XRECORD
  5
2045C
102
{ACAD_REACTORS
330
20443
102
}
100
AcDbXrecord
 70
     0
  0
XRECORD
  5
2044F
102
{ACAD_REACTORS
330
20443
102
}
100
AcDbXrecord
  1
{1E789808-BBC1-494C-B2E5-9E66B177DE10}
  0
DICTIONARYVAR
  5
7DB
102
{ACAD_REACTORS
330
7DA
102
}
100
DictionaryVariables
280
     0
  1
STANDARD
  0
DICTIONARYVAR
  5
1A71
102
{ACAD_REACTORS
330
7DA
102
}
100
DictionaryVariables
280
     0
  1
1
  0
DICTIONARYVAR
  5
1A72
102
{ACAD_REACTORS
330
7DA
102
}
100
DictionaryVariables
280
     0
  1

  0
DICTIONARY
  5
20471
100
AcDbDictionary
  3
ACAD_XREC_ROUNDTRIP
360
20472
  0
XRECORD
  5
3572
102
{ACAD_REACTORS
330
3571
102
}
100
AcDbXrecord
330
0
330
0
330
0
330
0
330
0
330
0
330
0
330
0
330
0
330
0
330
0
330
0
330
0
330
0
330
0
330
0
330
0
330
0
330
0
330
0
330
0
330
0
330
0
330
0
330
0
330
0
330
0
330
0
330
0
330
0
330
0
  0
XRECORD
  5
2046C
102
{ACAD_REACTORS
330
2046B
102
}
100
AcDbXrecord
102
EXTNAMES
  1
LAYOUT1
  2
Layout1
  1
MODEL
  2
Model
  0
DICTIONARY
  5
20426
100
AcDbDictionary
  3
ACAD_XREC_ROUNDTRIP
360
20427
  0
DICTIONARY
  5
20424
100
AcDbDictionary
  3
ACAD_XREC_ROUNDTRIP
360
20425
  0
XRECORD
  5
2046A
102
{ACAD_REACTORS
330
20469
102
}
100
AcDbXrecord
102
EXTNAMES
  1
STANDARD
  2
Standard
  0
XRECORD
  5
2046E
102
{ACAD_REACTORS
330
2046D
102
}
100
AcDbXrecord
102
EXTNAMES
  1
STANDARD
  2
Standard
  0
XRECORD
  5
20472
102
{ACAD_REACTORS
330
20471
102
}
100
AcDbXrecord
102
EXTNAMES
  1
ASEBLOCKHIERARCHYINDEXRECORD
  2
ASEBlockHierarchyIndexRecord
  0
XRECORD
  5
20427
102
{ACAD_REACTORS
330
20426
102
}
100
AcDbXrecord
102
SHADEPLOT
 70
     0
102
SHADEPLOTRESLEVEL
 70
     2
102
SHADEPLOTCUSTOMDPI
 70
   300
  0
XRECORD
  5
20425
102
{ACAD_REACTORS
330
20424
102
}
100
AcDbXrecord
102
SHADEPLOT
 70
     0
102
SHADEPLOTRESLEVEL
 70
     2
102
SHADEPLOTCUSTOMDPI
 70
   300
  0
ENDSEC
  0
EOF
