  0
SECTION
  2
HEADER
  9
$ACADVER
  1
AC1009
  9
$INSBASE
 10
0.0
 20
0.0
 30
0.0
  9
$EXTMIN
 10
87.324521
 20
70.547903
 30
-0.001526
  9
$EXTMAX
 10
240.586616
 20
281.358757
 30
0.0
  9
$LIMMIN
 10
0.0
 20
0.0
  9
$LIMMAX
 10
150.0
 20
150.0
  9
$ORTHOMODE
 70
     0
  9
$REGENMODE
 70
     1
  9
$FILLMODE
 70
     1
  9
$QTEXTMODE
 70
     0
  9
$MIRRTEXT
 70
     1
  9
$DRAGMODE
 70
     2
  9
$LTSCALE
 40
9.777778
  9
$OSMODE
 70
   167
  9
$ATTMODE
 70
     1
  9
$TEXTSIZE
 40
0.2
  9
$TRACEWID
 40
0.05
  9
$TEXTSTYLE
  7
STANDARD
  9
$CLAYER
  8
0
  9
$CELTYPE
  6
BYLAYER
  9
$CECOLOR
 62
   256
  9
$DIMSCALE
 40
1.0
  9
$DIMASZ
 40
2.5
  9
$DIMEXO
 40
1.111111
  9
$DIMDLI
 40
2.0
  9
$DIMRND
 40
0.0
  9
$DIMDLE
 40
0.0
  9
$DIMEXE
 40
3.2
  9
$DIMTP
 40
0.0
  9
$DIMTM
 40
0.0
  9
$DIMTXT
 40
2.008929
  9
$DIMCEN
 40
1.6
  9
$DIMTSZ
 40
0.0
  9
$DIMTOL
 70
     0
  9
$DIMLIM
 70
     0
  9
$DIMTIH
 70
     0
  9
$DIMTOH
 70
     0
  9
$DIMSE1
 70
     0
  9
$DIMSE2
 70
     0
  9
$DIMTAD
 70
     1
  9
$DIMZIN
 70
     8
  9
$DIMBLK
  1

  9
$DIMASO
 70
     1
  9
$DIMSHO
 70
     1
  9
$DIMPOST
  1

  9
$DIMAPOST
  1

  9
$DIMALT
 70
     0
  9
$DIMALTD
 70
     2
  9
$DIMALTF
 40
25.4
  9
$DIMLFAC
 40
1.0
  9
$DIMTOFL
 70
     0
  9
$DIMTVP
 40
0.0
  9
$DIMTIX
 70
     0
  9
$DIMSOXD
 70
     0
  9
$DIMSAH
 70
     0
  9
$DIMBLK1
  1

  9
$DIMBLK2
  1

  9
$DIMSTYLE
  2
STANDARD
  9
$DIMCLRD
 70
     0
  9
$DIMCLRE
 70
     0
  9
$DIMCLRT
 70
     0
  9
$DIMTFAC
 40
1.0
  9
$DIMGAP
 40
1.0
  9
$LUNITS
 70
     2
  9
$LUPREC
 70
     4
  9
$SKETCHINC
 40
0.1
  9
$FILLETRAD
 40
0.0
  9
$AUNITS
 70
     0
  9
$AUPREC
 70
     0
  9
$MENU
  1
.
  9
$ELEVATION
 40
0.0
  9
$PELEVATION
 40
0.0
  9
$THICKNESS
 40
0.0
  9
$LIMCHECK
 70
     0
  9
$BLIPMODE
 70
     0
  9
$CHAMFERA
 40
0.0
  9
$CHAMFERB
 40
0.0
  9
$SKPOLY
 70
     0
  9
$TDCREATE
 40
2452282.428316
  9
$TDUPDATE
 40
2452292.363205
  9
$TDINDWG
 40
0.01162
  9
$TDUSRTIMER
 40
0.01162
  9
$USRTIMER
 70
     1
  9
$ANGBASE
 50
0.0
  9
$ANGDIR
 70
     0
  9
$PDMODE
 70
     0
  9
$PDSIZE
 40
0.0
  9
$PLINEWID
 40
0.0
  9
$COORDS
 70
     2
  9
$SPLFRAME
 70
     0
  9
$SPLINETYPE
 70
     6
  9
$SPLINESEGS
 70
     8
  9
$ATTDIA
 70
     0
  9
$ATTREQ
 70
     1
  9
$HANDLING
 70
     1
  9
$HANDSEED
  5
330A
  9
$SURFTAB1
 70
     6
  9
$SURFTAB2
 70
     6
  9
$SURFTYPE
 70
     6
  9
$SURFU
 70
     6
  9
$SURFV
 70
     6
  9
$UCSNAME
  2

  9
$UCSORG
 10
0.0
 20
0.0
 30
0.0
  9
$UCSXDIR
 10
1.0
 20
0.0
 30
0.0
  9
$UCSYDIR
 10
0.0
 20
1.0
 30
0.0
  9
$PUCSNAME
  2

  9
$PUCSORG
 10
0.0
 20
0.0
 30
0.0
  9
$PUCSXDIR
 10
1.0
 20
0.0
 30
0.0
  9
$PUCSYDIR
 10
0.0
 20
1.0
 30
0.0
  9
$USERI1
 70
     0
  9
$USERI2
 70
     0
  9
$USERI3
 70
     0
  9
$USERI4
 70
     0
  9
$USERI5
 70
     0
  9
$USERR1
 40
0.0
  9
$USERR2
 40
0.0
  9
$USERR3
 40
0.0
  9
$USERR4
 40
0.0
  9
$USERR5
 40
0.0
  9
$WORLDVIEW
 70
     1
  9
$SHADEDGE
 70
     3
  9
$SHADEDIF
 70
    70
  9
$TILEMODE
 70
     1
  9
$MAXACTVP
 70
    48
  9
$PLIMCHECK
 70
     0
  9
$PEXTMIN
 10
1.000000E+020
 20
1.000000E+020
 30
1.000000E+020
  9
$PEXTMAX
 10
-1.000000E+020
 20
-1.000000E+020
 30
-1.000000E+020
  9
$PLIMMIN
 10
0.0
 20
0.0
  9
$PLIMMAX
 10
12.0
 20
9.0
  9
$UNITMODE
 70
     0
  9
$VISRETAIN
 70
     1
  9
$PLINEGEN
 70
     0
  9
$PSLTSCALE
 70
     1
  0
ENDSEC
  0
SECTION
  2
TABLES
  0
TABLE
  2
VPORT
 70
     2
  0
VPORT
  2
*ACTIVE
 70
     0
 10
0.0
 20
0.0
 11
1.0
 21
1.0
 12
163.955569
 22
175.95333
 13
0.0
 23
0.0
 14
1.0
 24
1.0
 15
0.0
 25
0.0
 16
0.0
 26
0.0
 36
1.0
 17
0.0
 27
0.0
 37
0.0
 40
213.131707
 41
1.700368
 42
50.0
 43
0.0
 44
0.0
 50
0.0
 51
0.0
 71
     0
 72
   100
 73
     1
 74
     1
 75
     0
 76
     0
 77
     0
 78
     0
  0
ENDTAB
  0
TABLE
  2
LTYPE
 70
     6
  0
LTYPE
  2
CONTINUOUS
 70
     0
  3
Solid line
 72
    65
 73
     0
 40
0.0
  0
LTYPE
  2
CENTER
 70
     0
  3
____ _ ____ _ ____ _ ____ _ ____ _ ____ _ ____
 72
    65
 73
     4
 40
0.6
 49
0.375
 49
-0.075
 49
0.075
 49
-0.075
  0
LTYPE
  2
HIDDEN
 70
     0
  3
- - - - - - - - - - - - - - - - - - - -
 72
    65
 73
     2
 40
0.2
 49
0.1
 49
-0.1
  0
LTYPE
  2
PHANTOM
 70
     0
  3
_____ _ _ _____ _ _ _____ _ _ _____
 72
    65
 73
     6
 40
0.8
 49
0.45
 49
-0.05
 49
0.1
 49
-0.05
 49
0.1
 49
-0.05
  0
ENDTAB
  0
TABLE
  2
LAYER
 70
     5
  0
LAYER
  2
0
 70
     0
 62
     7
  6
CONTINUOUS
  0
LAYER
  2
DEFPOINTS
 70
     0
 62
     7
  6
CONTINUOUS
  0
ENDTAB
  0
TABLE
  2
STYLE
 70
     1
  0
STYLE
  2
STANDARD
 70
     0
 40
0.0
 41
1.0
 50
0.0
 71
     0
 42
0.2
  3
txt
  4

  0
ENDTAB
  0
TABLE
  2
VIEW
 70
     0
  0
ENDTAB
  0
TABLE
  2
UCS
 70
     0
  0
ENDTAB
  0
TABLE
  2
APPID
 70
     1
  0
APPID
  2
ACAD
 70
     0
  0
ENDTAB
  0
TABLE
  2
DIMSTYLE
 70
     1
  0
DIMSTYLE
  2
STANDARD
 70
     0
  3

  4

  5

  6

  7

 40
1.0
 41
0.18
 42
0.0625
 43
0.02
 44
0.1
 45
0.0
 46
0.0
 47
0.0
 48
0.0
140
0.18
141
0.0
142
0.0
143
25.4
144
1.0
145
0.0
146
1.0
147
1.0
 71
     0
 72
     0
 73
     0
 74
     0
 75
     0
 76
     0
 77
     1
 78
     8
170
     0
171
     2
172
     0
173
     0
174
     0
175
     0
176
     0
177
     0
178
     0
  0
ENDTAB
  0
ENDSEC
  0
SECTION
  2
BLOCKS
  0
BLOCK
  8
0
  2
$MODEL_SPACE
 70
     0
 10
0.0
 20
0.0
 30
0.0
  3
$MODEL_SPACE
  1

  0
ENDBLK
  5
20
  8
0
  0
BLOCK
 67
     1
  8
0
  2
$PAPER_SPACE
 70
     0
 10
0.0
 20
0.0
 30
0.0
  3
$PAPER_SPACE
  1

  0
ENDBLK
  5
1C
 67
     1
  8
0
  0
BLOCK
  8
0
  2
*D0
 70
     1
 10
0.0
 20
0.0
 30
0.0
  3
*D0
  1

  0
LINE
  5
2B35
  8
0
 62
     0
 10
113.879274
 20
260.579101
 30
0.0
 11
113.879274
 21
278.85017
 31
0.0
1001
ACAD
1000
RTLwPs
1070
   158
  0
LINE
  5
2B36
  8
0
 62
     0
 10
240.579274
 20
230.441418
 30
0.0
 11
240.579274
 21
278.85017
 31
0.0
1001
ACAD
1000
RTLwPs
1070
   158
  0
LINE
  5
2B37
  8
0
 62
     0
 10
116.379274
 20
277.85017
 30
0.0
 11
238.079274
 21
277.85017
 31
0.0
1001
ACAD
1000
RTLwPs
1070
   158
  0
SOLID
  5
2B38
  8
0
 62
     0
 10
116.379274
 20
278.266837
 30
0.0
 11
116.379274
 21
277.433504
 31
0.0
 12
113.879274
 22
277.85017
 32
0.0
 13
113.879274
 23
277.85017
 33
0.0
  0
SOLID
  5
2B39
  8
0
 62
     0
 10
238.079274
 20
278.266837
 30
0.0
 11
238.079274
 21
277.433504
 31
0.0
 12
240.579274
 22
277.85017
 32
0.0
 13
240.579274
 23
277.85017
 33
0.0
  0
TEXT
  8
0
  40
2.5
  5
3307
  62
0
  72
0
  71
0
 10
172.229
 20
275.675
 30
0.000000
  1
126.7
  0
POINT
  5
2B3B
  8
DEFPOINTS
 62
     0
 10
113.879274
 20
259.579101
 30
0.0
  0
POINT
  5
2B3C
  8
DEFPOINTS
 62
     0
 10
240.579274
 20
229.441418
 30
0.0
  0
POINT
  5
2B3D
  8
DEFPOINTS
 62
     0
 10
240.579274
 20
277.85017
 30
0.0
  0
ENDBLK
  5
2A11
  8
0
  0
BLOCK
  8
0
  2
*D1
 70
     1
 10
0.0
 20
0.0
 30
0.0
  3
*D1
  1

  0
LINE
  5
2B2C
  8
0
 62
     0
 10
113.879274
 20
83.631999
 30
0.0
 11
113.879274
 21
70.568002
 31
0.0
1001
ACAD
1000
RTLwPs
1070
   158
  0
LINE
  5
2B2D
  8
0
 62
     0
 10
239.279274
 20
140.80555
 30
0.0
 11
239.279274
 21
70.568002
 31
0.0
1001
ACAD
1000
RTLwPs
1070
   158
  0
LINE
  5
2B2E
  8
0
 62
     0
 10
116.379274
 20
71.568002
 30
0.0
 11
236.779274
 21
71.568002
 31
0.0
1001
ACAD
1000
RTLwPs
1070
   158
  0
SOLID
  5
2B2F
  8
0
 62
     0
 10
116.379274
 20
71.984669
 30
0.0
 11
116.379274
 21
71.151335
 31
0.0
 12
113.879274
 22
71.568002
 32
0.0
 13
113.879274
 23
71.568002
 33
0.0
  0
SOLID
  5
2B30
  8
0
 62
     0
 10
236.779274
 20
71.984669
 30
0.0
 11
236.779274
 21
71.151335
 31
0.0
 12
239.279274
 22
71.568002
 32
0.0
 13
239.279274
 23
71.568002
 33
0.0
  0
TEXT
  8
0
  40
2.5
  5
3308
  62
0
  72
0
  71
0
 10
171.579
 20
69.3930
 30
0.000000
  1
125.4
  0
POINT
  5
2B32
  8
DEFPOINTS
 62
     0
 10
113.879274
 20
84.631999
 30
0.0
  0
POINT
  5
2B33
  8
DEFPOINTS
 62
     0
 10
239.279274
 20
141.80555
 30
0.0
  0
POINT
  5
2B34
  8
DEFPOINTS
 62
     0
 10
239.279274
 20
71.568002
 30
0.0
  0
ENDBLK
  5
2A1D
  8
0
  0
BLOCK
  8
0
  2
*D2
 70
     1
 10
0.0
 20
0.0
 30
0.0
  3
*D2
  1

  0
LINE
  5
2B23
  8
0
 62
     0
 10
111.779274
 20
259.579101
 30
0.0
 11
89.827479
 21
259.579101
 31
0.0
1001
ACAD
1000
RTLwPs
1070
   158
  0
LINE
  5
2B24
  8
0
 62
     0
 10
114.479274
 20
84.631999
 30
0.0
 11
89.827479
 21
84.631999
 31
0.0
1001
ACAD
1000
RTLwPs
1070
   158
  0
LINE
  5
2B25
  8
0
 62
     0
 10
90.827479
 20
257.079101
 30
0.0
 11
90.827479
 21
87.131999
 31
0.0
1001
ACAD
1000
RTLwPs
1070
   158
  0
SOLID
  5
2B26
  8
0
 62
     0
 10
90.410812
 20
257.079101
 30
0.0
 11
91.244145
 21
257.079101
 31
0.0
 12
90.827479
 22
259.579101
 32
0.0
 13
90.827479
 23
259.579101
 33
0.0
  0
SOLID
  5
2B27
  8
0
 62
     0
 10
90.410812
 20
87.131999
 30
0.0
 11
91.244145
 21
87.131999
 31
0.0
 12
90.827479
 22
84.631999
 32
0.0
 13
90.827479
 23
84.631999
 33
0.0
  0
TEXT
  8
0
  40
2.5
  5
3309
  62
0
  72
0
  71
0
 10
83.5775
 20
167.681
 30
0.000000
  1
174.95
  0
POINT
  5
2B29
  8
DEFPOINTS
 62
     0
 10
112.779274
 20
259.579101
 30
0.0
  0
POINT
  5
2B2A
  8
DEFPOINTS
 62
     0
 10
115.479274
 20
84.631999
 30
0.0
  0
POINT
  5
2B2B
  8
DEFPOINTS
 62
     0
 10
90.827479
 20
84.631999
 30
0.0
  0
ENDBLK
  5
2A29
  8
0
  0
ENDSEC
  0
SECTION
  2
ENTITIES
  0
ARC
  5
25B8
  8
0
 62
     0
 10
170.569274
 20
219.29555
 30
0.0
 40
0.39
 50
180.0
 51
270.0
  0
LINE
  5
25B9
  8
0
 62
     0
 10
134.529844
 20
236.70555
 30
0.0
 11
224.57913
 21
236.70555
 31
0.0
  0
LINE
  5
25BA
  8
0
 62
     0
 10
180.079274
 20
236.20555
 30
0.0
 11
156.179274
 21
236.20555
 31
0.0
  0
LINE
  5
25BB
  8
0
 62
     0
 10
175.689274
 20
222.90555
 30
0.0
 11
164.469274
 21
222.90555
 31
0.0
  0
LINE
  5
25BC
  8
0
 62
     0
 10
164.079274
 20
221.22555
 30
0.0
 11
176.079274
 21
221.22555
 31
0.0
  0
LINE
  5
25BD
  8
0
 62
     0
 10
174.679274
 20
181.20555
 30
0.0
 11
169.679274
 21
181.20555
 31
0.0
  0
LINE
  5
25BE
  8
0
 62
     0
 10
169.679274
 20
179.40555
 30
0.0
 11
173.679274
 21
179.40555
 31
0.0
  0
LINE
  5
25BF
  8
0
 62
     0
 10
169.679274
 20
177.70555
 30
0.0
 11
174.679274
 21
177.70555
 31
0.0
  0
LINE
  5
25C0
  8
0
 62
     0
 10
134.529844
 20
107.50555
 30
0.0
 11
180.079274
 21
107.50555
 31
0.0
  0
DIMENSION
  5
25C1
  8
0
 62
     0
  2
*D0
 10
240.579274
 20
277.85017
 30
0.0
 11
177.229274
 21
280.10017
 31
0.0
 70
     0
 13
113.879274
 23
259.579101
 33
0.0
 14
240.579274
 24
229.441418
 34
0.0
1001
ACAD
1000
DSTYLE
1002
{
1070
    41
1040
2.5
1070
    42
1040
1.0
1070
    43
1040
11.259259
1070
    44
1040
1.0
1070
   140
1040
2.5
1070
   141
1040
2.666667
1070
   271
1070
     2
1002
}
  0
DIMENSION
  5
25C2
  8
0
 62
     0
  2
*D1
 10
239.279274
 20
71.568002
 30
0.0
 11
176.579274
 21
73.818002
 31
0.0
 70
     0
 13
113.879274
 23
84.631999
 33
0.0
 14
239.279274
 24
141.80555
 34
0.0
1001
ACAD
1000
DSTYLE
1002
{
1070
    41
1040
2.5
1070
    42
1040
1.0
1070
    43
1040
11.259259
1070
    44
1040
1.0
1070
   140
1040
2.5
1070
   141
1040
2.666667
1070
   271
1070
     2
1002
}
  0
ARC
  5
25C3
  8
0
 62
     0
 10
528.428359
 20
172.10555
 30
0.0
 40
400.0
 50
170.828015
 51
189.171985
  0
ARC
  5
25C4
  8
0
 62
     0
 10
527.679147
 20
172.10555
 30
0.0
 40
399.8
 50
170.845536
 51
189.154464
  0
ARC
  5
25C5
  8
0
 62
     0
 10
527.679147
 20
172.10555
 30
0.0
 40
400.0
 50
170.845549
 51
189.154451
  0
LINE
  5
25C6
  8
0
 62
     0
 10
117.879274
 20
187.780977
 30
0.0
 11
117.879274
 21
194.40555
 31
0.0
  0
LINE
  5
25C7
  8
0
 62
     0
 10
115.979274
 20
193.516339
 30
0.0
 11
115.979274
 21
185.529311
 31
0.0
  0
DIMENSION
  5
25C8
  8
0
 62
     0
  2
*D2
 10
90.827479
 20
84.631999
 30
0.0
 11
88.577479
 21
172.10555
 31
0.0
 70
     0
 13
112.779274
 23
259.579101
 33
0.0
 14
115.479274
 24
84.631999
 34
0.0
 50
270.0
1001
ACAD
1000
DSTYLE
1002
{
1070
    41
1040
2.5
1070
    42
1040
1.0
1070
    43
1040
11.259259
1070
    44
1040
1.0
1070
   140
1040
2.5
1070
   141
1040
2.666667
1070
   271
1070
     2
1002
}
  0
LINE
  5
25C9
  8
0
 62
     0
 10
114.179274
 20
95.10555
 30
0.0
 11
114.179274
 21
157.246704
 31
0.0
  0
LINE
  5
25CA
  8
0
 62
     0
 10
113.879274
 20
85.631999
 30
0.0
 11
113.879274
 21
156.784824
 31
0.0
  0
LINE
  5
25CB
  8
0
 62
     0
 10
110.979274
 20
159.40555
 30
0.0
 11
110.979274
 21
96.10555
 31
0.0
  0
LINE
  5
25CC
  8
0
 62
     0
 10
113.879274
 20
95.40555
 30
0.0
 11
158.223217
 21
95.40555
 31
0.0
  0
LINE
  5
25CD
  8
0
 62
     0
 10
159.979254
 20
95.10555
 30
0.0
 11
114.179274
 21
95.10555
 31
0.0
  0
LINE
  5
25CE
  8
0
 62
     0
 10
110.979274
 20
96.10555
 30
0.0
 11
113.726744
 21
96.10555
 31
0.0
  0
LINE
  5
25CF
  8
0
 62
     0
 10
118.779274
 20
84.631999
 30
0.0
 11
118.779274
 21
95.10555
 31
0.0
  0
LINE
  5
25D0
  8
0
 62
     0
 10
116.479274
 20
84.631999
 30
0.0
 11
116.479274
 21
95.10555
 31
0.0
  0
LINE
  5
25D1
  8
0
 62
     0
 10
118.779274
 20
84.631999
 30
0.0
 11
113.779274
 21
84.631999
 31
0.0
  0
LINE
  5
25D2
  8
0
 62
     0
 10
113.779274
 20
84.631999
 30
0.0
 11
113.779274
 21
85.631999
 31
0.0
  0
LINE
  5
25D3
  8
0
 62
     0
 10
113.779274
 20
85.631999
 30
0.0
 11
113.879274
 21
85.631999
 31
0.0
  0
ARC
  5
25D4
  8
0
 62
     0
 10
117.479274
 20
97.10555
 30
0.0
 40
3.9
 50
157.380135
 51
202.619865
  0
ARC
  5
25D5
  8
0
 62
     0
 10
114.179274
 20
95.40555
 30
0.0
 40
0.3
 50
180.0
 51
270.0
  0
LINE
  5
25D6
  8
0
 62
     0
 10
134.254834
 20
107.20555
 30
0.0
 11
160.479257
 21
107.20555
 31
0.0
  0
LINE
  5
25D7
  8
0
 62
     0
 10
138.479274
 20
107.40555
 30
0.0
 11
134.254834
 21
107.40555
 31
0.0
  0
ARC
  5
25D8
  8
0
 62
     0
 10
134.254834
 20
108.70555
 30
0.0
 40
1.5
 50
189.150997
 51
270.0
  0
ARC
  5
25D9
  8
0
 62
     0
 10
134.529844
 20
108.50555
 30
0.0
 40
1.0
 50
189.171985
 51
270.0
  0
ARC
  5
25DA
  8
0
 62
     0
 10
134.254834
 20
108.70555
 30
0.0
 40
1.299977
 50
189.154464
 51
270.0
  0
LINE
  5
25DB
  8
0
 62
     0
 10
132.971393
 20
108.498725
 30
0.0
 11
132.77394
 21
108.466905
 31
0.0
  0
LINE
  5
25DC
  8
0
 62
     0
 10
134.254834
 20
107.40555
 30
0.0
 11
134.254834
 21
107.20555
 31
0.0
  0
LINE
  5
25DD
  8
0
 62
     0
 10
138.479274
 20
107.50555
 30
0.0
 11
138.479274
 21
107.20555
 31
0.0
  0
LINE
  5
25DE
  8
0
 62
     0
 10
138.779274
 20
107.50555
 30
0.0
 11
138.779274
 21
107.20555
 31
0.0
  0
ARC
  5
25DF
  8
0
 62
     0
 10
159.979274
 20
95.60555
 30
0.0
 40
0.5
 50
270.0
 51
0.0
  0
LINE
  5
25E0
  8
0
 62
     0
 10
160.479274
 20
96.10555
 30
0.0
 11
160.979274
 21
96.10555
 31
0.0
  0
POLYLINE
  5
25E1
  8
0
 62
     0
 66
     1
 10
0.0
 20
0.0
 30
0.0
  0
VERTEX
  5
2BB0
  8
0
 62
     0
 10
159.27629
 20
102.105392
 30
0.0
  0
VERTEX
  5
2BB1
  8
0
 62
     0
 10
159.286385
 20
102.85515
 30
0.0
  0
VERTEX
  5
2BB2
  8
0
 62
     0
 10
159.316932
 20
103.593417
 30
0.0
  0
VERTEX
  5
2BB3
  8
0
 62
     0
 10
159.366036
 20
104.274179
 30
0.0
  0
VERTEX
  5
2BB4
  8
0
 62
     0
 10
159.429209
 20
104.859435
 30
0.0
  0
VERTEX
  5
2BB5
  8
0
 62
     0
 10
159.503578
 20
105.341097
 30
0.0
  0
VERTEX
  5
2BB6
  8
0
 62
     0
 10
159.586786
 20
105.706994
 30
0.0
  0
VERTEX
  5
2BB7
  8
0
 62
     0
 10
159.67295
 20
105.93144
 30
0.0
  0
VERTEX
  5
2BB8
  8
0
 62
     0
 10
159.756509
 20
106.00555
 30
0.0
  0
SEQEND
  5
2BB9
  8
0
 62
     0
  0
POLYLINE
  5
25E2
  8
0
 62
     0
 66
     1
 10
0.0
 20
0.0
 30
0.0
  0
VERTEX
  5
2BBA
  8
0
 62
     0
 10
160.41911
 20
102.105391
 30
0.0
  0
VERTEX
  5
2BBB
  8
0
 62
     0
 10
160.421362
 20
102.859506
 30
0.0
  0
VERTEX
  5
2BBC
  8
0
 62
     0
 10
160.42794
 20
103.599269
 30
0.0
  0
VERTEX
  5
2BBD
  8
0
 62
     0
 10
160.43781
 20
104.279538
 30
0.0
  0
VERTEX
  5
2BBE
  8
0
 62
     0
 10
160.449203
 20
104.863547
 30
0.0
  0
VERTEX
  5
2BBF
  8
0
 62
     0
 10
160.460602
 20
105.344147
 30
0.0
  0
VERTEX
  5
2BC0
  8
0
 62
     0
 10
160.47047
 20
105.708834
 30
0.0
  0
VERTEX
  5
2BC1
  8
0
 62
     0
 10
160.477031
 20
105.932152
 30
0.0
  0
VERTEX
  5
2BC2
  8
0
 62
     0
 10
160.479274
 20
106.00555
 30
0.0
  0
SEQEND
  5
2BC3
  8
0
 62
     0
  0
LINE
  5
25E3
  8
0
 62
     0
 10
158.625721
 20
95.60555
 30
0.0
 11
158.625721
 21
107.20555
 31
0.0
  0
LINE
  5
25E4
  8
0
 62
     0
 10
157.640381
 20
95.10555
 30
0.0
 11
157.640381
 21
107.20555
 31
0.0
  0
LINE
  5
25E5
  8
0
 62
     0
 10
154.479274
 20
107.20555
 30
0.0
 11
154.479274
 21
95.10555
 31
0.0
  0
POLYLINE
  5
25E6
  8
0
 62
     0
 66
     1
 10
0.0
 20
0.0
 30
0.0
  0
VERTEX
  5
2BC4
  8
0
 62
     0
 10
159.756509
 20
106.00555
 30
0.0
  0
VERTEX
  5
2BC5
  8
0
 62
     0
 10
159.834883
 20
105.93257
 30
0.0
  0
VERTEX
  5
2BC6
  8
0
 62
     0
 10
159.907677
 20
105.709331
 30
0.0
  0
VERTEX
  5
2BC7
  8
0
 62
     0
 10
159.970886
 20
105.344135
 30
0.0
  0
VERTEX
  5
2BC8
  8
0
 62
     0
 10
160.022168
 20
104.862675
 30
0.0
  0
VERTEX
  5
2BC9
  8
0
 62
     0
 10
160.06221
 20
104.278212
 30
0.0
  0
VERTEX
  5
2BCA
  8
0
 62
     0
 10
160.091346
 20
103.59809
 30
0.0
  0
VERTEX
  5
2BCB
  8
0
 62
     0
 10
160.108696
 20
102.858587
 30
0.0
  0
VERTEX
  5
2BCC
  8
0
 62
     0
 10
160.114313
 20
102.105709
 30
0.0
  0
SEQEND
  5
2BCD
  8
0
 62
     0
  0
LINE
  5
25E7
  8
0
 62
     0
 10
160.479274
 20
98.205632
 30
0.0
 11
160.479274
 21
95.60555
 31
0.0
  0
POLYLINE
  5
25E8
  8
0
 62
     0
 66
     1
 10
0.0
 20
0.0
 30
0.0
  0
VERTEX
  5
2BCE
  8
0
 62
     0
 10
158.048366
 20
95.10555
 30
0.0
  0
VERTEX
  5
2BCF
  8
0
 62
     0
 10
158.115277
 20
95.128385
 30
0.0
  0
VERTEX
  5
2BD0
  8
0
 62
     0
 10
158.172002
 20
95.193415
 30
0.0
  0
VERTEX
  5
2BD1
  8
0
 62
     0
 10
158.209906
 20
95.290743
 30
0.0
  0
VERTEX
  5
2BD2
  8
0
 62
     0
 10
158.223217
 20
95.40555
 30
0.0
  0
SEQEND
  5
2BD3
  8
0
 62
     0
  0
POLYLINE
  5
25E9
  8
0
 62
     0
 66
     1
 10
0.0
 20
0.0
 30
0.0
  0
VERTEX
  5
2BD4
  8
0
 62
     0
 10
158.625721
 20
95.60555
 30
0.0
  0
VERTEX
  5
2BD5
  8
0
 62
     0
 10
158.578617
 20
95.444653
 30
0.0
  0
VERTEX
  5
2BD6
  8
0
 62
     0
 10
158.48444
 20
95.302675
 30
0.0
  0
VERTEX
  5
2BD7
  8
0
 62
     0
 10
158.355292
 20
95.194366
 30
0.0
  0
VERTEX
  5
2BD8
  8
0
 62
     0
 10
158.205271
 20
95.127704
 30
0.0
  0
VERTEX
  5
2BD9
  8
0
 62
     0
 10
158.048366
 20
95.10555
 30
0.0
  0
SEQEND
  5
2BDA
  8
0
 62
     0
  0
POLYLINE
  5
25EA
  8
0
 62
     0
 66
     1
 10
0.0
 20
0.0
 30
0.0
  0
VERTEX
  5
2BDB
  8
0
 62
     0
 10
158.625721
 20
95.60555
 30
0.0
  0
VERTEX
  5
2BDC
  8
0
 62
     0
 10
158.58092
 20
95.541157
 30
0.0
  0
VERTEX
  5
2BDD
  8
0
 62
     0
 10
158.510214
 20
95.484348
 30
0.0
  0
VERTEX
  5
2BDE
  8
0
 62
     0
 10
158.421405
 20
95.441031
 30
0.0
  0
VERTEX
  5
2BDF
  8
0
 62
     0
 10
158.322971
 20
95.414376
 30
0.0
  0
VERTEX
  5
2BE0
  8
0
 62
     0
 10
158.223217
 20
95.40555
 30
0.0
  0
SEQEND
  5
2BE1
  8
0
 62
     0
  0
LINE
  5
25EB
  8
0
 62
     0
 10
160.479274
 20
95.60555
 30
0.0
 11
158.625721
 21
95.60555
 31
0.0
  0
POLYLINE
  5
25EC
  8
0
 62
     0
 66
     1
 10
0.0
 20
0.0
 30
0.0
  0
VERTEX
  5
2BE2
  8
0
 62
     0
 10
160.114313
 20
102.105709
 30
0.0
  0
VERTEX
  5
2BE3
  8
0
 62
     0
 10
160.108707
 20
101.353279
 30
0.0
  0
VERTEX
  5
2BE4
  8
0
 62
     0
 10
160.091379
 20
100.614014
 30
0.0
  0
VERTEX
  5
2BE5
  8
0
 62
     0
 10
160.062235
 20
99.933347
 30
0.0
  0
VERTEX
  5
2BE6
  8
0
 62
     0
 10
160.022182
 20
99.348582
 30
0.0
  0
VERTEX
  5
2BE7
  8
0
 62
     0
 10
159.970934
 20
98.867328
 30
0.0
  0
VERTEX
  5
2BE8
  8
0
 62
     0
 10
159.90776
 20
98.502128
 30
0.0
  0
VERTEX
  5
2BE9
  8
0
 62
     0
 10
159.834934
 20
98.278629
 30
0.0
  0
VERTEX
  5
2BEA
  8
0
 62
     0
 10
159.756509
 20
98.20555
 30
0.0
  0
SEQEND
  5
2BEB
  8
0
 62
     0
  0
POLYLINE
  5
25ED
  8
0
 62
     0
 66
     1
 10
0.0
 20
0.0
 30
0.0
  0
VERTEX
  5
2BEC
  8
0
 62
     0
 10
160.479274
 20
98.20555
 30
0.0
  0
VERTEX
  5
2BED
  8
0
 62
     0
 10
160.477039
 20
98.278696
 30
0.0
  0
VERTEX
  5
2BEE
  8
0
 62
     0
 10
160.470484
 20
98.501754
 30
0.0
  0
VERTEX
  5
2BEF
  8
0
 62
     0
 10
160.460613
 20
98.866513
 30
0.0
  0
VERTEX
  5
2BF0
  8
0
 62
     0
 10
160.449207
 20
99.347385
 30
0.0
  0
VERTEX
  5
2BF1
  8
0
 62
     0
 10
160.437817
 20
99.931131
 30
0.0
  0
VERTEX
  5
2BF2
  8
0
 62
     0
 10
160.427951
 20
100.610882
 30
0.0
  0
VERTEX
  5
2BF3
  8
0
 62
     0
 10
160.421366
 20
101.350875
 30
0.0
  0
VERTEX
  5
2BF4
  8
0
 62
     0
 10
160.41911
 20
102.105391
 30
0.0
  0
SEQEND
  5
2BF5
  8
0
 62
     0
  0
POLYLINE
  5
25EE
  8
0
 62
     0
 66
     1
 10
0.0
 20
0.0
 30
0.0
  0
VERTEX
  5
2BF6
  8
0
 62
     0
 10
159.756509
 20
98.20555
 30
0.0
  0
VERTEX
  5
2BF7
  8
0
 62
     0
 10
159.673011
 20
98.279555
 30
0.0
  0
VERTEX
  5
2BF8
  8
0
 62
     0
 10
159.586895
 20
98.503727
 30
0.0
  0
VERTEX
  5
2BF9
  8
0
 62
     0
 10
159.503652
 20
98.869605
 30
0.0
  0
VERTEX
  5
2BFA
  8
0
 62
     0
 10
159.429236
 20
99.351458
 30
0.0
  0
VERTEX
  5
2BFB
  8
0
 62
     0
 10
159.366082
 20
99.9364
 30
0.0
  0
VERTEX
  5
2BFC
  8
0
 62
     0
 10
159.316991
 20
100.61663
 30
0.0
  0
VERTEX
  5
2BFD
  8
0
 62
     0
 10
159.286406
 20
101.355165
 30
0.0
  0
VERTEX
  5
2BFE
  8
0
 62
     0
 10
159.27629
 20
102.105392
 30
0.0
  0
SEQEND
  5
2BFF
  8
0
 62
     0
  0
LINE
  5
25EF
  8
0
 62
     0
 10
152.979274
 20
107.50555
 30
0.0
 11
152.979274
 21
107.20555
 31
0.0
  0
LINE
  5
25F0
  8
0
 62
     0
 10
160.479274
 20
107.20555
 30
0.0
 11
160.479274
 21
106.005493
 31
0.0
  0
LINE
  5
25F1
  8
0
 62
     0
 10
159.179274
 20
107.50555
 30
0.0
 11
159.179274
 21
107.20555
 31
0.0
  0
LINE
  5
25F2
  8
0
 62
     0
 10
160.979274
 20
96.10555
 30
0.0
 11
160.979274
 21
107.50555
 31
0.0
  0
LINE
  5
25F3
  8
0
 62
     0
 10
117.579274
 20
156.40555
 30
0.0
 11
117.579274
 21
149.758407
 31
0.0
  0
LINE
  5
25F4
  8
0
 62
     0
 10
116.229274
 20
149.80555
 30
0.0
 11
116.229274
 21
156.40555
 31
0.0
  0
LINE
  5
25F5
  8
0
 62
     0
 10
115.079274
 20
156.40555
 30
0.0
 11
115.079274
 21
149.845709
 31
0.0
  0
LINE
  5
25F6
  8
0
 62
     0
 10
117.579274
 20
149.758407
 30
0.0
 11
115.079274
 21
149.845709
 31
0.0
  0
LINE
  5
25F7
  8
0
 62
     0
 10
117.579274
 20
149.80555
 30
0.0
 11
116.229274
 21
149.80555
 31
0.0
  0
LINE
  5
25F8
  8
0
 62
     0
 10
115.979274
 20
159.40555
 30
0.0
 11
110.979274
 21
159.40555
 31
0.0
  0
LINE
  5
25F9
  8
0
 62
     0
 10
114.379274
 20
169.7829
 30
0.0
 11
114.379274
 21
184.0282
 31
0.0
  0
LINE
  5
25FA
  8
0
 62
     0
 10
117.879274
 20
158.80555
 30
0.0
 11
117.879274
 21
166.030124
 31
0.0
  0
LINE
  5
25FB
  8
0
 62
     0
 10
115.979274
 20
168.28179
 30
0.0
 11
115.979274
 21
159.40555
 31
0.0
  0
LINE
  5
25FC
  8
0
 62
     0
 10
115.079274
 20
156.40555
 30
0.0
 11
117.579274
 21
156.40555
 31
0.0
  0
LINE
  5
25FD
  8
0
 62
     0
 10
114.129274
 20
157.217837
 30
0.0
 11
116.879274
 21
158.80555
 31
0.0
  0
ARC
  5
25FE
  8
0
 62
     0
 10
114.379274
 20
156.784824
 30
0.0
 40
0.5
 50
120.0
 51
180.0
  0
LINE
  5
25FF
  8
0
 62
     0
 10
116.879274
 20
158.80555
 30
0.0
 11
117.879274
 21
158.80555
 31
0.0
  0
LINE
  5
2600
  8
0
 62
     0
 10
116.879274
 20
167.762175
 30
0.0
 11
114.879274
 21
168.916875
 31
0.0
  0
ARC
  5
2601
  8
0
 62
     0
 10
115.379274
 20
169.7829
 30
0.0
 40
1.0
 50
180.0
 51
240.0
  0
ARC
  5
2602
  8
0
 62
     0
 10
115.879274
 20
166.030124
 30
0.0
 40
2.0
 50
0.0
 51
60.0
  0
LINE
  5
2603
  8
0
 62
     0
 10
114.879274
 20
184.894225
 30
0.0
 11
116.879274
 21
186.048926
 31
0.0
  0
ARC
  5
2604
  8
0
 62
     0
 10
115.379274
 20
184.0282
 30
0.0
 40
1.0
 50
120.0
 51
180.0
  0
ARC
  5
2605
  8
0
 62
     0
 10
115.879274
 20
187.780977
 30
0.0
 40
2.0
 50
300.0
 51
0.0
  0
LINE
  5
2606
  8
0
 62
     0
 10
141.479274
 20
147.40555
 30
0.0
 11
141.479274
 21
154.40555
 31
0.0
  0
LINE
  5
2607
  8
0
 62
     0
 10
140.979274
 20
154.60555
 30
0.0
 11
140.979274
 21
147.20555
 31
0.0
  0
LINE
  5
2608
  8
0
 62
     0
 10
138.554403
 20
154.40555
 30
0.0
 11
138.554403
 21
147.40555
 31
0.0
  0
LINE
  5
2609
  8
0
 62
     0
 10
136.979274
 20
153.90555
 30
0.0
 11
136.979274
 21
147.90555
 31
0.0
  0
POLYLINE
  5
260A
  8
0
 62
     0
 66
     1
 10
0.0
 20
0.0
 30
0.0
  0
VERTEX
  5
2C00
  8
0
 62
     0
 10
140.979274
 20
123.60555
 30
0.0
  0
VERTEX
  5
2C01
  8
0
 62
     0
 10
140.963518
 20
123.545919
 30
0.0
  0
VERTEX
  5
2C02
  8
0
 62
     0
 10
140.922138
 20
123.495519
 30
0.0
  0
VERTEX
  5
2C03
  8
0
 62
     0
 10
140.864895
 20
123.457045
 30
0.0
  0
VERTEX
  5
2C04
  8
0
 62
     0
 10
140.79653
 20
123.42928
 30
0.0
  0
VERTEX
  5
2C05
  8
0
 62
     0
 10
140.718923
 20
123.41182
 30
0.0
  0
VERTEX
  5
2C06
  8
0
 62
     0
 10
140.632864
 20
123.40555
 30
0.0
  0
SEQEND
  5
2C07
  8
0
 62
     0
  0
POLYLINE
  5
260B
  8
0
 62
     0
 66
     1
 10
0.0
 20
0.0
 30
0.0
  0
VERTEX
  5
2C08
  8
0
 62
     0
 10
140.979274
 20
116.20555
 30
0.0
  0
VERTEX
  5
2C09
  8
0
 62
     0
 10
140.963518
 20
116.265182
 30
0.0
  0
VERTEX
  5
2C0A
  8
0
 62
     0
 10
140.922138
 20
116.315581
 30
0.0
  0
VERTEX
  5
2C0B
  8
0
 62
     0
 10
140.864895
 20
116.354056
 30
0.0
  0
VERTEX
  5
2C0C
  8
0
 62
     0
 10
140.79653
 20
116.38182
 30
0.0
  0
VERTEX
  5
2C0D
  8
0
 62
     0
 10
140.718923
 20
116.39928
 30
0.0
  0
VERTEX
  5
2C0E
  8
0
 62
     0
 10
140.632864
 20
116.40555
 30
0.0
  0
SEQEND
  5
2C0F
  8
0
 62
     0
  0
LINE
  5
260C
  8
0
 62
     0
 10
140.979274
 20
123.90555
 30
0.0
 11
137.979274
 21
123.90555
 31
0.0
  0
LINE
  5
260D
  8
0
 62
     0
 10
140.979274
 20
123.60555
 30
0.0
 11
137.979274
 21
123.60555
 31
0.0
  0
LINE
  5
260E
  8
0
 62
     0
 10
137.979274
 20
116.20555
 30
0.0
 11
140.979274
 21
116.20555
 31
0.0
  0
LINE
  5
260F
  8
0
 62
     0
 10
137.979274
 20
115.90555
 30
0.0
 11
140.979274
 21
115.90555
 31
0.0
  0
LINE
  5
2610
  8
0
 62
     0
 10
138.554403
 20
123.40555
 30
0.0
 11
138.554403
 21
116.40555
 31
0.0
  0
LINE
  5
2611
  8
0
 62
     0
 10
136.979274
 20
122.90555
 30
0.0
 11
136.979274
 21
116.90555
 31
0.0
  0
ARC
  5
2612
  8
0
 62
     0
 10
137.979274
 20
116.90555
 30
0.0
 40
1.0
 50
180.0
 51
270.0
  0
ARC
  5
2613
  8
0
 62
     0
 10
137.979274
 20
117.40555
 30
0.0
 40
1.0
 50
180.0
 51
270.0
  0
LINE
  5
2614
  8
0
 62
     0
 10
137.979274
 20
116.40555
 30
0.0
 11
140.632864
 21
116.40555
 31
0.0
  0
ARC
  5
2615
  8
0
 62
     0
 10
137.979274
 20
117.40555
 30
0.0
 40
1.199987
 50
215.591137
 51
270.0
  0
LINE
  5
2616
  8
0
 62
     0
 10
137.979274
 20
116.20555
 30
0.0
 11
137.979274
 21
116.40555
 31
0.0
  0
LINE
  5
2617
  8
0
 62
     0
 10
140.632864
 20
123.40555
 30
0.0
 11
137.979274
 21
123.40555
 31
0.0
  0
ARC
  5
2618
  8
0
 62
     0
 10
137.979274
 20
122.90555
 30
0.0
 40
1.0
 50
90.0
 51
180.0
  0
ARC
  5
2619
  8
0
 62
     0
 10
137.979274
 20
122.40555
 30
0.0
 40
1.199987
 50
90.0
 51
144.348178
  0
ARC
  5
261A
  8
0
 62
     0
 10
137.979274
 20
122.40555
 30
0.0
 40
1.0
 50
90.0
 51
162.058535
  0
LINE
  5
261B
  8
0
 62
     0
 10
137.979274
 20
123.60555
 30
0.0
 11
137.979274
 21
123.40555
 31
0.0
  0
LINE
  5
261C
  8
0
 62
     0
 10
141.479274
 20
116.40555
 30
0.0
 11
141.479274
 21
123.40555
 31
0.0
  0
LINE
  5
261D
  8
0
 62
     0
 10
140.979274
 20
123.60555
 30
0.0
 11
140.979274
 21
116.20555
 31
0.0
  0
ARC
  5
261E
  8
0
 62
     0
 10
140.979274
 20
116.40555
 30
0.0
 40
0.5
 50
270.0
 51
0.0
  0
ARC
  5
261F
  8
0
 62
     0
 10
140.979274
 20
123.40555
 30
0.0
 40
0.5
 50
0.0
 51
90.0
  0
LINE
  5
2620
  8
0
 62
     0
 10
137.979274
 20
147.20555
 30
0.0
 11
140.979274
 21
147.20555
 31
0.0
  0
LINE
  5
2621
  8
0
 62
     0
 10
137.979274
 20
146.90555
 30
0.0
 11
140.979274
 21
146.90555
 31
0.0
  0
POLYLINE
  5
2622
  8
0
 62
     0
 66
     1
 10
0.0
 20
0.0
 30
0.0
  0
VERTEX
  5
2C10
  8
0
 62
     0
 10
140.979274
 20
147.20555
 30
0.0
  0
VERTEX
  5
2C11
  8
0
 62
     0
 10
140.963518
 20
147.265182
 30
0.0
  0
VERTEX
  5
2C12
  8
0
 62
     0
 10
140.922138
 20
147.315581
 30
0.0
  0
VERTEX
  5
2C13
  8
0
 62
     0
 10
140.864895
 20
147.354056
 30
0.0
  0
VERTEX
  5
2C14
  8
0
 62
     0
 10
140.79653
 20
147.38182
 30
0.0
  0
VERTEX
  5
2C15
  8
0
 62
     0
 10
140.718923
 20
147.39928
 30
0.0
  0
VERTEX
  5
2C16
  8
0
 62
     0
 10
140.632864
 20
147.40555
 30
0.0
  0
SEQEND
  5
2C17
  8
0
 62
     0
  0
LINE
  5
2623
  8
0
 62
     0
 10
137.979274
 20
147.40555
 30
0.0
 11
140.632864
 21
147.40555
 31
0.0
  0
ARC
  5
2624
  8
0
 62
     0
 10
137.979274
 20
147.90555
 30
0.0
 40
1.0
 50
180.0
 51
270.0
  0
ARC
  5
2625
  8
0
 62
     0
 10
137.979274
 20
148.40555
 30
0.0
 40
1.199987
 50
215.591137
 51
270.0
  0
ARC
  5
2626
  8
0
 62
     0
 10
137.979274
 20
148.40555
 30
0.0
 40
1.0
 50
180.0
 51
270.0
  0
LINE
  5
2627
  8
0
 62
     0
 10
137.979274
 20
147.20555
 30
0.0
 11
137.979274
 21
147.40555
 31
0.0
  0
ARC
  5
2628
  8
0
 62
     0
 10
140.979274
 20
147.40555
 30
0.0
 40
0.5
 50
270.0
 51
0.0
  0
LINE
  5
2629
  8
0
 62
     0
 10
152.879274
 20
133.60555
 30
0.0
 11
152.879274
 21
129.60555
 31
0.0
  0
LINE
  5
262A
  8
0
 62
     0
 10
152.779274
 20
133.22358
 30
0.0
 11
152.779274
 21
129.60555
 31
0.0
  0
LINE
  5
262B
  8
0
 62
     0
 10
151.779274
 20
133.22358
 30
0.0
 11
151.779274
 21
129.60555
 31
0.0
  0
LINE
  5
262C
  8
0
 62
     0
 10
151.579274
 20
129.60555
 30
0.0
 11
151.579274
 21
133.60555
 31
0.0
  0
LINE
  5
262D
  8
0
 62
     0
 10
152.779274
 20
130.30555
 30
0.0
 11
152.879274
 21
130.30555
 31
0.0
  0
LINE
  5
262E
  8
0
 62
     0
 10
151.579274
 20
130.30555
 30
0.0
 11
151.779274
 21
130.30555
 31
0.0
  0
LINE
  5
262F
  8
0
 62
     0
 10
152.779274
 20
130.00555
 30
0.0
 11
152.879274
 21
130.00555
 31
0.0
  0
LINE
  5
2630
  8
0
 62
     0
 10
151.579274
 20
130.00555
 30
0.0
 11
151.779274
 21
130.00555
 31
0.0
  0
LINE
  5
2631
  8
0
 62
     0
 10
152.779274
 20
129.987521
 30
0.0
 11
151.579274
 21
129.987521
 31
0.0
  0
LINE
  5
2632
  8
0
 62
     0
 10
152.879274
 20
129.60555
 30
0.0
 11
151.579274
 21
129.60555
 31
0.0
  0
POLYLINE
  5
2633
  8
0
 62
     0
 66
     1
 10
0.0
 20
0.0
 30
0.0
  0
VERTEX
  5
2C18
  8
0
 62
     0
 10
161.179274
 20
113.90555
 30
0.0
  0
VERTEX
  5
2C19
  8
0
 62
     0
 10
161.374178
 20
114.506272
 30
0.0
  0
VERTEX
  5
2C1A
  8
0
 62
     0
 10
161.467754
 20
115.106013
 30
0.0
  0
VERTEX
  5
2C1B
  8
0
 62
     0
 10
161.467775
 20
115.704811
 30
0.0
  0
VERTEX
  5
2C1C
  8
0
 62
     0
 10
161.374201
 20
116.304733
 30
0.0
  0
VERTEX
  5
2C1D
  8
0
 62
     0
 10
161.179274
 20
116.90555
 30
0.0
  0
SEQEND
  5
2C1E
  8
0
 62
     0
  0
LINE
  5
2634
  8
0
 62
     0
 10
162.479274
 20
116.90555
 30
0.0
 11
162.479274
 21
113.90555
 31
0.0
  0
LINE
  5
2635
  8
0
 62
     0
 10
162.379274
 20
116.90555
 30
0.0
 11
162.379274
 21
113.90555
 31
0.0
  0
LINE
  5
2636
  8
0
 62
     0
 10
161.179274
 20
113.90555
 30
0.0
 11
161.179274
 21
116.90555
 31
0.0
  0
LINE
  5
2637
  8
0
 62
     0
 10
162.379274
 20
116.642985
 30
0.0
 11
162.479274
 21
116.643858
 31
0.0
  0
LINE
  5
2638
  8
0
 62
     0
 10
162.479274
 20
113.90555
 30
0.0
 11
161.179274
 21
113.90555
 31
0.0
  0
LINE
  5
2639
  8
0
 62
     0
 10
161.179274
 20
116.90555
 30
0.0
 11
162.479274
 21
116.90555
 31
0.0
  0
LINE
  5
263A
  8
0
 62
     0
 10
151.579274
 20
133.60555
 30
0.0
 11
152.879274
 21
133.60555
 31
0.0
  0
LINE
  5
263B
  8
0
 62
     0
 10
156.679274
 20
163.90555
 30
0.0
 11
150.679274
 21
163.90555
 31
0.0
  0
LINE
  5
263C
  8
0
 62
     0
 10
157.279274
 20
163.206089
 30
0.0
 11
150.079274
 21
163.206089
 31
0.0
  0
LINE
  5
263D
  8
0
 62
     0
 10
150.679274
 20
165.90555
 30
0.0
 11
152.179274
 21
167.90555
 31
0.0
  0
LINE
  5
263E
  8
0
 62
     0
 10
150.079274
 20
166.10555
 30
0.0
 11
151.579274
 21
168.10555
 31
0.0
  0
LINE
  5
263F
  8
0
 62
     0
 10
140.979274
 20
154.90555
 30
0.0
 11
137.979274
 21
154.90555
 31
0.0
  0
LINE
  5
2640
  8
0
 62
     0
 10
140.979274
 20
154.60555
 30
0.0
 11
137.979274
 21
154.60555
 31
0.0
  0
POLYLINE
  5
2641
  8
0
 62
     0
 66
     1
 10
0.0
 20
0.0
 30
0.0
  0
VERTEX
  5
2C1F
  8
0
 62
     0
 10
140.979274
 20
154.60555
 30
0.0
  0
VERTEX
  5
2C20
  8
0
 62
     0
 10
140.963518
 20
154.545919
 30
0.0
  0
VERTEX
  5
2C21
  8
0
 62
     0
 10
140.922138
 20
154.495519
 30
0.0
  0
VERTEX
  5
2C22
  8
0
 62
     0
 10
140.864895
 20
154.457045
 30
0.0
  0
VERTEX
  5
2C23
  8
0
 62
     0
 10
140.79653
 20
154.42928
 30
0.0
  0
VERTEX
  5
2C24
  8
0
 62
     0
 10
140.718923
 20
154.41182
 30
0.0
  0
VERTEX
  5
2C25
  8
0
 62
     0
 10
140.632864
 20
154.40555
 30
0.0
  0
SEQEND
  5
2C26
  8
0
 62
     0
  0
LINE
  5
2642
  8
0
 62
     0
 10
140.632864
 20
154.40555
 30
0.0
 11
137.979274
 21
154.40555
 31
0.0
  0
ARC
  5
2643
  8
0
 62
     0
 10
137.979274
 20
153.90555
 30
0.0
 40
1.0
 50
90.0
 51
180.0
  0
ARC
  5
2644
  8
0
 62
     0
 10
137.979274
 20
153.40555
 30
0.0
 40
1.199987
 50
90.0
 51
144.348178
  0
ARC
  5
2645
  8
0
 62
     0
 10
137.979274
 20
153.40555
 30
0.0
 40
1.0
 50
90.0
 51
162.058535
  0
LINE
  5
2646
  8
0
 62
     0
 10
137.979274
 20
154.60555
 30
0.0
 11
137.979274
 21
154.40555
 31
0.0
  0
ARC
  5
2647
  8
0
 62
     0
 10
140.979274
 20
154.40555
 30
0.0
 40
0.5
 50
0.0
 51
90.0
  0
LINE
  5
2648
  8
0
 62
     0
 10
150.679274
 20
163.485873
 30
0.0
 11
150.679274
 21
165.90555
 31
0.0
  0
LINE
  5
2649
  8
0
 62
     0
 10
150.079274
 20
163.206089
 30
0.0
 11
150.079274
 21
166.10555
 31
0.0
  0
LINE
  5
264A
  8
0
 62
     0
 10
150.079274
 20
163.206089
 30
0.0
 11
150.679274
 21
163.485873
 31
0.0
  0
LINE
  5
264B
  8
0
 62
     0
 10
150.079274
 20
166.10555
 30
0.0
 11
150.679274
 21
165.90555
 31
0.0
  0
LINE
  5
264C
  8
0
 62
     0
 10
140.979274
 20
180.55555
 30
0.0
 11
137.979274
 21
180.55555
 31
0.0
  0
LINE
  5
264D
  8
0
 62
     0
 10
137.979274
 20
173.25555
 30
0.0
 11
140.979274
 21
173.25555
 31
0.0
  0
ARC
  5
264E
  8
0
 62
     0
 10
137.979274
 20
179.55555
 30
0.0
 40
1.0
 50
90.0
 51
180.0
  0
ARC
  5
264F
  8
0
 62
     0
 10
137.979274
 20
179.40555
 30
0.0
 40
1.0
 50
90.0
 51
162.058535
  0
LINE
  5
2650
  8
0
 62
     0
 10
138.554403
 20
180.40555
 30
0.0
 11
138.554403
 21
173.40555
 31
0.0
  0
LINE
  5
2651
  8
0
 62
     0
 10
136.979274
 20
179.55555
 30
0.0
 11
136.979274
 21
174.25555
 31
0.0
  0
LINE
  5
2652
  8
0
 62
     0
 10
137.979274
 20
173.40555
 30
0.0
 11
140.632864
 21
173.40555
 31
0.0
  0
ARC
  5
2653
  8
0
 62
     0
 10
137.979274
 20
174.25555
 30
0.0
 40
1.0
 50
180.0
 51
270.0
  0
ARC
  5
2654
  8
0
 62
     0
 10
137.979274
 20
174.40555
 30
0.0
 40
1.0
 50
180.0
 51
270.0
  0
LINE
  5
2655
  8
0
 62
     0
 10
137.979274
 20
173.25555
 30
0.0
 11
137.979274
 21
173.378755
 31
0.0
  0
LINE
  5
2656
  8
0
 62
     0
 10
140.718923
 20
173.39928
 30
0.0
 11
140.632864
 21
173.40555
 31
0.0
  0
POLYLINE
  5
2657
  8
0
 62
     0
 66
     1
 10
0.0
 20
0.0
 30
0.0
  0
VERTEX
  5
2C27
  8
0
 62
     0
 10
140.864895
 20
173.354056
 30
0.0
  0
VERTEX
  5
2C28
  8
0
 62
     0
 10
140.79653
 20
173.38182
 30
0.0
  0
VERTEX
  5
2C29
  8
0
 62
     0
 10
140.718923
 20
173.39928
 30
0.0
  0
SEQEND
  5
2C2A
  8
0
 62
     0
  0
POLYLINE
  5
2658
  8
0
 62
     0
 66
     1
 10
0.0
 20
0.0
 30
0.0
  0
VERTEX
  5
2C2B
  8
0
 62
     0
 10
140.966063
 20
173.25555
 30
0.0
  0
VERTEX
  5
2C2C
  8
0
 62
     0
 10
140.963518
 20
173.265182
 30
0.0
  0
VERTEX
  5
2C2D
  8
0
 62
     0
 10
140.922138
 20
173.315581
 30
0.0
  0
VERTEX
  5
2C2E
  8
0
 62
     0
 10
140.864895
 20
173.354056
 30
0.0
  0
SEQEND
  5
2C2F
  8
0
 62
     0
  0
LINE
  5
2659
  8
0
 62
     0
 10
140.632864
 20
180.40555
 30
0.0
 11
137.979274
 21
180.40555
 31
0.0
  0
LINE
  5
265A
  8
0
 62
     0
 10
137.979274
 20
180.55555
 30
0.0
 11
137.979274
 21
180.432346
 31
0.0
  0
LINE
  5
265B
  8
0
 62
     0
 10
140.718923
 20
180.41182
 30
0.0
 11
140.632864
 21
180.40555
 31
0.0
  0
POLYLINE
  5
265C
  8
0
 62
     0
 66
     1
 10
0.0
 20
0.0
 30
0.0
  0
VERTEX
  5
2C30
  8
0
 62
     0
 10
140.864895
 20
180.457045
 30
0.0
  0
VERTEX
  5
2C31
  8
0
 62
     0
 10
140.79653
 20
180.42928
 30
0.0
  0
VERTEX
  5
2C32
  8
0
 62
     0
 10
140.718923
 20
180.41182
 30
0.0
  0
SEQEND
  5
2C33
  8
0
 62
     0
  0
POLYLINE
  5
265D
  8
0
 62
     0
 66
     1
 10
0.0
 20
0.0
 30
0.0
  0
VERTEX
  5
2C34
  8
0
 62
     0
 10
140.966063
 20
180.55555
 30
0.0
  0
VERTEX
  5
2C35
  8
0
 62
     0
 10
140.963518
 20
180.545919
 30
0.0
  0
VERTEX
  5
2C36
  8
0
 62
     0
 10
140.922138
 20
180.495519
 30
0.0
  0
VERTEX
  5
2C37
  8
0
 62
     0
 10
140.864895
 20
180.457045
 30
0.0
  0
SEQEND
  5
2C38
  8
0
 62
     0
  0
ARC
  5
265E
  8
0
 62
     0
 10
140.979274
 20
180.05555
 30
0.0
 40
0.5
 50
0.0
 51
90.0
  0
LINE
  5
265F
  8
0
 62
     0
 10
140.979274
 20
180.55555
 30
0.0
 11
140.979274
 21
173.25555
 31
0.0
  0
LINE
  5
2660
  8
0
 62
     0
 10
141.479274
 20
173.75555
 30
0.0
 11
141.479274
 21
180.05555
 31
0.0
  0
ARC
  5
2661
  8
0
 62
     0
 10
140.979274
 20
173.75555
 30
0.0
 40
0.5
 50
270.0
 51
0.0
  0
ARC
  5
2662
  8
0
 62
     0
 10
152.679274
 20
169.40555
 30
0.0
 40
1.09998
 50
90.0
 51
180.0
  0
ARC
  5
2663
  8
0
 62
     0
 10
154.679274
 20
169.40555
 30
0.0
 40
1.09998
 50
0.0
 51
90.0
  0
LINE
  5
2664
  8
0
 62
     0
 10
155.779274
 20
169.40555
 30
0.0
 11
155.179274
 21
169.40555
 31
0.0
  0
LINE
  5
2665
  8
0
 62
     0
 10
155.179274
 20
167.90555
 30
0.0
 11
156.679274
 21
165.90555
 31
0.0
  0
POLYLINE
  5
2666
  8
0
 62
     0
 66
     1
 10
0.0
 20
0.0
 30
0.0
  0
VERTEX
  5
2C39
  8
0
 62
     0
 10
155.779274
 20
168.10555
 30
0.0
  0
VERTEX
  5
2C3A
  8
0
 62
     0
 10
155.64351
 20
168.260633
 30
0.0
  0
VERTEX
  5
2C3B
  8
0
 62
     0
 10
155.502742
 20
168.361719
 30
0.0
  0
VERTEX
  5
2C3C
  8
0
 62
     0
 10
155.363935
 20
168.381011
 30
0.0
  0
VERTEX
  5
2C3D
  8
0
 62
     0
 10
155.273344
 20
168.317698
 30
0.0
  0
VERTEX
  5
2C3E
  8
0
 62
     0
 10
155.218475
 20
168.208813
 30
0.0
  0
VERTEX
  5
2C3F
  8
0
 62
     0
 10
155.188969
 20
168.071667
 30
0.0
  0
VERTEX
  5
2C40
  8
0
 62
     0
 10
155.179274
 20
167.90555
 30
0.0
  0
SEQEND
  5
2C41
  8
0
 62
     0
  0
LINE
  5
2667
  8
0
 62
     0
 10
152.178381
 20
169.303223
 30
0.0
 11
155.178153
 21
169.277045
 31
0.0
  0
LINE
  5
2668
  8
0
 62
     0
 10
152.679274
 20
170.50555
 30
0.0
 11
154.679274
 21
170.50555
 31
0.0
  0
LINE
  5
2669
  8
0
 62
     0
 10
152.679274
 20
169.90555
 30
0.0
 11
154.679274
 21
169.90555
 31
0.0
  0
ARC
  5
266A
  8
0
 62
     0
 10
152.679274
 20
169.40555
 30
0.0
 40
0.5
 50
90.0
 51
180.0
  0
LINE
  5
266B
  8
0
 62
     0
 10
151.579274
 20
169.40555
 30
0.0
 11
152.179274
 21
169.40555
 31
0.0
  0
LINE
  5
266C
  8
0
 62
     0
 10
152.679274
 20
170.50555
 30
0.0
 11
152.679274
 21
169.90555
 31
0.0
  0
LINE
  5
266D
  8
0
 62
     0
 10
152.179274
 20
167.90555
 30
0.0
 11
152.179274
 21
169.40555
 31
0.0
  0
LINE
  5
266E
  8
0
 62
     0
 10
151.579274
 20
168.10555
 30
0.0
 11
151.579274
 21
169.40555
 31
0.0
  0
POLYLINE
  5
266F
  8
0
 62
     0
 66
     1
 10
0.0
 20
0.0
 30
0.0
  0
VERTEX
  5
2C42
  8
0
 62
     0
 10
152.179274
 20
167.90555
 30
0.0
  0
VERTEX
  5
2C43
  8
0
 62
     0
 10
152.169579
 20
168.071667
 30
0.0
  0
VERTEX
  5
2C44
  8
0
 62
     0
 10
152.140073
 20
168.208813
 30
0.0
  0
VERTEX
  5
2C45
  8
0
 62
     0
 10
152.085204
 20
168.317698
 30
0.0
  0
VERTEX
  5
2C46
  8
0
 62
     0
 10
151.994613
 20
168.381011
 30
0.0
  0
VERTEX
  5
2C47
  8
0
 62
     0
 10
151.855806
 20
168.361719
 30
0.0
  0
VERTEX
  5
2C48
  8
0
 62
     0
 10
151.715038
 20
168.260633
 30
0.0
  0
VERTEX
  5
2C49
  8
0
 62
     0
 10
151.579274
 20
168.10555
 30
0.0
  0
SEQEND
  5
2C4A
  8
0
 62
     0
  0
ARC
  5
2670
  8
0
 62
     0
 10
154.679274
 20
169.40555
 30
0.0
 40
0.5
 50
0.0
 51
90.0
  0
LINE
  5
2671
  8
0
 62
     0
 10
155.179274
 20
169.40555
 30
0.0
 11
155.179274
 21
167.90555
 31
0.0
  0
LINE
  5
2672
  8
0
 62
     0
 10
154.679274
 20
170.50555
 30
0.0
 11
154.679274
 21
169.90555
 31
0.0
  0
LINE
  5
2673
  8
0
 62
     0
 10
157.279274
 20
166.10555
 30
0.0
 11
157.279274
 21
163.206089
 31
0.0
  0
LINE
  5
2674
  8
0
 62
     0
 10
156.679274
 20
165.90555
 30
0.0
 11
156.679274
 21
163.485873
 31
0.0
  0
LINE
  5
2675
  8
0
 62
     0
 10
157.279274
 20
163.206089
 30
0.0
 11
156.679274
 21
163.485873
 31
0.0
  0
LINE
  5
2676
  8
0
 62
     0
 10
157.279274
 20
166.10555
 30
0.0
 11
156.679274
 21
165.90555
 31
0.0
  0
LINE
  5
2677
  8
0
 62
     0
 10
155.779274
 20
168.10555
 30
0.0
 11
157.279274
 21
166.10555
 31
0.0
  0
LINE
  5
2678
  8
0
 62
     0
 10
155.779274
 20
169.40555
 30
0.0
 11
155.779274
 21
168.10555
 31
0.0
  0
LINE
  5
2679
  8
0
 62
     0
 10
169.679274
 20
181.20555
 30
0.0
 11
169.679274
 21
177.70555
 31
0.0
  0
LINE
  5
267A
  8
0
 62
     0
 10
114.179274
 20
249.10555
 30
0.0
 11
159.979254
 21
249.10555
 31
0.0
  0
LINE
  5
267B
  8
0
 62
     0
 10
113.879274
 20
248.80555
 30
0.0
 11
158.223217
 21
248.80555
 31
0.0
  0
LINE
  5
267C
  8
0
 62
     0
 10
114.179274
 20
249.10555
 30
0.0
 11
114.179274
 21
192.90555
 31
0.0
  0
LINE
  5
267D
  8
0
 62
     0
 10
113.879274
 20
192.90555
 30
0.0
 11
113.879274
 21
258.579101
 31
0.0
  0
LINE
  5
267E
  8
0
 62
     0
 10
110.979274
 20
248.10555
 30
0.0
 11
110.979274
 21
194.40555
 31
0.0
  0
LINE
  5
267F
  8
0
 62
     0
 10
110.979274
 20
194.40555
 30
0.0
 11
113.879274
 21
194.40555
 31
0.0
  0
LINE
  5
2680
  8
0
 62
     0
 10
116.599489
 20
193.80555
 30
0.0
 11
114.970819
 21
193.046089
 31
0.0
  0
LINE
  5
2681
  8
0
 62
     0
 10
114.336891
 20
192.90555
 30
0.0
 11
113.879274
 21
192.90555
 31
0.0
  0
ARC
  5
2682
  8
0
 62
     0
 10
114.336891
 20
194.40555
 30
0.0
 40
1.5
 50
270.0
 51
295.0
  0
LINE
  5
2683
  8
0
 62
     0
 10
117.879274
 20
194.40555
 30
0.0
 11
116.879274
 21
194.40555
 31
0.0
  0
LINE
  5
2684
  8
0
 62
     0
 10
116.879274
 20
194.40555
 30
0.0
 11
116.599489
 21
193.80555
 31
0.0
  0
LINE
  5
2685
  8
0
 62
     0
 10
113.726744
 20
248.10555
 30
0.0
 11
110.979274
 21
248.10555
 31
0.0
  0
ARC
  5
2686
  8
0
 62
     0
 10
117.479274
 20
247.10555
 30
0.0
 40
3.9
 50
157.380135
 51
202.619865
  0
LINE
  5
2687
  8
0
 62
     0
 10
118.779274
 20
249.10555
 30
0.0
 11
118.779274
 21
259.579101
 31
0.0
  0
LINE
  5
2688
  8
0
 62
     0
 10
116.479274
 20
249.10555
 30
0.0
 11
116.479274
 21
259.579101
 31
0.0
  0
ARC
  5
2689
  8
0
 62
     0
 10
114.179274
 20
248.80555
 30
0.0
 40
0.3
 50
90.0
 51
180.0
  0
LINE
  5
268A
  8
0
 62
     0
 10
113.779274
 20
259.579101
 30
0.0
 11
118.779274
 21
259.579101
 31
0.0
  0
LINE
  5
268B
  8
0
 62
     0
 10
113.779274
 20
258.579101
 30
0.0
 11
113.879274
 21
258.579101
 31
0.0
  0
LINE
  5
268C
  8
0
 62
     0
 10
113.779274
 20
259.579101
 30
0.0
 11
113.779274
 21
258.579101
 31
0.0
  0
LINE
  5
268D
  8
0
 62
     0
 10
151.279274
 20
229.50555
 30
0.0
 11
151.279274
 21
228.20555
 31
0.0
  0
LINE
  5
268E
  8
0
 62
     0
 10
150.679274
 20
229.70555
 30
0.0
 11
150.679274
 21
228.20555
 31
0.0
  0
LINE
  5
268F
  8
0
 62
     0
 10
147.679274
 20
228.20555
 30
0.0
 11
147.679274
 21
229.70555
 31
0.0
  0
LINE
  5
2690
  8
0
 62
     0
 10
147.079274
 20
228.20555
 30
0.0
 11
147.079274
 21
229.50555
 31
0.0
  0
ARC
  5
2691
  8
0
 62
     0
 10
150.179274
 20
228.20555
 30
0.0
 40
1.09998
 50
270.0
 51
0.0
  0
ARC
  5
2692
  8
0
 62
     0
 10
150.179274
 20
228.20555
 30
0.0
 40
0.5
 50
270.0
 51
0.0
  0
LINE
  5
2693
  8
0
 62
     0
 10
151.279274
 20
228.20555
 30
0.0
 11
150.679274
 21
228.20555
 31
0.0
  0
LINE
  5
2694
  8
0
 62
     0
 10
140.979274
 20
206.90555
 30
0.0
 11
137.979274
 21
206.90555
 31
0.0
  0
LINE
  5
2695
  8
0
 62
     0
 10
140.979274
 20
206.60555
 30
0.0
 11
137.979274
 21
206.60555
 31
0.0
  0
LINE
  5
2696
  8
0
 62
     0
 10
137.979274
 20
199.20555
 30
0.0
 11
140.979274
 21
199.20555
 31
0.0
  0
LINE
  5
2697
  8
0
 62
     0
 10
137.979274
 20
198.90555
 30
0.0
 11
140.979274
 21
198.90555
 31
0.0
  0
POLYLINE
  5
2698
  8
0
 62
     0
 66
     1
 10
0.0
 20
0.0
 30
0.0
  0
VERTEX
  5
2C4B
  8
0
 62
     0
 10
140.979274
 20
199.20555
 30
0.0
  0
VERTEX
  5
2C4C
  8
0
 62
     0
 10
140.963518
 20
199.265182
 30
0.0
  0
VERTEX
  5
2C4D
  8
0
 62
     0
 10
140.922138
 20
199.315581
 30
0.0
  0
VERTEX
  5
2C4E
  8
0
 62
     0
 10
140.864895
 20
199.354056
 30
0.0
  0
VERTEX
  5
2C4F
  8
0
 62
     0
 10
140.79653
 20
199.38182
 30
0.0
  0
VERTEX
  5
2C50
  8
0
 62
     0
 10
140.718923
 20
199.39928
 30
0.0
  0
VERTEX
  5
2C51
  8
0
 62
     0
 10
140.632864
 20
199.40555
 30
0.0
  0
SEQEND
  5
2C52
  8
0
 62
     0
  0
POLYLINE
  5
2699
  8
0
 62
     0
 66
     1
 10
0.0
 20
0.0
 30
0.0
  0
VERTEX
  5
2C53
  8
0
 62
     0
 10
140.979274
 20
206.60555
 30
0.0
  0
VERTEX
  5
2C54
  8
0
 62
     0
 10
140.963518
 20
206.545919
 30
0.0
  0
VERTEX
  5
2C55
  8
0
 62
     0
 10
140.922138
 20
206.495519
 30
0.0
  0
VERTEX
  5
2C56
  8
0
 62
     0
 10
140.864895
 20
206.457045
 30
0.0
  0
VERTEX
  5
2C57
  8
0
 62
     0
 10
140.79653
 20
206.42928
 30
0.0
  0
VERTEX
  5
2C58
  8
0
 62
     0
 10
140.718923
 20
206.41182
 30
0.0
  0
VERTEX
  5
2C59
  8
0
 62
     0
 10
140.632864
 20
206.40555
 30
0.0
  0
SEQEND
  5
2C5A
  8
0
 62
     0
  0
ARC
  5
269A
  8
0
 62
     0
 10
137.979274
 20
199.90555
 30
0.0
 40
1.0
 50
180.0
 51
270.0
  0
ARC
  5
269B
  8
0
 62
     0
 10
137.979274
 20
200.40555
 30
0.0
 40
1.0
 50
180.0
 51
270.0
  0
LINE
  5
269C
  8
0
 62
     0
 10
138.554403
 20
206.40555
 30
0.0
 11
138.554403
 21
199.40555
 31
0.0
  0
LINE
  5
269D
  8
0
 62
     0
 10
137.979274
 20
199.40555
 30
0.0
 11
140.632864
 21
199.40555
 31
0.0
  0
ARC
  5
269E
  8
0
 62
     0
 10
137.979274
 20
200.40555
 30
0.0
 40
1.199987
 50
215.591137
 51
270.0
  0
LINE
  5
269F
  8
0
 62
     0
 10
137.979274
 20
199.20555
 30
0.0
 11
137.979274
 21
199.40555
 31
0.0
  0
LINE
  5
26A0
  8
0
 62
     0
 10
136.979274
 20
205.90555
 30
0.0
 11
136.979274
 21
199.90555
 31
0.0
  0
LINE
  5
26A1
  8
0
 62
     0
 10
140.632864
 20
206.40555
 30
0.0
 11
137.979274
 21
206.40555
 31
0.0
  0
ARC
  5
26A2
  8
0
 62
     0
 10
137.979274
 20
205.90555
 30
0.0
 40
1.0
 50
90.0
 51
180.0
  0
ARC
  5
26A3
  8
0
 62
     0
 10
137.979274
 20
205.40555
 30
0.0
 40
1.199987
 50
90.0
 51
144.348178
  0
ARC
  5
26A4
  8
0
 62
     0
 10
137.979274
 20
205.40555
 30
0.0
 40
1.0
 50
90.0
 51
162.058535
  0
LINE
  5
26A5
  8
0
 62
     0
 10
137.979274
 20
206.60555
 30
0.0
 11
137.979274
 21
206.40555
 31
0.0
  0
LINE
  5
26A6
  8
0
 62
     0
 10
141.479274
 20
199.40555
 30
0.0
 11
141.479274
 21
206.40555
 31
0.0
  0
LINE
  5
26A7
  8
0
 62
     0
 10
140.979274
 20
206.60555
 30
0.0
 11
140.979274
 21
199.20555
 31
0.0
  0
ARC
  5
26A8
  8
0
 62
     0
 10
140.979274
 20
199.40555
 30
0.0
 40
0.5
 50
270.0
 51
0.0
  0
ARC
  5
26A9
  8
0
 62
     0
 10
140.979274
 20
206.40555
 30
0.0
 40
0.5
 50
0.0
 51
90.0
  0
CIRCLE
  5
26AA
  8
0
 62
     0
 10
148.929274
 20
203.90555
 30
0.0
 40
1.3
  0
CIRCLE
  5
26AB
  8
0
 62
     0
 10
148.929274
 20
203.90555
 30
0.0
 40
0.95
  0
CIRCLE
  5
26AC
  8
0
 62
     0
 10
148.929274
 20
203.90555
 30
0.0
 40
1.25
  0
LINE
  5
26AD
  8
0
 62
     0
 10
140.979274
 20
228.90555
 30
0.0
 11
137.979274
 21
228.90555
 31
0.0
  0
LINE
  5
26AE
  8
0
 62
     0
 10
140.979274
 20
228.60555
 30
0.0
 11
137.979274
 21
228.60555
 31
0.0
  0
LINE
  5
26AF
  8
0
 62
     0
 10
137.979274
 20
221.20555
 30
0.0
 11
140.979274
 21
221.20555
 31
0.0
  0
LINE
  5
26B0
  8
0
 62
     0
 10
137.979274
 20
220.90555
 30
0.0
 11
140.979274
 21
220.90555
 31
0.0
  0
POLYLINE
  5
26B1
  8
0
 62
     0
 66
     1
 10
0.0
 20
0.0
 30
0.0
  0
VERTEX
  5
2C5B
  8
0
 62
     0
 10
140.979274
 20
221.20555
 30
0.0
  0
VERTEX
  5
2C5C
  8
0
 62
     0
 10
140.963518
 20
221.265182
 30
0.0
  0
VERTEX
  5
2C5D
  8
0
 62
     0
 10
140.922138
 20
221.315581
 30
0.0
  0
VERTEX
  5
2C5E
  8
0
 62
     0
 10
140.864895
 20
221.354056
 30
0.0
  0
VERTEX
  5
2C5F
  8
0
 62
     0
 10
140.79653
 20
221.38182
 30
0.0
  0
VERTEX
  5
2C60
  8
0
 62
     0
 10
140.718923
 20
221.39928
 30
0.0
  0
VERTEX
  5
2C61
  8
0
 62
     0
 10
140.632864
 20
221.40555
 30
0.0
  0
SEQEND
  5
2C62
  8
0
 62
     0
  0
POLYLINE
  5
26B2
  8
0
 62
     0
 66
     1
 10
0.0
 20
0.0
 30
0.0
  0
VERTEX
  5
2C63
  8
0
 62
     0
 10
140.979274
 20
228.60555
 30
0.0
  0
VERTEX
  5
2C64
  8
0
 62
     0
 10
140.963518
 20
228.545919
 30
0.0
  0
VERTEX
  5
2C65
  8
0
 62
     0
 10
140.922138
 20
228.495519
 30
0.0
  0
VERTEX
  5
2C66
  8
0
 62
     0
 10
140.864895
 20
228.457045
 30
0.0
  0
VERTEX
  5
2C67
  8
0
 62
     0
 10
140.79653
 20
228.42928
 30
0.0
  0
VERTEX
  5
2C68
  8
0
 62
     0
 10
140.718923
 20
228.41182
 30
0.0
  0
VERTEX
  5
2C69
  8
0
 62
     0
 10
140.632864
 20
228.40555
 30
0.0
  0
SEQEND
  5
2C6A
  8
0
 62
     0
  0
ARC
  5
26B3
  8
0
 62
     0
 10
138.509274
 20
216.90555
 30
0.0
 40
3.0
 50
141.541505
 51
218.458495
  0
ARC
  5
26B4
  8
0
 62
     0
 10
136.55175
 20
215.350526
 30
0.0
 40
0.5
 50
218.435766
 51
320.0
  0
ARC
  5
26B5
  8
0
 62
     0
 10
136.617411
 20
215.428778
 30
0.0
 40
0.5
 50
320.0
 51
37.818811
  0
ARC
  5
26B6
  8
0
 62
     0
 10
136.617411
 20
218.382322
 30
0.0
 40
0.5
 50
322.181189
 51
40.0
  0
ARC
  5
26B7
  8
0
 62
     0
 10
136.55175
 20
218.460574
 30
0.0
 40
0.5
 50
40.0
 51
141.564234
  0
ARC
  5
26B8
  8
0
 62
     0
 10
138.509274
 20
216.90555
 30
0.0
 40
1.9
 50
141.98355
 51
218.01645
  0
LINE
  5
26B9
  8
0
 62
     0
 10
137.000434
 20
218.703716
 30
0.0
 11
136.934772
 21
218.781968
 31
0.0
  0
LINE
  5
26BA
  8
0
 62
     0
 10
136.934772
 20
215.029132
 30
0.0
 11
137.000434
 21
215.107384
 31
0.0
  0
LINE
  5
26BB
  8
0
 62
     0
 10
138.554403
 20
228.40555
 30
0.0
 11
138.554403
 21
221.40555
 31
0.0
  0
LINE
  5
26BC
  8
0
 62
     0
 10
136.979274
 20
227.90555
 30
0.0
 11
136.979274
 21
221.90555
 31
0.0
  0
LINE
  5
26BD
  8
0
 62
     0
 10
137.979274
 20
221.40555
 30
0.0
 11
140.632864
 21
221.40555
 31
0.0
  0
ARC
  5
26BE
  8
0
 62
     0
 10
137.979274
 20
221.90555
 30
0.0
 40
1.0
 50
180.0
 51
270.0
  0
ARC
  5
26BF
  8
0
 62
     0
 10
137.979274
 20
222.40555
 30
0.0
 40
1.199987
 50
215.591137
 51
270.0
  0
ARC
  5
26C0
  8
0
 62
     0
 10
137.979274
 20
222.40555
 30
0.0
 40
1.0
 50
180.0
 51
270.0
  0
LINE
  5
26C1
  8
0
 62
     0
 10
137.979274
 20
221.20555
 30
0.0
 11
137.979274
 21
221.40555
 31
0.0
  0
LINE
  5
26C2
  8
0
 62
     0
 10
140.632864
 20
228.40555
 30
0.0
 11
137.979274
 21
228.40555
 31
0.0
  0
ARC
  5
26C3
  8
0
 62
     0
 10
137.979274
 20
227.90555
 30
0.0
 40
1.0
 50
90.0
 51
180.0
  0
ARC
  5
26C4
  8
0
 62
     0
 10
137.979274
 20
227.40555
 30
0.0
 40
1.199987
 50
90.0
 51
144.348178
  0
ARC
  5
26C5
  8
0
 62
     0
 10
137.979274
 20
227.40555
 30
0.0
 40
1.0
 50
90.0
 51
162.058535
  0
LINE
  5
26C6
  8
0
 62
     0
 10
137.979274
 20
228.60555
 30
0.0
 11
137.979274
 21
228.40555
 31
0.0
  0
LINE
  5
26C7
  8
0
 62
     0
 10
141.479274
 20
221.40555
 30
0.0
 11
141.479274
 21
228.40555
 31
0.0
  0
LINE
  5
26C8
  8
0
 62
     0
 10
140.979274
 20
228.60555
 30
0.0
 11
140.979274
 21
221.20555
 31
0.0
  0
ARC
  5
26C9
  8
0
 62
     0
 10
140.979274
 20
221.40555
 30
0.0
 40
0.5
 50
270.0
 51
0.0
  0
ARC
  5
26CA
  8
0
 62
     0
 10
140.979274
 20
228.40555
 30
0.0
 40
0.5
 50
0.0
 51
90.0
  0
LINE
  5
26CB
  8
0
 62
     0
 10
150.179274
 20
227.70555
 30
0.0
 11
148.179274
 21
227.70555
 31
0.0
  0
LINE
  5
26CC
  8
0
 62
     0
 10
150.179274
 20
227.10555
 30
0.0
 11
148.179274
 21
227.10555
 31
0.0
  0
ARC
  5
26CD
  8
0
 62
     0
 10
148.179274
 20
228.20555
 30
0.0
 40
1.09998
 50
180.0
 51
270.0
  0
ARC
  5
26CE
  8
0
 62
     0
 10
148.179274
 20
228.20555
 30
0.0
 40
0.5
 50
180.0
 51
270.0
  0
LINE
  5
26CF
  8
0
 62
     0
 10
147.079274
 20
228.20555
 30
0.0
 11
147.679274
 21
228.20555
 31
0.0
  0
LINE
  5
26D0
  8
0
 62
     0
 10
148.179274
 20
227.10555
 30
0.0
 11
148.179274
 21
227.70555
 31
0.0
  0
LINE
  5
26D1
  8
0
 62
     0
 10
150.179274
 20
227.10555
 30
0.0
 11
150.179274
 21
227.70555
 31
0.0
  0
LINE
  5
26D2
  8
0
 62
     0
 10
170.179274
 20
220.10555
 30
0.0
 11
170.179274
 21
219.29555
 31
0.0
  0
LINE
  5
26D3
  8
0
 62
     0
 10
164.469274
 20
220.10555
 30
0.0
 11
170.179274
 21
220.10555
 31
0.0
  0
ARC
  5
26D4
  8
0
 62
     0
 10
164.469274
 20
222.51555
 30
0.0
 40
0.39
 50
90.0
 51
180.0
  0
ARC
  5
26D5
  8
0
 62
     0
 10
164.469274
 20
220.49555
 30
0.0
 40
0.39
 50
180.0
 51
270.0
  0
LINE
  5
26D6
  8
0
 62
     0
 10
164.079274
 20
222.51555
 30
0.0
 11
164.079274
 21
220.49555
 31
0.0
  0
LINE
  5
26D7
  8
0
 62
     0
 10
134.254834
 20
237.00555
 30
0.0
 11
160.479257
 21
237.00555
 31
0.0
  0
LINE
  5
26D8
  8
0
 62
     0
 10
145.579274
 20
234.171858
 30
0.0
 11
152.779274
 21
234.171858
 31
0.0
  0
LINE
  5
26D9
  8
0
 62
     0
 10
146.179274
 20
233.70555
 30
0.0
 11
152.179274
 21
233.70555
 31
0.0
  0
LINE
  5
26DA
  8
0
 62
     0
 10
146.179274
 20
233.20555
 30
0.0
 11
152.179274
 21
233.20555
 31
0.0
  0
POLYLINE
  5
26DB
  8
0
 62
     0
 66
     1
 10
0.0
 20
0.0
 30
0.0
  0
VERTEX
  5
2C6B
  8
0
 62
     0
 10
150.679274
 20
229.70555
 30
0.0
  0
VERTEX
  5
2C6C
  8
0
 62
     0
 10
150.688969
 20
229.539433
 30
0.0
  0
VERTEX
  5
2C6D
  8
0
 62
     0
 10
150.718475
 20
229.402288
 30
0.0
  0
VERTEX
  5
2C6E
  8
0
 62
     0
 10
150.773344
 20
229.293402
 30
0.0
  0
VERTEX
  5
2C6F
  8
0
 62
     0
 10
150.863935
 20
229.23009
 30
0.0
  0
VERTEX
  5
2C70
  8
0
 62
     0
 10
151.002742
 20
229.249382
 30
0.0
  0
VERTEX
  5
2C71
  8
0
 62
     0
 10
151.14351
 20
229.350468
 30
0.0
  0
VERTEX
  5
2C72
  8
0
 62
     0
 10
151.279274
 20
229.50555
 30
0.0
  0
SEQEND
  5
2C73
  8
0
 62
     0
  0
LINE
  5
26DC
  8
0
 62
     0
 10
152.179274
 20
231.70555
 30
0.0
 11
150.679274
 21
229.70555
 31
0.0
  0
LINE
  5
26DD
  8
0
 62
     0
 10
134.254834
 20
236.80555
 30
0.0
 11
138.479274
 21
236.80555
 31
0.0
  0
ARC
  5
26DE
  8
0
 62
     0
 10
134.529844
 20
235.70555
 30
0.0
 40
1.0
 50
90.0
 51
170.828015
  0
ARC
  5
26DF
  8
0
 62
     0
 10
134.254834
 20
235.50555
 30
0.0
 40
1.299977
 50
90.0
 51
170.845536
  0
ARC
  5
26E0
  8
0
 62
     0
 10
134.254834
 20
235.50555
 30
0.0
 40
1.5
 50
90.0
 51
170.849003
  0
LINE
  5
26E1
  8
0
 62
     0
 10
132.971393
 20
235.712376
 30
0.0
 11
132.77394
 21
235.744195
 31
0.0
  0
LINE
  5
26E2
  8
0
 62
     0
 10
134.254834
 20
236.80555
 30
0.0
 11
134.254834
 21
237.00555
 31
0.0
  0
LINE
  5
26E3
  8
0
 62
     0
 10
138.479274
 20
237.00555
 30
0.0
 11
138.479274
 21
236.70555
 31
0.0
  0
LINE
  5
26E4
  8
0
 62
     0
 10
138.779274
 20
236.70555
 30
0.0
 11
138.779274
 21
237.00555
 31
0.0
  0
LINE
  5
26E5
  8
0
 62
     0
 10
145.579274
 20
234.171858
 30
0.0
 11
146.179274
 21
233.892073
 31
0.0
  0
LINE
  5
26E6
  8
0
 62
     0
 10
147.079274
 20
229.50555
 30
0.0
 11
145.579274
 21
231.50555
 31
0.0
  0
LINE
  5
26E7
  8
0
 62
     0
 10
145.579274
 20
231.50555
 30
0.0
 11
146.179274
 21
231.70555
 31
0.0
  0
LINE
  5
26E8
  8
0
 62
     0
 10
145.579274
 20
231.50555
 30
0.0
 11
145.579274
 21
234.171858
 31
0.0
  0
POLYLINE
  5
26E9
  8
0
 62
     0
 66
     1
 10
0.0
 20
0.0
 30
0.0
  0
VERTEX
  5
2C74
  8
0
 62
     0
 10
147.079274
 20
229.50555
 30
0.0
  0
VERTEX
  5
2C75
  8
0
 62
     0
 10
147.215038
 20
229.350468
 30
0.0
  0
VERTEX
  5
2C76
  8
0
 62
     0
 10
147.355806
 20
229.249382
 30
0.0
  0
VERTEX
  5
2C77
  8
0
 62
     0
 10
147.494613
 20
229.23009
 30
0.0
  0
VERTEX
  5
2C78
  8
0
 62
     0
 10
147.585204
 20
229.293402
 30
0.0
  0
VERTEX
  5
2C79
  8
0
 62
     0
 10
147.640073
 20
229.402288
 30
0.0
  0
VERTEX
  5
2C7A
  8
0
 62
     0
 10
147.669579
 20
229.539433
 30
0.0
  0
VERTEX
  5
2C7B
  8
0
 62
     0
 10
147.679274
 20
229.70555
 30
0.0
  0
SEQEND
  5
2C7C
  8
0
 62
     0
  0
LINE
  5
26EA
  8
0
 62
     0
 10
147.679274
 20
229.70555
 30
0.0
 11
146.179274
 21
231.70555
 31
0.0
  0
LINE
  5
26EB
  8
0
 62
     0
 10
146.179274
 20
231.70555
 30
0.0
 11
146.179274
 21
233.892073
 31
0.0
  0
ARC
  5
26EC
  8
0
 62
     0
 10
159.979274
 20
248.60555
 30
0.0
 40
0.5
 50
0.0
 51
90.0
  0
POLYLINE
  5
26ED
  8
0
 62
     0
 66
     1
 10
0.0
 20
0.0
 30
0.0
  0
VERTEX
  5
2C7D
  8
0
 62
     0
 10
158.048366
 20
249.10555
 30
0.0
  0
VERTEX
  5
2C7E
  8
0
 62
     0
 10
158.205369
 20
249.083369
 30
0.0
  0
VERTEX
  5
2C7F
  8
0
 62
     0
 10
158.355283
 20
249.01674
 30
0.0
  0
VERTEX
  5
2C80
  8
0
 62
     0
 10
158.484487
 20
248.908372
 30
0.0
  0
VERTEX
  5
2C81
  8
0
 62
     0
 10
158.578635
 20
248.766408
 30
0.0
  0
VERTEX
  5
2C82
  8
0
 62
     0
 10
158.625721
 20
248.60555
 30
0.0
  0
SEQEND
  5
2C83
  8
0
 62
     0
  0
POLYLINE
  5
26EE
  8
0
 62
     0
 66
     1
 10
0.0
 20
0.0
 30
0.0
  0
VERTEX
  5
2C84
  8
0
 62
     0
 10
158.223217
 20
248.80555
 30
0.0
  0
VERTEX
  5
2C85
  8
0
 62
     0
 10
158.323025
 20
248.796714
 30
0.0
  0
VERTEX
  5
2C86
  8
0
 62
     0
 10
158.421395
 20
248.770073
 30
0.0
  0
VERTEX
  5
2C87
  8
0
 62
     0
 10
158.510246
 20
248.726733
 30
0.0
  0
VERTEX
  5
2C88
  8
0
 62
     0
 10
158.580935
 20
248.669928
 30
0.0
  0
VERTEX
  5
2C89
  8
0
 62
     0
 10
158.625721
 20
248.60555
 30
0.0
  0
SEQEND
  5
2C8A
  8
0
 62
     0
  0
LINE
  5
26EF
  8
0
 62
     0
 10
157.640381
 20
249.10555
 30
0.0
 11
157.640381
 21
237.00555
 31
0.0
  0
LINE
  5
26F0
  8
0
 62
     0
 10
154.479274
 20
249.10555
 30
0.0
 11
154.479274
 21
237.00555
 31
0.0
  0
LINE
  5
26F1
  8
0
 62
     0
 10
160.979274
 20
248.10555
 30
0.0
 11
160.479274
 21
248.10555
 31
0.0
  0
POLYLINE
  5
26F2
  8
0
 62
     0
 66
     1
 10
0.0
 20
0.0
 30
0.0
  0
VERTEX
  5
2C8B
  8
0
 62
     0
 10
159.756509
 20
238.20555
 30
0.0
  0
VERTEX
  5
2C8C
  8
0
 62
     0
 10
159.673011
 20
238.279555
 30
0.0
  0
VERTEX
  5
2C8D
  8
0
 62
     0
 10
159.586895
 20
238.503727
 30
0.0
  0
VERTEX
  5
2C8E
  8
0
 62
     0
 10
159.503652
 20
238.869605
 30
0.0
  0
VERTEX
  5
2C8F
  8
0
 62
     0
 10
159.429236
 20
239.351458
 30
0.0
  0
VERTEX
  5
2C90
  8
0
 62
     0
 10
159.366082
 20
239.9364
 30
0.0
  0
VERTEX
  5
2C91
  8
0
 62
     0
 10
159.316991
 20
240.61663
 30
0.0
  0
VERTEX
  5
2C92
  8
0
 62
     0
 10
159.286406
 20
241.355165
 30
0.0
  0
VERTEX
  5
2C93
  8
0
 62
     0
 10
159.27629
 20
242.105392
 30
0.0
  0
SEQEND
  5
2C94
  8
0
 62
     0
  0
POLYLINE
  5
26F3
  8
0
 62
     0
 66
     1
 10
0.0
 20
0.0
 30
0.0
  0
VERTEX
  5
2C95
  8
0
 62
     0
 10
160.479274
 20
238.20555
 30
0.0
  0
VERTEX
  5
2C96
  8
0
 62
     0
 10
160.477038
 20
238.278741
 30
0.0
  0
VERTEX
  5
2C97
  8
0
 62
     0
 10
160.470482
 20
238.501831
 30
0.0
  0
VERTEX
  5
2C98
  8
0
 62
     0
 10
160.460611
 20
238.866606
 30
0.0
  0
VERTEX
  5
2C99
  8
0
 62
     0
 10
160.449205
 20
239.347477
 30
0.0
  0
VERTEX
  5
2C9A
  8
0
 62
     0
 10
160.437816
 20
239.931214
 30
0.0
  0
VERTEX
  5
2C9B
  8
0
 62
     0
 10
160.42795
 20
240.610944
 30
0.0
  0
VERTEX
  5
2C9C
  8
0
 62
     0
 10
160.421366
 20
241.350908
 30
0.0
  0
VERTEX
  5
2C9D
  8
0
 62
     0
 10
160.41911
 20
242.105391
 30
0.0
  0
SEQEND
  5
2C9E
  8
0
 62
     0
  0
POLYLINE
  5
26F4
  8
0
 62
     0
 66
     1
 10
0.0
 20
0.0
 30
0.0
  0
VERTEX
  5
2C9F
  8
0
 62
     0
 10
160.114313
 20
242.105709
 30
0.0
  0
VERTEX
  5
2CA0
  8
0
 62
     0
 10
160.108707
 20
241.353279
 30
0.0
  0
VERTEX
  5
2CA1
  8
0
 62
     0
 10
160.091379
 20
240.614014
 30
0.0
  0
VERTEX
  5
2CA2
  8
0
 62
     0
 10
160.062235
 20
239.933347
 30
0.0
  0
VERTEX
  5
2CA3
  8
0
 62
     0
 10
160.022182
 20
239.348582
 30
0.0
  0
VERTEX
  5
2CA4
  8
0
 62
     0
 10
159.970934
 20
238.867328
 30
0.0
  0
VERTEX
  5
2CA5
  8
0
 62
     0
 10
159.90776
 20
238.502128
 30
0.0
  0
VERTEX
  5
2CA6
  8
0
 62
     0
 10
159.834934
 20
238.278629
 30
0.0
  0
VERTEX
  5
2CA7
  8
0
 62
     0
 10
159.756509
 20
238.20555
 30
0.0
  0
SEQEND
  5
2CA8
  8
0
 62
     0
  0
LINE
  5
26F5
  8
0
 62
     0
 10
158.625721
 20
248.60555
 30
0.0
 11
158.625721
 21
237.00555
 31
0.0
  0
LINE
  5
26F6
  8
0
 62
     0
 10
152.779274
 20
234.171858
 30
0.0
 11
152.779274
 21
231.50555
 31
0.0
  0
LINE
  5
26F7
  8
0
 62
     0
 10
152.779274
 20
234.171858
 30
0.0
 11
152.179274
 21
233.892073
 31
0.0
  0
LINE
  5
26F8
  8
0
 62
     0
 10
152.779274
 20
231.50555
 30
0.0
 11
152.179274
 21
231.70555
 31
0.0
  0
LINE
  5
26F9
  8
0
 62
     0
 10
152.179274
 20
233.892073
 30
0.0
 11
152.179274
 21
231.70555
 31
0.0
  0
LINE
  5
26FA
  8
0
 62
     0
 10
152.779274
 20
231.50555
 30
0.0
 11
151.279274
 21
229.50555
 31
0.0
  0
LINE
  5
26FB
  8
0
 62
     0
 10
152.979274
 20
236.70555
 30
0.0
 11
152.979274
 21
237.00555
 31
0.0
  0
LINE
  5
26FC
  8
0
 62
     0
 10
156.179274
 20
236.70555
 30
0.0
 11
156.179274
 21
236.20555
 31
0.0
  0
LINE
  5
26FD
  8
0
 62
     0
 10
160.479274
 20
237.00555
 30
0.0
 11
160.479274
 21
238.205607
 31
0.0
  0
LINE
  5
26FE
  8
0
 62
     0
 10
159.179274
 20
236.70555
 30
0.0
 11
159.179274
 21
237.00555
 31
0.0
  0
POLYLINE
  5
26FF
  8
0
 62
     0
 66
     1
 10
0.0
 20
0.0
 30
0.0
  0
VERTEX
  5
2CA9
  8
0
 62
     0
 10
159.756509
 20
246.00555
 30
0.0
  0
VERTEX
  5
2CAA
  8
0
 62
     0
 10
159.834883
 20
245.93257
 30
0.0
  0
VERTEX
  5
2CAB
  8
0
 62
     0
 10
159.907677
 20
245.709331
 30
0.0
  0
VERTEX
  5
2CAC
  8
0
 62
     0
 10
159.970886
 20
245.344135
 30
0.0
  0
VERTEX
  5
2CAD
  8
0
 62
     0
 10
160.022168
 20
244.862675
 30
0.0
  0
VERTEX
  5
2CAE
  8
0
 62
     0
 10
160.06221
 20
244.278212
 30
0.0
  0
VERTEX
  5
2CAF
  8
0
 62
     0
 10
160.091346
 20
243.59809
 30
0.0
  0
VERTEX
  5
2CB0
  8
0
 62
     0
 10
160.108696
 20
242.858587
 30
0.0
  0
VERTEX
  5
2CB1
  8
0
 62
     0
 10
160.114313
 20
242.105709
 30
0.0
  0
SEQEND
  5
2CB2
  8
0
 62
     0
  0
POLYLINE
  5
2700
  8
0
 62
     0
 66
     1
 10
0.0
 20
0.0
 30
0.0
  0
VERTEX
  5
2CB3
  8
0
 62
     0
 10
159.27629
 20
242.105392
 30
0.0
  0
VERTEX
  5
2CB4
  8
0
 62
     0
 10
159.286385
 20
242.85515
 30
0.0
  0
VERTEX
  5
2CB5
  8
0
 62
     0
 10
159.316932
 20
243.593417
 30
0.0
  0
VERTEX
  5
2CB6
  8
0
 62
     0
 10
159.366036
 20
244.274179
 30
0.0
  0
VERTEX
  5
2CB7
  8
0
 62
     0
 10
159.429209
 20
244.859435
 30
0.0
  0
VERTEX
  5
2CB8
  8
0
 62
     0
 10
159.503578
 20
245.341097
 30
0.0
  0
VERTEX
  5
2CB9
  8
0
 62
     0
 10
159.586786
 20
245.706994
 30
0.0
  0
VERTEX
  5
2CBA
  8
0
 62
     0
 10
159.67295
 20
245.93144
 30
0.0
  0
VERTEX
  5
2CBB
  8
0
 62
     0
 10
159.756509
 20
246.00555
 30
0.0
  0
SEQEND
  5
2CBC
  8
0
 62
     0
  0
POLYLINE
  5
2701
  8
0
 62
     0
 66
     1
 10
0.0
 20
0.0
 30
0.0
  0
VERTEX
  5
2CBD
  8
0
 62
     0
 10
160.41911
 20
242.105391
 30
0.0
  0
VERTEX
  5
2CBE
  8
0
 62
     0
 10
160.421362
 20
242.859539
 30
0.0
  0
VERTEX
  5
2CBF
  8
0
 62
     0
 10
160.42794
 20
243.599331
 30
0.0
  0
VERTEX
  5
2CC0
  8
0
 62
     0
 10
160.437811
 20
244.279621
 30
0.0
  0
VERTEX
  5
2CC1
  8
0
 62
     0
 10
160.449205
 20
244.863638
 30
0.0
  0
VERTEX
  5
2CC2
  8
0
 62
     0
 10
160.460604
 20
245.344221
 30
0.0
  0
VERTEX
  5
2CC3
  8
0
 62
     0
 10
160.47047
 20
245.708859
 30
0.0
  0
VERTEX
  5
2CC4
  8
0
 62
     0
 10
160.477031
 20
245.932139
 30
0.0
  0
VERTEX
  5
2CC5
  8
0
 62
     0
 10
160.479274
 20
246.00555
 30
0.0
  0
SEQEND
  5
2CC6
  8
0
 62
     0
  0
LINE
  5
2702
  8
0
 62
     0
 10
158.625721
 20
248.60555
 30
0.0
 11
160.479274
 21
248.60555
 31
0.0
  0
LINE
  5
2703
  8
0
 62
     0
 10
160.479274
 20
246.005469
 30
0.0
 11
160.479274
 21
248.60555
 31
0.0
  0
POLYLINE
  5
2704
  8
0
 62
     0
 66
     1
 10
0.0
 20
0.0
 30
0.0
  0
VERTEX
  5
2CC7
  8
0
 62
     0
 10
158.048366
 20
249.10555
 30
0.0
  0
VERTEX
  5
2CC8
  8
0
 62
     0
 10
158.115273
 20
249.082715
 30
0.0
  0
VERTEX
  5
2CC9
  8
0
 62
     0
 10
158.171998
 20
249.017685
 30
0.0
  0
VERTEX
  5
2CCA
  8
0
 62
     0
 10
158.209903
 20
248.920357
 30
0.0
  0
VERTEX
  5
2CCB
  8
0
 62
     0
 10
158.223217
 20
248.80555
 30
0.0
  0
SEQEND
  5
2CCC
  8
0
 62
     0
  0
ARC
  5
2705
  8
0
 62
     0
 10
224.840395
 20
191.40555
 30
0.0
 40
1.2
 50
270.0
 51
332.95503
  0
LINE
  5
2706
  8
0
 62
     0
 10
223.579274
 20
189.884885
 30
0.0
 11
223.438077
 21
190.20555
 31
0.0
  0
LINE
  5
2707
  8
0
 62
     0
 10
223.579274
 20
189.884885
 30
0.0
 11
223.438016
 21
190.20555
 31
0.0
  0
LINE
  5
2708
  8
0
 62
     0
 10
214.579274
 20
197.20555
 30
0.0
 11
214.579274
 21
155.80555
 31
0.0
  0
LINE
  5
2709
  8
0
 62
     0
 10
214.279274
 20
197.20555
 30
0.0
 11
214.279274
 21
155.80555
 31
0.0
  0
LINE
  5
270A
  8
0
 62
     0
 10
213.779274
 20
157.60555
 30
0.0
 11
213.779274
 21
198.4373
 31
0.0
  0
POLYLINE
  5
270B
  8
0
 62
     0
 66
     1
 10
0.0
 20
0.0
 30
0.0
  0
VERTEX
  5
2CCD
  8
0
 62
     0
 10
221.888162
 20
189.908647
 30
0.0
  0
VERTEX
  5
2CCE
  8
0
 62
     0
 10
221.935333
 20
190.029099
 30
0.0
  0
VERTEX
  5
2CCF
  8
0
 62
     0
 10
222.018522
 20
190.128284
 30
0.0
  0
VERTEX
  5
2CD0
  8
0
 62
     0
 10
222.129188
 20
190.195778
 30
0.0
  0
VERTEX
  5
2CD1
  8
0
 62
     0
 10
222.25586
 20
190.224345
 30
0.0
  0
VERTEX
  5
2CD2
  8
0
 62
     0
 10
222.340854
 20
190.220257
 30
0.0
  0
SEQEND
  5
2CD3
  8
0
 62
     0
  0
LINE
  5
270C
  8
0
 62
     0
 10
212.779274
 20
157.912681
 30
0.0
 11
212.779274
 21
198.950083
 31
0.0
  0
LINE
  5
270D
  8
0
 62
     0
 10
212.279274
 20
213.30555
 30
0.0
 11
212.279274
 21
160.80555
 31
0.0
  0
LINE
  5
270E
  8
0
 62
     0
 10
201.779274
 20
213.30555
 30
0.0
 11
201.779274
 21
150.20555
 31
0.0
  0
LINE
  5
270F
  8
0
 62
     0
 10
201.579274
 20
213.10555
 30
0.0
 11
201.579274
 21
150.40555
 31
0.0
  0
LINE
  5
2710
  8
0
 62
     0
 10
201.079274
 20
149.60555
 30
0.0
 11
201.079274
 21
214.10555
 31
0.0
  0
LINE
  5
2711
  8
0
 62
     0
 10
200.279274
 20
214.10555
 30
0.0
 11
200.279274
 21
174.689403
 31
0.0
  0
LINE
  5
2712
  8
0
 62
     0
 10
199.579274
 20
174.689403
 30
0.0
 11
199.579274
 21
236.20555
 31
0.0
  0
POLYLINE
  5
2713
  8
0
 62
     0
 66
     1
 10
0.0
 20
0.0
 30
0.0
  0
VERTEX
  5
2CD4
  8
0
 62
     0
 10
222.387076
 20
190.516679
 30
0.0
  0
VERTEX
  5
2CD5
  8
0
 62
     0
 10
222.184438
 20
190.518577
 30
0.0
  0
VERTEX
  5
2CD6
  8
0
 62
     0
 10
221.99145
 20
190.463088
 30
0.0
  0
VERTEX
  5
2CD7
  8
0
 62
     0
 10
221.823435
 20
190.356187
 30
0.0
  0
VERTEX
  5
2CD8
  8
0
 62
     0
 10
221.69246
 20
190.206523
 30
0.0
  0
VERTEX
  5
2CD9
  8
0
 62
     0
 10
221.608459
 20
190.024788
 30
0.0
  0
VERTEX
  5
2CDA
  8
0
 62
     0
 10
221.579274
 20
189.824729
 30
0.0
  0
SEQEND
  5
2CDB
  8
0
 62
     0
  0
LINE
  5
2714
  8
0
 62
     0
 10
197.579274
 20
236.70555
 30
0.0
 11
197.579274
 21
174.694643
 31
0.0
  0
LINE
  5
2715
  8
0
 62
     0
 10
194.579274
 20
236.70555
 30
0.0
 11
194.579274
 21
174.694643
 31
0.0
  0
LINE
  5
2716
  8
0
 62
     0
 10
190.579274
 20
236.70555
 30
0.0
 11
190.579274
 21
174.694643
 31
0.0
  0
LINE
  5
2717
  8
0
 62
     0
 10
186.079274
 20
236.70555
 30
0.0
 11
186.079274
 21
174.694643
 31
0.0
  0
LINE
  5
2718
  8
0
 62
     0
 10
180.579274
 20
236.70555
 30
0.0
 11
180.579274
 21
174.694643
 31
0.0
  0
LINE
  5
2719
  8
0
 62
     0
 10
180.079274
 20
107.50555
 30
0.0
 11
180.079274
 21
236.70555
 31
0.0
  0
LINE
  5
271A
  8
0
 62
     0
 10
219.779274
 20
104.50555
 30
0.0
 11
219.779274
 21
116.20555
 31
0.0
  0
LINE
  5
271B
  8
0
 62
     0
 10
219.758459
 20
115.20555
 30
0.0
 11
219.758459
 21
104.50555
 31
0.0
  0
LINE
  5
271C
  8
0
 62
     0
 10
219.558578
 20
113.62762
 30
0.0
 11
219.558578
 21
104.30569
 31
0.0
  0
LINE
  5
271D
  8
0
 62
     0
 10
218.479274
 20
113.599995
 30
0.0
 11
218.479274
 21
104.30555
 31
0.0
  0
LINE
  5
271E
  8
0
 62
     0
 10
218.279274
 20
104.50555
 30
0.0
 11
218.279274
 21
115.55555
 31
0.0
  0
LINE
  5
271F
  8
0
 62
     0
 10
217.979274
 20
106.569693
 30
0.0
 11
217.979274
 21
115.40555
 31
0.0
  0
POLYLINE
  5
2720
  8
0
 62
     0
 66
     1
 10
0.0
 20
0.0
 30
0.0
  0
VERTEX
  5
2CDC
  8
0
 62
     0
 10
198.730839
 20
115.55555
 30
0.0
  0
VERTEX
  5
2CDD
  8
0
 62
     0
 10
198.520726
 20
112.002202
 30
0.0
  0
VERTEX
  5
2CDE
  8
0
 62
     0
 10
198.310653
 20
108.452559
 30
0.0
  0
VERTEX
  5
2CDF
  8
0
 62
     0
 10
198.100555
 20
104.90555
 30
0.0
  0
SEQEND
  5
2CE0
  8
0
 62
     0
  0
LINE
  5
2721
  8
0
 62
     0
 10
199.301581
 20
104.90555
 30
0.0
 11
199.862515
 21
115.55555
 31
0.0
  0
POLYLINE
  5
2722
  8
0
 62
     0
 66
     1
 10
0.0
 20
0.0
 30
0.0
  0
VERTEX
  5
2CE1
  8
0
 62
     0
 10
198.288956
 20
115.55555
 30
0.0
  0
VERTEX
  5
2CE2
  8
0
 62
     0
 10
198.226032
 20
112.002227
 30
0.0
  0
VERTEX
  5
2CE3
  8
0
 62
     0
 10
198.163238
 20
108.452584
 30
0.0
  0
VERTEX
  5
2CE4
  8
0
 62
     0
 10
198.100555
 20
104.90555
 30
0.0
  0
SEQEND
  5
2CE5
  8
0
 62
     0
  0
POLYLINE
  5
2723
  8
0
 62
     0
 66
     1
 10
0.0
 20
0.0
 30
0.0
  0
VERTEX
  5
2CE6
  8
0
 62
     0
 10
199.615984
 20
113.694685
 30
0.0
  0
VERTEX
  5
2CE7
  8
0
 62
     0
 10
199.606092
 20
113.066105
 30
0.0
  0
VERTEX
  5
2CE8
  8
0
 62
     0
 10
199.579257
 20
112.408576
 30
0.0
  0
VERTEX
  5
2CE9
  8
0
 62
     0
 10
199.53737
 20
111.757398
 30
0.0
  0
VERTEX
  5
2CEA
  8
0
 62
     0
 10
199.481351
 20
111.129561
 30
0.0
  0
VERTEX
  5
2CEB
  8
0
 62
     0
 10
199.413931
 20
110.562374
 30
0.0
  0
VERTEX
  5
2CEC
  8
0
 62
     0
 10
199.335736
 20
110.069539
 30
0.0
  0
VERTEX
  5
2CED
  8
0
 62
     0
 10
199.250328
 20
109.681469
 30
0.0
  0
VERTEX
  5
2CEE
  8
0
 62
     0
 10
199.158938
 20
109.409852
 30
0.0
  0
VERTEX
  5
2CEF
  8
0
 62
     0
 10
199.065578
 20
109.271912
 30
0.0
  0
SEQEND
  5
2CF0
  8
0
 62
     0
  0
LINE
  5
2724
  8
0
 62
     0
 10
198.100555
 20
104.90555
 30
0.0
 11
198.100555
 21
117.251372
 31
0.0
  0
LINE
  5
2725
  8
0
 62
     0
 10
197.207526
 20
104.40555
 30
0.0
 11
197.207526
 21
118.45555
 31
0.0
  0
LINE
  5
2726
  8
0
 62
     0
 10
195.979274
 20
104.40555
 30
0.0
 11
195.979274
 21
118.473261
 31
0.0
  0
POLYLINE
  5
2727
  8
0
 62
     0
 66
     1
 10
0.0
 20
0.0
 30
0.0
  0
VERTEX
  5
2CF1
  8
0
 62
     0
 10
198.977747
 20
109.271912
 30
0.0
  0
VERTEX
  5
2CF2
  8
0
 62
     0
 10
198.892625
 20
109.408768
 30
0.0
  0
VERTEX
  5
2CF3
  8
0
 62
     0
 10
198.817587
 20
109.679055
 30
0.0
  0
VERTEX
  5
2CF4
  8
0
 62
     0
 10
198.757345
 20
110.06657
 30
0.0
  0
VERTEX
  5
2CF5
  8
0
 62
     0
 10
198.714574
 20
110.560154
 30
0.0
  0
VERTEX
  5
2CF6
  8
0
 62
     0
 10
198.692871
 20
111.128774
 30
0.0
  0
VERTEX
  5
2CF7
  8
0
 62
     0
 10
198.69361
 20
111.758135
 30
0.0
  0
VERTEX
  5
2CF8
  8
0
 62
     0
 10
198.717332
 20
112.410031
 30
0.0
  0
VERTEX
  5
2CF9
  8
0
 62
     0
 10
198.76359
 20
113.067168
 30
0.0
  0
VERTEX
  5
2CFA
  8
0
 62
     0
 10
198.829935
 20
113.694685
 30
0.0
  0
SEQEND
  5
2CFB
  8
0
 62
     0
  0
LINE
  5
2728
  8
0
 62
     0
 10
217.279274
 20
106.85555
 30
0.0
 11
199.404288
 21
106.85555
 31
0.0
  0
LINE
  5
2729
  8
0
 62
     0
 10
178.766839
 20
104.90555
 30
0.0
 11
195.979274
 21
104.90555
 31
0.0
  0
LINE
  5
272A
  8
0
 62
     0
 10
178.766839
 20
104.40555
 30
0.0
 11
199.479274
 21
104.40555
 31
0.0
  0
LINE
  5
272B
  8
0
 62
     0
 10
176.979274
 20
107.50555
 30
0.0
 11
176.979274
 21
102.10555
 31
0.0
  0
ARC
  5
272C
  8
0
 62
     0
 10
574.146925
 20
159.030054
 30
0.0
 40
400.0
 50
187.400905
 51
187.723767
  0
LINE
  5
272D
  8
0
 62
     0
 10
178.079274
 20
107.50555
 30
0.0
 11
178.079274
 21
106.774282
 31
0.0
  0
LINE
  5
272E
  8
0
 62
     0
 10
177.579274
 20
107.50555
 30
0.0
 11
177.579274
 21
106.741451
 31
0.0
  0
LINE
  5
272F
  8
0
 62
     0
 10
178.079274
 20
106.774282
 30
0.0
 11
177.579274
 21
106.741451
 31
0.0
  0
ARC
  5
2730
  8
0
 62
     0
 10
574.146925
 20
159.030054
 30
0.0
 40
399.5
 50
187.515993
 51
187.723767
  0
ARC
  5
2731
  8
0
 62
     0
 10
178.766839
 20
105.40555
 30
0.0
 40
0.499998
 50
187.723767
 51
270.0
  0
ARC
  5
2732
  8
0
 62
     0
 10
178.766839
 20
105.40555
 30
0.0
 40
1.0
 50
187.723767
 51
270.0
  0
LINE
  5
2733
  8
0
 62
     0
 10
178.766839
 20
104.90555
 30
0.0
 11
178.766839
 21
104.40555
 31
0.0
  0
LINE
  5
2734
  8
0
 62
     0
 10
178.271375
 20
105.338352
 30
0.0
 11
177.775911
 21
105.271153
 31
0.0
  0
ARC
  5
2735
  8
0
 62
     0
 10
199.479274
 20
104.90555
 30
0.0
 40
0.5
 50
270.0
 51
0.0
  0
LINE
  5
2736
  8
0
 62
     0
 10
199.979274
 20
104.90555
 30
0.0
 11
199.301581
 21
104.90555
 31
0.0
  0
LINE
  5
2737
  8
0
 62
     0
 10
196.005455
 20
104.40555
 30
0.0
 11
195.979274
 21
107.40555
 31
0.0
  0
LINE
  5
2738
  8
0
 62
     0
 10
198.100555
 20
104.90555
 30
0.0
 11
196.001091
 21
104.90555
 31
0.0
  0
LINE
  5
2739
  8
0
 62
     0
 10
195.997563
 20
105.309875
 30
0.0
 11
195.979274
 21
105.309875
 31
0.0
  0
LINE
  5
273A
  8
0
 62
     0
 10
195.979274
 20
104.702932
 30
0.0
 11
196.002859
 21
104.702932
 31
0.0
  0
LINE
  5
273B
  8
0
 62
     0
 10
199.471017
 20
106.85555
 30
0.0
 11
199.471017
 21
106.450966
 31
0.0
  0
LINE
  5
273C
  8
0
 62
     0
 10
199.471017
 20
106.450966
 30
0.0
 11
199.382992
 21
106.45122
 31
0.0
  0
LINE
  5
273D
  8
0
 62
     0
 10
199.301581
 20
104.90555
 30
0.0
 11
198.100555
 21
104.90555
 31
0.0
  0
POLYLINE
  5
273E
  8
0
 62
     0
 66
     1
 10
0.0
 20
0.0
 30
0.0
  0
VERTEX
  5
2CFC
  8
0
 62
     0
 10
197.62279
 20
104.40555
 30
0.0
  0
VERTEX
  5
2CFD
  8
0
 62
     0
 10
197.767762
 20
104.429321
 30
0.0
  0
VERTEX
  5
2CFE
  8
0
 62
     0
 10
197.9006
 20
104.499226
 30
0.0
  0
VERTEX
  5
2CFF
  8
0
 62
     0
 10
198.007334
 20
104.609351
 30
0.0
  0
VERTEX
  5
2D00
  8
0
 62
     0
 10
198.076545
 20
104.749375
 30
0.0
  0
VERTEX
  5
2D01
  8
0
 62
     0
 10
198.100555
 20
104.90555
 30
0.0
  0
SEQEND
  5
2D02
  8
0
 62
     0
  0
POLYLINE
  5
273F
  8
0
 62
     0
 66
     1
 10
0.0
 20
0.0
 30
0.0
  0
VERTEX
  5
2D03
  8
0
 62
     0
 10
199.050302
 20
109.80555
 30
0.0
  0
VERTEX
  5
2D04
  8
0
 62
     0
 10
199.026185
 20
109.627477
 30
0.0
  0
VERTEX
  5
2D05
  8
0
 62
     0
 10
199.002004
 20
109.449631
 30
0.0
  0
VERTEX
  5
2D06
  8
0
 62
     0
 10
198.977747
 20
109.271912
 30
0.0
  0
SEQEND
  5
2D07
  8
0
 62
     0
  0
POLYLINE
  5
2740
  8
0
 62
     0
 66
     1
 10
0.0
 20
0.0
 30
0.0
  0
VERTEX
  5
2D08
  8
0
 62
     0
 10
199.065578
 20
109.271912
 30
0.0
  0
VERTEX
  5
2D09
  8
0
 62
     0
 10
199.060575
 20
109.449801
 30
0.0
  0
VERTEX
  5
2D0A
  8
0
 62
     0
 10
199.055484
 20
109.627681
 30
0.0
  0
VERTEX
  5
2D0B
  8
0
 62
     0
 10
199.050302
 20
109.80555
 30
0.0
  0
SEQEND
  5
2D0C
  8
0
 62
     0
  0
LINE
  5
2741
  8
0
 62
     0
 10
198.797256
 20
109.809841
 30
0.0
 11
199.050302
 21
109.80555
 31
0.0
  0
LINE
  5
2742
  8
0
 62
     0
 10
199.979274
 20
106.85555
 30
0.0
 11
199.979274
 21
104.90555
 31
0.0
  0
LINE
  5
2743
  8
0
 62
     0
 10
218.479274
 20
104.30555
 30
0.0
 11
219.551102
 21
104.30555
 31
0.0
  0
ARC
  5
2744
  8
0
 62
     0
 10
217.279274
 20
105.85555
 30
0.0
 40
1.0
 50
0.0
 51
90.0
  0
ARC
  5
2745
  8
0
 62
     0
 10
218.479274
 20
104.50555
 30
0.0
 40
0.2
 50
180.0
 51
270.0
  0
ARC
  5
2746
  8
0
 62
     0
 10
219.579274
 20
104.50555
 30
0.0
 40
0.2
 50
270.0
 51
0.0
  0
POLYLINE
  5
2747
  8
0
 62
     0
 66
     1
 10
0.0
 20
0.0
 30
0.0
  0
VERTEX
  5
2D0D
  8
0
 62
     0
 10
219.632129
 20
104.322423
 30
0.0
  0
VERTEX
  5
2D0E
  8
0
 62
     0
 10
219.687913
 20
104.357833
 30
0.0
  0
VERTEX
  5
2D0F
  8
0
 62
     0
 10
219.726772
 20
104.403449
 30
0.0
  0
VERTEX
  5
2D10
  8
0
 62
     0
 10
219.749927
 20
104.454138
 30
0.0
  0
VERTEX
  5
2D11
  8
0
 62
     0
 10
219.758459
 20
104.50555
 30
0.0
  0
SEQEND
  5
2D12
  8
0
 62
     0
  0
LINE
  5
2748
  8
0
 62
     0
 10
219.779274
 20
104.50555
 30
0.0
 11
219.758459
 21
104.50555
 31
0.0
  0
POLYLINE
  5
2749
  8
0
 62
     0
 66
     1
 10
0.0
 20
0.0
 30
0.0
  0
VERTEX
  5
2D13
  8
0
 62
     0
 10
219.558578
 20
104.30569
 30
0.0
  0
VERTEX
  5
2D14
  8
0
 62
     0
 10
219.556087
 20
104.305612
 30
0.0
  0
VERTEX
  5
2D15
  8
0
 62
     0
 10
219.553594
 20
104.305566
 30
0.0
  0
VERTEX
  5
2D16
  8
0
 62
     0
 10
219.551102
 20
104.30555
 30
0.0
  0
SEQEND
  5
2D17
  8
0
 62
     0
  0
LINE
  5
274A
  8
0
 62
     0
 10
219.558578
 20
104.30569
 30
0.0
 11
219.632129
 21
104.322423
 31
0.0
  0
LINE
  5
274B
  8
0
 62
     0
 10
201.579274
 20
150.50555
 30
0.0
 11
212.279274
 21
150.50555
 31
0.0
  0
LINE
  5
274C
  8
0
 62
     0
 10
201.779274
 20
150.20555
 30
0.0
 11
212.279274
 21
150.20555
 31
0.0
  0
LINE
  5
274D
  8
0
 62
     0
 10
201.079274
 20
149.90555
 30
0.0
 11
222.389145
 21
149.90555
 31
0.0
  0
LINE
  5
274E
  8
0
 62
     0
 10
199.579274
 20
149.60555
 30
0.0
 11
221.679274
 21
149.60555
 31
0.0
  0
LINE
  5
274F
  8
0
 62
     0
 10
199.579274
 20
149.30555
 30
0.0
 11
221.979274
 21
149.30555
 31
0.0
  0
LINE
  5
2750
  8
0
 62
     0
 10
210.679274
 20
147.70555
 30
0.0
 11
199.579274
 21
147.70555
 31
0.0
  0
LINE
  5
2751
  8
0
 62
     0
 10
198.779274
 20
147.50555
 30
0.0
 11
210.679274
 21
147.50555
 31
0.0
  0
LINE
  5
2752
  8
0
 62
     0
 10
207.229274
 20
129.60555
 30
0.0
 11
219.314634
 21
129.500083
 31
0.0
  0
LINE
  5
2753
  8
0
 62
     0
 10
221.742249
 20
130.30555
 30
0.0
 11
199.579274
 21
130.30555
 31
0.0
  0
LINE
  5
2754
  8
0
 62
     0
 10
221.667119
 20
130.00555
 30
0.0
 11
199.579274
 21
130.00555
 31
0.0
  0
LINE
  5
2755
  8
0
 62
     0
 10
215.979274
 20
129.60555
 30
0.0
 11
207.029274
 21
129.60555
 31
0.0
  0
LINE
  5
2756
  8
0
 62
     0
 10
207.229274
 20
128.228856
 30
0.0
 11
214.929274
 21
128.161659
 31
0.0
  0
LINE
  5
2757
  8
0
 62
     0
 10
214.729274
 20
128.00555
 30
0.0
 11
206.982149
 21
128.00555
 31
0.0
  0
LINE
  5
2758
  8
0
 62
     0
 10
214.729274
 20
128.000314
 30
0.0
 11
206.976913
 21
128.000314
 31
0.0
  0
LINE
  5
2759
  8
0
 62
     0
 10
214.729274
 20
120.010786
 30
0.0
 11
199.579274
 21
120.010786
 31
0.0
  0
LINE
  5
275A
  8
0
 62
     0
 10
218.983099
 20
116.05555
 30
0.0
 11
198.979274
 21
116.05555
 31
0.0
  0
LINE
  5
275B
  8
0
 62
     0
 10
198.288956
 20
115.55555
 30
0.0
 11
218.488681
 21
115.55555
 31
0.0
  0
LINE
  5
275C
  8
0
 62
     0
 10
198.979274
 20
119.666357
 30
0.0
 11
214.929274
 21
119.80555
 31
0.0
  0
LINE
  5
275D
  8
0
 62
     0
 10
200.279274
 20
119.00555
 30
0.0
 11
200.279274
 21
174.10555
 31
0.0
  0
LINE
  5
275E
  8
0
 62
     0
 10
199.579274
 20
174.10555
 30
0.0
 11
199.579274
 21
119.00555
 31
0.0
  0
LINE
  5
275F
  8
0
 62
     0
 10
197.579274
 20
119.00555
 30
0.0
 11
197.579274
 21
174.10555
 31
0.0
  0
LINE
  5
2760
  8
0
 62
     0
 10
194.579274
 20
119.00555
 30
0.0
 11
194.579274
 21
174.10555
 31
0.0
  0
LINE
  5
2761
  8
0
 62
     0
 10
190.579274
 20
119.00555
 30
0.0
 11
190.579274
 21
174.10555
 31
0.0
  0
LINE
  5
2762
  8
0
 62
     0
 10
186.079274
 20
119.00555
 30
0.0
 11
186.079274
 21
174.10555
 31
0.0
  0
LINE
  5
2763
  8
0
 62
     0
 10
180.579274
 20
119.00555
 30
0.0
 11
180.579274
 21
174.10555
 31
0.0
  0
LINE
  5
2764
  8
0
 62
     0
 10
180.079274
 20
119.00555
 30
0.0
 11
200.279274
 21
119.00555
 31
0.0
  0
LINE
  5
2765
  8
0
 62
     0
 10
180.079274
 20
118.80555
 30
0.0
 11
197.379274
 21
118.80555
 31
0.0
  0
LINE
  5
2766
  8
0
 62
     0
 10
194.679274
 20
118.761904
 30
0.0
 11
181.679274
 21
118.648455
 31
0.0
  0
LINE
  5
2767
  8
0
 62
     0
 10
180.079274
 20
118.334504
 30
0.0
 11
198.479274
 21
118.495078
 31
0.0
  0
LINE
  5
2768
  8
0
 62
     0
 10
181.679274
 20
118.348467
 30
0.0
 11
181.679274
 21
118.80555
 31
0.0
  0
LINE
  5
2769
  8
0
 62
     0
 10
180.079274
 20
118.50555
 30
0.0
 11
181.679274
 21
118.50555
 31
0.0
  0
POLYLINE
  5
276A
  8
0
 62
     0
 66
     1
 10
0.0
 20
0.0
 30
0.0
  0
VERTEX
  5
2D18
  8
0
 62
     0
 10
182.486429
 20
126.588671
 30
0.0
  0
VERTEX
  5
2D19
  8
0
 62
     0
 10
182.581021
 20
126.925992
 30
0.0
  0
VERTEX
  5
2D1A
  8
0
 62
     0
 10
182.625023
 20
127.262555
 30
0.0
  0
VERTEX
  5
2D1B
  8
0
 62
     0
 10
182.621536
 20
127.598407
 30
0.0
  0
VERTEX
  5
2D1C
  8
0
 62
     0
 10
182.570411
 20
127.934622
 30
0.0
  0
VERTEX
  5
2D1D
  8
0
 62
     0
 10
182.468077
 20
128.271612
 30
0.0
  0
VERTEX
  5
2D1E
  8
0
 62
     0
 10
182.356522
 20
128.50555
 30
0.0
  0
SEQEND
  5
2D1F
  8
0
 62
     0
  0
LINE
  5
276B
  8
0
 62
     0
 10
183.379274
 20
128.50555
 30
0.0
 11
183.379274
 21
126.20555
 31
0.0
  0
LINE
  5
276C
  8
0
 62
     0
 10
183.279274
 20
128.50555
 30
0.0
 11
183.279274
 21
126.30555
 31
0.0
  0
LINE
  5
276D
  8
0
 62
     0
 10
182.279274
 20
126.20555
 30
0.0
 11
182.279274
 21
128.50555
 31
0.0
  0
LINE
  5
276E
  8
0
 62
     0
 10
182.279274
 20
126.492073
 30
0.0
 11
182.486429
 21
126.588671
 31
0.0
  0
LINE
  5
276F
  8
0
 62
     0
 10
183.379274
 20
126.20555
 30
0.0
 11
182.279274
 21
126.20555
 31
0.0
  0
LINE
  5
2770
  8
0
 62
     0
 10
182.486429
 20
126.588671
 30
0.0
 11
183.279274
 21
126.588671
 31
0.0
  0
LINE
  5
2771
  8
0
 62
     0
 10
182.279274
 20
128.50555
 30
0.0
 11
183.379274
 21
128.50555
 31
0.0
  0
LINE
  5
2772
  8
0
 62
     0
 10
183.279274
 20
128.006064
 30
0.0
 11
183.379274
 21
128.006937
 31
0.0
  0
LINE
  5
2773
  8
0
 62
     0
 10
183.279274
 20
127.706075
 30
0.0
 11
183.379274
 21
127.706948
 31
0.0
  0
POLYLINE
  5
2774
  8
0
 62
     0
 66
     1
 10
0.0
 20
0.0
 30
0.0
  0
VERTEX
  5
2D20
  8
0
 62
     0
 10
199.608387
 20
114.250054
 30
0.0
  0
VERTEX
  5
2D21
  8
0
 62
     0
 10
199.587044
 20
114.068362
 30
0.0
  0
VERTEX
  5
2D22
  8
0
 62
     0
 10
199.565646
 20
113.886898
 30
0.0
  0
VERTEX
  5
2D23
  8
0
 62
     0
 10
199.544179
 20
113.70555
 30
0.0
  0
SEQEND
  5
2D24
  8
0
 62
     0
  0
POLYLINE
  5
2775
  8
0
 62
     0
 66
     1
 10
0.0
 20
0.0
 30
0.0
  0
VERTEX
  5
2D25
  8
0
 62
     0
 10
199.354453
 20
115.55555
 30
0.0
  0
VERTEX
  5
2D26
  8
0
 62
     0
 10
199.431027
 20
115.499307
 30
0.0
  0
VERTEX
  5
2D27
  8
0
 62
     0
 10
199.496561
 20
115.331505
 30
0.0
  0
VERTEX
  5
2D28
  8
0
 62
     0
 10
199.548253
 20
115.061656
 30
0.0
  0
VERTEX
  5
2D29
  8
0
 62
     0
 10
199.58592
 20
114.694815
 30
0.0
  0
VERTEX
  5
2D2A
  8
0
 62
     0
 10
199.608387
 20
114.250054
 30
0.0
  0
SEQEND
  5
2D2B
  8
0
 62
     0
  0
LINE
  5
2776
  8
0
 62
     0
 10
198.979274
 20
129.535299
 30
0.0
 11
207.029274
 21
129.60555
 31
0.0
  0
POLYLINE
  5
2777
  8
0
 62
     0
 66
     1
 10
0.0
 20
0.0
 30
0.0
  0
VERTEX
  5
2D2C
  8
0
 62
     0
 10
199.615984
 20
113.694685
 30
0.0
  0
VERTEX
  5
2D2D
  8
0
 62
     0
 10
199.592386
 20
113.698307
 30
0.0
  0
VERTEX
  5
2D2E
  8
0
 62
     0
 10
199.568451
 20
113.701929
 30
0.0
  0
VERTEX
  5
2D2F
  8
0
 62
     0
 10
199.544179
 20
113.70555
 30
0.0
  0
SEQEND
  5
2D30
  8
0
 62
     0
  0
LINE
  5
2778
  8
0
 62
     0
 10
198.91023
 20
114.249589
 30
0.0
 11
199.608387
 21
114.250054
 31
0.0
  0
LINE
  5
2779
  8
0
 62
     0
 10
198.829994
 20
113.687908
 30
0.0
 11
199.615984
 21
113.694685
 31
0.0
  0
LINE
  5
277A
  8
0
 62
     0
 10
194.679274
 20
118.80555
 30
0.0
 11
194.679274
 21
118.461916
 31
0.0
  0
LINE
  5
277B
  8
0
 62
     0
 10
198.979274
 20
116.05555
 30
0.0
 11
198.979274
 21
119.00555
 31
0.0
  0
LINE
  5
277C
  8
0
 62
     0
 10
198.479274
 20
115.55555
 30
0.0
 11
198.479274
 21
119.00555
 31
0.0
  0
LINE
  5
277D
  8
0
 62
     0
 10
198.479274
 20
115.55555
 30
0.0
 11
198.979274
 21
116.05555
 31
0.0
  0
POLYLINE
  5
277E
  8
0
 62
     0
 66
     1
 10
0.0
 20
0.0
 30
0.0
  0
VERTEX
  5
2D31
  8
0
 62
     0
 10
198.91023
 20
114.250054
 30
0.0
  0
VERTEX
  5
2D32
  8
0
 62
     0
 10
198.994851
 20
114.696579
 30
0.0
  0
VERTEX
  5
2D33
  8
0
 62
     0
 10
199.08591
 20
115.063199
 30
0.0
  0
VERTEX
  5
2D34
  8
0
 62
     0
 10
199.178094
 20
115.332316
 30
0.0
  0
VERTEX
  5
2D35
  8
0
 62
     0
 10
199.269268
 20
115.499495
 30
0.0
  0
VERTEX
  5
2D36
  8
0
 62
     0
 10
199.354453
 20
115.55555
 30
0.0
  0
SEQEND
  5
2D37
  8
0
 62
     0
  0
POLYLINE
  5
277F
  8
0
 62
     0
 66
     1
 10
0.0
 20
0.0
 30
0.0
  0
VERTEX
  5
2D38
  8
0
 62
     0
 10
198.928433
 20
113.70555
 30
0.0
  0
VERTEX
  5
2D39
  8
0
 62
     0
 10
198.922444
 20
113.887063
 30
0.0
  0
VERTEX
  5
2D3A
  8
0
 62
     0
 10
198.916377
 20
114.068564
 30
0.0
  0
VERTEX
  5
2D3B
  8
0
 62
     0
 10
198.91023
 20
114.250054
 30
0.0
  0
SEQEND
  5
2D3C
  8
0
 62
     0
  0
LINE
  5
2780
  8
0
 62
     0
 10
198.928477
 20
113.700343
 30
0.0
 11
199.544179
 21
113.70555
 31
0.0
  0
POLYLINE
  5
2781
  8
0
 62
     0
 66
     1
 10
0.0
 20
0.0
 30
0.0
  0
VERTEX
  5
2D3D
  8
0
 62
     0
 10
198.928433
 20
113.70555
 30
0.0
  0
VERTEX
  5
2D3E
  8
0
 62
     0
 10
198.89594
 20
113.701928
 30
0.0
  0
VERTEX
  5
2D3F
  8
0
 62
     0
 10
198.863107
 20
113.698306
 30
0.0
  0
VERTEX
  5
2D40
  8
0
 62
     0
 10
198.829935
 20
113.694685
 30
0.0
  0
SEQEND
  5
2D41
  8
0
 62
     0
  0
LINE
  5
2782
  8
0
 62
     0
 10
195.979274
 20
118.45555
 30
0.0
 11
197.902553
 21
118.45555
 31
0.0
  0
LINE
  5
2783
  8
0
 62
     0
 10
195.979274
 20
118.30555
 30
0.0
 11
198.080498
 21
118.30555
 31
0.0
  0
LINE
  5
2784
  8
0
 62
     0
 10
198.080498
 20
117.251197
 30
0.0
 11
198.080498
 21
118.30555
 31
0.0
  0
LINE
  5
2785
  8
0
 62
     0
 10
197.379274
 20
119.00555
 30
0.0
 11
197.379274
 21
118.80555
 31
0.0
  0
POLYLINE
  5
2786
  8
0
 62
     0
 66
     1
 10
0.0
 20
0.0
 30
0.0
  0
VERTEX
  5
2D42
  8
0
 62
     0
 10
197.902553
 20
118.45555
 30
0.0
  0
VERTEX
  5
2D43
  8
0
 62
     0
 10
197.974526
 20
118.443263
 30
0.0
  0
VERTEX
  5
2D44
  8
0
 62
     0
 10
198.031855
 20
118.409598
 30
0.0
  0
VERTEX
  5
2D45
  8
0
 62
     0
 10
198.068904
 20
118.359544
 30
0.0
  0
VERTEX
  5
2D46
  8
0
 62
     0
 10
198.080498
 20
118.30555
 30
0.0
  0
SEQEND
  5
2D47
  8
0
 62
     0
  0
LINE
  5
2787
  8
0
 62
     0
 10
198.080498
 20
117.251197
 30
0.0
 11
198.479282
 21
117.254678
 31
0.0
  0
LINE
  5
2788
  8
0
 62
     0
 10
206.976913
 20
129.60555
 30
0.0
 11
202.729274
 21
129.60555
 31
0.0
  0
LINE
  5
2789
  8
0
 62
     0
 10
201.079274
 20
129.591151
 30
0.0
 11
202.729274
 21
129.60555
 31
0.0
  0
LINE
  5
278A
  8
0
 62
     0
 10
201.079274
 20
129.553625
 30
0.0
 11
201.079274
 21
130.00555
 31
0.0
  0
LINE
  5
278B
  8
0
 62
     0
 10
202.729274
 20
129.60555
 30
0.0
 11
202.729274
 21
129.568025
 31
0.0
  0
LINE
  5
278C
  8
0
 62
     0
 10
207.229274
 20
129.60555
 30
0.0
 11
207.229274
 21
128.228856
 31
0.0
  0
LINE
  5
278D
  8
0
 62
     0
 10
207.029274
 20
129.60555
 30
0.0
 11
207.029274
 21
128.98055
 31
0.0
  0
LINE
  5
278E
  8
0
 62
     0
 10
206.976913
 20
128.000314
 30
0.0
 11
206.976913
 21
129.605093
 31
0.0
  0
LINE
  5
278F
  8
0
 62
     0
 10
206.982149
 20
128.98055
 30
0.0
 11
207.229274
 21
128.98055
 31
0.0
  0
LINE
  5
2790
  8
0
 62
     0
 10
197.079274
 20
142.85555
 30
0.0
 11
197.079274
 21
140.35555
 31
0.0
  0
LINE
  5
2791
  8
0
 62
     0
 10
195.079274
 20
140.35555
 30
0.0
 11
195.079274
 21
142.85555
 31
0.0
  0
LINE
  5
2792
  8
0
 62
     0
 10
197.079274
 20
140.35555
 30
0.0
 11
195.079274
 21
140.35555
 31
0.0
  0
LINE
  5
2793
  8
0
 62
     0
 10
195.079274
 20
142.85555
 30
0.0
 11
197.079274
 21
142.85555
 31
0.0
  0
LINE
  5
2794
  8
0
 62
     0
 10
205.579274
 20
141.10555
 30
0.0
 11
205.579274
 21
143.10555
 31
0.0
  0
LINE
  5
2795
  8
0
 62
     0
 10
205.429274
 20
141.20555
 30
0.0
 11
205.429274
 21
143.10555
 31
0.0
  0
LINE
  5
2796
  8
0
 62
     0
 10
203.629274
 20
141.20555
 30
0.0
 11
203.629274
 21
143.10555
 31
0.0
  0
LINE
  5
2797
  8
0
 62
     0
 10
203.479274
 20
143.10555
 30
0.0
 11
203.479274
 21
141.10555
 31
0.0
  0
LINE
  5
2798
  8
0
 62
     0
 10
205.429274
 20
141.20555
 30
0.0
 11
203.629274
 21
141.20555
 31
0.0
  0
LINE
  5
2799
  8
0
 62
     0
 10
203.479274
 20
141.10555
 30
0.0
 11
205.579274
 21
141.10555
 31
0.0
  0
LINE
  5
279A
  8
0
 62
     0
 10
205.579274
 20
143.10555
 30
0.0
 11
203.479274
 21
143.10555
 31
0.0
  0
LINE
  5
279B
  8
0
 62
     0
 10
205.429274
 20
141.632953
 30
0.0
 11
203.629274
 21
141.632953
 31
0.0
  0
ARC
  5
279C
  8
0
 62
     0
 10
201.779274
 20
150.40555
 30
0.0
 40
0.2
 50
180.0
 51
270.0
  0
LINE
  5
279D
  8
0
 62
     0
 10
201.079274
 20
147.50555
 30
0.0
 11
201.079274
 21
147.70555
 31
0.0
  0
LINE
  5
279E
  8
0
 62
     0
 10
190.579274
 20
174.689403
 30
0.0
 11
186.079274
 21
174.694643
 31
0.0
  0
LINE
  5
279F
  8
0
 62
     0
 10
194.079274
 20
174.657958
 30
0.0
 11
182.636269
 21
174.657958
 31
0.0
  0
LINE
  5
27A0
  8
0
 62
     0
 10
180.079274
 20
174.10555
 30
0.0
 11
201.079274
 21
174.10555
 31
0.0
  0
LINE
  5
27A1
  8
0
 62
     0
 10
177.179274
 20
182.70555
 30
0.0
 11
180.079274
 21
182.70555
 31
0.0
  0
LINE
  5
27A2
  8
0
 62
     0
 10
180.079274
 20
181.80555
 30
0.0
 11
179.979274
 21
181.80555
 31
0.0
  0
LINE
  5
27A3
  8
0
 62
     0
 10
179.979274
 20
179.30555
 30
0.0
 11
180.079274
 21
179.30555
 31
0.0
  0
LINE
  5
27A4
  8
0
 62
     0
 10
180.079274
 20
177.60555
 30
0.0
 11
179.979274
 21
177.60555
 31
0.0
  0
LINE
  5
27A5
  8
0
 62
     0
 10
177.179274
 20
176.70555
 30
0.0
 11
180.079274
 21
176.70555
 31
0.0
  0
LINE
  5
27A6
  8
0
 62
     0
 10
179.979274
 20
182.35555
 30
0.0
 11
179.979274
 21
177.05555
 31
0.0
  0
LINE
  5
27A7
  8
0
 62
     0
 10
177.379274
 20
182.35555
 30
0.0
 11
177.379274
 21
177.05555
 31
0.0
  0
LINE
  5
27A8
  8
0
 62
     0
 10
177.179274
 20
182.70555
 30
0.0
 11
177.179274
 21
176.70555
 31
0.0
  0
LINE
  5
27A9
  8
0
 62
     0
 10
174.679274
 20
177.70555
 30
0.0
 11
174.679274
 21
181.20555
 31
0.0
  0
LINE
  5
27AA
  8
0
 62
     0
 10
173.679274
 20
181.20555
 30
0.0
 11
173.679274
 21
179.40555
 31
0.0
  0
LINE
  5
27AB
  8
0
 62
     0
 10
177.379274
 20
177.05555
 30
0.0
 11
179.979274
 21
177.05555
 31
0.0
  0
LINE
  5
27AC
  8
0
 62
     0
 10
177.179274
 20
179.30555
 30
0.0
 11
177.379274
 21
179.30555
 31
0.0
  0
LINE
  5
27AD
  8
0
 62
     0
 10
177.379274
 20
177.60555
 30
0.0
 11
177.179274
 21
177.60555
 31
0.0
  0
LINE
  5
27AE
  8
0
 62
     0
 10
177.379274
 20
182.35555
 30
0.0
 11
179.979274
 21
182.35555
 31
0.0
  0
LINE
  5
27AF
  8
0
 62
     0
 10
177.379274
 20
181.80555
 30
0.0
 11
177.179274
 21
181.80555
 31
0.0
  0
LINE
  5
27B0
  8
0
 62
     0
 10
186.079274
 20
174.689403
 30
0.0
 11
180.579274
 21
174.694643
 31
0.0
  0
LINE
  5
27B1
  8
0
 62
     0
 10
182.636269
 20
174.657958
 30
0.0
 11
180.079274
 21
174.669682
 31
0.0
  0
LINE
  5
27B2
  8
0
 62
     0
 10
180.579274
 20
174.689403
 30
0.0
 11
180.079274
 21
174.689403
 31
0.0
  0
LINE
  5
27B3
  8
0
 62
     0
 10
199.579274
 20
174.689403
 30
0.0
 11
197.579274
 21
174.694643
 31
0.0
  0
LINE
  5
27B4
  8
0
 62
     0
 10
192.979274
 20
174.60555
 30
0.0
 11
201.579274
 21
174.60555
 31
0.0
  0
LINE
  5
27B5
  8
0
 62
     0
 10
194.079274
 20
174.60555
 30
0.0
 11
201.079274
 21
174.621273
 31
0.0
  0
LINE
  5
27B6
  8
0
 62
     0
 10
197.579274
 20
174.689403
 30
0.0
 11
194.579274
 21
174.694643
 31
0.0
  0
LINE
  5
27B7
  8
0
 62
     0
 10
194.579274
 20
174.689403
 30
0.0
 11
190.579274
 21
174.694643
 31
0.0
  0
LINE
  5
27B8
  8
0
 62
     0
 10
194.079274
 20
174.60555
 30
0.0
 11
194.079274
 21
174.657958
 31
0.0
  0
LINE
  5
27B9
  8
0
 62
     0
 10
192.979274
 20
174.657958
 30
0.0
 11
192.979274
 21
174.10555
 31
0.0
  0
POLYLINE
  5
27BA
  8
0
 62
     0
 66
     1
 10
0.0
 20
0.0
 30
0.0
  0
VERTEX
  5
2D48
  8
0
 62
     0
 10
201.079274
 20
174.647476
 30
0.0
  0
VERTEX
  5
2D49
  8
0
 62
     0
 10
201.018318
 20
174.663528
 30
0.0
  0
VERTEX
  5
2D4A
  8
0
 62
     0
 10
200.844851
 20
174.677128
 30
0.0
  0
VERTEX
  5
2D4B
  8
0
 62
     0
 10
200.585277
 20
174.686214
 30
0.0
  0
VERTEX
  5
2D4C
  8
0
 62
     0
 10
200.279274
 20
174.689403
 30
0.0
  0
SEQEND
  5
2D4D
  8
0
 62
     0
  0
LINE
  5
27BB
  8
0
 62
     0
 10
201.579274
 20
175.396823
 30
0.0
 11
201.079274
 21
175.40555
 31
0.0
  0
LINE
  5
27BC
  8
0
 62
     0
 10
201.079274
 20
174.95555
 30
0.0
 11
201.579274
 21
174.95555
 31
0.0
  0
LINE
  5
27BD
  8
0
 62
     0
 10
200.279274
 20
174.689403
 30
0.0
 11
199.579274
 21
174.689403
 31
0.0
  0
LINE
  5
27BE
  8
0
 62
     0
 10
201.07936
 20
174.085915
 30
0.0
 11
201.579274
 21
174.088097
 31
0.0
  0
LINE
  5
27BF
  8
0
 62
     0
 10
201.079274
 20
173.785912
 30
0.0
 11
201.579274
 21
173.788094
 31
0.0
  0
LINE
  5
27C0
  8
0
 62
     0
 10
224.879274
 20
158.60555
 30
0.0
 11
224.879274
 21
150.20555
 31
0.0
  0
LINE
  5
27C1
  8
0
 62
     0
 10
223.047281
 20
150.50555
 30
0.0
 11
223.047281
 21
151.767024
 31
0.0
  0
LINE
  5
27C2
  8
0
 62
     0
 10
222.995046
 20
150.20555
 30
0.0
 11
222.995046
 21
151.776235
 31
0.0
  0
LINE
  5
27C3
  8
0
 62
     0
 10
222.061672
 20
150.20555
 30
0.0
 11
222.061672
 21
151.940813
 31
0.0
  0
LINE
  5
27C4
  8
0
 62
     0
 10
222.009847
 20
150.50555
 30
0.0
 11
222.009847
 21
151.949952
 31
0.0
  0
POLYLINE
  5
27C5
  8
0
 62
     0
 66
     1
 10
0.0
 20
0.0
 30
0.0
  0
VERTEX
  5
2D4E
  8
0
 62
     0
 10
220.231357
 20
152.263547
 30
0.0
  0
VERTEX
  5
2D4F
  8
0
 62
     0
 10
219.943065
 20
152.087579
 30
0.0
  0
VERTEX
  5
2D50
  8
0
 62
     0
 10
219.654873
 20
151.926803
 30
0.0
  0
VERTEX
  5
2D51
  8
0
 62
     0
 10
219.367834
 20
151.779861
 30
0.0
  0
VERTEX
  5
2D52
  8
0
 62
     0
 10
219.082724
 20
151.645527
 30
0.0
  0
VERTEX
  5
2D53
  8
0
 62
     0
 10
218.800093
 20
151.522687
 30
0.0
  0
VERTEX
  5
2D54
  8
0
 62
     0
 10
218.520299
 20
151.410332
 30
0.0
  0
VERTEX
  5
2D55
  8
0
 62
     0
 10
218.243449
 20
151.307548
 30
0.0
  0
VERTEX
  5
2D56
  8
0
 62
     0
 10
217.969619
 20
151.213506
 30
0.0
  0
VERTEX
  5
2D57
  8
0
 62
     0
 10
217.698637
 20
151.127452
 30
0.0
  0
VERTEX
  5
2D58
  8
0
 62
     0
 10
217.430224
 20
151.048706
 30
0.0
  0
VERTEX
  5
2D59
  8
0
 62
     0
 10
217.16393
 20
150.976649
 30
0.0
  0
VERTEX
  5
2D5A
  8
0
 62
     0
 10
216.899134
 20
150.910719
 30
0.0
  0
VERTEX
  5
2D5B
  8
0
 62
     0
 10
216.63502
 20
150.850403
 30
0.0
  0
VERTEX
  5
2D5C
  8
0
 62
     0
 10
216.370399
 20
150.795239
 30
0.0
  0
VERTEX
  5
2D5D
  8
0
 62
     0
 10
216.103812
 20
150.744804
 30
0.0
  0
VERTEX
  5
2D5E
  8
0
 62
     0
 10
215.833133
 20
150.698717
 30
0.0
  0
VERTEX
  5
2D5F
  8
0
 62
     0
 10
215.555293
 20
150.656628
 30
0.0
  0
VERTEX
  5
2D60
  8
0
 62
     0
 10
215.265451
 20
150.618227
 30
0.0
  0
VERTEX
  5
2D61
  8
0
 62
     0
 10
214.955883
 20
150.583264
 30
0.0
  0
VERTEX
  5
2D62
  8
0
 62
     0
 10
214.61062
 20
150.551497
 30
0.0
  0
VERTEX
  5
2D63
  8
0
 62
     0
 10
214.185891
 20
150.522681
 30
0.0
  0
SEQEND
  5
2D64
  8
0
 62
     0
  0
LINE
  5
27C6
  8
0
 62
     0
 10
213.779274
 20
154.00555
 30
0.0
 11
213.779274
 21
150.60555
 31
0.0
  0
LINE
  5
27C7
  8
0
 62
     0
 10
212.779274
 20
153.698419
 30
0.0
 11
212.779274
 21
150.60555
 31
0.0
  0
POLYLINE
  5
27C8
  8
0
 62
     0
 66
     1
 10
0.0
 20
0.0
 30
0.0
  0
VERTEX
  5
2D65
  8
0
 62
     0
 10
213.779274
 20
150.905685
 30
0.0
  0
VERTEX
  5
2D66
  8
0
 62
     0
 10
214.84197
 20
150.974076
 30
0.0
  0
VERTEX
  5
2D67
  8
0
 62
     0
 10
216.012892
 20
151.136701
 30
0.0
  0
VERTEX
  5
2D68
  8
0
 62
     0
 10
217.297962
 20
151.432468
 30
0.0
  0
VERTEX
  5
2D69
  8
0
 62
     0
 10
218.579202
 20
151.87631
 30
0.0
  0
VERTEX
  5
2D6A
  8
0
 62
     0
 10
219.673123
 20
152.416142
 30
0.0
  0
VERTEX
  5
2D6B
  8
0
 62
     0
 10
220.557361
 20
153.021637
 30
0.0
  0
VERTEX
  5
2D6C
  8
0
 62
     0
 10
221.237965
 20
153.676461
 30
0.0
  0
VERTEX
  5
2D6D
  8
0
 62
     0
 10
221.711113
 20
154.355394
 30
0.0
  0
VERTEX
  5
2D6E
  8
0
 62
     0
 10
221.979802
 20
155.021123
 30
0.0
  0
VERTEX
  5
2D6F
  8
0
 62
     0
 10
222.071049
 20
155.686641
 30
0.0
  0
VERTEX
  5
2D70
  8
0
 62
     0
 10
221.98957
 20
156.352484
 30
0.0
  0
VERTEX
  5
2D71
  8
0
 62
     0
 10
221.73152
 20
157.017545
 30
0.0
  0
VERTEX
  5
2D72
  8
0
 62
     0
 10
221.270528
 20
157.696313
 30
0.0
  0
VERTEX
  5
2D73
  8
0
 62
     0
 10
220.601395
 20
158.353486
 30
0.0
  0
VERTEX
  5
2D74
  8
0
 62
     0
 10
219.728785
 20
158.962217
 30
0.0
  0
VERTEX
  5
2D75
  8
0
 62
     0
 10
219.443788
 20
159.105661
 30
0.0
  0
SEQEND
  5
2D76
  8
0
 62
     0
  0
POLYLINE
  5
27C9
  8
0
 62
     0
 66
     1
 10
0.0
 20
0.0
 30
0.0
  0
VERTEX
  5
2D77
  8
0
 62
     0
 10
214.862837
 20
150.674678
 30
0.0
  0
VERTEX
  5
2D78
  8
0
 62
     0
 10
216.057537
 20
150.839917
 30
0.0
  0
VERTEX
  5
2D79
  8
0
 62
     0
 10
217.371988
 20
151.141634
 30
0.0
  0
VERTEX
  5
2D7A
  8
0
 62
     0
 10
218.688495
 20
151.596851
 30
0.0
  0
VERTEX
  5
2D7B
  8
0
 62
     0
 10
219.820019
 20
152.154522
 30
0.0
  0
SEQEND
  5
2D7C
  8
0
 62
     0
  0
LINE
  5
27CA
  8
0
 62
     0
 10
221.832582
 20
149.20555
 30
0.0
 11
235.779274
 21
149.20555
 31
0.0
  0
LINE
  5
27CB
  8
0
 62
     0
 10
221.807457
 20
148.70555
 30
0.0
 11
236.279274
 21
148.70555
 31
0.0
  0
LINE
  5
27CC
  8
0
 62
     0
 10
236.279274
 20
132.03055
 30
0.0
 11
221.807457
 21
132.03055
 31
0.0
  0
LINE
  5
27CD
  8
0
 62
     0
 10
235.779274
 20
131.53055
 30
0.0
 11
221.815066
 21
131.53055
 31
0.0
  0
LINE
  5
27CE
  8
0
 62
     0
 10
221.961808
 20
131.530393
 30
0.0
 11
221.916985
 21
130.246825
 31
0.0
  0
LINE
  5
27CF
  8
0
 62
     0
 10
221.751397
 20
132.03055
 30
0.0
 11
221.742249
 21
130.30555
 31
0.0
  0
LINE
  5
27D0
  8
0
 62
     0
 10
220.11743
 20
130.30555
 30
0.0
 11
220.11743
 21
135.60555
 31
0.0
  0
LINE
  5
27D1
  8
0
 62
     0
 10
219.230639
 20
130.00555
 30
0.0
 11
219.230639
 21
149.60555
 31
0.0
  0
LINE
  5
27D2
  8
0
 62
     0
 10
210.679274
 20
149.60555
 30
0.0
 11
210.679274
 21
130.00555
 31
0.0
  0
LINE
  5
27D3
  8
0
 62
     0
 10
221.961831
 20
131.530398
 30
0.0
 11
221.838129
 21
131.529318
 31
0.0
  0
POLYLINE
  5
27D4
  8
0
 62
     0
 66
     1
 10
0.0
 20
0.0
 30
0.0
  0
VERTEX
  5
2D7D
  8
0
 62
     0
 10
219.190184
 20
123.55555
 30
0.0
  0
VERTEX
  5
2D7E
  8
0
 62
     0
 10
219.182401
 20
122.891203
 30
0.0
  0
VERTEX
  5
2D7F
  8
0
 62
     0
 10
219.159103
 20
122.254448
 30
0.0
  0
VERTEX
  5
2D80
  8
0
 62
     0
 10
219.12077
 20
121.675704
 30
0.0
  0
VERTEX
  5
2D81
  8
0
 62
     0
 10
219.067774
 20
121.176187
 30
0.0
  0
VERTEX
  5
2D82
  8
0
 62
     0
 10
219.001758
 20
120.782212
 30
0.0
  0
VERTEX
  5
2D83
  8
0
 62
     0
 10
218.923752
 20
120.507394
 30
0.0
  0
VERTEX
  5
2D84
  8
0
 62
     0
 10
218.8373
 20
120.367716
 30
0.0
  0
VERTEX
  5
2D85
  8
0
 62
     0
 10
218.79111
 20
120.350363
 30
0.0
  0
SEQEND
  5
2D86
  8
0
 62
     0
  0
POLYLINE
  5
27D5
  8
0
 62
     0
 66
     1
 10
0.0
 20
0.0
 30
0.0
  0
VERTEX
  5
2D87
  8
0
 62
     0
 10
218.976029
 20
117.05555
 30
0.0
  0
VERTEX
  5
2D88
  8
0
 62
     0
 10
218.982386
 20
117.913308
 30
0.0
  0
VERTEX
  5
2D89
  8
0
 62
     0
 10
219.001016
 20
118.742236
 30
0.0
  0
VERTEX
  5
2D8A
  8
0
 62
     0
 10
219.029463
 20
119.490705
 30
0.0
  0
VERTEX
  5
2D8B
  8
0
 62
     0
 10
219.06584
 20
120.157931
 30
0.0
  0
VERTEX
  5
2D8C
  8
0
 62
     0
 10
219.108632
 20
120.741835
 30
0.0
  0
VERTEX
  5
2D8D
  8
0
 62
     0
 10
219.156345
 20
121.237074
 30
0.0
  0
VERTEX
  5
2D8E
  8
0
 62
     0
 10
219.207275
 20
121.635956
 30
0.0
  0
VERTEX
  5
2D8F
  8
0
 62
     0
 10
219.259031
 20
121.928969
 30
0.0
  0
VERTEX
  5
2D90
  8
0
 62
     0
 10
219.301542
 20
122.089577
 30
0.0
  0
SEQEND
  5
2D91
  8
0
 62
     0
  0
POLYLINE
  5
27D6
  8
0
 62
     0
 66
     1
 10
0.0
 20
0.0
 30
0.0
  0
VERTEX
  5
2D92
  8
0
 62
     0
 10
218.974458
 20
117.05555
 30
0.0
  0
VERTEX
  5
2D93
  8
0
 62
     0
 10
218.977076
 20
117.606903
 30
0.0
  0
VERTEX
  5
2D94
  8
0
 62
     0
 10
218.983925
 20
118.101839
 30
0.0
  0
VERTEX
  5
2D95
  8
0
 62
     0
 10
218.99392
 20
118.549132
 30
0.0
  0
VERTEX
  5
2D96
  8
0
 62
     0
 10
219.006113
 20
118.95058
 30
0.0
  0
VERTEX
  5
2D97
  8
0
 62
     0
 10
219.019749
 20
119.308439
 30
0.0
  0
VERTEX
  5
2D98
  8
0
 62
     0
 10
219.034356
 20
119.629087
 30
0.0
  0
VERTEX
  5
2D99
  8
0
 62
     0
 10
219.049612
 20
119.917653
 30
0.0
  0
VERTEX
  5
2D9A
  8
0
 62
     0
 10
219.064713
 20
120.169033
 30
0.0
  0
VERTEX
  5
2D9B
  8
0
 62
     0
 10
219.079362
 20
120.387646
 30
0.0
  0
VERTEX
  5
2D9C
  8
0
 62
     0
 10
219.093869
 20
120.584001
 30
0.0
  0
VERTEX
  5
2D9D
  8
0
 62
     0
 10
219.108704
 20
120.767246
 30
0.0
  0
VERTEX
  5
2D9E
  8
0
 62
     0
 10
219.124167
 20
120.941892
 30
0.0
  0
VERTEX
  5
2D9F
  8
0
 62
     0
 10
219.14055
 20
121.110844
 30
0.0
  0
VERTEX
  5
2DA0
  8
0
 62
     0
 10
219.158128
 20
121.275736
 30
0.0
  0
VERTEX
  5
2DA1
  8
0
 62
     0
 10
219.176843
 20
121.434396
 30
0.0
  0
VERTEX
  5
2DA2
  8
0
 62
     0
 10
219.196428
 20
121.583362
 30
0.0
  0
VERTEX
  5
2DA3
  8
0
 62
     0
 10
219.216553
 20
121.719644
 30
0.0
  0
VERTEX
  5
2DA4
  8
0
 62
     0
 10
219.236861
 20
121.840879
 30
0.0
  0
VERTEX
  5
2DA5
  8
0
 62
     0
 10
219.256967
 20
121.945425
 30
0.0
  0
SEQEND
  5
2DA6
  8
0
 62
     0
  0
POLYLINE
  5
27D7
  8
0
 62
     0
 66
     1
 10
0.0
 20
0.0
 30
0.0
  0
VERTEX
  5
2DA7
  8
0
 62
     0
 10
218.79111
 20
126.760738
 30
0.0
  0
VERTEX
  5
2DA8
  8
0
 62
     0
 10
218.837299
 20
126.743385
 30
0.0
  0
VERTEX
  5
2DA9
  8
0
 62
     0
 10
218.923752
 20
126.603708
 30
0.0
  0
VERTEX
  5
2DAA
  8
0
 62
     0
 10
219.001758
 20
126.328891
 30
0.0
  0
VERTEX
  5
2DAB
  8
0
 62
     0
 10
219.067774
 20
125.934918
 30
0.0
  0
VERTEX
  5
2DAC
  8
0
 62
     0
 10
219.120769
 20
125.435405
 30
0.0
  0
VERTEX
  5
2DAD
  8
0
 62
     0
 10
219.159102
 20
124.856673
 30
0.0
  0
VERTEX
  5
2DAE
  8
0
 62
     0
 10
219.182401
 20
124.219904
 30
0.0
  0
VERTEX
  5
2DAF
  8
0
 62
     0
 10
219.190184
 20
123.55555
 30
0.0
  0
SEQEND
  5
2DB0
  8
0
 62
     0
  0
LINE
  5
27D8
  8
0
 62
     0
 10
215.979274
 20
129.624749
 30
0.0
 11
219.979277
 21
129.589842
 31
0.0
  0
LINE
  5
27D9
  8
0
 62
     0
 10
218.976029
 20
117.05555
 30
0.0
 11
219.66664
 21
117.05555
 31
0.0
  0
POLYLINE
  5
27DA
  8
0
 62
     0
 66
     1
 10
0.0
 20
0.0
 30
0.0
  0
VERTEX
  5
2DB1
  8
0
 62
     0
 10
218.279274
 20
113.594799
 30
0.0
  0
VERTEX
  5
2DB2
  8
0
 62
     0
 10
218.681319
 20
113.605244
 30
0.0
  0
VERTEX
  5
2DB3
  8
0
 62
     0
 10
219.145575
 20
113.617369
 30
0.0
  0
VERTEX
  5
2DB4
  8
0
 62
     0
 10
219.536336
 20
113.627626
 30
0.0
  0
SEQEND
  5
2DB5
  8
0
 62
     0
  0
POLYLINE
  5
27DB
  8
0
 62
     0
 66
     1
 10
0.0
 20
0.0
 30
0.0
  0
VERTEX
  5
2DB6
  8
0
 62
     0
 10
219.532821
 20
113.708042
 30
0.0
  0
VERTEX
  5
2DB7
  8
0
 62
     0
 10
219.11554
 20
113.696609
 30
0.0
  0
VERTEX
  5
2DB8
  8
0
 62
     0
 10
218.697691
 20
113.685217
 30
0.0
  0
VERTEX
  5
2DB9
  8
0
 62
     0
 10
218.279274
 20
113.673866
 30
0.0
  0
SEQEND
  5
2DBA
  8
0
 62
     0
  0
LINE
  5
27DC
  8
0
 62
     0
 10
218.149
 20
116.05555
 30
0.0
 11
218.149
 21
129.510255
 31
0.0
  0
LINE
  5
27DD
  8
0
 62
     0
 10
217.163299
 20
115.55555
 30
0.0
 11
217.163299
 21
129.518857
 31
0.0
  0
LINE
  5
27DE
  8
0
 62
     0
 10
214.929274
 20
128.161659
 30
0.0
 11
214.929274
 21
119.80555
 31
0.0
  0
LINE
  5
27DF
  8
0
 62
     0
 10
214.729274
 20
128.000314
 30
0.0
 11
214.729274
 21
120.010786
 31
0.0
  0
POLYLINE
  5
27E0
  8
0
 62
     0
 66
     1
 10
0.0
 20
0.0
 30
0.0
  0
VERTEX
  5
2DBB
  8
0
 62
     0
 10
218.79111
 20
120.350363
 30
0.0
  0
VERTEX
  5
2DBC
  8
0
 62
     0
 10
218.744633
 20
120.368032
 30
0.0
  0
VERTEX
  5
2DBD
  8
0
 62
     0
 10
218.651081
 20
120.508566
 30
0.0
  0
VERTEX
  5
2DBE
  8
0
 62
     0
 10
218.560106
 20
120.784683
 30
0.0
  0
VERTEX
  5
2DBF
  8
0
 62
     0
 10
218.477759
 20
121.180062
 30
0.0
  0
VERTEX
  5
2DC0
  8
0
 62
     0
 10
218.407798
 20
121.680391
 30
0.0
  0
VERTEX
  5
2DC1
  8
0
 62
     0
 10
218.354887
 20
122.258968
 30
0.0
  0
VERTEX
  5
2DC2
  8
0
 62
     0
 10
218.321748
 20
122.89433
 30
0.0
  0
VERTEX
  5
2DC3
  8
0
 62
     0
 10
218.310527
 20
123.55555
 30
0.0
  0
SEQEND
  5
2DC4
  8
0
 62
     0
  0
POLYLINE
  5
27E1
  8
0
 62
     0
 66
     1
 10
0.0
 20
0.0
 30
0.0
  0
VERTEX
  5
2DC5
  8
0
 62
     0
 10
218.983099
 20
116.05555
 30
0.0
  0
VERTEX
  5
2DC6
  8
0
 62
     0
 10
218.978335
 20
116.384682
 30
0.0
  0
VERTEX
  5
2DC7
  8
0
 62
     0
 10
218.97543
 20
116.719808
 30
0.0
  0
VERTEX
  5
2DC8
  8
0
 62
     0
 10
218.974458
 20
117.05555
 30
0.0
  0
SEQEND
  5
2DC9
  8
0
 62
     0
  0
POLYLINE
  5
27E2
  8
0
 62
     0
 66
     1
 10
0.0
 20
0.0
 30
0.0
  0
VERTEX
  5
2DCA
  8
0
 62
     0
 10
218.984626
 20
116.059028
 30
0.0
  0
VERTEX
  5
2DCB
  8
0
 62
     0
 10
218.980074
 20
116.370845
 30
0.0
  0
VERTEX
  5
2DCC
  8
0
 62
     0
 10
218.976907
 20
116.736467
 30
0.0
  0
VERTEX
  5
2DCD
  8
0
 62
     0
 10
218.976029
 20
117.05555
 30
0.0
  0
SEQEND
  5
2DCE
  8
0
 62
     0
  0
LINE
  5
27E3
  8
0
 62
     0
 10
218.612817
 20
115.571231
 30
0.0
 11
218.73874
 21
115.622966
 31
0.0
  0
LINE
  5
27E4
  8
0
 62
     0
 10
218.73874
 20
115.622966
 30
0.0
 11
218.847779
 21
115.709396
 31
0.0
  0
LINE
  5
27E5
  8
0
 62
     0
 10
218.847779
 20
115.709396
 30
0.0
 11
218.92669
 21
115.81993
 31
0.0
  0
LINE
  5
27E6
  8
0
 62
     0
 10
218.983099
 20
116.05555
 30
0.0
 11
218.984626
 21
116.059019
 31
0.0
  0
LINE
  5
27E7
  8
0
 62
     0
 10
218.92669
 20
115.81993
 30
0.0
 11
218.970817
 21
115.940064
 31
0.0
  0
LINE
  5
27E8
  8
0
 62
     0
 10
218.970817
 20
115.940064
 30
0.0
 11
218.983099
 21
116.05555
 31
0.0
  0
LINE
  5
27E9
  8
0
 62
     0
 10
217.979274
 20
115.40555
 30
0.0
 11
218.279274
 21
115.40555
 31
0.0
  0
POLYLINE
  5
27EA
  8
0
 62
     0
 66
     1
 10
0.0
 20
0.0
 30
0.0
  0
VERTEX
  5
2DCF
  8
0
 62
     0
 10
218.488681
 20
115.555555
 30
0.0
  0
VERTEX
  5
2DD0
  8
0
 62
     0
 10
218.584942
 20
115.564862
 30
0.0
  0
VERTEX
  5
2DD1
  8
0
 62
     0
 10
218.72473
 20
115.61472
 30
0.0
  0
VERTEX
  5
2DD2
  8
0
 62
     0
 10
218.843063
 20
115.703373
 30
0.0
  0
VERTEX
  5
2DD3
  8
0
 62
     0
 10
218.929681
 20
115.823047
 30
0.0
  0
VERTEX
  5
2DD4
  8
0
 62
     0
 10
218.977054
 20
115.963371
 30
0.0
  0
VERTEX
  5
2DD5
  8
0
 62
     0
 10
218.984624
 20
116.059019
 30
0.0
  0
SEQEND
  5
2DD6
  8
0
 62
     0
  0
LINE
  5
27EB
  8
0
 62
     0
 10
218.488681
 20
115.55555
 30
0.0
 11
218.612817
 21
115.571231
 31
0.0
  0
POLYLINE
  5
27EC
  8
0
 62
     0
 66
     1
 10
0.0
 20
0.0
 30
0.0
  0
VERTEX
  5
2DD7
  8
0
 62
     0
 10
217.656149
 20
115.55555
 30
0.0
  0
VERTEX
  5
2DD8
  8
0
 62
     0
 10
217.844748
 20
115.593608
 30
0.0
  0
VERTEX
  5
2DD9
  8
0
 62
     0
 10
218.00464
 20
115.70199
 30
0.0
  0
VERTEX
  5
2DDA
  8
0
 62
     0
 10
218.111481
 20
115.864202
 30
0.0
  0
VERTEX
  5
2DDB
  8
0
 62
     0
 10
218.149
 20
116.05555
 30
0.0
  0
SEQEND
  5
2DDC
  8
0
 62
     0
  0
LINE
  5
27ED
  8
0
 62
     0
 10
214.729274
 20
120.00555
 30
0.0
 11
214.729274
 21
119.803805
 31
0.0
  0
LINE
  5
27EE
  8
0
 62
     0
 10
214.729274
 20
120.00555
 30
0.0
 11
214.929274
 21
120.007296
 31
0.0
  0
LINE
  5
27EF
  8
0
 62
     0
 10
218.974459
 20
117.05555
 30
0.0
 11
218.976029
 21
117.05555
 31
0.0
  0
POLYLINE
  5
27F0
  8
0
 62
     0
 66
     1
 10
0.0
 20
0.0
 30
0.0
  0
VERTEX
  5
2DDD
  8
0
 62
     0
 10
218.310527
 20
123.55555
 30
0.0
  0
VERTEX
  5
2DDE
  8
0
 62
     0
 10
218.321748
 20
124.216764
 30
0.0
  0
VERTEX
  5
2DDF
  8
0
 62
     0
 10
218.354886
 20
124.85211
 30
0.0
  0
VERTEX
  5
2DE0
  8
0
 62
     0
 10
218.407797
 20
125.430699
 30
0.0
  0
VERTEX
  5
2DE1
  8
0
 62
     0
 10
218.477758
 20
125.931032
 30
0.0
  0
VERTEX
  5
2DE2
  8
0
 62
     0
 10
218.560105
 20
126.326414
 30
0.0
  0
VERTEX
  5
2DE3
  8
0
 62
     0
 10
218.651079
 20
126.602532
 30
0.0
  0
VERTEX
  5
2DE4
  8
0
 62
     0
 10
218.744632
 20
126.743067
 30
0.0
  0
VERTEX
  5
2DE5
  8
0
 62
     0
 10
218.79111
 20
126.760738
 30
0.0
  0
SEQEND
  5
2DE6
  8
0
 62
     0
  0
LINE
  5
27F1
  8
0
 62
     0
 10
215.979274
 20
129.52919
 30
0.0
 11
215.979274
 21
129.624749
 31
0.0
  0
LINE
  5
27F2
  8
0
 62
     0
 10
214.729274
 20
128.163404
 30
0.0
 11
214.729274
 21
128.00555
 31
0.0
  0
LINE
  5
27F3
  8
0
 62
     0
 10
214.729274
 20
128.00555
 30
0.0
 11
214.929274
 21
128.003805
 31
0.0
  0
LINE
  5
27F4
  8
0
 62
     0
 10
218.973039
 20
129.503064
 30
0.0
 11
218.973039
 21
129.598623
 31
0.0
  0
LINE
  5
27F5
  8
0
 62
     0
 10
218.879274
 20
129.503882
 30
0.0
 11
218.879274
 21
129.599441
 31
0.0
  0
LINE
  5
27F6
  8
0
 62
     0
 10
218.279274
 20
129.604677
 30
0.0
 11
218.279274
 21
129.509118
 31
0.0
  0
POLYLINE
  5
27F7
  8
0
 62
     0
 66
     1
 10
0.0
 20
0.0
 30
0.0
  0
VERTEX
  5
2DE7
  8
0
 62
     0
 10
219.627687
 20
123.55555
 30
0.0
  0
VERTEX
  5
2DE8
  8
0
 62
     0
 10
219.625926
 20
122.968014
 30
0.0
  0
VERTEX
  5
2DE9
  8
0
 62
     0
 10
219.620565
 20
122.402763
 30
0.0
  0
VERTEX
  5
2DEA
  8
0
 62
     0
 10
219.611357
 20
121.878631
 30
0.0
  0
VERTEX
  5
2DEB
  8
0
 62
     0
 10
219.60171
 20
121.543585
 30
0.0
  0
SEQEND
  5
2DEC
  8
0
 62
     0
  0
POLYLINE
  5
27F8
  8
0
 62
     0
 66
     1
 10
0.0
 20
0.0
 30
0.0
  0
VERTEX
  5
2DED
  8
0
 62
     0
 10
219.924942
 20
123.55555
 30
0.0
  0
VERTEX
  5
2DEE
  8
0
 62
     0
 10
219.923182
 20
122.913456
 30
0.0
  0
VERTEX
  5
2DEF
  8
0
 62
     0
 10
219.917811
 20
122.294705
 30
0.0
  0
VERTEX
  5
2DF0
  8
0
 62
     0
 10
219.908584
 20
121.720939
 30
0.0
  0
VERTEX
  5
2DF1
  8
0
 62
     0
 10
219.895125
 20
121.210398
 30
0.0
  0
VERTEX
  5
2DF2
  8
0
 62
     0
 10
219.877034
 20
120.779291
 30
0.0
  0
VERTEX
  5
2DF3
  8
0
 62
     0
 10
219.854018
 20
120.44189
 30
0.0
  0
VERTEX
  5
2DF4
  8
0
 62
     0
 10
219.826057
 20
120.21004
 30
0.0
  0
VERTEX
  5
2DF5
  8
0
 62
     0
 10
219.793491
 20
120.092007
 30
0.0
  0
VERTEX
  5
2DF6
  8
0
 62
     0
 10
219.779274
 20
120.092065
 30
0.0
  0
SEQEND
  5
2DF7
  8
0
 62
     0
  0
LINE
  5
27F9
  8
0
 62
     0
 10
219.964465
 20
121.653874
 30
0.0
 11
219.963255
 21
121.774774
 31
0.0
  0
POLYLINE
  5
27FA
  8
0
 62
     0
 66
     1
 10
0.0
 20
0.0
 30
0.0
  0
VERTEX
  5
2DF8
  8
0
 62
     0
 10
219.970009
 20
121.138407
 30
0.0
  0
VERTEX
  5
2DF9
  8
0
 62
     0
 10
219.967834
 20
121.33158
 30
0.0
  0
VERTEX
  5
2DFA
  8
0
 62
     0
 10
219.966716
 20
121.434713
 30
0.0
  0
VERTEX
  5
2DFB
  8
0
 62
     0
 10
219.96559
 20
121.542163
 30
0.0
  0
VERTEX
  5
2DFC
  8
0
 62
     0
 10
219.964465
 20
121.653874
 30
0.0
  0
VERTEX
  5
2DFD
  8
0
 62
     0
 10
219.963352
 20
121.769772
 30
0.0
  0
VERTEX
  5
2DFE
  8
0
 62
     0
 10
219.962261
 20
121.889767
 30
0.0
  0
VERTEX
  5
2DFF
  8
0
 62
     0
 10
219.961201
 20
122.013756
 30
0.0
  0
VERTEX
  5
2E00
  8
0
 62
     0
 10
219.960186
 20
122.141614
 30
0.0
  0
VERTEX
  5
2E01
  8
0
 62
     0
 10
219.959225
 20
122.273199
 30
0.0
  0
VERTEX
  5
2E02
  8
0
 62
     0
 10
219.958328
 20
122.408354
 30
0.0
  0
VERTEX
  5
2E03
  8
0
 62
     0
 10
219.957508
 20
122.546901
 30
0.0
  0
VERTEX
  5
2E04
  8
0
 62
     0
 10
219.956774
 20
122.688644
 30
0.0
  0
VERTEX
  5
2E05
  8
0
 62
     0
 10
219.956137
 20
122.83337
 30
0.0
  0
VERTEX
  5
2E06
  8
0
 62
     0
 10
219.955604
 20
122.980847
 30
0.0
  0
VERTEX
  5
2E07
  8
0
 62
     0
 10
219.955186
 20
123.130823
 30
0.0
  0
VERTEX
  5
2E08
  8
0
 62
     0
 10
219.954889
 20
123.283028
 30
0.0
  0
VERTEX
  5
2E09
  8
0
 62
     0
 10
219.95472
 20
123.437182
 30
0.0
  0
VERTEX
  5
2E0A
  8
0
 62
     0
 10
219.954681
 20
123.55555
 30
0.0
  0
SEQEND
  5
2E0B
  8
0
 62
     0
  0
LINE
  5
27FB
  8
0
 62
     0
 10
219.573898
 20
121.724209
 30
0.0
 11
219.55073
 21
122.297666
 31
0.0
  0
POLYLINE
  5
27FC
  8
0
 62
     0
 66
     1
 10
0.0
 20
0.0
 30
0.0
  0
VERTEX
  5
2E0C
  8
0
 62
     0
 10
219.584928
 20
121.544408
 30
0.0
  0
VERTEX
  5
2E0D
  8
0
 62
     0
 10
219.581548
 20
121.602645
 30
0.0
  0
VERTEX
  5
2E0E
  8
0
 62
     0
 10
219.571061
 20
121.810026
 30
0.0
  0
VERTEX
  5
2E0F
  8
0
 62
     0
 10
219.561463
 20
122.031207
 30
0.0
  0
VERTEX
  5
2E10
  8
0
 62
     0
 10
219.552936
 20
122.265424
 30
0.0
  0
VERTEX
  5
2E11
  8
0
 62
     0
 10
219.545654
 20
122.511745
 30
0.0
  0
VERTEX
  5
2E12
  8
0
 62
     0
 10
219.539786
 20
122.769062
 30
0.0
  0
VERTEX
  5
2E13
  8
0
 62
     0
 10
219.535495
 20
123.036092
 30
0.0
  0
VERTEX
  5
2E14
  8
0
 62
     0
 10
219.532929
 20
123.311304
 30
0.0
  0
VERTEX
  5
2E15
  8
0
 62
     0
 10
219.532205
 20
123.55555
 30
0.0
  0
SEQEND
  5
2E16
  8
0
 62
     0
  0
POLYLINE
  5
27FD
  8
0
 62
     0
 66
     1
 10
0.0
 20
0.0
 30
0.0
  0
VERTEX
  5
2E17
  8
0
 62
     0
 10
219.466674
 20
122.117723
 30
0.0
  0
VERTEX
  5
2E18
  8
0
 62
     0
 10
219.47842
 20
122.070692
 30
0.0
  0
VERTEX
  5
2E19
  8
0
 62
     0
 10
219.490523
 20
122.013902
 30
0.0
  0
VERTEX
  5
2E1A
  8
0
 62
     0
 10
219.503121
 20
121.945176
 30
0.0
  0
VERTEX
  5
2E1B
  8
0
 62
     0
 10
219.516296
 20
121.861906
 30
0.0
  0
VERTEX
  5
2E1C
  8
0
 62
     0
 10
219.530083
 20
121.761052
 30
0.0
  0
VERTEX
  5
2E1D
  8
0
 62
     0
 10
219.544466
 20
121.639287
 30
0.0
  0
SEQEND
  5
2E1E
  8
0
 62
     0
  0
POLYLINE
  5
27FE
  8
0
 62
     0
 66
     1
 10
0.0
 20
0.0
 30
0.0
  0
VERTEX
  5
2E1F
  8
0
 62
     0
 10
219.26922
 20
121.927892
 30
0.0
  0
VERTEX
  5
2E20
  8
0
 62
     0
 10
219.280949
 20
121.884117
 30
0.0
  0
VERTEX
  5
2E21
  8
0
 62
     0
 10
219.293033
 20
121.831155
 30
0.0
  0
VERTEX
  5
2E22
  8
0
 62
     0
 10
219.305612
 20
121.766932
 30
0.0
  0
VERTEX
  5
2E23
  8
0
 62
     0
 10
219.318766
 20
121.688963
 30
0.0
  0
VERTEX
  5
2E24
  8
0
 62
     0
 10
219.332531
 20
121.594285
 30
0.0
  0
VERTEX
  5
2E25
  8
0
 62
     0
 10
219.338538
 20
121.546306
 30
0.0
  0
SEQEND
  5
2E26
  8
0
 62
     0
  0
ARC
  5
27FF
  8
0
 62
     0
 10
219.579274
 20
116.916903
 30
0.0
 40
0.2
 50
335.040092
 51
357.259717
  0
LINE
  5
2800
  8
0
 62
     0
 10
219.979274
 20
120.195501
 30
0.0
 11
219.979274
 21
116.05555
 31
0.0
  0
LINE
  5
2801
  8
0
 62
     0
 10
219.763992
 20
116.910907
 30
0.0
 11
219.763992
 21
115.760907
 31
0.0
  0
LINE
  5
2802
  8
0
 62
     0
 10
219.763904
 20
116.916769
 30
0.0
 11
219.763904
 21
115.766769
 31
0.0
  0
POLYLINE
  5
2803
  8
0
 62
     0
 66
     1
 10
0.0
 20
0.0
 30
0.0
  0
VERTEX
  5
2E27
  8
0
 62
     0
 10
219.532821
 20
113.708037
 30
0.0
  0
VERTEX
  5
2E28
  8
0
 62
     0
 10
219.519525
 20
114.083947
 30
0.0
  0
VERTEX
  5
2E29
  8
0
 62
     0
 10
219.508321
 20
114.438655
 30
0.0
  0
VERTEX
  5
2E2A
  8
0
 62
     0
 10
219.498529
 20
114.791128
 30
0.0
  0
VERTEX
  5
2E2B
  8
0
 62
     0
 10
219.489491
 20
115.171865
 30
0.0
  0
VERTEX
  5
2E2C
  8
0
 62
     0
 10
219.481195
 20
115.604552
 30
0.0
  0
VERTEX
  5
2E2D
  8
0
 62
     0
 10
219.474485
 20
116.084562
 30
0.0
  0
VERTEX
  5
2E2E
  8
0
 62
     0
 10
219.470335
 20
116.581055
 30
0.0
  0
VERTEX
  5
2E2F
  8
0
 62
     0
 10
219.469029
 20
117.05555
 30
0.0
  0
SEQEND
  5
2E30
  8
0
 62
     0
  0
POLYLINE
  5
2804
  8
0
 62
     0
 66
     1
 10
0.0
 20
0.0
 30
0.0
  0
VERTEX
  5
2E31
  8
0
 62
     0
 10
219.730798
 20
113.827549
 30
0.0
  0
VERTEX
  5
2E32
  8
0
 62
     0
 10
219.717368
 20
114.186975
 30
0.0
  0
VERTEX
  5
2E33
  8
0
 62
     0
 10
219.706096
 20
114.526868
 30
0.0
  0
VERTEX
  5
2E34
  8
0
 62
     0
 10
219.696276
 20
114.864871
 30
0.0
  0
VERTEX
  5
2E35
  8
0
 62
     0
 10
219.68721
 20
115.231141
 30
0.0
  0
VERTEX
  5
2E36
  8
0
 62
     0
 10
219.678864
 20
115.649586
 30
0.0
  0
VERTEX
  5
2E37
  8
0
 62
     0
 10
219.672121
 20
116.114301
 30
0.0
  0
VERTEX
  5
2E38
  8
0
 62
     0
 10
219.667954
 20
116.595107
 30
0.0
  0
VERTEX
  5
2E39
  8
0
 62
     0
 10
219.66664
 20
117.05555
 30
0.0
  0
SEQEND
  5
2E3A
  8
0
 62
     0
  0
ARC
  5
2805
  8
0
 62
     0
 10
219.479274
 20
116.05555
 30
0.0
 40
0.5
 50
306.993824
 51
0.0
  0
LINE
  5
2806
  8
0
 62
     0
 10
219.731075
 20
115.654782
 30
0.0
 11
219.74659
 21
115.680044
 31
0.0
  0
POLYLINE
  5
2807
  8
0
 62
     0
 66
     1
 10
0.0
 20
0.0
 30
0.0
  0
VERTEX
  5
2E3B
  8
0
 62
     0
 10
219.74659
 20
115.680044
 30
0.0
  0
VERTEX
  5
2E3C
  8
0
 62
     0
 10
219.760414
 20
115.723438
 30
0.0
  0
VERTEX
  5
2E3D
  8
0
 62
     0
 10
219.763992
 20
115.760911
 30
0.0
  0
SEQEND
  5
2E3E
  8
0
 62
     0
  0
LINE
  5
2808
  8
0
 62
     0
 10
219.731075
 20
113.829121
 30
0.0
 11
219.730798
 21
113.827557
 31
0.0
  0
POLYLINE
  5
2809
  8
0
 62
     0
 66
     1
 10
0.0
 20
0.0
 30
0.0
  0
VERTEX
  5
2E3F
  8
0
 62
     0
 10
219.731067
 20
113.829358
 30
0.0
  0
VERTEX
  5
2E40
  8
0
 62
     0
 10
219.725604
 20
113.781096
 30
0.0
  0
VERTEX
  5
2E41
  8
0
 62
     0
 10
219.699694
 20
113.720004
 30
0.0
  0
VERTEX
  5
2E42
  8
0
 62
     0
 10
219.659452
 20
113.674196
 30
0.0
  0
VERTEX
  5
2E43
  8
0
 62
     0
 10
219.599466
 20
113.639614
 30
0.0
  0
SEQEND
  5
2E44
  8
0
 62
     0
  0
POLYLINE
  5
280A
  8
0
 62
     0
 66
     1
 10
0.0
 20
0.0
 30
0.0
  0
VERTEX
  5
2E45
  8
0
 62
     0
 10
219.536092
 20
113.62762
 30
0.0
  0
VERTEX
  5
2E46
  8
0
 62
     0
 10
219.536142
 20
113.628556
 30
0.0
  0
VERTEX
  5
2E47
  8
0
 62
     0
 10
219.5348
 20
113.653387
 30
0.0
  0
VERTEX
  5
2E48
  8
0
 62
     0
 10
219.532821
 20
113.708042
 30
0.0
  0
SEQEND
  5
2E49
  8
0
 62
     0
  0
LINE
  5
280B
  8
0
 62
     0
 10
219.731075
 20
113.829175
 30
0.0
 11
219.731075
 21
113.829121
 31
0.0
  0
LINE
  5
280C
  8
0
 62
     0
 10
219.776962
 20
115.20555
 30
0.0
 11
219.776962
 21
116.20555
 31
0.0
  0
LINE
  5
280D
  8
0
 62
     0
 10
219.766543
 20
116.269555
 30
0.0
 11
219.766543
 21
116.854533
 31
0.0
  0
LINE
  5
280E
  8
0
 62
     0
 10
219.731075
 20
115.756073
 30
0.0
 11
219.731075
 21
113.828751
 31
0.0
  0
LINE
  5
280F
  8
0
 62
     0
 10
219.730798
 20
115.766482
 30
0.0
 11
219.730798
 21
113.827557
 31
0.0
  0
LINE
  5
2810
  8
0
 62
     0
 10
219.763992
 20
115.760911
 30
0.0
 11
219.763904
 21
115.766769
 31
0.0
  0
LINE
  5
2811
  8
0
 62
     0
 10
219.731075
 20
115.756078
 30
0.0
 11
219.730798
 21
115.766482
 31
0.0
  0
POLYLINE
  5
2812
  8
0
 62
     0
 66
     1
 10
0.0
 20
0.0
 30
0.0
  0
VERTEX
  5
2E4A
  8
0
 62
     0
 10
219.763992
 20
116.269911
 30
0.0
  0
VERTEX
  5
2E4B
  8
0
 62
     0
 10
219.769469
 20
116.257469
 30
0.0
  0
VERTEX
  5
2E4C
  8
0
 62
     0
 10
219.776962
 20
116.20555
 30
0.0
  0
SEQEND
  5
2E4D
  8
0
 62
     0
  0
POLYLINE
  5
2813
  8
0
 62
     0
 66
     1
 10
0.0
 20
0.0
 30
0.0
  0
VERTEX
  5
2E4E
  8
0
 62
     0
 10
219.731075
 20
115.29823
 30
0.0
  0
VERTEX
  5
2E4F
  8
0
 62
     0
 10
219.749927
 20
115.256962
 30
0.0
  0
VERTEX
  5
2E50
  8
0
 62
     0
 10
219.758459
 20
115.20555
 30
0.0
  0
SEQEND
  5
2E51
  8
0
 62
     0
  0
POLYLINE
  5
2814
  8
0
 62
     0
 66
     1
 10
0.0
 20
0.0
 30
0.0
  0
VERTEX
  5
2E52
  8
0
 62
     0
 10
219.731075
 20
115.327572
 30
0.0
  0
VERTEX
  5
2E53
  8
0
 62
     0
 10
219.746659
 20
115.309204
 30
0.0
  0
VERTEX
  5
2E54
  8
0
 62
     0
 10
219.769356
 20
115.257868
 30
0.0
  0
VERTEX
  5
2E55
  8
0
 62
     0
 10
219.776962
 20
115.20555
 30
0.0
  0
SEQEND
  5
2E56
  8
0
 62
     0
  0
LINE
  5
2815
  8
0
 62
     0
 10
219.776962
 20
116.20555
 30
0.0
 11
219.779274
 21
116.20555
 31
0.0
  0
LINE
  5
2816
  8
0
 62
     0
 10
219.979274
 20
116.05555
 30
0.0
 11
219.779274
 21
116.05555
 31
0.0
  0
LINE
  5
2817
  8
0
 62
     0
 10
219.758459
 20
115.20555
 30
0.0
 11
219.776962
 21
115.20555
 31
0.0
  0
LINE
  5
2818
  8
0
 62
     0
 10
219.763904
 20
115.766769
 30
0.0
 11
219.730798
 21
115.766482
 31
0.0
  0
POLYLINE
  5
2819
  8
0
 62
     0
 66
     1
 10
0.0
 20
0.0
 30
0.0
  0
VERTEX
  5
2E57
  8
0
 62
     0
 10
219.532821
 20
113.708042
 30
0.0
  0
VERTEX
  5
2E58
  8
0
 62
     0
 10
219.606831
 20
113.718868
 30
0.0
  0
VERTEX
  5
2E59
  8
0
 62
     0
 10
219.670038
 20
113.745176
 30
0.0
  0
VERTEX
  5
2E5A
  8
0
 62
     0
 10
219.713424
 20
113.783215
 30
0.0
  0
VERTEX
  5
2E5B
  8
0
 62
     0
 10
219.730798
 20
113.827557
 30
0.0
  0
SEQEND
  5
2E5C
  8
0
 62
     0
  0
LINE
  5
281A
  8
0
 62
     0
 10
219.599466
 20
113.639614
 30
0.0
 11
219.536336
 21
113.627626
 31
0.0
  0
ARC
  5
281B
  8
0
 62
     0
 10
219.579274
 20
121.34419
 30
0.0
 40
0.2
 50
0.002226
 51
89.499865
  0
LINE
  5
281C
  8
0
 62
     0
 10
219.572497
 20
121.357976
 30
0.0
 11
219.581019
 21
121.54418
 31
0.0
  0
POLYLINE
  5
281D
  8
0
 62
     0
 66
     1
 10
0.0
 20
0.0
 30
0.0
  0
VERTEX
  5
2E5D
  8
0
 62
     0
 10
219.66664
 20
117.05555
 30
0.0
  0
VERTEX
  5
2E5E
  8
0
 62
     0
 10
219.672521
 20
118.030574
 30
0.0
  0
VERTEX
  5
2E5F
  8
0
 62
     0
 10
219.687125
 20
118.876226
 30
0.0
  0
VERTEX
  5
2E60
  8
0
 62
     0
 10
219.706146
 20
119.585859
 30
0.0
  0
VERTEX
  5
2E61
  8
0
 62
     0
 10
219.726205
 20
120.165194
 30
0.0
  0
VERTEX
  5
2E62
  8
0
 62
     0
 10
219.744726
 20
120.619125
 30
0.0
  0
VERTEX
  5
2E63
  8
0
 62
     0
 10
219.759875
 20
120.952658
 30
0.0
  0
VERTEX
  5
2E64
  8
0
 62
     0
 10
219.770719
 20
121.175705
 30
0.0
  0
VERTEX
  5
2E65
  8
0
 62
     0
 10
219.777177
 20
121.303442
 30
0.0
  0
VERTEX
  5
2E66
  8
0
 62
     0
 10
219.779274
 20
121.344198
 30
0.0
  0
SEQEND
  5
2E67
  8
0
 62
     0
  0
POLYLINE
  5
281E
  8
0
 62
     0
 66
     1
 10
0.0
 20
0.0
 30
0.0
  0
VERTEX
  5
2E68
  8
0
 62
     0
 10
219.469029
 20
117.05555
 30
0.0
  0
VERTEX
  5
2E69
  8
0
 62
     0
 10
219.474881
 20
118.061201
 30
0.0
  0
VERTEX
  5
2E6A
  8
0
 62
     0
 10
219.489397
 20
118.934959
 30
0.0
  0
VERTEX
  5
2E6B
  8
0
 62
     0
 10
219.508303
 20
119.671853
 30
0.0
  0
VERTEX
  5
2E6C
  8
0
 62
     0
 10
219.52824
 20
120.278027
 30
0.0
  0
VERTEX
  5
2E6D
  8
0
 62
     0
 10
219.546651
 20
120.758051
 30
0.0
  0
VERTEX
  5
2E6E
  8
0
 62
     0
 10
219.561713
 20
121.115422
 30
0.0
  0
VERTEX
  5
2E6F
  8
0
 62
     0
 10
219.572497
 20
121.357976
 30
0.0
  0
SEQEND
  5
2E70
  8
0
 62
     0
  0
LINE
  5
281F
  8
0
 62
     0
 10
219.779274
 20
116.916889
 30
0.0
 11
219.779274
 21
121.344198
 31
0.0
  0
LINE
  5
2820
  8
0
 62
     0
 10
219.979274
 20
120.195501
 30
0.0
 11
219.979232
 21
120.227556
 31
0.0
  0
POLYLINE
  5
2821
  8
0
 62
     0
 66
     1
 10
0.0
 20
0.0
 30
0.0
  0
VERTEX
  5
2E71
  8
0
 62
     0
 10
219.979232
 20
120.227556
 30
0.0
  0
VERTEX
  5
2E72
  8
0
 62
     0
 10
219.979116
 20
120.2614
 30
0.0
  0
VERTEX
  5
2E73
  8
0
 62
     0
 10
219.978927
 20
120.298613
 30
0.0
  0
VERTEX
  5
2E74
  8
0
 62
     0
 10
219.978664
 20
120.339332
 30
0.0
  0
VERTEX
  5
2E75
  8
0
 62
     0
 10
219.978325
 20
120.383688
 30
0.0
  0
VERTEX
  5
2E76
  8
0
 62
     0
 10
219.977911
 20
120.431803
 30
0.0
  0
VERTEX
  5
2E77
  8
0
 62
     0
 10
219.977421
 20
120.483786
 30
0.0
  0
VERTEX
  5
2E78
  8
0
 62
     0
 10
219.976855
 20
120.539725
 30
0.0
  0
VERTEX
  5
2E79
  8
0
 62
     0
 10
219.975509
 20
120.663815
 30
0.0
  0
SEQEND
  5
2E7A
  8
0
 62
     0
  0
POLYLINE
  5
2822
  8
0
 62
     0
 66
     1
 10
0.0
 20
0.0
 30
0.0
  0
VERTEX
  5
2E7B
  8
0
 62
     0
 10
219.979274
 20
120.19576
 30
0.0
  0
VERTEX
  5
2E7C
  8
0
 62
     0
 10
219.978259
 20
120.390383
 30
0.0
  0
VERTEX
  5
2E7D
  8
0
 62
     0
 10
219.975136
 20
120.694473
 30
0.0
  0
VERTEX
  5
2E7E
  8
0
 62
     0
 10
219.97106
 20
121.044081
 30
0.0
  0
VERTEX
  5
2E7F
  8
0
 62
     0
 10
219.970009
 20
121.138407
 30
0.0
  0
SEQEND
  5
2E80
  8
0
 62
     0
  0
LINE
  5
2823
  8
0
 62
     0
 10
219.96693
 20
121.410455
 30
0.0
 11
219.96559
 21
121.542163
 31
0.0
  0
LINE
  5
2824
  8
0
 62
     0
 10
219.968935
 20
121.232803
 30
0.0
 11
219.96693
 21
121.410455
 31
0.0
  0
LINE
  5
2825
  8
0
 62
     0
 10
219.975509
 20
120.663815
 30
0.0
 11
219.972999
 21
120.881576
 31
0.0
  0
LINE
  5
2826
  8
0
 62
     0
 10
219.972047
 20
120.962805
 30
0.0
 11
219.970009
 21
121.138407
 31
0.0
  0
LINE
  5
2827
  8
0
 62
     0
 10
219.972999
 20
120.881576
 30
0.0
 11
219.972047
 21
120.962805
 31
0.0
  0
LINE
  5
2828
  8
0
 62
     0
 10
219.763992
 20
116.910911
 30
0.0
 11
219.763904
 21
116.916769
 31
0.0
  0
LINE
  5
2829
  8
0
 62
     0
 10
219.584544
 20
121.54439
 30
0.0
 11
219.573898
 21
121.724209
 31
0.0
  0
LINE
  5
282A
  8
0
 62
     0
 10
219.544466
 20
121.639287
 30
0.0
 11
219.554436
 21
121.54148
 31
0.0
  0
LINE
  5
282B
  8
0
 62
     0
 10
219.195987
 20
121.54755
 30
0.0
 11
219.581019
 21
121.54419
 31
0.0
  0
LINE
  5
282C
  8
0
 62
     0
 10
219.779274
 20
116.916903
 30
0.0
 11
219.763904
 21
116.916769
 31
0.0
  0
POLYLINE
  5
282D
  8
0
 62
     0
 66
     1
 10
0.0
 20
0.0
 30
0.0
  0
VERTEX
  5
2E81
  8
0
 62
     0
 10
219.718226
 20
126.900694
 30
0.0
  0
VERTEX
  5
2E82
  8
0
 62
     0
 10
219.75716
 20
127.019011
 30
0.0
  0
VERTEX
  5
2E83
  8
0
 62
     0
 10
219.793529
 20
127.019028
 30
0.0
  0
VERTEX
  5
2E84
  8
0
 62
     0
 10
219.82609
 20
126.900867
 30
0.0
  0
VERTEX
  5
2E85
  8
0
 62
     0
 10
219.854046
 20
126.668897
 30
0.0
  0
VERTEX
  5
2E86
  8
0
 62
     0
 10
219.877056
 20
126.331385
 30
0.0
  0
VERTEX
  5
2E87
  8
0
 62
     0
 10
219.895142
 20
125.900189
 30
0.0
  0
VERTEX
  5
2E88
  8
0
 62
     0
 10
219.908595
 20
125.389614
 30
0.0
  0
VERTEX
  5
2E89
  8
0
 62
     0
 10
219.917818
 20
124.815888
 30
0.0
  0
VERTEX
  5
2E8A
  8
0
 62
     0
 10
219.923184
 20
124.197239
 30
0.0
  0
VERTEX
  5
2E8B
  8
0
 62
     0
 10
219.924942
 20
123.55555
 30
0.0
  0
SEQEND
  5
2E8C
  8
0
 62
     0
  0
POLYLINE
  5
282E
  8
0
 62
     0
 66
     1
 10
0.0
 20
0.0
 30
0.0
  0
VERTEX
  5
2E8D
  8
0
 62
     0
 10
219.550745
 20
124.813929
 30
0.0
  0
VERTEX
  5
2E8E
  8
0
 62
     0
 10
219.573924
 20
125.387431
 30
0.0
  0
VERTEX
  5
2E8F
  8
0
 62
     0
 10
219.604181
 20
125.89831
 30
0.0
  0
VERTEX
  5
2E90
  8
0
 62
     0
 10
219.63969
 20
126.330135
 30
0.0
  0
VERTEX
  5
2E91
  8
0
 62
     0
 10
219.678412
 20
126.668297
 30
0.0
  0
SEQEND
  5
2E92
  8
0
 62
     0
  0
POLYLINE
  5
282F
  8
0
 62
     0
 66
     1
 10
0.0
 20
0.0
 30
0.0
  0
VERTEX
  5
2E93
  8
0
 62
     0
 10
219.969651
 20
125.941434
 30
0.0
  0
VERTEX
  5
2E94
  8
0
 62
     0
 10
219.970244
 20
125.996694
 30
0.0
  0
VERTEX
  5
2E95
  8
0
 62
     0
 10
219.974364
 20
126.349426
 30
0.0
  0
VERTEX
  5
2E96
  8
0
 62
     0
 10
219.977781
 20
126.666777
 30
0.0
  0
VERTEX
  5
2E97
  8
0
 62
     0
 10
219.979272
 20
126.909177
 30
0.0
  0
SEQEND
  5
2E98
  8
0
 62
     0
  0
LINE
  5
2830
  8
0
 62
     0
 10
219.976685
 20
126.55508
 30
0.0
 11
219.977705
 21
126.656919
 31
0.0
  0
POLYLINE
  5
2831
  8
0
 62
     0
 66
     1
 10
0.0
 20
0.0
 30
0.0
  0
VERTEX
  5
2E99
  8
0
 62
     0
 10
219.532205
 20
123.55555
 30
0.0
  0
VERTEX
  5
2E9A
  8
0
 62
     0
 10
219.532929
 20
123.799797
 30
0.0
  0
VERTEX
  5
2E9B
  8
0
 62
     0
 10
219.535495
 20
124.075022
 30
0.0
  0
VERTEX
  5
2E9C
  8
0
 62
     0
 10
219.539787
 20
124.342066
 30
0.0
  0
VERTEX
  5
2E9D
  8
0
 62
     0
 10
219.545654
 20
124.59938
 30
0.0
  0
VERTEX
  5
2E9E
  8
0
 62
     0
 10
219.552936
 20
124.84569
 30
0.0
  0
VERTEX
  5
2E9F
  8
0
 62
     0
 10
219.561463
 20
125.079893
 30
0.0
  0
VERTEX
  5
2EA0
  8
0
 62
     0
 10
219.57106
 20
125.301065
 30
0.0
  0
VERTEX
  5
2EA1
  8
0
 62
     0
 10
219.581547
 20
125.508444
 30
0.0
  0
VERTEX
  5
2EA2
  8
0
 62
     0
 10
219.59275
 20
125.701482
 30
0.0
  0
VERTEX
  5
2EA3
  8
0
 62
     0
 10
219.604497
 20
125.879787
 30
0.0
  0
VERTEX
  5
2EA4
  8
0
 62
     0
 10
219.616622
 20
126.043133
 30
0.0
  0
VERTEX
  5
2EA5
  8
0
 62
     0
 10
219.628972
 20
126.19148
 30
0.0
  0
VERTEX
  5
2EA6
  8
0
 62
     0
 10
219.641397
 20
126.324883
 30
0.0
  0
VERTEX
  5
2EA7
  8
0
 62
     0
 10
219.653752
 20
126.443487
 30
0.0
  0
VERTEX
  5
2EA8
  8
0
 62
     0
 10
219.665905
 20
126.547587
 30
0.0
  0
VERTEX
  5
2EA9
  8
0
 62
     0
 10
219.677719
 20
126.637509
 30
0.0
  0
VERTEX
  5
2EAA
  8
0
 62
     0
 10
219.689037
 20
126.713548
 30
0.0
  0
VERTEX
  5
2EAB
  8
0
 62
     0
 10
219.699668
 20
126.775968
 30
0.0
  0
VERTEX
  5
2EAC
  8
0
 62
     0
 10
219.709325
 20
126.824834
 30
0.0
  0
VERTEX
  5
2EAD
  8
0
 62
     0
 10
219.717478
 20
126.859726
 30
0.0
  0
VERTEX
  5
2EAE
  8
0
 62
     0
 10
219.723104
 20
126.879634
 30
0.0
  0
VERTEX
  5
2EAF
  8
0
 62
     0
 10
219.723797
 20
126.88175
 30
0.0
  0
SEQEND
  5
2EB0
  8
0
 62
     0
  0
LINE
  5
2832
  8
0
 62
     0
 10
219.466674
 20
122.117723
 30
0.0
 11
219.466674
 21
129.594315
 31
0.0
  0
LINE
  5
2833
  8
0
 62
     0
 10
219.314682
 20
129.500133
 30
0.0
 11
219.314682
 21
122.16516
 31
0.0
  0
LINE
  5
2834
  8
0
 62
     0
 10
219.312076
 20
129.500105
 30
0.0
 11
219.312076
 21
122.156633
 31
0.0
  0
POLYLINE
  5
2835
  8
0
 62
     0
 66
     1
 10
0.0
 20
0.0
 30
0.0
  0
VERTEX
  5
2EB1
  8
0
 62
     0
 10
219.407018
 20
121.985898
 30
0.0
  0
VERTEX
  5
2EB2
  8
0
 62
     0
 10
219.343652
 20
121.944298
 30
0.0
  0
VERTEX
  5
2EB3
  8
0
 62
     0
 10
219.26922
 20
121.927892
 30
0.0
  0
SEQEND
  5
2EB4
  8
0
 62
     0
  0
LINE
  5
2836
  8
0
 62
     0
 10
219.302138
 20
122.091275
 30
0.0
 11
219.301542
 21
122.089577
 31
0.0
  0
LINE
  5
2837
  8
0
 62
     0
 10
219.29497
 20
122.102731
 30
0.0
 11
219.312076
 21
122.156633
 31
0.0
  0
LINE
  5
2838
  8
0
 62
     0
 10
219.312076
 20
122.156633
 30
0.0
 11
219.314679
 21
122.165164
 31
0.0
  0
LINE
  5
2839
  8
0
 62
     0
 10
219.302138
 20
122.091275
 30
0.0
 11
219.30823
 21
122.11194
 31
0.0
  0
LINE
  5
283A
  8
0
 62
     0
 10
219.276468
 20
122.032626
 30
0.0
 11
219.29497
 21
122.102731
 31
0.0
  0
POLYLINE
  5
283B
  8
0
 62
     0
 66
     1
 10
0.0
 20
0.0
 30
0.0
  0
VERTEX
  5
2EB5
  8
0
 62
     0
 10
219.466674
 20
122.117723
 30
0.0
  0
VERTEX
  5
2EB6
  8
0
 62
     0
 10
219.450112
 20
122.046648
 30
0.0
  0
VERTEX
  5
2EB7
  8
0
 62
     0
 10
219.407018
 20
121.985898
 30
0.0
  0
SEQEND
  5
2EB8
  8
0
 62
     0
  0
LINE
  5
283C
  8
0
 62
     0
 10
219.256967
 20
121.945425
 30
0.0
 11
219.276468
 21
122.032626
 31
0.0
  0
LINE
  5
283D
  8
0
 62
     0
 10
219.312076
 20
122.156633
 30
0.0
 11
219.302138
 21
122.091275
 31
0.0
  0
LINE
  5
283E
  8
0
 62
     0
 10
219.30823
 20
122.11194
 30
0.0
 11
219.31468
 21
122.165348
 31
0.0
  0
LINE
  5
283F
  8
0
 62
     0
 10
219.545654
 20
124.59938
 30
0.0
 11
219.550745
 21
124.813929
 31
0.0
  0
POLYLINE
  5
2840
  8
0
 62
     0
 66
     1
 10
0.0
 20
0.0
 30
0.0
  0
VERTEX
  5
2EB9
  8
0
 62
     0
 10
219.969651
 20
125.941434
 30
0.0
  0
VERTEX
  5
2EBA
  8
0
 62
     0
 10
219.971481
 20
126.099812
 30
0.0
  0
VERTEX
  5
2EBB
  8
0
 62
     0
 10
219.972352
 20
126.174318
 30
0.0
  0
VERTEX
  5
2EBC
  8
0
 62
     0
 10
219.973188
 20
126.245678
 30
0.0
  0
VERTEX
  5
2EBD
  8
0
 62
     0
 10
219.975436
 20
126.440783
 30
0.0
  0
SEQEND
  5
2EBE
  8
0
 62
     0
  0
LINE
  5
2841
  8
0
 62
     0
 10
219.967738
 20
125.770758
 30
0.0
 11
219.969651
 21
125.941434
 31
0.0
  0
LINE
  5
2842
  8
0
 62
     0
 10
219.975436
 20
126.440783
 30
0.0
 11
219.976685
 21
126.55508
 31
0.0
  0
LINE
  5
2843
  8
0
 62
     0
 10
219.965789
 20
125.588128
 30
0.0
 11
219.967738
 21
125.770758
 31
0.0
  0
POLYLINE
  5
2844
  8
0
 62
     0
 66
     1
 10
0.0
 20
0.0
 30
0.0
  0
VERTEX
  5
2EBF
  8
0
 62
     0
 10
219.965789
 20
125.588128
 30
0.0
  0
VERTEX
  5
2EC0
  8
0
 62
     0
 10
219.966219
 20
125.633917
 30
0.0
  0
VERTEX
  5
2EC1
  8
0
 62
     0
 10
219.968702
 20
125.857613
 30
0.0
  0
SEQEND
  5
2EC2
  8
0
 62
     0
  0
POLYLINE
  5
2845
  8
0
 62
     0
 66
     1
 10
0.0
 20
0.0
 30
0.0
  0
VERTEX
  5
2EC3
  8
0
 62
     0
 10
219.961976
 20
125.18888
 30
0.0
  0
VERTEX
  5
2EC4
  8
0
 62
     0
 10
219.962712
 20
125.277481
 30
0.0
  0
VERTEX
  5
2EC5
  8
0
 62
     0
 10
219.963851
 20
125.393981
 30
0.0
  0
SEQEND
  5
2EC6
  8
0
 62
     0
  0
LINE
  5
2846
  8
0
 62
     0
 10
219.314679
 20
122.165164
 30
0.0
 11
219.314682
 21
122.165436
 31
0.0
  0
POLYLINE
  5
2847
  8
0
 62
     0
 66
     1
 10
0.0
 20
0.0
 30
0.0
  0
VERTEX
  5
2EC7
  8
0
 62
     0
 10
219.531154
 20
123.55555
 30
0.0
  0
VERTEX
  5
2EC8
  8
0
 62
     0
 10
219.536143
 20
124.196117
 30
0.0
  0
VERTEX
  5
2EC9
  8
0
 62
     0
 10
219.545108
 20
124.575424
 30
0.0
  0
SEQEND
  5
2ECA
  8
0
 62
     0
  0
POLYLINE
  5
2848
  8
0
 62
     0
 66
     1
 10
0.0
 20
0.0
 30
0.0
  0
VERTEX
  5
2ECB
  8
0
 62
     0
 10
219.959396
 20
124.862201
 30
0.0
  0
VERTEX
  5
2ECC
  8
0
 62
     0
 10
219.95989
 20
124.937448
 30
0.0
  0
VERTEX
  5
2ECD
  8
0
 62
     0
 10
219.960216
 20
124.9735
 30
0.0
  0
SEQEND
  5
2ECE
  8
0
 62
     0
  0
POLYLINE
  5
2849
  8
0
 62
     0
 66
     1
 10
0.0
 20
0.0
 30
0.0
  0
VERTEX
  5
2ECF
  8
0
 62
     0
 10
219.956123
 20
124.274262
 30
0.0
  0
VERTEX
  5
2ED0
  8
0
 62
     0
 10
219.95627
 20
124.323541
 30
0.0
  0
VERTEX
  5
2ED1
  8
0
 62
     0
 10
219.957765
 20
124.61898
 30
0.0
  0
VERTEX
  5
2ED2
  8
0
 62
     0
 10
219.958622
 20
124.748641
 30
0.0
  0
SEQEND
  5
2ED3
  8
0
 62
     0
  0
POLYLINE
  5
284A
  8
0
 62
     0
 66
     1
 10
0.0
 20
0.0
 30
0.0
  0
VERTEX
  5
2ED4
  8
0
 62
     0
 10
219.954623
 20
123.55555
 30
0.0
  0
VERTEX
  5
2ED5
  8
0
 62
     0
 10
219.954785
 20
123.795449
 30
0.0
  0
VERTEX
  5
2ED6
  8
0
 62
     0
 10
219.955308
 20
124.049992
 30
0.0
  0
VERTEX
  5
2ED7
  8
0
 62
     0
 10
219.955673
 20
124.151311
 30
0.0
  0
SEQEND
  5
2ED8
  8
0
 62
     0
  0
POLYLINE
  5
284B
  8
0
 62
     0
 66
     1
 10
0.0
 20
0.0
 30
0.0
  0
VERTEX
  5
2ED9
  8
0
 62
     0
 10
219.954681
 20
123.55555
 30
0.0
  0
VERTEX
  5
2EDA
  8
0
 62
     0
 10
219.954704
 20
123.646655
 30
0.0
  0
VERTEX
  5
2EDB
  8
0
 62
     0
 10
219.954815
 20
123.77442
 30
0.0
  0
VERTEX
  5
2EDC
  8
0
 62
     0
 10
219.955016
 20
123.901228
 30
0.0
  0
VERTEX
  5
2EDD
  8
0
 62
     0
 10
219.955303
 20
124.026913
 30
0.0
  0
VERTEX
  5
2EDE
  8
0
 62
     0
 10
219.955673
 20
124.151311
 30
0.0
  0
VERTEX
  5
2EDF
  8
0
 62
     0
 10
219.956123
 20
124.274262
 30
0.0
  0
VERTEX
  5
2EE0
  8
0
 62
     0
 10
219.956648
 20
124.395614
 30
0.0
  0
VERTEX
  5
2EE1
  8
0
 62
     0
 10
219.957243
 20
124.515219
 30
0.0
  0
VERTEX
  5
2EE2
  8
0
 62
     0
 10
219.957903
 20
124.632939
 30
0.0
  0
VERTEX
  5
2EE3
  8
0
 62
     0
 10
219.958622
 20
124.748641
 30
0.0
  0
VERTEX
  5
2EE4
  8
0
 62
     0
 10
219.959396
 20
124.862201
 30
0.0
  0
VERTEX
  5
2EE5
  8
0
 62
     0
 10
219.960216
 20
124.9735
 30
0.0
  0
VERTEX
  5
2EE6
  8
0
 62
     0
 10
219.961079
 20
125.082427
 30
0.0
  0
VERTEX
  5
2EE7
  8
0
 62
     0
 10
219.961976
 20
125.18888
 30
0.0
  0
VERTEX
  5
2EE8
  8
0
 62
     0
 10
219.962903
 20
125.292761
 30
0.0
  0
VERTEX
  5
2EE9
  8
0
 62
     0
 10
219.963851
 20
125.393981
 30
0.0
  0
VERTEX
  5
2EEA
  8
0
 62
     0
 10
219.964815
 20
125.492462
 30
0.0
  0
VERTEX
  5
2EEB
  8
0
 62
     0
 10
219.965789
 20
125.588128
 30
0.0
  0
SEQEND
  5
2EEC
  8
0
 62
     0
  0
POLYLINE
  5
284C
  8
0
 62
     0
 66
     1
 10
0.0
 20
0.0
 30
0.0
  0
VERTEX
  5
2EED
  8
0
 62
     0
 10
219.955604
 20
122.980847
 30
0.0
  0
VERTEX
  5
2EEE
  8
0
 62
     0
 10
219.955348
 20
123.046672
 30
0.0
  0
VERTEX
  5
2EEF
  8
0
 62
     0
 10
219.954793
 20
123.309789
 30
0.0
  0
VERTEX
  5
2EF0
  8
0
 62
     0
 10
219.954623
 20
123.55555
 30
0.0
  0
SEQEND
  5
2EF1
  8
0
 62
     0
  0
POLYLINE
  5
284D
  8
0
 62
     0
 66
     1
 10
0.0
 20
0.0
 30
0.0
  0
VERTEX
  5
2EF2
  8
0
 62
     0
 10
219.956774
 20
122.688644
 30
0.0
  0
VERTEX
  5
2EF3
  8
0
 62
     0
 10
219.956378
 20
122.762591
 30
0.0
  0
VERTEX
  5
2EF4
  8
0
 62
     0
 10
219.956137
 20
122.83337
 30
0.0
  0
SEQEND
  5
2EF5
  8
0
 62
     0
  0
POLYLINE
  5
284E
  8
0
 62
     0
 66
     1
 10
0.0
 20
0.0
 30
0.0
  0
VERTEX
  5
2EF6
  8
0
 62
     0
 10
219.958328
 20
122.408354
 30
0.0
  0
VERTEX
  5
2EF7
  8
0
 62
     0
 10
219.957983
 20
122.45551
 30
0.0
  0
VERTEX
  5
2EF8
  8
0
 62
     0
 10
219.957508
 20
122.546901
 30
0.0
  0
SEQEND
  5
2EF9
  8
0
 62
     0
  0
LINE
  5
284F
  8
0
 62
     0
 10
219.960257
 20
122.125328
 30
0.0
 11
219.959225
 21
122.273199
 31
0.0
  0
LINE
  5
2850
  8
0
 62
     0
 10
219.536136
 20
122.915375
 30
0.0
 11
219.531154
 21
123.55555
 31
0.0
  0
LINE
  5
2851
  8
0
 62
     0
 10
219.963255
 20
121.774774
 30
0.0
 11
219.960257
 21
122.125328
 31
0.0
  0
LINE
  5
2852
  8
0
 62
     0
 10
219.55073
 20
122.297666
 30
0.0
 11
219.536136
 21
122.915375
 31
0.0
  0
POLYLINE
  5
2853
  8
0
 62
     0
 66
     1
 10
0.0
 20
0.0
 30
0.0
  0
VERTEX
  5
2EFA
  8
0
 62
     0
 10
219.595731
 20
125.74673
 30
0.0
  0
VERTEX
  5
2EFB
  8
0
 62
     0
 10
219.597937
 20
125.698585
 30
0.0
  0
VERTEX
  5
2EFC
  8
0
 62
     0
 10
219.611363
 20
125.232216
 30
0.0
  0
VERTEX
  5
2EFD
  8
0
 62
     0
 10
219.620568
 20
124.708135
 30
0.0
  0
VERTEX
  5
2EFE
  8
0
 62
     0
 10
219.625927
 20
124.14298
 30
0.0
  0
VERTEX
  5
2EFF
  8
0
 62
     0
 10
219.627687
 20
123.55555
 30
0.0
  0
SEQEND
  5
2F00
  8
0
 62
     0
  0
LINE
  5
2854
  8
0
 62
     0
 10
219.261775
 20
121.939335
 30
0.0
 11
219.26922
 21
121.927892
 31
0.0
  0
POLYLINE
  5
2855
  8
0
 62
     0
 66
     1
 10
0.0
 20
0.0
 30
0.0
  0
VERTEX
  5
2F01
  8
0
 62
     0
 10
219.314682
 20
122.171722
 30
0.0
  0
VERTEX
  5
2F02
  8
0
 62
     0
 10
219.348323
 20
122.167133
 30
0.0
  0
VERTEX
  5
2F03
  8
0
 62
     0
 10
219.410443
 20
122.152468
 30
0.0
  0
VERTEX
  5
2F04
  8
0
 62
     0
 10
219.449154
 20
122.135611
 30
0.0
  0
VERTEX
  5
2F05
  8
0
 62
     0
 10
219.466674
 20
122.117723
 30
0.0
  0
SEQEND
  5
2F06
  8
0
 62
     0
  0
POLYLINE
  5
2856
  8
0
 62
     0
 66
     1
 10
0.0
 20
0.0
 30
0.0
  0
VERTEX
  5
2F07
  8
0
 62
     0
 10
221.727677
 20
130.21479
 30
0.0
  0
VERTEX
  5
2F08
  8
0
 62
     0
 10
221.68594
 20
130.13203
 30
0.0
  0
VERTEX
  5
2F09
  8
0
 62
     0
 10
221.620536
 20
130.065401
 30
0.0
  0
VERTEX
  5
2F0A
  8
0
 62
     0
 10
221.536602
 20
130.021414
 30
0.0
  0
SEQEND
  5
2F0B
  8
0
 62
     0
  0
LINE
  5
2857
  8
0
 62
     0
 10
219.678412
 20
126.668297
 30
0.0
 11
219.718226
 21
126.900694
 31
0.0
  0
POLYLINE
  5
2858
  8
0
 62
     0
 66
     1
 10
0.0
 20
0.0
 30
0.0
  0
VERTEX
  5
2F0C
  8
0
 62
     0
 10
219.977705
 20
126.656919
 30
0.0
  0
VERTEX
  5
2F0D
  8
0
 62
     0
 10
219.978122
 20
126.703225
 30
0.0
  0
VERTEX
  5
2F0E
  8
0
 62
     0
 10
219.978476
 20
126.746503
 30
0.0
  0
VERTEX
  5
2F0F
  8
0
 62
     0
 10
219.978766
 20
126.786803
 30
0.0
  0
VERTEX
  5
2F10
  8
0
 62
     0
 10
219.978993
 20
126.824181
 30
0.0
  0
VERTEX
  5
2F11
  8
0
 62
     0
 10
219.979154
 20
126.858697
 30
0.0
  0
VERTEX
  5
2F12
  8
0
 62
     0
 10
219.979248
 20
126.89042
 30
0.0
  0
VERTEX
  5
2F13
  8
0
 62
     0
 10
219.979272
 20
126.909
 30
0.0
  0
SEQEND
  5
2F14
  8
0
 62
     0
  0
LINE
  5
2859
  8
0
 62
     0
 10
219.979272
 20
126.909177
 30
0.0
 11
219.979274
 21
129.589914
 31
0.0
  0
LINE
  5
285A
  8
0
 62
     0
 10
221.536602
 20
130.021414
 30
0.0
 11
221.440064
 21
130.005697
 31
0.0
  0
POLYLINE
  5
285B
  8
0
 62
     0
 66
     1
 10
0.0
 20
0.0
 30
0.0
  0
VERTEX
  5
2F15
  8
0
 62
     0
 10
219.821833
 20
130.00555
 30
0.0
  0
VERTEX
  5
2F16
  8
0
 62
     0
 10
219.934947
 20
130.028384
 30
0.0
  0
VERTEX
  5
2F17
  8
0
 62
     0
 10
220.030846
 20
130.093412
 30
0.0
  0
VERTEX
  5
2F18
  8
0
 62
     0
 10
220.094926
 20
130.19074
 30
0.0
  0
VERTEX
  5
2F19
  8
0
 62
     0
 10
220.11743
 20
130.30555
 30
0.0
  0
SEQEND
  5
2F1A
  8
0
 62
     0
  0
ARC
  5
285C
  8
0
 62
     0
 10
221.667137
 20
130.25555
 30
0.0
 40
0.25
 50
270.0
 51
358.0
  0
LINE
  5
285D
  8
0
 62
     0
 10
221.742249
 20
130.30555
 30
0.0
 11
221.727677
 21
130.21479
 31
0.0
  0
LINE
  5
285E
  8
0
 62
     0
 10
221.916985
 20
130.246825
 30
0.0
 11
221.732821
 21
130.246825
 31
0.0
  0
LINE
  5
285F
  8
0
 62
     0
 10
214.185891
 20
150.50555
 30
0.0
 11
224.879274
 21
150.50555
 31
0.0
  0
LINE
  5
2860
  8
0
 62
     0
 10
214.185891
 20
150.20555
 30
0.0
 11
224.879207
 21
150.20555
 31
0.0
  0
LINE
  5
2861
  8
0
 62
     0
 10
212.279274
 20
150.60555
 30
0.0
 11
214.397217
 21
150.60555
 31
0.0
  0
LINE
  5
2862
  8
0
 62
     0
 10
213.77927
 20
150.605549
 30
0.0
 11
214.862837
 21
150.674678
 31
0.0
  0
LINE
  5
2863
  8
0
 62
     0
 10
212.379274
 20
149.70555
 30
0.0
 11
211.179274
 21
149.70555
 31
0.0
  0
ARC
  5
2864
  8
0
 62
     0
 10
211.179274
 20
150.30555
 30
0.0
 40
0.6
 50
222.394094
 51
270.0
  0
LINE
  5
2865
  8
0
 62
     0
 10
214.185891
 20
149.90555
 30
0.0
 11
214.185891
 21
150.522681
 31
0.0
  0
LINE
  5
2866
  8
0
 62
     0
 10
214.046036
 20
150.60555
 30
0.0
 11
214.046036
 21
149.90555
 31
0.0
  0
LINE
  5
2867
  8
0
 62
     0
 10
212.379274
 20
149.90555
 30
0.0
 11
212.379274
 21
149.70555
 31
0.0
  0
LINE
  5
2868
  8
0
 62
     0
 10
212.279274
 20
150.20555
 30
0.0
 11
212.279274
 21
150.60555
 31
0.0
  0
LINE
  5
2869
  8
0
 62
     0
 10
214.397217
 20
150.644973
 30
0.0
 11
214.397217
 21
150.53562
 31
0.0
  0
LINE
  5
286A
  8
0
 62
     0
 10
222.279274
 20
144.10555
 30
0.0
 11
222.279274
 21
135.90555
 31
0.0
  0
LINE
  5
286B
  8
0
 62
     0
 10
221.979274
 20
144.40555
 30
0.0
 11
221.979274
 21
135.60555
 31
0.0
  0
LINE
  5
286C
  8
0
 62
     0
 10
220.118051
 20
144.40555
 30
0.0
 11
220.118051
 21
135.60555
 31
0.0
  0
LINE
  5
286D
  8
0
 62
     0
 10
221.979274
 20
135.60555
 30
0.0
 11
220.118051
 21
135.60555
 31
0.0
  0
ARC
  5
286E
  8
0
 62
     0
 10
221.979274
 20
135.90555
 30
0.0
 40
0.3
 50
270.0
 51
0.0
  0
LINE
  5
286F
  8
0
 62
     0
 10
221.807457
 20
135.60555
 30
0.0
 11
221.807457
 21
132.03055
 31
0.0
  0
POLYLINE
  5
2870
  8
0
 62
     0
 66
     1
 10
0.0
 20
0.0
 30
0.0
  0
VERTEX
  5
2F1B
  8
0
 62
     0
 10
221.815066
 20
131.53055
 30
0.0
  0
VERTEX
  5
2F1C
  8
0
 62
     0
 10
221.808386
 20
131.554902
 30
0.0
  0
VERTEX
  5
2F1D
  8
0
 62
     0
 10
221.80386
 20
131.626743
 30
0.0
  0
VERTEX
  5
2F1E
  8
0
 62
     0
 10
221.802115
 20
131.736051
 30
0.0
  0
VERTEX
  5
2F1F
  8
0
 62
     0
 10
221.803334
 20
131.876778
 30
0.0
  0
VERTEX
  5
2F20
  8
0
 62
     0
 10
221.807457
 20
132.03055
 30
0.0
  0
SEQEND
  5
2F21
  8
0
 62
     0
  0
LINE
  5
2871
  8
0
 62
     0
 10
221.807457
 20
132.03055
 30
0.0
 11
221.751397
 21
132.03055
 31
0.0
  0
LINE
  5
2872
  8
0
 62
     0
 10
224.07922
 20
149.90555
 30
0.0
 11
222.398934
 21
149.90555
 31
0.0
  0
LINE
  5
2873
  8
0
 62
     0
 10
221.807457
 20
148.70555
 30
0.0
 11
221.807457
 21
144.40555
 31
0.0
  0
LINE
  5
2874
  8
0
 62
     0
 10
220.117744
 20
144.40555
 30
0.0
 11
220.11743
 21
149.30555
 31
0.0
  0
LINE
  5
2875
  8
0
 62
     0
 10
221.979274
 20
144.40555
 30
0.0
 11
220.118059
 21
144.40555
 31
0.0
  0
ARC
  5
2876
  8
0
 62
     0
 10
221.979274
 20
144.10555
 30
0.0
 40
0.3
 50
0.0
 51
90.0
  0
POLYLINE
  5
2877
  8
0
 62
     0
 66
     1
 10
0.0
 20
0.0
 30
0.0
  0
VERTEX
  5
2F22
  8
0
 62
     0
 10
219.821833
 20
149.60555
 30
0.0
  0
VERTEX
  5
2F23
  8
0
 62
     0
 10
219.934953
 20
149.582714
 30
0.0
  0
VERTEX
  5
2F24
  8
0
 62
     0
 10
220.030851
 20
149.517682
 30
0.0
  0
VERTEX
  5
2F25
  8
0
 62
     0
 10
220.094929
 20
149.420355
 30
0.0
  0
VERTEX
  5
2F26
  8
0
 62
     0
 10
220.11743
 20
149.30555
 30
0.0
  0
SEQEND
  5
2F27
  8
0
 62
     0
  0
ARC
  5
2878
  8
0
 62
     0
 10
221.679274
 20
149.30555
 30
0.0
 40
0.3
 50
0.0
 51
90.0
  0
POLYLINE
  5
2879
  8
0
 62
     0
 66
     1
 10
0.0
 20
0.0
 30
0.0
  0
VERTEX
  5
2F28
  8
0
 62
     0
 10
221.807457
 20
148.70555
 30
0.0
  0
VERTEX
  5
2F29
  8
0
 62
     0
 10
221.808721
 20
148.859356
 30
0.0
  0
VERTEX
  5
2F2A
  8
0
 62
     0
 10
221.812431
 20
149.000037
 30
0.0
  0
VERTEX
  5
2F2B
  8
0
 62
     0
 10
221.818001
 20
149.109308
 30
0.0
  0
VERTEX
  5
2F2C
  8
0
 62
     0
 10
221.825039
 20
149.181162
 30
0.0
  0
VERTEX
  5
2F2D
  8
0
 62
     0
 10
221.832576
 20
149.20555
 30
0.0
  0
SEQEND
  5
2F2E
  8
0
 62
     0
  0
LINE
  5
287A
  8
0
 62
     0
 10
222.398934
 20
149.90555
 30
0.0
 11
222.398934
 21
150.20555
 31
0.0
  0
LINE
  5
287B
  8
0
 62
     0
 10
222.349172
 20
149.90555
 30
0.0
 11
222.349172
 21
150.20555
 31
0.0
  0
LINE
  5
287C
  8
0
 62
     0
 10
221.979274
 20
149.30555
 30
0.0
 11
221.979274
 21
149.20555
 31
0.0
  0
POLYLINE
  5
287D
  8
0
 62
     0
 66
     1
 10
0.0
 20
0.0
 30
0.0
  0
VERTEX
  5
2F2F
  8
0
 62
     0
 10
222.72399
 20
150.20555
 30
0.0
  0
VERTEX
  5
2F30
  8
0
 62
     0
 10
222.559677
 20
150.237781
 30
0.0
  0
VERTEX
  5
2F31
  8
0
 62
     0
 10
222.381679
 20
150.310925
 30
0.0
  0
VERTEX
  5
2F32
  8
0
 62
     0
 10
222.196598
 20
150.404327
 30
0.0
  0
VERTEX
  5
2F33
  8
0
 62
     0
 10
222.009847
 20
150.50555
 30
0.0
  0
SEQEND
  5
2F34
  8
0
 62
     0
  0
LINE
  5
287E
  8
0
 62
     0
 10
224.079274
 20
150.20555
 30
0.0
 11
224.079274
 21
149.90555
 31
0.0
  0
ARC
  5
287F
  8
0
 62
     0
 10
235.779274
 20
132.03055
 30
0.0
 40
0.5
 50
270.0
 51
0.0
  0
LINE
  5
2880
  8
0
 62
     0
 10
236.279274
 20
142.80555
 30
0.0
 11
239.279274
 21
142.80555
 31
0.0
  0
LINE
  5
2881
  8
0
 62
     0
 10
236.279274
 20
138.30555
 30
0.0
 11
239.279274
 21
138.30555
 31
0.0
  0
LINE
  5
2882
  8
0
 62
     0
 10
236.279274
 20
145.30555
 30
0.0
 11
236.279274
 21
132.03055
 31
0.0
  0
LINE
  5
2883
  8
0
 62
     0
 10
235.314174
 20
148.70555
 30
0.0
 11
235.314174
 21
132.03055
 31
0.0
  0
POLYLINE
  5
2884
  8
0
 62
     0
 66
     1
 10
0.0
 20
0.0
 30
0.0
  0
VERTEX
  5
2F35
  8
0
 62
     0
 10
235.296724
 20
131.53055
 30
0.0
  0
VERTEX
  5
2F36
  8
0
 62
     0
 10
235.303402
 20
131.56861
 30
0.0
  0
VERTEX
  5
2F37
  8
0
 62
     0
 10
235.309063
 20
131.676997
 30
0.0
  0
VERTEX
  5
2F38
  8
0
 62
     0
 10
235.312845
 20
131.839208
 30
0.0
  0
VERTEX
  5
2F39
  8
0
 62
     0
 10
235.314174
 20
132.03055
 30
0.0
  0
SEQEND
  5
2F3A
  8
0
 62
     0
  0
ARC
  5
2885
  8
0
 62
     0
 10
237.029274
 20
146.30555
 30
0.0
 40
1.25
 50
126.869898
 51
233.130102
  0
ARC
  5
2886
  8
0
 62
     0
 10
235.779274
 20
148.70555
 30
0.0
 40
0.5
 50
0.0
 51
90.0
  0
POLYLINE
  5
2887
  8
0
 62
     0
 66
     1
 10
0.0
 20
0.0
 30
0.0
  0
VERTEX
  5
2F3B
  8
0
 62
     0
 10
235.296724
 20
149.20555
 30
0.0
  0
VERTEX
  5
2F3C
  8
0
 62
     0
 10
235.303401
 20
149.167492
 30
0.0
  0
VERTEX
  5
2F3D
  8
0
 62
     0
 10
235.309062
 20
149.059109
 30
0.0
  0
VERTEX
  5
2F3E
  8
0
 62
     0
 10
235.312845
 20
148.896897
 30
0.0
  0
VERTEX
  5
2F3F
  8
0
 62
     0
 10
235.314174
 20
148.70555
 30
0.0
  0
SEQEND
  5
2F40
  8
0
 62
     0
  0
LINE
  5
2888
  8
0
 62
     0
 10
236.279274
 20
148.70555
 30
0.0
 11
236.279274
 21
147.30555
 31
0.0
  0
LINE
  5
2889
  8
0
 62
     0
 10
239.279274
 20
142.80555
 30
0.0
 11
239.279274
 21
138.30555
 31
0.0
  0
LINE
  5
288A
  8
0
 62
     0
 10
219.065815
 20
155.551733
 30
0.0
 11
221.879274
 21
182.00555
 31
0.0
  0
LINE
  5
288B
  8
0
 62
     0
 10
222.146114
 20
169.70555
 30
0.0
 11
222.146114
 21
185.140247
 31
0.0
  0
LINE
  5
288C
  8
0
 62
     0
 10
218.767497
 20
155.58346
 30
0.0
 11
221.579274
 21
182.021458
 31
0.0
  0
LINE
  5
288D
  8
0
 62
     0
 10
223.729447
 20
170.00555
 30
0.0
 11
225.029447
 21
170.756106
 31
0.0
  0
ARC
  5
288E
  8
0
 62
     0
 10
216.179274
 20
155.80555
 30
0.0
 40
2.0
 50
163.292577
 51
222.533595
  0
ARC
  5
288F
  8
0
 62
     0
 10
216.679274
 20
155.80555
 30
0.0
 40
2.4
 50
180.0
 51
353.929207
  0
LINE
  5
2890
  8
0
 62
     0
 10
214.279274
 20
160.473187
 30
0.0
 11
213.779274
 21
160.505416
 31
0.0
  0
LINE
  5
2891
  8
0
 62
     0
 10
214.279274
 20
160.773604
 30
0.0
 11
213.77927
 21
160.805551
 31
0.0
  0
ARC
  5
2892
  8
0
 62
     0
 10
216.179274
 20
155.80555
 30
0.0
 40
4.0
 50
148.211669
 51
211.788331
  0
ARC
  5
2893
  8
0
 62
     0
 10
216.179274
 20
155.80555
 30
0.0
 40
3.0
 50
143.130102
 51
216.869898
  0
POLYLINE
  5
2894
  8
0
 62
     0
 66
     1
 10
0.0
 20
0.0
 30
0.0
  0
VERTEX
  5
2F41
  8
0
 62
     0
 10
212.779274
 20
153.698419
 30
0.0
  0
VERTEX
  5
2F42
  8
0
 62
     0
 10
213.082729
 20
153.786676
 30
0.0
  0
VERTEX
  5
2F43
  8
0
 62
     0
 10
213.3594
 20
153.870647
 30
0.0
  0
VERTEX
  5
2F44
  8
0
 62
     0
 10
213.582253
 20
153.941033
 30
0.0
  0
VERTEX
  5
2F45
  8
0
 62
     0
 10
213.728062
 20
153.98856
 30
0.0
  0
VERTEX
  5
2F46
  8
0
 62
     0
 10
213.779274
 20
154.00555
 30
0.0
  0
SEQEND
  5
2F47
  8
0
 62
     0
  0
POLYLINE
  5
2895
  8
0
 62
     0
 66
     1
 10
0.0
 20
0.0
 30
0.0
  0
VERTEX
  5
2F48
  8
0
 62
     0
 10
213.779274
 20
157.60555
 30
0.0
  0
VERTEX
  5
2F49
  8
0
 62
     0
 10
213.728062
 20
157.622541
 30
0.0
  0
VERTEX
  5
2F4A
  8
0
 62
     0
 10
213.582253
 20
157.670068
 30
0.0
  0
VERTEX
  5
2F4B
  8
0
 62
     0
 10
213.3594
 20
157.740453
 30
0.0
  0
VERTEX
  5
2F4C
  8
0
 62
     0
 10
213.082729
 20
157.824425
 30
0.0
  0
VERTEX
  5
2F4D
  8
0
 62
     0
 10
212.779274
 20
157.912681
 30
0.0
  0
SEQEND
  5
2F4E
  8
0
 62
     0
  0
LINE
  5
2896
  8
0
 62
     0
 10
213.779274
 20
160.80555
 30
0.0
 11
212.279274
 21
160.80555
 31
0.0
  0
ARC
  5
2897
  8
0
 62
     0
 10
216.679274
 20
155.80555
 30
0.0
 40
2.099998
 50
180.0
 51
353.929207
  0
LINE
  5
2898
  8
0
 62
     0
 10
214.579274
 20
155.80555
 30
0.0
 11
214.279274
 21
155.80555
 31
0.0
  0
LINE
  5
2899
  8
0
 62
     0
 10
218.684605
 20
151.476311
 30
0.0
 11
218.684605
 21
151.494491
 31
0.0
  0
LINE
  5
289A
  8
0
 62
     0
 10
218.767497
 20
155.58346
 30
0.0
 11
219.065815
 21
155.551733
 31
0.0
  0
LINE
  5
289B
  8
0
 62
     0
 10
218.424448
 20
151.50555
 30
0.0
 11
218.713916
 21
151.50555
 31
0.0
  0
LINE
  5
289C
  8
0
 62
     0
 10
218.251422
 20
151.445722
 30
0.0
 11
218.559621
 21
151.447336
 31
0.0
  0
LINE
  5
289D
  8
0
 62
     0
 10
213.779274
 20
160.90555
 30
0.0
 11
214.279274
 21
160.873544
 31
0.0
  0
LINE
  5
289E
  8
0
 62
     0
 10
225.079274
 20
168.839525
 30
0.0
 11
225.079274
 21
158.60555
 31
0.0
  0
LINE
  5
289F
  8
0
 62
     0
 10
223.504792
 20
158.60555
 30
0.0
 11
223.504792
 21
162.628754
 31
0.0
  0
LINE
  5
28A0
  8
0
 62
     0
 10
222.714671
 20
151.825672
 30
0.0
 11
222.714671
 21
162.776517
 31
0.0
  0
LINE
  5
28A1
  8
0
 62
     0
 10
225.079226
 20
158.60555
 30
0.0
 11
223.223077
 21
158.60555
 31
0.0
  0
LINE
  5
28A2
  8
0
 62
     0
 10
223.223073
 20
158.60555
 30
0.0
 11
223.223073
 21
151.736027
 31
0.0
  0
POLYLINE
  5
28A3
  8
0
 62
     0
 66
     1
 10
0.0
 20
0.0
 30
0.0
  0
VERTEX
  5
2F4F
  8
0
 62
     0
 10
219.820019
 20
152.154522
 30
0.0
  0
VERTEX
  5
2F50
  8
0
 62
     0
 10
220.743462
 20
152.786311
 30
0.0
  0
VERTEX
  5
2F51
  8
0
 62
     0
 10
221.464075
 20
153.479283
 30
0.0
  0
VERTEX
  5
2F52
  8
0
 62
     0
 10
221.974161
 20
154.211148
 30
0.0
  0
VERTEX
  5
2F53
  8
0
 62
     0
 10
222.269433
 20
154.942934
 30
0.0
  0
VERTEX
  5
2F54
  8
0
 62
     0
 10
222.371041
 20
155.684445
 30
0.0
  0
VERTEX
  5
2F55
  8
0
 62
     0
 10
222.280261
 20
156.426632
 30
0.0
  0
VERTEX
  5
2F56
  8
0
 62
     0
 10
221.996387
 20
157.15842
 30
0.0
  0
VERTEX
  5
2F57
  8
0
 62
     0
 10
221.49884
 20
157.890937
 30
0.0
  0
VERTEX
  5
2F58
  8
0
 62
     0
 10
220.789704
 20
158.587049
 30
0.0
  0
VERTEX
  5
2F59
  8
0
 62
     0
 10
219.877795
 20
159.222637
 30
0.0
  0
VERTEX
  5
2F5A
  8
0
 62
     0
 10
219.477622
 20
159.423794
 30
0.0
  0
SEQEND
  5
2F5B
  8
0
 62
     0
  0
POLYLINE
  5
28A4
  8
0
 62
     0
 66
     1
 10
0.0
 20
0.0
 30
0.0
  0
VERTEX
  5
2F5C
  8
0
 62
     0
 10
219.491375
 20
159.553103
 30
0.0
  0
VERTEX
  5
2F5D
  8
0
 62
     0
 10
220.087847
 20
159.237177
 30
0.0
  0
VERTEX
  5
2F5E
  8
0
 62
     0
 10
221.079145
 20
158.514214
 30
0.0
  0
VERTEX
  5
2F5F
  8
0
 62
     0
 10
221.833973
 20
157.700613
 30
0.0
  0
VERTEX
  5
2F60
  8
0
 62
     0
 10
222.274985
 20
156.942314
 30
0.0
  0
VERTEX
  5
2F61
  8
0
 62
     0
 10
222.500531
 20
156.183633
 30
0.0
  0
VERTEX
  5
2F62
  8
0
 62
     0
 10
222.525209
 20
155.415291
 30
0.0
  0
VERTEX
  5
2F63
  8
0
 62
     0
 10
222.371646
 20
154.717642
 30
0.0
  0
VERTEX
  5
2F64
  8
0
 62
     0
 10
222.108348
 20
154.133901
 30
0.0
  0
VERTEX
  5
2F65
  8
0
 62
     0
 10
221.700313
 20
153.53791
 30
0.0
  0
VERTEX
  5
2F66
  8
0
 62
     0
 10
221.054515
 20
152.875351
 30
0.0
  0
VERTEX
  5
2F67
  8
0
 62
     0
 10
220.231356
 20
152.263548
 30
0.0
  0
SEQEND
  5
2F68
  8
0
 62
     0
  0
POLYLINE
  5
28A5
  8
0
 62
     0
 66
     1
 10
0.0
 20
0.0
 30
0.0
  0
VERTEX
  5
2F69
  8
0
 62
     0
 10
219.491376
 20
159.553111
 30
0.0
  0
VERTEX
  5
2F6A
  8
0
 62
     0
 10
220.084573
 20
159.239174
 30
0.0
  0
VERTEX
  5
2F6B
  8
0
 62
     0
 10
221.075457
 20
158.517453
 30
0.0
  0
VERTEX
  5
2F6C
  8
0
 62
     0
 10
221.831724
 20
157.703663
 30
0.0
  0
VERTEX
  5
2F6D
  8
0
 62
     0
 10
222.273843
 20
156.944943
 30
0.0
  0
VERTEX
  5
2F6E
  8
0
 62
     0
 10
222.500142
 20
156.186
 30
0.0
  0
VERTEX
  5
2F6F
  8
0
 62
     0
 10
222.525406
 20
155.417277
 30
0.0
  0
VERTEX
  5
2F70
  8
0
 62
     0
 10
222.372014
 20
154.718714
 30
0.0
  0
VERTEX
  5
2F71
  8
0
 62
     0
 10
222.108868
 20
154.134825
 30
0.0
  0
VERTEX
  5
2F72
  8
0
 62
     0
 10
221.701025
 20
153.538787
 30
0.0
  0
VERTEX
  5
2F73
  8
0
 62
     0
 10
221.054656
 20
152.875473
 30
0.0
  0
SEQEND
  5
2F74
  8
0
 62
     0
  0
LINE
  5
28A6
  8
0
 62
     0
 10
220.231357
 20
152.263547
 30
0.0
 11
223.223073
 21
151.736027
 31
0.0
  0
LINE
  5
28A7
  8
0
 62
     0
 10
221.279274
 20
153.105979
 30
0.0
 11
221.279274
 21
153.301571
 31
0.0
  0
LINE
  5
28A8
  8
0
 62
     0
 10
221.054656
 20
152.875473
 30
0.0
 11
220.231356
 21
152.263548
 31
0.0
  0
LINE
  5
28A9
  8
0
 62
     0
 10
222.042131
 20
154.379603
 30
0.0
 11
222.042131
 21
154.037294
 31
0.0
  0
LINE
  5
28AA
  8
0
 62
     0
 10
221.684605
 20
153.795697
 30
0.0
 11
221.684605
 21
153.518693
 31
0.0
  0
LINE
  5
28AB
  8
0
 62
     0
 10
220.564922
 20
158.743719
 30
0.0
 11
220.18455
 21
159.166354
 31
0.0
  0
LINE
  5
28AC
  8
0
 62
     0
 10
222.042131
 20
157.387298
 30
0.0
 11
222.042131
 21
157.040498
 31
0.0
  0
LINE
  5
28AD
  8
0
 62
     0
 10
221.684605
 20
157.892407
 30
0.0
 11
221.684605
 21
157.617443
 31
0.0
  0
LINE
  5
28AE
  8
0
 62
     0
 10
223.579274
 20
169.70555
 30
0.0
 11
225.079274
 21
168.839525
 31
0.0
  0
LINE
  5
28AF
  8
0
 62
     0
 10
223.663165
 20
168.839525
 30
0.0
 11
225.079274
 21
168.839525
 31
0.0
  0
LINE
  5
28B0
  8
0
 62
     0
 10
223.663165
 20
168.839525
 30
0.0
 11
223.663165
 21
162.362232
 31
0.0
  0
LINE
  5
28B1
  8
0
 62
     0
 10
223.626093
 20
165.137487
 30
0.0
 11
223.626093
 21
166.124819
 31
0.0
  0
ARC
  5
28B2
  8
0
 62
     0
 10
221.875603
 20
165.70555
 30
0.0
 40
1.8
 50
190.03863
 51
330.0
  0
LINE
  5
28B3
  8
0
 62
     0
 10
220.988105
 20
163.802304
 30
0.0
 11
223.663165
 21
162.554903
 31
0.0
  0
LINE
  5
28B4
  8
0
 62
     0
 10
222.714671
 20
162.776517
 30
0.0
 11
220.903581
 21
163.621042
 31
0.0
  0
LINE
  5
28B5
  8
0
 62
     0
 10
222.714671
 20
162.66618
 30
0.0
 11
220.86132
 21
163.530411
 31
0.0
  0
ARC
  5
28B6
  8
0
 62
     0
 10
221.875603
 20
165.70555
 30
0.0
 40
2.399999
 50
217.893828
 51
245.0
  0
ARC
  5
28B7
  8
0
 62
     0
 10
221.875603
 20
165.70555
 30
0.0
 40
2.299999
 50
215.16057
 51
245.0
  0
ARC
  5
28B8
  8
0
 62
     0
 10
221.875603
 20
165.70555
 30
0.0
 40
2.1
 50
209.011719
 51
245.0
  0
LINE
  5
28B9
  8
0
 62
     0
 10
220.86132
 20
163.530411
 30
0.0
 11
220.988105
 21
163.802304
 31
0.0
  0
LINE
  5
28BA
  8
0
 62
     0
 10
223.641734
 20
162.473451
 30
0.0
 11
223.663165
 21
162.362232
 31
0.0
  0
LINE
  5
28BB
  8
0
 62
     0
 10
223.434449
 20
164.80555
 30
0.0
 11
223.626093
 21
165.137487
 31
0.0
  0
LINE
  5
28BC
  8
0
 62
     0
 10
222.714671
 20
162.66618
 30
0.0
 11
222.841456
 21
162.938072
 31
0.0
  0
LINE
  5
28BD
  8
0
 62
     0
 10
223.663165
 20
162.362232
 30
0.0
 11
223.504792
 21
162.435905
 31
0.0
  0
LINE
  5
28BE
  8
0
 62
     0
 10
223.504792
 20
162.435905
 30
0.0
 11
222.714671
 21
162.66618
 31
0.0
  0
POLYLINE
  5
28BF
  8
0
 62
     0
 66
     1
 10
0.0
 20
0.0
 30
0.0
  0
VERTEX
  5
2F75
  8
0
 62
     0
 10
222.714671
 20
162.776517
 30
0.0
  0
VERTEX
  5
2F76
  8
0
 62
     0
 10
222.906143
 20
162.790503
 30
0.0
  0
VERTEX
  5
2F77
  8
0
 62
     0
 10
223.08721
 20
162.788559
 30
0.0
  0
VERTEX
  5
2F78
  8
0
 62
     0
 10
223.243821
 20
162.750446
 30
0.0
  0
SEQEND
  5
2F79
  8
0
 62
     0
  0
ARC
  5
28C0
  8
0
 62
     0
 10
221.875603
 20
165.70555
 30
0.0
 40
1.8
 50
13.469477
 51
17.070147
  0
LINE
  5
28C1
  8
0
 62
     0
 10
223.579274
 20
169.70555
 30
0.0
 11
223.579274
 21
170.00555
 31
0.0
  0
LINE
  5
28C2
  8
0
 62
     0
 10
222.146114
 20
169.70555
 30
0.0
 11
223.663165
 21
168.839525
 31
0.0
  0
LINE
  5
28C3
  8
0
 62
     0
 10
222.457416
 20
170.00555
 30
0.0
 11
223.729447
 21
170.00555
 31
0.0
  0
LINE
  5
28C4
  8
0
 62
     0
 10
222.146114
 20
169.70555
 30
0.0
 11
223.579274
 21
169.70555
 31
0.0
  0
ARC
  5
28C5
  8
0
 62
     0
 10
224.779274
 20
179.40555
 30
0.0
 40
1.1
 50
270.0
 51
90.0
  0
ARC
  5
28C6
  8
0
 62
     0
 10
224.779274
 20
179.40555
 30
0.0
 40
1.8
 50
270.0
 51
90.0
  0
POLYLINE
  5
28C7
  8
0
 62
     0
 66
     1
 10
0.0
 20
0.0
 30
0.0
  0
VERTEX
  5
2F7A
  8
0
 62
     0
 10
224.539627
 20
177.115254
 30
0.0
  0
VERTEX
  5
2F7B
  8
0
 62
     0
 10
224.479495
 20
177.301851
 30
0.0
  0
VERTEX
  5
2F7C
  8
0
 62
     0
 10
224.425841
 20
177.547279
 30
0.0
  0
VERTEX
  5
2F7D
  8
0
 62
     0
 10
224.378514
 20
177.842601
 30
0.0
  0
VERTEX
  5
2F7E
  8
0
 62
     0
 10
224.339783
 20
178.169836
 30
0.0
  0
VERTEX
  5
2F7F
  8
0
 62
     0
 10
224.310715
 20
178.514274
 30
0.0
  0
VERTEX
  5
2F80
  8
0
 62
     0
 10
224.291368
 20
178.869024
 30
0.0
  0
VERTEX
  5
2F81
  8
0
 62
     0
 10
224.281683
 20
179.233269
 30
0.0
  0
VERTEX
  5
2F82
  8
0
 62
     0
 10
224.281897
 20
179.596431
 30
0.0
  0
VERTEX
  5
2F83
  8
0
 62
     0
 10
224.291978
 20
179.958579
 30
0.0
  0
VERTEX
  5
2F84
  8
0
 62
     0
 10
224.311643
 20
180.309568
 30
0.0
  0
VERTEX
  5
2F85
  8
0
 62
     0
 10
224.340957
 20
180.649079
 30
0.0
  0
VERTEX
  5
2F86
  8
0
 62
     0
 10
224.379817
 20
180.970033
 30
0.0
  0
VERTEX
  5
2F87
  8
0
 62
     0
 10
224.427078
 20
181.257951
 30
0.0
  0
VERTEX
  5
2F88
  8
0
 62
     0
 10
224.48046
 20
181.495904
 30
0.0
  0
SEQEND
  5
2F89
  8
0
 62
     0
  0
LINE
  5
28C8
  8
0
 62
     0
 10
221.875603
 20
181.20555
 30
0.0
 11
220.974761
 21
173.500779
 31
0.0
  0
LINE
  5
28C9
  8
0
 62
     0
 10
225.029447
 20
178.34152
 30
0.0
 11
225.029447
 21
180.469581
 31
0.0
  0
POLYLINE
  5
28CA
  8
0
 62
     0
 66
     1
 10
0.0
 20
0.0
 30
0.0
  0
VERTEX
  5
2F8A
  8
0
 62
     0
 10
224.854932
 20
180.379667
 30
0.0
  0
VERTEX
  5
2F8B
  8
0
 62
     0
 10
224.866134
 20
179.997069
 30
0.0
  0
VERTEX
  5
2F8C
  8
0
 62
     0
 10
224.871549
 20
179.605188
 30
0.0
  0
VERTEX
  5
2F8D
  8
0
 62
     0
 10
224.871597
 20
179.215847
 30
0.0
  0
VERTEX
  5
2F8E
  8
0
 62
     0
 10
224.866249
 20
178.820972
 30
0.0
  0
VERTEX
  5
2F8F
  8
0
 62
     0
 10
224.854968
 20
178.431223
 30
0.0
  0
SEQEND
  5
2F90
  8
0
 62
     0
  0
LINE
  5
28CB
  8
0
 62
     0
 10
225.029447
 20
170.756106
 30
0.0
 11
225.029447
 21
177.638486
 31
0.0
  0
POLYLINE
  5
28CC
  8
0
 62
     0
 66
     1
 10
0.0
 20
0.0
 30
0.0
  0
VERTEX
  5
2F91
  8
0
 62
     0
 10
224.798669
 20
177.603318
 30
0.0
  0
VERTEX
  5
2F92
  8
0
 62
     0
 10
224.777004
 20
177.415085
 30
0.0
  0
VERTEX
  5
2F93
  8
0
 62
     0
 10
224.732009
 20
177.178466
 30
0.0
  0
VERTEX
  5
2F94
  8
0
 62
     0
 10
224.674778
 20
177.032209
 30
0.0
  0
VERTEX
  5
2F95
  8
0
 62
     0
 10
224.604714
 20
177.012723
 30
0.0
  0
SEQEND
  5
2F96
  8
0
 62
     0
  0
LINE
  5
28CD
  8
0
 62
     0
 10
224.854968
 20
178.431223
 30
0.0
 11
224.849412
 21
178.315635
 31
0.0
  0
LINE
  5
28CE
  8
0
 62
     0
 10
224.604714
 20
177.012723
 30
0.0
 11
224.539627
 21
177.115254
 31
0.0
  0
LINE
  5
28CF
  8
0
 62
     0
 10
224.486918
 20
177.278814
 30
0.0
 11
224.566467
 21
177.20555
 31
0.0
  0
LINE
  5
28D0
  8
0
 62
     0
 10
224.32833
 20
178.30555
 30
0.0
 11
224.779274
 21
178.30555
 31
0.0
  0
LINE
  5
28D1
  8
0
 62
     0
 10
224.779274
 20
177.60555
 30
0.0
 11
224.416503
 21
177.60555
 31
0.0
  0
LINE
  5
28D2
  8
0
 62
     0
 10
224.566467
 20
177.20555
 30
0.0
 11
224.510529
 21
177.20555
 31
0.0
  0
LINE
  5
28D3
  8
0
 62
     0
 10
222.154139
 20
188.70555
 30
0.0
 11
226.810079
 21
188.70555
 31
0.0
  0
LINE
  5
28D4
  8
0
 62
     0
 10
221.879274
 20
189.824729
 30
0.0
 11
221.879274
 21
182.00555
 31
0.0
  0
LINE
  5
28D5
  8
0
 62
     0
 10
221.579274
 20
189.824729
 30
0.0
 11
221.579274
 21
182.021458
 31
0.0
  0
LINE
  5
28D6
  8
0
 62
     0
 10
221.875603
 20
181.20555
 30
0.0
 11
221.875603
 21
181.971037
 31
0.0
  0
LINE
  5
28D7
  8
0
 62
     0
 10
221.879274
 20
182.00555
 30
0.0
 11
221.579274
 21
182.021458
 31
0.0
  0
LINE
  5
28D8
  8
0
 62
     0
 10
221.903983
 20
189.922273
 30
0.0
 11
221.89846
 21
189.934944
 31
0.0
  0
LINE
  5
28D9
  8
0
 62
     0
 10
221.918095
 20
189.921942
 30
0.0
 11
221.904871
 21
189.951313
 31
0.0
  0
LINE
  5
28DA
  8
0
 62
     0
 10
221.880011
 20
189.848993
 30
0.0
 11
221.879274
 21
189.824729
 31
0.0
  0
LINE
  5
28DB
  8
0
 62
     0
 10
223.579274
 20
188.70555
 30
0.0
 11
223.579274
 21
189.886178
 31
0.0
  0
LINE
  5
28DC
  8
0
 62
     0
 10
221.917114
 20
189.921972
 30
0.0
 11
221.917114
 21
187.746528
 31
0.0
  0
LINE
  5
28DD
  8
0
 62
     0
 10
221.903313
 20
189.922286
 30
0.0
 11
221.903313
 21
187.732904
 31
0.0
  0
LINE
  5
28DE
  8
0
 62
     0
 10
221.880012
 20
189.849005
 30
0.0
 11
221.888162
 21
189.908647
 31
0.0
  0
POLYLINE
  5
28DF
  8
0
 62
     0
 66
     1
 10
0.0
 20
0.0
 30
0.0
  0
VERTEX
  5
2F97
  8
0
 62
     0
 10
223.579274
 20
189.884727
 30
0.0
  0
VERTEX
  5
2F98
  8
0
 62
     0
 10
223.512193
 20
189.886178
 30
0.0
  0
VERTEX
  5
2F99
  8
0
 62
     0
 10
222.975201
 20
189.897782
 30
0.0
  0
VERTEX
  5
2F9A
  8
0
 62
     0
 10
221.903313
 20
189.922283
 30
0.0
  0
SEQEND
  5
2F9B
  8
0
 62
     0
  0
POLYLINE
  5
28E0
  8
0
 62
     0
 66
     1
 10
0.0
 20
0.0
 30
0.0
  0
VERTEX
  5
2F9C
  8
0
 62
     0
 10
223.579274
 20
189.884729
 30
0.0
  0
VERTEX
  5
2F9D
  8
0
 62
     0
 10
223.51276
 20
189.886166
 30
0.0
  0
VERTEX
  5
2F9E
  8
0
 62
     0
 10
222.980305
 20
189.897667
 30
0.0
  0
VERTEX
  5
2F9F
  8
0
 62
     0
 10
221.917114
 20
189.921967
 30
0.0
  0
SEQEND
  5
2FA0
  8
0
 62
     0
  0
LINE
  5
28E1
  8
0
 62
     0
 10
221.879274
 20
189.824729
 30
0.0
 11
221.579274
 21
189.824729
 31
0.0
  0
LINE
  5
28E2
  8
0
 62
     0
 10
222.888539
 20
188.70555
 30
0.0
 11
221.875603
 21
187.70555
 31
0.0
  0
LINE
  5
28E3
  8
0
 62
     0
 10
221.892436
 20
189.91956
 30
0.0
 11
221.903313
 21
189.922286
 31
0.0
  0
LINE
  5
28E4
  8
0
 62
     0
 10
221.89079
 20
189.915356
 30
0.0
 11
221.917114
 21
189.921972
 31
0.0
  0
POLYLINE
  5
28E5
  8
0
 62
     0
 66
     1
 10
0.0
 20
0.0
 30
0.0
  0
VERTEX
  5
2FA1
  8
0
 62
     0
 10
225.049137
 20
188.70555
 30
0.0
  0
VERTEX
  5
2FA2
  8
0
 62
     0
 10
225.043447
 20
188.542158
 30
0.0
  0
VERTEX
  5
2FA3
  8
0
 62
     0
 10
225.037794
 20
188.366171
 30
0.0
  0
VERTEX
  5
2FA4
  8
0
 62
     0
 10
225.032069
 20
188.176077
 30
0.0
  0
VERTEX
  5
2FA5
  8
0
 62
     0
 10
225.026512
 20
187.970095
 30
0.0
  0
VERTEX
  5
2FA6
  8
0
 62
     0
 10
225.021249
 20
187.746835
 30
0.0
  0
VERTEX
  5
2FA7
  8
0
 62
     0
 10
225.016041
 20
187.505414
 30
0.0
  0
VERTEX
  5
2FA8
  8
0
 62
     0
 10
225.011328
 20
187.248731
 30
0.0
  0
VERTEX
  5
2FA9
  8
0
 62
     0
 10
225.007058
 20
186.97442
 30
0.0
  0
VERTEX
  5
2FAA
  8
0
 62
     0
 10
225.002921
 20
186.678207
 30
0.0
  0
VERTEX
  5
2FAB
  8
0
 62
     0
 10
224.998693
 20
186.35619
 30
0.0
  0
VERTEX
  5
2FAC
  8
0
 62
     0
 10
224.99498
 20
186.007131
 30
0.0
  0
VERTEX
  5
2FAD
  8
0
 62
     0
 10
224.992937
 20
185.641038
 30
0.0
  0
VERTEX
  5
2FAE
  8
0
 62
     0
 10
224.992974
 20
185.299294
 30
0.0
  0
VERTEX
  5
2FAF
  8
0
 62
     0
 10
224.994192
 20
185.008207
 30
0.0
  0
VERTEX
  5
2FB0
  8
0
 62
     0
 10
224.996559
 20
184.762893
 30
0.0
  0
VERTEX
  5
2FB1
  8
0
 62
     0
 10
225.000327
 20
184.554231
 30
0.0
  0
VERTEX
  5
2FB2
  8
0
 62
     0
 10
225.006016
 20
184.383637
 30
0.0
  0
VERTEX
  5
2FB3
  8
0
 62
     0
 10
225.014257
 20
184.264939
 30
0.0
  0
VERTEX
  5
2FB4
  8
0
 62
     0
 10
225.025203
 20
184.224868
 30
0.0
  0
VERTEX
  5
2FB5
  8
0
 62
     0
 10
225.028487
 20
184.22999
 30
0.0
  0
SEQEND
  5
2FB6
  8
0
 62
     0
  0
POLYLINE
  5
28E6
  8
0
 62
     0
 66
     1
 10
0.0
 20
0.0
 30
0.0
  0
VERTEX
  5
2FB7
  8
0
 62
     0
 10
224.888529
 20
188.70555
 30
0.0
  0
VERTEX
  5
2FB8
  8
0
 62
     0
 10
224.89031
 20
188.543388
 30
0.0
  0
VERTEX
  5
2FB9
  8
0
 62
     0
 10
224.89227
 20
188.368583
 30
0.0
  0
VERTEX
  5
2FBA
  8
0
 62
     0
 10
224.89445
 20
188.179287
 30
0.0
  0
VERTEX
  5
2FBB
  8
0
 62
     0
 10
224.896896
 20
187.973931
 30
0.0
  0
VERTEX
  5
2FBC
  8
0
 62
     0
 10
224.89965
 20
187.750856
 30
0.0
  0
VERTEX
  5
2FBD
  8
0
 62
     0
 10
224.902773
 20
187.508433
 30
0.0
  0
VERTEX
  5
2FBE
  8
0
 62
     0
 10
224.906298
 20
187.24855
 30
0.0
  0
VERTEX
  5
2FBF
  8
0
 62
     0
 10
224.910268
 20
186.971538
 30
0.0
  0
VERTEX
  5
2FC0
  8
0
 62
     0
 10
224.914811
 20
186.672553
 30
0.0
  0
VERTEX
  5
2FC1
  8
0
 62
     0
 10
224.920148
 20
186.346428
 30
0.0
  0
VERTEX
  5
2FC2
  8
0
 62
     0
 10
224.926592
 20
185.990559
 30
0.0
  0
VERTEX
  5
2FC3
  8
0
 62
     0
 10
224.934347
 20
185.612757
 30
0.0
  0
VERTEX
  5
2FC4
  8
0
 62
     0
 10
224.942843
 20
185.249889
 30
0.0
  0
VERTEX
  5
2FC5
  8
0
 62
     0
 10
224.951236
 20
184.937715
 30
0.0
  0
VERTEX
  5
2FC6
  8
0
 62
     0
 10
224.959492
 20
184.675456
 30
0.0
  0
VERTEX
  5
2FC7
  8
0
 62
     0
 10
224.968039
 20
184.451672
 30
0.0
  0
VERTEX
  5
2FC8
  8
0
 62
     0
 10
224.977225
 20
184.266301
 30
0.0
  0
SEQEND
  5
2FC9
  8
0
 62
     0
  0
POLYLINE
  5
28E7
  8
0
 62
     0
 66
     1
 10
0.0
 20
0.0
 30
0.0
  0
VERTEX
  5
2FCA
  8
0
 62
     0
 10
225.028468
 20
184.229982
 30
0.0
  0
VERTEX
  5
2FCB
  8
0
 62
     0
 10
225.698626
 20
185.914347
 30
0.0
  0
VERTEX
  5
2FCC
  8
0
 62
     0
 10
226.30725
 20
187.443441
 30
0.0
  0
VERTEX
  5
2FCD
  8
0
 62
     0
 10
226.809914
 20
188.70555
 30
0.0
  0
SEQEND
  5
2FCE
  8
0
 62
     0
  0
POLYLINE
  5
28E8
  8
0
 62
     0
 66
     1
 10
0.0
 20
0.0
 30
0.0
  0
VERTEX
  5
2FCF
  8
0
 62
     0
 10
224.987195
 20
184.13297
 30
0.0
  0
VERTEX
  5
2FD0
  8
0
 62
     0
 10
224.997388
 20
184.079262
 30
0.0
  0
VERTEX
  5
2FD1
  8
0
 62
     0
 10
225.00706
 20
184.128121
 30
0.0
  0
SEQEND
  5
2FD2
  8
0
 62
     0
  0
POLYLINE
  5
28E9
  8
0
 62
     0
 66
     1
 10
0.0
 20
0.0
 30
0.0
  0
VERTEX
  5
2FD3
  8
0
 62
     0
 10
225.00864
 20
184.164258
 30
0.0
  0
VERTEX
  5
2FD4
  8
0
 62
     0
 10
225.007818
 20
184.155704
 30
0.0
  0
VERTEX
  5
2FD5
  8
0
 62
     0
 10
225.008318
 20
184.15896
 30
0.0
  0
VERTEX
  5
2FD6
  8
0
 62
     0
 10
225.013469
 20
184.183665
 30
0.0
  0
VERTEX
  5
2FD7
  8
0
 62
     0
 10
225.028471
 20
184.229948
 30
0.0
  0
SEQEND
  5
2FD8
  8
0
 62
     0
  0
LINE
  5
28EA
  8
0
 62
     0
 10
225.00706
 20
184.128121
 30
0.0
 11
225.008951
 21
184.164241
 31
0.0
  0
LINE
  5
28EB
  8
0
 62
     0
 10
225.029447
 20
181.172614
 30
0.0
 11
225.029447
 21
184.229948
 31
0.0
  0
LINE
  5
28EC
  8
0
 62
     0
 10
224.8493
 20
180.495482
 30
0.0
 11
224.854932
 21
180.379667
 31
0.0
  0
LINE
  5
28ED
  8
0
 62
     0
 10
224.977225
 20
184.266301
 30
0.0
 11
224.987195
 21
184.13297
 31
0.0
  0
POLYLINE
  5
28EE
  8
0
 62
     0
 66
     1
 10
0.0
 20
0.0
 30
0.0
  0
VERTEX
  5
2FD9
  8
0
 62
     0
 10
224.48046
 20
181.495904
 30
0.0
  0
VERTEX
  5
2FDA
  8
0
 62
     0
 10
224.540169
 20
181.67613
 30
0.0
  0
VERTEX
  5
2FDB
  8
0
 62
     0
 10
224.604714
 20
181.775008
 30
0.0
  0
SEQEND
  5
2FDC
  8
0
 62
     0
  0
LINE
  5
28EF
  8
0
 62
     0
 10
224.590937
 20
181.60555
 30
0.0
 11
224.485682
 21
181.511665
 31
0.0
  0
POLYLINE
  5
28F0
  8
0
 62
     0
 66
     1
 10
0.0
 20
0.0
 30
0.0
  0
VERTEX
  5
2FDD
  8
0
 62
     0
 10
224.604714
 20
181.775008
 30
0.0
  0
VERTEX
  5
2FDE
  8
0
 62
     0
 10
224.674609
 20
181.756221
 30
0.0
  0
VERTEX
  5
2FDF
  8
0
 62
     0
 10
224.731828
 20
181.613756
 30
0.0
  0
VERTEX
  5
2FE0
  8
0
 62
     0
 10
224.77688
 20
181.382092
 30
0.0
  0
VERTEX
  5
2FE1
  8
0
 62
     0
 10
224.797339
 20
181.207669
 30
0.0
  0
SEQEND
  5
2FE2
  8
0
 62
     0
  0
LINE
  5
28F1
  8
0
 62
     0
 10
224.516786
 20
181.60555
 30
0.0
 11
224.590937
 21
181.60555
 31
0.0
  0
LINE
  5
28F2
  8
0
 62
     0
 10
224.779274
 20
181.20555
 30
0.0
 11
224.418477
 21
181.20555
 31
0.0
  0
LINE
  5
28F3
  8
0
 62
     0
 10
224.779274
 20
180.50555
 30
0.0
 11
224.328565
 21
180.50555
 31
0.0
  0
LINE
  5
28F4
  8
0
 62
     0
 10
199.579274
 20
236.20555
 30
0.0
 11
225.079274
 21
236.20555
 31
0.0
  0
LINE
  5
28F5
  8
0
 62
     0
 10
200.279274
 20
214.10555
 30
0.0
 11
225.07933
 21
214.10555
 31
0.0
  0
LINE
  5
28F6
  8
0
 62
     0
 10
204.079274
 20
213.60555
 30
0.0
 11
224.079217
 21
213.60555
 31
0.0
  0
LINE
  5
28F7
  8
0
 62
     0
 10
201.779274
 20
213.30555
 30
0.0
 11
224.779117
 21
213.30555
 31
0.0
  0
LINE
  5
28F8
  8
0
 62
     0
 10
201.579274
 20
213.00555
 30
0.0
 11
225.079274
 21
213.00555
 31
0.0
  0
POLYLINE
  5
28F9
  8
0
 62
     0
 66
     1
 10
0.0
 20
0.0
 30
0.0
  0
VERTEX
  5
2FE3
  8
0
 62
     0
 10
199.579274
 20
236.20555
 30
0.0
  0
VERTEX
  5
2FE4
  8
0
 62
     0
 10
199.589272
 20
236.227903
 30
0.0
  0
VERTEX
  5
2FE5
  8
0
 62
     0
 10
199.610209
 20
236.244848
 30
0.0
  0
VERTEX
  5
2FE6
  8
0
 62
     0
 10
199.635853
 20
236.258663
 30
0.0
  0
VERTEX
  5
2FE7
  8
0
 62
     0
 10
199.665047
 20
236.270898
 30
0.0
  0
VERTEX
  5
2FE8
  8
0
 62
     0
 10
199.696904
 20
236.282015
 30
0.0
  0
VERTEX
  5
2FE9
  8
0
 62
     0
 10
199.731711
 20
236.29252
 30
0.0
  0
VERTEX
  5
2FEA
  8
0
 62
     0
 10
199.7697
 20
236.302662
 30
0.0
  0
VERTEX
  5
2FEB
  8
0
 62
     0
 10
199.811108
 20
236.312589
 30
0.0
  0
VERTEX
  5
2FEC
  8
0
 62
     0
 10
199.856147
 20
236.322392
 30
0.0
  0
VERTEX
  5
2FED
  8
0
 62
     0
 10
199.905104
 20
236.332144
 30
0.0
  0
VERTEX
  5
2FEE
  8
0
 62
     0
 10
199.958199
 20
236.341885
 30
0.0
  0
VERTEX
  5
2FEF
  8
0
 62
     0
 10
200.015639
 20
236.35164
 30
0.0
  0
VERTEX
  5
2FF0
  8
0
 62
     0
 10
200.077804
 20
236.361451
 30
0.0
  0
VERTEX
  5
2FF1
  8
0
 62
     0
 10
200.145347
 20
236.371389
 30
0.0
  0
VERTEX
  5
2FF2
  8
0
 62
     0
 10
200.218838
 20
236.381492
 30
0.0
  0
VERTEX
  5
2FF3
  8
0
 62
     0
 10
200.297868
 20
236.391665
 30
0.0
  0
VERTEX
  5
2FF4
  8
0
 62
     0
 10
200.381552
 20
236.401777
 30
0.0
  0
VERTEX
  5
2FF5
  8
0
 62
     0
 10
200.47008
 20
236.411842
 30
0.0
  0
VERTEX
  5
2FF6
  8
0
 62
     0
 10
200.564438
 20
236.421957
 30
0.0
  0
VERTEX
  5
2FF7
  8
0
 62
     0
 10
200.66563
 20
236.432194
 30
0.0
  0
VERTEX
  5
2FF8
  8
0
 62
     0
 10
200.774662
 20
236.442609
 30
0.0
  0
VERTEX
  5
2FF9
  8
0
 62
     0
 10
200.892542
 20
236.453243
 30
0.0
  0
VERTEX
  5
2FFA
  8
0
 62
     0
 10
201.020273
 20
236.464121
 30
0.0
  0
VERTEX
  5
2FFB
  8
0
 62
     0
 10
201.158854
 20
236.475256
 30
0.0
  0
VERTEX
  5
2FFC
  8
0
 62
     0
 10
201.309222
 20
236.486647
 30
0.0
  0
VERTEX
  5
2FFD
  8
0
 62
     0
 10
201.472212
 20
236.498277
 30
0.0
  0
VERTEX
  5
2FFE
  8
0
 62
     0
 10
201.648647
 20
236.51012
 30
0.0
  0
VERTEX
  5
2FFF
  8
0
 62
     0
 10
201.839351
 20
236.522148
 30
0.0
  0
VERTEX
  5
3000
  8
0
 62
     0
 10
202.045207
 20
236.534328
 30
0.0
  0
VERTEX
  5
3001
  8
0
 62
     0
 10
202.267494
 20
236.546644
 30
0.0
  0
VERTEX
  5
3002
  8
0
 62
     0
 10
202.507643
 20
236.559075
 30
0.0
  0
VERTEX
  5
3003
  8
0
 62
     0
 10
202.767088
 20
236.57159
 30
0.0
  0
VERTEX
  5
3004
  8
0
 62
     0
 10
203.047391
 20
236.584148
 30
0.0
  0
VERTEX
  5
3005
  8
0
 62
     0
 10
203.350246
 20
236.5967
 30
0.0
  0
VERTEX
  5
3006
  8
0
 62
     0
 10
203.677384
 20
236.609183
 30
0.0
  0
VERTEX
  5
3007
  8
0
 62
     0
 10
204.030798
 20
236.621526
 30
0.0
  0
VERTEX
  5
3008
  8
0
 62
     0
 10
204.412599
 20
236.633643
 30
0.0
  0
VERTEX
  5
3009
  8
0
 62
     0
 10
204.825098
 20
236.64543
 30
0.0
  0
VERTEX
  5
300A
  8
0
 62
     0
 10
205.270776
 20
236.656762
 30
0.0
  0
VERTEX
  5
300B
  8
0
 62
     0
 10
205.75235
 20
236.667488
 30
0.0
  0
VERTEX
  5
300C
  8
0
 62
     0
 10
206.272743
 20
236.677426
 30
0.0
  0
VERTEX
  5
300D
  8
0
 62
     0
 10
206.835156
 20
236.686356
 30
0.0
  0
VERTEX
  5
300E
  8
0
 62
     0
 10
207.443061
 20
236.694008
 30
0.0
  0
VERTEX
  5
300F
  8
0
 62
     0
 10
208.100232
 20
236.700051
 30
0.0
  0
VERTEX
  5
3010
  8
0
 62
     0
 10
208.8108
 20
236.704072
 30
0.0
  0
VERTEX
  5
3011
  8
0
 62
     0
 10
209.579274
 20
236.70555
 30
0.0
  0
SEQEND
  5
3012
  8
0
 62
     0
  0
LINE
  5
28FA
  8
0
 62
     0
 10
176.079274
 20
219.29555
 30
0.0
 11
176.079274
 21
222.51555
 31
0.0
  0
LINE
  5
28FB
  8
0
 62
     0
 10
170.569274
 20
218.90555
 30
0.0
 11
175.689274
 21
218.90555
 31
0.0
  0
ARC
  5
28FC
  8
0
 62
     0
 10
175.689274
 20
219.29555
 30
0.0
 40
0.39
 50
270.0
 51
0.0
  0
ARC
  5
28FD
  8
0
 62
     0
 10
175.689274
 20
222.51555
 30
0.0
 40
0.39
 50
0.0
 51
90.0
  0
LINE
  5
28FE
  8
0
 62
     0
 10
201.579274
 20
190.20555
 30
0.0
 11
201.079274
 21
190.20555
 31
0.0
  0
ARC
  5
28FF
  8
0
 62
     0
 10
201.779274
 20
213.10555
 30
0.0
 40
0.2
 50
90.0
 51
180.0
  0
LINE
  5
2900
  8
0
 62
     0
 10
204.079274
 20
213.60555
 30
0.0
 11
204.079274
 21
213.30555
 31
0.0
  0
LINE
  5
2901
  8
0
 62
     0
 10
203.879274
 20
214.10555
 30
0.0
 11
203.879274
 21
213.30555
 31
0.0
  0
LINE
  5
2902
  8
0
 62
     0
 10
203.079274
 20
214.10555
 30
0.0
 11
203.079274
 21
213.30555
 31
0.0
  0
ARC
  5
2903
  8
0
 62
     0
 10
207.579274
 20
228.316543
 30
0.0
 40
19.0
 50
0.471844
 51
14.036243
  0
POLYLINE
  5
2904
  8
0
 62
     0
 66
     1
 10
0.0
 20
0.0
 30
0.0
  0
VERTEX
  5
3013
  8
0
 62
     0
 10
240.579269
 20
227.756013
 30
0.0
  0
VERTEX
  5
3014
  8
0
 62
     0
 10
240.570509
 20
227.927252
 30
0.0
  0
VERTEX
  5
3015
  8
0
 62
     0
 10
240.365613
 20
228.684838
 30
0.0
  0
VERTEX
  5
3016
  8
0
 62
     0
 10
239.890138
 20
229.577338
 30
0.0
  0
VERTEX
  5
3017
  8
0
 62
     0
 10
239.145037
 20
230.605684
 30
0.0
  0
VERTEX
  5
3018
  8
0
 62
     0
 10
238.151465
 20
231.745189
 30
0.0
  0
SEQEND
  5
3019
  8
0
 62
     0
  0
LINE
  5
2905
  8
0
 62
     0
 10
226.011982
 20
227.607286
 30
0.0
 11
226.011982
 21
232.92472
 31
0.0
  0
LINE
  5
2906
  8
0
 62
     0
 10
225.879274
 20
216.95555
 30
0.0
 11
225.879274
 21
233.45555
 31
0.0
  0
LINE
  5
2907
  8
0
 62
     0
 10
224.179274
 20
218.147371
 30
0.0
 11
224.179274
 21
232.263666
 31
0.0
  0
LINE
  5
2908
  8
0
 62
     0
 10
223.879274
 20
220.736625
 30
0.0
 11
223.879274
 21
229.674476
 31
0.0
  0
LINE
  5
2909
  8
0
 62
     0
 10
223.277996
 20
214.10555
 30
0.0
 11
223.277996
 21
236.20555
 31
0.0
  0
LINE
  5
290A
  8
0
 62
     0
 10
222.291852
 20
214.10555
 30
0.0
 11
222.291852
 21
236.70555
 31
0.0
  0
POLYLINE
  5
290B
  8
0
 62
     0
 66
     1
 10
0.0
 20
0.0
 30
0.0
  0
VERTEX
  5
301A
  8
0
 62
     0
 10
239.748955
 20
226.987991
 30
0.0
  0
VERTEX
  5
301B
  8
0
 62
     0
 10
240.169011
 20
227.305832
 30
0.0
  0
VERTEX
  5
301C
  8
0
 62
     0
 10
240.366206
 20
227.749635
 30
0.0
  0
VERTEX
  5
301D
  8
0
 62
     0
 10
240.340786
 20
228.318301
 30
0.0
  0
VERTEX
  5
301E
  8
0
 62
     0
 10
240.092778
 20
229.010276
 30
0.0
  0
VERTEX
  5
301F
  8
0
 62
     0
 10
239.621851
 20
229.823408
 30
0.0
  0
VERTEX
  5
3020
  8
0
 62
     0
 10
238.927461
 20
230.754789
 30
0.0
  0
SEQEND
  5
3021
  8
0
 62
     0
  0
POLYLINE
  5
290C
  8
0
 62
     0
 66
     1
 10
0.0
 20
0.0
 30
0.0
  0
VERTEX
  5
3022
  8
0
 62
     0
 10
239.748848
 20
226.819893
 30
0.0
  0
VERTEX
  5
3023
  8
0
 62
     0
 10
235.160666
 20
226.896854
 30
0.0
  0
VERTEX
  5
3024
  8
0
 62
     0
 10
230.537522
 20
226.974442
 30
0.0
  0
VERTEX
  5
3025
  8
0
 62
     0
 10
225.879274
 20
227.052659
 30
0.0
  0
SEQEND
  5
3026
  8
0
 62
     0
  0
POLYLINE
  5
290D
  8
0
 62
     0
 66
     1
 10
0.0
 20
0.0
 30
0.0
  0
VERTEX
  5
3027
  8
0
 62
     0
 10
239.748955
 20
226.987991
 30
0.0
  0
VERTEX
  5
3028
  8
0
 62
     0
 10
235.160665
 20
227.063716
 30
0.0
  0
VERTEX
  5
3029
  8
0
 62
     0
 10
230.537521
 20
227.140076
 30
0.0
  0
VERTEX
  5
302A
  8
0
 62
     0
 10
225.879274
 20
227.217074
 30
0.0
  0
SEQEND
  5
302B
  8
0
 62
     0
  0
LINE
  5
290E
  8
0
 62
     0
 10
225.879274
 20
224.30411
 30
0.0
 11
239.679459
 21
224.399986
 31
0.0
  0
LINE
  5
290F
  8
0
 62
     0
 10
225.879274
 20
222.47048
 30
0.0
 11
239.67946
 21
222.46035
 31
0.0
  0
POLYLINE
  5
2910
  8
0
 62
     0
 66
     1
 10
0.0
 20
0.0
 30
0.0
  0
VERTEX
  5
302C
  8
0
 62
     0
 10
225.879274
 20
219.830759
 30
0.0
  0
VERTEX
  5
302D
  8
0
 62
     0
 10
230.518905
 20
219.926342
 30
0.0
  0
VERTEX
  5
302E
  8
0
 62
     0
 10
235.187794
 20
220.022615
 30
0.0
  0
VERTEX
  5
302F
  8
0
 62
     0
 10
239.749533
 20
220.116765
 30
0.0
  0
SEQEND
  5
3030
  8
0
 62
     0
  0
POLYLINE
  5
2911
  8
0
 62
     0
 66
     1
 10
0.0
 20
0.0
 30
0.0
  0
VERTEX
  5
3031
  8
0
 62
     0
 10
225.879274
 20
219.930383
 30
0.0
  0
VERTEX
  5
3032
  8
0
 62
     0
 10
230.537522
 20
220.027427
 30
0.0
  0
VERTEX
  5
3033
  8
0
 62
     0
 10
235.160666
 20
220.123846
 30
0.0
  0
VERTEX
  5
3034
  8
0
 62
     0
 10
239.748834
 20
220.219641
 30
0.0
  0
SEQEND
  5
3035
  8
0
 62
     0
  0
POLYLINE
  5
2912
  8
0
 62
     0
 66
     1
 10
0.0
 20
0.0
 30
0.0
  0
VERTEX
  5
3036
  8
0
 62
     0
 10
225.078961
 20
205.810142
 30
0.0
  0
VERTEX
  5
3037
  8
0
 62
     0
 10
225.079168
 20
205.882639
 30
0.0
  0
VERTEX
  5
3038
  8
0
 62
     0
 10
225.079272
 20
205.950941
 30
0.0
  0
VERTEX
  5
3039
  8
0
 62
     0
 10
225.079274
 20
213.00555
 30
0.0
  0
SEQEND
  5
303A
  8
0
 62
     0
  0
LINE
  5
2913
  8
0
 62
     0
 10
223.241603
 20
213.00555
 30
0.0
 11
223.241603
 21
199.00555
 31
0.0
  0
LINE
  5
2914
  8
0
 62
     0
 10
222.256016
 20
198.650494
 30
0.0
 11
222.256016
 21
213.30555
 31
0.0
  0
LINE
  5
2915
  8
0
 62
     0
 10
222.256016
 20
198.950083
 30
0.0
 11
212.779274
 21
198.950083
 31
0.0
  0
LINE
  5
2916
  8
0
 62
     0
 10
222.256016
 20
198.650494
 30
0.0
 11
213.4777
 21
198.650494
 31
0.0
  0
LINE
  5
2917
  8
0
 62
     0
 10
220.479274
 20
198.633949
 30
0.0
 11
213.695789
 21
198.633949
 31
0.0
  0
LINE
  5
2918
  8
0
 62
     0
 10
217.9644
 20
198.20555
 30
0.0
 11
223.213056
 21
198.20555
 31
0.0
  0
LINE
  5
2919
  8
0
 62
     0
 10
218.144537
 20
197.90555
 30
0.0
 11
223.358336
 21
197.90555
 31
0.0
  0
ARC
  5
291A
  8
0
 62
     0
 10
215.279274
 20
197.20555
 30
0.0
 40
1.0
 50
104.577672
 51
180.0
  0
LINE
  5
291B
  8
0
 62
     0
 10
213.879274
 20
197.306117
 30
0.0
 11
214.243244
 21
196.306117
 31
0.0
  0
LINE
  5
291C
  8
0
 62
     0
 10
214.279274
 20
195.70555
 30
0.0
 11
213.779274
 21
195.70555
 31
0.0
  0
LINE
  5
291D
  8
0
 62
     0
 10
214.279274
 20
195.40555
 30
0.0
 11
213.779274
 21
195.40555
 31
0.0
  0
LINE
  5
291E
  8
0
 62
     0
 10
213.879274
 20
197.306117
 30
0.0
 11
213.879274
 21
198.633949
 31
0.0
  0
LINE
  5
291F
  8
0
 62
     0
 10
213.695789
 20
198.633949
 30
0.0
 11
213.695789
 21
198.456074
 31
0.0
  0
POLYLINE
  5
2920
  8
0
 62
     0
 66
     1
 10
0.0
 20
0.0
 30
0.0
  0
VERTEX
  5
303B
  8
0
 62
     0
 10
213.477681
 20
198.650494
 30
0.0
  0
VERTEX
  5
303C
  8
0
 62
     0
 10
213.315867
 20
198.686816
 30
0.0
  0
VERTEX
  5
303D
  8
0
 62
     0
 10
213.141816
 20
198.759844
 30
0.0
  0
VERTEX
  5
303E
  8
0
 62
     0
 10
212.961354
 20
198.85134
 30
0.0
  0
VERTEX
  5
303F
  8
0
 62
     0
 10
212.779274
 20
198.950083
 30
0.0
  0
SEQEND
  5
3040
  8
0
 62
     0
  0
POLYLINE
  5
2921
  8
0
 62
     0
 66
     1
 10
0.0
 20
0.0
 30
0.0
  0
VERTEX
  5
3041
  8
0
 62
     0
 10
213.695789
 20
198.456074
 30
0.0
  0
VERTEX
  5
3042
  8
0
 62
     0
 10
213.741867
 20
198.450519
 30
0.0
  0
VERTEX
  5
3043
  8
0
 62
     0
 10
213.769876
 20
198.444222
 30
0.0
  0
VERTEX
  5
3044
  8
0
 62
     0
 10
213.779274
 20
198.4373
 30
0.0
  0
SEQEND
  5
3045
  8
0
 62
     0
  0
POLYLINE
  5
2922
  8
0
 62
     0
 66
     1
 10
0.0
 20
0.0
 30
0.0
  0
VERTEX
  5
3046
  8
0
 62
     0
 10
213.4777
 20
198.650494
 30
0.0
  0
VERTEX
  5
3047
  8
0
 62
     0
 10
213.601284
 20
198.642831
 30
0.0
  0
VERTEX
  5
3048
  8
0
 62
     0
 10
213.695789
 20
198.633949
 30
0.0
  0
SEQEND
  5
3049
  8
0
 62
     0
  0
LINE
  5
2923
  8
0
 62
     0
 10
213.879274
 20
198.379653
 30
0.0
 11
213.779274
 21
198.377031
 31
0.0
  0
ARC
  5
2924
  8
0
 62
     0
 10
216.779274
 20
198.73985
 30
0.0
 40
1.6
 50
243.0
 51
328.571288
  0
ARC
  5
2925
  8
0
 62
     0
 10
216.779274
 20
198.73985
 30
0.0
 40
1.3
 50
243.0
 51
335.732347
  0
ARC
  5
2926
  8
0
 62
     0
 10
215.279274
 20
197.20555
 30
0.0
 40
0.7
 50
113.202134
 51
180.0
  0
LINE
  5
2927
  8
0
 62
     0
 10
216.189086
 20
197.581541
 30
0.0
 11
215.027582
 21
198.173358
 31
0.0
  0
LINE
  5
2928
  8
0
 62
     0
 10
216.052889
 20
197.314239
 30
0.0
 11
215.003491
 21
197.848935
 31
0.0
  0
POLYLINE
  5
2929
  8
0
 62
     0
 66
     1
 10
0.0
 20
0.0
 30
0.0
  0
VERTEX
  5
304A
  8
0
 62
     0
 10
215.003491
 20
197.848935
 30
0.0
  0
VERTEX
  5
304B
  8
0
 62
     0
 10
215.009441
 20
197.968012
 30
0.0
  0
VERTEX
  5
304C
  8
0
 62
     0
 10
215.01762
 20
198.073078
 30
0.0
  0
VERTEX
  5
304D
  8
0
 62
     0
 10
215.024727
 20
198.146524
 30
0.0
  0
VERTEX
  5
304E
  8
0
 62
     0
 10
215.027582
 20
198.173358
 30
0.0
  0
SEQEND
  5
304F
  8
0
 62
     0
  0
LINE
  5
292A
  8
0
 62
     0
 10
214.579274
 20
197.20555
 30
0.0
 11
214.279274
 21
197.20555
 31
0.0
  0
LINE
  5
292B
  8
0
 62
     0
 10
214.279274
 20
196.306117
 30
0.0
 11
214.243244
 21
196.306117
 31
0.0
  0
LINE
  5
292C
  8
0
 62
     0
 10
216.052889
 20
197.314239
 30
0.0
 11
216.189086
 21
197.581541
 31
0.0
  0
POLYLINE
  5
292D
  8
0
 62
     0
 66
     1
 10
0.0
 20
0.0
 30
0.0
  0
VERTEX
  5
3050
  8
0
 62
     0
 10
217.9644
 20
198.20555
 30
0.0
  0
VERTEX
  5
3051
  8
0
 62
     0
 10
217.975528
 20
198.188245
 30
0.0
  0
VERTEX
  5
3052
  8
0
 62
     0
 10
218.004983
 20
198.141662
 30
0.0
  0
VERTEX
  5
3053
  8
0
 62
     0
 10
218.046615
 20
198.073887
 30
0.0
  0
VERTEX
  5
3054
  8
0
 62
     0
 10
218.09482
 20
197.992584
 30
0.0
  0
VERTEX
  5
3055
  8
0
 62
     0
 10
218.144537
 20
197.90555
 30
0.0
  0
SEQEND
  5
3056
  8
0
 62
     0
  0
LINE
  5
292E
  8
0
 62
     0
 10
225.004878
 20
199.824225
 30
0.0
 11
225.007242
 21
200.037363
 31
0.0
  0
LINE
  5
292F
  8
0
 62
     0
 10
224.996356
 20
199.00555
 30
0.0
 11
225.00752
 21
200.078584
 31
0.0
  0
LINE
  5
2930
  8
0
 62
     0
 10
224.996356
 20
199.00555
 30
0.0
 11
225.007804
 21
200.103532
 31
0.0
  0
POLYLINE
  5
2931
  8
0
 62
     0
 66
     1
 10
0.0
 20
0.0
 30
0.0
  0
VERTEX
  5
3057
  8
0
 62
     0
 10
224.416868
 20
198.433953
 30
0.0
  0
VERTEX
  5
3058
  8
0
 62
     0
 10
224.535699
 20
198.030149
 30
0.0
  0
VERTEX
  5
3059
  8
0
 62
     0
 10
224.656005
 20
197.538258
 30
0.0
  0
VERTEX
  5
305A
  8
0
 62
     0
 10
224.762354
 20
196.972512
 30
0.0
  0
VERTEX
  5
305B
  8
0
 62
     0
 10
224.841267
 20
196.347407
 30
0.0
  0
VERTEX
  5
305C
  8
0
 62
     0
 10
224.881852
 20
195.679022
 30
0.0
  0
VERTEX
  5
305D
  8
0
 62
     0
 10
224.876654
 20
194.984809
 30
0.0
  0
VERTEX
  5
305E
  8
0
 62
     0
 10
224.822279
 20
194.28307
 30
0.0
  0
VERTEX
  5
305F
  8
0
 62
     0
 10
224.71972
 20
193.592258
 30
0.0
  0
VERTEX
  5
3060
  8
0
 62
     0
 10
224.574342
 20
192.930172
 30
0.0
  0
VERTEX
  5
3061
  8
0
 62
     0
 10
224.39551
 20
192.313175
 30
0.0
  0
VERTEX
  5
3062
  8
0
 62
     0
 10
224.195947
 20
191.75576
 30
0.0
  0
VERTEX
  5
3063
  8
0
 62
     0
 10
223.990905
 20
191.270405
 30
0.0
  0
VERTEX
  5
3064
  8
0
 62
     0
 10
223.797769
 20
190.868859
 30
0.0
  0
SEQEND
  5
3065
  8
0
 62
     0
  0
POLYLINE
  5
2932
  8
0
 62
     0
 66
     1
 10
0.0
 20
0.0
 30
0.0
  0
VERTEX
  5
3066
  8
0
 62
     0
 10
224.135654
 20
198.344636
 30
0.0
  0
VERTEX
  5
3067
  8
0
 62
     0
 10
224.251073
 20
197.952849
 30
0.0
  0
VERTEX
  5
3068
  8
0
 62
     0
 10
224.36795
 20
197.475502
 30
0.0
  0
VERTEX
  5
3069
  8
0
 62
     0
 10
224.471273
 20
196.92646
 30
0.0
  0
VERTEX
  5
306A
  8
0
 62
     0
 10
224.547946
 20
196.319782
 30
0.0
  0
VERTEX
  5
306B
  8
0
 62
     0
 10
224.587384
 20
195.671074
 30
0.0
  0
VERTEX
  5
306C
  8
0
 62
     0
 10
224.582337
 20
194.997278
 30
0.0
  0
VERTEX
  5
306D
  8
0
 62
     0
 10
224.529506
 20
194.316172
 30
0.0
  0
VERTEX
  5
306E
  8
0
 62
     0
 10
224.429857
 20
193.645688
 30
0.0
  0
VERTEX
  5
306F
  8
0
 62
     0
 10
224.288611
 20
193.003125
 30
0.0
  0
VERTEX
  5
3070
  8
0
 62
     0
 10
224.114875
 20
192.404367
 30
0.0
  0
VERTEX
  5
3071
  8
0
 62
     0
 10
223.921015
 20
191.863476
 30
0.0
  0
VERTEX
  5
3072
  8
0
 62
     0
 10
223.721849
 20
191.392545
 30
0.0
  0
VERTEX
  5
3073
  8
0
 62
     0
 10
223.534298
 20
191.003032
 30
0.0
  0
SEQEND
  5
3074
  8
0
 62
     0
  0
POLYLINE
  5
2933
  8
0
 62
     0
 66
     1
 10
0.0
 20
0.0
 30
0.0
  0
VERTEX
  5
3075
  8
0
 62
     0
 10
223.938143
 20
198.785032
 30
0.0
  0
VERTEX
  5
3076
  8
0
 62
     0
 10
224.000748
 20
198.781463
 30
0.0
  0
VERTEX
  5
3077
  8
0
 62
     0
 10
224.125747
 20
198.749484
 30
0.0
  0
VERTEX
  5
3078
  8
0
 62
     0
 10
224.234719
 20
198.68908
 30
0.0
  0
VERTEX
  5
3079
  8
0
 62
     0
 10
224.320554
 20
198.609217
 30
0.0
  0
VERTEX
  5
307A
  8
0
 62
     0
 10
224.380624
 20
198.520766
 30
0.0
  0
VERTEX
  5
307B
  8
0
 62
     0
 10
224.416867
 20
198.433953
 30
0.0
  0
SEQEND
  5
307C
  8
0
 62
     0
  0
LINE
  5
2934
  8
0
 62
     0
 10
223.007883
 20
199.00555
 30
0.0
 11
224.996356
 21
199.00555
 31
0.0
  0
LINE
  5
2935
  8
0
 62
     0
 10
225.102304
 20
198.792091
 30
0.0
 11
223.937611
 21
198.785029
 31
0.0
  0
LINE
  5
2936
  8
0
 62
     0
 10
225.909175
 20
190.859923
 30
0.0
 11
223.797769
 21
190.868859
 31
0.0
  0
LINE
  5
2937
  8
0
 62
     0
 10
224.840366
 20
190.20555
 30
0.0
 11
222.530715
 21
190.20555
 31
0.0
  0
POLYLINE
  5
2938
  8
0
 62
     0
 66
     1
 10
0.0
 20
0.0
 30
0.0
  0
VERTEX
  5
307D
  8
0
 62
     0
 10
223.789233
 20
198.418171
 30
0.0
  0
VERTEX
  5
307E
  8
0
 62
     0
 10
223.820435
 20
198.446066
 30
0.0
  0
VERTEX
  5
307F
  8
0
 62
     0
 10
223.862252
 20
198.46939
 30
0.0
  0
VERTEX
  5
3080
  8
0
 62
     0
 10
223.912275
 20
198.483012
 30
0.0
  0
VERTEX
  5
3081
  8
0
 62
     0
 10
223.96564
 20
198.483609
 30
0.0
  0
VERTEX
  5
3082
  8
0
 62
     0
 10
224.016741
 20
198.470805
 30
0.0
  0
VERTEX
  5
3083
  8
0
 62
     0
 10
224.061265
 20
198.446639
 30
0.0
  0
VERTEX
  5
3084
  8
0
 62
     0
 10
224.096321
 20
198.414705
 30
0.0
  0
VERTEX
  5
3085
  8
0
 62
     0
 10
224.120852
 20
198.379345
 30
0.0
  0
VERTEX
  5
3086
  8
0
 62
     0
 10
224.135654
 20
198.344636
 30
0.0
  0
SEQEND
  5
3087
  8
0
 62
     0
  0
LINE
  5
2939
  8
0
 62
     0
 10
222.714394
 20
190.20555
 30
0.0
 11
222.714394
 21
190.50555
 31
0.0
  0
LINE
  5
293A
  8
0
 62
     0
 10
222.530709
 20
190.20555
 30
0.0
 11
222.530709
 21
190.50555
 31
0.0
  0
LINE
  5
293B
  8
0
 62
     0
 10
223.797769
 20
190.868859
 30
0.0
 11
223.534298
 21
191.003032
 31
0.0
  0
LINE
  5
293C
  8
0
 62
     0
 10
222.340854
 20
190.220257
 30
0.0
 11
222.387076
 21
190.516679
 31
0.0
  0
POLYLINE
  5
293D
  8
0
 62
     0
 66
     1
 10
0.0
 20
0.0
 30
0.0
  0
VERTEX
  5
3088
  8
0
 62
     0
 10
223.534298
 20
191.003032
 30
0.0
  0
VERTEX
  5
3089
  8
0
 62
     0
 10
223.493244
 20
190.930899
 30
0.0
  0
VERTEX
  5
308A
  8
0
 62
     0
 10
223.43684
 20
190.851542
 30
0.0
  0
VERTEX
  5
308B
  8
0
 62
     0
 10
223.364144
 20
190.770662
 30
0.0
  0
VERTEX
  5
308C
  8
0
 62
     0
 10
223.275613
 20
190.693915
 30
0.0
  0
VERTEX
  5
308D
  8
0
 62
     0
 10
223.173365
 20
190.626467
 30
0.0
  0
VERTEX
  5
308E
  8
0
 62
     0
 10
223.061091
 20
190.572391
 30
0.0
  0
VERTEX
  5
308F
  8
0
 62
     0
 10
222.943622
 20
190.534138
 30
0.0
  0
VERTEX
  5
3090
  8
0
 62
     0
 10
222.826281
 20
190.512278
 30
0.0
  0
VERTEX
  5
3091
  8
0
 62
     0
 10
222.714394
 20
190.50555
 30
0.0
  0
SEQEND
  5
3092
  8
0
 62
     0
  0
POLYLINE
  5
293E
  8
0
 62
     0
 66
     1
 10
0.0
 20
0.0
 30
0.0
  0
VERTEX
  5
3093
  8
0
 62
     0
 10
223.797769
 20
190.868859
 30
0.0
  0
VERTEX
  5
3094
  8
0
 62
     0
 10
223.743528
 20
190.772698
 30
0.0
  0
VERTEX
  5
3095
  8
0
 62
     0
 10
223.669023
 20
190.666923
 30
0.0
  0
VERTEX
  5
3096
  8
0
 62
     0
 10
223.573
 20
190.559111
 30
0.0
  0
VERTEX
  5
3097
  8
0
 62
     0
 10
223.456044
 20
190.456786
 30
0.0
  0
VERTEX
  5
3098
  8
0
 62
     0
 10
223.320941
 20
190.366838
 30
0.0
  0
VERTEX
  5
3099
  8
0
 62
     0
 10
223.172571
 20
190.294709
 30
0.0
  0
VERTEX
  5
309A
  8
0
 62
     0
 10
223.017331
 20
190.243685
 30
0.0
  0
VERTEX
  5
309B
  8
0
 62
     0
 10
222.862279
 20
190.214527
 30
0.0
  0
VERTEX
  5
309C
  8
0
 62
     0
 10
222.714394
 20
190.205551
 30
0.0
  0
SEQEND
  5
309D
  8
0
 62
     0
  0
POLYLINE
  5
293F
  8
0
 62
     0
 66
     1
 10
0.0
 20
0.0
 30
0.0
  0
VERTEX
  5
309E
  8
0
 62
     0
 10
222.340858
 20
190.220279
 30
0.0
  0
VERTEX
  5
309F
  8
0
 62
     0
 10
222.384277
 20
190.214313
 30
0.0
  0
VERTEX
  5
30A0
  8
0
 62
     0
 10
222.486981
 20
190.206366
 30
0.0
  0
VERTEX
  5
30A1
  8
0
 62
     0
 10
222.530709
 20
190.20558
 30
0.0
  0
SEQEND
  5
30A2
  8
0
 62
     0
  0
POLYLINE
  5
2940
  8
0
 62
     0
 66
     1
 10
0.0
 20
0.0
 30
0.0
  0
VERTEX
  5
30A3
  8
0
 62
     0
 10
222.530709
 20
190.50555
 30
0.0
  0
VERTEX
  5
30A4
  8
0
 62
     0
 10
222.458409
 20
190.508392
 30
0.0
  0
VERTEX
  5
30A5
  8
0
 62
     0
 10
222.387076
 20
190.516679
 30
0.0
  0
SEQEND
  5
30A6
  8
0
 62
     0
  0
LINE
  5
2941
  8
0
 62
     0
 10
222.714394
 20
190.50555
 30
0.0
 11
222.530709
 21
190.50555
 31
0.0
  0
LINE
  5
2942
  8
0
 62
     0
 10
220.479274
 20
198.552717
 30
0.0
 11
222.673946
 21
198.552717
 31
0.0
  0
LINE
  5
2943
  8
0
 62
     0
 10
220.479274
 20
198.633949
 30
0.0
 11
220.479274
 21
198.552717
 31
0.0
  0
LINE
  5
2944
  8
0
 62
     0
 10
220.379274
 20
198.633949
 30
0.0
 11
220.379274
 21
198.20555
 31
0.0
  0
LINE
  5
2945
  8
0
 62
     0
 10
220.459316
 20
198.636666
 30
0.0
 11
220.448461
 21
198.556911
 31
0.0
  0
LINE
  5
2946
  8
0
 62
     0
 10
220.459324
 20
198.636665
 30
0.0
 11
220.448468
 21
198.55691
 31
0.0
  0
LINE
  5
2947
  8
0
 62
     0
 10
220.479274
 20
198.552717
 30
0.0
 11
220.379274
 21
198.550095
 31
0.0
  0
LINE
  5
2948
  8
0
 62
     0
 10
222.622993
 20
198.664161
 30
0.0
 11
222.630718
 21
198.644796
 31
0.0
  0
POLYLINE
  5
2949
  8
0
 62
     0
 66
     1
 10
0.0
 20
0.0
 30
0.0
  0
VERTEX
  5
30A7
  8
0
 62
     0
 10
223.213056
 20
198.20555
 30
0.0
  0
VERTEX
  5
30A8
  8
0
 62
     0
 10
223.225317
 20
198.179988
 30
0.0
  0
VERTEX
  5
30A9
  8
0
 62
     0
 10
223.258376
 20
198.111293
 30
0.0
  0
VERTEX
  5
30AA
  8
0
 62
     0
 10
223.305251
 20
198.014442
 30
0.0
  0
VERTEX
  5
30AB
  8
0
 62
     0
 10
223.358336
 20
197.90555
 30
0.0
  0
SEQEND
  5
30AC
  8
0
 62
     0
  0
LINE
  5
294A
  8
0
 62
     0
 10
223.567196
 20
198.619911
 30
0.0
 11
223.789233
 21
198.418171
 31
0.0
  0
LINE
  5
294B
  8
0
 62
     0
 10
222.673554
 20
198.70555
 30
0.0
 11
222.661571
 21
198.716115
 31
0.0
  0
POLYLINE
  5
294C
  8
0
 62
     0
 66
     1
 10
0.0
 20
0.0
 30
0.0
  0
VERTEX
  5
30AD
  8
0
 62
     0
 10
222.72236
 20
198.611132
 30
0.0
  0
VERTEX
  5
30AE
  8
0
 62
     0
 10
222.810815
 20
198.577426
 30
0.0
  0
VERTEX
  5
30AF
  8
0
 62
     0
 10
222.896076
 20
198.543677
 30
0.0
  0
SEQEND
  5
30B0
  8
0
 62
     0
  0
POLYLINE
  5
294D
  8
0
 62
     0
 66
     1
 10
0.0
 20
0.0
 30
0.0
  0
VERTEX
  5
30B1
  8
0
 62
     0
 10
222.630715
 20
198.644796
 30
0.0
  0
VERTEX
  5
30B2
  8
0
 62
     0
 10
222.726382
 20
198.609626
 30
0.0
  0
VERTEX
  5
30B3
  8
0
 62
     0
 10
222.818568
 20
198.57441
 30
0.0
  0
VERTEX
  5
30B4
  8
0
 62
     0
 10
222.907267
 20
198.539148
 30
0.0
  0
SEQEND
  5
30B5
  8
0
 62
     0
  0
POLYLINE
  5
294E
  8
0
 62
     0
 66
     1
 10
0.0
 20
0.0
 30
0.0
  0
VERTEX
  5
30B6
  8
0
 62
     0
 10
223.241603
 20
199.00555
 30
0.0
  0
VERTEX
  5
30B7
  8
0
 62
     0
 10
223.219096
 20
198.890745
 30
0.0
  0
VERTEX
  5
30B8
  8
0
 62
     0
 10
223.155001
 20
198.793418
 30
0.0
  0
SEQEND
  5
30B9
  8
0
 62
     0
  0
POLYLINE
  5
294F
  8
0
 62
     0
 66
     1
 10
0.0
 20
0.0
 30
0.0
  0
VERTEX
  5
30BA
  8
0
 62
     0
 10
222.661571
 20
198.716115
 30
0.0
  0
VERTEX
  5
30BB
  8
0
 62
     0
 10
222.665342
 20
198.748604
 30
0.0
  0
VERTEX
  5
30BC
  8
0
 62
     0
 10
222.68458
 20
198.80061
 30
0.0
  0
VERTEX
  5
30BD
  8
0
 62
     0
 10
222.717247
 20
198.867098
 30
0.0
  0
VERTEX
  5
30BE
  8
0
 62
     0
 10
222.788303
 20
199.00555
 30
0.0
  0
SEQEND
  5
30BF
  8
0
 62
     0
  0
POLYLINE
  5
2950
  8
0
 62
     0
 66
     1
 10
0.0
 20
0.0
 30
0.0
  0
VERTEX
  5
30C0
  8
0
 62
     0
 10
222.665331
 20
198.748562
 30
0.0
  0
VERTEX
  5
30C1
  8
0
 62
     0
 10
222.684563
 20
198.80057
 30
0.0
  0
VERTEX
  5
30C2
  8
0
 62
     0
 10
222.71724
 20
198.867086
 30
0.0
  0
VERTEX
  5
30C3
  8
0
 62
     0
 10
222.788302
 20
199.00555
 30
0.0
  0
SEQEND
  5
30C4
  8
0
 62
     0
  0
POLYLINE
  5
2951
  8
0
 62
     0
 66
     1
 10
0.0
 20
0.0
 30
0.0
  0
VERTEX
  5
30C5
  8
0
 62
     0
 10
222.630715
 20
198.644796
 30
0.0
  0
VERTEX
  5
30C6
  8
0
 62
     0
 10
222.450319
 20
198.649053
 30
0.0
  0
VERTEX
  5
30C7
  8
0
 62
     0
 10
222.256016
 20
198.650494
 30
0.0
  0
SEQEND
  5
30C8
  8
0
 62
     0
  0
POLYLINE
  5
2952
  8
0
 62
     0
 66
     1
 10
0.0
 20
0.0
 30
0.0
  0
VERTEX
  5
30C9
  8
0
 62
     0
 10
222.673946
 20
198.552717
 30
0.0
  0
VERTEX
  5
30CA
  8
0
 62
     0
 10
222.758981
 20
198.551961
 30
0.0
  0
VERTEX
  5
30CB
  8
0
 62
     0
 10
222.827954
 20
198.549936
 30
0.0
  0
VERTEX
  5
30CC
  8
0
 62
     0
 10
222.874743
 20
198.547027
 30
0.0
  0
VERTEX
  5
30CD
  8
0
 62
     0
 10
222.896076
 20
198.543677
 30
0.0
  0
SEQEND
  5
30CE
  8
0
 62
     0
  0
POLYLINE
  5
2953
  8
0
 62
     0
 66
     1
 10
0.0
 20
0.0
 30
0.0
  0
VERTEX
  5
30CF
  8
0
 62
     0
 10
222.574319
 20
198.552717
 30
0.0
  0
VERTEX
  5
30D0
  8
0
 62
     0
 10
222.699882
 20
198.551617
 30
0.0
  0
VERTEX
  5
30D1
  8
0
 62
     0
 10
222.803104
 20
198.54863
 30
0.0
  0
VERTEX
  5
30D2
  8
0
 62
     0
 10
222.875218
 20
198.544185
 30
0.0
  0
VERTEX
  5
30D3
  8
0
 62
     0
 10
222.907267
 20
198.539148
 30
0.0
  0
SEQEND
  5
30D4
  8
0
 62
     0
  0
LINE
  5
2954
  8
0
 62
     0
 10
222.673558
 20
198.70555
 30
0.0
 11
223.681061
 21
198.70555
 31
0.0
  0
POLYLINE
  5
2955
  8
0
 62
     0
 66
     1
 10
0.0
 20
0.0
 30
0.0
  0
VERTEX
  5
30D5
  8
0
 62
     0
 10
222.76088
 20
198.945064
 30
0.0
  0
VERTEX
  5
30D6
  8
0
 62
     0
 10
222.704793
 20
198.854589
 30
0.0
  0
VERTEX
  5
30D7
  8
0
 62
     0
 10
222.661956
 20
198.774289
 30
0.0
  0
VERTEX
  5
30D8
  8
0
 62
     0
 10
222.633905
 20
198.708853
 30
0.0
  0
SEQEND
  5
30D9
  8
0
 62
     0
  0
POLYLINE
  5
2956
  8
0
 62
     0
 66
     1
 10
0.0
 20
0.0
 30
0.0
  0
VERTEX
  5
30DA
  8
0
 62
     0
 10
222.76088
 20
198.945064
 30
0.0
  0
VERTEX
  5
30DB
  8
0
 62
     0
 10
222.704809
 20
198.854617
 30
0.0
  0
VERTEX
  5
30DC
  8
0
 62
     0
 10
222.661963
 20
198.774303
 30
0.0
  0
VERTEX
  5
30DD
  8
0
 62
     0
 10
222.633902
 20
198.708846
 30
0.0
  0
VERTEX
  5
30DE
  8
0
 62
     0
 10
222.622993
 20
198.664161
 30
0.0
  0
SEQEND
  5
30DF
  8
0
 62
     0
  0
LINE
  5
2957
  8
0
 62
     0
 10
222.896075
 20
198.543677
 30
0.0
 11
222.712276
 21
198.20555
 31
0.0
  0
LINE
  5
2958
  8
0
 62
     0
 10
222.907267
 20
198.539148
 30
0.0
 11
222.727458
 21
198.20555
 31
0.0
  0
LINE
  5
2959
  8
0
 62
     0
 10
222.673946
 20
198.552717
 30
0.0
 11
222.493908
 21
198.20555
 31
0.0
  0
LINE
  5
295A
  8
0
 62
     0
 10
222.574319
 20
198.552717
 30
0.0
 11
222.395743
 21
198.20555
 31
0.0
  0
POLYLINE
  5
295B
  8
0
 62
     0
 66
     1
 10
0.0
 20
0.0
 30
0.0
  0
VERTEX
  5
30E0
  8
0
 62
     0
 10
222.781321
 20
198.975307
 30
0.0
  0
VERTEX
  5
30E1
  8
0
 62
     0
 10
222.517036
 20
198.948811
 30
0.0
  0
VERTEX
  5
30E2
  8
0
 62
     0
 10
222.256016
 20
198.950083
 30
0.0
  0
SEQEND
  5
30E3
  8
0
 62
     0
  0
LINE
  5
295C
  8
0
 62
     0
 10
222.781321
 20
198.975307
 30
0.0
 11
222.517048
 21
198.948811
 31
0.0
  0
LINE
  5
295D
  8
0
 62
     0
 10
222.781321
 20
198.975307
 30
0.0
 11
223.007883
 21
199.00555
 31
0.0
  0
POLYLINE
  5
295E
  8
0
 62
     0
 66
     1
 10
0.0
 20
0.0
 30
0.0
  0
VERTEX
  5
30E4
  8
0
 62
     0
 10
223.937604
 20
198.785029
 30
0.0
  0
VERTEX
  5
30E5
  8
0
 62
     0
 10
223.787966
 20
198.761326
 30
0.0
  0
VERTEX
  5
30E6
  8
0
 62
     0
 10
223.632948
 20
198.680447
 30
0.0
  0
VERTEX
  5
30E7
  8
0
 62
     0
 10
223.567196
 20
198.619911
 30
0.0
  0
SEQEND
  5
30E8
  8
0
 62
     0
  0
LINE
  5
295F
  8
0
 62
     0
 10
223.059077
 20
198.728386
 30
0.0
 11
222.945927
 21
198.70555
 31
0.0
  0
POLYLINE
  5
2960
  8
0
 62
     0
 66
     1
 10
0.0
 20
0.0
 30
0.0
  0
VERTEX
  5
30E9
  8
0
 62
     0
 10
223.567199
 20
198.619909
 30
0.0
  0
VERTEX
  5
30EA
  8
0
 62
     0
 10
223.426318
 20
198.461112
 30
0.0
  0
VERTEX
  5
30EB
  8
0
 62
     0
 10
223.253897
 20
198.255998
 30
0.0
  0
VERTEX
  5
30EC
  8
0
 62
     0
 10
223.213056
 20
198.20555
 30
0.0
  0
SEQEND
  5
30ED
  8
0
 62
     0
  0
POLYLINE
  5
2961
  8
0
 62
     0
 66
     1
 10
0.0
 20
0.0
 30
0.0
  0
VERTEX
  5
30EE
  8
0
 62
     0
 10
223.358336
 20
197.90555
 30
0.0
  0
VERTEX
  5
30EF
  8
0
 62
     0
 10
223.568458
 20
198.165527
 30
0.0
  0
VERTEX
  5
30F0
  8
0
 62
     0
 10
223.789233
 20
198.418171
 30
0.0
  0
SEQEND
  5
30F1
  8
0
 62
     0
  0
LINE
  5
2962
  8
0
 62
     0
 10
223.155001
 20
198.793418
 30
0.0
 11
223.059077
 21
198.728386
 31
0.0
  0
ARC
  5
2963
  8
0
 62
     0
 10
224.779274
 20
194.30555
 30
0.0
 40
1.8
 50
304.541713
 51
44.154553
  0
POLYLINE
  5
2964
  8
0
 62
     0
 66
     1
 10
0.0
 20
0.0
 30
0.0
  0
VERTEX
  5
30F2
  8
0
 62
     0
 10
226.995542
 20
195.264454
 30
0.0
  0
VERTEX
  5
30F3
  8
0
 62
     0
 10
226.996723
 20
195.254306
 30
0.0
  0
VERTEX
  5
30F4
  8
0
 62
     0
 10
226.997294
 20
195.175348
 30
0.0
  0
VERTEX
  5
30F5
  8
0
 62
     0
 10
226.994016
 20
195.025172
 30
0.0
  0
VERTEX
  5
30F6
  8
0
 62
     0
 10
226.984584
 20
194.816601
 30
0.0
  0
VERTEX
  5
30F7
  8
0
 62
     0
 10
226.967155
 20
194.568896
 30
0.0
  0
VERTEX
  5
30F8
  8
0
 62
     0
 10
226.941565
 20
194.30555
 30
0.0
  0
SEQEND
  5
30F9
  8
0
 62
     0
  0
POLYLINE
  5
2965
  8
0
 62
     0
 66
     1
 10
0.0
 20
0.0
 30
0.0
  0
VERTEX
  5
30FA
  8
0
 62
     0
 10
225.849531
 20
192.053526
 30
0.0
  0
VERTEX
  5
30FB
  8
0
 62
     0
 10
225.812281
 20
192.192193
 30
0.0
  0
VERTEX
  5
30FC
  8
0
 62
     0
 10
225.79339
 20
192.379126
 30
0.0
  0
VERTEX
  5
30FD
  8
0
 62
     0
 10
225.788059
 20
192.605385
 30
0.0
  0
VERTEX
  5
30FE
  8
0
 62
     0
 10
225.793128
 20
192.865658
 30
0.0
  0
VERTEX
  5
30FF
  8
0
 62
     0
 10
225.806744
 20
193.158842
 30
0.0
  0
VERTEX
  5
3100
  8
0
 62
     0
 10
225.828433
 20
193.485067
 30
0.0
  0
VERTEX
  5
3101
  8
0
 62
     0
 10
225.857677
 20
193.838862
 30
0.0
  0
VERTEX
  5
3102
  8
0
 62
     0
 10
225.894068
 20
194.215235
 30
0.0
  0
VERTEX
  5
3103
  8
0
 62
     0
 10
225.93237
 20
194.565045
 30
0.0
  0
VERTEX
  5
3104
  8
0
 62
     0
 10
225.969962
 20
194.874809
 30
0.0
  0
VERTEX
  5
3105
  8
0
 62
     0
 10
226.008838
 20
195.165689
 30
0.0
  0
VERTEX
  5
3106
  8
0
 62
     0
 10
226.04987
 20
195.444224
 30
0.0
  0
VERTEX
  5
3107
  8
0
 62
     0
 10
226.093177
 20
195.708889
 30
0.0
  0
VERTEX
  5
3108
  8
0
 62
     0
 10
226.138352
 20
195.95439
 30
0.0
  0
VERTEX
  5
3109
  8
0
 62
     0
 10
226.186404
 20
196.178941
 30
0.0
  0
VERTEX
  5
310A
  8
0
 62
     0
 10
226.238486
 20
196.378744
 30
0.0
  0
VERTEX
  5
310B
  8
0
 62
     0
 10
226.295682
 20
196.546304
 30
0.0
  0
VERTEX
  5
310C
  8
0
 62
     0
 10
226.358508
 20
196.668253
 30
0.0
  0
VERTEX
  5
310D
  8
0
 62
     0
 10
226.428928
 20
196.730717
 30
0.0
  0
SEQEND
  5
310E
  8
0
 62
     0
  0
POLYLINE
  5
2966
  8
0
 62
     0
 66
     1
 10
0.0
 20
0.0
 30
0.0
  0
VERTEX
  5
310F
  8
0
 62
     0
 10
225.241204
 20
194.30555
 30
0.0
  0
VERTEX
  5
3110
  8
0
 62
     0
 10
225.27347
 20
194.581359
 30
0.0
  0
VERTEX
  5
3111
  8
0
 62
     0
 10
225.310431
 20
194.839434
 30
0.0
  0
VERTEX
  5
3112
  8
0
 62
     0
 10
225.35136
 20
195.057309
 30
0.0
  0
VERTEX
  5
3113
  8
0
 62
     0
 10
225.395141
 20
195.212797
 30
0.0
  0
VERTEX
  5
3114
  8
0
 62
     0
 10
225.441203
 20
195.294614
 30
0.0
  0
VERTEX
  5
3115
  8
0
 62
     0
 10
225.464778
 20
195.305445
 30
0.0
  0
SEQEND
  5
3116
  8
0
 62
     0
  0
POLYLINE
  5
2967
  8
0
 62
     0
 66
     1
 10
0.0
 20
0.0
 30
0.0
  0
VERTEX
  5
3117
  8
0
 62
     0
 10
226.922382
 20
194.30555
 30
0.0
  0
VERTEX
  5
3118
  8
0
 62
     0
 10
226.948486
 20
194.56824
 30
0.0
  0
VERTEX
  5
3119
  8
0
 62
     0
 10
226.968077
 20
194.815948
 30
0.0
  0
VERTEX
  5
311A
  8
0
 62
     0
 10
226.981167
 20
195.026007
 30
0.0
  0
VERTEX
  5
311B
  8
0
 62
     0
 10
226.989106
 20
195.176096
 30
0.0
  0
VERTEX
  5
311C
  8
0
 62
     0
 10
226.993908
 20
195.254537
 30
0.0
  0
VERTEX
  5
311D
  8
0
 62
     0
 10
226.995542
 20
195.264454
 30
0.0
  0
SEQEND
  5
311E
  8
0
 62
     0
  0
POLYLINE
  5
2968
  8
0
 62
     0
 66
     1
 10
0.0
 20
0.0
 30
0.0
  0
VERTEX
  5
311F
  8
0
 62
     0
 10
225.464778
 20
195.305445
 30
0.0
  0
VERTEX
  5
3120
  8
0
 62
     0
 10
225.487485
 20
195.295654
 30
0.0
  0
VERTEX
  5
3121
  8
0
 62
     0
 10
225.530043
 20
195.215551
 30
0.0
  0
VERTEX
  5
3122
  8
0
 62
     0
 10
225.563775
 20
195.061014
 30
0.0
  0
VERTEX
  5
3123
  8
0
 62
     0
 10
225.583202
 20
194.84422
 30
0.0
  0
VERTEX
  5
3124
  8
0
 62
     0
 10
225.583623
 20
194.584088
 30
0.0
  0
VERTEX
  5
3125
  8
0
 62
     0
 10
225.563173
 20
194.30555
 30
0.0
  0
SEQEND
  5
3126
  8
0
 62
     0
  0
POLYLINE
  5
2969
  8
0
 62
     0
 66
     1
 10
0.0
 20
0.0
 30
0.0
  0
VERTEX
  5
3127
  8
0
 62
     0
 10
226.428928
 20
196.730717
 30
0.0
  0
VERTEX
  5
3128
  8
0
 62
     0
 10
226.503624
 20
196.719865
 30
0.0
  0
VERTEX
  5
3129
  8
0
 62
     0
 10
226.576984
 20
196.642059
 30
0.0
  0
VERTEX
  5
312A
  8
0
 62
     0
 10
226.646673
 20
196.510391
 30
0.0
  0
VERTEX
  5
312B
  8
0
 62
     0
 10
226.708781
 20
196.340202
 30
0.0
  0
VERTEX
  5
312C
  8
0
 62
     0
 10
226.761012
 20
196.144854
 30
0.0
  0
VERTEX
  5
312D
  8
0
 62
     0
 10
226.804004
 20
195.925662
 30
0.0
  0
VERTEX
  5
312E
  8
0
 62
     0
 10
226.836733
 20
195.688687
 30
0.0
  0
VERTEX
  5
312F
  8
0
 62
     0
 10
226.858736
 20
195.438445
 30
0.0
  0
VERTEX
  5
3130
  8
0
 62
     0
 10
226.869743
 20
195.174548
 30
0.0
  0
VERTEX
  5
3131
  8
0
 62
     0
 10
226.86898
 20
194.893236
 30
0.0
  0
VERTEX
  5
3132
  8
0
 62
     0
 10
226.854341
 20
194.585916
 30
0.0
  0
VERTEX
  5
3133
  8
0
 62
     0
 10
226.820675
 20
194.235328
 30
0.0
  0
VERTEX
  5
3134
  8
0
 62
     0
 10
226.76468
 20
193.860673
 30
0.0
  0
VERTEX
  5
3135
  8
0
 62
     0
 10
226.694104
 20
193.51612
 30
0.0
  0
VERTEX
  5
3136
  8
0
 62
     0
 10
226.613293
 20
193.20535
 30
0.0
  0
VERTEX
  5
3137
  8
0
 62
     0
 10
226.522145
 20
192.918366
 30
0.0
  0
VERTEX
  5
3138
  8
0
 62
     0
 10
226.422429
 20
192.656919
 30
0.0
  0
VERTEX
  5
3139
  8
0
 62
     0
 10
226.317421
 20
192.42725
 30
0.0
  0
VERTEX
  5
313A
  8
0
 62
     0
 10
226.209409
 20
192.233776
 30
0.0
  0
VERTEX
  5
313B
  8
0
 62
     0
 10
226.101056
 20
192.083793
 30
0.0
  0
VERTEX
  5
313C
  8
0
 62
     0
 10
225.999482
 20
191.993538
 30
0.0
  0
VERTEX
  5
313D
  8
0
 62
     0
 10
225.911779
 20
191.98086
 30
0.0
  0
SEQEND
  5
313E
  8
0
 62
     0
  0
ARC
  5
296A
  8
0
 62
     0
 10
217.002676
 20
195.406819
 30
0.0
 40
10.0
 50
332.95503
 51
348.583218
  0
LINE
  5
296B
  8
0
 62
     0
 10
225.911779
 20
191.98086
 30
0.0
 11
225.849531
 21
192.053526
 31
0.0
  0
POLYLINE
  5
296C
  8
0
 62
     0
 66
     1
 10
0.0
 20
0.0
 30
0.0
  0
VERTEX
  5
313F
  8
0
 62
     0
 10
225.563173
 20
194.30555
 30
0.0
  0
VERTEX
  5
3140
  8
0
 62
     0
 10
225.522976
 20
194.029041
 30
0.0
  0
VERTEX
  5
3141
  8
0
 62
     0
 10
225.467362
 20
193.777157
 30
0.0
  0
VERTEX
  5
3142
  8
0
 62
     0
 10
225.40298
 20
193.569071
 30
0.0
  0
VERTEX
  5
3143
  8
0
 62
     0
 10
225.337666
 20
193.42039
 30
0.0
  0
VERTEX
  5
3144
  8
0
 62
     0
 10
225.279097
 20
193.342388
 30
0.0
  0
VERTEX
  5
3145
  8
0
 62
     0
 10
225.247844
 20
193.332699
 30
0.0
  0
SEQEND
  5
3146
  8
0
 62
     0
  0
POLYLINE
  5
296D
  8
0
 62
     0
 66
     1
 10
0.0
 20
0.0
 30
0.0
  0
VERTEX
  5
3147
  8
0
 62
     0
 10
225.247844
 20
193.332699
 30
0.0
  0
VERTEX
  5
3148
  8
0
 62
     0
 10
225.23333
 20
193.341359
 30
0.0
  0
VERTEX
  5
3149
  8
0
 62
     0
 10
225.204284
 20
193.418369
 30
0.0
  0
VERTEX
  5
314A
  8
0
 62
     0
 10
225.192939
 20
193.567818
 30
0.0
  0
VERTEX
  5
314B
  8
0
 62
     0
 10
225.197601
 20
193.777576
 30
0.0
  0
VERTEX
  5
314C
  8
0
 62
     0
 10
225.214912
 20
194.030239
 30
0.0
  0
VERTEX
  5
314D
  8
0
 62
     0
 10
225.241204
 20
194.30555
 30
0.0
  0
SEQEND
  5
314E
  8
0
 62
     0
  0
LINE
  5
296E
  8
0
 62
     0
 10
225.82537
 20
192.143465
 30
0.0
 11
225.905604
 21
192.10555
 31
0.0
  0
LINE
  5
296F
  8
0
 62
     0
 10
225.905604
 20
192.10555
 30
0.0
 11
225.835555
 21
192.10555
 31
0.0
  0
POLYLINE
  5
2970
  8
0
 62
     0
 66
     1
 10
0.0
 20
0.0
 30
0.0
  0
VERTEX
  5
314F
  8
0
 62
     0
 10
226.941565
 20
194.30555
 30
0.0
  0
VERTEX
  5
3150
  8
0
 62
     0
 10
226.907393
 20
194.032672
 30
0.0
  0
VERTEX
  5
3151
  8
0
 62
     0
 10
226.86994
 20
193.788142
 30
0.0
  0
VERTEX
  5
3152
  8
0
 62
     0
 10
226.835362
 20
193.595098
 30
0.0
  0
VERTEX
  5
3153
  8
0
 62
     0
 10
226.810021
 20
193.471249
 30
0.0
  0
VERTEX
  5
3154
  8
0
 62
     0
 10
226.79888
 20
193.428497
 30
0.0
  0
SEQEND
  5
3155
  8
0
 62
     0
  0
POLYLINE
  5
2971
  8
0
 62
     0
 66
     1
 10
0.0
 20
0.0
 30
0.0
  0
VERTEX
  5
3156
  8
0
 62
     0
 10
226.79888
 20
193.428497
 30
0.0
  0
VERTEX
  5
3157
  8
0
 62
     0
 10
226.804182
 20
193.471093
 30
0.0
  0
VERTEX
  5
3158
  8
0
 62
     0
 10
226.824323
 20
193.595276
 30
0.0
  0
VERTEX
  5
3159
  8
0
 62
     0
 10
226.854655
 20
193.788091
 30
0.0
  0
VERTEX
  5
315A
  8
0
 62
     0
 10
226.889344
 20
194.032803
 30
0.0
  0
VERTEX
  5
315B
  8
0
 62
     0
 10
226.922382
 20
194.30555
 30
0.0
  0
SEQEND
  5
315C
  8
0
 62
     0
  0
ARC
  5
2972
  8
0
 62
     0
 10
226.052139
 20
198.297703
 30
0.0
 40
0.5
 50
17.716265
 51
90.263229
  0
LINE
  5
2973
  8
0
 62
     0
 10
226.528427
 20
198.449854
 30
0.0
 11
225.547084
 21
198.442541
 31
0.0
  0
LINE
  5
2974
  8
0
 62
     0
 10
225.002563
 20
199.608127
 30
0.0
 11
225.004888
 21
199.825155
 31
0.0
  0
POLYLINE
  5
2975
  8
0
 62
     0
 66
     1
 10
0.0
 20
0.0
 30
0.0
  0
VERTEX
  5
315D
  8
0
 62
     0
 10
224.998079
 20
199.1645
 30
0.0
  0
VERTEX
  5
315E
  8
0
 62
     0
 10
225.000294
 20
199.388235
 30
0.0
  0
VERTEX
  5
315F
  8
0
 62
     0
 10
225.002574
 20
199.609205
 30
0.0
  0
SEQEND
  5
3160
  8
0
 62
     0
  0
POLYLINE
  5
2976
  8
0
 62
     0
 66
     1
 10
0.0
 20
0.0
 30
0.0
  0
VERTEX
  5
3161
  8
0
 62
     0
 10
224.996538
 20
199.002742
 30
0.0
  0
VERTEX
  5
3162
  8
0
 62
     0
 10
224.998092
 20
199.165884
 30
0.0
  0
VERTEX
  5
3163
  8
0
 62
     0
 10
225.000307
 20
199.389464
 30
0.0
  0
SEQEND
  5
3164
  8
0
 62
     0
  0
LINE
  5
2977
  8
0
 62
     0
 10
224.996356
 20
199.00555
 30
0.0
 11
224.996538
 21
199.002742
 31
0.0
  0
LINE
  5
2978
  8
0
 62
     0
 10
224.996538
 20
199.002742
 30
0.0
 11
224.973112
 21
198.889299
 31
0.0
  0
LINE
  5
2979
  8
0
 62
     0
 10
224.973535
 20
198.890745
 30
0.0
 11
224.996356
 21
199.00555
 31
0.0
  0
LINE
  5
297A
  8
0
 62
     0
 10
226.049842
 20
198.797697
 30
0.0
 11
225.812244
 21
198.796303
 31
0.0
  0
LINE
  5
297B
  8
0
 62
     0
 10
226.049842
 20
198.797697
 30
0.0
 11
224.904329
 21
198.790892
 31
0.0
  0
LINE
  5
297C
  8
0
 62
     0
 10
225.547084
 20
198.442541
 30
0.0
 11
224.416868
 21
198.433954
 31
0.0
  0
LINE
  5
297D
  8
0
 62
     0
 10
224.908953
 20
198.794029
 30
0.0
 11
224.973535
 21
198.890745
 31
0.0
  0
LINE
  5
297E
  8
0
 62
     0
 10
224.973112
 20
198.889299
 30
0.0
 11
224.909988
 21
198.794731
 31
0.0
  0
LINE
  5
297F
  8
0
 62
     0
 10
224.416868
 20
198.433953
 30
0.0
 11
224.135654
 21
198.344636
 31
0.0
  0
ARC
  5
2980
  8
0
 62
     0
 10
217.002676
 20
195.406819
 30
0.0
 40
10.0
 50
359.182704
 51
17.716265
  0
POLYLINE
  5
2981
  8
0
 62
     0
 66
     1
 10
0.0
 20
0.0
 30
0.0
  0
VERTEX
  5
3165
  8
0
 62
     0
 10
225.038736
 20
202.488904
 30
0.0
  0
VERTEX
  5
3166
  8
0
 62
     0
 10
225.054757
 20
203.624134
 30
0.0
  0
VERTEX
  5
3167
  8
0
 62
     0
 10
225.067317
 20
204.564036
 30
0.0
  0
VERTEX
  5
3168
  8
0
 62
     0
 10
225.075697
 20
205.324487
 30
0.0
  0
VERTEX
  5
3169
  8
0
 62
     0
 10
225.079174
 20
205.886741
 30
0.0
  0
SEQEND
  5
316A
  8
0
 62
     0
  0
POLYLINE
  5
2982
  8
0
 62
     0
 66
     1
 10
0.0
 20
0.0
 30
0.0
  0
VERTEX
  5
316B
  8
0
 62
     0
 10
225.054271
 20
203.589297
 30
0.0
  0
VERTEX
  5
316C
  8
0
 62
     0
 10
225.066977
 20
204.536767
 30
0.0
  0
VERTEX
  5
316D
  8
0
 62
     0
 10
225.07552
 20
205.304952
 30
0.0
  0
VERTEX
  5
316E
  8
0
 62
     0
 10
225.079148
 20
205.874828
 30
0.0
  0
SEQEND
  5
316F
  8
0
 62
     0
  0
POLYLINE
  5
2983
  8
0
 62
     0
 66
     1
 10
0.0
 20
0.0
 30
0.0
  0
VERTEX
  5
3170
  8
0
 62
     0
 10
225.069672
 20
204.752447
 30
0.0
  0
VERTEX
  5
3171
  8
0
 62
     0
 10
225.071009
 20
204.867329
 30
0.0
  0
VERTEX
  5
3172
  8
0
 62
     0
 10
225.072252
 20
204.978669
 30
0.0
  0
VERTEX
  5
3173
  8
0
 62
     0
 10
225.073399
 20
205.086415
 30
0.0
  0
VERTEX
  5
3174
  8
0
 62
     0
 10
225.074453
 20
205.190523
 30
0.0
  0
VERTEX
  5
3175
  8
0
 62
     0
 10
225.075416
 20
205.290959
 30
0.0
  0
VERTEX
  5
3176
  8
0
 62
     0
 10
225.076283
 20
205.387662
 30
0.0
  0
VERTEX
  5
3177
  8
0
 62
     0
 10
225.077043
 20
205.480517
 30
0.0
  0
VERTEX
  5
3178
  8
0
 62
     0
 10
225.077692
 20
205.569426
 30
0.0
  0
SEQEND
  5
3179
  8
0
 62
     0
  0
POLYLINE
  5
2984
  8
0
 62
     0
 66
     1
 10
0.0
 20
0.0
 30
0.0
  0
VERTEX
  5
317A
  8
0
 62
     0
 10
225.069649
 20
204.750692
 30
0.0
  0
VERTEX
  5
317B
  8
0
 62
     0
 10
225.070991
 20
204.865567
 30
0.0
  0
VERTEX
  5
317C
  8
0
 62
     0
 10
225.072237
 20
204.976909
 30
0.0
  0
VERTEX
  5
317D
  8
0
 62
     0
 10
225.073386
 20
205.084657
 30
0.0
  0
VERTEX
  5
317E
  8
0
 62
     0
 10
225.074438
 20
205.188758
 30
0.0
  0
VERTEX
  5
317F
  8
0
 62
     0
 10
225.075396
 20
205.289172
 30
0.0
  0
VERTEX
  5
3180
  8
0
 62
     0
 10
225.076262
 20
205.385862
 30
0.0
  0
VERTEX
  5
3181
  8
0
 62
     0
 10
225.077026
 20
205.478736
 30
0.0
  0
VERTEX
  5
3182
  8
0
 62
     0
 10
225.077682
 20
205.567686
 30
0.0
  0
VERTEX
  5
3183
  8
0
 62
     0
 10
225.078226
 20
205.654307
 30
0.0
  0
SEQEND
  5
3184
  8
0
 62
     0
  0
LINE
  5
2985
  8
0
 62
     0
 10
225.052026
 20
203.422616
 30
0.0
 11
225.056094
 21
203.713653
 31
0.0
  0
LINE
  5
2986
  8
0
 62
     0
 10
225.049903
 20
203.271547
 30
0.0
 11
225.052009
 21
203.421397
 31
0.0
  0
LINE
  5
2987
  8
0
 62
     0
 10
225.049918
 20
203.27269
 30
0.0
 11
225.054067
 21
203.568323
 31
0.0
  0
POLYLINE
  5
2988
  8
0
 62
     0
 66
     1
 10
0.0
 20
0.0
 30
0.0
  0
VERTEX
  5
3185
  8
0
 62
     0
 10
225.038715
 20
202.478336
 30
0.0
  0
VERTEX
  5
3186
  8
0
 62
     0
 10
225.041035
 20
202.643281
 30
0.0
  0
VERTEX
  5
3187
  8
0
 62
     0
 10
225.043319
 20
202.805158
 30
0.0
  0
SEQEND
  5
3188
  8
0
 62
     0
  0
POLYLINE
  5
2989
  8
0
 62
     0
 66
     1
 10
0.0
 20
0.0
 30
0.0
  0
VERTEX
  5
3189
  8
0
 62
     0
 10
225.03398
 20
202.138584
 30
0.0
  0
VERTEX
  5
318A
  8
0
 62
     0
 10
225.041022
 20
202.642447
 30
0.0
  0
VERTEX
  5
318B
  8
0
 62
     0
 10
225.043306
 20
202.80424
 30
0.0
  0
VERTEX
  5
318C
  8
0
 62
     0
 10
225.045549
 20
202.963001
 30
0.0
  0
SEQEND
  5
318D
  8
0
 62
     0
  0
LINE
  5
298A
  8
0
 62
     0
 10
225.045562
 20
202.963996
 30
0.0
 11
225.047763
 21
203.119829
 31
0.0
  0
POLYLINE
  5
298B
  8
0
 62
     0
 66
     1
 10
0.0
 20
0.0
 30
0.0
  0
VERTEX
  5
318E
  8
0
 62
     0
 10
225.043319
 20
202.805158
 30
0.0
  0
VERTEX
  5
318F
  8
0
 62
     0
 10
225.047749
 20
203.118759
 30
0.0
  0
VERTEX
  5
3190
  8
0
 62
     0
 10
225.049918
 20
203.27269
 30
0.0
  0
SEQEND
  5
3191
  8
0
 62
     0
  0
LINE
  5
298C
  8
0
 62
     0
 10
225.031583
 20
201.964346
 30
0.0
 11
225.036364
 21
202.310293
 31
0.0
  0
LINE
  5
298D
  8
0
 62
     0
 10
225.054067
 20
203.568323
 30
0.0
 11
225.059918
 21
203.992554
 31
0.0
  0
LINE
  5
298E
  8
0
 62
     0
 10
225.058019
 20
203.853228
 30
0.0
 11
225.06171
 21
204.125795
 31
0.0
  0
LINE
  5
298F
  8
0
 62
     0
 10
225.033987
 20
202.139123
 30
0.0
 11
225.038736
 21
202.488904
 31
0.0
  0
LINE
  5
2990
  8
0
 62
     0
 10
225.026729
 20
201.606163
 30
0.0
 11
225.031588
 21
201.96478
 31
0.0
  0
LINE
  5
2991
  8
0
 62
     0
 10
225.033987
 20
202.139123
 30
0.0
 11
225.039299
 21
202.528978
 31
0.0
  0
LINE
  5
2992
  8
0
 62
     0
 10
225.022567
 20
201.303947
 30
0.0
 11
225.031583
 21
201.964346
 31
0.0
  0
LINE
  5
2993
  8
0
 62
     0
 10
225.059918
 20
203.992554
 30
0.0
 11
225.065112
 21
204.385611
 31
0.0
  0
LINE
  5
2994
  8
0
 62
     0
 10
225.024281
 20
201.422129
 30
0.0
 11
225.026732
 21
201.606385
 31
0.0
  0
LINE
  5
2995
  8
0
 62
     0
 10
225.063466
 20
204.258889
 30
0.0
 11
225.066726
 21
204.512324
 31
0.0
  0
LINE
  5
2996
  8
0
 62
     0
 10
225.021826
 20
201.234741
 30
0.0
 11
225.024283
 21
201.422239
 31
0.0
  0
LINE
  5
2997
  8
0
 62
     0
 10
225.019367
 20
201.043831
 30
0.0
 11
225.021826
 21
201.234736
 31
0.0
  0
POLYLINE
  5
2998
  8
0
 62
     0
 66
     1
 10
0.0
 20
0.0
 30
0.0
  0
VERTEX
  5
3192
  8
0
 62
     0
 10
225.065112
 20
204.385611
 30
0.0
  0
VERTEX
  5
3193
  8
0
 62
     0
 10
225.066702
 20
204.510635
 30
0.0
  0
VERTEX
  5
3194
  8
0
 62
     0
 10
225.068242
 20
204.634088
 30
0.0
  0
SEQEND
  5
3195
  8
0
 62
     0
  0
LINE
  5
2999
  8
0
 62
     0
 10
225.016912
 20
200.849481
 30
0.0
 11
225.019369
 21
201.043959
 31
0.0
  0
LINE
  5
299A
  8
0
 62
     0
 10
225.019382
 20
201.044997
 30
0.0
 11
225.022567
 21
201.303947
 31
0.0
  0
LINE
  5
299B
  8
0
 62
     0
 10
225.014467
 20
200.651632
 30
0.0
 11
225.016916
 21
200.849734
 31
0.0
  0
LINE
  5
299C
  8
0
 62
     0
 10
225.068217
 20
204.632355
 30
0.0
 11
225.069672
 21
204.752447
 31
0.0
  0
POLYLINE
  5
299D
  8
0
 62
     0
 66
     1
 10
0.0
 20
0.0
 30
0.0
  0
VERTEX
  5
3196
  8
0
 62
     0
 10
225.00752
 20
200.078584
 30
0.0
  0
VERTEX
  5
3197
  8
0
 62
     0
 10
225.021995
 20
201.260136
 30
0.0
  0
VERTEX
  5
3198
  8
0
 62
     0
 10
225.026729
 20
201.606163
 30
0.0
  0
SEQEND
  5
3199
  8
0
 62
     0
  0
LINE
  5
299E
  8
0
 62
     0
 10
225.012035
 20
200.450233
 30
0.0
 11
225.014472
 21
200.652014
 31
0.0
  0
LINE
  5
299F
  8
0
 62
     0
 10
225.009621
 20
200.245231
 30
0.0
 11
225.012041
 21
200.450745
 31
0.0
  0
LINE
  5
29A0
  8
0
 62
     0
 10
225.007234
 20
200.036578
 30
0.0
 11
225.009629
 21
200.245878
 31
0.0
  0
POLYLINE
  5
29A1
  8
0
 62
     0
 66
     1
 10
0.0
 20
0.0
 30
0.0
  0
VERTEX
  5
319A
  8
0
 62
     0
 10
225.078226
 20
205.654307
 30
0.0
  0
VERTEX
  5
319B
  8
0
 62
     0
 10
225.078649
 20
205.735094
 30
0.0
  0
VERTEX
  5
319C
  8
0
 62
     0
 10
225.078963
 20
205.811741
 30
0.0
  0
SEQEND
  5
319D
  8
0
 62
     0
  0
POLYLINE
  5
29A2
  8
0
 62
     0
 66
     1
 10
0.0
 20
0.0
 30
0.0
  0
VERTEX
  5
319E
  8
0
 62
     0
 10
225.078223
 20
205.652617
 30
0.0
  0
VERTEX
  5
319F
  8
0
 62
     0
 10
225.078648
 20
205.733455
 30
0.0
  0
VERTEX
  5
31A0
  8
0
 62
     0
 10
225.078961
 20
205.810142
 30
0.0
  0
SEQEND
  5
31A1
  8
0
 62
     0
  0
POLYLINE
  5
29A3
  8
0
 62
     0
 66
     1
 10
0.0
 20
0.0
 30
0.0
  0
VERTEX
  5
31A2
  8
0
 62
     0
 10
225.078963
 20
205.811741
 30
0.0
  0
VERTEX
  5
31A3
  8
0
 62
     0
 10
225.079176
 20
205.884228
 30
0.0
  0
VERTEX
  5
31A4
  8
0
 62
     0
 10
225.079281
 20
205.952514
 30
0.0
  0
SEQEND
  5
31A5
  8
0
 62
     0
  0
LINE
  5
29A4
  8
0
 62
     0
 10
225.079272
 20
205.950941
 30
0.0
 11
225.079274
 21
205.976622
 31
0.0
  0
LINE
  5
29A5
  8
0
 62
     0
 10
225.079148
 20
205.874828
 30
0.0
 11
225.079254
 21
205.960585
 31
0.0
  0
LINE
  5
29A6
  8
0
 62
     0
 10
225.079281
 20
205.952514
 30
0.0
 11
225.079291
 21
205.981598
 31
0.0
  0
LINE
  5
29A7
  8
0
 62
     0
 10
211.179274
 20
213.80555
 30
0.0
 11
212.379274
 21
213.80555
 31
0.0
  0
ARC
  5
29A8
  8
0
 62
     0
 10
211.179274
 20
213.20555
 30
0.0
 40
0.6
 50
90.0
 51
137.605906
  0
LINE
  5
29A9
  8
0
 62
     0
 10
214.046036
 20
213.60555
 30
0.0
 11
214.046036
 21
213.30555
 31
0.0
  0
LINE
  5
29AA
  8
0
 62
     0
 10
212.379274
 20
213.60555
 30
0.0
 11
212.379274
 21
213.80555
 31
0.0
  0
LINE
  5
29AB
  8
0
 62
     0
 10
214.23892
 20
213.30555
 30
0.0
 11
214.23892
 21
213.60555
 31
0.0
  0
ARC
  5
29AC
  8
0
 62
     0
 10
207.579274
 20
222.094557
 30
0.0
 40
19.0
 50
345.963757
 51
353.190353
  0
LINE
  5
29AD
  8
0
 62
     0
 10
224.017867
 20
219.323847
 30
0.0
 11
223.879274
 21
220.736625
 31
0.0
  0
LINE
  5
29AE
  8
0
 62
     0
 10
226.011982
 20
217.48638
 30
0.0
 11
226.011982
 21
219.833493
 31
0.0
  0
POLYLINE
  5
29AF
  8
0
 62
     0
 66
     1
 10
0.0
 20
0.0
 30
0.0
  0
VERTEX
  5
31A6
  8
0
 62
     0
 10
222.945927
 20
213.30555
 30
0.0
  0
VERTEX
  5
31A7
  8
0
 62
     0
 10
223.059077
 20
213.282714
 30
0.0
  0
VERTEX
  5
31A8
  8
0
 62
     0
 10
223.155001
 20
213.217682
 30
0.0
  0
VERTEX
  5
31A9
  8
0
 62
     0
 10
223.219096
 20
213.120355
 30
0.0
  0
VERTEX
  5
31AA
  8
0
 62
     0
 10
223.241603
 20
213.00555
 30
0.0
  0
SEQEND
  5
31AB
  8
0
 62
     0
  0
LINE
  5
29B0
  8
0
 62
     0
 10
222.349172
 20
213.60555
 30
0.0
 11
222.349172
 21
213.30555
 31
0.0
  0
LINE
  5
29B1
  8
0
 62
     0
 10
225.079274
 20
216.95555
 30
0.0
 11
225.079274
 21
214.10555
 31
0.0
  0
ARC
  5
29B2
  8
0
 62
     0
 10
224.779274
 20
213.00555
 30
0.0
 40
0.3
 50
0.0
 51
90.0
  0
LINE
  5
29B3
  8
0
 62
     0
 10
224.079274
 20
213.30555
 30
0.0
 11
224.079274
 21
213.60555
 31
0.0
  0
LINE
  5
29B4
  8
0
 62
     0
 10
224.520081
 20
216.674419
 30
0.0
 11
224.351075
 21
217.248839
 31
0.0
  0
POLYLINE
  5
29B5
  8
0
 62
     0
 66
     1
 10
0.0
 20
0.0
 30
0.0
  0
VERTEX
  5
31AC
  8
0
 62
     0
 10
224.351075
 20
217.248839
 30
0.0
  0
VERTEX
  5
31AD
  8
0
 62
     0
 10
224.178547
 20
218.151171
 30
0.0
  0
VERTEX
  5
31AE
  8
0
 62
     0
 10
224.017867
 20
219.323847
 30
0.0
  0
SEQEND
  5
31AF
  8
0
 62
     0
  0
POLYLINE
  5
29B6
  8
0
 62
     0
 66
     1
 10
0.0
 20
0.0
 30
0.0
  0
VERTEX
  5
31B0
  8
0
 62
     0
 10
224.686292
 20
216.455402
 30
0.0
  0
VERTEX
  5
31B1
  8
0
 62
     0
 10
224.670884
 20
216.457753
 30
0.0
  0
VERTEX
  5
31B2
  8
0
 62
     0
 10
224.520081
 20
216.674419
 30
0.0
  0
SEQEND
  5
31B3
  8
0
 62
     0
  0
LINE
  5
29B7
  8
0
 62
     0
 10
225.879274
 20
216.95555
 30
0.0
 11
224.437367
 21
216.95555
 31
0.0
  0
LINE
  5
29B8
  8
0
 62
     0
 10
226.011982
 20
217.48638
 30
0.0
 11
225.879274
 21
216.95555
 31
0.0
  0
POLYLINE
  5
29B9
  8
0
 62
     0
 66
     1
 10
0.0
 20
0.0
 30
0.0
  0
VERTEX
  5
31B4
  8
0
 62
     0
 10
224.872294
 20
216.95555
 30
0.0
  0
VERTEX
  5
31B5
  8
0
 62
     0
 10
224.797646
 20
216.593493
 30
0.0
  0
VERTEX
  5
31B6
  8
0
 62
     0
 10
224.686292
 20
216.455402
 30
0.0
  0
SEQEND
  5
31B7
  8
0
 62
     0
  0
POLYLINE
  5
29BA
  8
0
 62
     0
 66
     1
 10
0.0
 20
0.0
 30
0.0
  0
VERTEX
  5
31B8
  8
0
 62
     0
 10
226.542195
 20
229.017401
 30
0.0
  0
VERTEX
  5
31B9
  8
0
 62
     0
 10
226.593071
 20
228.946787
 30
0.0
  0
VERTEX
  5
31BA
  8
0
 62
     0
 10
226.658889
 20
228.834232
 30
0.0
  0
VERTEX
  5
31BB
  8
0
 62
     0
 10
226.711885
 20
228.712798
 30
0.0
  0
VERTEX
  5
31BC
  8
0
 62
     0
 10
226.746413
 20
228.593724
 30
0.0
  0
VERTEX
  5
31BD
  8
0
 62
     0
 10
226.764361
 20
228.486492
 30
0.0
  0
VERTEX
  5
31BE
  8
0
 62
     0
 10
226.772173
 20
228.389797
 30
0.0
  0
VERTEX
  5
31BF
  8
0
 62
     0
 10
226.774788
 20
228.304073
 30
0.0
  0
VERTEX
  5
31C0
  8
0
 62
     0
 10
226.775398
 20
228.230724
 30
0.0
  0
VERTEX
  5
31C1
  8
0
 62
     0
 10
226.77538
 20
228.167891
 30
0.0
  0
VERTEX
  5
31C2
  8
0
 62
     0
 10
226.774929
 20
228.112863
 30
0.0
  0
VERTEX
  5
31C3
  8
0
 62
     0
 10
226.773873
 20
228.065679
 30
0.0
  0
VERTEX
  5
31C4
  8
0
 62
     0
 10
226.772024
 20
228.024446
 30
0.0
  0
VERTEX
  5
31C5
  8
0
 62
     0
 10
226.769173
 20
227.986813
 30
0.0
  0
VERTEX
  5
31C6
  8
0
 62
     0
 10
226.764985
 20
227.950626
 30
0.0
  0
VERTEX
  5
31C7
  8
0
 62
     0
 10
226.758862
 20
227.913959
 30
0.0
  0
VERTEX
  5
31C8
  8
0
 62
     0
 10
226.74979
 20
227.875092
 30
0.0
  0
VERTEX
  5
31C9
  8
0
 62
     0
 10
226.736132
 20
227.832568
 30
0.0
  0
VERTEX
  5
31CA
  8
0
 62
     0
 10
226.715849
 20
227.786199
 30
0.0
  0
VERTEX
  5
31CB
  8
0
 62
     0
 10
226.686627
 20
227.736545
 30
0.0
  0
VERTEX
  5
31CC
  8
0
 62
     0
 10
226.644703
 20
227.683019
 30
0.0
  0
VERTEX
  5
31CD
  8
0
 62
     0
 10
226.586398
 20
227.626547
 30
0.0
  0
VERTEX
  5
31CE
  8
0
 62
     0
 10
226.51836
 20
227.575193
 30
0.0
  0
VERTEX
  5
31CF
  8
0
 62
     0
 10
226.444171
 20
227.529857
 30
0.0
  0
VERTEX
  5
31D0
  8
0
 62
     0
 10
226.365777
 20
227.489842
 30
0.0
  0
VERTEX
  5
31D1
  8
0
 62
     0
 10
226.284797
 20
227.454478
 30
0.0
  0
VERTEX
  5
31D2
  8
0
 62
     0
 10
226.20252
 20
227.423152
 30
0.0
  0
SEQEND
  5
31D3
  8
0
 62
     0
  0
POLYLINE
  5
29BB
  8
0
 62
     0
 66
     1
 10
0.0
 20
0.0
 30
0.0
  0
VERTEX
  5
31D4
  8
0
 62
     0
 10
226.578905
 20
228.423201
 30
0.0
  0
VERTEX
  5
31D5
  8
0
 62
     0
 10
226.578875
 20
228.364698
 30
0.0
  0
VERTEX
  5
31D6
  8
0
 62
     0
 10
226.578429
 20
228.309235
 30
0.0
  0
VERTEX
  5
31D7
  8
0
 62
     0
 10
226.577384
 20
228.261351
 30
0.0
  0
VERTEX
  5
31D8
  8
0
 62
     0
 10
226.575554
 20
228.219312
 30
0.0
  0
VERTEX
  5
31D9
  8
0
 62
     0
 10
226.572733
 20
228.180831
 30
0.0
  0
VERTEX
  5
31DA
  8
0
 62
     0
 10
226.568588
 20
228.143768
 30
0.0
  0
VERTEX
  5
31DB
  8
0
 62
     0
 10
226.562529
 20
228.106184
 30
0.0
  0
VERTEX
  5
31DC
  8
0
 62
     0
 10
226.553551
 20
228.066345
 30
0.0
  0
VERTEX
  5
31DD
  8
0
 62
     0
 10
226.540035
 20
228.022793
 30
0.0
  0
VERTEX
  5
31DE
  8
0
 62
     0
 10
226.519963
 20
227.975367
 30
0.0
  0
VERTEX
  5
31DF
  8
0
 62
     0
 10
226.491046
 20
227.924679
 30
0.0
  0
VERTEX
  5
31E0
  8
0
 62
     0
 10
226.449562
 20
227.870168
 30
0.0
  0
VERTEX
  5
31E1
  8
0
 62
     0
 10
226.39188
 20
227.81281
 30
0.0
  0
VERTEX
  5
31E2
  8
0
 62
     0
 10
226.324548
 20
227.760761
 30
0.0
  0
VERTEX
  5
31E3
  8
0
 62
     0
 10
226.251131
 20
227.714907
 30
0.0
  0
VERTEX
  5
31E4
  8
0
 62
     0
 10
226.173553
 20
227.674503
 30
0.0
  0
VERTEX
  5
31E5
  8
0
 62
     0
 10
226.093417
 20
227.638843
 30
0.0
  0
VERTEX
  5
31E6
  8
0
 62
     0
 10
226.011982
 20
227.607286
 30
0.0
  0
SEQEND
  5
31E7
  8
0
 62
     0
  0
POLYLINE
  5
29BC
  8
0
 62
     0
 66
     1
 10
0.0
 20
0.0
 30
0.0
  0
VERTEX
  5
31E8
  8
0
 62
     0
 10
226.011983
 20
227.607286
 30
0.0
  0
VERTEX
  5
31E9
  8
0
 62
     0
 10
226.031284
 20
227.537387
 30
0.0
  0
VERTEX
  5
31EA
  8
0
 62
     0
 10
226.073562
 20
227.478665
 30
0.0
  0
VERTEX
  5
31EB
  8
0
 62
     0
 10
226.133257
 20
227.438841
 30
0.0
  0
VERTEX
  5
31EC
  8
0
 62
     0
 10
226.20252
 20
227.423152
 30
0.0
  0
SEQEND
  5
31ED
  8
0
 62
     0
  0
POLYLINE
  5
29BD
  8
0
 62
     0
 66
     1
 10
0.0
 20
0.0
 30
0.0
  0
VERTEX
  5
31EE
  8
0
 62
     0
 10
226.011982
 20
227.607286
 30
0.0
  0
VERTEX
  5
31EF
  8
0
 62
     0
 10
225.945757
 20
227.584706
 30
0.0
  0
VERTEX
  5
31F0
  8
0
 62
     0
 10
225.879274
 20
227.562773
 30
0.0
  0
SEQEND
  5
31F1
  8
0
 62
     0
  0
POLYLINE
  5
29BE
  8
0
 62
     0
 66
     1
 10
0.0
 20
0.0
 30
0.0
  0
VERTEX
  5
31F2
  8
0
 62
     0
 10
226.20252
 20
227.423152
 30
0.0
  0
VERTEX
  5
31F3
  8
0
 62
     0
 10
226.041434
 20
227.367933
 30
0.0
  0
VERTEX
  5
31F4
  8
0
 62
     0
 10
225.879274
 20
227.316771
 30
0.0
  0
SEQEND
  5
31F5
  8
0
 62
     0
  0
LINE
  5
29BF
  8
0
 62
     0
 10
226.578718
 20
228.461919
 30
0.0
 11
226.578905
 21
228.423201
 31
0.0
  0
POLYLINE
  5
29C0
  8
0
 62
     0
 66
     1
 10
0.0
 20
0.0
 30
0.0
  0
VERTEX
  5
31F6
  8
0
 62
     0
 10
240.579274
 20
224.220742
 30
0.0
  0
VERTEX
  5
31F7
  8
0
 62
     0
 10
240.414986
 20
224.527055
 30
0.0
  0
VERTEX
  5
31F8
  8
0
 62
     0
 10
240.313572
 20
224.859551
 30
0.0
  0
VERTEX
  5
31F9
  8
0
 62
     0
 10
240.290991
 20
225.087351
 30
0.0
  0
SEQEND
  5
31FA
  8
0
 62
     0
  0
POLYLINE
  5
29C1
  8
0
 62
     0
 66
     1
 10
0.0
 20
0.0
 30
0.0
  0
VERTEX
  5
31FB
  8
0
 62
     0
 10
240.577587
 20
226.145098
 30
0.0
  0
VERTEX
  5
31FC
  8
0
 62
     0
 10
240.575885
 20
226.024432
 30
0.0
  0
VERTEX
  5
31FD
  8
0
 62
     0
 10
240.574185
 20
225.848377
 30
0.0
  0
VERTEX
  5
31FE
  8
0
 62
     0
 10
240.57293
 20
225.626962
 30
0.0
  0
VERTEX
  5
31FF
  8
0
 62
     0
 10
240.572473
 20
225.377276
 30
0.0
  0
VERTEX
  5
3200
  8
0
 62
     0
 10
240.572935
 20
225.114867
 30
0.0
  0
VERTEX
  5
3201
  8
0
 62
     0
 10
240.574187
 20
224.859784
 30
0.0
  0
VERTEX
  5
3202
  8
0
 62
     0
 10
240.575893
 20
224.628367
 30
0.0
  0
VERTEX
  5
3203
  8
0
 62
     0
 10
240.577589
 20
224.436961
 30
0.0
  0
VERTEX
  5
3204
  8
0
 62
     0
 10
240.578825
 20
224.29799
 30
0.0
  0
VERTEX
  5
3205
  8
0
 62
     0
 10
240.579274
 20
224.220742
 30
0.0
  0
SEQEND
  5
3206
  8
0
 62
     0
  0
POLYLINE
  5
29C2
  8
0
 62
     0
 66
     1
 10
0.0
 20
0.0
 30
0.0
  0
VERTEX
  5
3207
  8
0
 62
     0
 10
239.690253
 20
224.399654
 30
0.0
  0
VERTEX
  5
3208
  8
0
 62
     0
 10
239.62263
 20
224.292963
 30
0.0
  0
VERTEX
  5
3209
  8
0
 62
     0
 10
239.557063
 20
224.165464
 30
0.0
  0
VERTEX
  5
320A
  8
0
 62
     0
 10
239.497342
 20
224.013883
 30
0.0
  0
VERTEX
  5
320B
  8
0
 62
     0
 10
239.448592
 20
223.834778
 30
0.0
  0
VERTEX
  5
320C
  8
0
 62
     0
 10
239.417582
 20
223.623864
 30
0.0
  0
VERTEX
  5
320D
  8
0
 62
     0
 10
239.413794
 20
223.377123
 30
0.0
  0
VERTEX
  5
320E
  8
0
 62
     0
 10
239.449438
 20
223.095792
 30
0.0
  0
VERTEX
  5
320F
  8
0
 62
     0
 10
239.537419
 20
222.786625
 30
0.0
  0
VERTEX
  5
3210
  8
0
 62
     0
 10
239.690238
 20
222.460852
 30
0.0
  0
SEQEND
  5
3211
  8
0
 62
     0
  0
POLYLINE
  5
29C3
  8
0
 62
     0
 66
     1
 10
0.0
 20
0.0
 30
0.0
  0
VERTEX
  5
3212
  8
0
 62
     0
 10
239.866289
 20
224.434384
 30
0.0
  0
VERTEX
  5
3213
  8
0
 62
     0
 10
239.810424
 20
224.34161
 30
0.0
  0
VERTEX
  5
3214
  8
0
 62
     0
 10
239.755497
 20
224.23189
 30
0.0
  0
VERTEX
  5
3215
  8
0
 62
     0
 10
239.703918
 20
224.102606
 30
0.0
  0
VERTEX
  5
3216
  8
0
 62
     0
 10
239.658929
 20
223.951017
 30
0.0
  0
VERTEX
  5
3217
  8
0
 62
     0
 10
239.624748
 20
223.774068
 30
0.0
  0
VERTEX
  5
3218
  8
0
 62
     0
 10
239.60697
 20
223.568199
 30
0.0
  0
VERTEX
  5
3219
  8
0
 62
     0
 10
239.613183
 20
223.330978
 30
0.0
  0
VERTEX
  5
321A
  8
0
 62
     0
 10
239.652422
 20
223.064917
 30
0.0
  0
VERTEX
  5
321B
  8
0
 62
     0
 10
239.733819
 20
222.776274
 30
0.0
  0
VERTEX
  5
321C
  8
0
 62
     0
 10
239.866284
 20
222.474278
 30
0.0
  0
SEQEND
  5
321D
  8
0
 62
     0
  0
POLYLINE
  5
29C4
  8
0
 62
     0
 66
     1
 10
0.0
 20
0.0
 30
0.0
  0
VERTEX
  5
321E
  8
0
 62
     0
 10
239.943711
 20
220.312137
 30
0.0
  0
VERTEX
  5
321F
  8
0
 62
     0
 10
239.927811
 20
220.648637
 30
0.0
  0
VERTEX
  5
3220
  8
0
 62
     0
 10
239.911747
 20
221.040707
 30
0.0
  0
VERTEX
  5
3221
  8
0
 62
     0
 10
239.896797
 20
221.480475
 30
0.0
  0
VERTEX
  5
3222
  8
0
 62
     0
 10
239.884062
 20
221.961237
 30
0.0
  0
VERTEX
  5
3223
  8
0
 62
     0
 10
239.874488
 20
222.475665
 30
0.0
  0
SEQEND
  5
3224
  8
0
 62
     0
  0
POLYLINE
  5
29C5
  8
0
 62
     0
 66
     1
 10
0.0
 20
0.0
 30
0.0
  0
VERTEX
  5
3225
  8
0
 62
     0
 10
239.866284
 20
222.474278
 30
0.0
  0
VERTEX
  5
3226
  8
0
 62
     0
 10
239.869757
 20
222.473667
 30
0.0
  0
VERTEX
  5
3227
  8
0
 62
     0
 10
239.872489
 20
222.474147
 30
0.0
  0
VERTEX
  5
3228
  8
0
 62
     0
 10
239.874488
 20
222.475665
 30
0.0
  0
SEQEND
  5
3229
  8
0
 62
     0
  0
LINE
  5
29C6
  8
0
 62
     0
 10
240.53753
 20
222.106679
 30
0.0
 11
240.579268
 21
222.652903
 31
0.0
  0
POLYLINE
  5
29C7
  8
0
 62
     0
 66
     1
 10
0.0
 20
0.0
 30
0.0
  0
VERTEX
  5
322A
  8
0
 62
     0
 10
240.579273
 20
222.652916
 30
0.0
  0
VERTEX
  5
322B
  8
0
 62
     0
 10
240.562674
 20
222.323609
 30
0.0
  0
VERTEX
  5
322C
  8
0
 62
     0
 10
240.364948
 20
221.379003
 30
0.0
  0
VERTEX
  5
322D
  8
0
 62
     0
 10
239.943711
 20
220.312137
 30
0.0
  0
SEQEND
  5
322E
  8
0
 62
     0
  0
LINE
  5
29C8
  8
0
 62
     0
 10
240.579274
 20
224.220742
 30
0.0
 11
240.579274
 21
222.640088
 31
0.0
  0
POLYLINE
  5
29C9
  8
0
 62
     0
 66
     1
 10
0.0
 20
0.0
 30
0.0
  0
VERTEX
  5
322F
  8
0
 62
     0
 10
239.748967
 20
220.219643
 30
0.0
  0
VERTEX
  5
3230
  8
0
 62
     0
 10
239.749627
 20
220.168017
 30
0.0
  0
VERTEX
  5
3231
  8
0
 62
     0
 10
239.750016
 20
220.132318
 30
0.0
  0
VERTEX
  5
3232
  8
0
 62
     0
 10
239.749623
 20
220.11707
 30
0.0
  0
VERTEX
  5
3233
  8
0
 62
     0
 10
239.749352
 20
220.116761
 30
0.0
  0
SEQEND
  5
3234
  8
0
 62
     0
  0
POLYLINE
  5
29CA
  8
0
 62
     0
 66
     1
 10
0.0
 20
0.0
 30
0.0
  0
VERTEX
  5
3235
  8
0
 62
     0
 10
239.748834
 20
220.219641
 30
0.0
  0
VERTEX
  5
3236
  8
0
 62
     0
 10
239.728874
 20
220.662584
 30
0.0
  0
VERTEX
  5
3237
  8
0
 62
     0
 10
239.709009
 20
221.194048
 30
0.0
  0
VERTEX
  5
3238
  8
0
 62
     0
 10
239.691854
 20
221.798359
 30
0.0
  0
VERTEX
  5
3239
  8
0
 62
     0
 10
239.67946
 20
222.46035
 30
0.0
  0
SEQEND
  5
323A
  8
0
 62
     0
  0
POLYLINE
  5
29CB
  8
0
 62
     0
 66
     1
 10
0.0
 20
0.0
 30
0.0
  0
VERTEX
  5
323B
  8
0
 62
     0
 10
239.866289
 20
222.474281
 30
0.0
  0
VERTEX
  5
323C
  8
0
 62
     0
 10
239.828375
 20
222.475816
 30
0.0
  0
VERTEX
  5
323D
  8
0
 62
     0
 10
239.767135
 20
222.469521
 30
0.0
  0
VERTEX
  5
323E
  8
0
 62
     0
 10
239.690238
 20
222.460855
 30
0.0
  0
SEQEND
  5
323F
  8
0
 62
     0
  0
POLYLINE
  5
29CC
  8
0
 62
     0
 66
     1
 10
0.0
 20
0.0
 30
0.0
  0
VERTEX
  5
3240
  8
0
 62
     0
 10
240.579274
 20
224.220742
 30
0.0
  0
VERTEX
  5
3241
  8
0
 62
     0
 10
240.500851
 20
223.637356
 30
0.0
  0
VERTEX
  5
3242
  8
0
 62
     0
 10
240.265751
 20
223.055241
 30
0.0
  0
VERTEX
  5
3243
  8
0
 62
     0
 10
239.874488
 20
222.475665
 30
0.0
  0
SEQEND
  5
3244
  8
0
 62
     0
  0
POLYLINE
  5
29CD
  8
0
 62
     0
 66
     1
 10
0.0
 20
0.0
 30
0.0
  0
VERTEX
  5
3245
  8
0
 62
     0
 10
239.690238
 20
222.460852
 30
0.0
  0
VERTEX
  5
3246
  8
0
 62
     0
 10
239.686649
 20
222.460565
 30
0.0
  0
VERTEX
  5
3247
  8
0
 62
     0
 10
239.683056
 20
222.460404
 30
0.0
  0
VERTEX
  5
3248
  8
0
 62
     0
 10
239.67946
 20
222.46035
 30
0.0
  0
SEQEND
  5
3249
  8
0
 62
     0
  0
LINE
  5
29CE
  8
0
 62
     0
 10
239.775059
 20
220.118924
 30
0.0
 11
239.749333
 21
220.116763
 31
0.0
  0
POLYLINE
  5
29CF
  8
0
 62
     0
 66
     1
 10
0.0
 20
0.0
 30
0.0
  0
VERTEX
  5
324A
  8
0
 62
     0
 10
239.748967
 20
220.219643
 30
0.0
  0
VERTEX
  5
324B
  8
0
 62
     0
 10
239.818549
 20
220.229029
 30
0.0
  0
VERTEX
  5
324C
  8
0
 62
     0
 10
239.87892
 20
220.249466
 30
0.0
  0
SEQEND
  5
324D
  8
0
 62
     0
  0
LINE
  5
29D0
  8
0
 62
     0
 10
239.926176
 20
220.231005
 30
0.0
 11
239.926347
 21
220.231366
 31
0.0
  0
POLYLINE
  5
29D1
  8
0
 62
     0
 66
     1
 10
0.0
 20
0.0
 30
0.0
  0
VERTEX
  5
324E
  8
0
 62
     0
 10
239.926347
 20
220.231366
 30
0.0
  0
VERTEX
  5
324F
  8
0
 62
     0
 10
239.930011
 20
220.239661
 30
0.0
  0
VERTEX
  5
3250
  8
0
 62
     0
 10
239.943711
 20
220.31212
 30
0.0
  0
SEQEND
  5
3251
  8
0
 62
     0
  0
POLYLINE
  5
29D2
  8
0
 62
     0
 66
     1
 10
0.0
 20
0.0
 30
0.0
  0
VERTEX
  5
3252
  8
0
 62
     0
 10
239.926311
 20
220.231293
 30
0.0
  0
VERTEX
  5
3253
  8
0
 62
     0
 10
240.321966
 20
221.213268
 30
0.0
  0
VERTEX
  5
3254
  8
0
 62
     0
 10
240.53753
 20
222.106679
 30
0.0
  0
SEQEND
  5
3255
  8
0
 62
     0
  0
LINE
  5
29D3
  8
0
 62
     0
 10
239.922471
 20
220.278378
 30
0.0
 11
239.943711
 21
220.31212
 31
0.0
  0
POLYLINE
  5
29D4
  8
0
 62
     0
 66
     1
 10
0.0
 20
0.0
 30
0.0
  0
VERTEX
  5
3256
  8
0
 62
     0
 10
239.926176
 20
220.231005
 30
0.0
  0
VERTEX
  5
3257
  8
0
 62
     0
 10
239.904929
 20
220.195998
 30
0.0
  0
VERTEX
  5
3258
  8
0
 62
     0
 10
239.849658
 20
220.146001
 30
0.0
  0
SEQEND
  5
3259
  8
0
 62
     0
  0
LINE
  5
29D5
  8
0
 62
     0
 10
239.87892
 20
220.249466
 30
0.0
 11
239.922471
 21
220.278378
 31
0.0
  0
LINE
  5
29D6
  8
0
 62
     0
 10
239.849658
 20
220.146001
 30
0.0
 11
239.775059
 21
220.118924
 31
0.0
  0
POLYLINE
  5
29D7
  8
0
 62
     0
 66
     1
 10
0.0
 20
0.0
 30
0.0
  0
VERTEX
  5
325A
  8
0
 62
     0
 10
239.748967
 20
226.98799
 30
0.0
  0
VERTEX
  5
325B
  8
0
 62
     0
 10
239.823844
 20
226.971136
 30
0.0
  0
VERTEX
  5
325C
  8
0
 62
     0
 10
239.88761
 20
226.926411
 30
0.0
  0
VERTEX
  5
325D
  8
0
 62
     0
 10
239.929707
 20
226.860649
 30
0.0
  0
VERTEX
  5
325E
  8
0
 62
     0
 10
239.943711
 20
226.783854
 30
0.0
  0
SEQEND
  5
325F
  8
0
 62
     0
  0
POLYLINE
  5
29D8
  8
0
 62
     0
 66
     1
 10
0.0
 20
0.0
 30
0.0
  0
VERTEX
  5
3260
  8
0
 62
     0
 10
239.748967
 20
226.819891
 30
0.0
  0
VERTEX
  5
3261
  8
0
 62
     0
 10
239.817583
 20
226.814726
 30
0.0
  0
VERTEX
  5
3262
  8
0
 62
     0
 10
239.877938
 20
226.806441
 30
0.0
  0
VERTEX
  5
3263
  8
0
 62
     0
 10
239.922341
 20
226.795427
 30
0.0
  0
VERTEX
  5
3264
  8
0
 62
     0
 10
239.943711
 20
226.783854
 30
0.0
  0
SEQEND
  5
3265
  8
0
 62
     0
  0
POLYLINE
  5
29D9
  8
0
 62
     0
 66
     1
 10
0.0
 20
0.0
 30
0.0
  0
VERTEX
  5
3266
  8
0
 62
     0
 10
239.874488
 20
224.44528
 30
0.0
  0
VERTEX
  5
3267
  8
0
 62
     0
 10
239.88671
 20
225.102479
 30
0.0
  0
VERTEX
  5
3268
  8
0
 62
     0
 10
239.903543
 20
225.723002
 30
0.0
  0
VERTEX
  5
3269
  8
0
 62
     0
 10
239.923258
 20
226.289799
 30
0.0
  0
VERTEX
  5
326A
  8
0
 62
     0
 10
239.943711
 20
226.783834
 30
0.0
  0
SEQEND
  5
326B
  8
0
 62
     0
  0
POLYLINE
  5
29DA
  8
0
 62
     0
 66
     1
 10
0.0
 20
0.0
 30
0.0
  0
VERTEX
  5
326C
  8
0
 62
     0
 10
239.679459
 20
224.399986
 30
0.0
  0
VERTEX
  5
326D
  8
0
 62
     0
 10
239.691556
 20
225.079885
 30
0.0
  0
VERTEX
  5
326E
  8
0
 62
     0
 10
239.708433
 20
225.722393
 30
0.0
  0
VERTEX
  5
326F
  8
0
 62
     0
 10
239.72831
 20
226.309142
 30
0.0
  0
VERTEX
  5
3270
  8
0
 62
     0
 10
239.748848
 20
226.819893
 30
0.0
  0
SEQEND
  5
3271
  8
0
 62
     0
  0
POLYLINE
  5
29DB
  8
0
 62
     0
 66
     1
 10
0.0
 20
0.0
 30
0.0
  0
VERTEX
  5
3272
  8
0
 62
     0
 10
239.748967
 20
226.819891
 30
0.0
  0
VERTEX
  5
3273
  8
0
 62
     0
 10
239.749691
 20
226.88336
 30
0.0
  0
VERTEX
  5
3274
  8
0
 62
     0
 10
239.749942
 20
226.936175
 30
0.0
  0
VERTEX
  5
3275
  8
0
 62
     0
 10
239.749691
 20
226.972408
 30
0.0
  0
VERTEX
  5
3276
  8
0
 62
     0
 10
239.748967
 20
226.98799
 30
0.0
  0
SEQEND
  5
3277
  8
0
 62
     0
  0
LINE
  5
29DC
  8
0
 62
     0
 10
240.579274
 20
227.771012
 30
0.0
 11
240.579274
 21
226.190358
 31
0.0
  0
POLYLINE
  5
29DD
  8
0
 62
     0
 66
     1
 10
0.0
 20
0.0
 30
0.0
  0
VERTEX
  5
3278
  8
0
 62
     0
 10
239.690253
 20
224.399654
 30
0.0
  0
VERTEX
  5
3279
  8
0
 62
     0
 10
239.686658
 20
224.399855
 30
0.0
  0
VERTEX
  5
327A
  8
0
 62
     0
 10
239.68306
 20
224.399965
 30
0.0
  0
VERTEX
  5
327B
  8
0
 62
     0
 10
239.679459
 20
224.399986
 30
0.0
  0
SEQEND
  5
327C
  8
0
 62
     0
  0
POLYLINE
  5
29DE
  8
0
 62
     0
 66
     1
 10
0.0
 20
0.0
 30
0.0
  0
VERTEX
  5
327D
  8
0
 62
     0
 10
239.690253
 20
224.399654
 30
0.0
  0
VERTEX
  5
327E
  8
0
 62
     0
 10
239.767143
 20
224.398314
 30
0.0
  0
VERTEX
  5
327F
  8
0
 62
     0
 10
239.828378
 20
224.408983
 30
0.0
  0
VERTEX
  5
3280
  8
0
 62
     0
 10
239.866289
 20
224.434384
 30
0.0
  0
SEQEND
  5
3281
  8
0
 62
     0
  0
POLYLINE
  5
29DF
  8
0
 62
     0
 66
     1
 10
0.0
 20
0.0
 30
0.0
  0
VERTEX
  5
3282
  8
0
 62
     0
 10
240.579274
 20
226.190358
 30
0.0
  0
VERTEX
  5
3283
  8
0
 62
     0
 10
240.500851
 20
225.606972
 30
0.0
  0
VERTEX
  5
3284
  8
0
 62
     0
 10
240.265751
 20
225.024856
 30
0.0
  0
VERTEX
  5
3285
  8
0
 62
     0
 10
240.092208
 20
224.738548
 30
0.0
  0
SEQEND
  5
3286
  8
0
 62
     0
  0
LINE
  5
29E0
  8
0
 62
     0
 10
240.092208
 20
224.738548
 30
0.0
 11
239.874488
 21
224.44528
 31
0.0
  0
POLYLINE
  5
29E1
  8
0
 62
     0
 66
     1
 10
0.0
 20
0.0
 30
0.0
  0
VERTEX
  5
3287
  8
0
 62
     0
 10
239.866289
 20
224.434384
 30
0.0
  0
VERTEX
  5
3288
  8
0
 62
     0
 10
239.869757
 20
224.439106
 30
0.0
  0
VERTEX
  5
3289
  8
0
 62
     0
 10
239.872489
 20
224.442733
 30
0.0
  0
VERTEX
  5
328A
  8
0
 62
     0
 10
239.874488
 20
224.44528
 30
0.0
  0
SEQEND
  5
328B
  8
0
 62
     0
  0
POLYLINE
  5
29E2
  8
0
 62
     0
 66
     1
 10
0.0
 20
0.0
 30
0.0
  0
VERTEX
  5
328C
  8
0
 62
     0
 10
239.943711
 20
226.783834
 30
0.0
  0
VERTEX
  5
328D
  8
0
 62
     0
 10
240.364947
 20
227.104148
 30
0.0
  0
VERTEX
  5
328E
  8
0
 62
     0
 10
240.562674
 20
227.550567
 30
0.0
  0
VERTEX
  5
328F
  8
0
 62
     0
 10
240.579274
 20
227.756032
 30
0.0
  0
SEQEND
  5
3290
  8
0
 62
     0
  0
POLYLINE
  5
29E3
  8
0
 62
     0
 66
     1
 10
0.0
 20
0.0
 30
0.0
  0
VERTEX
  5
3291
  8
0
 62
     0
 10
228.422991
 20
230.411794
 30
0.0
  0
VERTEX
  5
3292
  8
0
 62
     0
 10
228.668653
 20
230.262263
 30
0.0
  0
VERTEX
  5
3293
  8
0
 62
     0
 10
229.026679
 20
230.126311
 30
0.0
  0
VERTEX
  5
3294
  8
0
 62
     0
 10
229.484725
 20
230.007671
 30
0.0
  0
VERTEX
  5
3295
  8
0
 62
     0
 10
230.027793
 20
229.909274
 30
0.0
  0
VERTEX
  5
3296
  8
0
 62
     0
 10
230.638742
 20
229.833461
 30
0.0
  0
VERTEX
  5
3297
  8
0
 62
     0
 10
231.298131
 20
229.782157
 30
0.0
  0
VERTEX
  5
3298
  8
0
 62
     0
 10
231.982765
 20
229.756922
 30
0.0
  0
SEQEND
  5
3299
  8
0
 62
     0
  0
POLYLINE
  5
29E4
  8
0
 62
     0
 66
     1
 10
0.0
 20
0.0
 30
0.0
  0
VERTEX
  5
329A
  8
0
 62
     0
 10
231.982714
 20
229.761407
 30
0.0
  0
VERTEX
  5
329B
  8
0
 62
     0
 10
231.335097
 20
229.784737
 30
0.0
  0
VERTEX
  5
329C
  8
0
 62
     0
 10
230.648721
 20
229.83771
 30
0.0
  0
VERTEX
  5
329D
  8
0
 62
     0
 10
230.004635
 20
229.919331
 30
0.0
  0
VERTEX
  5
329E
  8
0
 62
     0
 10
229.444736
 20
230.025571
 30
0.0
  0
VERTEX
  5
329F
  8
0
 62
     0
 10
229.001822
 20
230.148549
 30
0.0
  0
VERTEX
  5
32A0
  8
0
 62
     0
 10
228.69532
 20
230.275822
 30
0.0
  0
VERTEX
  5
32A1
  8
0
 62
     0
 10
228.529641
 20
230.386572
 30
0.0
  0
VERTEX
  5
32A2
  8
0
 62
     0
 10
228.480918
 20
230.449296
 30
0.0
  0
VERTEX
  5
32A3
  8
0
 62
     0
 10
228.479353
 20
230.462011
 30
0.0
  0
SEQEND
  5
32A4
  8
0
 62
     0
  0
LINE
  5
29E5
  8
0
 62
     0
 10
238.009565
 20
231.808618
 30
0.0
 11
226.904388
 21
232.044633
 31
0.0
  0
LINE
  5
29E6
  8
0
 62
     0
 10
238.008769
 20
231.800854
 30
0.0
 11
226.903877
 21
232.036787
 31
0.0
  0
POLYLINE
  5
29E7
  8
0
 62
     0
 66
     1
 10
0.0
 20
0.0
 30
0.0
  0
VERTEX
  5
32A5
  8
0
 62
     0
 10
231.979274
 20
231.293923
 30
0.0
  0
VERTEX
  5
32A6
  8
0
 62
     0
 10
231.33282
 20
231.289337
 30
0.0
  0
VERTEX
  5
32A7
  8
0
 62
     0
 10
230.710831
 20
231.252512
 30
0.0
  0
VERTEX
  5
32A8
  8
0
 62
     0
 10
230.133971
 20
231.185529
 30
0.0
  0
VERTEX
  5
32A9
  8
0
 62
     0
 10
229.620514
 20
231.091537
 30
0.0
  0
VERTEX
  5
32AA
  8
0
 62
     0
 10
229.186755
 20
230.974523
 30
0.0
  0
VERTEX
  5
32AB
  8
0
 62
     0
 10
228.847142
 20
230.839245
 30
0.0
  0
VERTEX
  5
32AC
  8
0
 62
     0
 10
228.613638
 20
230.691155
 30
0.0
  0
VERTEX
  5
32AD
  8
0
 62
     0
 10
228.494481
 20
230.535948
 30
0.0
  0
VERTEX
  5
32AE
  8
0
 62
     0
 10
228.479342
 20
230.462015
 30
0.0
  0
SEQEND
  5
32AF
  8
0
 62
     0
  0
POLYLINE
  5
29E8
  8
0
 62
     0
 66
     1
 10
0.0
 20
0.0
 30
0.0
  0
VERTEX
  5
32B0
  8
0
 62
     0
 10
231.982765
 20
231.521427
 30
0.0
  0
VERTEX
  5
32B1
  8
0
 62
     0
 10
231.30021
 20
231.516298
 30
0.0
  0
VERTEX
  5
32B2
  8
0
 62
     0
 10
230.64253
 20
231.477817
 30
0.0
  0
VERTEX
  5
32B3
  8
0
 62
     0
 10
230.032548
 20
231.408117
 30
0.0
  0
VERTEX
  5
32B4
  8
0
 62
     0
 10
229.489596
 20
231.310441
 30
0.0
  0
VERTEX
  5
32B5
  8
0
 62
     0
 10
229.030911
 20
231.188898
 30
0.0
  0
VERTEX
  5
32B6
  8
0
 62
     0
 10
228.671776
 20
231.048391
 30
0.0
  0
VERTEX
  5
32B7
  8
0
 62
     0
 10
228.424847
 20
230.89455
 30
0.0
  0
VERTEX
  5
32B8
  8
0
 62
     0
 10
228.298843
 20
230.733269
 30
0.0
  0
VERTEX
  5
32B9
  8
0
 62
     0
 10
228.298236
 20
230.570502
 30
0.0
  0
VERTEX
  5
32BA
  8
0
 62
     0
 10
228.422991
 20
230.411794
 30
0.0
  0
SEQEND
  5
32BB
  8
0
 62
     0
  0
LINE
  5
29E9
  8
0
 62
     0
 10
225.029274
 20
239.48055
 30
0.0
 11
225.029274
 21
236.414761
 31
0.0
  0
LINE
  5
29EA
  8
0
 62
     0
 10
224.279274
 20
239.48055
 30
0.0
 11
224.279274
 21
236.70555
 31
0.0
  0
LINE
  5
29EB
  8
0
 62
     0
 10
224.279274
 20
237.55555
 30
0.0
 11
221.817889
 21
237.302402
 31
0.0
  0
POLYLINE
  5
29EC
  8
0
 62
     0
 66
     1
 10
0.0
 20
0.0
 30
0.0
  0
VERTEX
  5
32BC
  8
0
 62
     0
 10
223.879274
 20
229.674476
 30
0.0
  0
VERTEX
  5
32BD
  8
0
 62
     0
 10
224.01764
 20
231.085306
 30
0.0
  0
VERTEX
  5
32BE
  8
0
 62
     0
 10
224.178483
 20
232.259529
 30
0.0
  0
SEQEND
  5
32BF
  8
0
 62
     0
  0
ARC
  5
29ED
  8
0
 62
     0
 10
221.879274
 20
236.70555
 30
0.0
 40
0.6
 50
95.872106
 51
180.000279
  0
POLYLINE
  5
29EE
  8
0
 62
     0
 66
     1
 10
0.0
 20
0.0
 30
0.0
  0
VERTEX
  5
32C0
  8
0
 62
     0
 10
222.784924
 20
236.70555
 30
0.0
  0
VERTEX
  5
32C1
  8
0
 62
     0
 10
222.973614
 20
236.66749
 30
0.0
  0
VERTEX
  5
32C2
  8
0
 62
     0
 10
223.133578
 20
236.559104
 30
0.0
  0
VERTEX
  5
32C3
  8
0
 62
     0
 10
223.240463
 20
236.396892
 30
0.0
  0
VERTEX
  5
32C4
  8
0
 62
     0
 10
223.277996
 20
236.20555
 30
0.0
  0
SEQEND
  5
32C5
  8
0
 62
     0
  0
LINE
  5
29EF
  8
0
 62
     0
 10
225.079274
 20
236.20555
 30
0.0
 11
225.079274
 21
233.45555
 31
0.0
  0
POLYLINE
  5
29F0
  8
0
 62
     0
 66
     1
 10
0.0
 20
0.0
 30
0.0
  0
VERTEX
  5
32C6
  8
0
 62
     0
 10
224.686273
 20
233.955645
 30
0.0
  0
VERTEX
  5
32C7
  8
0
 62
     0
 10
224.797657
 20
233.817576
 30
0.0
  0
VERTEX
  5
32C8
  8
0
 62
     0
 10
224.872264
 20
233.45555
 30
0.0
  0
SEQEND
  5
32C9
  8
0
 62
     0
  0
LINE
  5
29F1
  8
0
 62
     0
 10
226.011982
 20
232.92472
 30
0.0
 11
225.879274
 21
233.45555
 31
0.0
  0
LINE
  5
29F2
  8
0
 62
     0
 10
225.879274
 20
233.45555
 30
0.0
 11
224.437355
 21
233.45555
 31
0.0
  0
LINE
  5
29F3
  8
0
 62
     0
 10
224.178483
 20
232.259529
 30
0.0
 11
224.351202
 21
233.162808
 31
0.0
  0
POLYLINE
  5
29F4
  8
0
 62
     0
 66
     1
 10
0.0
 20
0.0
 30
0.0
  0
VERTEX
  5
32CA
  8
0
 62
     0
 10
224.351202
 20
233.162808
 30
0.0
  0
VERTEX
  5
32CB
  8
0
 62
     0
 10
224.520116
 20
233.736767
 30
0.0
  0
VERTEX
  5
32CC
  8
0
 62
     0
 10
224.670693
 20
233.953293
 30
0.0
  0
VERTEX
  5
32CD
  8
0
 62
     0
 10
224.686273
 20
233.955645
 30
0.0
  0
SEQEND
  5
32CE
  8
0
 62
     0
  0
LINE
  5
29F5
  8
0
 62
     0
 10
228.479342
 20
230.462015
 30
0.0
 11
228.479274
 21
230.456731
 31
0.0
  0
LINE
  5
29F6
  8
0
 62
     0
 10
226.903877
 20
232.036787
 30
0.0
 11
226.904388
 21
232.044605
 31
0.0
  0
POLYLINE
  5
29F7
  8
0
 62
     0
 66
     1
 10
0.0
 20
0.0
 30
0.0
  0
VERTEX
  5
32CF
  8
0
 62
     0
 10
226.903877
 20
232.036787
 30
0.0
  0
VERTEX
  5
32D0
  8
0
 62
     0
 10
226.767872
 20
231.124932
 30
0.0
  0
VERTEX
  5
32D1
  8
0
 62
     0
 10
226.451643
 20
230.370398
 30
0.0
  0
SEQEND
  5
32D2
  8
0
 62
     0
  0
ARC
  5
29F8
  8
0
 62
     0
 10
224.579274
 20
236.20555
 30
0.0
 40
0.5
 50
0.0
 51
90.0
  0
LINE
  5
29F9
  8
0
 62
     0
 10
225.029274
 20
239.48055
 30
0.0
 11
224.279274
 21
239.48055
 31
0.0
  0
LINE
  5
29FA
  8
0
 62
     0
 10
238.927461
 20
230.754789
 30
0.0
 11
238.008769
 21
231.800854
 31
0.0
  0
POLYLINE
  5
29FB
  8
0
 62
     0
 66
     1
 10
0.0
 20
0.0
 30
0.0
  0
VERTEX
  5
32D3
  8
0
 62
     0
 10
235.479193
 20
230.33503
 30
0.0
  0
VERTEX
  5
32D4
  8
0
 62
     0
 10
235.464564
 20
230.407671
 30
0.0
  0
VERTEX
  5
32D5
  8
0
 62
     0
 10
235.346415
 20
230.567146
 30
0.0
  0
VERTEX
  5
32D6
  8
0
 62
     0
 10
235.113689
 20
230.723842
 30
0.0
  0
VERTEX
  5
32D7
  8
0
 62
     0
 10
234.77438
 20
230.871739
 30
0.0
  0
VERTEX
  5
32D8
  8
0
 62
     0
 10
234.340374
 20
231.004875
 30
0.0
  0
VERTEX
  5
32D9
  8
0
 62
     0
 10
233.826241
 20
231.117882
 30
0.0
  0
VERTEX
  5
32DA
  8
0
 62
     0
 10
233.248546
 20
231.206111
 30
0.0
  0
VERTEX
  5
32DB
  8
0
 62
     0
 10
232.625893
 20
231.265727
 30
0.0
  0
VERTEX
  5
32DC
  8
0
 62
     0
 10
231.979274
 20
231.293923
 30
0.0
  0
SEQEND
  5
32DD
  8
0
 62
     0
  0
POLYLINE
  5
29FC
  8
0
 62
     0
 66
     1
 10
0.0
 20
0.0
 30
0.0
  0
VERTEX
  5
32DE
  8
0
 62
     0
 10
231.982765
 20
229.756922
 30
0.0
  0
VERTEX
  5
32DF
  8
0
 62
     0
 10
232.667316
 20
229.758601
 30
0.0
  0
VERTEX
  5
32E0
  8
0
 62
     0
 10
233.326439
 20
229.787195
 30
0.0
  0
VERTEX
  5
32E1
  8
0
 62
     0
 10
233.937036
 20
229.841923
 30
0.0
  0
VERTEX
  5
32E2
  8
0
 62
     0
 10
234.479724
 20
229.921507
 30
0.0
  0
VERTEX
  5
32E3
  8
0
 62
     0
 10
234.937469
 20
230.024179
 30
0.0
  0
VERTEX
  5
32E4
  8
0
 62
     0
 10
235.295433
 20
230.147533
 30
0.0
  0
SEQEND
  5
32E5
  8
0
 62
     0
  0
POLYLINE
  5
29FD
  8
0
 62
     0
 66
     1
 10
0.0
 20
0.0
 30
0.0
  0
VERTEX
  5
32E6
  8
0
 62
     0
 10
235.479182
 20
230.335021
 30
0.0
  0
VERTEX
  5
32E7
  8
0
 62
     0
 10
235.477931
 20
230.323127
 30
0.0
  0
VERTEX
  5
32E8
  8
0
 62
     0
 10
235.43215
 20
230.266028
 30
0.0
  0
VERTEX
  5
32E9
  8
0
 62
     0
 10
235.269345
 20
230.162637
 30
0.0
  0
VERTEX
  5
32EA
  8
0
 62
     0
 10
234.964498
 20
230.046317
 30
0.0
  0
VERTEX
  5
32EB
  8
0
 62
     0
 10
234.522255
 20
229.938562
 30
0.0
  0
VERTEX
  5
32EC
  8
0
 62
     0
 10
233.962322
 20
229.85146
 30
0.0
  0
VERTEX
  5
32ED
  8
0
 62
     0
 10
233.317775
 20
229.791884
 30
0.0
  0
VERTEX
  5
32EE
  8
0
 62
     0
 10
232.630788
 20
229.762466
 30
0.0
  0
VERTEX
  5
32EF
  8
0
 62
     0
 10
231.982714
 20
229.761407
 30
0.0
  0
SEQEND
  5
32F0
  8
0
 62
     0
  0
POLYLINE
  5
29FE
  8
0
 62
     0
 66
     1
 10
0.0
 20
0.0
 30
0.0
  0
VERTEX
  5
32F1
  8
0
 62
     0
 10
235.295433
 20
230.147533
 30
0.0
  0
VERTEX
  5
32F2
  8
0
 62
     0
 10
235.541386
 20
230.288288
 30
0.0
  0
VERTEX
  5
32F3
  8
0
 62
     0
 10
235.666827
 20
230.442396
 30
0.0
  0
VERTEX
  5
32F4
  8
0
 62
     0
 10
235.667205
 20
230.604965
 30
0.0
  0
VERTEX
  5
32F5
  8
0
 62
     0
 10
235.54225
 20
230.770516
 30
0.0
  0
VERTEX
  5
32F6
  8
0
 62
     0
 10
235.296131
 20
230.932971
 30
0.0
  0
VERTEX
  5
32F7
  8
0
 62
     0
 10
234.937306
 20
231.08611
 30
0.0
  0
VERTEX
  5
32F8
  8
0
 62
     0
 10
234.47835
 20
231.22379
 30
0.0
  0
VERTEX
  5
32F9
  8
0
 62
     0
 10
233.934676
 20
231.340492
 30
0.0
  0
VERTEX
  5
32FA
  8
0
 62
     0
 10
233.323806
 20
231.431446
 30
0.0
  0
VERTEX
  5
32FB
  8
0
 62
     0
 10
232.665422
 20
231.492722
 30
0.0
  0
VERTEX
  5
32FC
  8
0
 62
     0
 10
231.982765
 20
231.521427
 30
0.0
  0
SEQEND
  5
32FD
  8
0
 62
     0
  0
LINE
  5
29FF
  8
0
 62
     0
 10
235.479274
 20
230.329242
 30
0.0
 11
235.479193
 21
230.33503
 31
0.0
  0
LINE
  5
2A00
  8
0
 62
     0
 10
238.151533
 20
231.745117
 30
0.0
 11
238.151813
 21
231.744816
 31
0.0
  0
POLYLINE
  5
2A01
  8
0
 62
     0
 66
     1
 10
0.0
 20
0.0
 30
0.0
  0
VERTEX
  5
32FE
  8
0
 62
     0
 10
238.082476
 20
231.790367
 30
0.0
  0
VERTEX
  5
32FF
  8
0
 62
     0
 10
238.144966
 20
231.751782
 30
0.0
  0
VERTEX
  5
3300
  8
0
 62
     0
 10
238.151533
 20
231.745117
 30
0.0
  0
SEQEND
  5
3301
  8
0
 62
     0
  0
POLYLINE
  5
2A02
  8
0
 62
     0
 66
     1
 10
0.0
 20
0.0
 30
0.0
  0
VERTEX
  5
3302
  8
0
 62
     0
 10
238.077351
 20
231.795239
 30
0.0
  0
VERTEX
  5
3303
  8
0
 62
     0
 10
238.135728
 20
231.760294
 30
0.0
  0
VERTEX
  5
3304
  8
0
 62
     0
 10
238.151813
 20
231.744816
 30
0.0
  0
SEQEND
  5
3305
  8
0
 62
     0
  0
LINE
  5
2A03
  8
0
 62
     0
 10
238.009565
 20
231.808618
 30
0.0
 11
238.077351
 21
231.795239
 31
0.0
  0
LINE
  5
2A04
  8
0
 62
     0
 10
238.008803
 20
231.800853
 30
0.0
 11
238.082476
 21
231.790367
 31
0.0
  0
LINE
  5
2A05
  8
0
 62
     0
 10
238.008803
 20
231.800853
 30
0.0
 11
238.009565
 21
231.808618
 31
0.0
  0
ENDSEC
  0
EOF
