  0
SECTION
  2
HEADER
  9
$ACADVER
  1
AC1009
  9
$INSBASE
 10
402.590624
 20
-1.041018
 30
0.0
  9
$EXTMIN
 10
-18.480312
 20
35.228457
 30
0.0
  9
$EXTMAX
 10
113.516502
 20
205.140132
 30
0.0
  9
$LIMMIN
 10
-407.970438
 20
-367.832444
  9
$LIMMAX
 10
429.804077
 20
234.370848
  9
$ORTHOMODE
 70
     0
  9
$REGENMODE
 70
     1
  9
$FILLMODE
 70
     1
  9
$QTEXTMODE
 70
     0
  9
$MIRRTEXT
 70
     1
  9
$DRAGMODE
 70
     2
  9
$LTSCALE
 40
10.0
  9
$OSMODE
 70
    33
  9
$ATTMODE
 70
     1
  9
$TEXTSIZE
 40
6.0
  9
$TRACEWID
 40
1.0
  9
$TEXTSTYLE
  7
ROMANS
  9
$CLAYER
  8
ALPHA
  9
$CELTYPE
  6
BYLAYER
  9
$CECOLOR
 62
   256
  9
$DIMSCALE
 40
1.0
  9
$DIMASZ
 40
5.0
  9
$DIMEXO
 40
2.0
  9
$DIMDLI
 40
0.38
  9
$DIMRND
 40
0.0
  9
$DIMDLE
 40
0.0
  9
$DIMEXE
 40
2.5
  9
$DIMTP
 40
0.0
  9
$DIMTM
 40
0.0
  9
$DIMTXT
 40
2.5
  9
$DIMCEN
 40
0.0
  9
$DIMTSZ
 40
0.0
  9
$DIMTOL
 70
     0
  9
$DIMLIM
 70
     0
  9
$DIMTIH
 70
     1
  9
$DIMTOH
 70
     1
  9
$DIMSE1
 70
     0
  9
$DIMSE2
 70
     0
  9
$DIMTAD
 70
     1
  9
$DIMZIN
 70
    12
  9
$DIMBLK
  1
OPEN30
  9
$DIMASO
 70
     1
  9
$DIMSHO
 70
     1
  9
$DIMPOST
  1

  9
$DIMAPOST
  1

  9
$DIMALT
 70
     0
  9
$DIMALTD
 70
     2
  9
$DIMALTF
 40
25.4
  9
$DIMLFAC
 40
1.0
  9
$DIMTOFL
 70
     0
  9
$DIMTVP
 40
0.0
  9
$DIMTIX
 70
     0
  9
$DIMSOXD
 70
     0
  9
$DIMSAH
 70
     0
  9
$DIMBLK1
  1

  9
$DIMBLK2
  1

  9
$DIMSTYLE
  2
SC_DEFAUT
  9
$DIMCLRD
 70
     0
  9
$DIMCLRE
 70
     0
  9
$DIMCLRT
 70
     0
  9
$DIMTFAC
 40
1.0
  9
$DIMGAP
 40
2.0
  9
$LUNITS
 70
     2
  9
$LUPREC
 70
     1
  9
$SKETCHINC
 40
0.1
  9
$FILLETRAD
 40
0.0
  9
$AUNITS
 70
     0
  9
$AUPREC
 70
     0
  9
$MENU
  1
acad
  9
$ELEVATION
 40
0.0
  9
$PELEVATION
 40
0.0
  9
$THICKNESS
 40
0.0
  9
$LIMCHECK
 70
     0
  9
$BLIPMODE
 70
     0
  9
$CHAMFERA
 40
0.0
  9
$CHAMFERB
 40
0.0
  9
$SKPOLY
 70
     0
  9
$TDCREATE
 40
2450373.687919
  9
$TDUPDATE
 40
2452839.628561
  9
$TDINDWG
 40
1.753003
  9
$TDUSRTIMER
 40
1.753003
  9
$USRTIMER
 70
     1
  9
$ANGBASE
 50
0.0
  9
$ANGDIR
 70
     0
  9
$PDMODE
 70
    32
  9
$PDSIZE
 40
0.0
  9
$PLINEWID
 40
0.0
  9
$COORDS
 70
     1
  9
$SPLFRAME
 70
     0
  9
$SPLINETYPE
 70
     6
  9
$SPLINESEGS
 70
     8
  9
$ATTDIA
 70
     0
  9
$ATTREQ
 70
     1
  9
$HANDLING
 70
     1
  9
$HANDSEED
  5
1496D
  9
$SURFTAB1
 70
     6
  9
$SURFTAB2
 70
     6
  9
$SURFTYPE
 70
     6
  9
$SURFU
 70
     6
  9
$SURFV
 70
     6
  9
$UCSNAME
  2

  9
$UCSORG
 10
0.0
 20
0.0
 30
0.0
  9
$UCSXDIR
 10
1.0
 20
0.0
 30
0.0
  9
$UCSYDIR
 10
0.0
 20
1.0
 30
0.0
  9
$PUCSNAME
  2

  9
$PUCSORG
 10
0.0
 20
0.0
 30
0.0
  9
$PUCSXDIR
 10
1.0
 20
0.0
 30
0.0
  9
$PUCSYDIR
 10
0.0
 20
1.0
 30
0.0
  9
$USERI1
 70
     0
  9
$USERI2
 70
     0
  9
$USERI3
 70
     0
  9
$USERI4
 70
     0
  9
$USERI5
 70
     0
  9
$USERR1
 40
0.0
  9
$USERR2
 40
0.0
  9
$USERR3
 40
0.0
  9
$USERR4
 40
0.0
  9
$USERR5
 40
0.0
  9
$WORLDVIEW
 70
     1
  9
$SHADEDGE
 70
     3
  9
$SHADEDIF
 70
    70
  9
$TILEMODE
 70
     1
  9
$MAXACTVP
 70
    16
  9
$PLIMCHECK
 70
     0
  9
$PEXTMIN
 10
-1.452248
 20
-0.437698
 30
0.0
  9
$PEXTMAX
 10
12.749749
 20
8.310198
 30
0.0
  9
$PLIMMIN
 10
0.0
 20
0.0
  9
$PLIMMAX
 10
12.0
 20
9.0
  9
$UNITMODE
 70
     0
  9
$VISRETAIN
 70
     0
  9
$PLINEGEN
 70
     0
  9
$PSLTSCALE
 70
     0
  0
ENDSEC
  0
SECTION
  2
TABLES
  0
TABLE
  2
VPORT
 70
     2
  0
VPORT
  2
*ACTIVE
 70
     0
 10
0.0
 20
0.0
 11
1.0
 21
1.0
 12
47.541333
 22
120.19426
 13
0.0
 23
0.0
 14
1.0
 24
1.0
 15
10.0
 25
10.0
 16
0.0
 26
0.0
 36
1.0
 17
0.0
 27
0.0
 37
0.0
 40
171.4032
 41
1.56
 42
50.0
 43
0.0
 44
0.0
 50
0.0
 51
0.0
 71
     0
 72
   100
 73
     1
 74
     0
 75
     0
 76
     0
 77
     0
 78
     0
  0
ENDTAB
  0
TABLE
  2
LTYPE
 70
     2
  0
LTYPE
  2
CONTINUOUS
 70
     0
  3
Solid line
 72
    65
 73
     0
 40
0.0
  0
LTYPE
  2
AXES2
 70
     0
  3
___ _ ___ _ ___ _ ___ _ ___ _ ___ _ ___ _ ___ _
 72
    65
 73
     4
 40
1.125
 49
0.75
 49
-0.125
 49
0.125
 49
-0.125
  0
ENDTAB
  0
TABLE
  2
LAYER
 70
     5
  0
LAYER
  2
0
 70
     0
 62
   255
  6
CONTINUOUS
  0
LAYER
  2
COTATION1
 70
     0
 62
     2
  6
CONTINUOUS
  0
LAYER
  2
AXE
 70
     0
 62
    80
  6
AXES2
  0
LAYER
  2
DEFPOINTS
 70
     0
 62
     7
  6
CONTINUOUS
  0
LAYER
  2
ALPHA
 70
     0
 62
   254
  6
CONTINUOUS
  0
ENDTAB
  0
TABLE
  2
STYLE
 70
     2
  0
STYLE
  2
ROMANS
 70
     0
 40
0.0
 41
1.0
 50
0.0
 71
     0
 42
6.0
  3
romans
  4

  0
STYLE
  2
STANDARD
 70
     0
 40
0.2
 41
1.0
 50
0.0
 71
     0
 42
0.2
  3
txt
  4

  0
ENDTAB
  0
TABLE
  2
VIEW
 70
     0
  0
ENDTAB
  0
TABLE
  2
UCS
 70
     0
  0
ENDTAB
  0
TABLE
  2
APPID
 70
     1
  0
APPID
  2
ACAD
 70
     0
  0
ENDTAB
  0
TABLE
  2
DIMSTYLE
 70
     1
  0
DIMSTYLE
  2
SC_DEFAUT
 70
     0
  3

  4

  5
OPEN30
  6

  7

 40
1.0
 41
5.0
 42
2.0
 43
0.38
 44
2.5
 45
0.0
 46
0.0
 47
0.0
 48
0.0
140
2.5
141
0.0
142
0.0
143
25.4
144
1.0
145
0.0
146
1.0
147
2.0
 71
     0
 72
     0
 73
     1
 74
     1
 75
     0
 76
     0
 77
     1
 78
    12
170
     0
171
     2
172
     0
173
     0
174
     0
175
     0
176
     0
177
     0
178
     0
  0
ENDTAB
  0
ENDSEC
  0
SECTION
  2
BLOCKS
  0
BLOCK
  8
0
  2
$MODEL_SPACE
 70
     0
 10
0.0
 20
0.0
 30
0.0
  3
$MODEL_SPACE
  1

  0
ENDBLK
  5
148F2
  8
0
  0
BLOCK
 67
     1
  8
0
  2
$PAPER_SPACE
 70
     0
 10
0.0
 20
0.0
 30
0.0
  3
$PAPER_SPACE
  1

  0
ENDBLK
  5
148F0
 67
     1
  8
0
  0
BLOCK
  8
0
  2
COTE
 70
     0
 10
0.0
 20
0.0
 30
0.0
  3
COTE
  1

  0
ENDBLK
  5
F
  8
0
  0
BLOCK
  8
0
  2
FOND
 70
     0
 10
0.0
 20
0.0
 30
0.0
  3
FOND
  1

  0
ENDBLK
  5
75
  8
0
  0
BLOCK
  8
0
  2
_OPEN30
 70
     0
 10
0.0
 20
0.0
 30
0.0
  3
_OPEN30
  1

  0
LINE
  5
4B05
  8
COTATION1
 62
     0
 10
-1.0
 20
0.267949
 30
0.0
 11
0.0
 21
0.0
 31
0.0
1001
ACAD
1000
RTLwPs
1070
   158
  0
LINE
  5
4B06
  8
COTATION1
 62
     0
 10
0.0
 20
0.0
 30
0.0
 11
-1.0
 21
-0.267949
 31
0.0
1001
ACAD
1000
RTLwPs
1070
   158
  0
LINE
  5
4B07
  8
COTATION1
 62
     0
 10
0.0
 20
0.0
 30
0.0
 11
-1.0
 21
0.0
 31
0.0
1001
ACAD
1000
RTLwPs
1070
   158
  0
ENDBLK
  5
4B09
  8
0
  0
BLOCK
  8
0
  2
*D3
 70
     1
 10
0.0
 20
0.0
 30
0.0
  3
*D3
  1

  0
LINE
  5
1462B
  8
COTATION1
 62
     0
 10
37.141915
 20
118.078457
 30
0.0
 11
37.141915
 21
77.340605
 31
0.0
1001
ACAD
1000
RTLwPs
1070
   158
  0
LINE
  5
1462C
  8
COTATION1
 62
     0
 10
59.141915
 20
118.078457
 30
0.0
 11
59.141915
 21
77.340605
 31
0.0
1001
ACAD
1000
RTLwPs
1070
   158
  0
LINE
  5
1462D
  8
COTATION1
 62
     0
 10
42.141915
 20
79.840605
 30
0.0
 11
54.141915
 21
79.840605
 31
0.0
1001
ACAD
1000
RTLwPs
1070
   158
  0
INSERT
  5
1462E
  8
COTATION1
 62
     0
  2
_OPEN30
 10
37.141915
 20
79.840605
 30
0.0
 41
5.0
 42
5.0
 43
5.0
 50
180.0
1001
ACAD
1000
RTLwPs
1070
   158
  0
INSERT
  5
1462F
  8
COTATION1
 62
     0
  2
_OPEN30
 10
59.141915
 20
79.840605
 30
0.0
 41
5.0
 42
5.0
 43
5.0
1001
ACAD
1000
RTLwPs
1070
   158
  0
TEXT
  5
14630
  8
COTATION1
 62
     0
 10
45.760963
 20
81.840605
 30
0.0
 40
2.5
  1
22
1001
ACAD
1000
MTEXTBEGIN
1070
    73
1070
     1
1070
    44
1040
1.0
1070
    74
1070
     0
1000
MTEXTEND
1000
MTEXTBEGIN
1070
    73
1070
     1
1070
    44
1040
1.0
1070
    74
1070
     0
1000
MTEXTEND
  0
POINT
  5
14631
  8
DEFPOINTS
 62
     0
 10
37.141915
 20
120.078457
 30
0.0
  0
POINT
  5
14632
  8
DEFPOINTS
 62
     0
 10
59.141915
 20
120.078457
 30
0.0
  0
POINT
  5
14633
  8
DEFPOINTS
 62
     0
 10
59.141915
 20
79.840605
 30
0.0
  0
ENDBLK
  5
FF39
  8
0
  0
BLOCK
  8
0
  2
*D4
 70
     1
 10
0.0
 20
0.0
 30
0.0
  3
*D4
  1

  0
LINE
  5
14643
  8
COTATION1
 62
     0
 10
38.141915
 20
116.078457
 30
0.0
 11
38.141915
 21
86.183752
 31
0.0
1001
ACAD
1000
RTLwPs
1070
   158
  0
LINE
  5
14644
  8
COTATION1
 62
     0
 10
58.141915
 20
116.078457
 30
0.0
 11
58.141915
 21
86.183752
 31
0.0
1001
ACAD
1000
RTLwPs
1070
   158
  0
LINE
  5
14645
  8
COTATION1
 62
     0
 10
43.141915
 20
88.683752
 30
0.0
 11
53.141915
 21
88.683752
 31
0.0
1001
ACAD
1000
RTLwPs
1070
   158
  0
INSERT
  5
14646
  8
COTATION1
 62
     0
  2
_OPEN30
 10
38.141915
 20
88.683752
 30
0.0
 41
5.0
 42
5.0
 43
5.0
 50
180.0
1001
ACAD
1000
RTLwPs
1070
   158
  0
INSERT
  5
14647
  8
COTATION1
 62
     0
  2
_OPEN30
 10
58.141915
 20
88.683752
 30
0.0
 41
5.0
 42
5.0
 43
5.0
1001
ACAD
1000
RTLwPs
1070
   158
  0
TEXT
  5
14648
  8
COTATION1
 62
     0
 10
45.760963
 20
90.683752
 30
0.0
 40
2.5
  1
20
1001
ACAD
1000
MTEXTBEGIN
1070
    73
1070
     1
1070
    44
1040
1.0
1070
    74
1070
     0
1000
MTEXTEND
1000
MTEXTBEGIN
1070
    73
1070
     1
1070
    44
1040
1.0
1070
    74
1070
     0
1000
MTEXTEND
  0
POINT
  5
14649
  8
DEFPOINTS
 62
     0
 10
38.141915
 20
118.078457
 30
0.0
  0
POINT
  5
1464A
  8
DEFPOINTS
 62
     0
 10
58.141915
 20
118.078457
 30
0.0
  0
POINT
  5
1464B
  8
DEFPOINTS
 62
     0
 10
58.141915
 20
88.683752
 30
0.0
  0
ENDBLK
  5
FF45
  8
0
  0
BLOCK
  8
0
  2
*D5
 70
     1
 10
0.0
 20
0.0
 30
0.0
  3
*D5
  1

  0
LINE
  5
146E3
  8
COTATION1
 62
     0
 10
46.141915
 20
188.928457
 30
0.0
 11
11.838764
 21
188.928457
 31
0.0
1001
ACAD
1000
RTLwPs
1070
   158
  0
LINE
  5
146E4
  8
COTATION1
 62
     0
 10
34.629214
 20
140.228457
 30
0.0
 11
11.838764
 21
140.228457
 31
0.0
1001
ACAD
1000
RTLwPs
1070
   158
  0
LINE
  5
146E5
  8
COTATION1
 62
     0
 10
14.338764
 20
183.928457
 30
0.0
 11
14.338764
 21
167.828457
 31
0.0
1001
ACAD
1000
RTLwPs
1070
   158
  0
LINE
  5
146E6
  8
COTATION1
 62
     0
 10
14.338764
 20
145.228457
 30
0.0
 11
14.338764
 21
161.328457
 31
0.0
1001
ACAD
1000
RTLwPs
1070
   158
  0
INSERT
  5
146E7
  8
COTATION1
 62
     0
  2
_OPEN30
 10
14.338764
 20
188.928457
 30
0.0
 41
5.0
 42
5.0
 43
5.0
 50
90.0
1001
ACAD
1000
RTLwPs
1070
   158
  0
INSERT
  5
146E8
  8
COTATION1
 62
     0
  2
_OPEN30
 10
14.338764
 20
140.228457
 30
0.0
 41
5.0
 42
5.0
 43
5.0
 50
270.0
1001
ACAD
1000
RTLwPs
1070
   158
  0
TEXT
  5
146E9
  8
COTATION1
 62
     0
 10
4.219717
 20
163.328457
 30
0.0
 40
2.5
  1
35.5...84.5
1001
ACAD
1000
MTEXTBEGIN
1070
    73
1070
     1
1070
    44
1040
1.0
1070
    74
1070
     0
1000
MTEXTEND
1000
MTEXTBEGIN
1070
    73
1070
     1
1070
    44
1040
1.0
1070
    74
1070
     0
1000
MTEXTEND
  0
POINT
  5
146EA
  8
DEFPOINTS
 62
     0
 10
48.141915
 20
188.928457
 30
0.0
  0
POINT
  5
146EB
  8
DEFPOINTS
 62
     0
 10
36.629214
 20
140.228457
 30
0.0
  0
POINT
  5
146EC
  8
DEFPOINTS
 62
     0
 10
14.338764
 20
140.228457
 30
0.0
  0
ENDBLK
  5
10363
  8
0
  0
BLOCK
  8
0
  2
*D6
 70
     1
 10
0.0
 20
0.0
 30
0.0
  3
*D6
  1

  0
LINE
  5
147F8
  8
COTATION1
 62
     0
 10
50.141915
 20
188.928457
 30
0.0
 11
107.623645
 21
188.928457
 31
0.0
1001
ACAD
1000
RTLwPs
1070
   158
  0
LINE
  5
147F9
  8
COTATION1
 62
     0
 10
65.141915
 20
67.728457
 30
0.0
 11
107.623645
 21
67.728457
 31
0.0
1001
ACAD
1000
RTLwPs
1070
   158
  0
LINE
  5
147FA
  8
COTATION1
 62
     0
 10
105.123645
 20
183.928457
 30
0.0
 11
105.123645
 21
131.578457
 31
0.0
1001
ACAD
1000
RTLwPs
1070
   158
  0
LINE
  5
147FB
  8
COTATION1
 62
     0
 10
105.123645
 20
72.728457
 30
0.0
 11
105.123645
 21
125.078457
 31
0.0
1001
ACAD
1000
RTLwPs
1070
   158
  0
INSERT
  5
147FC
  8
COTATION1
 62
     0
  2
_OPEN30
 10
105.123645
 20
188.928457
 30
0.0
 41
5.0
 42
5.0
 43
5.0
 50
90.0
1001
ACAD
1000
RTLwPs
1070
   158
  0
INSERT
  5
147FD
  8
COTATION1
 62
     0
  2
_OPEN30
 10
105.123645
 20
67.728457
 30
0.0
 41
5.0
 42
5.0
 43
5.0
 50
270.0
1001
ACAD
1000
RTLwPs
1070
   158
  0
TEXT
  5
147FE
  8
COTATION1
 62
     0
 10
96.016502
 20
127.078457
 30
0.0
 40
2.5
  1
108...157
1001
ACAD
1000
MTEXTBEGIN
1070
    73
1070
     1
1070
    44
1040
1.0
1070
    74
1070
     0
1000
MTEXTEND
  0
POINT
  5
147FF
  8
DEFPOINTS
 62
     0
 10
48.141915
 20
188.928457
 30
0.0
  0
POINT
  5
14800
  8
DEFPOINTS
 62
     0
 10
63.141915
 20
67.728457
 30
0.0
  0
POINT
  5
14801
  8
DEFPOINTS
 62
     0
 10
105.123645
 20
67.728457
 30
0.0
  0
ENDBLK
  5
10370
  8
0
  0
BLOCK
  8
0
  2
*D7
 70
     1
 10
0.0
 20
0.0
 30
0.0
  3
*D7
  1

  0
LINE
  5
14634
  8
COTATION1
 62
     0
 10
33.141915
 20
65.728457
 30
0.0
 11
33.141915
 21
35.228457
 31
0.0
1001
ACAD
1000
RTLwPs
1070
   158
  0
LINE
  5
14635
  8
COTATION1
 62
     0
 10
63.141915
 20
65.728457
 30
0.0
 11
63.141915
 21
35.228457
 31
0.0
1001
ACAD
1000
RTLwPs
1070
   158
  0
LINE
  5
14636
  8
COTATION1
 62
     0
 10
38.141915
 20
37.728457
 30
0.0
 11
58.141915
 21
37.728457
 31
0.0
1001
ACAD
1000
RTLwPs
1070
   158
  0
INSERT
  5
14637
  8
COTATION1
 62
     0
  2
_OPEN30
 10
33.141915
 20
37.728457
 30
0.0
 41
5.0
 42
5.0
 43
5.0
 50
180.0
1001
ACAD
1000
RTLwPs
1070
   158
  0
INSERT
  5
14638
  8
COTATION1
 62
     0
  2
_OPEN30
 10
63.141915
 20
37.728457
 30
0.0
 41
5.0
 42
5.0
 43
5.0
1001
ACAD
1000
RTLwPs
1070
   158
  0
TEXT
  5
14639
  8
COTATION1
 62
     0
 10
45.760963
 20
39.728457
 30
0.0
 40
2.5
  1
30
1001
ACAD
1000
MTEXTBEGIN
1070
    73
1070
     1
1070
    44
1040
1.0
1070
    74
1070
     0
1000
MTEXTEND
1000
MTEXTBEGIN
1070
    73
1070
     1
1070
    44
1040
1.0
1070
    74
1070
     0
1000
MTEXTEND
  0
POINT
  5
1463A
  8
DEFPOINTS
 62
     0
 10
33.141915
 20
67.728457
 30
0.0
  0
POINT
  5
1463B
  8
DEFPOINTS
 62
     0
 10
63.141915
 20
67.728457
 30
0.0
  0
POINT
  5
1463C
  8
DEFPOINTS
 62
     0
 10
63.141915
 20
37.728457
 30
0.0
  0
ENDBLK
  5
1037C
  8
0
  0
BLOCK
  8
0
  2
*D8
 70
     1
 10
0.0
 20
0.0
 30
0.0
  3
*D8
  1

  0
LINE
  5
1483C
  8
COTATION1
 62
     0
 10
65.291915
 20
124.228457
 30
0.0
 11
89.152295
 21
124.228457
 31
0.0
  0
LINE
  5
1483D
  8
COTATION1
 62
     0
 10
64.291915
 20
122.228457
 30
0.0
 11
89.152295
 21
122.228457
 31
0.0
  0
LINE
  5
1483E
  8
COTATION1
 62
     0
 10
86.652295
 20
129.228457
 30
0.0
 11
86.652295
 21
134.228457
 31
0.0
  0
LINE
  5
1483F
  8
COTATION1
 62
     0
 10
86.652295
 20
117.228457
 30
0.0
 11
86.652295
 21
112.228457
 31
0.0
  0
TEXT
  5
14840
  8
COTATION1
 62
     0
 10
82.628485
 20
112.926735
 30
0.0
 40
2.5
  1
2
  0
INSERT
  5
14841
  8
COTATION1
 62
     0
  2
_OPEN30
 10
86.652295
 20
124.228457
 30
0.0
 41
5.0
 42
5.0
 43
5.0
 50
270.0
  0
INSERT
  5
14842
  8
COTATION1
 62
     0
  2
_OPEN30
 10
86.652295
 20
122.228457
 30
0.0
 41
5.0
 42
5.0
 43
5.0
 50
90.0
  0
POINT
  5
14843
  8
DEFPOINTS
 62
     0
 10
63.291915
 20
124.228457
 30
0.0
  0
POINT
  5
14844
  8
DEFPOINTS
 62
     0
 10
62.291915
 20
122.228457
 30
0.0
  0
POINT
  5
14845
  8
DEFPOINTS
 62
     0
 10
86.652295
 20
122.228457
 30
0.0
  0
ENDBLK
  5
103A2
  8
0
  0
BLOCK
  8
0
  2
*D9
 70
     1
 10
0.0
 20
0.0
 30
0.0
  3
*D9
  1

  0
LINE
  5
1461B
  8
COTATION1
 62
     0
 10
89.168892
 20
136.874539
 30
0.0
 11
64.039758
 21
136.874539
 31
0.0
1001
ACAD
1000
RTLwPs
1070
   158
  0
LINE
  5
1461C
  8
COTATION1
 62
     0
 10
64.039758
 20
136.874539
 30
0.0
 11
61.724208
 21
130.89586
 31
0.0
1001
ACAD
1000
RTLwPs
1070
   158
  0
TEXT
  5
1461D
  8
COTATION1
 62
     0
 10
68.930796
 20
138.874539
 30
0.0
 40
2.5
  1
2x%%c4.3x6.3
1001
ACAD
1000
MTEXTBEGIN
1070
    73
1070
     1
1070
    44
1040
1.0
1070
    74
1070
     0
1000
MTEXTEND
1000
MTEXTBEGIN
1070
    73
1070
     1
1070
    44
1040
1.0
1070
    74
1070
     0
1000
MTEXTEND
  0
INSERT
  5
1461E
  8
COTATION1
 62
     0
  2
_OPEN30
 10
59.918409
 20
126.233341
 30
0.0
 41
5.0
 42
5.0
 43
5.0
 50
248.828555
1001
ACAD
1000
RTLwPs
1070
   158
  0
POINT
  5
1461F
  8
DEFPOINTS
 62
     0
 10
59.918409
 20
126.233341
 30
0.0
  0
POINT
  5
14620
  8
DEFPOINTS
 62
     0
 10
58.365421
 20
122.223574
 30
0.0
  0
ENDBLK
  5
10481
  8
0
  0
BLOCK
  8
0
  2
*D10
 70
     1
 10
0.0
 20
0.0
 30
0.0
  3
*D10
  1

  0
LINE
  5
1463D
  8
COTATION1
 62
     0
 10
80.865766
 20
85.42229
 30
0.0
 11
66.961004
 21
85.42229
 31
0.0
1001
ACAD
1000
RTLwPs
1070
   158
  0
LINE
  5
1463E
  8
COTATION1
 62
     0
 10
66.961004
 20
85.42229
 30
0.0
 11
42.549872
 21
116.598855
 31
0.0
1001
ACAD
1000
RTLwPs
1070
   158
  0
TEXT
  5
1463F
  8
COTATION1
 62
     0
 10
68.603861
 20
87.42229
 30
0.0
 40
2.5
  1
2x%%c4.3
1001
ACAD
1000
MTEXTBEGIN
1070
    73
1070
     1
1070
    44
1040
1.0
1070
    74
1070
     0
1000
MTEXTEND
1000
MTEXTBEGIN
1070
    73
1070
     1
1070
    44
1040
1.0
1070
    74
1070
     0
1000
MTEXTEND
  0
INSERT
  5
14640
  8
COTATION1
 62
     0
  2
_OPEN30
 10
39.467385
 20
120.53564
 30
0.0
 41
5.0
 42
5.0
 43
5.0
 50
128.060809
1001
ACAD
1000
RTLwPs
1070
   158
  0
POINT
  5
14641
  8
DEFPOINTS
 62
     0
 10
39.467385
 20
120.53564
 30
0.0
  0
POINT
  5
14642
  8
DEFPOINTS
 62
     0
 10
36.816445
 20
123.921274
 30
0.0
  0
ENDBLK
  5
1048A
  8
0
  0
BLOCK
  8
0
  2
*D11
 70
     1
 10
0.0
 20
0.0
 30
0.0
  3
*D11
  1

  0
LINE
  5
146C8
  8
COTATION1
 62
     0
 10
20.548432
 20
200.640132
 30
0.0
 11
28.738908
 21
200.640132
 31
0.0
1001
ACAD
1000
RTLwPs
1070
   158
  0
LINE
  5
146C9
  8
COTATION1
 62
     0
 10
28.738908
 20
200.640132
 30
0.0
 11
38.355159
 21
190.127494
 31
0.0
1001
ACAD
1000
RTLwPs
1070
   158
  0
TEXT
  5
146CA
  8
COTATION1
 62
     0
 10
20.310337
 20
202.640132
 30
0.0
 40
2.5
  1
%%c19
1001
ACAD
1000
MTEXTBEGIN
1070
    73
1070
     1
1070
    44
1040
1.0
1070
    74
1070
     0
1000
MTEXTEND
1000
MTEXTBEGIN
1070
    73
1070
     1
1070
    44
1040
1.0
1070
    74
1070
     0
1000
MTEXTEND
  0
INSERT
  5
146CB
  8
COTATION1
 62
     0
  2
_OPEN30
 10
41.729902
 20
186.438171
 30
0.0
 41
5.0
 42
5.0
 43
5.0
 50
312.450168
1001
ACAD
1000
RTLwPs
1070
   158
  0
POINT
  5
146CC
  8
DEFPOINTS
 62
     0
 10
41.729902
 20
186.438171
 30
0.0
  0
POINT
  5
146CD
  8
DEFPOINTS
 62
     0
 10
54.553928
 20
172.418743
 30
0.0
  0
ENDBLK
  5
13947
  8
0
  0
BLOCK
  8
0
  2
*D12
 70
     1
 10
0.0
 20
0.0
 30
0.0
  3
*D12
  1

  0
LINE
  5
1470C
  8
COTATION1
 62
     0
 10
25.853068
 20
188.928457
 30
0.0
 11
-10.027932
 21
188.928457
 31
0.0
1001
ACAD
1000
RTLwPs
1070
   158
  0
LINE
  5
1470D
  8
COTATION1
 62
     0
 10
31.991915
 20
122.228457
 30
0.0
 11
-10.027932
 21
122.228457
 31
0.0
1001
ACAD
1000
RTLwPs
1070
   158
  0
LINE
  5
1470E
  8
COTATION1
 62
     0
 10
-7.527932
 20
183.928457
 30
0.0
 11
-7.527932
 21
158.828457
 31
0.0
1001
ACAD
1000
RTLwPs
1070
   158
  0
LINE
  5
1470F
  8
COTATION1
 62
     0
 10
-7.527932
 20
127.228457
 30
0.0
 11
-7.527932
 21
152.328457
 31
0.0
1001
ACAD
1000
RTLwPs
1070
   158
  0
INSERT
  5
14710
  8
COTATION1
 62
     0
  2
_OPEN30
 10
-7.527932
 20
188.928457
 30
0.0
 41
5.0
 42
5.0
 43
5.0
 50
90.0
1001
ACAD
1000
RTLwPs
1070
   158
  0
INSERT
  5
14711
  8
COTATION1
 62
     0
  2
_OPEN30
 10
-7.527932
 20
122.228457
 30
0.0
 41
5.0
 42
5.0
 43
5.0
 50
270.0
1001
ACAD
1000
RTLwPs
1070
   158
  0
TEXT
  5
14712
  8
COTATION1
 62
     0
 10
-18.837455
 20
154.328457
 30
0.0
 40
2.5
  1
53.5...102.5
1001
ACAD
1000
MTEXTBEGIN
1070
    73
1070
     1
1070
    44
1040
1.0
1070
    74
1070
     0
1000
MTEXTEND
1000
MTEXTBEGIN
1070
    73
1070
     1
1070
    44
1040
1.0
1070
    74
1070
     0
1000
MTEXTEND
  0
POINT
  5
14713
  8
DEFPOINTS
 62
     0
 10
27.853068
 20
188.928457
 30
0.0
  0
POINT
  5
14714
  8
DEFPOINTS
 62
     0
 10
33.991915
 20
122.228457
 30
0.0
  0
POINT
  5
14715
  8
DEFPOINTS
 62
     0
 10
-7.527932
 20
122.228457
 30
0.0
  0
ENDBLK
  5
13AFA
  8
0
  0
ENDSEC
  0
SECTION
  2
ENTITIES
  0
INSERT
  5
A
  8
0
  2
COTE
 10
0.0
 20
0.0
 30
0.0
  0
INSERT
  5
17
  8
0
  2
COTE
 10
284.010391
 20
6.373258
 30
0.0
  0
INSERT
  5
72
  8
0
  2
FOND
 10
0.0
 20
0.0
 30
0.0
  0
LINE
  5
FCF2
  8
ALPHA
 10
33.141915
 20
67.728457
 30
0.0
 11
63.141915
 21
67.728457
 31
0.0
  0
LINE
  5
FCF4
  8
ALPHA
 10
33.141915
 20
67.728457
 30
0.0
 11
33.141915
 21
128.228457
 31
0.0
  0
LINE
  5
FCF5
  8
AXE
 10
48.141915
 20
193.928457
 30
0.0
 11
48.141915
 21
51.728457
 31
0.0
  0
TEXT
  5
FCF6
  8
AXE
 10
40.665725
 20
51.728457
 30
0.0
 40
8.0
  1
Y
 72
     2
 11
47.141915
 21
51.728457
 31
0.0
  0
LINE
  5
FD13
  8
ALPHA
 10
42.891915
 20
128.228457
 30
0.0
 11
48.141915
 21
128.228457
 31
0.0
  0
LINE
  5
FD15
  8
ALPHA
 10
35.641915
 20
132.128457
 30
0.0
 11
39.428442
 21
132.128457
 31
0.0
  0
LINE
  5
FD1D
  8
ALPHA
 10
35.641915
 20
148.128457
 30
0.0
 11
35.641915
 21
128.228457
 31
0.0
  0
LINE
  5
FD1F
  8
ALPHA
 10
33.141915
 20
128.228457
 30
0.0
 11
35.641915
 21
128.228457
 31
0.0
  0
LINE
  5
FD22
  8
ALPHA
 10
60.641915
 20
132.128457
 30
0.0
 11
56.855387
 21
132.128457
 31
0.0
  0
LINE
  5
FD24
  8
ALPHA
 10
63.141915
 20
128.228457
 30
0.0
 11
60.641915
 21
128.228457
 31
0.0
  0
LINE
  5
FD26
  8
ALPHA
 10
53.391915
 20
128.228457
 30
0.0
 11
48.141915
 21
128.228457
 31
0.0
  0
LINE
  5
FD27
  8
ALPHA
 10
63.141915
 20
128.228457
 30
0.0
 11
63.141915
 21
67.728457
 31
0.0
  0
DIMENSION
  5
FF01
  8
COTATION1
  2
*D3
 10
59.141915
 20
79.840605
 30
0.0
 11
48.141915
 21
83.090605
 31
0.0
 13
37.141915
 23
120.078457
 33
0.0
 14
59.141915
 24
120.078457
 34
0.0
  0
DIMENSION
  5
FF02
  8
COTATION1
  2
*D4
 10
58.141915
 20
88.683752
 30
0.0
 11
48.141915
 21
91.933752
 31
0.0
 13
38.141915
 23
118.078457
 33
0.0
 14
58.141915
 24
118.078457
 34
0.0
  0
ARC
  5
FF0C
  8
ALPHA
 10
38.141915
 20
122.228457
 30
0.0
 40
2.15
 50
270.0
 51
313.14986
  0
LINE
  5
FF0D
  8
ALPHA
 10
34.991915
 20
124.228457
 30
0.0
 11
34.991915
 21
122.228457
 31
0.0
  0
LINE
  5
FF0E
  8
AXE
 10
37.141915
 20
120.078457
 30
0.0
 11
37.141915
 21
128.378457
 31
0.0
  0
LINE
  5
FF0F
  8
AXE
 10
38.141915
 20
118.078457
 30
0.0
 11
38.141915
 21
126.378457
 31
0.0
  0
ARC
  5
FF10
  8
ALPHA
 10
37.141915
 20
122.228457
 30
0.0
 40
2.15
 50
180.0
 51
270.0
  0
LINE
  5
FF11
  8
ALPHA
 10
37.141915
 20
120.078457
 30
0.0
 11
38.141915
 21
120.078457
 31
0.0
  0
ARC
  5
FF12
  8
ALPHA
 10
37.141915
 20
124.228457
 30
0.0
 40
2.15
 50
0.0
 51
0.118585
  0
LINE
  5
FF16
  8
ALPHA
 10
39.291915
 20
124.228457
 30
0.0
 11
39.291915
 21
124.045047
 31
0.0
  0
ARC
  5
FF17
  8
ALPHA
 10
59.141915
 20
122.228457
 30
0.0
 40
2.15
 50
270.0
 51
0.0
  0
ARC
  5
FF18
  8
ALPHA
 10
59.141915
 20
124.228457
 30
0.0
 40
2.15
 50
0.0
 51
180.0
  0
ARC
  5
FF1A
  8
ALPHA
 10
58.141915
 20
122.228457
 30
0.0
 40
2.15
 50
122.336026
 51
270.0
  0
LINE
  5
FF1C
  8
AXE
 10
59.141915
 20
120.078457
 30
0.0
 11
59.141915
 21
128.378457
 31
0.0
  0
LINE
  5
FF1D
  8
AXE
 10
58.141915
 20
118.078457
 30
0.0
 11
58.141915
 21
126.378457
 31
0.0
  0
LINE
  5
FF27
  8
ALPHA
 10
59.141915
 20
120.078457
 30
0.0
 11
58.141915
 21
120.078457
 31
0.0
  0
LINE
  5
FF2C
  8
ALPHA
 10
56.991915
 20
124.228457
 30
0.0
 11
56.991915
 21
124.045047
 31
0.0
  0
LINE
  5
FF2D
  8
ALPHA
 10
61.291915
 20
124.228457
 30
0.0
 11
61.291915
 21
122.228457
 31
0.0
  0
DIMENSION
  5
10344
  8
COTATION1
  2
*D6
 10
105.123645
 20
67.728457
 30
0.0
 11
105.123645
 21
128.328457
 31
0.0
  1
108...157
 13
48.141915
 23
188.928457
 33
0.0
 14
63.141915
 24
67.728457
 34
0.0
 50
90.0
  0
DIMENSION
  5
10346
  8
COTATION1
  2
*D8
 10
86.652295
 20
122.228457
 30
0.0
 11
83.818962
 21
114.176735
 31
0.0
 70
   128
 13
63.291915
 23
124.228457
 33
0.0
 14
62.291915
 24
122.228457
 34
0.0
 50
90.0
1001
ACAD
1000
DSTYLE
1002
{
1070
   287
1070
     5
1070
   287
1070
     5
1070
   287
1070
     5
1070
   287
1070
     5
1070
   287
1070
     5
1070
   287
1070
     5
1070
   287
1070
     5
1070
   287
1070
     5
1070
   287
1070
     5
1070
   287
1070
     5
1070
   287
1070
     5
1070
   279
1070
     2
1070
   289
1070
     3
1002
}
  0
DIMENSION
  5
10348
  8
COTATION1
  2
*D7
 10
63.141915
 20
37.728457
 30
0.0
 11
48.141915
 21
40.978457
 31
0.0
 13
33.141915
 23
67.728457
 33
0.0
 14
63.141915
 24
67.728457
 34
0.0
  0
DIMENSION
  5
10349
  8
COTATION1
  2
*D5
 10
14.338764
 20
140.228457
 30
0.0
 11
14.338764
 21
164.578457
 31
0.0
 70
   128
  1
35.5...84.5
 13
48.141915
 23
188.928457
 33
0.0
 14
36.629214
 24
140.228457
 34
0.0
 50
90.0
  0
DIMENSION
  5
10471
  8
COTATION1
  2
*D10
 10
36.816445
 20
123.921274
 30
0.0
 11
74.913385
 21
85.42229
 31
0.0
 70
   131
  1
2x<>
 15
39.467385
 25
120.53564
 35
0.0
 40
0.0
1001
ACAD
1000
DSTYLE
1002
{
1070
   288
1070
     1
1002
}
  0
DIMENSION
  5
10472
  8
COTATION1
  2
*D9
 10
58.365421
 20
122.223574
 30
0.0
 11
79.228415
 21
136.874539
 31
0.0
 70
   131
  1
2x<>x6.3
 15
59.918409
 25
126.233341
 35
0.0
 40
0.0
1001
ACAD
1000
DSTYLE
1002
{
1070
   288
1070
     1
1002
}
  0
LINE
  5
10473
  8
AXE
 10
28.641915
 20
99.728457
 30
0.0
 11
78.641915
 21
99.728457
 31
0.0
  0
TEXT
  5
10474
  8
AXE
 10
72.165725
 20
100.728457
 30
0.0
 40
8.0
  1
X
 72
     2
 11
78.641915
 21
100.728457
 31
0.0
  0
LINE
  5
10475
  8
AXE
 10
62.291915
 20
122.228457
 30
0.0
 11
53.991915
 21
122.228457
 31
0.0
  0
LINE
  5
10476
  8
AXE
 10
63.291915
 20
124.228457
 30
0.0
 11
54.991915
 21
124.228457
 31
0.0
  0
LINE
  5
10477
  8
AXE
 10
33.991915
 20
122.228457
 30
0.0
 11
42.291915
 21
122.228457
 31
0.0
  0
LINE
  5
10478
  8
AXE
 10
32.991915
 20
124.228457
 30
0.0
 11
41.291915
 21
124.228457
 31
0.0
  0
CIRCLE
  5
105B1
  8
ALPHA
 10
48.141915
 20
122.728457
 30
0.0
 40
2.492187
  0
LINE
  5
105B4
  8
ALPHA
 10
45.723032
 20
123.328457
 30
0.0
 11
50.560798
 21
123.328457
 31
0.0
  0
LINE
  5
105B5
  8
ALPHA
 10
45.723032
 20
122.128457
 30
0.0
 11
50.560798
 21
122.128457
 31
0.0
  0
LINE
  5
10805
  8
ALPHA
 10
57.658286
 20
115.800008
 30
0.0
 11
56.852464
 21
115.96178
 31
0.0
  0
LINE
  5
10897
  8
ALPHA
 10
39.420199
 20
115.972946
 30
0.0
 11
38.753062
 21
115.775719
 31
0.0
  0
POLYLINE
  5
10898
  8
ALPHA
 66
     1
 10
0.0
 20
0.0
 30
0.0
 70
   128
  0
VERTEX
  5
148F8
  8
ALPHA
 10
44.048832
 20
123.830572
 30
0.0
  0
VERTEX
  5
148F9
  8
ALPHA
 10
43.937516
 20
123.507764
 30
0.0
  0
VERTEX
  5
148FA
  8
ALPHA
 10
43.655578
 20
122.69017
 30
0.0
  0
VERTEX
  5
148FB
  8
ALPHA
 10
42.891915
 20
120.475616
 30
0.0
  0
SEQEND
  5
148FC
  8
ALPHA
  0
LINE
  5
10899
  8
ALPHA
 10
38.753062
 20
115.775719
 30
0.0
 11
33.141915
 21
114.217502
 31
0.0
  0
LINE
  5
1089A
  8
ALPHA
 10
45.155502
 20
125.582419
 30
0.0
 11
44.048832
 21
123.830572
 31
0.0
  0
POLYLINE
  5
1089B
  8
ALPHA
 66
     1
 10
0.0
 20
0.0
 30
0.0
 70
   128
  0
VERTEX
  5
148FD
  8
ALPHA
 10
46.61664
 20
127.183978
 30
0.0
  0
VERTEX
  5
148FE
  8
ALPHA
 10
46.388337
 20
126.933734
 30
0.0
  0
VERTEX
  5
148FF
  8
ALPHA
 10
45.886071
 20
126.383199
 30
0.0
  0
VERTEX
  5
14900
  8
ALPHA
 10
45.383805
 20
125.832663
 30
0.0
  0
VERTEX
  5
14901
  8
ALPHA
 10
45.155502
 20
125.582419
 30
0.0
  0
SEQEND
  5
14902
  8
ALPHA
  0
POLYLINE
  5
1089C
  8
ALPHA
 66
     1
 10
0.0
 20
0.0
 30
0.0
 70
   128
  0
VERTEX
  5
14903
  8
ALPHA
 10
51.226244
 20
125.582419
 30
0.0
  0
VERTEX
  5
14904
  8
ALPHA
 10
50.998179
 20
125.832663
 30
0.0
  0
VERTEX
  5
14905
  8
ALPHA
 10
50.496435
 20
126.383199
 30
0.0
  0
VERTEX
  5
14906
  8
ALPHA
 10
49.99469
 20
126.933734
 30
0.0
  0
VERTEX
  5
14907
  8
ALPHA
 10
49.766625
 20
127.183978
 30
0.0
  0
SEQEND
  5
14908
  8
ALPHA
  0
LINE
  5
1089D
  8
ALPHA
 10
52.334432
 20
123.830572
 30
0.0
 11
51.226244
 21
125.582419
 31
0.0
  0
POLYLINE
  5
1089E
  8
ALPHA
 66
     1
 10
0.0
 20
0.0
 30
0.0
 70
   128
  0
VERTEX
  5
14909
  8
ALPHA
 10
49.766625
 20
127.183978
 30
0.0
  0
VERTEX
  5
1490A
  8
ALPHA
 10
49.057878
 20
127.64566
 30
0.0
  0
VERTEX
  5
1490B
  8
ALPHA
 10
48.19315
 20
127.812457
 30
0.0
  0
VERTEX
  5
1490C
  8
ALPHA
 10
47.324627
 20
127.64566
 30
0.0
  0
VERTEX
  5
1490D
  8
ALPHA
 10
46.61664
 20
127.183978
 30
0.0
  0
SEQEND
  5
1490E
  8
ALPHA
  0
POLYLINE
  5
1089F
  8
ALPHA
 66
     1
 10
0.0
 20
0.0
 30
0.0
 70
   128
  0
VERTEX
  5
1490F
  8
ALPHA
 10
53.391915
 20
120.761199
 30
0.0
  0
VERTEX
  5
14910
  8
ALPHA
 10
52.68371
 20
122.816782
 30
0.0
  0
VERTEX
  5
14911
  8
ALPHA
 10
52.432365
 20
123.546319
 30
0.0
  0
VERTEX
  5
14912
  8
ALPHA
 10
52.334432
 20
123.830572
 30
0.0
  0
SEQEND
  5
14913
  8
ALPHA
  0
LINE
  5
108A0
  8
ALPHA
 10
57.643106
 20
115.780273
 30
0.0
 11
56.898088
 21
116.007403
 31
0.0
  0
LINE
  5
108A1
  8
ALPHA
 10
63.141915
 20
114.284942
 30
0.0
 11
57.643106
 21
115.780273
 31
0.0
  0
LINE
  5
11CD8
  8
ALPHA
 10
60.641915
 20
148.128457
 30
0.0
 11
60.641915
 21
128.228457
 31
0.0
  0
CIRCLE
  5
1241F
  8
ALPHA
 10
48.141915
 20
179.428457
 30
0.0
 40
9.5
  0
CIRCLE
  5
124D8
  8
ALPHA
 10
48.187455
 20
179.450467
 30
0.0
 40
2.5
  0
CIRCLE
  5
124D9
  8
ALPHA
 10
48.141915
 20
179.428457
 30
0.0
 40
4.0
  0
LINE
  5
125DE
  8
ALPHA
 10
60.641915
 20
148.128457
 30
0.0
 11
56.692643
 21
148.128457
 31
0.0
  0
CIRCLE
  5
135A9
  8
ALPHA
 10
48.141915
 20
179.428457
 30
0.0
 40
7.890141
  0
CIRCLE
  5
135AA
  8
ALPHA
 10
48.140395
 20
179.428457
 30
0.0
 40
8.529248
  0
ARC
  5
1363C
  8
ALPHA
 10
48.141915
 20
159.178457
 30
0.0
 40
5.25
 50
0.0
 51
180.0
  0
LINE
  5
1363D
  8
ALPHA
 10
53.391915
 20
159.178457
 30
0.0
 11
53.391915
 21
145.236281
 31
0.0
  0
LINE
  5
1363E
  8
ALPHA
 10
42.891915
 20
159.178457
 30
0.0
 11
42.891915
 21
145.236281
 31
0.0
  0
ARC
  5
13640
  8
ALPHA
 10
48.141915
 20
110.178457
 30
0.0
 40
5.25
 50
180.0
 51
0.0
  0
POLYLINE
  5
136CF
  8
ALPHA
 66
     1
 10
0.0
 20
0.0
 30
0.0
 70
   128
  0
VERTEX
  5
14914
  8
ALPHA
 10
39.641915
 20
110.060005
 30
0.0
  0
VERTEX
  5
14915
  8
ALPHA
 10
39.739285
 20
109.626209
 30
0.0
  0
VERTEX
  5
14916
  8
ALPHA
 10
39.995988
 20
108.482565
 30
0.0
  0
VERTEX
  5
14917
  8
ALPHA
 10
40.774947
 20
105.012195
 30
0.0
  0
VERTEX
  5
14918
  8
ALPHA
 10
41.553907
 20
101.541826
 30
0.0
  0
VERTEX
  5
14919
  8
ALPHA
 10
41.81061
 20
100.398181
 30
0.0
  0
VERTEX
  5
1491A
  8
ALPHA
 10
41.90798
 20
99.964385
 30
0.0
  0
VERTEX
  5
1491B
  8
ALPHA
 10
42.343664
 20
99.001932
 30
0.0
  0
SEQEND
  5
1491C
  8
ALPHA
  0
POLYLINE
  5
136D0
  8
ALPHA
 66
     1
 10
0.0
 20
0.0
 30
0.0
 70
   128
  0
VERTEX
  5
1491D
  8
ALPHA
 10
42.343664
 20
99.001932
 30
0.0
  0
VERTEX
  5
1491E
  8
ALPHA
 10
42.850698
 20
98.303622
 30
0.0
  0
VERTEX
  5
1491F
  8
ALPHA
 10
43.664298
 20
97.916515
 30
0.0
  0
VERTEX
  5
14920
  8
ALPHA
 10
44.46129
 20
98.309604
 30
0.0
  0
VERTEX
  5
14921
  8
ALPHA
 10
46.078307
 20
99.56904
 30
0.0
  0
VERTEX
  5
14922
  8
ALPHA
 10
48.141915
 20
100.03877
 30
0.0
  0
SEQEND
  5
14923
  8
ALPHA
  0
LINE
  5
136D5
  8
ALPHA
 10
41.950485
 20
172.222202
 30
0.0
 11
39.641915
 21
158.93458
 31
0.0
  0
LINE
  5
1371D
  8
ALPHA
 10
39.641915
 20
158.93458
 30
0.0
 11
39.233556
 21
158.44377
 31
0.0
  0
LINE
  5
13735
  8
ALPHA
 10
39.641915
 20
155.597398
 30
0.0
 11
39.233556
 21
155.190557
 31
0.0
  0
LINE
  5
13736
  8
ALPHA
 10
39.233556
 20
155.190557
 30
0.0
 11
39.641915
 21
154.783716
 31
0.0
  0
LINE
  5
13737
  8
ALPHA
 10
39.641915
 20
154.783716
 30
0.0
 11
39.233556
 21
154.378392
 31
0.0
  0
LINE
  5
13738
  8
ALPHA
 10
39.233556
 20
154.378392
 30
0.0
 11
39.641915
 21
153.970033
 31
0.0
  0
LINE
  5
13739
  8
ALPHA
 10
39.641915
 20
153.970033
 30
0.0
 11
39.233556
 21
153.56471
 31
0.0
  0
LINE
  5
1373A
  8
ALPHA
 10
39.233556
 20
153.56471
 30
0.0
 11
39.641915
 21
153.157868
 31
0.0
  0
LINE
  5
1373B
  8
ALPHA
 10
39.641915
 20
153.157868
 30
0.0
 11
39.233556
 21
152.752545
 31
0.0
  0
LINE
  5
1373C
  8
ALPHA
 10
39.233556
 20
152.752545
 30
0.0
 11
39.641915
 21
152.344185
 31
0.0
  0
LINE
  5
1373D
  8
ALPHA
 10
39.641915
 20
152.344185
 30
0.0
 11
39.233556
 21
151.938862
 31
0.0
  0
LINE
  5
1373E
  8
ALPHA
 10
39.233556
 20
151.938862
 30
0.0
 11
39.641915
 21
151.532021
 31
0.0
  0
LINE
  5
1373F
  8
ALPHA
 10
39.641915
 20
151.532021
 30
0.0
 11
39.233556
 21
151.023661
 31
0.0
  0
LINE
  5
13740
  8
ALPHA
 10
39.233556
 20
151.023661
 30
0.0
 11
39.641915
 21
150.618338
 31
0.0
  0
LINE
  5
13741
  8
ALPHA
 10
39.233556
 20
156.002722
 30
0.0
 11
39.641915
 21
155.597398
 31
0.0
  0
LINE
  5
13742
  8
ALPHA
 10
39.641915
 20
156.411081
 30
0.0
 11
39.233556
 21
156.002722
 31
0.0
  0
LINE
  5
13743
  8
ALPHA
 10
39.233556
 20
156.817923
 30
0.0
 11
39.641915
 21
156.411081
 31
0.0
  0
LINE
  5
13744
  8
ALPHA
 10
39.641915
 20
157.223246
 30
0.0
 11
39.233556
 21
156.817923
 31
0.0
  0
LINE
  5
13745
  8
ALPHA
 10
39.233556
 20
157.631605
 30
0.0
 11
39.641915
 21
157.223246
 31
0.0
  0
LINE
  5
13746
  8
ALPHA
 10
39.641915
 20
158.036929
 30
0.0
 11
39.233556
 21
157.631605
 31
0.0
  0
LINE
  5
13747
  8
ALPHA
 10
39.233556
 20
158.44377
 30
0.0
 11
39.641915
 21
158.036929
 31
0.0
  0
LINE
  5
1374D
  8
ALPHA
 10
39.641915
 20
140.860217
 30
0.0
 11
39.233556
 21
140.453375
 31
0.0
  0
LINE
  5
1374E
  8
ALPHA
 10
39.233556
 20
140.453375
 30
0.0
 11
39.641915
 21
140.046534
 31
0.0
  0
LINE
  5
1374F
  8
ALPHA
 10
39.641915
 20
140.046534
 30
0.0
 11
39.233556
 21
139.641211
 31
0.0
  0
LINE
  5
13750
  8
ALPHA
 10
39.233556
 20
139.641211
 30
0.0
 11
39.641915
 21
139.232851
 31
0.0
  0
LINE
  5
13751
  8
ALPHA
 10
39.641915
 20
139.232851
 30
0.0
 11
39.233556
 21
138.827528
 31
0.0
  0
LINE
  5
13752
  8
ALPHA
 10
39.233556
 20
138.827528
 30
0.0
 11
39.641915
 21
138.420686
 31
0.0
  0
LINE
  5
13753
  8
ALPHA
 10
39.641915
 20
138.420686
 30
0.0
 11
39.233556
 21
138.015363
 31
0.0
  0
LINE
  5
13754
  8
ALPHA
 10
39.233556
 20
138.015363
 30
0.0
 11
39.641915
 21
137.607004
 31
0.0
  0
LINE
  5
13755
  8
ALPHA
 10
39.641915
 20
137.607004
 30
0.0
 11
39.233556
 21
137.20168
 31
0.0
  0
LINE
  5
13756
  8
ALPHA
 10
39.233556
 20
137.20168
 30
0.0
 11
39.641915
 21
136.794839
 31
0.0
  0
LINE
  5
13757
  8
ALPHA
 10
39.641915
 20
136.794839
 30
0.0
 11
39.233556
 21
136.386479
 31
0.0
  0
LINE
  5
13758
  8
ALPHA
 10
39.233556
 20
136.386479
 30
0.0
 11
39.641915
 21
135.981156
 31
0.0
  0
LINE
  5
13759
  8
ALPHA
 10
39.233556
 20
131.507419
 30
0.0
 11
39.641915
 21
131.102095
 31
0.0
  0
LINE
  5
1375A
  8
ALPHA
 10
39.641915
 20
131.915778
 30
0.0
 11
39.233556
 21
131.507419
 31
0.0
  0
LINE
  5
1375B
  8
ALPHA
 10
39.233556
 20
132.32262
 30
0.0
 11
39.641915
 21
131.915778
 31
0.0
  0
LINE
  5
1375C
  8
ALPHA
 10
39.641915
 20
132.727943
 30
0.0
 11
39.233556
 21
132.32262
 31
0.0
  0
LINE
  5
1375D
  8
ALPHA
 10
39.233556
 20
133.136302
 30
0.0
 11
39.641915
 21
132.727943
 31
0.0
  0
LINE
  5
1375E
  8
ALPHA
 10
39.641915
 20
133.541626
 30
0.0
 11
39.233556
 21
133.136302
 31
0.0
  0
LINE
  5
1375F
  8
ALPHA
 10
39.233556
 20
133.948467
 30
0.0
 11
39.641915
 21
133.541626
 31
0.0
  0
LINE
  5
13760
  8
ALPHA
 10
39.641915
 20
134.35379
 30
0.0
 11
39.233556
 21
133.948467
 31
0.0
  0
LINE
  5
13761
  8
ALPHA
 10
39.233556
 20
134.76215
 30
0.0
 11
39.641915
 21
134.35379
 31
0.0
  0
LINE
  5
13762
  8
ALPHA
 10
39.641915
 20
135.167473
 30
0.0
 11
39.233556
 21
134.76215
 31
0.0
  0
LINE
  5
13763
  8
ALPHA
 10
39.233556
 20
135.574315
 30
0.0
 11
39.641915
 21
135.167473
 31
0.0
  0
LINE
  5
13764
  8
ALPHA
 10
39.641915
 20
135.981156
 30
0.0
 11
39.233556
 21
135.574315
 31
0.0
  0
LINE
  5
13765
  8
ALPHA
 10
39.641915
 20
145.739277
 30
0.0
 11
39.233556
 21
145.332436
 31
0.0
  0
LINE
  5
13766
  8
ALPHA
 10
39.233556
 20
145.332436
 30
0.0
 11
39.641915
 21
144.925594
 31
0.0
  0
LINE
  5
13767
  8
ALPHA
 10
39.641915
 20
144.925594
 30
0.0
 11
39.233556
 21
144.520271
 31
0.0
  0
LINE
  5
13768
  8
ALPHA
 10
39.233556
 20
144.520271
 30
0.0
 11
39.641915
 21
144.111912
 31
0.0
  0
LINE
  5
13769
  8
ALPHA
 10
39.641915
 20
144.111912
 30
0.0
 11
39.233556
 21
143.706588
 31
0.0
  0
LINE
  5
1376A
  8
ALPHA
 10
39.233556
 20
143.706588
 30
0.0
 11
39.641915
 21
143.299747
 31
0.0
  0
LINE
  5
1376B
  8
ALPHA
 10
39.641915
 20
143.299747
 30
0.0
 11
39.233556
 21
142.894424
 31
0.0
  0
LINE
  5
1376C
  8
ALPHA
 10
39.233556
 20
142.894424
 30
0.0
 11
39.641915
 21
142.486064
 31
0.0
  0
LINE
  5
1376D
  8
ALPHA
 10
39.641915
 20
142.486064
 30
0.0
 11
39.233556
 21
142.080741
 31
0.0
  0
LINE
  5
1376E
  8
ALPHA
 10
39.233556
 20
142.080741
 30
0.0
 11
39.641915
 21
141.673899
 31
0.0
  0
LINE
  5
1376F
  8
ALPHA
 10
39.641915
 20
141.673899
 30
0.0
 11
39.233556
 21
141.26554
 31
0.0
  0
LINE
  5
13770
  8
ALPHA
 10
39.233556
 20
141.26554
 30
0.0
 11
39.641915
 21
140.860217
 31
0.0
  0
LINE
  5
13771
  8
ALPHA
 10
39.233556
 20
146.144601
 30
0.0
 11
39.641915
 21
145.739277
 31
0.0
  0
LINE
  5
13772
  8
ALPHA
 10
39.641915
 20
146.55296
 30
0.0
 11
39.233556
 21
146.144601
 31
0.0
  0
LINE
  5
13773
  8
ALPHA
 10
39.233556
 20
146.959801
 30
0.0
 11
39.641915
 21
146.55296
 31
0.0
  0
LINE
  5
13774
  8
ALPHA
 10
39.641915
 20
147.365125
 30
0.0
 11
39.233556
 21
146.959801
 31
0.0
  0
LINE
  5
13775
  8
ALPHA
 10
39.233556
 20
147.773484
 30
0.0
 11
39.641915
 21
147.365125
 31
0.0
  0
LINE
  5
13776
  8
ALPHA
 10
39.641915
 20
148.178808
 30
0.0
 11
39.233556
 21
147.773484
 31
0.0
  0
LINE
  5
13777
  8
ALPHA
 10
39.233556
 20
148.585649
 30
0.0
 11
39.641915
 21
148.178808
 31
0.0
  0
LINE
  5
13778
  8
ALPHA
 10
39.641915
 20
148.990972
 30
0.0
 11
39.233556
 21
148.585649
 31
0.0
  0
LINE
  5
13779
  8
ALPHA
 10
39.233556
 20
149.399332
 30
0.0
 11
39.641915
 21
148.990972
 31
0.0
  0
LINE
  5
1377A
  8
ALPHA
 10
39.641915
 20
149.804655
 30
0.0
 11
39.233556
 21
149.399332
 31
0.0
  0
LINE
  5
1377B
  8
ALPHA
 10
39.233556
 20
150.211496
 30
0.0
 11
39.641915
 21
149.804655
 31
0.0
  0
LINE
  5
1377C
  8
ALPHA
 10
39.641915
 20
150.618338
 30
0.0
 11
39.233556
 21
150.211496
 31
0.0
  0
LINE
  5
1377D
  8
ALPHA
 10
39.641915
 20
122.257657
 30
0.0
 11
39.233556
 21
121.850816
 31
0.0
  0
LINE
  5
1377E
  8
ALPHA
 10
39.233556
 20
121.850816
 30
0.0
 11
39.641915
 21
121.443974
 31
0.0
  0
LINE
  5
1377F
  8
ALPHA
 10
39.641915
 20
121.443974
 30
0.0
 11
39.233556
 21
121.038651
 31
0.0
  0
LINE
  5
13780
  8
ALPHA
 10
39.233556
 20
121.038651
 30
0.0
 11
39.641915
 21
120.630291
 31
0.0
  0
LINE
  5
13781
  8
ALPHA
 10
39.641915
 20
120.630291
 30
0.0
 11
39.233556
 21
120.224968
 31
0.0
  0
LINE
  5
13782
  8
ALPHA
 10
39.233556
 20
120.224968
 30
0.0
 11
39.641915
 21
119.818127
 31
0.0
  0
LINE
  5
13783
  8
ALPHA
 10
39.641915
 20
119.818127
 30
0.0
 11
39.233556
 21
119.412803
 31
0.0
  0
LINE
  5
13784
  8
ALPHA
 10
39.233556
 20
119.412803
 30
0.0
 11
39.641915
 21
119.004444
 31
0.0
  0
LINE
  5
13785
  8
ALPHA
 10
39.641915
 20
119.004444
 30
0.0
 11
39.233556
 21
118.599121
 31
0.0
  0
LINE
  5
13786
  8
ALPHA
 10
39.233556
 20
118.599121
 30
0.0
 11
39.641915
 21
118.192279
 31
0.0
  0
LINE
  5
13787
  8
ALPHA
 10
39.641915
 20
118.192279
 30
0.0
 11
39.233556
 21
117.78392
 31
0.0
  0
LINE
  5
13788
  8
ALPHA
 10
39.233556
 20
117.78392
 30
0.0
 11
39.641915
 21
117.378596
 31
0.0
  0
LINE
  5
13789
  8
ALPHA
 10
39.233556
 20
112.904859
 30
0.0
 11
39.641915
 21
112.499536
 31
0.0
  0
LINE
  5
1378A
  8
ALPHA
 10
39.641915
 20
113.313219
 30
0.0
 11
39.233556
 21
112.904859
 31
0.0
  0
LINE
  5
1378B
  8
ALPHA
 10
39.233556
 20
113.72006
 30
0.0
 11
39.641915
 21
113.313219
 31
0.0
  0
LINE
  5
1378C
  8
ALPHA
 10
39.641915
 20
114.125383
 30
0.0
 11
39.233556
 21
113.72006
 31
0.0
  0
LINE
  5
1378D
  8
ALPHA
 10
39.233556
 20
114.533743
 30
0.0
 11
39.641915
 21
114.125383
 31
0.0
  0
LINE
  5
1378E
  8
ALPHA
 10
39.641915
 20
114.939066
 30
0.0
 11
39.233556
 21
114.533743
 31
0.0
  0
LINE
  5
1378F
  8
ALPHA
 10
39.233556
 20
115.345907
 30
0.0
 11
39.641915
 21
114.939066
 31
0.0
  0
LINE
  5
13790
  8
ALPHA
 10
39.641915
 20
115.751231
 30
0.0
 11
39.233556
 21
115.345907
 31
0.0
  0
LINE
  5
13791
  8
ALPHA
 10
39.233556
 20
116.15959
 30
0.0
 11
39.641915
 21
115.751231
 31
0.0
  0
LINE
  5
13792
  8
ALPHA
 10
39.641915
 20
116.564914
 30
0.0
 11
39.233556
 21
116.15959
 31
0.0
  0
LINE
  5
13793
  8
ALPHA
 10
39.233556
 20
116.971755
 30
0.0
 11
39.641915
 21
116.564914
 31
0.0
  0
LINE
  5
13794
  8
ALPHA
 10
39.641915
 20
117.378596
 30
0.0
 11
39.233556
 21
116.971755
 31
0.0
  0
LINE
  5
137A7
  8
ALPHA
 10
39.233556
 20
110.466847
 30
0.0
 11
39.641915
 21
110.060005
 31
0.0
  0
LINE
  5
137A8
  8
ALPHA
 10
39.641915
 20
110.87217
 30
0.0
 11
39.233556
 21
110.466847
 31
0.0
  0
LINE
  5
137A9
  8
ALPHA
 10
39.233556
 20
111.28053
 30
0.0
 11
39.641915
 21
110.87217
 31
0.0
  0
LINE
  5
137AA
  8
ALPHA
 10
39.641915
 20
111.685853
 30
0.0
 11
39.233556
 21
111.28053
 31
0.0
  0
LINE
  5
137AB
  8
ALPHA
 10
39.233556
 20
112.092694
 30
0.0
 11
39.641915
 21
111.685853
 31
0.0
  0
LINE
  5
137AC
  8
ALPHA
 10
39.641915
 20
112.499536
 30
0.0
 11
39.233556
 21
112.092694
 31
0.0
  0
LINE
  5
137AD
  8
ALPHA
 10
39.233556
 20
131.508937
 30
0.0
 11
39.641915
 21
131.102095
 31
0.0
  0
LINE
  5
137AE
  8
ALPHA
 10
39.641915
 20
131.102095
 30
0.0
 11
39.233556
 21
130.696772
 31
0.0
  0
LINE
  5
137AF
  8
ALPHA
 10
39.233556
 20
130.696772
 30
0.0
 11
39.641915
 21
130.288413
 31
0.0
  0
LINE
  5
137B0
  8
ALPHA
 10
39.641915
 20
130.288413
 30
0.0
 11
39.233556
 21
129.983089
 31
0.0
  0
LINE
  5
137B1
  8
ALPHA
 10
39.233556
 20
129.983089
 30
0.0
 11
39.641915
 21
129.576248
 31
0.0
  0
LINE
  5
137B2
  8
ALPHA
 10
39.641915
 20
129.576248
 30
0.0
 11
39.233556
 21
129.170925
 31
0.0
  0
LINE
  5
137B3
  8
ALPHA
 10
39.233556
 20
129.170925
 30
0.0
 11
39.641915
 21
128.762565
 31
0.0
  0
LINE
  5
137B4
  8
ALPHA
 10
39.641915
 20
128.762565
 30
0.0
 11
39.233556
 21
128.357242
 31
0.0
  0
LINE
  5
137B5
  8
ALPHA
 10
39.233556
 20
128.357242
 30
0.0
 11
39.641915
 21
127.9504
 31
0.0
  0
LINE
  5
137B6
  8
ALPHA
 10
39.641915
 20
127.9504
 30
0.0
 11
39.233556
 21
127.542041
 31
0.0
  0
LINE
  5
137B7
  8
ALPHA
 10
39.233556
 20
127.542041
 30
0.0
 11
39.641915
 21
127.136718
 31
0.0
  0
LINE
  5
137B8
  8
ALPHA
 10
39.233556
 20
122.66298
 30
0.0
 11
39.641915
 21
122.257657
 31
0.0
  0
LINE
  5
137B9
  8
ALPHA
 10
39.641915
 20
123.07134
 30
0.0
 11
39.233556
 21
122.66298
 31
0.0
  0
LINE
  5
137BA
  8
ALPHA
 10
39.233556
 20
123.478181
 30
0.0
 11
39.641915
 21
123.07134
 31
0.0
  0
LINE
  5
137BB
  8
ALPHA
 10
39.641915
 20
123.883505
 30
0.0
 11
39.233556
 21
123.478181
 31
0.0
  0
LINE
  5
137BC
  8
ALPHA
 10
39.233556
 20
124.291864
 30
0.0
 11
39.641915
 21
123.883505
 31
0.0
  0
LINE
  5
137BD
  8
ALPHA
 10
39.641915
 20
124.697187
 30
0.0
 11
39.233556
 21
124.291864
 31
0.0
  0
LINE
  5
137BE
  8
ALPHA
 10
39.233556
 20
125.104029
 30
0.0
 11
39.641915
 21
124.697187
 31
0.0
  0
LINE
  5
137BF
  8
ALPHA
 10
39.641915
 20
125.509352
 30
0.0
 11
39.233556
 21
125.104029
 31
0.0
  0
LINE
  5
137C0
  8
ALPHA
 10
39.233556
 20
125.917711
 30
0.0
 11
39.641915
 21
125.509352
 31
0.0
  0
LINE
  5
137C1
  8
ALPHA
 10
39.641915
 20
126.323035
 30
0.0
 11
39.233556
 21
125.917711
 31
0.0
  0
LINE
  5
137C2
  8
ALPHA
 10
39.233556
 20
126.729876
 30
0.0
 11
39.641915
 21
126.323035
 31
0.0
  0
LINE
  5
137C3
  8
ALPHA
 10
39.641915
 20
127.136718
 30
0.0
 11
39.233556
 21
126.729876
 31
0.0
  0
LINE
  5
137C4
  8
ALPHA
 10
56.641915
 20
128.762565
 30
0.0
 11
57.050274
 21
128.357242
 31
0.0
  0
LINE
  5
137C5
  8
ALPHA
 10
57.050274
 20
129.170925
 30
0.0
 11
56.641915
 21
128.762565
 31
0.0
  0
LINE
  5
137C6
  8
ALPHA
 10
56.641915
 20
129.576248
 30
0.0
 11
57.050274
 21
129.170925
 31
0.0
  0
LINE
  5
137C7
  8
ALPHA
 10
57.050274
 20
129.983089
 30
0.0
 11
56.641915
 21
129.576248
 31
0.0
  0
LINE
  5
137C8
  8
ALPHA
 10
56.641915
 20
130.288413
 30
0.0
 11
57.050274
 21
129.983089
 31
0.0
  0
LINE
  5
137C9
  8
ALPHA
 10
57.050274
 20
130.696772
 30
0.0
 11
56.641915
 21
130.288413
 31
0.0
  0
LINE
  5
137CA
  8
ALPHA
 10
56.641915
 20
131.102095
 30
0.0
 11
57.050274
 21
130.696772
 31
0.0
  0
LINE
  5
137CB
  8
ALPHA
 10
57.050274
 20
131.508937
 30
0.0
 11
56.641915
 21
131.102095
 31
0.0
  0
LINE
  5
137CC
  8
ALPHA
 10
56.641915
 20
150.618338
 30
0.0
 11
57.050274
 21
150.211496
 31
0.0
  0
LINE
  5
137CD
  8
ALPHA
 10
57.050274
 20
150.211496
 30
0.0
 11
56.641915
 21
149.804655
 31
0.0
  0
LINE
  5
137CE
  8
ALPHA
 10
56.641915
 20
149.804655
 30
0.0
 11
57.050274
 21
149.399332
 31
0.0
  0
LINE
  5
137CF
  8
ALPHA
 10
57.050274
 20
149.399332
 30
0.0
 11
56.641915
 21
148.990972
 31
0.0
  0
LINE
  5
137D0
  8
ALPHA
 10
56.641915
 20
148.990972
 30
0.0
 11
57.050274
 21
148.585649
 31
0.0
  0
LINE
  5
137D1
  8
ALPHA
 10
57.050274
 20
148.585649
 30
0.0
 11
56.641915
 21
148.178808
 31
0.0
  0
LINE
  5
137D2
  8
ALPHA
 10
56.641915
 20
148.178808
 30
0.0
 11
57.050274
 21
147.773484
 31
0.0
  0
LINE
  5
137D3
  8
ALPHA
 10
57.050274
 20
147.773484
 30
0.0
 11
56.641915
 21
147.365125
 31
0.0
  0
LINE
  5
137D4
  8
ALPHA
 10
56.641915
 20
147.365125
 30
0.0
 11
57.050274
 21
146.959801
 31
0.0
  0
LINE
  5
137D5
  8
ALPHA
 10
57.050274
 20
146.959801
 30
0.0
 11
56.641915
 21
146.55296
 31
0.0
  0
LINE
  5
137D6
  8
ALPHA
 10
56.641915
 20
146.55296
 30
0.0
 11
57.050274
 21
146.144601
 31
0.0
  0
LINE
  5
137D7
  8
ALPHA
 10
57.050274
 20
146.144601
 30
0.0
 11
56.641915
 21
145.739277
 31
0.0
  0
LINE
  5
137D8
  8
ALPHA
 10
57.050274
 20
141.26554
 30
0.0
 11
56.641915
 21
140.860217
 31
0.0
  0
LINE
  5
137D9
  8
ALPHA
 10
56.641915
 20
141.673899
 30
0.0
 11
57.050274
 21
141.26554
 31
0.0
  0
LINE
  5
137DA
  8
ALPHA
 10
57.050274
 20
142.080741
 30
0.0
 11
56.641915
 21
141.673899
 31
0.0
  0
LINE
  5
137DB
  8
ALPHA
 10
56.641915
 20
142.486064
 30
0.0
 11
57.050274
 21
142.080741
 31
0.0
  0
LINE
  5
137DC
  8
ALPHA
 10
57.050274
 20
142.894424
 30
0.0
 11
56.641915
 21
142.486064
 31
0.0
  0
LINE
  5
137DD
  8
ALPHA
 10
56.641915
 20
143.299747
 30
0.0
 11
57.050274
 21
142.894424
 31
0.0
  0
LINE
  5
137DE
  8
ALPHA
 10
57.050274
 20
143.706588
 30
0.0
 11
56.641915
 21
143.299747
 31
0.0
  0
LINE
  5
137DF
  8
ALPHA
 10
56.641915
 20
144.111912
 30
0.0
 11
57.050274
 21
143.706588
 31
0.0
  0
LINE
  5
137E0
  8
ALPHA
 10
57.050274
 20
144.520271
 30
0.0
 11
56.641915
 21
144.111912
 31
0.0
  0
LINE
  5
137E1
  8
ALPHA
 10
56.641915
 20
144.925594
 30
0.0
 11
57.050274
 21
144.520271
 31
0.0
  0
LINE
  5
137E2
  8
ALPHA
 10
57.050274
 20
145.332436
 30
0.0
 11
56.641915
 21
144.925594
 31
0.0
  0
LINE
  5
137E3
  8
ALPHA
 10
56.641915
 20
145.739277
 30
0.0
 11
57.050274
 21
145.332436
 31
0.0
  0
LINE
  5
137E4
  8
ALPHA
 10
56.641915
 20
135.981156
 30
0.0
 11
57.050274
 21
135.574315
 31
0.0
  0
LINE
  5
137E5
  8
ALPHA
 10
57.050274
 20
135.574315
 30
0.0
 11
56.641915
 21
135.167473
 31
0.0
  0
LINE
  5
137E6
  8
ALPHA
 10
56.641915
 20
135.167473
 30
0.0
 11
57.050274
 21
134.76215
 31
0.0
  0
LINE
  5
137E7
  8
ALPHA
 10
57.050274
 20
134.76215
 30
0.0
 11
56.641915
 21
134.35379
 31
0.0
  0
LINE
  5
137E8
  8
ALPHA
 10
56.641915
 20
134.35379
 30
0.0
 11
57.050274
 21
133.948467
 31
0.0
  0
LINE
  5
137E9
  8
ALPHA
 10
57.050274
 20
133.948467
 30
0.0
 11
56.641915
 21
133.541626
 31
0.0
  0
LINE
  5
137EA
  8
ALPHA
 10
56.641915
 20
133.541626
 30
0.0
 11
57.050274
 21
133.136302
 31
0.0
  0
LINE
  5
137EB
  8
ALPHA
 10
57.050274
 20
133.136302
 30
0.0
 11
56.641915
 21
132.727943
 31
0.0
  0
LINE
  5
137EC
  8
ALPHA
 10
56.641915
 20
132.727943
 30
0.0
 11
57.050274
 21
132.32262
 31
0.0
  0
LINE
  5
137ED
  8
ALPHA
 10
57.050274
 20
132.32262
 30
0.0
 11
56.641915
 21
131.915778
 31
0.0
  0
LINE
  5
137EE
  8
ALPHA
 10
56.641915
 20
131.915778
 30
0.0
 11
57.050274
 21
131.507419
 31
0.0
  0
LINE
  5
137EF
  8
ALPHA
 10
57.050274
 20
131.507419
 30
0.0
 11
56.641915
 21
131.102095
 31
0.0
  0
LINE
  5
137F0
  8
ALPHA
 10
57.050274
 20
136.386479
 30
0.0
 11
56.641915
 21
135.981156
 31
0.0
  0
LINE
  5
137F1
  8
ALPHA
 10
56.641915
 20
136.794839
 30
0.0
 11
57.050274
 21
136.386479
 31
0.0
  0
LINE
  5
137F2
  8
ALPHA
 10
57.050274
 20
137.20168
 30
0.0
 11
56.641915
 21
136.794839
 31
0.0
  0
LINE
  5
137F3
  8
ALPHA
 10
56.641915
 20
137.607004
 30
0.0
 11
57.050274
 21
137.20168
 31
0.0
  0
LINE
  5
137F4
  8
ALPHA
 10
57.050274
 20
138.015363
 30
0.0
 11
56.641915
 21
137.607004
 31
0.0
  0
LINE
  5
137F5
  8
ALPHA
 10
56.641915
 20
138.420686
 30
0.0
 11
57.050274
 21
138.015363
 31
0.0
  0
LINE
  5
137F6
  8
ALPHA
 10
57.050274
 20
138.827528
 30
0.0
 11
56.641915
 21
138.420686
 31
0.0
  0
LINE
  5
137F7
  8
ALPHA
 10
56.641915
 20
139.232851
 30
0.0
 11
57.050274
 21
138.827528
 31
0.0
  0
LINE
  5
137F8
  8
ALPHA
 10
57.050274
 20
139.641211
 30
0.0
 11
56.641915
 21
139.232851
 31
0.0
  0
LINE
  5
137F9
  8
ALPHA
 10
56.641915
 20
140.046534
 30
0.0
 11
57.050274
 21
139.641211
 31
0.0
  0
LINE
  5
137FA
  8
ALPHA
 10
57.050274
 20
140.453375
 30
0.0
 11
56.641915
 21
140.046534
 31
0.0
  0
LINE
  5
137FB
  8
ALPHA
 10
56.641915
 20
140.860217
 30
0.0
 11
57.050274
 21
140.453375
 31
0.0
  0
LINE
  5
13801
  8
ALPHA
 10
57.050274
 20
158.44377
 30
0.0
 11
56.641915
 21
158.036929
 31
0.0
  0
LINE
  5
13802
  8
ALPHA
 10
56.641915
 20
158.036929
 30
0.0
 11
57.050274
 21
157.631605
 31
0.0
  0
LINE
  5
13803
  8
ALPHA
 10
57.050274
 20
157.631605
 30
0.0
 11
56.641915
 21
157.223246
 31
0.0
  0
LINE
  5
13804
  8
ALPHA
 10
56.641915
 20
157.223246
 30
0.0
 11
57.050274
 21
156.817923
 31
0.0
  0
LINE
  5
13805
  8
ALPHA
 10
57.050274
 20
156.817923
 30
0.0
 11
56.641915
 21
156.411081
 31
0.0
  0
LINE
  5
13806
  8
ALPHA
 10
56.641915
 20
156.411081
 30
0.0
 11
57.050274
 21
156.002722
 31
0.0
  0
LINE
  5
13807
  8
ALPHA
 10
57.050274
 20
156.002722
 30
0.0
 11
56.641915
 21
155.597398
 31
0.0
  0
LINE
  5
13808
  8
ALPHA
 10
57.050274
 20
151.023661
 30
0.0
 11
56.641915
 21
150.618338
 31
0.0
  0
LINE
  5
13809
  8
ALPHA
 10
56.641915
 20
151.532021
 30
0.0
 11
57.050274
 21
151.023661
 31
0.0
  0
LINE
  5
1380A
  8
ALPHA
 10
57.050274
 20
151.938862
 30
0.0
 11
56.641915
 21
151.532021
 31
0.0
  0
LINE
  5
1380B
  8
ALPHA
 10
56.641915
 20
152.344185
 30
0.0
 11
57.050274
 21
151.938862
 31
0.0
  0
LINE
  5
1380C
  8
ALPHA
 10
57.050274
 20
152.752545
 30
0.0
 11
56.641915
 21
152.344185
 31
0.0
  0
LINE
  5
1380D
  8
ALPHA
 10
56.641915
 20
153.157868
 30
0.0
 11
57.050274
 21
152.752545
 31
0.0
  0
LINE
  5
1380E
  8
ALPHA
 10
57.050274
 20
153.56471
 30
0.0
 11
56.641915
 21
153.157868
 31
0.0
  0
LINE
  5
1380F
  8
ALPHA
 10
56.641915
 20
153.970033
 30
0.0
 11
57.050274
 21
153.56471
 31
0.0
  0
LINE
  5
13810
  8
ALPHA
 10
57.050274
 20
154.378392
 30
0.0
 11
56.641915
 21
153.970033
 31
0.0
  0
LINE
  5
13811
  8
ALPHA
 10
56.641915
 20
154.783716
 30
0.0
 11
57.050274
 21
154.378392
 31
0.0
  0
LINE
  5
13812
  8
ALPHA
 10
57.050274
 20
155.190557
 30
0.0
 11
56.641915
 21
154.783716
 31
0.0
  0
LINE
  5
13813
  8
ALPHA
 10
56.641915
 20
155.597398
 30
0.0
 11
57.050274
 21
155.190557
 31
0.0
  0
LINE
  5
1382B
  8
ALPHA
 10
56.641915
 20
158.93458
 30
0.0
 11
57.050274
 21
158.44377
 31
0.0
  0
LINE
  5
1382C
  8
ALPHA
 10
54.333345
 20
172.222202
 30
0.0
 11
56.641915
 21
158.93458
 31
0.0
  0
LINE
  5
1382D
  8
ALPHA
 10
56.641915
 20
127.136718
 30
0.0
 11
57.050274
 21
126.729876
 31
0.0
  0
LINE
  5
1382E
  8
ALPHA
 10
57.050274
 20
126.729876
 30
0.0
 11
56.641915
 21
126.323035
 31
0.0
  0
LINE
  5
1382F
  8
ALPHA
 10
56.641915
 20
126.323035
 30
0.0
 11
57.050274
 21
125.917711
 31
0.0
  0
LINE
  5
13830
  8
ALPHA
 10
57.050274
 20
125.917711
 30
0.0
 11
56.641915
 21
125.509352
 31
0.0
  0
LINE
  5
13831
  8
ALPHA
 10
56.641915
 20
125.509352
 30
0.0
 11
57.050274
 21
125.104029
 31
0.0
  0
LINE
  5
13832
  8
ALPHA
 10
57.050274
 20
127.542041
 30
0.0
 11
56.641915
 21
127.136718
 31
0.0
  0
LINE
  5
13833
  8
ALPHA
 10
56.641915
 20
127.9504
 30
0.0
 11
57.050274
 21
127.542041
 31
0.0
  0
LINE
  5
13834
  8
ALPHA
 10
57.050274
 20
128.357242
 30
0.0
 11
56.641915
 21
127.9504
 31
0.0
  0
LINE
  5
13835
  8
ALPHA
 10
57.050274
 20
125.104029
 30
0.0
 11
56.641915
 21
124.697187
 31
0.0
  0
LINE
  5
13836
  8
ALPHA
 10
56.641915
 20
124.697187
 30
0.0
 11
57.050274
 21
124.291864
 31
0.0
  0
LINE
  5
13837
  8
ALPHA
 10
57.050274
 20
124.291864
 30
0.0
 11
56.641915
 21
123.883505
 31
0.0
  0
LINE
  5
13838
  8
ALPHA
 10
56.641915
 20
123.883505
 30
0.0
 11
57.050274
 21
123.478181
 31
0.0
  0
LINE
  5
13839
  8
ALPHA
 10
57.050274
 20
123.478181
 30
0.0
 11
56.641915
 21
123.07134
 31
0.0
  0
LINE
  5
1383A
  8
ALPHA
 10
56.641915
 20
123.07134
 30
0.0
 11
57.050274
 21
122.66298
 31
0.0
  0
LINE
  5
1383B
  8
ALPHA
 10
57.050274
 20
122.66298
 30
0.0
 11
56.641915
 21
122.257657
 31
0.0
  0
LINE
  5
1383C
  8
ALPHA
 10
57.050274
 20
119.412803
 30
0.0
 11
56.641915
 21
119.004444
 31
0.0
  0
LINE
  5
1383D
  8
ALPHA
 10
56.641915
 20
119.818127
 30
0.0
 11
57.050274
 21
119.412803
 31
0.0
  0
LINE
  5
1383E
  8
ALPHA
 10
57.050274
 20
120.224968
 30
0.0
 11
56.641915
 21
119.818127
 31
0.0
  0
LINE
  5
1383F
  8
ALPHA
 10
56.641915
 20
120.630291
 30
0.0
 11
57.050274
 21
120.224968
 31
0.0
  0
LINE
  5
13840
  8
ALPHA
 10
57.050274
 20
121.038651
 30
0.0
 11
56.641915
 21
120.630291
 31
0.0
  0
LINE
  5
13841
  8
ALPHA
 10
56.641915
 20
121.443974
 30
0.0
 11
57.050274
 21
121.038651
 31
0.0
  0
LINE
  5
13842
  8
ALPHA
 10
57.050274
 20
121.850816
 30
0.0
 11
56.641915
 21
121.443974
 31
0.0
  0
LINE
  5
13843
  8
ALPHA
 10
56.641915
 20
122.257657
 30
0.0
 11
57.050274
 21
121.850816
 31
0.0
  0
LINE
  5
13844
  8
ALPHA
 10
56.641915
 20
112.499536
 30
0.0
 11
57.050274
 21
112.092694
 31
0.0
  0
LINE
  5
13845
  8
ALPHA
 10
57.050274
 20
112.092694
 30
0.0
 11
56.641915
 21
111.685853
 31
0.0
  0
LINE
  5
13846
  8
ALPHA
 10
56.641915
 20
111.685853
 30
0.0
 11
57.050274
 21
111.28053
 31
0.0
  0
LINE
  5
13847
  8
ALPHA
 10
57.050274
 20
111.28053
 30
0.0
 11
56.641915
 21
110.87217
 31
0.0
  0
LINE
  5
13848
  8
ALPHA
 10
56.641915
 20
110.87217
 30
0.0
 11
57.050274
 21
110.466847
 31
0.0
  0
LINE
  5
13849
  8
ALPHA
 10
57.050274
 20
110.466847
 30
0.0
 11
56.641915
 21
110.060005
 31
0.0
  0
LINE
  5
1384A
  8
ALPHA
 10
56.641915
 20
117.378596
 30
0.0
 11
57.050274
 21
116.971755
 31
0.0
  0
LINE
  5
1384B
  8
ALPHA
 10
57.050274
 20
116.971755
 30
0.0
 11
56.641915
 21
116.564914
 31
0.0
  0
LINE
  5
1384C
  8
ALPHA
 10
56.641915
 20
116.564914
 30
0.0
 11
57.050274
 21
116.15959
 31
0.0
  0
LINE
  5
1384D
  8
ALPHA
 10
57.050274
 20
116.15959
 30
0.0
 11
56.641915
 21
115.751231
 31
0.0
  0
LINE
  5
1384E
  8
ALPHA
 10
56.641915
 20
115.751231
 30
0.0
 11
57.050274
 21
115.345907
 31
0.0
  0
LINE
  5
1384F
  8
ALPHA
 10
57.050274
 20
115.345907
 30
0.0
 11
56.641915
 21
114.939066
 31
0.0
  0
LINE
  5
13850
  8
ALPHA
 10
56.641915
 20
114.939066
 30
0.0
 11
57.050274
 21
114.533743
 31
0.0
  0
LINE
  5
13851
  8
ALPHA
 10
57.050274
 20
114.533743
 30
0.0
 11
56.641915
 21
114.125383
 31
0.0
  0
LINE
  5
13852
  8
ALPHA
 10
56.641915
 20
114.125383
 30
0.0
 11
57.050274
 21
113.72006
 31
0.0
  0
LINE
  5
13853
  8
ALPHA
 10
57.050274
 20
113.72006
 30
0.0
 11
56.641915
 21
113.313219
 31
0.0
  0
LINE
  5
13854
  8
ALPHA
 10
56.641915
 20
113.313219
 30
0.0
 11
57.050274
 21
112.904859
 31
0.0
  0
LINE
  5
13855
  8
ALPHA
 10
57.050274
 20
112.904859
 30
0.0
 11
56.641915
 21
112.499536
 31
0.0
  0
LINE
  5
13856
  8
ALPHA
 10
57.050274
 20
117.78392
 30
0.0
 11
56.641915
 21
117.378596
 31
0.0
  0
LINE
  5
13857
  8
ALPHA
 10
56.641915
 20
118.192279
 30
0.0
 11
57.050274
 21
117.78392
 31
0.0
  0
LINE
  5
13858
  8
ALPHA
 10
57.050274
 20
118.599121
 30
0.0
 11
56.641915
 21
118.192279
 31
0.0
  0
LINE
  5
13859
  8
ALPHA
 10
56.641915
 20
119.004444
 30
0.0
 11
57.050274
 21
118.599121
 31
0.0
  0
POLYLINE
  5
1385A
  8
ALPHA
 66
     1
 10
0.0
 20
0.0
 30
0.0
 70
   128
  0
VERTEX
  5
14924
  8
ALPHA
 10
56.641915
 20
110.060005
 30
0.0
  0
VERTEX
  5
14925
  8
ALPHA
 10
56.544545
 20
109.626209
 30
0.0
  0
VERTEX
  5
14926
  8
ALPHA
 10
56.287842
 20
108.482565
 30
0.0
  0
VERTEX
  5
14927
  8
ALPHA
 10
55.508883
 20
105.012195
 30
0.0
  0
VERTEX
  5
14928
  8
ALPHA
 10
54.729923
 20
101.541826
 30
0.0
  0
VERTEX
  5
14929
  8
ALPHA
 10
54.47322
 20
100.398181
 30
0.0
  0
VERTEX
  5
1492A
  8
ALPHA
 10
54.37585
 20
99.964385
 30
0.0
  0
VERTEX
  5
1492B
  8
ALPHA
 10
53.940166
 20
99.001932
 30
0.0
  0
SEQEND
  5
1492C
  8
ALPHA
  0
POLYLINE
  5
1385B
  8
ALPHA
 66
     1
 10
0.0
 20
0.0
 30
0.0
 70
   128
210
0.0
220
0.0
230
-1.0
  0
VERTEX
  5
1492D
  8
ALPHA
 10
-53.940166
 20
99.001932
 30
0.0
  0
VERTEX
  5
1492E
  8
ALPHA
 10
-53.433132
 20
98.303622
 30
0.0
  0
VERTEX
  5
1492F
  8
ALPHA
 10
-52.619532
 20
97.916515
 30
0.0
  0
VERTEX
  5
14930
  8
ALPHA
 10
-51.82254
 20
98.309604
 30
0.0
  0
VERTEX
  5
14931
  8
ALPHA
 10
-50.205523
 20
99.56904
 30
0.0
  0
VERTEX
  5
14932
  8
ALPHA
 10
-48.141915
 20
100.03877
 30
0.0
  0
SEQEND
  5
14933
  8
ALPHA
  0
LINE
  5
1385C
  8
ALPHA
 10
39.461406
 20
115.93174
 30
0.0
 11
38.75458
 21
115.787863
 31
0.0
  0
POLYLINE
  5
138A3
  8
ALPHA
 66
     1
 10
0.0
 20
0.0
 30
0.0
 70
   128
  0
VERTEX
  5
14934
  8
ALPHA
 10
53.391915
 20
116.486377
 30
0.0
  0
VERTEX
  5
14935
  8
ALPHA
 10
48.152869
 20
116.774539
 30
0.0
  0
VERTEX
  5
14936
  8
ALPHA
 10
42.891915
 20
116.465624
 30
0.0
  0
SEQEND
  5
14937
  8
ALPHA
  0
ARC
  5
138A4
  8
ALPHA
 10
38.141915
 20
122.228457
 30
0.0
 40
2.15
 50
48.002199
 51
57.663974
  0
ARC
  5
138A5
  8
ALPHA
 10
37.141915
 20
124.228457
 30
0.0
 40
2.15
 50
3.100204
 51
180.0
  0
LINE
  5
138A7
  8
ALPHA
 10
39.591187
 20
148.128457
 30
0.0
 11
35.641915
 21
148.128457
 31
0.0
  0
LINE
  5
138F1
  8
ALPHA
 10
50.257338
 20
139.524077
 30
0.0
 11
50.257338
 21
140.932842
 31
0.0
  0
LINE
  5
138F2
  8
ALPHA
 10
48.771152
 20
140.932842
 30
0.0
 11
48.771152
 21
144.42499
 31
0.0
  0
LINE
  5
138F3
  8
ALPHA
 10
48.771152
 20
136.031924
 30
0.0
 11
48.771152
 21
139.524077
 31
0.0
  0
LINE
  5
138F4
  8
ALPHA
 10
47.512674
 20
139.524077
 30
0.0
 11
46.024972
 21
139.524077
 31
0.0
  0
LINE
  5
138F5
  8
ALPHA
 10
46.024972
 20
139.524077
 30
0.0
 11
46.024972
 21
140.932842
 31
0.0
  0
LINE
  5
138F6
  8
ALPHA
 10
46.024972
 20
140.932842
 30
0.0
 11
47.512674
 21
140.932842
 31
0.0
  0
LINE
  5
138F7
  8
ALPHA
 10
47.512674
 20
140.932842
 30
0.0
 11
47.512674
 21
144.425218
 31
0.0
  0
LINE
  5
138F8
  8
ALPHA
 10
47.512674
 20
136.031696
 30
0.0
 11
47.512674
 21
139.524077
 31
0.0
  0
LINE
  5
138F9
  8
ALPHA
 10
48.771152
 20
139.524077
 30
0.0
 11
50.257338
 21
139.524077
 31
0.0
  0
LINE
  5
138FA
  8
ALPHA
 10
50.257338
 20
140.932842
 30
0.0
 11
48.771152
 21
140.932842
 31
0.0
  0
POLYLINE
  5
138FB
  8
ALPHA
 66
     1
 10
0.0
 20
0.0
 30
0.0
 70
   128
  0
VERTEX
  5
14938
  8
ALPHA
 10
49.243269
 20
148.290902
 30
0.0
  0
VERTEX
  5
14939
  8
ALPHA
 10
49.243269
 20
147.974009
 30
0.0
  0
VERTEX
  5
1493A
  8
ALPHA
 10
49.243269
 20
147.399776
 30
0.0
  0
SEQEND
  5
1493B
  8
ALPHA
  0
POLYLINE
  5
138FC
  8
ALPHA
 66
     1
 10
0.0
 20
0.0
 30
0.0
 70
   128
  0
VERTEX
  5
1493C
  8
ALPHA
 10
53.302575
 20
146.51932
 30
0.0
  0
VERTEX
  5
1493D
  8
ALPHA
 10
51.420364
 20
147.677224
 30
0.0
  0
VERTEX
  5
1493E
  8
ALPHA
 10
49.243269
 20
148.290902
 30
0.0
  0
SEQEND
  5
1493F
  8
ALPHA
  0
POLYLINE
  5
138FD
  8
ALPHA
 66
     1
 10
0.0
 20
0.0
 30
0.0
 70
   128
  0
VERTEX
  5
14940
  8
ALPHA
 10
47.039039
 20
148.290902
 30
0.0
  0
VERTEX
  5
14941
  8
ALPHA
 10
47.039039
 20
147.973887
 30
0.0
  0
VERTEX
  5
14942
  8
ALPHA
 10
47.039039
 20
147.399542
 30
0.0
  0
SEQEND
  5
14943
  8
ALPHA
  0
POLYLINE
  5
138FE
  8
ALPHA
 66
     1
 10
0.0
 20
0.0
 30
0.0
 70
   128
210
0.0
220
0.0
230
-1.0
  0
VERTEX
  5
14944
  8
ALPHA
 10
-42.979733
 20
146.51932
 30
0.0
  0
VERTEX
  5
14945
  8
ALPHA
 10
-44.863083
 20
147.677224
 30
0.0
  0
VERTEX
  5
14946
  8
ALPHA
 10
-47.039039
 20
148.290902
 30
0.0
  0
SEQEND
  5
14947
  8
ALPHA
  0
POLYLINE
  5
138FF
  8
ALPHA
 66
     1
 10
0.0
 20
0.0
 30
0.0
 70
   128
210
0.0
220
0.0
230
-1.0
  0
VERTEX
  5
14948
  8
ALPHA
 10
-47.034485
 20
131.432791
 30
0.0
  0
VERTEX
  5
14949
  8
ALPHA
 10
-46.629877
 20
131.442567
 30
0.0
  0
VERTEX
  5
1494A
  8
ALPHA
 10
-45.641166
 20
131.744399
 30
0.0
  0
VERTEX
  5
1494B
  8
ALPHA
 10
-44.40602
 20
132.747045
 30
0.0
  0
VERTEX
  5
1494C
  8
ALPHA
 10
-43.801556
 20
133.638908
 30
0.0
  0
VERTEX
  5
1494D
  8
ALPHA
 10
-43.262108
 20
134.85926
 30
0.0
  0
SEQEND
  5
1494E
  8
ALPHA
  0
POLYLINE
  5
13900
  8
ALPHA
 66
     1
 10
0.0
 20
0.0
 30
0.0
 70
   128
  0
VERTEX
  5
1494F
  8
ALPHA
 10
47.034485
 20
133.058074
 30
0.0
  0
VERTEX
  5
14950
  8
ALPHA
 10
47.034485
 20
132.058406
 30
0.0
  0
VERTEX
  5
14951
  8
ALPHA
 10
47.034485
 20
131.616607
 30
0.0
  0
VERTEX
  5
14952
  8
ALPHA
 10
47.034485
 20
131.432791
 30
0.0
  0
SEQEND
  5
14953
  8
ALPHA
  0
POLYLINE
  5
13901
  8
ALPHA
 66
     1
 10
0.0
 20
0.0
 30
0.0
 70
   128
  0
VERTEX
  5
14954
  8
ALPHA
 10
49.249342
 20
133.058073
 30
0.0
  0
VERTEX
  5
14955
  8
ALPHA
 10
49.249342
 20
132.058406
 30
0.0
  0
VERTEX
  5
14956
  8
ALPHA
 10
49.249342
 20
131.616607
 30
0.0
  0
VERTEX
  5
14957
  8
ALPHA
 10
49.249342
 20
131.432791
 30
0.0
  0
SEQEND
  5
14958
  8
ALPHA
  0
POLYLINE
  5
13902
  8
ALPHA
 66
     1
 10
0.0
 20
0.0
 30
0.0
 70
   128
  0
VERTEX
  5
14959
  8
ALPHA
 10
49.249342
 20
131.432791
 30
0.0
  0
VERTEX
  5
1495A
  8
ALPHA
 10
49.653588
 20
131.442551
 30
0.0
  0
VERTEX
  5
1495B
  8
ALPHA
 10
50.641511
 20
131.744188
 30
0.0
  0
VERTEX
  5
1495C
  8
ALPHA
 10
51.875887
 20
132.746237
 30
0.0
  0
VERTEX
  5
1495D
  8
ALPHA
 10
52.480112
 20
133.637583
 30
0.0
  0
VERTEX
  5
1495E
  8
ALPHA
 10
53.019491
 20
134.857233
 30
0.0
  0
SEQEND
  5
1495F
  8
ALPHA
  0
POLYLINE
  5
13903
  8
ALPHA
 66
     1
 10
0.0
 20
0.0
 30
0.0
 70
   128
210
0.0
220
0.0
230
-1.0
  0
VERTEX
  5
14960
  8
ALPHA
 10
-43.007059
 20
147.846109
 30
0.0
  0
VERTEX
  5
14961
  8
ALPHA
 10
-45.410914
 20
149.001356
 30
0.0
  0
VERTEX
  5
14962
  8
ALPHA
 10
-48.142672
 20
149.41427
 30
0.0
  0
VERTEX
  5
14963
  8
ALPHA
 10
-50.846346
 20
149.010465
 30
0.0
  0
VERTEX
  5
14964
  8
ALPHA
 10
-53.231226
 20
147.877988
 30
0.0
  0
SEQEND
  5
14965
  8
ALPHA
  0
POLYLINE
  5
13904
  8
ALPHA
 66
     1
 10
0.0
 20
0.0
 30
0.0
 70
   128
210
0.0
220
0.0
230
-1.0
  0
VERTEX
  5
14966
  8
ALPHA
 10
-53.276768
 20
132.612328
 30
0.0
  0
VERTEX
  5
14967
  8
ALPHA
 10
-50.873102
 20
131.45708
 30
0.0
  0
VERTEX
  5
14968
  8
ALPHA
 10
-48.142672
 20
131.044166
 30
0.0
  0
VERTEX
  5
14969
  8
ALPHA
 10
-45.43027
 20
131.450059
 30
0.0
  0
VERTEX
  5
1496A
  8
ALPHA
 10
-43.038938
 20
132.588038
 30
0.0
  0
SEQEND
  5
1496B
  8
ALPHA
  0
LINE
  5
13905
  8
ALPHA
 10
53.391915
 20
148.128457
 30
0.0
 11
42.891915
 21
148.128457
 31
0.0
  0
LINE
  5
13906
  8
ALPHA
 10
42.891915
 20
135.220633
 30
0.0
 11
42.891915
 21
110.178457
 31
0.0
  0
LINE
  5
13907
  8
ALPHA
 10
53.391915
 20
135.220633
 30
0.0
 11
53.391915
 21
110.178457
 31
0.0
  0
DIMENSION
  5
1393E
  8
COTATION1
  2
*D11
 10
54.553928
 20
172.418743
 30
0.0
 11
23.64367
 21
200.640132
 31
0.0
 70
   131
 15
41.729902
 25
186.438171
 35
0.0
 40
0.0
  0
DIMENSION
  5
13AED
  8
COTATION1
  2
*D12
 10
-7.527932
 20
122.228457
 30
0.0
 11
-7.527932
 21
155.578457
 31
0.0
 70
   128
  1
53.5...102.5
 13
27.853068
 23
188.928457
 33
0.0
 14
33.991915
 24
122.228457
 34
0.0
 50
90.0
  0
LINE
  5
13B49
  8
AXE
 10
59.654616
 20
140.228457
 30
0.0
 11
36.629214
 21
140.228457
 31
0.0
  0
CIRCLE
  5
13BCE
  8
ALPHA
 10
48.141915
 20
140.228457
 30
0.0
 40
7.255398
  0
CIRCLE
  5
13BD1
  8
ALPHA
 10
48.141153
 20
140.228457
 30
0.0
 40
6.144174
  0
CIRCLE
  5
13BD2
  8
ALPHA
 10
48.141153
 20
140.228457
 30
0.0
 40
4.243558
  0
VIEWPORT
  5
494D
 67
     1
  8
0
 10
4.995325
 20
6.556512
 30
0.0
 40
22.70986
 41
13.988421
 68
    -1
 69
     1
1001
ACAD
1000
MVIEW
1002
{
1070
    16
1010
0.0
1020
0.0
1030
0.0
1010
0.0
1020
0.0
1030
1.0
1040
0.0
1040
13.988421
1040
4.995325
1040
6.556512
1040
50.0
1040
0.0
1040
0.0
1070
     0
1070
   100
1070
     1
1070
     1
1070
     0
1070
     0
1070
     0
1070
     0
1040
0.0
1040
0.0
1040
0.0
1040
10.0
1040
10.0
1040
10.0
1040
10.0
1070
     0
1002
{
1002
}
1002
}
  0
ENDSEC
  0
EOF
