  0
SECTION
  2
HEADER
  9
$ACADVER
  1
AC1014
  9
$ACADMAINTVER
 70
     0
  9
$DWGCODEPAGE
  3
ANSI_1252
  9
$INSBASE
 10
72.631985
 20
97.41875
 30
0.0
  9
$EXTMIN
 10
57.263146
 20
65.217361
 30
0.0
  9
$EXTMAX
 10
95.303076
 20
120.800521
 30
0.0
  9
$LIMMIN
 10
0.0
 20
0.0
  9
$LIMMAX
 10
210.0
 20
297.0
  9
$ORTHOMODE
 70
     1
  9
$REGENMODE
 70
     1
  9
$FILLMODE
 70
     1
  9
$QTEXTMODE
 70
     0
  9
$MIRRTEXT
 70
     1
  9
$DRAGMODE
 70
     2
  9
$LTSCALE
 40
7.0
  9
$OSMODE
 70
     0
  9
$ATTMODE
 70
     1
  9
$TEXTSIZE
 40
0.2
  9
$TRACEWID
 40
0.05
  9
$TEXTSTYLE
  7
STANDARD
  9
$CLAYER
  8
COTATION1
  9
$CELTYPE
  6
BYLAYER
  9
$CECOLOR
 62
   256
  9
$CELTSCALE
 40
1.0
  9
$DELOBJ
 70
     1
  9
$DISPSILH
 70
     0
  9
$DIMSCALE
 40
1.0
  9
$DIMASZ
 40
3.0
  9
$DIMEXO
 40
0.0625
  9
$DIMDLI
 40
0.38
  9
$DIMRND
 40
0.01
  9
$DIMDLE
 40
0.0
  9
$DIMEXE
 40
0.18
  9
$DIMTP
 40
0.0
  9
$DIMTM
 40
0.0
  9
$DIMTXT
 40
2.5
  9
$DIMCEN
 40
0.09
  9
$DIMTSZ
 40
0.0
  9
$DIMTOL
 70
     0
  9
$DIMLIM
 70
     0
  9
$DIMTIH
 70
     0
  9
$DIMTOH
 70
     0
  9
$DIMSE1
 70
     0
  9
$DIMSE2
 70
     0
  9
$DIMTAD
 70
     1
  9
$DIMZIN
 70
    12
  9
$DIMBLK
  1

  9
$DIMASO
 70
     1
  9
$DIMSHO
 70
     1
  9
$DIMPOST
  1

  9
$DIMAPOST
  1

  9
$DIMALT
 70
     0
  9
$DIMALTD
 70
     2
  9
$DIMALTF
 40
25.4
  9
$DIMLFAC
 40
1.0
  9
$DIMTOFL
 70
     1
  9
$DIMTVP
 40
0.0
  9
$DIMTIX
 70
     0
  9
$DIMSOXD
 70
     0
  9
$DIMSAH
 70
     0
  9
$DIMBLK1
  1

  9
$DIMBLK2
  1

  9
$DIMSTYLE
  2
SC_STAND
  9
$DIMCLRD
 70
     0
  9
$DIMCLRE
 70
     0
  9
$DIMCLRT
 70
     0
  9
$DIMTFAC
 40
1.0
  9
$DIMGAP
 40
1.0
  9
$DIMJUST
 70
     0
  9
$DIMSD1
 70
     0
  9
$DIMSD2
 70
     0
  9
$DIMTOLJ
 70
     1
  9
$DIMTZIN
 70
    12
  9
$DIMALTZ
 70
    12
  9
$DIMALTTZ
 70
    12
  9
$DIMFIT
 70
     5
  9
$DIMUPT
 70
     0
  9
$DIMUNIT
 70
     2
  9
$DIMDEC
 70
     4
  9
$DIMTDEC
 70
     4
  9
$DIMALTU
 70
     2
  9
$DIMALTTD
 70
     2
  9
$DIMTXSTY
  7
STANDARD
  9
$DIMAUNIT
 70
     0
  9
$LUNITS
 70
     2
  9
$LUPREC
 70
     4
  9
$SKETCHINC
 40
0.1
  9
$FILLETRAD
 40
0.0
  9
$AUNITS
 70
     0
  9
$AUPREC
 70
     0
  9
$MENU
  1
acad
  9
$ELEVATION
 40
0.0
  9
$PELEVATION
 40
0.0
  9
$THICKNESS
 40
0.0
  9
$LIMCHECK
 70
     0
  9
$BLIPMODE
 70
     1
  9
$CHAMFERA
 40
0.0
  9
$CHAMFERB
 40
0.0
  9
$CHAMFERC
 40
0.0
  9
$CHAMFERD
 40
0.0
  9
$SKPOLY
 70
     0
  9
$TDCREATE
 40
2451086.446846180
  9
$TDUPDATE
 40
2451387.897806204
  9
$TDINDWG
 40
0.0000321875
  9
$TDUSRTIMER
 40
0.0000321875
  9
$USRTIMER
 70
     1
  9
$ANGBASE
 50
0.0
  9
$ANGDIR
 70
     0
  9
$PDMODE
 70
     0
  9
$PDSIZE
 40
0.0
  9
$PLINEWID
 40
0.0
  9
$COORDS
 70
     1
  9
$SPLFRAME
 70
     0
  9
$SPLINETYPE
 70
     6
  9
$SPLINESEGS
 70
     8
  9
$ATTDIA
 70
     0
  9
$ATTREQ
 70
     1
  9
$HANDLING
 70
     1
  9
$HANDSEED
  5
F93
  9
$SURFTAB1
 70
     6
  9
$SURFTAB2
 70
     6
  9
$SURFTYPE
 70
     6
  9
$SURFU
 70
     6
  9
$SURFV
 70
     6
  9
$UCSNAME
  2

  9
$UCSORG
 10
0.0
 20
0.0
 30
0.0
  9
$UCSXDIR
 10
1.0
 20
0.0
 30
0.0
  9
$UCSYDIR
 10
0.0
 20
1.0
 30
0.0
  9
$PUCSNAME
  2

  9
$PUCSORG
 10
0.0
 20
0.0
 30
0.0
  9
$PUCSXDIR
 10
1.0
 20
0.0
 30
0.0
  9
$PUCSYDIR
 10
0.0
 20
1.0
 30
0.0
  9
$USERI1
 70
     0
  9
$USERI2
 70
     0
  9
$USERI3
 70
     0
  9
$USERI4
 70
     0
  9
$USERI5
 70
     0
  9
$USERR1
 40
0.0
  9
$USERR2
 40
0.0
  9
$USERR3
 40
0.0
  9
$USERR4
 40
0.0
  9
$USERR5
 40
0.0
  9
$WORLDVIEW
 70
     1
  9
$SHADEDGE
 70
     3
  9
$SHADEDIF
 70
    70
  9
$TILEMODE
 70
     1
  9
$MAXACTVP
 70
    16
  9
$PINSBASE
 10
0.0
 20
0.0
 30
0.0
  9
$PLIMCHECK
 70
     0
  9
$PEXTMIN
 10
1.000000E+20
 20
1.000000E+20
 30
1.000000E+20
  9
$PEXTMAX
 10
-1.000000E+20
 20
-1.000000E+20
 30
-1.000000E+20
  9
$PLIMMIN
 10
0.0
 20
0.0
  9
$PLIMMAX
 10
12.0
 20
9.0
  9
$UNITMODE
 70
     0
  9
$VISRETAIN
 70
     0
  9
$PLINEGEN
 70
     0
  9
$PSLTSCALE
 70
     1
  9
$TREEDEPTH
 70
  3020
  9
$PICKSTYLE
 70
     1
  9
$CMLSTYLE
  2
STANDARD
  9
$CMLJUST
 70
     0
  9
$CMLSCALE
 40
1.0
  9
$PROXYGRAPHICS
 70
     1
  9
$MEASUREMENT
 70
     0
  0
ENDSEC
  0
SECTION
  2
CLASSES
  0
CLASS
  1
DICTIONARYVAR
  2
AcDbDictionaryVar
  3
"AutoCAD"
 90
        0
280
     0
281
     0
  0
CLASS
  1
LWPOLYLINE
  2
AcDbPolyline
  3
"AutoCAD"
 90
        0
280
     0
281
     1
  0
ENDSEC
  0
SECTION
  2
TABLES
  0
TABLE
  2
VPORT
  5
F67
100
AcDbSymbolTable
 70
     1
  0
VPORT
  5
F8E
100
AcDbSymbolTableRecord
100
AcDbViewportTableRecord
  2
*ACTIVE
 70
     0
 10
0.0
 20
0.0
 11
1.0
 21
1.0
 12
225.654671
 22
135.037441
 13
0.0
 23
0.0
 14
1.0
 24
1.0
 15
0.0
 25
0.0
 16
0.0
 26
0.0
 36
1.0
 17
0.0
 27
0.0
 37
0.0
 40
270.074882
 41
1.671053
 42
50.0
 43
0.0
 44
0.0
 50
0.0
 51
0.0
 71
     0
 72
   100
 73
     1
 74
     1
 75
     0
 76
     0
 77
     0
 78
     0
  0
ENDTAB
  0
TABLE
  2
LTYPE
  5
F64
100
AcDbSymbolTable
 70
     2
  0
LTYPE
  5
F70
100
AcDbSymbolTableRecord
100
AcDbLinetypeTableRecord
  2
BYBLOCK
 70
     0
  3

 72
    65
 73
     0
 40
0.0
  0
LTYPE
  5
F71
100
AcDbSymbolTableRecord
100
AcDbLinetypeTableRecord
  2
BYLAYER
 70
     0
  3

 72
    65
 73
     0
 40
0.0
  0
LTYPE
  5
F72
100
AcDbSymbolTableRecord
100
AcDbLinetypeTableRecord
  2
CONTINUOUS
 70
     0
  3
Solid line
 72
    65
 73
     0
 40
0.0
  0
LTYPE
  5
F7E
100
AcDbSymbolTableRecord
100
AcDbLinetypeTableRecord
  2
AXES2
 70
     0
  3
___ _ ___ _ ___ _ ___ _ ___ _ ___ _ ___ _ ___ _
 72
    65
 73
     4
 40
1.125
 49
0.75
 74
     0
 49
-0.125
 74
     0
 49
0.125
 74
     0
 49
-0.125
 74
     0
  0
ENDTAB
  0
TABLE
  2
LAYER
  5
F61
100
AcDbSymbolTable
 70
     5
  0
LAYER
  5
F6D
100
AcDbSymbolTableRecord
100
AcDbLayerTableRecord
  2
0
 70
     0
 62
     7
  6
CONTINUOUS
  0
LAYER
  5
F81
100
AcDbSymbolTableRecord
100
AcDbLayerTableRecord
  2
AXE
 70
     0
 62
    80
  6
AXES2
  0
LAYER
  5
F82
100
AcDbSymbolTableRecord
100
AcDbLayerTableRecord
  2
COTATION1
 70
     0
 62
     2
  6
CONTINUOUS
  0
LAYER
  5
F83
100
AcDbSymbolTableRecord
100
AcDbLayerTableRecord
  2
ALPHA
 70
     0
 62
   255
  6
CONTINUOUS
  0
LAYER
  5
F84
100
AcDbSymbolTableRecord
100
AcDbLayerTableRecord
  2
DEFPOINTS
 70
     0
 62
     7
  6
CONTINUOUS
  0
ENDTAB
  0
TABLE
  2
STYLE
  5
F62
100
AcDbSymbolTable
 70
     2
  0
STYLE
  5
F6E
100
AcDbSymbolTableRecord
100
AcDbTextStyleTableRecord
  2
STANDARD
 70
     0
 40
0.0
 41
1.0
 50
0.0
 71
     0
 42
0.2
  3
txt
  4

  0
STYLE
  5
F7D
100
AcDbSymbolTableRecord
100
AcDbTextStyleTableRecord
  2
ROMANS
 70
     0
 40
0.0
 41
1.0
 50
0.0
 71
     0
 42
2.9
  3
romans.shx
  4

  0
ENDTAB
  0
TABLE
  2
VIEW
  5
F65
100
AcDbSymbolTable
 70
     0
  0
ENDTAB
  0
TABLE
  2
UCS
  5
F66
100
AcDbSymbolTable
 70
     0
  0
ENDTAB
  0
TABLE
  2
APPID
  5
F68
100
AcDbSymbolTable
 70
     1
  0
APPID
  5
F6F
100
AcDbSymbolTableRecord
100
AcDbRegAppTableRecord
  2
ACAD
 70
     0
  0
ENDTAB
  0
TABLE
  2
DIMSTYLE
  5
F69
100
AcDbSymbolTable
 70
     1
  0
DIMSTYLE
105
F80
102
{ACAD_REACTORS
330
1F
330
2D
102
}
100
AcDbSymbolTableRecord
100
AcDbDimStyleTableRecord
  2
SC_STAND
 70
     0
  3

  4

  5

  6

  7

 40
1.0
 41
3.0
 42
0.0625
 43
0.38
 44
0.18
 45
0.01
 46
0.0
 47
0.0
 48
0.0
140
2.5
141
0.09
142
0.0
143
25.4
144
1.0
145
0.0
146
1.0
147
1.0
 71
     0
 72
     0
 73
     0
 74
     0
 75
     0
 76
     0
 77
     1
 78
    12
170
     0
171
     2
172
     1
173
     0
174
     0
175
     0
176
     0
177
     0
178
     0
270
     2
271
     4
272
     4
273
     2
274
     2
340
F6E
275
     0
280
     0
281
     0
282
     0
283
     1
284
    12
285
    12
286
    12
287
     5
288
     0
  0
ENDTAB
  0
TABLE
  2
BLOCK_RECORD
  5
F60
100
AcDbSymbolTable
 70
     2
  0
BLOCK_RECORD
  5
F76
100
AcDbSymbolTableRecord
100
AcDbBlockTableRecord
  2
*MODEL_SPACE
  0
BLOCK_RECORD
  5
F73
100
AcDbSymbolTableRecord
100
AcDbBlockTableRecord
  2
*PAPER_SPACE
  0
BLOCK_RECORD
  5
F7B
100
AcDbSymbolTableRecord
100
AcDbBlockTableRecord
  2
*D0
  0
BLOCK_RECORD
  5
F7C
100
AcDbSymbolTableRecord
100
AcDbBlockTableRecord
  2
*D1
  0
ENDTAB
  0
ENDSEC
  0
SECTION
  2
BLOCKS
  0
BLOCK
  5
F87
100
AcDbEntity
  8
0
100
AcDbBlockBegin
  2
*MODEL_SPACE
 70
     0
 10
0.0
 20
0.0
 30
0.0
  3
*MODEL_SPACE
  1

  0
ENDBLK
  5
F88
100
AcDbEntity
  8
0
100
AcDbBlockEnd
  0
BLOCK
  5
F85
100
AcDbEntity
 67
     1
  8
0
100
AcDbBlockBegin
  2
*PAPER_SPACE
 70
     0
 10
0.0
 20
0.0
 30
0.0
  3
*PAPER_SPACE
  1

  0
ENDBLK
  5
F86
100
AcDbEntity
 67
     1
  8
0
100
AcDbBlockEnd
  0
BLOCK
  5
38
100
AcDbEntity
  8
0
100
AcDbBlockBegin
  2
*D0
 70
     1
 10
0.0
 20
0.0
 30
0.0
  3
*D0
  1
AVE_GLOBAL
  0
LINE
  5
2F
100
AcDbEntity
  8
0
  6
BYBLOCK
 62
     0
100
AcDbLine
 10
87.270253
 20
80.488021
 30
0.0
 11
87.270253
 21
65.537361
 31
0.0
  0
LINE
  5
30
100
AcDbEntity
  8
0
  6
BYBLOCK
 62
     0
100
AcDbLine
 10
57.470253
 20
80.488021
 30
0.0
 11
57.470253
 21
65.537361
 31
0.0
  0
LINE
  5
31
100
AcDbEntity
  8
0
  6
BYBLOCK
 62
     0
100
AcDbLine
 10
84.270253
 20
65.717361
 30
0.0
 11
60.470253
 21
65.717361
 31
0.0
  0
SOLID
  5
32
100
AcDbEntity
  8
0
  6
BYBLOCK
 62
     0
100
AcDbTrace
 10
84.270253
 20
66.217361
 30
0.0
 11
84.270253
 21
65.217361
 31
0.0
 12
87.270253
 22
65.717361
 32
0.0
 13
87.270253
 23
65.717361
 33
0.0
  0
SOLID
  5
33
100
AcDbEntity
  8
0
  6
BYBLOCK
 62
     0
100
AcDbTrace
 10
60.470253
 20
66.217361
 30
0.0
 11
60.470253
 21
65.217361
 31
0.0
 12
57.470253
 22
65.717361
 32
0.0
 13
57.470253
 23
65.717361
 33
0.0
  0
TEXT
  5
34
100
AcDbEntity
  8
0
  6
BYBLOCK
 62
     0
100
AcDbText
 10
68.203586
 20
66.717361
 30
0.0
 40
2.5
  1
29.8
  7
ROMANS
100
AcDbText
  0
POINT
  5
35
100
AcDbEntity
  8
DEFPOINTS
  6
BYBLOCK
 62
     0
100
AcDbPoint
 10
87.270253
 20
80.550521
 30
0.0
  0
POINT
  5
36
100
AcDbEntity
  8
DEFPOINTS
  6
BYBLOCK
 62
     0
100
AcDbPoint
 10
57.470253
 20
80.550521
 30
0.0
  0
POINT
  5
37
100
AcDbEntity
  8
DEFPOINTS
  6
BYBLOCK
 62
     0
100
AcDbPoint
 10
57.470253
 20
65.717361
 30
0.0
  0
ENDBLK
  5
39
100
AcDbEntity
  8
0
100
AcDbBlockEnd
  0
BLOCK
  5
2B
100
AcDbEntity
  8
0
100
AcDbBlockBegin
  2
*D1
 70
     1
 10
0.0
 20
0.0
 30
0.0
  3
*D1
  1
AVE_GLOBAL
  0
LINE
  5
21
100
AcDbEntity
  8
0
  6
BYBLOCK
 62
     0
100
AcDbLine
 10
86.332753
 20
79.550521
 30
0.0
 11
94.983076
 21
79.550521
 31
0.0
  0
LINE
  5
22
100
AcDbEntity
  8
0
  6
BYBLOCK
 62
     0
100
AcDbLine
 10
82.847113
 20
119.350521
 30
0.0
 11
94.983076
 21
119.350521
 31
0.0
  0
LINE
  5
23
100
AcDbEntity
  8
0
  6
BYBLOCK
 62
     0
100
AcDbLine
 10
94.803076
 20
82.550521
 30
0.0
 11
94.803076
 21
116.350521
 31
0.0
  0
SOLID
  5
24
100
AcDbEntity
  8
0
  6
BYBLOCK
 62
     0
100
AcDbTrace
 10
94.303076
 20
82.550521
 30
0.0
 11
95.303076
 21
82.550521
 31
0.0
 12
94.803076
 22
79.550521
 32
0.0
 13
94.803076
 23
79.550521
 33
0.0
  0
SOLID
  5
25
100
AcDbEntity
  8
0
  6
BYBLOCK
 62
     0
100
AcDbTrace
 10
94.303076
 20
116.350521
 30
0.0
 11
95.303076
 21
116.350521
 31
0.0
 12
94.803076
 22
119.350521
 32
0.0
 13
94.803076
 23
119.350521
 33
0.0
  0
TEXT
  5
26
100
AcDbEntity
  8
0
  6
BYBLOCK
 62
     0
100
AcDbText
 10
93.803076
 20
95.283854
 30
0.0
 40
2.5
  1
39.8
 50
90.0
  7
ROMANS
100
AcDbText
  0
POINT
  5
27
100
AcDbEntity
  8
DEFPOINTS
  6
BYBLOCK
 62
     0
100
AcDbPoint
 10
86.270253
 20
79.550521
 30
0.0
  0
POINT
  5
29
100
AcDbEntity
  8
DEFPOINTS
  6
BYBLOCK
 62
     0
100
AcDbPoint
 10
82.784613
 20
119.350521
 30
0.0
  0
POINT
  5
2A
100
AcDbEntity
  8
DEFPOINTS
  6
BYBLOCK
 62
     0
100
AcDbPoint
 10
94.803076
 20
119.350521
 30
0.0
  0
ENDBLK
  5
2C
100
AcDbEntity
  8
0
100
AcDbBlockEnd
  0
ENDSEC
  0
SECTION
  2
ENTITIES
  0
DIMENSION
  5
1F
100
AcDbEntity
  8
COTATION1
100
AcDbDimension
  2
*D1
 10
94.803076
 20
119.350521
 30
0.0
 11
92.553076
 21
99.450521
 31
0.0
  3
SC_STAND
100
AcDbAlignedDimension
 13
86.270253
 23
79.550521
 33
0.0
 14
82.784613
 24
119.350521
 34
0.0
 50
90.0
100
AcDbRotatedDimension
  0
DIMENSION
  5
2D
100
AcDbEntity
  8
COTATION1
100
AcDbDimension
  2
*D0
 10
57.470253
 20
65.717361
 30
0.0
 11
72.370253
 21
67.967361
 31
0.0
  3
SC_STAND
100
AcDbAlignedDimension
 13
87.270253
 23
80.550521
 33
0.0
 14
57.470253
 24
80.550521
 34
0.0
100
AcDbRotatedDimension
  0
LINE
  5
3A
100
AcDbEntity
  8
AXE
100
AcDbLine
 10
80.869303
 20
84.034495
 30
0.0
 11
75.355233
 21
80.85117
 31
0.0
  0
ARC
  5
3D
100
AcDbEntity
  8
AXE
100
AcDbCircle
 10
80.119343
 20
85.333556
 30
0.0
 40
1.5
100
AcDbArc
 50
299.998256
 51
359.998256
  0
LINE
  5
3E
100
AcDbEntity
  8
AXE
100
AcDbLine
 10
81.620215
 20
114.00046
 30
0.0
 11
81.619343
 21
85.333511
 31
0.0
  0
ARC
  5
3F
100
AcDbEntity
  8
AXE
100
AcDbCircle
 10
79.620215
 20
114.000521
 30
0.0
 40
2.0
100
AcDbArc
 50
359.998256
 51
90.0
  0
LINE
  5
40
100
AcDbEntity
  8
AXE
100
AcDbLine
 10
76.108619
 20
116.000521
 30
0.0
 11
79.620215
 21
116.000521
 31
0.0
  0
ARC
  5
41
100
AcDbEntity
  8
ALPHA
100
AcDbCircle
 10
76.108619
 20
117.500521
 30
0.0
 40
1.5
100
AcDbArc
 50
257.905243
 51
270.0
  0
LINE
  5
43
100
AcDbEntity
  8
ALPHA
100
AcDbLine
 10
72.684547
 20
116.700198
 30
0.0
 11
75.794325
 21
116.033817
 31
0.0
  0
ARC
  5
44
100
AcDbEntity
  8
ALPHA
100
AcDbCircle
 10
72.370253
 20
115.233495
 30
0.0
 40
1.5
100
AcDbArc
 50
77.905243
 51
102.094757
  0
LINE
  5
45
100
AcDbEntity
  8
ALPHA
100
AcDbLine
 10
68.946181
 20
116.033817
 30
0.0
 11
72.05596
 21
116.700198
 31
0.0
  0
ARC
  5
46
100
AcDbEntity
  8
ALPHA
100
AcDbCircle
 10
68.631887
 20
117.500521
 30
0.0
 40
1.5
100
AcDbArc
 50
270.0
 51
282.094757
  0
LINE
  5
47
100
AcDbEntity
  8
AXE
100
AcDbLine
 10
65.120291
 20
116.000521
 30
0.0
 11
68.631887
 21
116.000521
 31
0.0
  0
ARC
  5
48
100
AcDbEntity
  8
AXE
100
AcDbCircle
 10
65.120291
 20
114.000521
 30
0.0
 40
2.0
100
AcDbArc
 50
90.0
 51
180.001744
  0
LINE
  5
49
100
AcDbEntity
  8
AXE
100
AcDbLine
 10
63.121164
 20
85.333511
 30
0.0
 11
63.120291
 21
114.00046
 31
0.0
  0
ARC
  5
4A
100
AcDbEntity
  8
AXE
100
AcDbCircle
 10
64.621164
 20
85.333556
 30
0.0
 40
1.5
100
AcDbArc
 50
180.001744
 51
240.001744
  0
LINE
  5
4B
100
AcDbEntity
  8
AXE
100
AcDbLine
 10
69.385273
 20
80.85117
 30
0.0
 11
63.871203
 21
84.034495
 31
0.0
  0
LINE
  5
4C
100
AcDbEntity
  8
ALPHA
100
AcDbLine
 10
77.270253
 20
89.393083
 30
0.0
 11
78.320253
 21
89.393083
 31
0.0
  0
LWPOLYLINE
  5
4D
100
AcDbEntity
  8
ALPHA
100
AcDbPolyline
 90
        6
 70
     0
 43
0.0
 10
61.670253
 20
106.241342
 10
61.583804
 20
106.256036
 10
61.499287
 20
106.303099
 10
61.431803
 20
106.377541
 10
61.386544
 20
106.475151
 10
61.370253
 20
106.587752
  0
LINE
  5
55
100
AcDbEntity
  8
ALPHA
100
AcDbLine
 10
66.420253
 20
89.393083
 30
0.0
 11
67.470253
 21
89.393083
 31
0.0
  0
LINE
  5
56
100
AcDbEntity
  8
ALPHA
100
AcDbLine
 10
83.070253
 20
109.723128
 30
0.0
 11
83.070253
 21
108.423726
 31
0.0
  0
LINE
  5
57
100
AcDbEntity
  8
ALPHA
100
AcDbLine
 10
66.420253
 20
84.657637
 30
0.0
 11
58.320253
 21
84.657637
 31
0.0
  0
LINE
  5
58
100
AcDbEntity
  8
ALPHA
100
AcDbLine
 10
60.370253
 20
110.026562
 30
0.0
 11
61.070253
 21
110.026562
 31
0.0
  0
LINE
  5
59
100
AcDbEntity
  8
ALPHA
100
AcDbLine
 10
69.244091
 20
80.696646
 30
0.0
 11
58.470253
 21
80.696646
 31
0.0
  0
LWPOLYLINE
  5
5A
100
AcDbEntity
  8
ALPHA
100
AcDbPolyline
 90
        5
 70
     0
 43
0.0
 10
60.370253
 20
110.026562
 10
60.370253
 20
110.056358
 10
60.370253
 20
110.122743
 10
60.370253
 20
110.216689
 10
60.370253
 20
110.32542
  0
LINE
  5
61
100
AcDbEntity
  8
ALPHA
100
AcDbLine
 10
86.270253
 20
80.696646
 30
0.0
 11
75.496416
 21
80.696646
 31
0.0
  0
LINE
  5
62
100
AcDbEntity
  8
ALPHA
100
AcDbLine
 10
60.370253
 20
110.32542
 30
0.0
 11
61.070253
 21
110.32542
 31
0.0
  0
LINE
  5
63
100
AcDbEntity
  8
ALPHA
100
AcDbLine
 10
61.070253
 20
110.026562
 30
0.0
 11
61.070253
 21
110.32542
 31
0.0
  0
LINE
  5
64
100
AcDbEntity
  8
ALPHA
100
AcDbLine
 10
78.320253
 20
84.657637
 30
0.0
 11
86.420253
 21
84.657637
 31
0.0
  0
LINE
  5
65
100
AcDbEntity
  8
ALPHA
100
AcDbLine
 10
61.670253
 20
109.723128
 30
0.0
 11
61.670253
 21
108.423726
 31
0.0
  0
LWPOLYLINE
  5
66
100
AcDbEntity
  8
ALPHA
100
AcDbPolyline
 90
        4
 70
     0
 43
0.0
 10
63.070253
 20
108.163918
 10
63.070253
 20
108.23089
 10
63.070253
 20
108.32112
 10
63.070253
 20
108.423726
  0
LINE
  5
6C
100
AcDbEntity
  8
ALPHA
100
AcDbLine
 10
61.670253
 20
108.163918
 30
0.0
 11
63.070253
 21
108.163918
 31
0.0
  0
LWPOLYLINE
  5
6D
100
AcDbEntity
  8
ALPHA
100
AcDbPolyline
 90
        4
 70
     0
 43
0.0
 10
61.670253
 20
108.163918
 10
61.670252
 20
108.231315
 10
61.670256
 20
108.322143
 10
61.670253
 20
108.423726
  0
LINE
  5
73
100
AcDbEntity
  8
ALPHA
100
AcDbLine
 10
61.670253
 20
108.423726
 30
0.0
 11
63.070253
 21
108.423726
 31
0.0
  0
LINE
  5
74
100
AcDbEntity
  8
ALPHA
100
AcDbLine
 10
63.070253
 20
108.423726
 30
0.0
 11
63.070253
 21
109.723128
 31
0.0
  0
LINE
  5
75
100
AcDbEntity
  8
ALPHA
100
AcDbLine
 10
60.370253
 20
114.854981
 30
0.0
 11
60.370253
 21
114.57448
 31
0.0
  0
LINE
  5
76
100
AcDbEntity
  8
ALPHA
100
AcDbLine
 10
85.270253
 20
85.950521
 30
0.0
 11
86.420253
 21
85.950521
 31
0.0
  0
LINE
  5
77
100
AcDbEntity
  8
ALPHA
100
AcDbLine
 10
78.320253
 20
85.950521
 30
0.0
 11
79.470253
 21
85.950521
 31
0.0
  0
LWPOLYLINE
  5
78
100
AcDbEntity
  8
ALPHA
100
AcDbPolyline
 90
        5
 70
     0
 43
0.0
 10
64.270253
 20
114.854981
 10
64.384908
 20
114.83212
 10
64.482272
 20
114.766891
 10
64.547355
 20
114.669229
 10
64.570253
 20
114.553835
  0
LINE
  5
7F
100
AcDbEntity
  8
ALPHA
100
AcDbLine
 10
60.320253
 20
107.823274
 30
0.0
 11
58.120253
 21
107.823274
 31
0.0
  0
LINE
  5
80
100
AcDbEntity
  8
ALPHA
100
AcDbLine
 10
60.320253
 20
107.023274
 30
0.0
 11
58.120253
 21
107.023274
 31
0.0
  0
LWPOLYLINE
  5
81
100
AcDbEntity
  8
ALPHA
100
AcDbPolyline
 90
        6
 70
     0
 43
0.0
 10
64.570253
 20
110.32542
 10
64.555428
 20
110.32538
 10
64.512493
 20
110.325475
 10
64.445382
 20
110.32535
 10
64.361632
 20
110.325478
 10
64.270253
 20
110.32542
  0
LINE
  5
89
100
AcDbEntity
  8
ALPHA
100
AcDbLine
 10
67.470253
 20
90.250521
 30
0.0
 11
66.420253
 21
90.250521
 31
0.0
  0
LINE
  5
8A
100
AcDbEntity
  8
ALPHA
100
AcDbLine
 10
78.320253
 20
90.250521
 30
0.0
 11
77.270253
 21
90.250521
 31
0.0
  0
LINE
  5
8B
100
AcDbEntity
  8
ALPHA
100
AcDbLine
 10
64.270253
 20
114.57448
 30
0.0
 11
64.270253
 21
114.854981
 31
0.0
  0
LINE
  5
8C
100
AcDbEntity
  8
ALPHA
100
AcDbLine
 10
57.470253
 20
90.695075
 30
0.0
 11
58.320253
 21
90.695075
 31
0.0
  0
LWPOLYLINE
  5
8D
100
AcDbEntity
  8
ALPHA
100
AcDbPolyline
 90
        4
 70
     0
 43
0.0
 10
64.512493
 20
110.149114
 10
64.445382
 20
110.082776
 10
64.361632
 20
110.040758
 10
64.270253
 20
110.026562
  0
LWPOLYLINE
  5
93
100
AcDbEntity
  8
ALPHA
100
AcDbPolyline
 90
        3
 70
     0
 43
0.0
 10
64.570253
 20
110.32542
 10
64.555428
 20
110.232638
 10
64.512493
 20
110.149114
  0
LINE
  5
98
100
AcDbEntity
  8
ALPHA
100
AcDbLine
 10
84.420253
 20
107.023274
 30
0.0
 11
86.620253
 21
107.023274
 31
0.0
  0
LINE
  5
99
100
AcDbEntity
  8
ALPHA
100
AcDbLine
 10
84.420253
 20
107.823274
 30
0.0
 11
86.620253
 21
107.823274
 31
0.0
  0
LINE
  5
9A
100
AcDbEntity
  8
ALPHA
100
AcDbLine
 10
86.420253
 20
90.695075
 30
0.0
 11
87.270253
 21
90.695075
 31
0.0
  0
LINE
  5
9B
100
AcDbEntity
  8
ALPHA
100
AcDbLine
 10
83.070253
 20
109.723128
 30
0.0
 11
83.370253
 21
109.723128
 31
0.0
  0
LWPOLYLINE
  5
9C
100
AcDbEntity
  8
ALPHA
100
AcDbPolyline
 90
        6
 70
     0
 43
0.0
 10
64.570253
 20
114.275622
 10
64.555428
 20
114.275662
 10
64.512493
 20
114.275567
 10
64.445382
 20
114.275692
 10
64.361632
 20
114.275563
 10
64.270253
 20
114.275622
  0
LWPOLYLINE
  5
A4
100
AcDbEntity
  8
ALPHA
100
AcDbPolyline
 90
        6
 70
     0
 43
0.0
 10
83.670253
 20
110.32542
 10
83.483523
 20
110.29551
 10
83.317468
 20
110.21031
 10
83.185802
 20
110.078468
 10
83.100378
 20
109.911576
 10
83.070253
 20
109.723128
  0
LINE
  5
AC
100
AcDbEntity
  8
ALPHA
100
AcDbLine
 10
78.170253
 20
107.023274
 30
0.0
 11
80.370253
 21
107.023274
 31
0.0
  0
LINE
  5
AD
100
AcDbEntity
  8
ALPHA
100
AcDbLine
 10
78.170253
 20
107.823274
 30
0.0
 11
80.370253
 21
107.823274
 31
0.0
  0
LWPOLYLINE
  5
AE
100
AcDbEntity
  8
ALPHA
100
AcDbPolyline
 90
        5
 70
     0
 43
0.0
 10
64.570253
 20
110.047206
 10
64.547355
 20
109.931813
 10
64.482272
 20
109.83415
 10
64.384908
 20
109.768921
 10
64.270253
 20
109.74606
  0
LINE
  5
B5
100
AcDbEntity
  8
ALPHA
100
AcDbLine
 10
64.270253
 20
109.74606
 30
0.0
 11
64.270253
 21
110.026562
 31
0.0
  0
LWPOLYLINE
  5
B6
100
AcDbEntity
  8
ALPHA
100
AcDbPolyline
 90
        5
 70
     0
 43
0.0
 10
60.370253
 20
109.74606
 10
60.255598
 20
109.768921
 10
60.158234
 20
109.83415
 10
60.093151
 20
109.931813
 10
60.070253
 20
110.047206
  0
LINE
  5
BD
100
AcDbEntity
  8
ALPHA
100
AcDbLine
 10
66.570253
 20
107.823274
 30
0.0
 11
64.370253
 21
107.823274
 31
0.0
  0
LINE
  5
BE
100
AcDbEntity
  8
ALPHA
100
AcDbLine
 10
66.570253
 20
107.023274
 30
0.0
 11
64.370253
 21
107.023274
 31
0.0
  0
LINE
  5
BF
100
AcDbEntity
  8
ALPHA
100
AcDbLine
 10
83.670253
 20
110.32542
 30
0.0
 11
83.670253
 21
110.026562
 31
0.0
  0
LWPOLYLINE
  5
C0
100
AcDbEntity
  8
ALPHA
100
AcDbPolyline
 90
        6
 70
     0
 43
0.0
 10
83.670253
 20
110.026562
 10
83.576876
 20
110.011489
 10
83.493857
 20
109.968567
 10
83.42803
 20
109.902151
 10
83.385319
 20
109.818079
 10
83.370253
 20
109.723128
  0
LINE
  5
C8
100
AcDbEntity
  8
ALPHA
100
AcDbLine
 10
78.170253
 20
105.984043
 30
0.0
 11
80.370253
 21
105.984043
 31
0.0
  0
LINE
  5
C9
100
AcDbEntity
  8
ALPHA
100
AcDbLine
 10
60.370253
 20
110.026562
 30
0.0
 11
60.370253
 21
109.74606
 31
0.0
  0
LINE
  5
CA
100
AcDbEntity
  8
ALPHA
100
AcDbLine
 10
63.670253
 20
110.026562
 30
0.0
 11
64.270253
 21
110.026562
 31
0.0
  0
LINE
  5
CB
100
AcDbEntity
  8
ALPHA
100
AcDbLine
 10
86.270253
 20
80.696646
 30
0.0
 11
86.270253
 21
79.550521
 31
0.0
  0
LINE
  5
CC
100
AcDbEntity
  8
ALPHA
100
AcDbLine
 10
63.670253
 20
110.026562
 30
0.0
 11
63.670253
 21
110.32542
 31
0.0
  0
LINE
  5
CD
100
AcDbEntity
  8
ALPHA
100
AcDbLine
 10
63.670253
 20
110.32542
 30
0.0
 11
64.270253
 21
110.32542
 31
0.0
  0
LWPOLYLINE
  5
CE
100
AcDbEntity
  8
ALPHA
100
AcDbPolyline
 90
        5
 70
     0
 43
0.0
 10
64.270253
 20
110.026562
 10
64.270253
 20
110.056358
 10
64.270253
 20
110.122743
 10
64.270253
 20
110.216689
 10
64.270253
 20
110.32542
  0
LINE
  5
D5
100
AcDbEntity
  8
ALPHA
100
AcDbLine
 10
66.170253
 20
113.550521
 30
0.0
 11
67.470253
 21
113.550521
 31
0.0
  0
LINE
  5
D6
100
AcDbEntity
  8
ALPHA
100
AcDbLine
 10
64.270253
 20
110.32542
 30
0.0
 11
64.270253
 21
114.275622
 31
0.0
  0
LWPOLYLINE
  5
D7
100
AcDbEntity
  8
ALPHA
100
AcDbPolyline
 90
        5
 70
     0
 43
0.0
 10
64.270253
 20
114.275622
 10
64.270253
 20
114.384353
 10
64.270253
 20
114.478299
 10
64.270253
 20
114.544683
 10
64.270253
 20
114.57448
  0
LINE
  5
DE
100
AcDbEntity
  8
ALPHA
100
AcDbLine
 10
60.370253
 20
114.275622
 30
0.0
 11
64.270253
 21
114.275622
 31
0.0
  0
LWPOLYLINE
  5
DF
100
AcDbEntity
  8
ALPHA
100
AcDbPolyline
 90
        5
 70
     0
 43
0.0
 10
60.370253
 20
114.275622
 10
60.370257
 20
114.382897
 10
60.370251
 20
114.477541
 10
60.370254
 20
114.544477
 10
60.370253
 20
114.57448
  0
LINE
  5
E6
100
AcDbEntity
  8
ALPHA
100
AcDbLine
 10
77.270253
 20
113.550521
 30
0.0
 11
78.570253
 21
113.550521
 31
0.0
  0
LINE
  5
E7
100
AcDbEntity
  8
ALPHA
100
AcDbLine
 10
60.370253
 20
114.57448
 30
0.0
 11
64.270253
 21
114.57448
 31
0.0
  0
LWPOLYLINE
  5
E8
100
AcDbEntity
  8
ALPHA
100
AcDbPolyline
 90
        7
 70
     0
 43
0.0
 10
86.270253
 20
80.696646
 10
86.526922
 20
80.730664
 10
86.767528
 20
80.831096
 10
86.974806
 20
80.991474
 10
87.134711
 20
81.201612
 10
87.2356
 20
81.447075
 10
87.270253
 20
81.712073
  0
LWPOLYLINE
  5
F1
100
AcDbEntity
  8
ALPHA
100
AcDbPolyline
 90
        3
 70
     0
 43
0.0
 10
81.282272
 20
109.65797
 10
81.184908
 20
109.723199
 10
81.070253
 20
109.74606
  0
LWPOLYLINE
  5
F6
100
AcDbEntity
  8
ALPHA
100
AcDbPolyline
 90
        3
 70
     0
 43
0.0
 10
81.370253
 20
109.444914
 10
81.347355
 20
109.560308
 10
81.282272
 20
109.65797
  0
LWPOLYLINE
  5
FB
100
AcDbEntity
  8
ALPHA
100
AcDbPolyline
 90
       10
 70
     0
 43
0.0
 10
70.663829
 20
118.950521
 10
71.007202
 20
119.253285
 10
71.379045
 20
119.478823
 10
71.769036
 20
119.62802
 10
72.168896
 20
119.702135
 10
72.571873
 20
119.702111
 10
72.971723
 20
119.627949
 10
73.361688
 20
119.478712
 10
73.733551
 20
119.253104
 10
74.076904
 20
118.950521
  0
LINE
  5
107
100
AcDbEntity
  8
ALPHA
100
AcDbLine
 10
81.070253
 20
109.74606
 30
0.0
 11
81.070253
 21
110.026562
 31
0.0
  0
LINE
  5
108
100
AcDbEntity
  8
ALPHA
100
AcDbLine
 10
83.670253
 20
110.026562
 30
0.0
 11
83.670253
 21
109.74606
 31
0.0
  0
LWPOLYLINE
  5
109
100
AcDbEntity
  8
ALPHA
100
AcDbPolyline
 90
        7
 70
     0
 43
0.0
 10
57.470253
 20
81.712073
 10
57.504907
 20
81.447075
 10
57.605795
 20
81.201612
 10
57.765701
 20
80.991474
 10
57.972978
 20
80.831096
 10
58.213585
 20
80.730664
 10
58.470253
 20
80.696646
  0
LWPOLYLINE
  5
112
100
AcDbEntity
  8
ALPHA
100
AcDbPolyline
 90
        5
 70
     0
 43
0.0
 10
83.670253
 20
109.74606
 10
83.555598
 20
109.723199
 10
83.458234
 20
109.65797
 10
83.393151
 20
109.560308
 10
83.370253
 20
109.444914
  0
LINE
  5
119
100
AcDbEntity
  8
ALPHA
100
AcDbLine
 10
58.470253
 20
79.550521
 30
0.0
 11
58.470253
 21
80.696646
 31
0.0
  0
LWPOLYLINE
  5
11A
100
AcDbEntity
  8
ALPHA
100
AcDbPolyline
 90
        5
 70
     0
 43
0.0
 10
63.670253
 20
109.74606
 10
63.555598
 20
109.723199
 10
63.458234
 20
109.65797
 10
63.393151
 20
109.560308
 10
63.370253
 20
109.444914
  0
LINE
  5
121
100
AcDbEntity
  8
ALPHA
100
AcDbLine
 10
70.663829
 20
118.950521
 30
0.0
 11
69.770253
 21
118.950521
 31
0.0
  0
LWPOLYLINE
  5
122
100
AcDbEntity
  8
ALPHA
100
AcDbPolyline
 90
        6
 70
     0
 43
0.0
 10
81.370253
 20
109.723128
 10
81.355187
 20
109.818079
 10
81.312476
 20
109.902151
 10
81.246649
 20
109.968567
 10
81.16363
 20
110.011489
 10
81.070253
 20
110.026562
  0
LWPOLYLINE
  5
12A
100
AcDbEntity
  8
ALPHA
100
AcDbPolyline
 90
        4
 70
     0
 43
0.0
 10
70.663829
 20
118.950521
 10
70.553623
 20
118.661318
 10
70.45241
 20
118.361182
 10
70.359289
 20
118.050521
  0
LINE
  5
130
100
AcDbEntity
  8
ALPHA
100
AcDbLine
 10
66.420253
 20
85.950521
 30
0.0
 11
65.270253
 21
85.950521
 31
0.0
  0
LWPOLYLINE
  5
131
100
AcDbEntity
  8
ALPHA
100
AcDbPolyline
 90
        6
 70
     0
 43
0.0
 10
63.670253
 20
110.026562
 10
63.578269
 20
110.011947
 10
63.494975
 20
109.969385
 10
63.428352
 20
109.902596
 10
63.385215
 20
109.817758
 10
63.370253
 20
109.723128
  0
LINE
  5
139
100
AcDbEntity
  8
ALPHA
100
AcDbLine
 10
63.670253
 20
110.026562
 30
0.0
 11
63.670253
 21
109.74606
 31
0.0
  0
LINE
  5
13A
100
AcDbEntity
  8
ALPHA
100
AcDbLine
 10
75.770253
 20
115.950521
 30
0.0
 11
76.170253
 21
116.147971
 31
0.0
  0
LINE
  5
13B
100
AcDbEntity
  8
ALPHA
100
AcDbLine
 10
75.770253
 20
115.950521
 30
0.0
 11
75.770253
 21
114.150521
 31
0.0
  0
LWPOLYLINE
  5
13C
100
AcDbEntity
  8
ALPHA
100
AcDbPolyline
 90
        4
 70
     0
 43
0.0
 10
74.076904
 20
118.950521
 10
74.186894
 20
118.66129
 10
74.288101
 20
118.361168
 10
74.381218
 20
118.050521
  0
LINE
  5
142
100
AcDbEntity
  8
ALPHA
100
AcDbLine
 10
74.970253
 20
118.950521
 30
0.0
 11
74.076904
 21
118.950521
 31
0.0
  0
LINE
  5
143
100
AcDbEntity
  8
ALPHA
100
AcDbLine
 10
78.570253
 20
110.550521
 30
0.0
 11
78.970253
 21
110.150521
 31
0.0
  0
LINE
  5
144
100
AcDbEntity
  8
ALPHA
100
AcDbLine
 10
78.970253
 20
115.803222
 30
0.0
 11
78.970253
 21
110.150521
 31
0.0
  0
LINE
  5
145
100
AcDbEntity
  8
ALPHA
100
AcDbLine
 10
78.570253
 20
116.078446
 30
0.0
 11
78.970253
 21
115.803222
 31
0.0
  0
LWPOLYLINE
  5
146
100
AcDbEntity
  8
ALPHA
100
AcDbPolyline
 90
        5
 70
     0
 43
0.0
 10
61.370253
 20
109.444914
 10
61.347355
 20
109.560308
 10
61.282272
 20
109.65797
 10
61.184908
 20
109.723199
 10
61.070253
 20
109.74606
  0
LINE
  5
14D
100
AcDbEntity
  8
ALPHA
100
AcDbLine
 10
61.070253
 20
109.74606
 30
0.0
 11
61.070253
 21
110.026562
 31
0.0
  0
LINE
  5
14E
100
AcDbEntity
  8
ALPHA
100
AcDbLine
 10
78.970253
 20
110.150521
 30
0.0
 11
77.270253
 21
110.150521
 31
0.0
  0
LWPOLYLINE
  5
14F
100
AcDbEntity
  8
ALPHA
100
AcDbPolyline
 90
        6
 70
     0
 43
0.0
 10
61.070253
 20
110.026562
 10
61.162237
 20
110.011947
 10
61.245531
 20
109.969385
 10
61.312155
 20
109.902596
 10
61.355291
 20
109.817758
 10
61.370253
 20
109.723128
  0
LINE
  5
157
100
AcDbEntity
  8
ALPHA
100
AcDbLine
 10
83.670253
 20
109.74606
 30
0.0
 11
84.370253
 21
109.74606
 31
0.0
  0
LINE
  5
158
100
AcDbEntity
  8
ALPHA
100
AcDbLine
 10
85.770253
 20
110.150521
 30
0.0
 11
86.170253
 21
110.550521
 31
0.0
  0
LINE
  5
159
100
AcDbEntity
  8
ALPHA
100
AcDbLine
 10
87.270253
 20
110.150521
 30
0.0
 11
85.770253
 21
110.150521
 31
0.0
  0
LINE
  5
15A
100
AcDbEntity
  8
ALPHA
100
AcDbLine
 10
86.170253
 20
116.078446
 30
0.0
 11
85.770253
 21
115.803222
 31
0.0
  0
LINE
  5
15B
100
AcDbEntity
  8
ALPHA
100
AcDbLine
 10
85.770253
 20
115.803222
 30
0.0
 11
85.770253
 21
110.150521
 31
0.0
  0
LINE
  5
15C
100
AcDbEntity
  8
ALPHA
100
AcDbLine
 10
60.320253
 20
108.550521
 30
0.0
 11
58.120253
 21
108.550521
 31
0.0
  0
LINE
  5
15D
100
AcDbEntity
  8
ALPHA
100
AcDbLine
 10
85.770253
 20
115.803222
 30
0.0
 11
78.970253
 21
115.803222
 31
0.0
  0
LINE
  5
15E
100
AcDbEntity
  8
ALPHA
100
AcDbLine
 10
81.670253
 20
106.241342
 30
0.0
 11
83.070253
 21
106.241342
 31
0.0
  0
LINE
  5
15F
100
AcDbEntity
  8
ALPHA
100
AcDbLine
 10
66.570253
 20
108.550521
 30
0.0
 11
64.370253
 21
108.550521
 31
0.0
  0
LINE
  5
160
100
AcDbEntity
  8
ALPHA
100
AcDbLine
 10
74.970253
 20
118.950521
 30
0.0
 11
74.970253
 21
118.050521
 31
0.0
  0
LWPOLYLINE
  5
161
100
AcDbEntity
  8
ALPHA
100
AcDbPolyline
 90
        6
 70
     0
 43
0.0
 10
74.970253
 20
118.950521
 10
75.057501
 20
118.932182
 10
75.141228
 20
118.874876
 10
75.208087
 20
118.78485
 10
75.253273
 20
118.666967
 10
75.270253
 20
118.526257
  0
LINE
  5
169
100
AcDbEntity
  8
ALPHA
100
AcDbLine
 10
61.070253
 20
109.74606
 30
0.0
 11
60.370253
 21
109.74606
 31
0.0
  0
LINE
  5
16A
100
AcDbEntity
  8
ALPHA
100
AcDbLine
 10
68.970253
 20
115.950521
 30
0.0
 11
68.570253
 21
116.147971
 31
0.0
  0
LINE
  5
16B
100
AcDbEntity
  8
ALPHA
100
AcDbLine
 10
84.420253
 20
108.550521
 30
0.0
 11
86.620253
 21
108.550521
 31
0.0
  0
LINE
  5
16C
100
AcDbEntity
  8
ALPHA
100
AcDbLine
 10
68.970253
 20
114.150521
 30
0.0
 11
68.970253
 21
115.950521
 31
0.0
  0
LINE
  5
16D
100
AcDbEntity
  8
ALPHA
100
AcDbLine
 10
69.770253
 20
118.050521
 30
0.0
 11
69.770253
 21
118.950521
 31
0.0
  0
LINE
  5
16E
100
AcDbEntity
  8
ALPHA
100
AcDbLine
 10
64.270253
 20
114.854981
 30
0.0
 11
60.370253
 21
114.854981
 31
0.0
  0
LINE
  5
16F
100
AcDbEntity
  8
ALPHA
100
AcDbLine
 10
78.170253
 20
108.550521
 30
0.0
 11
80.370253
 21
108.550521
 31
0.0
  0
LINE
  5
170
100
AcDbEntity
  8
ALPHA
100
AcDbLine
 10
65.770253
 20
110.150521
 30
0.0
 11
66.170253
 21
110.550521
 31
0.0
  0
LINE
  5
171
100
AcDbEntity
  8
ALPHA
100
AcDbLine
 10
67.470253
 20
110.150521
 30
0.0
 11
65.770253
 21
110.150521
 31
0.0
  0
LINE
  5
172
100
AcDbEntity
  8
ALPHA
100
AcDbLine
 10
66.170253
 20
116.078446
 30
0.0
 11
65.770253
 21
115.803222
 31
0.0
  0
LINE
  5
173
100
AcDbEntity
  8
ALPHA
100
AcDbLine
 10
65.770253
 20
110.150521
 30
0.0
 11
65.770253
 21
115.803222
 31
0.0
  0
LINE
  5
174
100
AcDbEntity
  8
ALPHA
100
AcDbLine
 10
58.970253
 20
110.150521
 30
0.0
 11
58.570253
 21
110.550521
 31
0.0
  0
LINE
  5
175
100
AcDbEntity
  8
ALPHA
100
AcDbLine
 10
64.270253
 20
109.74606
 30
0.0
 11
63.670253
 21
109.74606
 31
0.0
  0
LINE
  5
176
100
AcDbEntity
  8
ALPHA
100
AcDbLine
 10
84.420253
 20
105.984043
 30
0.0
 11
86.620253
 21
105.984043
 31
0.0
  0
LINE
  5
177
100
AcDbEntity
  8
ALPHA
100
AcDbLine
 10
58.970253
 20
110.150521
 30
0.0
 11
57.470253
 21
110.150521
 31
0.0
  0
LINE
  5
178
100
AcDbEntity
  8
ALPHA
100
AcDbLine
 10
58.970253
 20
110.150521
 30
0.0
 11
58.970253
 21
115.803222
 31
0.0
  0
LINE
  5
179
100
AcDbEntity
  8
ALPHA
100
AcDbLine
 10
58.570253
 20
116.078446
 30
0.0
 11
58.970253
 21
115.803222
 31
0.0
  0
LINE
  5
17A
100
AcDbEntity
  8
ALPHA
100
AcDbLine
 10
63.070253
 20
106.241342
 30
0.0
 11
61.670253
 21
106.241342
 31
0.0
  0
LWPOLYLINE
  5
17B
100
AcDbEntity
  8
ALPHA
100
AcDbPolyline
 90
        6
 70
     0
 43
0.0
 10
69.470253
 20
118.526257
 10
69.487233
 20
118.666967
 10
69.53242
 20
118.78485
 10
69.599278
 20
118.874876
 10
69.683005
 20
118.932182
 10
69.770253
 20
118.950521
  0
LINE
  5
183
100
AcDbEntity
  8
ALPHA
100
AcDbLine
 10
87.270253
 20
93.150521
 30
0.0
 11
86.420253
 21
93.150521
 31
0.0
  0
LINE
  5
184
100
AcDbEntity
  8
ALPHA
100
AcDbLine
 10
66.170253
 20
117.523726
 30
0.0
 11
58.735455
 21
117.523726
 31
0.0
  0
LINE
  5
185
100
AcDbEntity
  8
ALPHA
100
AcDbLine
 10
66.570253
 20
105.984043
 30
0.0
 11
64.370253
 21
105.984043
 31
0.0
  0
LINE
  5
186
100
AcDbEntity
  8
ALPHA
100
AcDbLine
 10
66.170253
 20
117.263918
 30
0.0
 11
58.613453
 21
117.263918
 31
0.0
  0
LINE
  5
187
100
AcDbEntity
  8
ALPHA
100
AcDbLine
 10
65.770253
 20
115.803222
 30
0.0
 11
58.970253
 21
115.803222
 31
0.0
  0
LINE
  5
188
100
AcDbEntity
  8
ALPHA
100
AcDbLine
 10
80.470253
 20
109.74606
 30
0.0
 11
81.070253
 21
109.74606
 31
0.0
  0
LINE
  5
189
100
AcDbEntity
  8
ALPHA
100
AcDbLine
 10
86.127053
 20
117.263918
 30
0.0
 11
78.570253
 21
117.263918
 31
0.0
  0
LINE
  5
18A
100
AcDbEntity
  8
ALPHA
100
AcDbLine
 10
86.005052
 20
117.523726
 30
0.0
 11
78.570253
 21
117.523726
 31
0.0
  0
LINE
  5
18B
100
AcDbEntity
  8
ALPHA
100
AcDbLine
 10
69.470253
 20
117.550977
 30
0.0
 11
68.570253
 21
117.550977
 31
0.0
  0
LINE
  5
18C
100
AcDbEntity
  8
ALPHA
100
AcDbLine
 10
58.320253
 20
93.150521
 30
0.0
 11
57.470253
 21
93.150521
 31
0.0
  0
LINE
  5
18D
100
AcDbEntity
  8
ALPHA
100
AcDbLine
 10
59.470253
 20
85.950521
 30
0.0
 11
58.320253
 21
85.950521
 31
0.0
  0
LINE
  5
18E
100
AcDbEntity
  8
ALPHA
100
AcDbLine
 10
69.470253
 20
117.273812
 30
0.0
 11
68.570253
 21
117.273812
 31
0.0
  0
LINE
  5
18F
100
AcDbEntity
  8
ALPHA
100
AcDbLine
 10
68.970253
 20
115.950521
 30
0.0
 11
69.470253
 21
115.950521
 31
0.0
  0
LINE
  5
190
100
AcDbEntity
  8
ALPHA
100
AcDbLine
 10
75.770253
 20
115.950521
 30
0.0
 11
75.270253
 21
115.950521
 31
0.0
  0
LINE
  5
191
100
AcDbEntity
  8
ALPHA
100
AcDbLine
 10
76.170253
 20
117.550977
 30
0.0
 11
75.270253
 21
117.550977
 31
0.0
  0
LINE
  5
192
100
AcDbEntity
  8
ALPHA
100
AcDbLine
 10
60.320253
 20
105.984043
 30
0.0
 11
58.120253
 21
105.984043
 31
0.0
  0
LINE
  5
193
100
AcDbEntity
  8
ALPHA
100
AcDbLine
 10
76.170253
 20
117.273812
 30
0.0
 11
75.270253
 21
117.273812
 31
0.0
  0
LINE
  5
194
100
AcDbEntity
  8
ALPHA
100
AcDbLine
 10
80.470253
 20
114.854981
 30
0.0
 11
84.370253
 21
114.854981
 31
0.0
  0
LWPOLYLINE
  5
195
100
AcDbEntity
  8
ALPHA
100
AcDbPolyline
 90
        5
 70
     0
 43
0.0
 10
80.170253
 20
114.553835
 10
80.193151
 20
114.669229
 10
80.258234
 20
114.766891
 10
80.355598
 20
114.83212
 10
80.470253
 20
114.854981
  0
LWPOLYLINE
  5
19C
100
AcDbEntity
  8
ALPHA
100
AcDbPolyline
 90
        4
 70
     0
 43
0.0
 10
80.227548
 20
114.451286
 10
80.293918
 20
114.517403
 10
80.377548
 20
114.559853
 10
80.470253
 20
114.57448
  0
LWPOLYLINE
  5
1A2
100
AcDbEntity
  8
ALPHA
100
AcDbPolyline
 90
        3
 70
     0
 43
0.0
 10
80.170253
 20
114.275622
 10
80.184936
 20
114.367975
 10
80.227548
 20
114.451286
  0
LINE
  5
1A7
100
AcDbEntity
  8
ALPHA
100
AcDbLine
 10
69.070253
 20
114.150521
 30
0.0
 11
68.970253
 21
114.150521
 31
0.0
  0
LINE
  5
1A8
100
AcDbEntity
  8
ALPHA
100
AcDbLine
 10
75.770253
 20
114.150521
 30
0.0
 11
75.670253
 21
114.150521
 31
0.0
  0
LINE
  5
1A9
100
AcDbEntity
  8
ALPHA
100
AcDbLine
 10
75.770253
 20
114.150521
 30
0.0
 11
75.944015
 21
113.94344
 31
0.0
  0
LWPOLYLINE
  5
1AA
100
AcDbEntity
  8
ALPHA
100
AcDbPolyline
 90
        6
 70
     0
 43
0.0
 10
61.370253
 20
108.423726
 10
61.384936
 20
108.423726
 10
61.427548
 20
108.423726
 10
61.493918
 20
108.423726
 10
61.577548
 20
108.423726
 10
61.670253
 20
108.423726
  0
LWPOLYLINE
  5
1B2
100
AcDbEntity
  8
ALPHA
100
AcDbPolyline
 90
        6
 70
     0
 43
0.0
 10
60.070253
 20
110.32542
 10
60.085078
 20
110.32538
 10
60.128014
 20
110.325475
 10
60.195124
 20
110.32535
 10
60.278874
 20
110.325478
 10
60.370253
 20
110.32542
  0
LWPOLYLINE
  5
1BA
100
AcDbEntity
  8
ALPHA
100
AcDbPolyline
 90
        6
 70
     0
 43
0.0
 10
63.370253
 20
106.587752
 10
63.353962
 20
106.475151
 10
63.308703
 20
106.377541
 10
63.241219
 20
106.303099
 10
63.156703
 20
106.256036
 10
63.070253
 20
106.241342
  0
LINE
  5
1C2
100
AcDbEntity
  8
ALPHA
100
AcDbLine
 10
68.970253
 20
114.150521
 30
0.0
 11
68.798018
 21
113.945259
 31
0.0
  0
LWPOLYLINE
  5
1C3
100
AcDbEntity
  8
ALPHA
100
AcDbPolyline
 90
        6
 70
     0
 43
0.0
 10
63.370253
 20
108.423726
 10
63.35551
 20
108.343284
 10
63.312768
 20
108.270782
 10
63.24614
 20
108.213271
 10
63.162447
 20
108.176476
 10
63.070253
 20
108.163918
  0
LINE
  5
1CB
100
AcDbEntity
  8
ALPHA
100
AcDbLine
 10
61.370253
 20
109.723128
 30
0.0
 11
61.670253
 21
109.723128
 31
0.0
  0
LINE
  5
1CC
100
AcDbEntity
  8
ALPHA
100
AcDbLine
 10
84.370253
 20
110.32542
 30
0.0
 11
83.670253
 21
110.32542
 31
0.0
  0
LINE
  5
1CD
100
AcDbEntity
  8
ALPHA
100
AcDbLine
 10
84.370253
 20
110.32542
 30
0.0
 11
84.370253
 21
110.026562
 31
0.0
  0
LINE
  5
1CE
100
AcDbEntity
  8
ALPHA
100
AcDbLine
 10
84.370253
 20
110.026562
 30
0.0
 11
83.670253
 21
110.026562
 31
0.0
  0
LWPOLYLINE
  5
1CF
100
AcDbEntity
  8
ALPHA
100
AcDbPolyline
 90
        4
 70
     0
 43
0.0
 10
84.612958
 20
110.149756
 10
84.546589
 20
110.083638
 10
84.462958
 20
110.041189
 10
84.370253
 20
110.026562
  0
LWPOLYLINE
  5
1D5
100
AcDbEntity
  8
ALPHA
100
AcDbPolyline
 90
        3
 70
     0
 43
0.0
 10
84.670253
 20
110.32542
 10
84.65557
 20
110.233067
 10
84.612958
 20
110.149756
  0
LWPOLYLINE
  5
1DA
100
AcDbEntity
  8
ALPHA
100
AcDbPolyline
 90
        5
 70
     0
 43
0.0
 10
84.370253
 20
110.32542
 10
84.485058
 20
110.325543
 10
84.582385
 20
110.325586
 10
84.647417
 20
110.325543
 10
84.670253
 20
110.32542
  0
LINE
  5
1E1
100
AcDbEntity
  8
ALPHA
100
AcDbLine
 10
84.370253
 20
114.275622
 30
0.0
 11
84.370253
 21
110.32542
 31
0.0
  0
LINE
  5
1E2
100
AcDbEntity
  8
ALPHA
100
AcDbLine
 10
84.370253
 20
114.275622
 30
0.0
 11
84.670253
 21
114.275622
 31
0.0
  0
LWPOLYLINE
  5
1E3
100
AcDbEntity
  8
ALPHA
100
AcDbPolyline
 90
        6
 70
     0
 43
0.0
 10
63.370253
 20
108.423726
 10
63.35551
 20
108.42372
 10
63.312768
 20
108.423739
 10
63.24614
 20
108.423695
 10
63.162447
 20
108.423756
 10
63.070253
 20
108.423726
  0
LWPOLYLINE
  5
1EB
100
AcDbEntity
  8
ALPHA
100
AcDbPolyline
 90
        3
 70
     0
 43
0.0
 10
84.612958
 20
114.451286
 10
84.65557
 20
114.367975
 10
84.670253
 20
114.275622
  0
LWPOLYLINE
  5
1F0
100
AcDbEntity
  8
ALPHA
100
AcDbPolyline
 90
        4
 70
     0
 43
0.0
 10
84.370253
 20
114.57448
 10
84.462958
 20
114.559853
 10
84.546589
 20
114.517403
 10
84.612958
 20
114.451286
  0
LINE
  5
1F6
100
AcDbEntity
  8
ALPHA
100
AcDbLine
 10
84.370253
 20
114.275622
 30
0.0
 11
84.370253
 21
114.57448
 31
0.0
  0
LINE
  5
1F7
100
AcDbEntity
  8
ALPHA
100
AcDbLine
 10
80.470253
 20
114.275622
 30
0.0
 11
84.370253
 21
114.275622
 31
0.0
  0
LINE
  5
1F8
100
AcDbEntity
  8
ALPHA
100
AcDbLine
 10
80.470253
 20
114.275622
 30
0.0
 11
80.470253
 21
114.57448
 31
0.0
  0
LINE
  5
1F9
100
AcDbEntity
  8
ALPHA
100
AcDbLine
 10
80.470253
 20
114.57448
 30
0.0
 11
84.370253
 21
114.57448
 31
0.0
  0
LINE
  5
1FA
100
AcDbEntity
  8
ALPHA
100
AcDbLine
 10
63.370253
 20
109.723128
 30
0.0
 11
63.070253
 21
109.723128
 31
0.0
  0
LWPOLYLINE
  5
1FB
100
AcDbEntity
  8
ALPHA
100
AcDbPolyline
 90
        5
 70
     0
 43
0.0
 10
80.470253
 20
114.275622
 10
80.355448
 20
114.275499
 10
80.258121
 20
114.275456
 10
80.193089
 20
114.275499
 10
80.170253
 20
114.275622
  0
LINE
  5
202
100
AcDbEntity
  8
ALPHA
100
AcDbLine
 10
80.470253
 20
110.32542
 30
0.0
 11
80.470253
 21
114.275622
 31
0.0
  0
LINE
  5
203
100
AcDbEntity
  8
ALPHA
100
AcDbLine
 10
80.470253
 20
110.32542
 30
0.0
 11
80.170253
 21
110.32542
 31
0.0
  0
LINE
  5
204
100
AcDbEntity
  8
ALPHA
100
AcDbLine
 10
80.470253
 20
114.854981
 30
0.0
 11
80.470253
 21
114.57448
 31
0.0
  0
LINE
  5
205
100
AcDbEntity
  8
ALPHA
100
AcDbLine
 10
84.370253
 20
114.57448
 30
0.0
 11
84.370253
 21
114.854981
 31
0.0
  0
LWPOLYLINE
  5
206
100
AcDbEntity
  8
ALPHA
100
AcDbPolyline
 90
        5
 70
     0
 43
0.0
 10
84.370253
 20
114.854981
 10
84.484908
 20
114.83212
 10
84.582272
 20
114.766891
 10
84.647355
 20
114.669229
 10
84.670253
 20
114.553835
  0
LWPOLYLINE
  5
20D
100
AcDbEntity
  8
ALPHA
100
AcDbPolyline
 90
        5
 70
     0
 43
0.0
 10
60.070253
 20
114.553835
 10
60.093151
 20
114.669229
 10
60.158234
 20
114.766891
 10
60.255598
 20
114.83212
 10
60.370253
 20
114.854981
  0
LINE
  5
214
100
AcDbEntity
  8
ALPHA
100
AcDbLine
 10
68.570253
 20
115.850521
 30
0.0
 11
66.170253
 21
115.850521
 31
0.0
  0
LWPOLYLINE
  5
215
100
AcDbEntity
  8
ALPHA
100
AcDbPolyline
 90
        3
 70
     0
 43
0.0
 10
80.227548
 20
110.149756
 10
80.184936
 20
110.233067
 10
80.170253
 20
110.32542
  0
LWPOLYLINE
  5
21A
100
AcDbEntity
  8
ALPHA
100
AcDbPolyline
 90
        4
 70
     0
 43
0.0
 10
80.470253
 20
110.026562
 10
80.377548
 20
110.041189
 10
80.293918
 20
110.083638
 10
80.227548
 20
110.149756
  0
LWPOLYLINE
  5
220
100
AcDbEntity
  8
ALPHA
100
AcDbPolyline
 90
        4
 70
     0
 43
0.0
 10
60.126686
 20
114.450094
 10
60.193319
 20
114.516973
 10
60.277161
 20
114.559724
 10
60.370253
 20
114.57448
  0
LWPOLYLINE
  5
226
100
AcDbEntity
  8
ALPHA
100
AcDbPolyline
 90
        3
 70
     0
 43
0.0
 10
60.070253
 20
114.275622
 10
60.084506
 20
114.366647
 10
60.126686
 20
114.450094
  0
LINE
  5
22B
100
AcDbEntity
  8
ALPHA
100
AcDbLine
 10
78.570253
 20
115.850521
 30
0.0
 11
76.170253
 21
115.850521
 31
0.0
  0
LWPOLYLINE
  5
22C
100
AcDbEntity
  8
ALPHA
100
AcDbPolyline
 90
        4
 70
     0
 43
0.0
 10
64.512493
 20
114.451928
 10
64.445382
 20
114.518266
 10
64.361632
 20
114.560284
 10
64.270253
 20
114.57448
  0
LWPOLYLINE
  5
232
100
AcDbEntity
  8
ALPHA
100
AcDbPolyline
 90
        3
 70
     0
 43
0.0
 10
64.570253
 20
114.275622
 10
64.555428
 20
114.368404
 10
64.512493
 20
114.451928
  0
LINE
  5
237
100
AcDbEntity
  8
ALPHA
100
AcDbLine
 10
80.470253
 20
110.32542
 30
0.0
 11
80.470253
 21
110.026562
 31
0.0
  0
LINE
  5
238
100
AcDbEntity
  8
ALPHA
100
AcDbLine
 10
81.070253
 20
110.32542
 30
0.0
 11
80.470253
 21
110.32542
 31
0.0
  0
LINE
  5
239
100
AcDbEntity
  8
ALPHA
100
AcDbLine
 10
81.070253
 20
110.32542
 30
0.0
 11
81.070253
 21
110.026562
 31
0.0
  0
LINE
  5
23A
100
AcDbEntity
  8
ALPHA
100
AcDbLine
 10
81.070253
 20
110.026562
 30
0.0
 11
80.470253
 21
110.026562
 31
0.0
  0
LWPOLYLINE
  5
23B
100
AcDbEntity
  8
ALPHA
100
AcDbPolyline
 90
        5
 70
     0
 43
0.0
 10
84.670253
 20
110.047206
 10
84.647355
 20
109.931813
 10
84.582272
 20
109.83415
 10
84.484908
 20
109.768921
 10
84.370253
 20
109.74606
  0
LINE
  5
242
100
AcDbEntity
  8
ALPHA
100
AcDbLine
 10
84.370253
 20
109.74606
 30
0.0
 11
84.370253
 21
110.026562
 31
0.0
  0
LINE
  5
243
100
AcDbEntity
  8
ALPHA
100
AcDbLine
 10
80.470253
 20
110.026562
 30
0.0
 11
80.470253
 21
109.74606
 31
0.0
  0
LWPOLYLINE
  5
244
100
AcDbEntity
  8
ALPHA
100
AcDbPolyline
 90
        6
 70
     0
 43
0.0
 10
81.670253
 20
109.723128
 10
81.640128
 20
109.911576
 10
81.554704
 20
110.078468
 10
81.423038
 20
110.21031
 10
81.256983
 20
110.29551
 10
81.070253
 20
110.32542
  0
LWPOLYLINE
  5
24C
100
AcDbEntity
  8
ALPHA
100
AcDbPolyline
 90
        5
 70
     0
 43
0.0
 10
80.470253
 20
109.74606
 10
80.355598
 20
109.768921
 10
80.258234
 20
109.83415
 10
80.193151
 20
109.931813
 10
80.170253
 20
110.047206
  0
LINE
  5
253
100
AcDbEntity
  8
ALPHA
100
AcDbLine
 10
81.670253
 20
109.723128
 30
0.0
 11
81.370253
 21
109.723128
 31
0.0
  0
LINE
  5
254
100
AcDbEntity
  8
ALPHA
100
AcDbLine
 10
81.670253
 20
108.423726
 30
0.0
 11
81.670253
 21
109.723128
 31
0.0
  0
LINE
  5
255
100
AcDbEntity
  8
ALPHA
100
AcDbLine
 10
81.670253
 20
108.163918
 30
0.0
 11
81.670253
 21
106.241342
 31
0.0
  0
LWPOLYLINE
  5
256
100
AcDbEntity
  8
ALPHA
100
AcDbPolyline
 90
        6
 70
     0
 43
0.0
 10
81.670253
 20
106.241342
 10
81.583804
 20
106.256036
 10
81.499287
 20
106.303099
 10
81.431803
 20
106.377541
 10
81.386544
 20
106.475151
 10
81.370253
 20
106.587752
  0
LINE
  5
25E
100
AcDbEntity
  8
ALPHA
100
AcDbLine
 10
81.670253
 20
108.423726
 30
0.0
 11
81.370253
 21
108.423726
 31
0.0
  0
LWPOLYLINE
  5
25F
100
AcDbEntity
  8
ALPHA
100
AcDbPolyline
 90
        4
 70
     0
 43
0.0
 10
60.128014
 20
110.149114
 10
60.195124
 20
110.082776
 10
60.278874
 20
110.040758
 10
60.370253
 20
110.026562
  0
LWPOLYLINE
  5
265
100
AcDbEntity
  8
ALPHA
100
AcDbPolyline
 90
        3
 70
     0
 43
0.0
 10
60.070253
 20
110.32542
 10
60.085078
 20
110.232638
 10
60.128014
 20
110.149114
  0
LWPOLYLINE
  5
26A
100
AcDbEntity
  8
ALPHA
100
AcDbPolyline
 90
        6
 70
     0
 43
0.0
 10
83.370253
 20
106.587752
 10
83.353962
 20
106.475151
 10
83.308703
 20
106.377541
 10
83.241219
 20
106.303099
 10
83.156703
 20
106.256036
 10
83.070253
 20
106.241342
  0
LINE
  5
272
100
AcDbEntity
  8
ALPHA
100
AcDbLine
 10
83.070253
 20
106.241342
 30
0.0
 11
83.070253
 21
108.163918
 31
0.0
  0
LWPOLYLINE
  5
273
100
AcDbEntity
  8
ALPHA
100
AcDbPolyline
 90
        6
 70
     0
 43
0.0
 10
81.670253
 20
108.163918
 10
81.577548
 20
108.176642
 10
81.493918
 20
108.213528
 10
81.427548
 20
108.271028
 10
81.384936
 20
108.343416
 10
81.370253
 20
108.423726
  0
LWPOLYLINE
  5
27B
100
AcDbEntity
  8
ALPHA
100
AcDbPolyline
 90
        6
 70
     0
 43
0.0
 10
60.070253
 20
114.275622
 10
60.084936
 20
114.275622
 10
60.127548
 20
114.275622
 10
60.193918
 20
114.275622
 10
60.277548
 20
114.275622
 10
60.370253
 20
114.275622
  0
LINE
  5
283
100
AcDbEntity
  8
ALPHA
100
AcDbLine
 10
60.370253
 20
114.275622
 30
0.0
 11
60.370253
 21
110.32542
 31
0.0
  0
LWPOLYLINE
  5
284
100
AcDbEntity
  8
ALPHA
100
AcDbPolyline
 90
       18
 70
     0
 43
0.0
 10
61.670253
 20
109.723128
 10
61.667724
 20
109.778366
 10
61.660121
 20
109.833345
 10
61.64741
 20
109.887737
 10
61.629671
 20
109.940871
 10
61.607146
 20
109.992006
 10
61.580087
 20
110.040674
 10
61.548747
 20
110.086511
 10
61.513404
 20
110.129169
 10
61.474322
 20
110.168364
 10
61.431775
 20
110.203812
 10
61.386176
 20
110.235168
 10
61.337982
 20
110.262135
 10
61.287414
 20
110.284587
 10
61.234916
 20
110.302295
 10
61.181001
 20
110.315071
 10
61.126079
 20
110.322807
 10
61.070253
 20
110.32542
  0
LINE
  5
298
100
AcDbEntity
  8
ALPHA
100
AcDbLine
 10
81.670253
 20
108.423726
 30
0.0
 11
81.670253
 21
108.163918
 31
0.0
  0
LWPOLYLINE
  5
299
100
AcDbEntity
  8
ALPHA
100
AcDbPolyline
 90
       18
 70
     0
 43
0.0
 10
63.670253
 20
110.32542
 10
63.614427
 20
110.322807
 10
63.559506
 20
110.315071
 10
63.50559
 20
110.302295
 10
63.453093
 20
110.284587
 10
63.402524
 20
110.262135
 10
63.354331
 20
110.235168
 10
63.308731
 20
110.203812
 10
63.266185
 20
110.168364
 10
63.227102
 20
110.129169
 10
63.19176
 20
110.086511
 10
63.160419
 20
110.040674
 10
63.13336
 20
109.992006
 10
63.110836
 20
109.940871
 10
63.093097
 20
109.887737
 10
63.080385
 20
109.833345
 10
63.072782
 20
109.778366
 10
63.070253
 20
109.723128
  0
LINE
  5
2AD
100
AcDbEntity
  8
ALPHA
100
AcDbLine
 10
83.070253
 20
108.423726
 30
0.0
 11
81.670253
 21
108.423726
 31
0.0
  0
LINE
  5
2AE
100
AcDbEntity
  8
ALPHA
100
AcDbLine
 10
83.070253
 20
108.423726
 30
0.0
 11
83.070253
 21
108.163918
 31
0.0
  0
LINE
  5
2AF
100
AcDbEntity
  8
ALPHA
100
AcDbLine
 10
83.070253
 20
108.163918
 30
0.0
 11
81.670253
 21
108.163918
 31
0.0
  0
LWPOLYLINE
  5
2B0
100
AcDbEntity
  8
ALPHA
100
AcDbPolyline
 90
        6
 70
     0
 43
0.0
 10
83.370253
 20
108.423726
 10
83.35557
 20
108.343416
 10
83.312958
 20
108.271028
 10
83.246589
 20
108.213528
 10
83.162958
 20
108.176642
 10
83.070253
 20
108.163918
  0
LINE
  5
2B8
100
AcDbEntity
  8
ALPHA
100
AcDbLine
 10
63.070253
 20
106.241342
 30
0.0
 11
63.070253
 21
108.163918
 31
0.0
  0
LWPOLYLINE
  5
2B9
100
AcDbEntity
  8
ALPHA
100
AcDbPolyline
 90
        6
 70
     0
 43
0.0
 10
61.370253
 20
108.423726
 10
61.384764
 20
108.343937
 10
61.427249
 20
108.271341
 10
61.493681
 20
108.213697
 10
61.5774
 20
108.176669
 10
61.670253
 20
108.163918
  0
LINE
  5
2C1
100
AcDbEntity
  8
ALPHA
100
AcDbLine
 10
61.670253
 20
108.163918
 30
0.0
 11
61.670253
 21
106.241342
 31
0.0
  0
LWPOLYLINE
  5
2C2
100
AcDbEntity
  8
ALPHA
100
AcDbPolyline
 90
        5
 70
     0
 43
0.0
 10
83.070253
 20
108.423726
 10
83.185058
 20
108.423832
 10
83.282385
 20
108.423869
 10
83.347417
 20
108.423832
 10
83.370253
 20
108.423726
  0
LINE
  5
2C9
100
AcDbEntity
  8
ALPHA
100
AcDbLine
 10
66.420253
 20
84.657637
 30
0.0
 11
66.420253
 21
89.393083
 31
0.0
  0
LINE
  5
2CA
100
AcDbEntity
  8
ALPHA
100
AcDbLine
 10
58.320253
 20
84.657637
 30
0.0
 11
58.320253
 21
90.695075
 31
0.0
  0
ARC
  5
2CB
100
AcDbEntity
  8
ALPHA
100
AcDbCircle
 10
72.370253
 20
73.550521
 30
0.0
 40
7.8
100
AcDbArc
 50
66.372421
 51
113.627579
  0
LINE
  5
2CC
100
AcDbEntity
  8
ALPHA
100
AcDbLine
 10
78.320253
 20
84.657637
 30
0.0
 11
78.320253
 21
89.393083
 31
0.0
  0
LINE
  5
2CD
100
AcDbEntity
  8
ALPHA
100
AcDbLine
 10
86.420253
 20
84.657637
 30
0.0
 11
86.420253
 21
90.695075
 31
0.0
  0
LINE
  5
2CE
100
AcDbEntity
  8
ALPHA
100
AcDbLine
 10
66.420253
 20
89.393083
 30
0.0
 11
66.420253
 21
90.250521
 31
0.0
  0
LINE
  5
2CF
100
AcDbEntity
  8
ALPHA
100
AcDbLine
 10
65.270253
 20
85.950521
 30
0.0
 11
59.470253
 21
85.950521
 31
0.0
  0
LINE
  5
2D0
100
AcDbEntity
  8
ALPHA
100
AcDbLine
 10
78.320253
 20
89.393083
 30
0.0
 11
78.320253
 21
90.250521
 31
0.0
  0
LINE
  5
2D1
100
AcDbEntity
  8
ALPHA
100
AcDbLine
 10
79.470253
 20
85.950521
 30
0.0
 11
85.270253
 21
85.950521
 31
0.0
  0
LINE
  5
2D2
100
AcDbEntity
  8
ALPHA
100
AcDbLine
 10
58.320253
 20
90.695075
 30
0.0
 11
58.320253
 21
93.150521
 31
0.0
  0
LINE
  5
2D3
100
AcDbEntity
  8
ALPHA
100
AcDbLine
 10
86.420253
 20
90.695075
 30
0.0
 11
86.420253
 21
93.150521
 31
0.0
  0
LINE
  5
2D4
100
AcDbEntity
  8
ALPHA
100
AcDbLine
 10
86.470253
 20
99.850521
 30
0.0
 11
84.370253
 21
99.850521
 31
0.0
  0
LINE
  5
2D5
100
AcDbEntity
  8
ALPHA
100
AcDbLine
 10
58.270253
 20
96.250521
 30
0.0
 11
60.370253
 21
96.250521
 31
0.0
  0
ARC
  5
2D6
100
AcDbEntity
  8
ALPHA
100
AcDbCircle
 10
72.370253
 20
98.050521
 30
0.0
 40
15.25
100
AcDbArc
 50
108.749149
 51
113.988757
  0
ARC
  5
2D7
100
AcDbEntity
  8
ALPHA
100
AcDbCircle
 10
72.370253
 20
98.050521
 30
0.0
 40
15.25
100
AcDbArc
 50
66.011243
 51
71.250851
  0
LINE
  5
2D8
100
AcDbEntity
  8
ALPHA
100
AcDbLine
 10
71.194838
 20
118.050521
 30
0.0
 11
70.359289
 21
118.050521
 31
0.0
  0
LINE
  5
2D9
100
AcDbEntity
  8
ALPHA
100
AcDbLine
 10
74.381218
 20
118.050521
 30
0.0
 11
73.545668
 21
118.050521
 31
0.0
  0
ARC
  5
2DA
100
AcDbEntity
  8
ALPHA
100
AcDbCircle
 10
72.370253
 20
73.550521
 30
0.0
 40
7.8
100
AcDbArc
 50
118.087839
 51
129.715137
  0
ARC
  5
2DB
100
AcDbEntity
  8
ALPHA
100
AcDbCircle
 10
72.370253
 20
73.550521
 30
0.0
 40
7.8
100
AcDbArc
 50
50.284863
 51
61.912017
  0
LWPOLYLINE
  5
2DC
100
AcDbEntity
  8
ALPHA
100
AcDbPolyline
 90
        6
 70
     0
 43
0.0
 10
73.545668
 20
118.050521
 10
73.086975
 20
118.264275
 10
72.610941
 20
118.370263
 10
72.129565
 20
118.370263
 10
71.653531
 20
118.264275
 10
71.194838
 20
118.050521
  0
LWPOLYLINE
  5
2E4
100
AcDbEntity
  8
ALPHA
100
AcDbPolyline
 90
        5
 70
     0
 43
0.0
 10
73.181433
 20
115.950521
 10
72.779174
 20
115.835189
 10
72.370253
 20
115.796931
 10
71.961333
 20
115.835189
 10
71.559074
 20
115.950521
  0
LINE
  5
2EB
100
AcDbEntity
  8
ALPHA
100
AcDbLine
 10
70.359289
 20
118.050521
 30
0.0
 11
69.770253
 21
118.050521
 31
0.0
  0
LINE
  5
2EC
100
AcDbEntity
  8
ALPHA
100
AcDbLine
 10
85.770253
 20
79.550521
 30
0.0
 11
78.870253
 21
79.550521
 31
0.0
  0
LINE
  5
2ED
100
AcDbEntity
  8
ALPHA
100
AcDbLine
 10
74.970253
 20
118.050521
 30
0.0
 11
74.381218
 21
118.050521
 31
0.0
  0
LINE
  5
2EE
100
AcDbEntity
  8
ALPHA
100
AcDbLine
 10
65.870253
 20
79.550521
 30
0.0
 11
58.970253
 21
79.550521
 31
0.0
  0
LINE
  5
2EF
100
AcDbEntity
  8
ALPHA
100
AcDbLine
 10
76.170253
 20
116.147971
 30
0.0
 11
76.170253
 21
114.050521
 31
0.0
  0
LINE
  5
2F0
100
AcDbEntity
  8
ALPHA
100
AcDbLine
 10
78.570253
 20
116.078446
 30
0.0
 11
78.570253
 21
110.550521
 31
0.0
  0
LINE
  5
2F1
100
AcDbEntity
  8
ALPHA
100
AcDbLine
 10
78.570253
 20
110.550521
 30
0.0
 11
77.270253
 21
110.550521
 31
0.0
  0
LINE
  5
2F2
100
AcDbEntity
  8
ALPHA
100
AcDbLine
 10
87.270253
 20
110.150521
 30
0.0
 11
87.270253
 21
110.550521
 31
0.0
  0
LINE
  5
2F3
100
AcDbEntity
  8
ALPHA
100
AcDbLine
 10
87.270253
 20
110.550521
 30
0.0
 11
86.170253
 21
110.550521
 31
0.0
  0
LINE
  5
2F4
100
AcDbEntity
  8
ALPHA
100
AcDbLine
 10
86.170253
 20
116.078446
 30
0.0
 11
86.170253
 21
110.550521
 31
0.0
  0
LINE
  5
2F5
100
AcDbEntity
  8
ALPHA
100
AcDbLine
 10
86.170253
 20
116.973171
 30
0.0
 11
86.170253
 21
116.078446
 31
0.0
  0
LINE
  5
2F6
100
AcDbEntity
  8
ALPHA
100
AcDbLine
 10
78.570253
 20
117.263918
 30
0.0
 11
78.570253
 21
116.078446
 31
0.0
  0
ARC
  5
2F7
100
AcDbEntity
  8
ALPHA
100
AcDbCircle
 10
74.970253
 20
117.750521
 30
0.0
 40
0.3
100
AcDbArc
 50
0.0
 51
90.0
  0
LINE
  5
2F8
100
AcDbEntity
  8
ALPHA
100
AcDbLine
 10
68.570253
 20
114.050521
 30
0.0
 11
68.570253
 21
116.147971
 31
0.0
  0
ARC
  5
2F9
100
AcDbEntity
  8
ALPHA
100
AcDbCircle
 10
69.770253
 20
117.750521
 30
0.0
 40
0.3
100
AcDbArc
 50
90.0
 51
180.0
  0
LINE
  5
2FA
100
AcDbEntity
  8
ALPHA
100
AcDbLine
 10
67.470253
 20
110.550521
 30
0.0
 11
66.170253
 21
110.550521
 31
0.0
  0
LINE
  5
2FB
100
AcDbEntity
  8
ALPHA
100
AcDbLine
 10
66.170253
 20
110.550521
 30
0.0
 11
66.170253
 21
116.078446
 31
0.0
  0
LINE
  5
2FC
100
AcDbEntity
  8
ALPHA
100
AcDbLine
 10
58.570253
 20
110.550521
 30
0.0
 11
57.470253
 21
110.550521
 31
0.0
  0
LINE
  5
2FD
100
AcDbEntity
  8
ALPHA
100
AcDbLine
 10
57.470253
 20
110.150521
 30
0.0
 11
57.470253
 21
110.550521
 31
0.0
  0
LINE
  5
2FE
100
AcDbEntity
  8
ALPHA
100
AcDbLine
 10
58.570253
 20
110.550521
 30
0.0
 11
58.570253
 21
116.078446
 31
0.0
  0
LINE
  5
2FF
100
AcDbEntity
  8
ALPHA
100
AcDbLine
 10
75.270253
 20
115.950521
 30
0.0
 11
73.181433
 21
115.950521
 31
0.0
  0
LINE
  5
300
100
AcDbEntity
  8
ALPHA
100
AcDbLine
 10
71.559074
 20
115.950521
 30
0.0
 11
69.470253
 21
115.950521
 31
0.0
  0
LINE
  5
301
100
AcDbEntity
  8
ALPHA
100
AcDbLine
 10
66.170253
 20
117.523726
 30
0.0
 11
66.170253
 21
117.263918
 31
0.0
  0
LINE
  5
302
100
AcDbEntity
  8
ALPHA
100
AcDbLine
 10
58.570253
 20
116.078446
 30
0.0
 11
58.570253
 21
116.973171
 31
0.0
  0
LINE
  5
303
100
AcDbEntity
  8
ALPHA
100
AcDbLine
 10
78.570253
 20
117.263918
 30
0.0
 11
78.570253
 21
117.523726
 31
0.0
  0
LINE
  5
304
100
AcDbEntity
  8
ALPHA
100
AcDbLine
 10
66.170253
 20
116.078446
 30
0.0
 11
66.170253
 21
117.263918
 31
0.0
  0
LINE
  5
305
100
AcDbEntity
  8
ALPHA
100
AcDbLine
 10
69.470253
 20
117.550977
 30
0.0
 11
69.470253
 21
117.273812
 31
0.0
  0
LINE
  5
306
100
AcDbEntity
  8
ALPHA
100
AcDbLine
 10
68.570253
 20
117.273812
 30
0.0
 11
68.570253
 21
117.550977
 31
0.0
  0
LINE
  5
307
100
AcDbEntity
  8
ALPHA
100
AcDbLine
 10
76.170253
 20
117.550977
 30
0.0
 11
76.170253
 21
117.273812
 31
0.0
  0
LINE
  5
308
100
AcDbEntity
  8
ALPHA
100
AcDbLine
 10
75.270253
 20
117.273812
 30
0.0
 11
75.270253
 21
117.550977
 31
0.0
  0
LINE
  5
309
100
AcDbEntity
  8
ALPHA
100
AcDbLine
 10
68.570253
 20
117.273812
 30
0.0
 11
68.570253
 21
116.147971
 31
0.0
  0
LINE
  5
30A
100
AcDbEntity
  8
ALPHA
100
AcDbLine
 10
76.170253
 20
116.147971
 30
0.0
 11
76.170253
 21
117.273812
 31
0.0
  0
LINE
  5
30B
100
AcDbEntity
  8
ALPHA
100
AcDbLine
 10
69.470253
 20
117.550977
 30
0.0
 11
69.470253
 21
118.526257
 31
0.0
  0
LINE
  5
30C
100
AcDbEntity
  8
ALPHA
100
AcDbLine
 10
75.270253
 20
117.550977
 30
0.0
 11
75.270253
 21
118.526257
 31
0.0
  0
LINE
  5
30D
100
AcDbEntity
  8
ALPHA
100
AcDbLine
 10
85.670253
 20
117.839196
 30
0.0
 11
83.284613
 21
119.216546
 31
0.0
  0
LINE
  5
30E
100
AcDbEntity
  8
ALPHA
100
AcDbLine
 10
61.455894
 20
119.216546
 30
0.0
 11
59.070253
 21
117.839196
 31
0.0
  0
ARC
  5
30F
100
AcDbEntity
  8
ALPHA
100
AcDbCircle
 10
72.370253
 20
98.050521
 30
0.0
 40
10.15
100
AcDbArc
 50
345.741007
 51
20.171271
  0
ARC
  5
310
100
AcDbEntity
  8
ALPHA
100
AcDbCircle
 10
72.370253
 20
98.050521
 30
0.0
 40
10.15
100
AcDbArc
 50
159.828729
 51
194.258993
  0
LINE
  5
311
100
AcDbEntity
  8
ALPHA
100
AcDbLine
 10
69.470253
 20
117.273812
 30
0.0
 11
69.470253
 21
115.950521
 31
0.0
  0
LINE
  5
312
100
AcDbEntity
  8
ALPHA
100
AcDbLine
 10
75.270253
 20
115.950521
 30
0.0
 11
75.270253
 21
117.273812
 31
0.0
  0
LINE
  5
313
100
AcDbEntity
  8
ALPHA
100
AcDbLine
 10
81.370253
 20
109.444914
 30
0.0
 11
81.370253
 21
109.723128
 31
0.0
  0
LINE
  5
314
100
AcDbEntity
  8
ALPHA
100
AcDbLine
 10
83.370253
 20
109.723128
 30
0.0
 11
83.370253
 21
109.444914
 31
0.0
  0
LINE
  5
315
100
AcDbEntity
  8
ALPHA
100
AcDbLine
 10
63.370253
 20
109.723128
 30
0.0
 11
63.370253
 21
109.444914
 31
0.0
  0
LINE
  5
316
100
AcDbEntity
  8
ALPHA
100
AcDbLine
 10
61.370253
 20
109.444914
 30
0.0
 11
61.370253
 21
109.723128
 31
0.0
  0
LINE
  5
317
100
AcDbEntity
  8
ALPHA
100
AcDbLine
 10
85.770253
 20
79.550521
 30
0.0
 11
85.770253
 21
80.432156
 31
0.0
  0
LINE
  5
318
100
AcDbEntity
  8
ALPHA
100
AcDbLine
 10
78.870253
 20
80.432156
 30
0.0
 11
85.770253
 21
80.432156
 31
0.0
  0
LINE
  5
319
100
AcDbEntity
  8
ALPHA
100
AcDbLine
 10
78.870253
 20
79.550521
 30
0.0
 11
78.870253
 21
80.432156
 31
0.0
  0
LINE
  5
31A
100
AcDbEntity
  8
ALPHA
100
AcDbLine
 10
77.370253
 20
79.550521
 30
0.0
 11
77.370253
 21
80.432156
 31
0.0
  0
LINE
  5
31B
100
AcDbEntity
  8
ALPHA
100
AcDbLine
 10
76.042187
 20
80.432156
 30
0.0
 11
77.370253
 21
80.432156
 31
0.0
  0
ARC
  5
31C
100
AcDbEntity
  8
ALPHA
100
AcDbCircle
 10
72.370253
 20
73.550521
 30
0.0
 40
7.8
100
AcDbArc
 50
61.916307
 51
66.372421
  0
ARC
  5
31D
100
AcDbEntity
  8
ALPHA
100
AcDbCircle
 10
72.370253
 20
73.550521
 30
0.0
 40
7.8
100
AcDbArc
 50
113.627579
 51
118.083693
  0
LINE
  5
31E
100
AcDbEntity
  8
ALPHA
100
AcDbLine
 10
67.370253
 20
80.432156
 30
0.0
 11
68.698319
 21
80.432156
 31
0.0
  0
LINE
  5
31F
100
AcDbEntity
  8
ALPHA
100
AcDbLine
 10
67.370253
 20
79.550521
 30
0.0
 11
67.370253
 21
80.432156
 31
0.0
  0
LINE
  5
320
100
AcDbEntity
  8
ALPHA
100
AcDbLine
 10
65.870253
 20
79.550521
 30
0.0
 11
65.870253
 21
80.432156
 31
0.0
  0
LINE
  5
321
100
AcDbEntity
  8
ALPHA
100
AcDbLine
 10
58.970253
 20
80.432156
 30
0.0
 11
65.870253
 21
80.432156
 31
0.0
  0
LINE
  5
322
100
AcDbEntity
  8
ALPHA
100
AcDbLine
 10
58.970253
 20
79.550521
 30
0.0
 11
58.970253
 21
80.432156
 31
0.0
  0
ARC
  5
323
100
AcDbEntity
  8
ALPHA
100
AcDbCircle
 10
76.883844
 20
121.350521
 30
0.0
 40
2.0
100
AcDbArc
 50
234.518642
 51
270.0
  0
ARC
  5
324
100
AcDbEntity
  8
ALPHA
100
AcDbCircle
 10
67.856663
 20
121.350521
 30
0.0
 40
2.0
100
AcDbArc
 50
270.0
 51
305.481358
  0
ARC
  5
325
100
AcDbEntity
  8
ALPHA
100
AcDbCircle
 10
72.370253
 20
115.050521
 30
0.0
 40
5.75
100
AcDbArc
 50
54.332551
 51
125.667449
  0
ARC
  5
326
100
AcDbEntity
  8
ALPHA
100
AcDbCircle
 10
72.370253
 20
98.050521
 30
0.0
 40
8.25
100
AcDbArc
 50
126.4829
 51
130.214171
  0
ARC
  5
327
100
AcDbEntity
  8
ALPHA
100
AcDbCircle
 10
72.370253
 20
98.050521
 30
0.0
 40
8.25
100
AcDbArc
 50
49.785829
 51
53.5171
  0
LINE
  5
328
100
AcDbEntity
  8
ALPHA
100
AcDbLine
 10
60.370253
 20
101.550521
 30
0.0
 11
60.370253
 21
95.550521
 31
0.0
  0
LINE
  5
329
100
AcDbEntity
  8
ALPHA
100
AcDbLine
 10
87.270253
 20
81.712073
 30
0.0
 11
87.270253
 21
80.550521
 31
0.0
  0
LINE
  5
32A
100
AcDbEntity
  8
ALPHA
100
AcDbLine
 10
57.470253
 20
80.550521
 30
0.0
 11
57.470253
 21
81.712073
 31
0.0
  0
LINE
  5
32B
100
AcDbEntity
  8
ALPHA
100
AcDbLine
 10
81.897713
 20
101.550521
 30
0.0
 11
86.470253
 21
101.550521
 31
0.0
  0
ARC
  5
32C
100
AcDbEntity
  8
ALPHA
100
AcDbCircle
 10
58.470253
 20
80.550521
 30
0.0
 40
1.0
100
AcDbArc
 50
180.0
 51
270.0
  0
LINE
  5
32D
100
AcDbEntity
  8
ALPHA
100
AcDbLine
 10
58.270253
 20
101.550521
 30
0.0
 11
62.842793
 21
101.550521
 31
0.0
  0
LINE
  5
32E
100
AcDbEntity
  8
ALPHA
100
AcDbLine
 10
84.370253
 20
95.550521
 30
0.0
 11
84.370253
 21
101.550521
 31
0.0
  0
LINE
  5
32F
100
AcDbEntity
  8
ALPHA
100
AcDbLine
 10
64.508161
 20
95.550521
 30
0.0
 11
58.270253
 21
95.550521
 31
0.0
  0
LINE
  5
330
100
AcDbEntity
  8
ALPHA
100
AcDbLine
 10
86.470253
 20
95.550521
 30
0.0
 11
80.232346
 21
95.550521
 31
0.0
  0
LINE
  5
331
100
AcDbEntity
  8
ALPHA
100
AcDbLine
 10
87.270253
 20
90.695075
 30
0.0
 11
87.270253
 21
93.150521
 31
0.0
  0
LINE
  5
332
100
AcDbEntity
  8
ALPHA
100
AcDbLine
 10
87.270253
 20
81.712073
 30
0.0
 11
87.270253
 21
90.695075
 31
0.0
  0
LINE
  5
333
100
AcDbEntity
  8
ALPHA
100
AcDbLine
 10
61.955894
 20
119.350521
 30
0.0
 11
67.856663
 21
119.350521
 31
0.0
  0
LINE
  5
334
100
AcDbEntity
  8
ALPHA
100
AcDbLine
 10
76.883844
 20
119.350521
 30
0.0
 11
82.784613
 21
119.350521
 31
0.0
  0
LINE
  5
335
100
AcDbEntity
  8
ALPHA
100
AcDbLine
 10
57.470253
 20
81.712073
 30
0.0
 11
57.470253
 21
90.695075
 31
0.0
  0
LINE
  5
336
100
AcDbEntity
  8
ALPHA
100
AcDbLine
 10
57.470253
 20
90.695075
 30
0.0
 11
57.470253
 21
93.150521
 31
0.0
  0
LINE
  5
337
100
AcDbEntity
  8
ALPHA
100
AcDbLine
 10
67.386279
 20
79.550521
 30
0.0
 11
67.370253
 21
79.550521
 31
0.0
  0
LINE
  5
338
100
AcDbEntity
  8
ALPHA
100
AcDbLine
 10
67.370253
 20
79.550521
 30
0.0
 11
65.870253
 21
79.550521
 31
0.0
  0
LINE
  5
339
100
AcDbEntity
  8
ALPHA
100
AcDbLine
 10
58.970253
 20
79.550521
 30
0.0
 11
58.470253
 21
79.550521
 31
0.0
  0
LINE
  5
33A
100
AcDbEntity
  8
ALPHA
100
AcDbLine
 10
86.270253
 20
79.550521
 30
0.0
 11
85.770253
 21
79.550521
 31
0.0
  0
LINE
  5
33B
100
AcDbEntity
  8
ALPHA
100
AcDbLine
 10
78.870253
 20
79.550521
 30
0.0
 11
77.370253
 21
79.550521
 31
0.0
  0
LINE
  5
33C
100
AcDbEntity
  8
ALPHA
100
AcDbLine
 10
77.370253
 20
79.550521
 30
0.0
 11
77.354227
 21
79.550521
 31
0.0
  0
ARC
  5
33D
100
AcDbEntity
  8
ALPHA
100
AcDbCircle
 10
59.570253
 20
116.973171
 30
0.0
 40
1.0
100
AcDbArc
 50
120.0
 51
146.594879
  0
ARC
  5
33E
100
AcDbEntity
  8
ALPHA
100
AcDbCircle
 10
59.570253
 20
116.973171
 30
0.0
 40
1.0
100
AcDbArc
 50
146.594879
 51
163.097273
  0
ARC
  5
33F
100
AcDbEntity
  8
ALPHA
100
AcDbCircle
 10
59.570253
 20
116.973171
 30
0.0
 40
1.0
100
AcDbArc
 50
163.097273
 51
180.0
  0
ARC
  5
340
100
AcDbEntity
  8
ALPHA
100
AcDbCircle
 10
85.170253
 20
116.973171
 30
0.0
 40
1.0
100
AcDbArc
 50
0.0
 51
16.902727
  0
ARC
  5
341
100
AcDbEntity
  8
ALPHA
100
AcDbCircle
 10
85.170253
 20
116.973171
 30
0.0
 40
1.0
100
AcDbArc
 50
16.902727
 51
33.405121
  0
ARC
  5
342
100
AcDbEntity
  8
ALPHA
100
AcDbCircle
 10
85.170253
 20
116.973171
 30
0.0
 40
1.0
100
AcDbArc
 50
33.405121
 51
60.0
  0
ARC
  5
343
100
AcDbEntity
  8
ALPHA
100
AcDbCircle
 10
82.784613
 20
118.350521
 30
0.0
 40
1.0
100
AcDbArc
 50
60.0
 51
90.0
  0
ARC
  5
344
100
AcDbEntity
  8
ALPHA
100
AcDbCircle
 10
61.955894
 20
118.350521
 30
0.0
 40
1.0
100
AcDbArc
 50
90.0
 51
120.0
  0
LINE
  5
345
100
AcDbEntity
  8
ALPHA
100
AcDbLine
 10
81.370253
 20
109.444914
 30
0.0
 11
81.370253
 21
109.723128
 31
0.0
  0
LINE
  5
346
100
AcDbEntity
  8
ALPHA
100
AcDbLine
 10
87.270253
 20
81.712073
 30
0.0
 11
87.270253
 21
80.550521
 31
0.0
  0
ARC
  5
347
100
AcDbEntity
  8
ALPHA
100
AcDbCircle
 10
86.270253
 20
80.550521
 30
0.0
 40
1.0
100
AcDbArc
 50
270.0
 51
0.0
  0
LINE
  5
348
100
AcDbEntity
  8
ALPHA
100
AcDbLine
 10
58.270253
 20
99.850521
 30
0.0
 11
60.370253
 21
99.850521
 31
0.0
  0
LINE
  5
349
100
AcDbEntity
  8
ALPHA
100
AcDbLine
 10
86.470253
 20
96.250521
 30
0.0
 11
84.370253
 21
96.250521
 31
0.0
  0
LINE
  5
34A
100
AcDbEntity
  8
ALPHA
100
AcDbLine
 10
79.470253
 20
89.650521
 30
0.0
 11
79.470253
 21
85.950521
 31
0.0
  0
LINE
  5
34B
100
AcDbEntity
  8
ALPHA
100
AcDbLine
 10
79.470253
 20
89.650521
 30
0.0
 11
85.270253
 21
89.650521
 31
0.0
  0
LINE
  5
34C
100
AcDbEntity
  8
ALPHA
100
AcDbLine
 10
85.270253
 20
89.650521
 30
0.0
 11
85.270253
 21
85.950521
 31
0.0
  0
LINE
  5
34D
100
AcDbEntity
  8
ALPHA
100
AcDbLine
 10
87.270253
 20
110.150521
 30
0.0
 11
87.270253
 21
93.150521
 31
0.0
  0
LINE
  5
34E
100
AcDbEntity
  8
ALPHA
100
AcDbLine
 10
57.470253
 20
93.150521
 30
0.0
 11
57.470253
 21
110.150521
 31
0.0
  0
LINE
  5
34F
100
AcDbEntity
  8
ALPHA
100
AcDbLine
 10
59.470253
 20
89.650521
 30
0.0
 11
59.470253
 21
85.950521
 31
0.0
  0
LINE
  5
350
100
AcDbEntity
  8
ALPHA
100
AcDbLine
 10
65.270253
 20
89.650521
 30
0.0
 11
59.470253
 21
89.650521
 31
0.0
  0
LINE
  5
351
100
AcDbEntity
  8
ALPHA
100
AcDbLine
 10
65.270253
 20
89.650521
 30
0.0
 11
65.270253
 21
85.950521
 31
0.0
  0
ARC
  5
352
100
AcDbEntity
  8
ALPHA
100
AcDbCircle
 10
72.370253
 20
98.050521
 30
0.0
 40
8.25
100
AcDbArc
 50
197.639701
 51
233.492591
  0
LINE
  5
353
100
AcDbEntity
  8
ALPHA
100
AcDbLine
 10
58.270253
 20
95.550521
 30
0.0
 11
58.270253
 21
101.550521
 31
0.0
  0
ARC
  5
354
100
AcDbEntity
  8
ALPHA
100
AcDbCircle
 10
72.370253
 20
98.050521
 30
0.0
 40
10.15
100
AcDbArc
 50
141.633486
 51
159.828729
  0
LINE
  5
355
100
AcDbEntity
  8
ALPHA
100
AcDbLine
 10
67.043669
 20
104.350521
 30
0.0
 11
64.412081
 21
104.350521
 31
0.0
  0
LINE
  5
356
100
AcDbEntity
  8
ALPHA
100
AcDbLine
 10
80.328425
 20
104.350521
 30
0.0
 11
77.696837
 21
104.350521
 31
0.0
  0
ARC
  5
357
100
AcDbEntity
  8
ALPHA
100
AcDbCircle
 10
72.370253
 20
98.050521
 30
0.0
 40
10.15
100
AcDbArc
 50
20.171271
 51
38.366514
  0
LINE
  5
358
100
AcDbEntity
  8
ALPHA
100
AcDbLine
 10
86.470253
 20
101.550521
 30
0.0
 11
86.470253
 21
95.550521
 31
0.0
  0
ARC
  5
359
100
AcDbEntity
  8
ALPHA
100
AcDbCircle
 10
72.370253
 20
98.050521
 30
0.0
 40
8.25
100
AcDbArc
 50
306.507409
 51
342.360299
  0
LINE
  5
35A
100
AcDbEntity
  8
ALPHA
100
AcDbLine
 10
80.170253
 20
114.553835
 30
0.0
 11
80.170253
 21
110.047206
 31
0.0
  0
LINE
  5
35B
100
AcDbEntity
  8
ALPHA
100
AcDbLine
 10
84.670253
 20
114.553835
 30
0.0
 11
84.670253
 21
110.047206
 31
0.0
  0
LINE
  5
35C
100
AcDbEntity
  8
ALPHA
100
AcDbLine
 10
83.370253
 20
109.444914
 30
0.0
 11
83.370253
 21
106.587752
 31
0.0
  0
LINE
  5
35D
100
AcDbEntity
  8
ALPHA
100
AcDbLine
 10
81.370253
 20
109.444914
 30
0.0
 11
81.370253
 21
106.587752
 31
0.0
  0
LINE
  5
35E
100
AcDbEntity
  8
ALPHA
100
AcDbLine
 10
60.070253
 20
114.553835
 30
0.0
 11
60.070253
 21
110.047206
 31
0.0
  0
LINE
  5
35F
100
AcDbEntity
  8
ALPHA
100
AcDbLine
 10
64.570253
 20
114.553835
 30
0.0
 11
64.570253
 21
110.047206
 31
0.0
  0
LINE
  5
360
100
AcDbEntity
  8
ALPHA
100
AcDbLine
 10
63.370253
 20
109.444914
 30
0.0
 11
63.370253
 21
106.587752
 31
0.0
  0
LINE
  5
361
100
AcDbEntity
  8
ALPHA
100
AcDbLine
 10
61.370253
 20
109.444914
 30
0.0
 11
61.370253
 21
106.587752
 31
0.0
  0
LINE
  5
362
100
AcDbEntity
  8
ALPHA
100
AcDbLine
 10
58.120253
 20
108.550521
 30
0.0
 11
58.120253
 21
105.984043
 31
0.0
  0
LINE
  5
363
100
AcDbEntity
  8
ALPHA
100
AcDbLine
 10
60.320253
 20
108.550521
 30
0.0
 11
60.320253
 21
105.984043
 31
0.0
  0
LINE
  5
364
100
AcDbEntity
  8
ALPHA
100
AcDbLine
 10
86.620253
 20
108.550521
 30
0.0
 11
86.620253
 21
105.984043
 31
0.0
  0
LINE
  5
365
100
AcDbEntity
  8
ALPHA
100
AcDbLine
 10
84.420253
 20
108.550521
 30
0.0
 11
84.420253
 21
105.984043
 31
0.0
  0
LINE
  5
366
100
AcDbEntity
  8
ALPHA
100
AcDbLine
 10
78.170253
 20
108.550521
 30
0.0
 11
78.170253
 21
105.984043
 31
0.0
  0
LINE
  5
367
100
AcDbEntity
  8
ALPHA
100
AcDbLine
 10
80.370253
 20
108.550521
 30
0.0
 11
80.370253
 21
105.984043
 31
0.0
  0
LINE
  5
368
100
AcDbEntity
  8
ALPHA
100
AcDbLine
 10
66.570253
 20
105.984043
 30
0.0
 11
66.570253
 21
108.550521
 31
0.0
  0
LINE
  5
369
100
AcDbEntity
  8
ALPHA
100
AcDbLine
 10
64.370253
 20
105.984043
 30
0.0
 11
64.370253
 21
108.550521
 31
0.0
  0
LINE
  5
36A
100
AcDbEntity
  8
ALPHA
100
AcDbLine
 10
67.470253
 20
83.550521
 30
0.0
 11
72.370253
 21
83.550521
 31
0.0
  0
LINE
  5
36B
100
AcDbEntity
  8
ALPHA
100
AcDbLine
 10
68.870253
 20
82.551413
 30
0.0
 11
75.870253
 21
82.551413
 31
0.0
  0
LINE
  5
36C
100
AcDbEntity
  8
ALPHA
100
AcDbLine
 10
68.870253
 20
113.549629
 30
0.0
 11
75.870253
 21
113.549629
 31
0.0
  0
LINE
  5
36D
100
AcDbEntity
  8
ALPHA
100
AcDbLine
 10
72.604228
 20
104.935994
 30
0.0
 11
72.604228
 21
104.866679
 31
0.0
  0
LWPOLYLINE
  5
36E
100
AcDbEntity
  8
ALPHA
100
AcDbPolyline
 90
       23
 70
     0
 43
0.0
 10
69.510132
 20
90.550521
 10
69.567431
 20
90.717348
 10
69.634126
 20
90.880445
 10
69.70995
 20
91.039215
 10
69.79462
 20
91.193125
 10
69.887822
 20
91.341663
 10
69.989215
 20
91.484342
 10
70.098432
 20
91.620697
 10
70.215081
 20
91.750292
 10
70.338749
 20
91.872717
 10
70.469004
 20
91.987592
 10
70.605396
 20
92.094563
 10
70.747461
 20
92.193305
 10
70.894721
 20
92.283523
 10
71.046684
 20
92.364952
 10
71.20285
 20
92.437354
 10
71.362712
 20
92.50052
 10
71.525754
 20
92.554271
 10
71.691453
 20
92.598454
 10
71.859283
 20
92.632947
 10
72.028715
 20
92.657653
 10
72.199217
 20
92.672504
 10
72.370253
 20
92.677458
  0
LWPOLYLINE
  5
387
100
AcDbEntity
  8
ALPHA
100
AcDbPolyline
 90
        4
 70
     0
 43
0.0
 10
68.672866
 20
113.147973
 10
68.639417
 20
113.145942
 10
68.605252
 20
113.139926
 10
68.570253
 20
113.12988
  0
LWPOLYLINE
  5
38D
100
AcDbEntity
  8
ALPHA
100
AcDbPolyline
 90
       23
 70
     0
 43
0.0
 10
72.370253
 20
103.423583
 10
72.199217
 20
103.428538
 10
72.028715
 20
103.443388
 10
71.859283
 20
103.468094
 10
71.691452
 20
103.502587
 10
71.525753
 20
103.546771
 10
71.362712
 20
103.600521
 10
71.20285
 20
103.663687
 10
71.046683
 20
103.736089
 10
70.89472
 20
103.817518
 10
70.747461
 20
103.907737
 10
70.605396
 20
104.006479
 10
70.469003
 20
104.113449
 10
70.338748
 20
104.228324
 10
70.21508
 20
104.35075
 10
70.098432
 20
104.480345
 10
69.989215
 20
104.6167
 10
69.887822
 20
104.759378
 10
69.794619
 20
104.907916
 10
69.709949
 20
105.061827
 10
69.634125
 20
105.220597
 10
69.567431
 20
105.383694
 10
69.510131
 20
105.550521
  0
LWPOLYLINE
  5
3A6
100
AcDbEntity
  8
ALPHA
100
AcDbPolyline
 90
        6
 70
     0
 43
0.0
 10
69.499369
 20
105.550521
 10
69.453245
 20
105.723029
 10
69.417149
 20
105.898076
 10
69.391224
 20
106.07504
 10
69.375571
 20
106.25329
 10
69.370253
 20
106.434596
  0
LWPOLYLINE
  5
3AE
100
AcDbEntity
  8
ALPHA
100
AcDbPolyline
 90
        4
 70
     0
 43
0.0
 10
68.672866
 20
82.953069
 10
68.639417
 20
82.9551
 10
68.605252
 20
82.961116
 10
68.570253
 20
82.971161
  0
LINE
  5
3B4
100
AcDbEntity
  8
ALPHA
100
AcDbLine
 10
68.570253
 20
82.971161
 30
0.0
 11
68.570253
 21
82.050521
 31
0.0
  0
LINE
  5
3B5
100
AcDbEntity
  8
ALPHA
100
AcDbLine
 10
68.570253
 20
82.971161
 30
0.0
 11
72.370253
 21
82.971161
 31
0.0
  0
LINE
  5
3B6
100
AcDbEntity
  8
ALPHA
100
AcDbLine
 10
68.570253
 20
113.12988
 30
0.0
 11
68.570253
 21
114.050521
 31
0.0
  0
LINE
  5
3B7
100
AcDbEntity
  8
ALPHA
100
AcDbLine
 10
68.570253
 20
113.12988
 30
0.0
 11
72.370253
 21
113.12988
 31
0.0
  0
LINE
  5
3B8
100
AcDbEntity
  8
ALPHA
100
AcDbLine
 10
69.070253
 20
114.250521
 30
0.0
 11
75.670253
 21
114.250521
 31
0.0
  0
LWPOLYLINE
  5
3B9
100
AcDbEntity
  8
ALPHA
100
AcDbPolyline
 90
        6
 70
     0
 43
0.0
 10
69.370253
 20
89.666445
 10
69.375571
 20
89.847751
 10
69.391224
 20
90.026001
 10
69.417149
 20
90.202965
 10
69.453245
 20
90.378012
 10
69.499369
 20
90.550521
  0
LINE
  5
3C1
100
AcDbEntity
  8
ALPHA
100
AcDbLine
 10
67.470253
 20
112.550521
 30
0.0
 11
72.370253
 21
112.550521
 31
0.0
  0
LINE
  5
3C2
100
AcDbEntity
  8
ALPHA
100
AcDbLine
 10
69.070253
 20
114.250521
 30
0.0
 11
69.070253
 21
113.901723
 31
0.0
  0
LINE
  5
3C3
100
AcDbEntity
  8
ALPHA
100
AcDbLine
 10
75.670253
 20
114.250521
 30
0.0
 11
75.670253
 21
113.901723
 31
0.0
  0
LINE
  5
3C4
100
AcDbEntity
  8
ALPHA
100
AcDbLine
 10
72.36853
 20
104.826029
 30
0.0
 11
71.504228
 21
104.912681
 31
0.0
  0
LINE
  5
3C5
100
AcDbEntity
  8
ALPHA
100
AcDbLine
 10
72.370253
 20
104.825857
 30
0.0
 11
72.36853
 21
104.826029
 31
0.0
  0
LINE
  5
3C6
100
AcDbEntity
  8
ALPHA
100
AcDbLine
 10
75.870253
 20
82.311337
 30
0.0
 11
75.870253
 21
82.199319
 31
0.0
  0
LINE
  5
3C7
100
AcDbEntity
  8
ALPHA
100
AcDbLine
 10
69.070253
 20
114.250521
 30
0.0
 11
69.070253
 21
114.550521
 31
0.0
  0
LINE
  5
3C8
100
AcDbEntity
  8
ALPHA
100
AcDbLine
 10
69.070253
 20
114.550521
 30
0.0
 11
75.670253
 21
114.550521
 31
0.0
  0
LINE
  5
3C9
100
AcDbEntity
  8
ALPHA
100
AcDbLine
 10
75.670253
 20
114.250521
 30
0.0
 11
75.670253
 21
114.550521
 31
0.0
  0
LWPOLYLINE
  5
3CA
100
AcDbEntity
  8
ALPHA
100
AcDbPolyline
 90
       25
 70
     0
 43
0.0
 10
72.370253
 20
104.45002
 10
72.192531
 20
104.455208
 10
72.015434
 20
104.470756
 10
71.839582
 20
104.496609
 10
71.665595
 20
104.532676
 10
71.494083
 20
104.57883
 10
71.325648
 20
104.634908
 10
71.160883
 20
104.700715
 10
71.000365
 20
104.776019
 10
70.84466
 20
104.860556
 10
70.694313
 20
104.954027
 10
70.549853
 20
105.056106
 10
70.411787
 20
105.166434
 10
70.2806
 20
105.284623
 10
70.156753
 20
105.410257
 10
70.040682
 20
105.542897
 10
69.932793
 20
105.682075
 10
69.833465
 20
105.827303
 10
69.743048
 20
105.97807
 10
69.66186
 20
106.133848
 10
69.590184
 20
106.294089
 10
69.528274
 20
106.45823
 10
69.476346
 20
106.625695
 10
69.434584
 20
106.795895
 10
69.410632
 20
106.927141
  0
LINE
  5
3E5
100
AcDbEntity
  8
ALPHA
100
AcDbLine
 10
70.760818
 20
104.912681
 30
0.0
 11
71.504228
 21
104.912681
 31
0.0
  0
LINE
  5
3E6
100
AcDbEntity
  8
ALPHA
100
AcDbLine
 10
72.370253
 20
92.677458
 30
0.0
 11
72.370253
 21
91.651021
 31
0.0
  0
LINE
  5
3E7
100
AcDbEntity
  8
ALPHA
100
AcDbLine
 10
72.370253
 20
91.651021
 30
0.0
 11
72.370253
 21
91.60785
 31
0.0
  0
LINE
  5
3E8
100
AcDbEntity
  8
ALPHA
100
AcDbLine
 10
72.370253
 20
104.825857
 30
0.0
 11
72.370253
 21
104.45002
 31
0.0
  0
LINE
  5
3E9
100
AcDbEntity
  8
ALPHA
100
AcDbLine
 10
72.370253
 20
103.423583
 30
0.0
 11
72.370253
 21
104.45002
 31
0.0
  0
LINE
  5
3EA
100
AcDbEntity
  8
ALPHA
100
AcDbLine
 10
72.370253
 20
103.423583
 30
0.0
 11
72.370253
 21
92.677458
 31
0.0
  0
LINE
  5
3EB
100
AcDbEntity
  8
ALPHA
100
AcDbLine
 10
73.470253
 20
104.924273
 30
0.0
 11
73.470253
 21
104.895316
 31
0.0
  0
LINE
  5
3EC
100
AcDbEntity
  8
ALPHA
100
AcDbLine
 10
72.370253
 20
83.550521
 30
0.0
 11
72.370253
 21
82.971161
 31
0.0
  0
LINE
  5
3ED
100
AcDbEntity
  8
ALPHA
100
AcDbLine
 10
72.370253
 20
113.12988
 30
0.0
 11
72.370253
 21
112.550521
 31
0.0
  0
LINE
  5
3EE
100
AcDbEntity
  8
ALPHA
100
AcDbLine
 10
68.870253
 20
82.953069
 30
0.0
 11
68.870253
 21
82.350521
 31
0.0
  0
LINE
  5
3EF
100
AcDbEntity
  8
ALPHA
100
AcDbLine
 10
68.870253
 20
113.147973
 30
0.0
 11
68.870253
 21
113.750521
 31
0.0
  0
ARC
  5
3F0
100
AcDbEntity
  8
ALPHA
100
AcDbCircle
 10
68.570253
 20
113.750521
 30
0.0
 40
0.3
100
AcDbArc
 50
0.0
 51
90.0
  0
ARC
  5
3F1
100
AcDbEntity
  8
ALPHA
100
AcDbCircle
 10
72.370253
 20
98.050521
 30
0.0
 40
6.35
100
AcDbArc
 50
140.502609
 51
153.849282
  0
LINE
  5
3F2
100
AcDbEntity
  8
ALPHA
100
AcDbLine
 10
66.670253
 20
100.849181
 30
0.0
 11
66.670253
 21
95.25186
 31
0.0
  0
ARC
  5
3F3
100
AcDbEntity
  8
ALPHA
100
AcDbCircle
 10
72.370253
 20
98.050521
 30
0.0
 40
6.35
100
AcDbArc
 50
206.150718
 51
219.497391
  0
LINE
  5
3F4
100
AcDbEntity
  8
ALPHA
100
AcDbLine
 10
69.510131
 20
105.550521
 30
0.0
 11
69.499369
 21
105.550521
 31
0.0
  0
LINE
  5
3F5
100
AcDbEntity
  8
ALPHA
100
AcDbLine
 10
69.499369
 20
90.550521
 30
0.0
 11
69.510132
 21
90.550521
 31
0.0
  0
LINE
  5
3F6
100
AcDbEntity
  8
ALPHA
100
AcDbLine
 10
67.370253
 20
96.150521
 30
0.0
 11
67.370253
 21
99.950521
 31
0.0
  0
LWPOLYLINE
  5
3F7
100
AcDbEntity
  8
ALPHA
100
AcDbPolyline
 90
       25
 70
     0
 43
0.0
 10
69.410632
 20
89.1739
 10
69.434584
 20
89.305146
 10
69.476346
 20
89.475346
 10
69.528274
 20
89.642811
 10
69.590184
 20
89.806952
 10
69.66186
 20
89.967193
 10
69.743048
 20
90.122971
 10
69.833465
 20
90.273738
 10
69.932793
 20
90.418966
 10
70.040682
 20
90.558144
 10
70.156753
 20
90.690784
 10
70.2806
 20
90.816418
 10
70.411787
 20
90.934607
 10
70.549853
 20
91.044935
 10
70.694313
 20
91.147014
 10
70.84466
 20
91.240485
 10
71.000365
 20
91.325022
 10
71.160883
 20
91.400326
 10
71.325648
 20
91.466133
 10
71.494083
 20
91.522212
 10
71.665595
 20
91.568365
 10
71.839582
 20
91.604432
 10
72.015434
 20
91.630285
 10
72.192531
 20
91.645833
 10
72.370253
 20
91.651021
  0
LWPOLYLINE
  5
412
100
AcDbEntity
  8
ALPHA
100
AcDbPolyline
 90
       28
 70
     0
 43
0.0
 10
69.370253
 20
106.434596
 10
69.375293
 20
106.611098
 10
69.390668
 20
106.789375
 10
69.416318
 20
106.966382
 10
69.452142
 20
107.141488
 10
69.497999
 20
107.314073
 10
69.553709
 20
107.483527
 10
69.619055
 20
107.649257
 10
69.693786
 20
107.810686
 10
69.777614
 20
107.96726
 10
69.870223
 20
108.118446
 10
69.971265
 20
108.263734
 10
70.080364
 20
108.402642
 10
70.197122
 20
108.534715
 10
70.321115
 20
108.659524
 10
70.451899
 20
108.776673
 10
70.589013
 20
108.885792
 10
70.731979
 20
108.986544
 10
70.880303
 20
109.078618
 10
71.033482
 20
109.161739
 10
71.190999
 20
109.235658
 10
71.35233
 20
109.300158
 10
71.516943
 20
109.35505
 10
71.684301
 20
109.400176
 10
71.853858
 20
109.435408
 10
72.02507
 20
109.460645
 10
72.197385
 20
109.475815
 10
72.370253
 20
109.480877
  0
LINE
  5
430
100
AcDbEntity
  8
ALPHA
100
AcDbLine
 10
67.470253
 20
114.050521
 30
0.0
 11
68.570253
 21
114.050521
 31
0.0
  0
LINE
  5
431
100
AcDbEntity
  8
ALPHA
100
AcDbLine
 10
68.829327
 20
82.199319
 30
0.0
 11
75.870253
 21
82.199319
 31
0.0
  0
LINE
  5
432
100
AcDbEntity
  8
ALPHA
100
AcDbLine
 10
68.829327
 20
113.901723
 30
0.0
 11
75.870253
 21
113.901723
 31
0.0
  0
LINE
  5
433
100
AcDbEntity
  8
ALPHA
100
AcDbLine
 10
75.870253
 20
113.901722
 30
0.0
 11
75.870253
 21
113.789704
 31
0.0
  0
LINE
  5
434
100
AcDbEntity
  8
ALPHA
100
AcDbLine
 10
67.470253
 20
82.050521
 30
0.0
 11
68.570253
 21
82.050521
 31
0.0
  0
LINE
  5
435
100
AcDbEntity
  8
ALPHA
100
AcDbLine
 10
72.370253
 20
112.550521
 30
0.0
 11
72.370253
 21
109.480877
 31
0.0
  0
LINE
  5
436
100
AcDbEntity
  8
ALPHA
100
AcDbLine
 10
72.370253
 20
86.620164
 30
0.0
 11
72.370253
 21
83.550521
 31
0.0
  0
LWPOLYLINE
  5
437
100
AcDbEntity
  8
ALPHA
100
AcDbPolyline
 90
       28
 70
     0
 43
0.0
 10
72.370253
 20
86.620164
 10
72.197385
 20
86.625226
 10
72.025069
 20
86.640396
 10
71.853858
 20
86.665633
 10
71.6843
 20
86.700865
 10
71.516943
 20
86.745991
 10
71.35233
 20
86.800883
 10
71.190999
 20
86.865383
 10
71.033482
 20
86.939302
 10
70.880303
 20
87.022423
 10
70.731979
 20
87.114498
 10
70.589013
 20
87.215249
 10
70.451899
 20
87.324368
 10
70.321115
 20
87.441517
 10
70.197122
 20
87.566326
 10
70.080365
 20
87.698399
 10
69.971265
 20
87.837307
 10
69.870223
 20
87.982595
 10
69.777614
 20
88.133781
 10
69.693786
 20
88.290354
 10
69.619055
 20
88.451784
 10
69.553709
 20
88.617514
 10
69.497999
 20
88.786968
 10
69.452142
 20
88.959552
 10
69.416318
 20
89.134659
 10
69.390668
 20
89.311666
 10
69.375293
 20
89.489942
 10
69.370253
 20
89.666445
  0
LINE
  5
455
100
AcDbEntity
  8
ALPHA
100
AcDbLine
 10
69.499369
 20
90.550521
 30
0.0
 11
68.470253
 21
90.550521
 31
0.0
  0
LINE
  5
456
100
AcDbEntity
  8
ALPHA
100
AcDbLine
 10
68.470253
 20
105.550521
 30
0.0
 11
68.470253
 21
90.550521
 31
0.0
  0
LINE
  5
457
100
AcDbEntity
  8
ALPHA
100
AcDbLine
 10
69.499369
 20
105.550521
 30
0.0
 11
68.470253
 21
105.550521
 31
0.0
  0
LINE
  5
458
100
AcDbEntity
  8
ALPHA
100
AcDbLine
 10
75.670253
 20
114.550521
 30
0.0
 11
69.070253
 21
114.550521
 31
0.0
  0
LINE
  5
459
100
AcDbEntity
  8
ALPHA
100
AcDbLine
 10
68.870253
 20
82.953069
 30
0.0
 11
68.870253
 21
82.350521
 31
0.0
  0
ARC
  5
45A
100
AcDbEntity
  8
ALPHA
100
AcDbCircle
 10
68.570253
 20
82.350521
 30
0.0
 40
0.3
100
AcDbArc
 50
270.0
 51
0.0
  0
LINE
  5
45B
100
AcDbEntity
  8
ALPHA
100
AcDbLine
 10
72.370253
 20
82.953069
 30
0.0
 11
68.672844
 21
82.953069
 31
0.0
  0
LINE
  5
45C
100
AcDbEntity
  8
ALPHA
100
AcDbLine
 10
72.370253
 20
82.953071
 30
0.0
 11
72.370253
 21
82.971161
 31
0.0
  0
LINE
  5
45D
100
AcDbEntity
  8
ALPHA
100
AcDbLine
 10
67.470253
 20
83.550521
 30
0.0
 11
67.470253
 21
82.050521
 31
0.0
  0
LINE
  5
45E
100
AcDbEntity
  8
ALPHA
100
AcDbLine
 10
67.470253
 20
112.550521
 30
0.0
 11
67.470253
 21
83.550521
 31
0.0
  0
LINE
  5
45F
100
AcDbEntity
  8
ALPHA
100
AcDbLine
 10
67.470253
 20
114.050521
 30
0.0
 11
67.470253
 21
112.550521
 31
0.0
  0
LINE
  5
460
100
AcDbEntity
  8
ALPHA
100
AcDbLine
 10
68.672844
 20
113.147973
 30
0.0
 11
72.370253
 21
113.147973
 31
0.0
  0
LINE
  5
461
100
AcDbEntity
  8
ALPHA
100
AcDbLine
 10
72.370253
 20
113.147971
 30
0.0
 11
72.370253
 21
113.12988
 31
0.0
  0
LINE
  5
462
100
AcDbEntity
  8
ALPHA
100
AcDbLine
 10
67.370253
 20
96.150521
 30
0.0
 11
67.370253
 21
99.950521
 31
0.0
  0
ARC
  5
463
100
AcDbEntity
  8
ALPHA
100
AcDbCircle
 10
67.470253
 20
96.150521
 30
0.0
 40
0.1
100
AcDbArc
 50
180.0
 51
270.0
  0
ARC
  5
464
100
AcDbEntity
  8
ALPHA
100
AcDbCircle
 10
67.470253
 20
99.950521
 30
0.0
 40
0.1
100
AcDbArc
 50
90.0
 51
180.0
  0
LWPOLYLINE
  5
465
100
AcDbEntity
  8
ALPHA
100
AcDbPolyline
 90
        3
 70
     0
 43
0.0
 10
75.241138
 20
90.550521
 10
75.353216
 20
89.990641
 10
75.370157
 20
89.666334
  0
LINE
  5
46A
100
AcDbEntity
  8
ALPHA
100
AcDbLine
 10
76.067584
 20
82.953069
 30
0.0
 11
76.170253
 21
82.971161
 31
0.0
  0
LINE
  5
46B
100
AcDbEntity
  8
ALPHA
100
AcDbLine
 10
77.270253
 20
83.550521
 30
0.0
 11
72.370253
 21
83.550521
 31
0.0
  0
LINE
  5
46C
100
AcDbEntity
  8
ALPHA
100
AcDbLine
 10
77.270253
 20
112.550521
 30
0.0
 11
72.370253
 21
112.550521
 31
0.0
  0
LINE
  5
46D
100
AcDbEntity
  8
ALPHA
100
AcDbLine
 10
76.170253
 20
82.971161
 30
0.0
 11
76.170253
 21
82.050521
 31
0.0
  0
LINE
  5
46E
100
AcDbEntity
  8
ALPHA
100
AcDbLine
 10
76.170253
 20
82.971161
 30
0.0
 11
72.370253
 21
82.971161
 31
0.0
  0
LINE
  5
46F
100
AcDbEntity
  8
ALPHA
100
AcDbLine
 10
76.170253
 20
113.12988
 30
0.0
 11
76.170253
 21
114.050521
 31
0.0
  0
LINE
  5
470
100
AcDbEntity
  8
ALPHA
100
AcDbLine
 10
76.170253
 20
113.12988
 30
0.0
 11
72.370253
 21
113.12988
 31
0.0
  0
LWPOLYLINE
  5
471
100
AcDbEntity
  8
ALPHA
100
AcDbPolyline
 90
        8
 70
     0
 43
0.0
 10
75.230375
 20
105.550521
 10
75.019118
 20
105.039762
 10
74.721144
 20
104.57743
 10
74.347205
 20
104.178582
 10
73.910173
 20
103.855529
 10
73.424526
 20
103.617886
 10
72.905976
 20
103.472547
 10
72.370253
 20
103.423583
  0
LWPOLYLINE
  5
47B
100
AcDbEntity
  8
ALPHA
100
AcDbPolyline
 90
        8
 70
     0
 43
0.0
 10
72.370253
 20
92.677459
 10
72.90598
 20
92.628494
 10
73.424531
 20
92.483154
 10
73.910177
 20
92.24551
 10
74.347207
 20
91.922458
 10
74.721145
 20
91.523611
 10
75.019117
 20
91.06128
 10
75.230375
 20
90.550521
  0
LINE
  5
485
100
AcDbEntity
  8
ALPHA
100
AcDbLine
 10
76.067584
 20
113.147973
 30
0.0
 11
76.170253
 21
113.12988
 31
0.0
  0
LWPOLYLINE
  5
486
100
AcDbEntity
  8
ALPHA
100
AcDbPolyline
 90
        3
 70
     0
 43
0.0
 10
75.370157
 20
106.434708
 10
75.353217
 20
106.110412
 10
75.241138
 20
105.550521
  0
LWPOLYLINE
  5
48B
100
AcDbEntity
  8
ALPHA
100
AcDbPolyline
 90
        9
 70
     0
 43
0.0
 10
72.370253
 20
91.651022
 10
72.955524
 20
91.594254
 10
73.518303
 20
91.42613
 10
74.036964
 20
91.153112
 10
74.491574
 20
90.785692
 10
74.864662
 20
90.337988
 10
75.141892
 20
89.827208
 10
75.312609
 20
89.272978
 10
75.320726
 20
89.19182
  0
LINE
  5
496
100
AcDbEntity
  8
ALPHA
100
AcDbLine
 10
72.370253
 20
103.957616
 30
0.0
 11
72.370253
 21
104.45002
 31
0.0
  0
LINE
  5
497
100
AcDbEntity
  8
ALPHA
100
AcDbLine
 10
72.370253
 20
103.423583
 30
0.0
 11
72.370253
 21
103.957616
 31
0.0
  0
LINE
  5
498
100
AcDbEntity
  8
ALPHA
100
AcDbLine
 10
72.370253
 20
104.825857
 30
0.0
 11
72.370253
 21
104.843221
 31
0.0
  0
LINE
  5
499
100
AcDbEntity
  8
ALPHA
100
AcDbLine
 10
72.370253
 20
104.45002
 30
0.0
 11
72.370253
 21
104.825857
 31
0.0
  0
LINE
  5
49A
100
AcDbEntity
  8
ALPHA
100
AcDbLine
 10
72.370253
 20
104.843221
 30
0.0
 11
72.889868
 21
104.895316
 31
0.0
  0
LINE
  5
49B
100
AcDbEntity
  8
ALPHA
100
AcDbLine
 10
72.370253
 20
92.143426
 30
0.0
 11
72.370253
 21
92.677459
 31
0.0
  0
LINE
  5
49C
100
AcDbEntity
  8
ALPHA
100
AcDbLine
 10
72.370253
 20
91.651022
 30
0.0
 11
72.370253
 21
92.143426
 31
0.0
  0
LINE
  5
49D
100
AcDbEntity
  8
ALPHA
100
AcDbLine
 10
72.370253
 20
92.677459
 30
0.0
 11
72.370253
 21
103.423583
 31
0.0
  0
LINE
  5
49E
100
AcDbEntity
  8
ALPHA
100
AcDbLine
 10
72.370253
 20
112.550521
 30
0.0
 11
72.370253
 21
113.12988
 31
0.0
  0
LINE
  5
49F
100
AcDbEntity
  8
ALPHA
100
AcDbLine
 10
72.370253
 20
82.971161
 30
0.0
 11
72.370253
 21
83.550521
 31
0.0
  0
LINE
  5
4A0
100
AcDbEntity
  8
ALPHA
100
AcDbLine
 10
75.870253
 20
82.953069
 30
0.0
 11
75.870253
 21
82.350521
 31
0.0
  0
LINE
  5
4A1
100
AcDbEntity
  8
ALPHA
100
AcDbLine
 10
75.870253
 20
113.147973
 30
0.0
 11
75.870253
 21
113.750521
 31
0.0
  0
LINE
  5
4A2
100
AcDbEntity
  8
ALPHA
100
AcDbLine
 10
72.370253
 20
91.60785
 30
0.0
 11
72.370253
 21
91.651021
 31
0.0
  0
LINE
  5
4A3
100
AcDbEntity
  8
ALPHA
100
AcDbLine
 10
73.937012
 20
104.895316
 30
0.0
 11
72.889868
 21
104.895316
 31
0.0
  0
LINE
  5
4A4
100
AcDbEntity
  8
ALPHA
100
AcDbLine
 10
75.241138
 20
105.550521
 30
0.0
 11
75.230375
 21
105.550521
 31
0.0
  0
LINE
  5
4A5
100
AcDbEntity
  8
ALPHA
100
AcDbLine
 10
75.230375
 20
90.550521
 30
0.0
 11
75.241138
 21
90.550521
 31
0.0
  0
LINE
  5
4A6
100
AcDbEntity
  8
ALPHA
100
AcDbLine
 10
77.370253
 20
96.150521
 30
0.0
 11
77.370253
 21
99.950521
 31
0.0
  0
LWPOLYLINE
  5
4A7
100
AcDbEntity
  8
ALPHA
100
AcDbPolyline
 90
        9
 70
     0
 43
0.0
 10
75.320726
 20
106.909223
 10
75.312609
 20
106.828064
 10
75.141892
 20
106.273834
 10
74.864662
 20
105.763053
 10
74.491574
 20
105.31535
 10
74.036964
 20
104.94793
 10
73.518303
 20
104.674912
 10
72.955524
 20
104.506788
 10
72.370253
 20
104.45002
  0
LWPOLYLINE
  5
4B2
100
AcDbEntity
  8
ALPHA
100
AcDbPolyline
 90
       10
 70
     0
 43
0.0
 10
75.370157
 20
89.666334
 10
75.360335
 20
89.418939
 10
75.262202
 20
88.856244
 10
75.062726
 20
88.322935
 10
74.76972
 20
87.837955
 10
74.394343
 20
87.418
 10
73.950402
 20
87.076982
 10
73.453624
 20
86.825734
 10
72.921022
 20
86.671943
 10
72.370253
 20
86.620165
  0
ARC
  5
4BE
100
AcDbEntity
  8
ALPHA
100
AcDbCircle
 10
72.370253
 20
98.050521
 30
0.0
 40
6.35
100
AcDbArc
 50
320.502609
 51
333.849282
  0
LINE
  5
4BF
100
AcDbEntity
  8
ALPHA
100
AcDbLine
 10
78.070253
 20
95.25186
 30
0.0
 11
78.070253
 21
100.849181
 31
0.0
  0
ARC
  5
4C0
100
AcDbEntity
  8
ALPHA
100
AcDbCircle
 10
72.370253
 20
98.050521
 30
0.0
 40
6.35
100
AcDbArc
 50
26.150718
 51
39.497391
  0
LINE
  5
4C1
100
AcDbEntity
  8
ALPHA
100
AcDbLine
 10
77.270253
 20
82.050521
 30
0.0
 11
76.170253
 21
82.050521
 31
0.0
  0
LINE
  5
4C2
100
AcDbEntity
  8
ALPHA
100
AcDbLine
 10
77.270253
 20
114.050521
 30
0.0
 11
76.170253
 21
114.050521
 31
0.0
  0
LINE
  5
4C3
100
AcDbEntity
  8
ALPHA
100
AcDbLine
 10
75.241138
 20
90.550521
 30
0.0
 11
76.270253
 21
90.550521
 31
0.0
  0
LINE
  5
4C4
100
AcDbEntity
  8
ALPHA
100
AcDbLine
 10
72.370253
 20
83.550521
 30
0.0
 11
72.370253
 21
86.620165
 31
0.0
  0
LINE
  5
4C5
100
AcDbEntity
  8
ALPHA
100
AcDbLine
 10
72.370253
 20
109.480877
 30
0.0
 11
72.370253
 21
112.550521
 31
0.0
  0
LWPOLYLINE
  5
4C6
100
AcDbEntity
  8
ALPHA
100
AcDbPolyline
 90
       10
 70
     0
 43
0.0
 10
72.370253
 20
109.480877
 10
72.921026
 20
109.429098
 10
73.453627
 20
109.275307
 10
73.950401
 20
109.024061
 10
74.394336
 20
108.683048
 10
74.769711
 20
108.263099
 10
75.062718
 20
107.778124
 10
75.262197
 20
107.244818
 10
75.360333
 20
106.682121
 10
75.370157
 20
106.434708
  0
LINE
  5
4D2
100
AcDbEntity
  8
ALPHA
100
AcDbLine
 10
75.241138
 20
105.550521
 30
0.0
 11
76.270253
 21
105.550521
 31
0.0
  0
LINE
  5
4D3
100
AcDbEntity
  8
ALPHA
100
AcDbLine
 10
76.270253
 20
90.550521
 30
0.0
 11
76.270253
 21
105.550521
 31
0.0
  0
LINE
  5
4D4
100
AcDbEntity
  8
ALPHA
100
AcDbLine
 10
75.870253
 20
82.350521
 30
0.0
 11
75.870253
 21
82.953069
 31
0.0
  0
ARC
  5
4D5
100
AcDbEntity
  8
ALPHA
100
AcDbCircle
 10
76.170253
 20
82.350521
 30
0.0
 40
0.3
100
AcDbArc
 50
180.0
 51
270.0
  0
LINE
  5
4D6
100
AcDbEntity
  8
ALPHA
100
AcDbLine
 10
76.067868
 20
82.953069
 30
0.0
 11
72.370253
 21
82.953069
 31
0.0
  0
LINE
  5
4D7
100
AcDbEntity
  8
ALPHA
100
AcDbLine
 10
72.370253
 20
82.953078
 30
0.0
 11
72.370253
 21
82.971161
 31
0.0
  0
LINE
  5
4D8
100
AcDbEntity
  8
ALPHA
100
AcDbLine
 10
75.870253
 20
113.147973
 30
0.0
 11
75.870253
 21
113.750521
 31
0.0
  0
ARC
  5
4D9
100
AcDbEntity
  8
ALPHA
100
AcDbCircle
 10
76.170253
 20
113.750521
 30
0.0
 40
0.3
100
AcDbArc
 50
90.0
 51
180.0
  0
LINE
  5
4DA
100
AcDbEntity
  8
ALPHA
100
AcDbLine
 10
72.370253
 20
113.147973
 30
0.0
 11
76.067868
 21
113.147973
 31
0.0
  0
LINE
  5
4DB
100
AcDbEntity
  8
ALPHA
100
AcDbLine
 10
77.270253
 20
112.550521
 30
0.0
 11
77.270253
 21
114.050521
 31
0.0
  0
LINE
  5
4DC
100
AcDbEntity
  8
ALPHA
100
AcDbLine
 10
77.270253
 20
83.550521
 30
0.0
 11
77.270253
 21
112.550521
 31
0.0
  0
LINE
  5
4DD
100
AcDbEntity
  8
ALPHA
100
AcDbLine
 10
77.270253
 20
82.050521
 30
0.0
 11
77.270253
 21
83.550521
 31
0.0
  0
LINE
  5
4DE
100
AcDbEntity
  8
ALPHA
100
AcDbLine
 10
72.370253
 20
113.147964
 30
0.0
 11
72.370253
 21
113.12988
 31
0.0
  0
LINE
  5
4DF
100
AcDbEntity
  8
ALPHA
100
AcDbLine
 10
77.370253
 20
99.950521
 30
0.0
 11
77.370253
 21
96.150521
 31
0.0
  0
ARC
  5
4E0
100
AcDbEntity
  8
ALPHA
100
AcDbCircle
 10
77.270253
 20
99.950521
 30
0.0
 40
0.1
100
AcDbArc
 50
0.0
 51
90.0
  0
ARC
  5
4E1
100
AcDbEntity
  8
ALPHA
100
AcDbCircle
 10
77.270253
 20
96.150521
 30
0.0
 40
0.1
100
AcDbArc
 50
270.0
 51
0.0
  0
LWPOLYLINE
  5
4E2
100
AcDbEntity
  8
ALPHA
100
AcDbPolyline
 90
       11
 70
     0
 43
0.0
 10
71.898813
 20
117.43355
 10
71.906504
 20
117.397657
 10
71.928825
 20
117.293492
 10
71.963591
 20
117.131252
 10
72.007398
 20
116.926817
 10
72.05596
 20
116.700198
 10
72.104521
 20
116.47358
 10
72.148328
 20
116.269145
 10
72.183094
 20
116.106904
 10
72.205415
 20
116.002739
 10
72.213106
 20
115.966847
  0
LWPOLYLINE
  5
4EF
100
AcDbEntity
  8
ALPHA
100
AcDbPolyline
 90
       11
 70
     0
 43
0.0
 10
72.841694
 20
117.43355
 10
72.834002
 20
117.397657
 10
72.811681
 20
117.293492
 10
72.776915
 20
117.131252
 10
72.733108
 20
116.926817
 10
72.684547
 20
116.700198
 10
72.635986
 20
116.47358
 10
72.592178
 20
116.269145
 10
72.557412
 20
116.106904
 10
72.535091
 20
116.002739
 10
72.5274
 20
115.966847
  0
LINE
  5
4FC
100
AcDbEntity
  8
ALPHA
100
AcDbLine
 10
63.870853
 20
95.550521
 30
0.0
 11
63.870608
 21
103.58666
 31
0.0
  0
LINE
  5
4FD
100
AcDbEntity
  8
ALPHA
100
AcDbLine
 10
62.370827
 20
96.398737
 30
0.0
 11
62.370727
 21
99.684521
 31
0.0
  0
LINE
  5
4FE
100
AcDbEntity
  8
ALPHA
100
AcDbLine
 10
63.870853
 20
95.550521
 30
0.0
 11
63.870608
 21
103.58666
 31
0.0
  0
LINE
  5
4FF
100
AcDbEntity
  8
ALPHA
100
AcDbLine
 10
62.370827
 20
96.398737
 30
0.0
 11
62.370727
 21
99.684521
 31
0.0
  0
LINE
  5
500
100
AcDbEntity
  8
ALPHA
100
AcDbLine
 10
69.304823
 20
80.711817
 30
0.0
 11
69.309598
 21
80.720087
 31
0.0
  0
LINE
  5
501
100
AcDbEntity
  8
ALPHA
100
AcDbLine
 10
69.283073
 20
80.674141
 30
0.0
 11
69.304823
 21
80.711817
 31
0.0
  0
LINE
  5
502
100
AcDbEntity
  8
ALPHA
100
AcDbLine
 10
69.269398
 20
80.650454
 30
0.0
 11
69.283073
 21
80.674141
 31
0.0
  0
LINE
  5
503
100
AcDbEntity
  8
ALPHA
100
AcDbLine
 10
69.010293
 20
80.201639
 30
0.0
 11
69.269398
 21
80.650454
 31
0.0
  0
LINE
  5
504
100
AcDbEntity
  8
ALPHA
100
AcDbLine
 10
69.010293
 20
80.201639
 30
0.0
 11
68.676491
 21
80.394346
 31
0.0
  0
LINE
  5
505
100
AcDbEntity
  8
ALPHA
100
AcDbLine
 10
69.470253
 20
116.913145
 30
0.0
 11
71.898813
 21
117.43355
 31
0.0
  0
LINE
  5
506
100
AcDbEntity
  8
ALPHA
100
AcDbLine
 10
69.010293
 20
80.201639
 30
0.0
 11
68.676491
 21
80.394346
 31
0.0
  0
LINE
  5
507
100
AcDbEntity
  8
ALPHA
100
AcDbLine
 10
71.80623
 20
115.879659
 30
0.0
 11
72.213106
 21
115.966847
 31
0.0
  0
LINE
  5
508
100
AcDbEntity
  8
ALPHA
100
AcDbLine
 10
69.470253
 20
116.913145
 30
0.0
 11
71.898813
 21
117.43355
 31
0.0
  0
LINE
  5
509
100
AcDbEntity
  8
ALPHA
100
AcDbLine
 10
71.80623
 20
115.879659
 30
0.0
 11
72.213106
 21
115.966847
 31
0.0
  0
ARC
  5
50A
100
AcDbEntity
  8
ALPHA
100
AcDbCircle
 10
72.370253
 20
115.233495
 30
0.0
 40
2.25
100
AcDbArc
 50
77.905243
 51
102.094757
  0
ARC
  5
50B
100
AcDbEntity
  8
ALPHA
100
AcDbCircle
 10
72.370253
 20
115.233495
 30
0.0
 40
0.75
100
AcDbArc
 50
77.905243
 51
102.094757
  0
ARC
  5
50C
100
AcDbEntity
  8
ALPHA
100
AcDbCircle
 10
72.370253
 20
115.233495
 30
0.0
 40
2.25
100
AcDbArc
 50
77.905243
 51
102.094757
  0
ARC
  5
50D
100
AcDbEntity
  8
ALPHA
100
AcDbCircle
 10
72.370253
 20
115.233495
 30
0.0
 40
0.75
100
AcDbArc
 50
77.905243
 51
102.094757
  0
LINE
  5
50E
100
AcDbEntity
  8
ALPHA
100
AcDbLine
 10
72.841694
 20
117.43355
 30
0.0
 11
75.270253
 21
116.913145
 31
0.0
  0
LINE
  5
50F
100
AcDbEntity
  8
ALPHA
100
AcDbLine
 10
72.5274
 20
115.966847
 30
0.0
 11
72.934276
 21
115.879659
 31
0.0
  0
LINE
  5
510
100
AcDbEntity
  8
ALPHA
100
AcDbLine
 10
72.841694
 20
117.43355
 30
0.0
 11
75.270253
 21
116.913145
 31
0.0
  0
LINE
  5
511
100
AcDbEntity
  8
ALPHA
100
AcDbLine
 10
72.5274
 20
115.966847
 30
0.0
 11
72.934276
 21
115.879659
 31
0.0
  0
LINE
  5
512
100
AcDbEntity
  8
ALPHA
100
AcDbLine
 10
82.369779
 20
99.684521
 30
0.0
 11
82.369679
 21
96.398737
 31
0.0
  0
LINE
  5
513
100
AcDbEntity
  8
ALPHA
100
AcDbLine
 10
80.869898
 20
103.58666
 30
0.0
 11
80.869654
 21
95.550521
 31
0.0
  0
LINE
  5
514
100
AcDbEntity
  8
ALPHA
100
AcDbLine
 10
82.369779
 20
99.684521
 30
0.0
 11
82.369679
 21
96.398737
 31
0.0
  0
LINE
  5
515
100
AcDbEntity
  8
ALPHA
100
AcDbLine
 10
80.869898
 20
103.58666
 30
0.0
 11
80.869654
 21
95.550521
 31
0.0
  0
LINE
  5
516
100
AcDbEntity
  8
ALPHA
100
AcDbLine
 10
76.064015
 20
80.394346
 30
0.0
 11
75.730214
 21
80.201639
 31
0.0
  0
LINE
  5
517
100
AcDbEntity
  8
ALPHA
100
AcDbLine
 10
76.064015
 20
80.394346
 30
0.0
 11
75.730214
 21
80.201639
 31
0.0
  0
LINE
  5
518
100
AcDbEntity
  8
ALPHA
100
AcDbLine
 10
75.435613
 20
80.711939
 30
0.0
 11
75.430909
 21
80.720087
 31
0.0
  0
LINE
  5
519
100
AcDbEntity
  8
ALPHA
100
AcDbLine
 10
75.457433
 20
80.674141
 30
0.0
 11
75.435613
 21
80.711939
 31
0.0
  0
LINE
  5
51A
100
AcDbEntity
  8
ALPHA
100
AcDbLine
 10
75.471109
 20
80.650454
 30
0.0
 11
75.457433
 21
80.674141
 31
0.0
  0
LINE
  5
51B
100
AcDbEntity
  8
ALPHA
100
AcDbLine
 10
75.730214
 20
80.201639
 30
0.0
 11
75.471109
 21
80.650454
 31
0.0
  0
LINE
  5
51C
100
AcDbEntity
  8
ALPHA
100
AcDbLine
 10
72.070253
 20
104.935994
 30
0.0
 11
72.070253
 21
104.855933
 31
0.0
  0
LINE
  5
51D
100
AcDbEntity
  8
ALPHA
100
AcDbLine
 10
71.296023
 20
91.4543
 30
0.0
 11
71.620253
 21
91.4543
 31
0.0
  0
LINE
  5
51E
100
AcDbEntity
  8
ALPHA
100
AcDbLine
 10
73.120253
 20
91.4543
 30
0.0
 11
73.424006
 21
91.4543
 31
0.0
  0
LINE
  5
51F
100
AcDbEntity
  8
ALPHA
100
AcDbLine
 10
69.481148
 20
88.850388
 30
0.0
 11
69.57881
 21
88.850388
 31
0.0
  0
LWPOLYLINE
  5
520
100
AcDbEntity
  8
ALPHA
100
AcDbPolyline
 90
        4
 70
     0
 43
0.0
 10
73.120253
 20
91.4543
 10
73.114884
 20
91.498701
 10
73.098157
 20
91.540455
 10
73.086535
 20
91.555116
  0
LINE
  5
526
100
AcDbEntity
  8
ALPHA
100
AcDbLine
 10
72.870253
 20
91.602525
 30
0.0
 11
72.870253
 21
91.486713
 31
0.0
  0
LINE
  5
527
100
AcDbEntity
  8
ALPHA
100
AcDbLine
 10
72.870253
 20
91.60785
 30
0.0
 11
72.870253
 21
91.602525
 31
0.0
  0
LWPOLYLINE
  5
528
100
AcDbEntity
  8
ALPHA
100
AcDbPolyline
 90
        4
 70
     0
 43
0.0
 10
71.620253
 20
91.4543
 10
71.625623
 20
91.498701
 10
71.642349
 20
91.540455
 10
71.66417
 20
91.567982
  0
LINE
  5
52E
100
AcDbEntity
  8
ALPHA
100
AcDbLine
 10
71.870253
 20
91.60785
 30
0.0
 11
71.870253
 21
91.482602
 31
0.0
  0
LINE
  5
52F
100
AcDbEntity
  8
ALPHA
100
AcDbLine
 10
69.415544
 20
89.140002
 30
0.0
 11
69.606094
 21
89.140002
 31
0.0
  0
LINE
  5
530
100
AcDbEntity
  8
ALPHA
100
AcDbLine
 10
75.260012
 20
88.850388
 30
0.0
 11
75.152412
 21
88.850388
 31
0.0
  0
LINE
  5
531
100
AcDbEntity
  8
ALPHA
100
AcDbLine
 10
71.620253
 20
91.4543
 30
0.0
 11
71.620253
 21
91.428647
 31
0.0
  0
LINE
  5
532
100
AcDbEntity
  8
ALPHA
100
AcDbLine
 10
73.120253
 20
91.4543
 30
0.0
 11
73.120253
 21
91.42348
 31
0.0
  0
LINE
  5
533
100
AcDbEntity
  8
ALPHA
100
AcDbLine
 10
75.311689
 20
89.140002
 30
0.0
 11
75.136496
 21
89.140002
 31
0.0
  0
LINE
  5
534
100
AcDbEntity
  8
ALPHA
100
AcDbLine
 10
75.325908
 20
89.140002
 30
0.0
 11
75.311689
 21
89.140002
 31
0.0
  0
LINE
  5
535
100
AcDbEntity
  8
ALPHA
100
AcDbLine
 10
71.86685
 20
91.608441
 30
0.0
 11
71.870253
 21
91.60785
 31
0.0
  0
LINE
  5
536
100
AcDbEntity
  8
ALPHA
100
AcDbLine
 10
72.815351
 20
91.60785
 30
0.0
 11
71.870253
 21
91.60785
 31
0.0
  0
LINE
  5
537
100
AcDbEntity
  8
ALPHA
100
AcDbLine
 10
64.870253
 20
83.434563
 30
0.0
 11
63.120253
 21
82.104776
 31
0.0
  0
LINE
  5
538
100
AcDbEntity
  8
ALPHA
100
AcDbLine
 10
63.120253
 20
82.104776
 30
0.0
 11
62.995253
 21
81.89201
 31
0.0
  0
LINE
  5
539
100
AcDbEntity
  8
ALPHA
100
AcDbLine
 10
62.995253
 20
81.89201
 30
0.0
 11
62.995253
 21
81.785627
 31
0.0
  0
LINE
  5
53A
100
AcDbEntity
  8
ALPHA
100
AcDbLine
 10
62.995253
 20
81.785627
 30
0.0
 11
63.120253
 21
81.626053
 31
0.0
  0
LINE
  5
53B
100
AcDbEntity
  8
ALPHA
100
AcDbLine
 10
63.120253
 20
81.626053
 30
0.0
 11
63.307753
 21
81.51967
 31
0.0
  0
LINE
  5
53C
100
AcDbEntity
  8
ALPHA
100
AcDbLine
 10
63.307753
 20
81.51967
 30
0.0
 11
63.620253
 21
81.466478
 31
0.0
  0
LINE
  5
53D
100
AcDbEntity
  8
ALPHA
100
AcDbLine
 10
63.620253
 20
81.466478
 30
0.0
 11
63.870253
 21
81.466478
 31
0.0
  0
LINE
  5
53E
100
AcDbEntity
  8
ALPHA
100
AcDbLine
 10
63.870253
 20
81.466478
 30
0.0
 11
64.182753
 21
81.51967
 31
0.0
  0
LINE
  5
53F
100
AcDbEntity
  8
ALPHA
100
AcDbLine
 10
64.182753
 20
81.51967
 30
0.0
 11
64.370253
 21
81.626053
 31
0.0
  0
LINE
  5
540
100
AcDbEntity
  8
ALPHA
100
AcDbLine
 10
64.370253
 20
81.626053
 30
0.0
 11
64.495253
 21
81.785627
 31
0.0
  0
LINE
  5
541
100
AcDbEntity
  8
ALPHA
100
AcDbLine
 10
64.495253
 20
81.785627
 30
0.0
 11
64.807753
 21
81.785627
 31
0.0
  0
LINE
  5
542
100
AcDbEntity
  8
ALPHA
100
AcDbLine
 10
64.807753
 20
81.785627
 30
0.0
 11
64.745253
 21
81.572861
 31
0.0
  0
LINE
  5
543
100
AcDbEntity
  8
ALPHA
100
AcDbLine
 10
64.745253
 20
81.572861
 30
0.0
 11
64.495253
 21
81.360095
 31
0.0
  0
LINE
  5
544
100
AcDbEntity
  8
ALPHA
100
AcDbLine
 10
64.495253
 20
81.360095
 30
0.0
 11
64.245253
 21
81.253712
 31
0.0
  0
LINE
  5
545
100
AcDbEntity
  8
ALPHA
100
AcDbLine
 10
64.245253
 20
81.253712
 30
0.0
 11
63.807753
 21
81.200521
 31
0.0
  0
LINE
  5
546
100
AcDbEntity
  8
ALPHA
100
AcDbLine
 10
63.807753
 20
81.200521
 30
0.0
 11
63.557753
 21
81.200521
 31
0.0
  0
LINE
  5
547
100
AcDbEntity
  8
ALPHA
100
AcDbLine
 10
63.557753
 20
81.200521
 30
0.0
 11
63.182753
 21
81.253712
 31
0.0
  0
LINE
  5
548
100
AcDbEntity
  8
ALPHA
100
AcDbLine
 10
63.182753
 20
81.253712
 30
0.0
 11
62.932753
 21
81.360095
 31
0.0
  0
LINE
  5
549
100
AcDbEntity
  8
ALPHA
100
AcDbLine
 10
62.932753
 20
81.360095
 30
0.0
 11
62.682753
 21
81.572861
 31
0.0
  0
LINE
  5
54A
100
AcDbEntity
  8
ALPHA
100
AcDbLine
 10
62.682753
 20
81.572861
 30
0.0
 11
62.620253
 21
81.785627
 31
0.0
  0
LINE
  5
54B
100
AcDbEntity
  8
ALPHA
100
AcDbLine
 10
62.620253
 20
81.785627
 30
0.0
 11
62.620253
 21
81.89201
 31
0.0
  0
LINE
  5
54C
100
AcDbEntity
  8
ALPHA
100
AcDbLine
 10
62.620253
 20
81.89201
 30
0.0
 11
62.682753
 21
82.104776
 31
0.0
  0
LINE
  5
54D
100
AcDbEntity
  8
ALPHA
100
AcDbLine
 10
62.682753
 20
82.104776
 30
0.0
 11
62.807753
 21
82.264351
 31
0.0
  0
LINE
  5
54E
100
AcDbEntity
  8
ALPHA
100
AcDbLine
 10
62.807753
 20
82.264351
 30
0.0
 11
64.370253
 21
83.434563
 31
0.0
  0
LINE
  5
54F
100
AcDbEntity
  8
ALPHA
100
AcDbLine
 10
64.370253
 20
83.434563
 30
0.0
 11
62.620253
 21
83.434563
 31
0.0
  0
LINE
  5
550
100
AcDbEntity
  8
ALPHA
100
AcDbLine
 10
62.620253
 20
83.434563
 30
0.0
 11
62.620253
 21
83.700521
 31
0.0
  0
LINE
  5
551
100
AcDbEntity
  8
ALPHA
100
AcDbLine
 10
62.620253
 20
83.700521
 30
0.0
 11
64.870253
 21
83.700521
 31
0.0
  0
LINE
  5
552
100
AcDbEntity
  8
ALPHA
100
AcDbLine
 10
64.870253
 20
83.700521
 30
0.0
 11
64.870253
 21
83.434563
 31
0.0
  0
LINE
  5
553
100
AcDbEntity
  8
ALPHA
100
AcDbLine
 10
69.040253
 20
82.188819
 30
0.0
 11
69.053961
 21
82.199319
 31
0.0
  0
LINE
  5
554
100
AcDbEntity
  8
ALPHA
100
AcDbLine
 10
68.890253
 20
82.150521
 30
0.0
 11
69.040253
 21
82.188819
 31
0.0
  0
LINE
  5
555
100
AcDbEntity
  8
ALPHA
100
AcDbLine
 10
68.793725
 20
82.150521
 30
0.0
 11
68.890253
 21
82.150521
 31
0.0
  0
LINE
  5
556
100
AcDbEntity
  8
ALPHA
100
AcDbLine
 10
74.978746
 20
82.199319
 30
0.0
 11
74.826504
 21
81.99201
 31
0.0
  0
LINE
  5
557
100
AcDbEntity
  8
ALPHA
100
AcDbLine
 10
74.826504
 20
81.99201
 30
0.0
 11
74.826504
 21
81.885627
 31
0.0
  0
LINE
  5
558
100
AcDbEntity
  8
ALPHA
100
AcDbLine
 10
74.826504
 20
81.885627
 30
0.0
 11
74.982754
 21
81.726053
 31
0.0
  0
LINE
  5
559
100
AcDbEntity
  8
ALPHA
100
AcDbLine
 10
74.982754
 20
81.726053
 30
0.0
 11
75.217129
 21
81.61967
 31
0.0
  0
LINE
  5
55A
100
AcDbEntity
  8
ALPHA
100
AcDbLine
 10
75.217129
 20
81.61967
 30
0.0
 11
75.607754
 21
81.566478
 31
0.0
  0
LINE
  5
55B
100
AcDbEntity
  8
ALPHA
100
AcDbLine
 10
75.607754
 20
81.566478
 30
0.0
 11
75.920254
 21
81.566478
 31
0.0
  0
LINE
  5
55C
100
AcDbEntity
  8
ALPHA
100
AcDbLine
 10
75.920254
 20
81.566478
 30
0.0
 11
76.310879
 21
81.61967
 31
0.0
  0
LINE
  5
55D
100
AcDbEntity
  8
ALPHA
100
AcDbLine
 10
76.310879
 20
81.61967
 30
0.0
 11
76.545254
 21
81.726053
 31
0.0
  0
LINE
  5
55E
100
AcDbEntity
  8
ALPHA
100
AcDbLine
 10
76.545254
 20
81.726053
 30
0.0
 11
76.701504
 21
81.885627
 31
0.0
  0
LINE
  5
55F
100
AcDbEntity
  8
ALPHA
100
AcDbLine
 10
76.701504
 20
81.885627
 30
0.0
 11
77.092129
 21
81.885627
 31
0.0
  0
LINE
  5
560
100
AcDbEntity
  8
ALPHA
100
AcDbLine
 10
77.092129
 20
81.885627
 30
0.0
 11
77.014004
 21
81.672861
 31
0.0
  0
LINE
  5
561
100
AcDbEntity
  8
ALPHA
100
AcDbLine
 10
77.014004
 20
81.672861
 30
0.0
 11
76.701504
 21
81.460095
 31
0.0
  0
LINE
  5
562
100
AcDbEntity
  8
ALPHA
100
AcDbLine
 10
76.701504
 20
81.460095
 30
0.0
 11
76.389004
 21
81.353712
 31
0.0
  0
LINE
  5
563
100
AcDbEntity
  8
ALPHA
100
AcDbLine
 10
76.389004
 20
81.353712
 30
0.0
 11
75.842129
 21
81.300521
 31
0.0
  0
LINE
  5
564
100
AcDbEntity
  8
ALPHA
100
AcDbLine
 10
75.842129
 20
81.300521
 30
0.0
 11
75.685879
 21
81.300521
 31
0.0
  0
LINE
  5
565
100
AcDbEntity
  8
ALPHA
100
AcDbLine
 10
75.685879
 20
81.300521
 30
0.0
 11
75.139004
 21
81.353712
 31
0.0
  0
LINE
  5
566
100
AcDbEntity
  8
ALPHA
100
AcDbLine
 10
75.139004
 20
81.353712
 30
0.0
 11
74.826504
 21
81.460095
 31
0.0
  0
LINE
  5
567
100
AcDbEntity
  8
ALPHA
100
AcDbLine
 10
74.826504
 20
81.460095
 30
0.0
 11
74.514004
 21
81.672861
 31
0.0
  0
LINE
  5
568
100
AcDbEntity
  8
ALPHA
100
AcDbLine
 10
74.514004
 20
81.672861
 30
0.0
 11
74.435879
 21
81.885627
 31
0.0
  0
LINE
  5
569
100
AcDbEntity
  8
ALPHA
100
AcDbLine
 10
74.435879
 20
81.885627
 30
0.0
 11
74.435879
 21
81.99201
 31
0.0
  0
LINE
  5
56A
100
AcDbEntity
  8
ALPHA
100
AcDbLine
 10
74.435879
 20
81.99201
 30
0.0
 11
74.514004
 21
82.204776
 31
0.0
  0
LINE
  5
56B
100
AcDbEntity
  8
ALPHA
100
AcDbLine
 10
60.870253
 20
83.146265
 30
0.0
 11
60.660253
 21
83.146265
 31
0.0
  0
LINE
  5
56C
100
AcDbEntity
  8
ALPHA
100
AcDbLine
 10
60.870253
 20
82.150521
 30
0.0
 11
60.870253
 21
83.146265
 31
0.0
  0
LINE
  5
56D
100
AcDbEntity
  8
ALPHA
100
AcDbLine
 10
59.850253
 20
82.150521
 30
0.0
 11
60.870253
 21
82.150521
 31
0.0
  0
LINE
  5
56E
100
AcDbEntity
  8
ALPHA
100
AcDbLine
 10
59.850253
 20
82.34201
 30
0.0
 11
59.850253
 21
82.150521
 31
0.0
  0
LINE
  5
56F
100
AcDbEntity
  8
ALPHA
100
AcDbLine
 10
60.720253
 20
82.34201
 30
0.0
 11
59.850253
 21
82.34201
 31
0.0
  0
LINE
  5
570
100
AcDbEntity
  8
ALPHA
100
AcDbLine
 10
60.720253
 20
82.954776
 30
0.0
 11
60.720253
 21
82.34201
 31
0.0
  0
LINE
  5
571
100
AcDbEntity
  8
ALPHA
100
AcDbLine
 10
60.570253
 20
82.839883
 30
0.0
 11
60.720253
 21
82.954776
 31
0.0
  0
LINE
  5
572
100
AcDbEntity
  8
ALPHA
100
AcDbLine
 10
60.420253
 20
82.801585
 30
0.0
 11
60.570253
 21
82.839883
 31
0.0
  0
LINE
  5
573
100
AcDbEntity
  8
ALPHA
100
AcDbLine
 10
60.240253
 20
82.801585
 30
0.0
 11
60.420253
 21
82.801585
 31
0.0
  0
LINE
  5
574
100
AcDbEntity
  8
ALPHA
100
AcDbLine
 10
60.090253
 20
82.839883
 30
0.0
 11
60.240253
 21
82.801585
 31
0.0
  0
LINE
  5
575
100
AcDbEntity
  8
ALPHA
100
AcDbLine
 10
59.940253
 20
82.954776
 30
0.0
 11
60.090253
 21
82.839883
 31
0.0
  0
LINE
  5
576
100
AcDbEntity
  8
ALPHA
100
AcDbLine
 10
59.850253
 20
83.107968
 30
0.0
 11
59.940253
 21
82.954776
 31
0.0
  0
LINE
  5
577
100
AcDbEntity
  8
ALPHA
100
AcDbLine
 10
59.790253
 20
83.299457
 30
0.0
 11
59.850253
 21
83.107968
 31
0.0
  0
LINE
  5
578
100
AcDbEntity
  8
ALPHA
100
AcDbLine
 10
59.790253
 20
83.452649
 30
0.0
 11
59.790253
 21
83.299457
 31
0.0
  0
LINE
  5
579
100
AcDbEntity
  8
ALPHA
100
AcDbLine
 10
59.850253
 20
83.644138
 30
0.0
 11
59.790253
 21
83.452649
 31
0.0
  0
LINE
  5
57A
100
AcDbEntity
  8
ALPHA
100
AcDbLine
 10
59.940253
 20
83.797329
 30
0.0
 11
59.850253
 21
83.644138
 31
0.0
  0
LINE
  5
57B
100
AcDbEntity
  8
ALPHA
100
AcDbLine
 10
60.090253
 20
83.912223
 30
0.0
 11
59.940253
 21
83.797329
 31
0.0
  0
LINE
  5
57C
100
AcDbEntity
  8
ALPHA
100
AcDbLine
 10
60.240253
 20
83.950521
 30
0.0
 11
60.090253
 21
83.912223
 31
0.0
  0
LINE
  5
57D
100
AcDbEntity
  8
ALPHA
100
AcDbLine
 10
60.420253
 20
83.950521
 30
0.0
 11
60.240253
 21
83.950521
 31
0.0
  0
LINE
  5
57E
100
AcDbEntity
  8
ALPHA
100
AcDbLine
 10
60.570253
 20
83.912223
 30
0.0
 11
60.420253
 21
83.950521
 31
0.0
  0
LINE
  5
57F
100
AcDbEntity
  8
ALPHA
100
AcDbLine
 10
60.720253
 20
83.797329
 30
0.0
 11
60.570253
 21
83.912223
 31
0.0
  0
LINE
  5
580
100
AcDbEntity
  8
ALPHA
100
AcDbLine
 10
60.810253
 20
83.644138
 30
0.0
 11
60.720253
 21
83.797329
 31
0.0
  0
LINE
  5
581
100
AcDbEntity
  8
ALPHA
100
AcDbLine
 10
60.870253
 20
83.490947
 30
0.0
 11
60.810253
 21
83.644138
 31
0.0
  0
LINE
  5
582
100
AcDbEntity
  8
ALPHA
100
AcDbLine
 10
60.690253
 20
83.490947
 30
0.0
 11
60.870253
 21
83.490947
 31
0.0
  0
LINE
  5
583
100
AcDbEntity
  8
ALPHA
100
AcDbLine
 10
60.630253
 20
83.644138
 30
0.0
 11
60.690253
 21
83.490947
 31
0.0
  0
LINE
  5
584
100
AcDbEntity
  8
ALPHA
100
AcDbLine
 10
60.540253
 20
83.720734
 30
0.0
 11
60.630253
 21
83.644138
 31
0.0
  0
LINE
  5
585
100
AcDbEntity
  8
ALPHA
100
AcDbLine
 10
60.420253
 20
83.759032
 30
0.0
 11
60.540253
 21
83.720734
 31
0.0
  0
LINE
  5
586
100
AcDbEntity
  8
ALPHA
100
AcDbLine
 10
60.240253
 20
83.759032
 30
0.0
 11
60.420253
 21
83.759032
 31
0.0
  0
LINE
  5
587
100
AcDbEntity
  8
ALPHA
100
AcDbLine
 10
60.120253
 20
83.720734
 30
0.0
 11
60.240253
 21
83.759032
 31
0.0
  0
LINE
  5
588
100
AcDbEntity
  8
ALPHA
100
AcDbLine
 10
60.030253
 20
83.644138
 30
0.0
 11
60.120253
 21
83.720734
 31
0.0
  0
LINE
  5
589
100
AcDbEntity
  8
ALPHA
100
AcDbLine
 10
59.970253
 20
83.529244
 30
0.0
 11
60.030253
 21
83.644138
 31
0.0
  0
LINE
  5
58A
100
AcDbEntity
  8
ALPHA
100
AcDbLine
 10
59.940253
 20
83.414351
 30
0.0
 11
59.970253
 21
83.529244
 31
0.0
  0
LINE
  5
58B
100
AcDbEntity
  8
ALPHA
100
AcDbLine
 10
59.940253
 20
83.337755
 30
0.0
 11
59.940253
 21
83.414351
 31
0.0
  0
LINE
  5
58C
100
AcDbEntity
  8
ALPHA
100
AcDbLine
 10
59.970253
 20
83.222861
 30
0.0
 11
59.940253
 21
83.337755
 31
0.0
  0
LINE
  5
58D
100
AcDbEntity
  8
ALPHA
100
AcDbLine
 10
60.030253
 20
83.107968
 30
0.0
 11
59.970253
 21
83.222861
 31
0.0
  0
LINE
  5
58E
100
AcDbEntity
  8
ALPHA
100
AcDbLine
 10
60.120253
 20
83.031372
 30
0.0
 11
60.030253
 21
83.107968
 31
0.0
  0
LINE
  5
58F
100
AcDbEntity
  8
ALPHA
100
AcDbLine
 10
60.240253
 20
82.993074
 30
0.0
 11
60.120253
 21
83.031372
 31
0.0
  0
LINE
  5
590
100
AcDbEntity
  8
ALPHA
100
AcDbLine
 10
60.420253
 20
82.993074
 30
0.0
 11
60.240253
 21
82.993074
 31
0.0
  0
LINE
  5
591
100
AcDbEntity
  8
ALPHA
100
AcDbLine
 10
60.540253
 20
83.031372
 30
0.0
 11
60.420253
 21
82.993074
 31
0.0
  0
LINE
  5
592
100
AcDbEntity
  8
ALPHA
100
AcDbLine
 10
60.660253
 20
83.146265
 30
0.0
 11
60.540253
 21
83.031372
 31
0.0
  0
LINE
  5
593
100
AcDbEntity
  8
ALPHA
100
AcDbLine
 10
80.650253
 20
83.184563
 30
0.0
 11
81.160254
 21
83.184563
 31
0.0
  0
LINE
  5
594
100
AcDbEntity
  8
ALPHA
100
AcDbLine
 10
80.650253
 20
82.456904
 30
0.0
 11
80.650253
 21
83.184563
 31
0.0
  0
LINE
  5
595
100
AcDbEntity
  8
ALPHA
100
AcDbLine
 10
81.160254
 20
83.184563
 30
0.0
 11
80.650253
 21
82.456904
 31
0.0
  0
LINE
  5
596
100
AcDbEntity
  8
ALPHA
100
AcDbLine
 10
80.650253
 20
82.150521
 30
0.0
 11
80.470253
 21
82.150521
 31
0.0
  0
LINE
  5
597
100
AcDbEntity
  8
ALPHA
100
AcDbLine
 10
80.470253
 20
82.150521
 30
0.0
 11
80.470253
 21
83.184563
 31
0.0
  0
LINE
  5
598
100
AcDbEntity
  8
ALPHA
100
AcDbLine
 10
80.470253
 20
83.184563
 30
0.0
 11
80.170254
 21
83.184563
 31
0.0
  0
LINE
  5
599
100
AcDbEntity
  8
ALPHA
100
AcDbLine
 10
80.170254
 20
83.184563
 30
0.0
 11
80.170254
 21
83.414351
 31
0.0
  0
LINE
  5
59A
100
AcDbEntity
  8
ALPHA
100
AcDbLine
 10
80.170254
 20
83.414351
 30
0.0
 11
80.470253
 21
83.414351
 31
0.0
  0
LINE
  5
59B
100
AcDbEntity
  8
ALPHA
100
AcDbLine
 10
80.470253
 20
83.414351
 30
0.0
 11
80.470253
 21
83.950521
 31
0.0
  0
LINE
  5
59C
100
AcDbEntity
  8
ALPHA
100
AcDbLine
 10
80.470253
 20
83.950521
 30
0.0
 11
80.650253
 21
83.950521
 31
0.0
  0
LINE
  5
59D
100
AcDbEntity
  8
ALPHA
100
AcDbLine
 10
80.650253
 20
83.950521
 30
0.0
 11
80.650253
 21
83.414351
 31
0.0
  0
LINE
  5
59E
100
AcDbEntity
  8
ALPHA
100
AcDbLine
 10
80.650253
 20
83.414351
 30
0.0
 11
81.370253
 21
83.414351
 31
0.0
  0
LINE
  5
59F
100
AcDbEntity
  8
ALPHA
100
AcDbLine
 10
81.370253
 20
83.414351
 30
0.0
 11
81.370253
 21
83.184563
 31
0.0
  0
LINE
  5
5A0
100
AcDbEntity
  8
ALPHA
100
AcDbLine
 10
81.370253
 20
83.184563
 30
0.0
 11
80.650253
 21
82.150521
 31
0.0
  0
LINE
  5
5A1
100
AcDbEntity
  8
ALPHA
100
AcDbLine
 10
83.882754
 20
83.700521
 30
0.0
 11
84.326504
 21
83.700521
 31
0.0
  0
LINE
  5
5A2
100
AcDbEntity
  8
ALPHA
100
AcDbLine
 10
84.326504
 20
83.700521
 30
0.0
 11
84.326504
 21
81.626053
 31
0.0
  0
LINE
  5
5A3
100
AcDbEntity
  8
ALPHA
100
AcDbLine
 10
84.326504
 20
81.626053
 30
0.0
 11
84.770252
 21
81.998393
 31
0.0
  0
LINE
  5
5A4
100
AcDbEntity
  8
ALPHA
100
AcDbLine
 10
84.770252
 20
81.998393
 30
0.0
 11
84.770252
 21
81.572861
 31
0.0
  0
LINE
  5
5A5
100
AcDbEntity
  8
ALPHA
100
AcDbLine
 10
84.770252
 20
81.572861
 30
0.0
 11
84.326504
 21
81.200521
 31
0.0
  0
LINE
  5
5A6
100
AcDbEntity
  8
ALPHA
100
AcDbLine
 10
84.326504
 20
81.200521
 30
0.0
 11
83.882754
 21
81.200521
 31
0.0
  0
LINE
  5
5A7
100
AcDbEntity
  8
ALPHA
100
AcDbLine
 10
83.882754
 20
81.200521
 30
0.0
 11
83.882754
 21
83.700521
 31
0.0
  0
LINE
  5
5A8
100
AcDbEntity
  8
ALPHA
100
AcDbLine
 10
71.620253
 20
105.089544
 30
0.0
 11
70.508009
 21
105.089544
 31
0.0
  0
LINE
  5
5A9
100
AcDbEntity
  8
ALPHA
100
AcDbLine
 10
74.212183
 20
105.089544
 30
0.0
 11
73.120253
 21
105.089544
 31
0.0
  0
LINE
  5
5AA
100
AcDbEntity
  8
ALPHA
100
AcDbLine
 10
75.202715
 20
107.403842
 30
0.0
 11
75.092801
 21
107.403842
 31
0.0
  0
LINE
  5
5AB
100
AcDbEntity
  8
ALPHA
100
AcDbLine
 10
73.120253
 20
105.089544
 30
0.0
 11
73.120253
 21
105.219386
 31
0.0
  0
LINE
  5
5AC
100
AcDbEntity
  8
ALPHA
100
AcDbLine
 10
69.527511
 20
107.403842
 30
0.0
 11
69.644498
 21
107.403842
 31
0.0
  0
LINE
  5
5AD
100
AcDbEntity
  8
ALPHA
100
AcDbLine
 10
71.620253
 20
105.089544
 30
0.0
 11
71.620253
 21
105.224553
 31
0.0
  0
LWPOLYLINE
  5
5AE
100
AcDbEntity
  8
ALPHA
100
AcDbPolyline
 90
        7
 70
     0
 43
0.0
 10
71.620253
 20
105.089544
 10
71.625623
 20
105.045143
 10
71.642349
 20
105.003389
 10
71.670993
 20
104.967255
 10
71.710815
 20
104.940411
 10
71.760846
 20
104.925885
 10
71.78473
 20
104.924542
  0
LINE
  5
5B7
100
AcDbEntity
  8
ALPHA
100
AcDbLine
 10
71.870253
 20
104.935994
 30
0.0
 11
71.870253
 21
105.16132
 31
0.0
  0
LWPOLYLINE
  5
5B8
100
AcDbEntity
  8
ALPHA
100
AcDbPolyline
 90
        7
 70
     0
 43
0.0
 10
73.120253
 20
105.089544
 10
73.114884
 20
105.045143
 10
73.098157
 20
105.003389
 10
73.069513
 20
104.967255
 10
73.029691
 20
104.940411
 10
72.97966
 20
104.925885
 10
72.955776
 20
104.924542
  0
LINE
  5
5C1
100
AcDbEntity
  8
ALPHA
100
AcDbLine
 10
72.870253
 20
104.935994
 30
0.0
 11
72.870253
 21
105.165431
 31
0.0
  0
LINE
  5
5C2
100
AcDbEntity
  8
ALPHA
100
AcDbLine
 10
70.742172
 20
104.924273
 30
0.0
 11
71.785873
 21
104.924273
 31
0.0
  0
LINE
  5
5C3
100
AcDbEntity
  8
ALPHA
100
AcDbLine
 10
71.78473
 20
104.924542
 30
0.0
 11
71.820253
 21
104.927312
 31
0.0
  0
LINE
  5
5C4
100
AcDbEntity
  8
ALPHA
100
AcDbLine
 10
72.954633
 20
104.924273
 30
0.0
 11
73.992023
 21
104.924273
 31
0.0
  0
LINE
  5
5C5
100
AcDbEntity
  8
ALPHA
100
AcDbLine
 10
72.955776
 20
104.924542
 30
0.0
 11
72.920253
 21
104.927312
 31
0.0
  0
LINE
  5
5C6
100
AcDbEntity
  8
ALPHA
100
AcDbLine
 10
72.920253
 20
104.927312
 30
0.0
 11
72.870253
 21
104.935994
 31
0.0
  0
LINE
  5
5C7
100
AcDbEntity
  8
ALPHA
100
AcDbLine
 10
71.870253
 20
104.935994
 30
0.0
 11
72.870253
 21
104.935994
 31
0.0
  0
LINE
  5
5C8
100
AcDbEntity
  8
ALPHA
100
AcDbLine
 10
71.820253
 20
104.927312
 30
0.0
 11
71.870253
 21
104.935994
 31
0.0
  0
LINE
  5
5C9
100
AcDbEntity
  8
ALPHA
100
AcDbLine
 10
71.203527
 20
87.825434
 30
0.0
 11
71.870253
 21
88.457472
 31
0.0
  0
LWPOLYLINE
  5
5CA
100
AcDbEntity
  8
ALPHA
100
AcDbPolyline
 90
        3
 70
     0
 43
0.0
 10
72.695034
 20
91.266647
 10
72.71758
 20
91.266638
 10
72.740253
 20
91.266608
  0
LINE
  5
5CF
100
AcDbEntity
  8
ALPHA
100
AcDbLine
 10
73.536979
 20
87.825434
 30
0.0
 11
72.870253
 21
88.457472
 31
0.0
  0
LWPOLYLINE
  5
5D0
100
AcDbEntity
  8
ALPHA
100
AcDbPolyline
 90
        5
 70
     0
 43
0.0
 10
71.998113
 20
89.545056
 10
71.983873
 20
89.504985
 10
71.959885
 20
89.473845
 10
71.931142
 20
89.454141
 10
71.900253
 20
89.44541
  0
LINE
  5
5D7
100
AcDbEntity
  8
ALPHA
100
AcDbLine
 10
71.203527
 20
90.123436
 30
0.0
 11
71.870253
 21
89.442279
 31
0.0
  0
LINE
  5
5D8
100
AcDbEntity
  8
ALPHA
100
AcDbLine
 10
71.696325
 20
89.466839
 30
0.0
 11
71.870253
 21
89.442279
 31
0.0
  0
LWPOLYLINE
  5
5D9
100
AcDbEntity
  8
ALPHA
100
AcDbPolyline
 90
        5
 70
     0
 43
0.0
 10
71.38624
 20
89.182531
 10
71.48962
 20
89.14907
 10
71.587873
 20
89.117813
 10
71.681304
 20
89.088752
 10
71.770253
 20
89.061897
  0
LINE
  5
5E0
100
AcDbEntity
  8
ALPHA
100
AcDbLine
 10
71.770253
 20
89.182531
 30
0.0
 11
71.770253
 21
89.061897
 31
0.0
  0
LINE
  5
5E1
100
AcDbEntity
  8
ALPHA
100
AcDbLine
 10
71.770253
 20
89.182531
 30
0.0
 11
71.38624
 21
89.182531
 31
0.0
  0
LWPOLYLINE
  5
5E2
100
AcDbEntity
  8
ALPHA
100
AcDbPolyline
 90
        9
 70
     0
 43
0.0
 10
72.740253
 20
86.688879
 10
73.08258
 20
86.76889
 10
73.408948
 20
86.898337
 10
73.712039
 20
87.07432
 10
73.985067
 20
87.292905
 10
74.221918
 20
87.549211
 10
74.417213
 20
87.837405
 10
74.566695
 20
88.151238
 10
74.666572
 20
88.482031
  0
LWPOLYLINE
  5
5ED
100
AcDbEntity
  8
ALPHA
100
AcDbPolyline
 90
        5
 70
     0
 43
0.0
 10
72.840253
 20
89.44541
 10
72.80936
 20
89.454143
 10
72.780612
 20
89.473854
 10
72.756631
 20
89.50499
 10
72.742393
 20
89.545056
  0
LINE
  5
5F4
100
AcDbEntity
  8
ALPHA
100
AcDbLine
 10
72.870253
 20
89.442279
 30
0.0
 11
73.044182
 21
89.466839
 31
0.0
  0
LINE
  5
5F5
100
AcDbEntity
  8
ALPHA
100
AcDbLine
 10
72.840253
 20
89.44541
 30
0.0
 11
72.840253
 21
89.183413
 31
0.0
  0
LWPOLYLINE
  5
5F6
100
AcDbEntity
  8
ALPHA
100
AcDbPolyline
 90
        3
 70
     0
 43
0.0
 10
72.840253
 20
89.183413
 10
72.855219
 20
89.187013
 10
72.870253
 20
89.190687
  0
LINE
  5
5FB
100
AcDbEntity
  8
ALPHA
100
AcDbLine
 10
73.536979
 20
90.123436
 30
0.0
 11
72.870253
 21
89.442279
 31
0.0
  0
LINE
  5
5FC
100
AcDbEntity
  8
ALPHA
100
AcDbLine
 10
75.027382
 20
89.310556
 30
0.0
 11
72.870253
 21
89.310556
 31
0.0
  0
LWPOLYLINE
  5
5FD
100
AcDbEntity
  8
ALPHA
100
AcDbPolyline
 90
        4
 70
     0
 43
0.0
 10
74.971619
 20
89.419285
 10
74.99015
 20
89.383162
 10
75.008737
 20
89.346919
 10
75.027382
 20
89.310556
  0
LINE
  5
603
100
AcDbEntity
  8
ALPHA
100
AcDbLine
 10
72.870253
 20
89.442279
 30
0.0
 11
72.840253
 21
89.44541
 31
0.0
  0
LWPOLYLINE
  5
604
100
AcDbEntity
  8
ALPHA
100
AcDbPolyline
 90
        4
 70
     0
 43
0.0
 10
69.713125
 20
89.310556
 10
69.731769
 20
89.346918
 10
69.750356
 20
89.383161
 10
69.768887
 20
89.419285
  0
LINE
  5
60A
100
AcDbEntity
  8
ALPHA
100
AcDbLine
 10
71.870253
 20
89.310556
 30
0.0
 11
69.713125
 21
89.310556
 31
0.0
  0
LWPOLYLINE
  5
60B
100
AcDbEntity
  8
ALPHA
100
AcDbPolyline
 90
        3
 70
     0
 43
0.0
 10
71.870253
 20
89.190687
 10
71.885284
 20
89.187013
 10
71.900253
 20
89.183413
  0
LINE
  5
610
100
AcDbEntity
  8
ALPHA
100
AcDbLine
 10
71.900253
 20
89.44541
 30
0.0
 11
71.900253
 21
89.183413
 31
0.0
  0
LINE
  5
611
100
AcDbEntity
  8
ALPHA
100
AcDbLine
 10
71.900253
 20
89.44541
 30
0.0
 11
71.870253
 21
89.442279
 31
0.0
  0
LWPOLYLINE
  5
612
100
AcDbEntity
  8
ALPHA
100
AcDbPolyline
 90
        5
 70
     0
 43
0.0
 10
75.027382
 20
89.310556
 10
75.06231
 20
89.065649
 10
75.074016
 20
88.818152
 10
75.06231
 20
88.570655
 10
75.027382
 20
88.325748
  0
LWPOLYLINE
  5
619
100
AcDbEntity
  8
ALPHA
100
AcDbPolyline
 90
        6
 70
     0
 43
0.0
 10
71.870253
 20
89.281012
 10
71.865359
 20
89.250579
 10
71.851155
 20
89.223126
 10
71.829032
 20
89.201339
 10
71.801155
 20
89.187351
 10
71.770253
 20
89.182531
  0
LINE
  5
621
100
AcDbEntity
  8
ALPHA
100
AcDbLine
 10
72.970253
 20
89.182531
 30
0.0
 11
72.970253
 21
89.061897
 31
0.0
  0
LWPOLYLINE
  5
622
100
AcDbEntity
  8
ALPHA
100
AcDbPolyline
 90
        5
 70
     0
 43
0.0
 10
72.970253
 20
89.061897
 10
73.059078
 20
89.088714
 10
73.152468
 20
89.117761
 10
73.250762
 20
89.14903
 10
73.354267
 20
89.182531
  0
LINE
  5
629
100
AcDbEntity
  8
ALPHA
100
AcDbLine
 10
73.354267
 20
89.182531
 30
0.0
 11
72.970253
 21
89.182531
 31
0.0
  0
LWPOLYLINE
  5
62A
100
AcDbEntity
  8
ALPHA
100
AcDbPolyline
 90
        5
 70
     0
 43
0.0
 10
73.354267
 20
89.182531
 10
73.404577
 20
89.003326
 10
73.42153
 20
88.818152
 10
73.404577
 20
88.632978
 10
73.3622
 20
88.482031
  0
LWPOLYLINE
  5
631
100
AcDbEntity
  8
ALPHA
100
AcDbPolyline
 90
        6
 70
     0
 43
0.0
 10
72.970253
 20
89.182531
 10
72.939351
 20
89.187351
 10
72.911475
 20
89.201339
 10
72.889351
 20
89.223126
 10
72.875148
 20
89.250579
 10
72.870253
 20
89.281012
  0
LWPOLYLINE
  5
639
100
AcDbEntity
  8
ALPHA
100
AcDbPolyline
 90
        5
 70
     0
 43
0.0
 10
69.713125
 20
88.325748
 10
69.678196
 20
88.570655
 10
69.666491
 20
88.818152
 10
69.678196
 20
89.065649
 10
69.713125
 20
89.310556
  0
LWPOLYLINE
  5
640
100
AcDbEntity
  8
ALPHA
100
AcDbPolyline
 90
        5
 70
     0
 43
0.0
 10
71.378306
 20
88.482031
 10
71.335929
 20
88.632978
 10
71.318977
 20
88.818152
 10
71.335929
 20
89.003326
 10
71.38624
 20
89.182531
  0
LWPOLYLINE
  5
647
100
AcDbEntity
  8
ALPHA
100
AcDbPolyline
 90
        9
 70
     0
 43
0.0
 10
74.666572
 20
89.466839
 10
74.566695
 20
89.797632
 10
74.417213
 20
90.111466
 10
74.221918
 20
90.399659
 10
73.985067
 20
90.655965
 10
73.712039
 20
90.87455
 10
73.408948
 20
91.050534
 10
73.08258
 20
91.17998
 10
72.740253
 20
91.259991
  0
LWPOLYLINE
  5
652
100
AcDbEntity
  8
ALPHA
100
AcDbPolyline
 90
        4
 70
     0
 43
0.0
 10
72.370253
 20
87.782847
 10
72.244249
 20
87.79031
 10
72.120595
 20
87.812464
 10
72.000253
 20
87.849088
  0
LWPOLYLINE
  5
658
100
AcDbEntity
  8
ALPHA
100
AcDbPolyline
 90
        4
 70
     0
 43
0.0
 10
72.740253
 20
87.849088
 10
72.619911
 20
87.812464
 10
72.496257
 20
87.79031
 10
72.370253
 20
87.782847
  0
LINE
  5
65E
100
AcDbEntity
  8
ALPHA
100
AcDbLine
 10
72.740253
 20
86.848536
 30
0.0
 11
72.000253
 21
86.848536
 31
0.0
  0
LWPOLYLINE
  5
65F
100
AcDbEntity
  8
ALPHA
100
AcDbPolyline
 90
        4
 70
     0
 43
0.0
 10
72.000253
 20
89.787216
 10
72.120595
 20
89.823839
 10
72.244249
 20
89.845994
 10
72.370253
 20
89.853457
  0
LWPOLYLINE
  5
665
100
AcDbEntity
  8
ALPHA
100
AcDbPolyline
 90
        4
 70
     0
 43
0.0
 10
72.370253
 20
89.853457
 10
72.496257
 20
89.845994
 10
72.619911
 20
89.823839
 10
72.740253
 20
89.787216
  0
LINE
  5
66B
100
AcDbEntity
  8
ALPHA
100
AcDbLine
 10
72.740253
 20
90.787767
 30
0.0
 11
72.000253
 21
90.787767
 31
0.0
  0
LWPOLYLINE
  5
66C
100
AcDbEntity
  8
ALPHA
100
AcDbPolyline
 90
        7
 70
     0
 43
0.0
 10
74.666572
 20
89.466839
 10
74.741668
 20
89.465255
 10
74.813181
 20
89.460498
 10
74.874207
 20
89.453059
 10
74.922725
 20
89.443315
 10
74.956231
 20
89.431658
 10
74.971619
 20
89.419285
  0
LINE
  5
675
100
AcDbEntity
  8
ALPHA
100
AcDbLine
 10
72.045472
 20
91.266647
 30
0.0
 11
72.695034
 21
91.266647
 31
0.0
  0
LINE
  5
676
100
AcDbEntity
  8
ALPHA
100
AcDbLine
 10
72.045472
 20
86.682223
 30
0.0
 11
72.695034
 21
86.682223
 31
0.0
  0
LINE
  5
677
100
AcDbEntity
  8
ALPHA
100
AcDbLine
 10
71.696325
 20
89.466839
 30
0.0
 11
70.073934
 21
89.466839
 31
0.0
  0
LINE
  5
678
100
AcDbEntity
  8
ALPHA
100
AcDbLine
 10
71.203527
 20
90.123436
 30
0.0
 11
71.696325
 21
89.466839
 31
0.0
  0
LINE
  5
679
100
AcDbEntity
  8
ALPHA
100
AcDbLine
 10
71.98987
 20
89.551056
 30
0.0
 11
71.998113
 21
89.545056
 31
0.0
  0
LINE
  5
67A
100
AcDbEntity
  8
ALPHA
100
AcDbLine
 10
71.203527
 20
90.123436
 30
0.0
 11
71.98987
 21
89.551056
 31
0.0
  0
LWPOLYLINE
  5
67B
100
AcDbEntity
  8
ALPHA
100
AcDbPolyline
 90
        3
 70
     0
 43
0.0
 10
72.000253
 20
89.56532
 10
71.999702
 20
89.554993
 10
71.998113
 20
89.545056
  0
LWPOLYLINE
  5
680
100
AcDbEntity
  8
ALPHA
100
AcDbPolyline
 90
       10
 70
     0
 43
0.0
 10
72.000253
 20
89.288403
 10
71.998865
 20
89.267409
 10
71.995116
 20
89.248916
 10
71.987868
 20
89.229238
 10
71.978283
 20
89.212985
 10
71.964918
 20
89.198426
 10
71.950139
 20
89.188569
 10
71.933213
 20
89.182674
 10
71.917885
 20
89.181197
 10
71.900253
 20
89.183413
  0
LINE
  5
68C
100
AcDbEntity
  8
ALPHA
100
AcDbLine
 10
71.203527
 20
87.825434
 30
0.0
 11
71.998113
 21
88.403815
 31
0.0
  0
LINE
  5
68D
100
AcDbEntity
  8
ALPHA
100
AcDbLine
 10
71.203527
 20
87.825434
 30
0.0
 11
71.696325
 21
88.482031
 31
0.0
  0
LWPOLYLINE
  5
68E
100
AcDbEntity
  8
ALPHA
100
AcDbPolyline
 90
        7
 70
     0
 43
0.0
 10
69.768887
 20
89.419285
 10
69.784276
 20
89.431658
 10
69.817782
 20
89.443315
 10
69.8663
 20
89.453059
 10
69.927325
 20
89.460498
 10
69.998838
 20
89.465255
 10
70.073934
 20
89.466839
  0
LWPOLYLINE
  5
697
100
AcDbEntity
  8
ALPHA
100
AcDbPolyline
 90
        3
 70
     0
 43
0.0
 10
72.742393
 20
89.545056
 10
72.740805
 20
89.554993
 10
72.740253
 20
89.56532
  0
LINE
  5
69C
100
AcDbEntity
  8
ALPHA
100
AcDbLine
 10
72.750636
 20
89.551056
 30
0.0
 11
72.742393
 21
89.545056
 31
0.0
  0
LINE
  5
69D
100
AcDbEntity
  8
ALPHA
100
AcDbLine
 10
73.536979
 20
90.123436
 30
0.0
 11
72.750636
 21
89.551056
 31
0.0
  0
LWPOLYLINE
  5
69E
100
AcDbEntity
  8
ALPHA
100
AcDbPolyline
 90
        4
 70
     0
 43
0.0
 10
74.670162
 20
90.221266
 10
74.699057
 20
90.17015
 10
74.864642
 20
89.805034
 10
74.971619
 20
89.419285
  0
LINE
  5
6A4
100
AcDbEntity
  8
ALPHA
100
AcDbLine
 10
73.536979
 20
90.123436
 30
0.0
 11
73.044182
 21
89.466839
 31
0.0
  0
LINE
  5
6A5
100
AcDbEntity
  8
ALPHA
100
AcDbLine
 10
74.666572
 20
89.466839
 30
0.0
 11
73.044182
 21
89.466839
 31
0.0
  0
LWPOLYLINE
  5
6A6
100
AcDbEntity
  8
ALPHA
100
AcDbPolyline
 90
        9
 70
     0
 43
0.0
 10
72.000253
 20
91.259991
 10
71.657926
 20
91.17998
 10
71.331559
 20
91.050534
 10
71.028467
 20
90.87455
 10
70.755439
 20
90.655965
 10
70.518589
 20
90.399659
 10
70.323293
 20
90.111466
 10
70.173811
 20
89.797632
 10
70.073934
 20
89.466839
  0
LINE
  5
6B1
100
AcDbEntity
  8
ALPHA
100
AcDbLine
 10
73.536979
 20
87.825434
 30
0.0
 11
73.044182
 21
88.482031
 31
0.0
  0
LINE
  5
6B2
100
AcDbEntity
  8
ALPHA
100
AcDbLine
 10
73.536979
 20
87.825434
 30
0.0
 11
72.742393
 21
88.403815
 31
0.0
  0
LWPOLYLINE
  5
6B3
100
AcDbEntity
  8
ALPHA
100
AcDbPolyline
 90
       10
 70
     0
 43
0.0
 10
71.870253
 20
89.153869
 10
71.868725
 20
89.133002
 10
71.864773
 20
89.115514
 10
71.857018
 20
89.096945
 10
71.846542
 20
89.08185
 10
71.832708
 20
89.069648
 10
71.818395
 20
89.062379
 10
71.8019
 20
89.058629
 10
71.786903
 20
89.058616
 10
71.770253
 20
89.061897
  0
LWPOLYLINE
  5
6BF
100
AcDbEntity
  8
ALPHA
100
AcDbPolyline
 90
        3
 70
     0
 43
0.0
 10
72.740253
 20
86.682237
 10
72.71758
 20
86.682226
 10
72.695034
 20
86.682223
  0
LWPOLYLINE
  5
6C4
100
AcDbEntity
  8
ALPHA
100
AcDbPolyline
 90
        3
 70
     0
 43
0.0
 10
72.045472
 20
86.682223
 10
72.370253
 20
86.660016
 10
72.695034
 20
86.682223
  0
LWPOLYLINE
  5
6C9
100
AcDbEntity
  8
ALPHA
100
AcDbPolyline
 90
       10
 70
     0
 43
0.0
 10
72.981661
 20
88.473203
 10
73.003956
 20
88.535952
 10
73.020253
 20
88.678394
 10
73.003956
 20
88.820835
 10
72.955883
 20
88.956133
 10
72.878444
 20
89.077505
 10
72.775522
 20
89.178863
 10
72.652278
 20
89.255126
 10
72.514892
 20
89.302469
 10
72.370253
 20
89.318519
  0
LWPOLYLINE
  5
6D5
100
AcDbEntity
  8
ALPHA
100
AcDbPolyline
 90
        4
 70
     0
 43
0.0
 10
72.370253
 20
88.038269
 10
72.514892
 20
88.054318
 10
72.652278
 20
88.101661
 10
72.740253
 20
88.1561
  0
LWPOLYLINE
  5
6DB
100
AcDbEntity
  8
ALPHA
100
AcDbPolyline
 90
        3
 70
     0
 43
0.0
 10
72.045472
 20
86.682223
 10
72.022925
 20
86.682226
 10
72.000253
 20
86.682237
  0
LWPOLYLINE
  5
6E0
100
AcDbEntity
  8
ALPHA
100
AcDbPolyline
 90
       10
 70
     0
 43
0.0
 10
72.970253
 20
89.061897
 10
72.95365
 20
89.058621
 10
72.938613
 20
89.058629
 10
72.922048
 20
89.062402
 10
72.907712
 20
89.069706
 10
72.893975
 20
89.081838
 10
72.883585
 20
89.096768
 10
72.875841
 20
89.115168
 10
72.87182
 20
89.132746
 10
72.870253
 20
89.153869
  0
LWPOLYLINE
  5
6EC
100
AcDbEntity
  8
ALPHA
100
AcDbPolyline
 90
       10
 70
     0
 43
0.0
 10
72.840253
 20
89.183413
 10
72.822839
 20
89.1812
 10
72.807602
 20
89.18261
 10
72.790536
 20
89.188485
 10
72.7756
 20
89.198416
 10
72.762154
 20
89.21308
 10
72.752604
 20
89.229311
 10
72.745393
 20
89.248908
 10
72.741649
 20
89.267351
 10
72.740253
 20
89.288403
  0
LWPOLYLINE
  5
6F8
100
AcDbEntity
  8
ALPHA
100
AcDbPolyline
 90
       10
 70
     0
 43
0.0
 10
71.758846
 20
88.473203
 10
71.73655
 20
88.535952
 10
71.720253
 20
88.678394
 10
71.73655
 20
88.820835
 10
71.784623
 20
88.956133
 10
71.862063
 20
89.077505
 10
71.964985
 20
89.178863
 10
72.088229
 20
89.255126
 10
72.225615
 20
89.302469
 10
72.370253
 20
89.318519
  0
LWPOLYLINE
  5
704
100
AcDbEntity
  8
ALPHA
100
AcDbPolyline
 90
        4
 70
     0
 43
0.0
 10
72.370253
 20
88.038269
 10
72.225615
 20
88.054318
 10
72.088229
 20
88.101661
 10
72.000253
 20
88.1561
  0
LWPOLYLINE
  5
70A
100
AcDbEntity
  8
ALPHA
100
AcDbPolyline
 90
        3
 70
     0
 43
0.0
 10
72.000253
 20
91.266608
 10
72.022925
 20
91.266638
 10
72.045472
 20
91.266647
  0
LWPOLYLINE
  5
70F
100
AcDbEntity
  8
ALPHA
100
AcDbPolyline
 90
        9
 70
     0
 43
0.0
 10
70.073934
 20
88.482031
 10
70.173811
 20
88.151238
 10
70.323293
 20
87.837405
 10
70.518589
 20
87.549211
 10
70.755439
 20
87.292905
 10
71.028467
 20
87.07432
 10
71.331559
 20
86.898337
 10
71.657926
 20
86.76889
 10
72.000253
 20
86.688879
  0
LWPOLYLINE
  5
71A
100
AcDbEntity
  8
ALPHA
100
AcDbPolyline
 90
        3
 70
     0
 43
0.0
 10
72.695034
 20
91.266647
 10
72.370253
 20
91.288855
 10
72.045472
 20
91.266647
  0
LWPOLYLINE
  5
71F
100
AcDbEntity
  8
ALPHA
100
AcDbPolyline
 90
        3
 70
     0
 43
0.0
 10
69.768887
 20
88.434477
 10
69.875864
 20
88.048728
 10
69.972405
 20
87.835856
  0
LWPOLYLINE
  5
724
100
AcDbEntity
  8
ALPHA
100
AcDbPolyline
 90
        3
 70
     0
 43
0.0
 10
74.971619
 20
88.434477
 10
74.864642
 20
88.048728
 10
74.768367
 20
87.836442
  0
LWPOLYLINE
  5
729
100
AcDbEntity
  8
ALPHA
100
AcDbPolyline
 90
        4
 70
     0
 43
0.0
 10
70.070344
 20
90.221266
 10
70.041449
 20
90.17015
 10
69.875864
 20
89.805034
 10
69.768887
 20
89.419285
  0
LINE
  5
72F
100
AcDbEntity
  8
ALPHA
100
AcDbLine
 10
71.870253
 20
88.457472
 30
0.0
 11
71.696325
 21
88.482031
 31
0.0
  0
LWPOLYLINE
  5
730
100
AcDbEntity
  8
ALPHA
100
AcDbPolyline
 90
        5
 70
     0
 43
0.0
 10
71.900253
 20
88.460603
 10
71.931146
 20
88.4597
 10
71.959894
 20
88.450182
 10
71.983875
 20
88.431233
 10
71.998113
 20
88.403815
  0
LWPOLYLINE
  5
737
100
AcDbEntity
  8
ALPHA
100
AcDbPolyline
 90
        5
 70
     0
 43
0.0
 10
72.742393
 20
88.403815
 10
72.756634
 20
88.431236
 10
72.780618
 20
88.450184
 10
72.809361
 20
88.459701
 10
72.840253
 20
88.460603
  0
LINE
  5
73E
100
AcDbEntity
  8
ALPHA
100
AcDbLine
 10
73.044182
 20
88.482031
 30
0.0
 11
72.870253
 21
88.457472
 31
0.0
  0
LINE
  5
73F
100
AcDbEntity
  8
ALPHA
100
AcDbLine
 10
71.870253
 20
89.190687
 30
0.0
 11
71.870253
 21
89.153869
 31
0.0
  0
LINE
  5
740
100
AcDbEntity
  8
ALPHA
100
AcDbLine
 10
71.870253
 20
89.281012
 30
0.0
 11
71.870253
 21
89.190687
 31
0.0
  0
LINE
  5
741
100
AcDbEntity
  8
ALPHA
100
AcDbLine
 10
71.870253
 20
89.310556
 30
0.0
 11
71.870253
 21
89.281012
 31
0.0
  0
LINE
  5
742
100
AcDbEntity
  8
ALPHA
100
AcDbLine
 10
72.000253
 20
89.545056
 30
0.0
 11
72.000253
 21
89.288403
 31
0.0
  0
LINE
  5
743
100
AcDbEntity
  8
ALPHA
100
AcDbLine
 10
72.870253
 20
89.190687
 30
0.0
 11
72.870253
 21
89.153869
 31
0.0
  0
LINE
  5
744
100
AcDbEntity
  8
ALPHA
100
AcDbLine
 10
72.870253
 20
89.281012
 30
0.0
 11
72.870253
 21
89.190687
 31
0.0
  0
LINE
  5
745
100
AcDbEntity
  8
ALPHA
100
AcDbLine
 10
72.870253
 20
89.281012
 30
0.0
 11
72.870253
 21
89.310556
 31
0.0
  0
LINE
  5
746
100
AcDbEntity
  8
ALPHA
100
AcDbLine
 10
72.740253
 20
88.106634
 30
0.0
 11
72.740253
 21
86.688879
 31
0.0
  0
LINE
  5
747
100
AcDbEntity
  8
ALPHA
100
AcDbLine
 10
72.740253
 20
88.383551
 30
0.0
 11
72.740253
 21
88.106634
 31
0.0
  0
LINE
  5
748
100
AcDbEntity
  8
ALPHA
100
AcDbLine
 10
72.740253
 20
89.545056
 30
0.0
 11
72.740253
 21
89.288403
 31
0.0
  0
LINE
  5
749
100
AcDbEntity
  8
ALPHA
100
AcDbLine
 10
72.740253
 20
91.259991
 30
0.0
 11
72.740253
 21
89.56532
 31
0.0
  0
LINE
  5
74A
100
AcDbEntity
  8
ALPHA
100
AcDbLine
 10
72.000253
 20
86.688879
 30
0.0
 11
72.000253
 21
88.383551
 31
0.0
  0
LINE
  5
74B
100
AcDbEntity
  8
ALPHA
100
AcDbLine
 10
72.000253
 20
89.56532
 30
0.0
 11
72.000253
 21
91.259991
 31
0.0
  0
LINE
  5
74C
100
AcDbEntity
  8
ALPHA
100
AcDbLine
 10
74.670162
 20
90.221266
 30
0.0
 11
74.80128
 21
89.995317
 31
0.0
  0
LWPOLYLINE
  5
74D
100
AcDbEntity
  8
ALPHA
100
AcDbPolyline
 90
        4
 70
     0
 43
0.0
 10
69.768887
 20
88.434477
 10
69.750357
 20
88.398354
 10
69.731769
 20
88.362111
 10
69.713125
 20
88.325748
  0
LINE
  5
753
100
AcDbEntity
  8
ALPHA
100
AcDbLine
 10
71.870253
 20
88.457472
 30
0.0
 11
71.900253
 21
88.460603
 31
0.0
  0
LWPOLYLINE
  5
754
100
AcDbEntity
  8
ALPHA
100
AcDbPolyline
 90
        4
 70
     0
 43
0.0
 10
75.027382
 20
88.325748
 10
75.008738
 20
88.36211
 10
74.99015
 20
88.398353
 10
74.971619
 20
88.434477
  0
LWPOLYLINE
  5
75A
100
AcDbEntity
  8
ALPHA
100
AcDbPolyline
 90
        3
 70
     0
 43
0.0
 10
75.146933
 20
88.918947
 10
75.170253
 20
88.627139
 10
75.168553
 20
88.60587
  0
LWPOLYLINE
  5
75F
100
AcDbEntity
  8
ALPHA
100
AcDbPolyline
 90
        5
 70
     0
 43
0.0
 10
74.801329
 20
89.995175
 10
74.865071
 20
89.879
 10
75.033211
 20
89.479241
 10
75.135781
 20
89.058501
 10
75.146933
 20
88.918947
  0
LINE
  5
766
100
AcDbEntity
  8
ALPHA
100
AcDbLine
 10
72.840253
 20
88.460603
 30
0.0
 11
72.870253
 21
88.457472
 31
0.0
  0
LWPOLYLINE
  5
767
100
AcDbEntity
  8
ALPHA
100
AcDbPolyline
 90
       15
 70
     0
 43
0.0
 10
70.070415
 20
90.221387
 10
70.270199
 20
90.517029
 10
70.545654
 20
90.818434
 10
70.865067
 20
91.074148
 10
71.220952
 20
91.278115
 10
71.60455
 20
91.425258
 10
72.00662
 20
91.512033
 10
72.417486
 20
91.536345
 10
72.827174
 20
91.497609
 10
73.225718
 20
91.396805
 10
73.603608
 20
91.236377
 10
73.951687
 20
91.020251
 10
74.261548
 20
90.753725
 10
74.525898
 20
90.443125
 10
74.670095
 20
90.221381
  0
LINE
  5
778
100
AcDbEntity
  8
ALPHA
100
AcDbLine
 10
70.070344
 20
90.221266
 30
0.0
 11
69.939227
 21
89.995317
 31
0.0
  0
LWPOLYLINE
  5
779
100
AcDbEntity
  8
ALPHA
100
AcDbPolyline
 90
        3
 70
     0
 43
0.0
 10
69.570253
 20
88.62714
 10
69.570253
 20
88.627139
 10
69.575424
 20
88.562442
  0
LWPOLYLINE
  5
77E
100
AcDbEntity
  8
ALPHA
100
AcDbPolyline
 90
        5
 70
     0
 43
0.0
 10
69.939177
 20
89.995175
 10
69.875435
 20
89.879
 10
69.707295
 20
89.479241
 10
69.604726
 20
89.058501
 10
69.570253
 20
88.62714
  0
LWPOLYLINE
  5
785
100
AcDbEntity
  8
ALPHA
100
AcDbPolyline
 90
        3
 70
     0
 43
0.0
 10
72.740253
 20
88.383551
 10
72.740805
 20
88.393878
 10
72.742393
 20
88.403815
  0
LWPOLYLINE
  5
78A
100
AcDbEntity
  8
ALPHA
100
AcDbPolyline
 90
        3
 70
     0
 43
0.0
 10
71.998113
 20
88.403815
 10
71.999702
 20
88.393878
 10
72.000253
 20
88.383551
  0
LINE
  5
78F
100
AcDbEntity
  8
ALPHA
100
AcDbLine
 10
71.696325
 20
88.482031
 30
0.0
 11
70.073934
 21
88.482031
 31
0.0
  0
LINE
  5
790
100
AcDbEntity
  8
ALPHA
100
AcDbLine
 10
74.666572
 20
88.482031
 30
0.0
 11
73.044182
 21
88.482031
 31
0.0
  0
LINE
  5
791
100
AcDbEntity
  8
ALPHA
100
AcDbLine
 10
72.000253
 20
89.545056
 30
0.0
 11
72.000253
 21
89.288403
 31
0.0
  0
LINE
  5
792
100
AcDbEntity
  8
ALPHA
100
AcDbLine
 10
72.000253
 20
86.682237
 30
0.0
 11
72.000253
 21
86.688879
 31
0.0
  0
LWPOLYLINE
  5
793
100
AcDbEntity
  8
ALPHA
100
AcDbPolyline
 90
        7
 70
     0
 43
0.0
 10
70.073934
 20
88.482031
 10
69.998838
 20
88.480447
 10
69.927325
 20
88.47569
 10
69.8663
 20
88.468251
 10
69.817782
 20
88.458507
 10
69.784276
 20
88.44685
 10
69.768887
 20
88.434477
  0
LWPOLYLINE
  5
79C
100
AcDbEntity
  8
ALPHA
100
AcDbPolyline
 90
        7
 70
     0
 43
0.0
 10
74.971619
 20
88.434477
 10
74.956231
 20
88.44685
 10
74.922725
 20
88.458507
 10
74.874207
 20
88.468251
 10
74.813181
 20
88.47569
 10
74.741668
 20
88.480447
 10
74.666572
 20
88.482031
  0
LINE
  5
7A5
100
AcDbEntity
  8
ALPHA
100
AcDbLine
 10
72.740253
 20
86.688879
 30
0.0
 11
72.740253
 21
86.682237
 31
0.0
  0
LINE
  5
7A6
100
AcDbEntity
  8
ALPHA
100
AcDbLine
 10
72.000253
 20
91.259991
 30
0.0
 11
72.000253
 21
91.266608
 31
0.0
  0
LINE
  5
7A7
100
AcDbEntity
  8
ALPHA
100
AcDbLine
 10
72.740253
 20
91.266608
 30
0.0
 11
72.740253
 21
91.259991
 31
0.0
  0
LINE
  5
7A8
100
AcDbEntity
  8
ALPHA
100
AcDbLine
 10
71.870253
 20
89.190687
 30
0.0
 11
71.870253
 21
89.153869
 31
0.0
  0
LINE
  5
7A9
100
AcDbEntity
  8
ALPHA
100
AcDbLine
 10
71.870253
 20
89.281012
 30
0.0
 11
71.870253
 21
89.190687
 31
0.0
  0
LINE
  5
7AA
100
AcDbEntity
  8
ALPHA
100
AcDbLine
 10
69.570253
 20
88.62714
 30
0.0
 11
69.572398
 21
88.570114
 31
0.0
  0
LINE
  5
7AB
100
AcDbEntity
  8
ALPHA
100
AcDbLine
 10
69.650066
 20
89.244489
 30
0.0
 11
69.618519
 21
89.244489
 31
0.0
  0
LINE
  5
7AC
100
AcDbEntity
  8
ALPHA
100
AcDbLine
 10
75.121987
 20
89.244489
 30
0.0
 11
75.09044
 21
89.244489
 31
0.0
  0
LWPOLYLINE
  5
7AD
100
AcDbEntity
  8
ALPHA
100
AcDbPolyline
 90
        4
 70
     0
 43
0.0
 10
75.121987
 20
89.244489
 10
75.114078
 20
89.291397
 10
75.105536
 20
89.338464
 10
75.096361
 20
89.385682
  0
LWPOLYLINE
  5
7B3
100
AcDbEntity
  8
ALPHA
100
AcDbPolyline
 90
        3
 70
     0
 43
0.0
 10
74.697988
 20
90.241825
 10
74.544494
 20
90.451244
 10
74.37011
 20
90.62617
  0
LWPOLYLINE
  5
7B8
100
AcDbEntity
  8
ALPHA
100
AcDbPolyline
 90
        4
 70
     0
 43
0.0
 10
75.096361
 20
89.385682
 10
74.969515
 20
89.766388
 10
74.783675
 20
90.124919
 10
74.697988
 20
90.241825
  0
LWPOLYLINE
  5
7BE
100
AcDbEntity
  8
ALPHA
100
AcDbPolyline
 90
        4
 70
     0
 43
0.0
 10
70.042391
 20
90.241776
 10
69.957845
 20
90.126549
 10
69.77173
 20
89.768132
 10
69.644146
 20
89.385682
  0
LWPOLYLINE
  5
7C4
100
AcDbEntity
  8
ALPHA
100
AcDbPolyline
 90
        3
 70
     0
 43
0.0
 10
70.365861
 20
90.621703
 10
70.196524
 20
90.45184
 10
70.042391
 20
90.241776
  0
LWPOLYLINE
  5
7C9
100
AcDbEntity
  8
ALPHA
100
AcDbPolyline
 90
        4
 70
     0
 43
0.0
 10
69.644146
 20
89.385682
 10
69.63497
 20
89.338464
 10
69.626428
 20
89.291397
 10
69.618519
 20
89.244489
  0
LWPOLYLINE
  5
7CF
100
AcDbEntity
  8
ALPHA
100
AcDbPolyline
 90
        3
 70
     0
 43
0.0
 10
75.159735
 20
88.91997
 10
75.144351
 20
89.083435
 10
75.121987
 20
89.244489
  0
LWPOLYLINE
  5
7D4
100
AcDbEntity
  8
ALPHA
100
AcDbPolyline
 90
        3
 70
     0
 43
0.0
 10
69.618519
 20
89.244489
 10
69.582213
 20
88.939172
 10
69.570253
 20
88.62714
  0
LINE
  5
7D9
100
AcDbEntity
  8
ALPHA
100
AcDbLine
 10
73.536979
 20
108.822599
 30
0.0
 11
72.870253
 21
108.190561
 31
0.0
  0
LWPOLYLINE
  5
7DA
100
AcDbEntity
  8
ALPHA
100
AcDbPolyline
 90
        3
 70
     0
 43
0.0
 10
72.045472
 20
105.381385
 10
72.022927
 20
105.381395
 10
72.000253
 20
105.381425
  0
LINE
  5
7DF
100
AcDbEntity
  8
ALPHA
100
AcDbLine
 10
71.203527
 20
108.822599
 30
0.0
 11
71.870253
 21
108.190561
 31
0.0
  0
LWPOLYLINE
  5
7E0
100
AcDbEntity
  8
ALPHA
100
AcDbPolyline
 90
        5
 70
     0
 43
0.0
 10
72.742393
 20
107.102977
 10
72.756634
 20
107.143048
 10
72.780621
 20
107.174187
 10
72.809364
 20
107.193892
 10
72.840253
 20
107.202622
  0
LINE
  5
7E7
100
AcDbEntity
  8
ALPHA
100
AcDbLine
 10
73.536979
 20
106.524597
 30
0.0
 11
72.870253
 21
107.205753
 31
0.0
  0
LINE
  5
7E8
100
AcDbEntity
  8
ALPHA
100
AcDbLine
 10
73.044182
 20
107.181194
 30
0.0
 11
72.870253
 21
107.205753
 31
0.0
  0
LWPOLYLINE
  5
7E9
100
AcDbEntity
  8
ALPHA
100
AcDbPolyline
 90
        5
 70
     0
 43
0.0
 10
73.354267
 20
107.465502
 10
73.250886
 20
107.498963
 10
73.152634
 20
107.530219
 10
73.059203
 20
107.559281
 10
72.970253
 20
107.586136
  0
LINE
  5
7F0
100
AcDbEntity
  8
ALPHA
100
AcDbLine
 10
72.970253
 20
107.465502
 30
0.0
 11
72.970253
 21
107.586136
 31
0.0
  0
LINE
  5
7F1
100
AcDbEntity
  8
ALPHA
100
AcDbLine
 10
72.970253
 20
107.465502
 30
0.0
 11
73.354267
 21
107.465502
 31
0.0
  0
LWPOLYLINE
  5
7F2
100
AcDbEntity
  8
ALPHA
100
AcDbPolyline
 90
        3
 70
     0
 43
0.0
 10
70.185741
 20
108.521841
 10
70.173811
 20
108.496795
 10
70.073934
 20
108.166001
  0
LWPOLYLINE
  5
7F7
100
AcDbEntity
  8
ALPHA
100
AcDbPolyline
 90
        5
 70
     0
 43
0.0
 10
71.900253
 20
107.202622
 10
71.931146
 20
107.19389
 10
71.959894
 20
107.174179
 10
71.983875
 20
107.143043
 10
71.998113
 20
107.102977
  0
LINE
  5
7FE
100
AcDbEntity
  8
ALPHA
100
AcDbLine
 10
71.870253
 20
107.205753
 30
0.0
 11
71.696325
 21
107.181194
 31
0.0
  0
LINE
  5
7FF
100
AcDbEntity
  8
ALPHA
100
AcDbLine
 10
71.900253
 20
107.202622
 30
0.0
 11
71.900253
 21
107.46462
 31
0.0
  0
LWPOLYLINE
  5
800
100
AcDbEntity
  8
ALPHA
100
AcDbPolyline
 90
        3
 70
     0
 43
0.0
 10
71.900253
 20
107.46462
 10
71.885288
 20
107.46102
 10
71.870253
 20
107.457346
  0
LINE
  5
805
100
AcDbEntity
  8
ALPHA
100
AcDbLine
 10
71.203527
 20
106.524597
 30
0.0
 11
71.870253
 21
107.205753
 31
0.0
  0
LINE
  5
806
100
AcDbEntity
  8
ALPHA
100
AcDbLine
 10
69.713125
 20
107.337477
 30
0.0
 11
71.870253
 21
107.337477
 31
0.0
  0
LWPOLYLINE
  5
807
100
AcDbEntity
  8
ALPHA
100
AcDbPolyline
 90
        4
 70
     0
 43
0.0
 10
69.768887
 20
107.228748
 10
69.750357
 20
107.264871
 10
69.731769
 20
107.301114
 10
69.713125
 20
107.337477
  0
LINE
  5
80D
100
AcDbEntity
  8
ALPHA
100
AcDbLine
 10
71.870253
 20
107.205753
 30
0.0
 11
71.900253
 21
107.202622
 31
0.0
  0
LWPOLYLINE
  5
80E
100
AcDbEntity
  8
ALPHA
100
AcDbPolyline
 90
        4
 70
     0
 43
0.0
 10
75.027382
 20
107.337477
 10
75.008738
 20
107.301115
 10
74.99015
 20
107.264872
 10
74.971619
 20
107.228748
  0
LINE
  5
814
100
AcDbEntity
  8
ALPHA
100
AcDbLine
 10
72.870253
 20
107.337477
 30
0.0
 11
75.027382
 21
107.337477
 31
0.0
  0
LWPOLYLINE
  5
815
100
AcDbEntity
  8
ALPHA
100
AcDbPolyline
 90
        3
 70
     0
 43
0.0
 10
72.870253
 20
107.457346
 10
72.855223
 20
107.461019
 10
72.840253
 20
107.46462
  0
LINE
  5
81A
100
AcDbEntity
  8
ALPHA
100
AcDbLine
 10
72.840253
 20
107.202622
 30
0.0
 11
72.840253
 21
107.46462
 31
0.0
  0
LINE
  5
81B
100
AcDbEntity
  8
ALPHA
100
AcDbLine
 10
72.840253
 20
107.202622
 30
0.0
 11
72.870253
 21
107.205753
 31
0.0
  0
LWPOLYLINE
  5
81C
100
AcDbEntity
  8
ALPHA
100
AcDbPolyline
 90
        3
 70
     0
 43
0.0
 10
69.713125
 20
107.337477
 10
69.678196
 20
107.582384
 10
69.669844
 20
107.758969
  0
LWPOLYLINE
  5
821
100
AcDbEntity
  8
ALPHA
100
AcDbPolyline
 90
        6
 70
     0
 43
0.0
 10
72.870253
 20
107.367021
 10
72.875148
 20
107.397454
 10
72.889351
 20
107.424907
 10
72.911475
 20
107.446694
 10
72.939351
 20
107.460682
 10
72.970253
 20
107.465502
  0
LINE
  5
829
100
AcDbEntity
  8
ALPHA
100
AcDbLine
 10
71.770253
 20
107.465502
 30
0.0
 11
71.770253
 21
107.586136
 31
0.0
  0
LWPOLYLINE
  5
82A
100
AcDbEntity
  8
ALPHA
100
AcDbPolyline
 90
        5
 70
     0
 43
0.0
 10
71.770253
 20
107.586136
 10
71.681429
 20
107.559319
 10
71.588038
 20
107.530272
 10
71.489744
 20
107.499002
 10
71.38624
 20
107.465502
  0
LINE
  5
831
100
AcDbEntity
  8
ALPHA
100
AcDbLine
 10
71.38624
 20
107.465502
 30
0.0
 11
71.770253
 21
107.465502
 31
0.0
  0
LWPOLYLINE
  5
832
100
AcDbEntity
  8
ALPHA
100
AcDbPolyline
 90
        5
 70
     0
 43
0.0
 10
71.38624
 20
107.465502
 10
71.335929
 20
107.644707
 10
71.318977
 20
107.829881
 10
71.335929
 20
108.015055
 10
71.378306
 20
108.166001
  0
LWPOLYLINE
  5
839
100
AcDbEntity
  8
ALPHA
100
AcDbPolyline
 90
        6
 70
     0
 43
0.0
 10
71.770253
 20
107.465502
 10
71.801155
 20
107.460682
 10
71.829032
 20
107.446694
 10
71.851155
 20
107.424907
 10
71.865359
 20
107.397454
 10
71.870253
 20
107.367021
  0
LWPOLYLINE
  5
841
100
AcDbEntity
  8
ALPHA
100
AcDbPolyline
 90
        3
 70
     0
 43
0.0
 10
75.070574
 20
107.757119
 10
75.06231
 20
107.582384
 10
75.027382
 20
107.337477
  0
LWPOLYLINE
  5
846
100
AcDbEntity
  8
ALPHA
100
AcDbPolyline
 90
        5
 70
     0
 43
0.0
 10
73.3622
 20
108.166001
 10
73.404577
 20
108.015055
 10
73.42153
 20
107.829881
 10
73.404577
 20
107.644707
 10
73.354267
 20
107.465502
  0
LWPOLYLINE
  5
84D
100
AcDbEntity
  8
ALPHA
100
AcDbPolyline
 90
        9
 70
     0
 43
0.0
 10
70.073934
 20
107.181194
 10
70.173811
 20
106.850401
 10
70.323293
 20
106.536567
 10
70.518589
 20
106.248374
 10
70.755439
 20
105.992068
 10
71.028467
 20
105.773483
 10
71.331559
 20
105.597499
 10
71.657926
 20
105.468052
 10
72.000253
 20
105.388042
  0
LWPOLYLINE
  5
858
100
AcDbEntity
  8
ALPHA
100
AcDbPolyline
 90
        4
 70
     0
 43
0.0
 10
72.370253
 20
108.865186
 10
72.496257
 20
108.857723
 10
72.619911
 20
108.835568
 10
72.740253
 20
108.798945
  0
LWPOLYLINE
  5
85E
100
AcDbEntity
  8
ALPHA
100
AcDbPolyline
 90
        4
 70
     0
 43
0.0
 10
72.000253
 20
108.798945
 10
72.120595
 20
108.835568
 10
72.244249
 20
108.857723
 10
72.370253
 20
108.865186
  0
LWPOLYLINE
  5
864
100
AcDbEntity
  8
ALPHA
100
AcDbPolyline
 90
        4
 70
     0
 43
0.0
 10
72.740253
 20
106.860817
 10
72.619911
 20
106.824193
 10
72.496257
 20
106.802039
 10
72.370253
 20
106.794576
  0
LWPOLYLINE
  5
86A
100
AcDbEntity
  8
ALPHA
100
AcDbPolyline
 90
        4
 70
     0
 43
0.0
 10
72.370253
 20
106.794576
 10
72.244249
 20
106.802039
 10
72.120595
 20
106.824193
 10
72.000253
 20
106.860817
  0
LINE
  5
870
100
AcDbEntity
  8
ALPHA
100
AcDbLine
 10
72.000253
 20
105.860265
 30
0.0
 11
72.740253
 21
105.860265
 31
0.0
  0
LWPOLYLINE
  5
871
100
AcDbEntity
  8
ALPHA
100
AcDbPolyline
 90
        7
 70
     0
 43
0.0
 10
70.073934
 20
107.181194
 10
69.998838
 20
107.182778
 10
69.927325
 20
107.187535
 10
69.8663
 20
107.194974
 10
69.817782
 20
107.204718
 10
69.784276
 20
107.216375
 10
69.768887
 20
107.228748
  0
LINE
  5
87A
100
AcDbEntity
  8
ALPHA
100
AcDbLine
 10
72.695034
 20
105.381385
 30
0.0
 11
72.045472
 21
105.381385
 31
0.0
  0
LINE
  5
87B
100
AcDbEntity
  8
ALPHA
100
AcDbLine
 10
73.044182
 20
107.181194
 30
0.0
 11
74.666572
 21
107.181194
 31
0.0
  0
LINE
  5
87C
100
AcDbEntity
  8
ALPHA
100
AcDbLine
 10
73.536979
 20
106.524597
 30
0.0
 11
73.044182
 21
107.181194
 31
0.0
  0
LINE
  5
87D
100
AcDbEntity
  8
ALPHA
100
AcDbLine
 10
72.750636
 20
107.096977
 30
0.0
 11
72.742393
 21
107.102977
 31
0.0
  0
LINE
  5
87E
100
AcDbEntity
  8
ALPHA
100
AcDbLine
 10
73.536979
 20
106.524597
 30
0.0
 11
72.750636
 21
107.096977
 31
0.0
  0
LWPOLYLINE
  5
87F
100
AcDbEntity
  8
ALPHA
100
AcDbPolyline
 90
        3
 70
     0
 43
0.0
 10
72.740253
 20
107.082713
 10
72.740805
 20
107.09304
 10
72.742393
 20
107.102977
  0
LWPOLYLINE
  5
884
100
AcDbEntity
  8
ALPHA
100
AcDbPolyline
 90
       10
 70
     0
 43
0.0
 10
72.740253
 20
107.35963
 10
72.741641
 20
107.380624
 10
72.745391
 20
107.399117
 10
72.752639
 20
107.418795
 10
72.762223
 20
107.435048
 10
72.775588
 20
107.449606
 10
72.790367
 20
107.459464
 10
72.807294
 20
107.465359
 10
72.822622
 20
107.466836
 10
72.840253
 20
107.46462
  0
LINE
  5
890
100
AcDbEntity
  8
ALPHA
100
AcDbLine
 10
73.536979
 20
108.822599
 30
0.0
 11
72.742393
 21
108.244218
 31
0.0
  0
LINE
  5
891
100
AcDbEntity
  8
ALPHA
100
AcDbLine
 10
73.536979
 20
108.822599
 30
0.0
 11
73.044182
 21
108.166001
 31
0.0
  0
LWPOLYLINE
  5
892
100
AcDbEntity
  8
ALPHA
100
AcDbPolyline
 90
        7
 70
     0
 43
0.0
 10
74.971619
 20
107.228748
 10
74.956231
 20
107.216375
 10
74.922725
 20
107.204718
 10
74.874207
 20
107.194974
 10
74.813181
 20
107.187535
 10
74.741668
 20
107.182778
 10
74.666572
 20
107.181194
  0
LWPOLYLINE
  5
89B
100
AcDbEntity
  8
ALPHA
100
AcDbPolyline
 90
        3
 70
     0
 43
0.0
 10
71.998113
 20
107.102977
 10
71.999702
 20
107.09304
 10
72.000253
 20
107.082713
  0
LINE
  5
8A0
100
AcDbEntity
  8
ALPHA
100
AcDbLine
 10
71.98987
 20
107.096977
 30
0.0
 11
71.998113
 21
107.102977
 31
0.0
  0
LINE
  5
8A1
100
AcDbEntity
  8
ALPHA
100
AcDbLine
 10
71.203527
 20
106.524597
 30
0.0
 11
71.98987
 21
107.096977
 31
0.0
  0
LWPOLYLINE
  5
8A2
100
AcDbEntity
  8
ALPHA
100
AcDbPolyline
 90
        4
 70
     0
 43
0.0
 10
70.070344
 20
106.426767
 10
70.041449
 20
106.477883
 10
69.875864
 20
106.842999
 10
69.768887
 20
107.228748
  0
LINE
  5
8A8
100
AcDbEntity
  8
ALPHA
100
AcDbLine
 10
71.203527
 20
106.524597
 30
0.0
 11
71.696325
 21
107.181194
 31
0.0
  0
LINE
  5
8A9
100
AcDbEntity
  8
ALPHA
100
AcDbLine
 10
70.073934
 20
107.181194
 30
0.0
 11
71.696325
 21
107.181194
 31
0.0
  0
LWPOLYLINE
  5
8AA
100
AcDbEntity
  8
ALPHA
100
AcDbPolyline
 90
        9
 70
     0
 43
0.0
 10
72.740253
 20
105.388042
 10
73.08258
 20
105.468052
 10
73.408948
 20
105.597499
 10
73.712039
 20
105.773483
 10
73.985067
 20
105.992068
 10
74.221918
 20
106.248374
 10
74.417213
 20
106.536567
 10
74.566695
 20
106.850401
 10
74.666572
 20
107.181194
  0
LINE
  5
8B5
100
AcDbEntity
  8
ALPHA
100
AcDbLine
 10
71.203527
 20
108.822599
 30
0.0
 11
71.696325
 21
108.166001
 31
0.0
  0
LINE
  5
8B6
100
AcDbEntity
  8
ALPHA
100
AcDbLine
 10
71.203527
 20
108.822599
 30
0.0
 11
71.998113
 21
108.244218
 31
0.0
  0
LWPOLYLINE
  5
8B7
100
AcDbEntity
  8
ALPHA
100
AcDbPolyline
 90
       10
 70
     0
 43
0.0
 10
72.870253
 20
107.494164
 10
72.871781
 20
107.515031
 10
72.875734
 20
107.532519
 10
72.883488
 20
107.551088
 10
72.893964
 20
107.566183
 10
72.907799
 20
107.578385
 10
72.922112
 20
107.585654
 10
72.938607
 20
107.589404
 10
72.953604
 20
107.589417
 10
72.970253
 20
107.586136
  0
LWPOLYLINE
  5
8C3
100
AcDbEntity
  8
ALPHA
100
AcDbPolyline
 90
       10
 70
     0
 43
0.0
 10
71.758846
 20
108.17483
 10
71.73655
 20
108.112081
 10
71.720253
 20
107.969639
 10
71.73655
 20
107.827198
 10
71.784623
 20
107.691899
 10
71.862063
 20
107.570528
 10
71.964985
 20
107.469169
 10
72.088229
 20
107.392907
 10
72.225615
 20
107.345564
 10
72.370253
 20
107.329514
  0
LWPOLYLINE
  5
8CF
100
AcDbEntity
  8
ALPHA
100
AcDbPolyline
 90
        4
 70
     0
 43
0.0
 10
72.370253
 20
108.609764
 10
72.225615
 20
108.593715
 10
72.088229
 20
108.546372
 10
72.000253
 20
108.491933
  0
LWPOLYLINE
  5
8D5
100
AcDbEntity
  8
ALPHA
100
AcDbPolyline
 90
       10
 70
     0
 43
0.0
 10
71.770253
 20
107.586136
 10
71.786856
 20
107.589412
 10
71.801893
 20
107.589404
 10
71.818458
 20
107.585631
 10
71.832794
 20
107.578327
 10
71.846532
 20
107.566194
 10
71.856922
 20
107.551265
 10
71.864665
 20
107.532865
 10
71.868687
 20
107.515286
 10
71.870253
 20
107.494164
  0
LWPOLYLINE
  5
8E1
100
AcDbEntity
  8
ALPHA
100
AcDbPolyline
 90
       10
 70
     0
 43
0.0
 10
71.900253
 20
107.46462
 10
71.917667
 20
107.466833
 10
71.932904
 20
107.465423
 10
71.94997
 20
107.459548
 10
71.964906
 20
107.449617
 10
71.978352
 20
107.434953
 10
71.987902
 20
107.418721
 10
71.995114
 20
107.399125
 10
71.998857
 20
107.380682
 10
72.000253
 20
107.35963
  0
LWPOLYLINE
  5
8ED
100
AcDbEntity
  8
ALPHA
100
AcDbPolyline
 90
       10
 70
     0
 43
0.0
 10
72.981661
 20
108.17483
 10
73.003956
 20
108.112081
 10
73.020253
 20
107.969639
 10
73.003956
 20
107.827198
 10
72.955883
 20
107.691899
 10
72.878444
 20
107.570528
 10
72.775522
 20
107.469169
 10
72.652278
 20
107.392907
 10
72.514892
 20
107.345564
 10
72.370253
 20
107.329514
  0
LWPOLYLINE
  5
8F9
100
AcDbEntity
  8
ALPHA
100
AcDbPolyline
 90
        4
 70
     0
 43
0.0
 10
72.370253
 20
108.609764
 10
72.514892
 20
108.593715
 10
72.652278
 20
108.546372
 10
72.740253
 20
108.491933
  0
LWPOLYLINE
  5
8FF
100
AcDbEntity
  8
ALPHA
100
AcDbPolyline
 90
        3
 70
     0
 43
0.0
 10
72.740253
 20
105.381425
 10
72.717581
 20
105.381395
 10
72.695034
 20
105.381385
  0
LINE
  5
904
100
AcDbEntity
  8
ALPHA
100
AcDbLine
 10
74.666572
 20
108.166001
 30
0.0
 11
74.569692
 21
108.48687
 31
0.0
  0
LWPOLYLINE
  5
905
100
AcDbEntity
  8
ALPHA
100
AcDbPolyline
 90
        3
 70
     0
 43
0.0
 10
72.045472
 20
105.381385
 10
72.370253
 20
105.359178
 10
72.695034
 20
105.381385
  0
LWPOLYLINE
  5
90A
100
AcDbEntity
  8
ALPHA
100
AcDbPolyline
 90
        4
 70
     0
 43
0.0
 10
74.670162
 20
106.426767
 10
74.699057
 20
106.477883
 10
74.864642
 20
106.842999
 10
74.971619
 20
107.228748
  0
LINE
  5
910
100
AcDbEntity
  8
ALPHA
100
AcDbLine
 10
72.870253
 20
108.190561
 30
0.0
 11
73.044182
 21
108.166001
 31
0.0
  0
LWPOLYLINE
  5
911
100
AcDbEntity
  8
ALPHA
100
AcDbPolyline
 90
        5
 70
     0
 43
0.0
 10
72.840253
 20
108.18743
 10
72.80936
 20
108.188332
 10
72.780612
 20
108.197851
 10
72.756631
 20
108.2168
 10
72.742393
 20
108.244218
  0
LWPOLYLINE
  5
918
100
AcDbEntity
  8
ALPHA
100
AcDbPolyline
 90
        5
 70
     0
 43
0.0
 10
71.998113
 20
108.244218
 10
71.983873
 20
108.216797
 10
71.959889
 20
108.197849
 10
71.931146
 20
108.188332
 10
71.900253
 20
108.18743
  0
LINE
  5
91F
100
AcDbEntity
  8
ALPHA
100
AcDbLine
 10
71.696325
 20
108.166001
 30
0.0
 11
71.870253
 21
108.190561
 31
0.0
  0
LINE
  5
920
100
AcDbEntity
  8
ALPHA
100
AcDbLine
 10
72.870253
 20
107.457346
 30
0.0
 11
72.870253
 21
107.494164
 31
0.0
  0
LINE
  5
921
100
AcDbEntity
  8
ALPHA
100
AcDbLine
 10
72.870253
 20
107.367021
 30
0.0
 11
72.870253
 21
107.457346
 31
0.0
  0
LINE
  5
922
100
AcDbEntity
  8
ALPHA
100
AcDbLine
 10
72.870253
 20
107.337477
 30
0.0
 11
72.870253
 21
107.367021
 31
0.0
  0
LINE
  5
923
100
AcDbEntity
  8
ALPHA
100
AcDbLine
 10
72.740253
 20
107.102977
 30
0.0
 11
72.740253
 21
107.35963
 31
0.0
  0
LINE
  5
924
100
AcDbEntity
  8
ALPHA
100
AcDbLine
 10
71.870253
 20
107.457346
 30
0.0
 11
71.870253
 21
107.494164
 31
0.0
  0
LINE
  5
925
100
AcDbEntity
  8
ALPHA
100
AcDbLine
 10
71.870253
 20
107.367021
 30
0.0
 11
71.870253
 21
107.457346
 31
0.0
  0
LINE
  5
926
100
AcDbEntity
  8
ALPHA
100
AcDbLine
 10
71.870253
 20
107.367021
 30
0.0
 11
71.870253
 21
107.337477
 31
0.0
  0
LINE
  5
927
100
AcDbEntity
  8
ALPHA
100
AcDbLine
 10
72.000253
 20
108.541399
 30
0.0
 11
72.000253
 21
109.456987
 31
0.0
  0
LINE
  5
928
100
AcDbEntity
  8
ALPHA
100
AcDbLine
 10
72.000253
 20
108.264482
 30
0.0
 11
72.000253
 21
108.541399
 31
0.0
  0
LINE
  5
929
100
AcDbEntity
  8
ALPHA
100
AcDbLine
 10
72.000253
 20
107.102977
 30
0.0
 11
72.000253
 21
107.35963
 31
0.0
  0
LINE
  5
92A
100
AcDbEntity
  8
ALPHA
100
AcDbLine
 10
72.000253
 20
105.388042
 30
0.0
 11
72.000253
 21
107.082713
 31
0.0
  0
LINE
  5
92B
100
AcDbEntity
  8
ALPHA
100
AcDbLine
 10
72.740253
 20
109.446093
 30
0.0
 11
72.740253
 21
108.264482
 31
0.0
  0
LINE
  5
92C
100
AcDbEntity
  8
ALPHA
100
AcDbLine
 10
72.740253
 20
107.082713
 30
0.0
 11
72.740253
 21
105.388042
 31
0.0
  0
LINE
  5
92D
100
AcDbEntity
  8
ALPHA
100
AcDbLine
 10
70.070344
 20
106.426767
 30
0.0
 11
69.939227
 21
106.652716
 31
0.0
  0
LINE
  5
92E
100
AcDbEntity
  8
ALPHA
100
AcDbLine
 10
72.870253
 20
108.190561
 30
0.0
 11
72.840253
 21
108.18743
 31
0.0
  0
LWPOLYLINE
  5
92F
100
AcDbEntity
  8
ALPHA
100
AcDbPolyline
 90
        3
 70
     0
 43
0.0
 10
69.619476
 20
107.529026
 10
69.604726
 20
107.589532
 10
69.603172
 20
107.608975
  0
LINE
  5
934
100
AcDbEntity
  8
ALPHA
100
AcDbLine
 10
69.680534
 20
107.278563
 30
0.0
 11
69.619476
 21
107.529026
 31
0.0
  0
LWPOLYLINE
  5
935
100
AcDbEntity
  8
ALPHA
100
AcDbPolyline
 90
        3
 70
     0
 43
0.0
 10
69.72253
 20
107.132569
 10
69.707295
 20
107.168791
 10
69.680534
 20
107.278563
  0
LINE
  5
93A
100
AcDbEntity
  8
ALPHA
100
AcDbLine
 10
69.83795
 20
106.858155
 30
0.0
 11
69.72253
 21
107.132569
 31
0.0
  0
LWPOLYLINE
  5
93B
100
AcDbEntity
  8
ALPHA
100
AcDbPolyline
 90
        3
 70
     0
 43
0.0
 10
69.887697
 20
106.746684
 10
69.875435
 20
106.769033
 10
69.83795
 20
106.858155
  0
LINE
  5
940
100
AcDbEntity
  8
ALPHA
100
AcDbLine
 10
69.8963
 20
106.731004
 30
0.0
 11
69.887697
 21
106.746684
 31
0.0
  0
LINE
  5
941
100
AcDbEntity
  8
ALPHA
100
AcDbLine
 10
69.939177
 20
106.652858
 30
0.0
 11
69.8963
 21
106.731004
 31
0.0
  0
LINE
  5
942
100
AcDbEntity
  8
ALPHA
100
AcDbLine
 10
71.900253
 20
108.18743
 30
0.0
 11
71.870253
 21
108.190561
 31
0.0
  0
LWPOLYLINE
  5
943
100
AcDbEntity
  8
ALPHA
100
AcDbPolyline
 90
       15
 70
     0
 43
0.0
 10
74.670092
 20
106.426646
 10
74.470308
 20
106.131004
 10
74.194852
 20
105.829599
 10
73.875439
 20
105.573885
 10
73.519554
 20
105.369917
 10
73.135957
 20
105.222775
 10
72.733886
 20
105.136
 10
72.32302
 20
105.111688
 10
71.913333
 20
105.150424
 10
71.514788
 20
105.251228
 10
71.136899
 20
105.411655
 10
70.78882
 20
105.627782
 10
70.478959
 20
105.894308
 10
70.214608
 20
106.204907
 10
70.070411
 20
106.426652
  0
LINE
  5
954
100
AcDbEntity
  8
ALPHA
100
AcDbLine
 10
74.670162
 20
106.426767
 30
0.0
 11
74.80128
 21
106.652716
 31
0.0
  0
LINE
  5
955
100
AcDbEntity
  8
ALPHA
100
AcDbLine
 10
75.130713
 20
107.568744
 30
0.0
 11
75.134786
 21
107.585451
 31
0.0
  0
LINE
  5
956
100
AcDbEntity
  8
ALPHA
100
AcDbLine
 10
75.033932
 20
107.171747
 30
0.0
 11
75.130713
 21
107.568744
 31
0.0
  0
LWPOLYLINE
  5
957
100
AcDbEntity
  8
ALPHA
100
AcDbPolyline
 90
        3
 70
     0
 43
0.0
 10
75.018814
 20
107.134561
 10
75.033211
 20
107.168791
 10
75.033932
 20
107.171747
  0
LINE
  5
95C
100
AcDbEntity
  8
ALPHA
100
AcDbLine
 10
74.875689
 20
106.794276
 30
0.0
 11
75.018814
 21
107.134561
 31
0.0
  0
LWPOLYLINE
  5
95D
100
AcDbEntity
  8
ALPHA
100
AcDbPolyline
 90
        3
 70
     0
 43
0.0
 10
74.801329
 20
106.652858
 10
74.865071
 20
106.769033
 10
74.875689
 20
106.794276
  0
LWPOLYLINE
  5
962
100
AcDbEntity
  8
ALPHA
100
AcDbPolyline
 90
        3
 70
     0
 43
0.0
 10
72.000253
 20
108.264482
 10
71.999702
 20
108.254155
 10
71.998113
 20
108.244218
  0
LWPOLYLINE
  5
967
100
AcDbEntity
  8
ALPHA
100
AcDbPolyline
 90
        3
 70
     0
 43
0.0
 10
72.742393
 20
108.244218
 10
72.740805
 20
108.254155
 10
72.740253
 20
108.264482
  0
LINE
  5
96C
100
AcDbEntity
  8
ALPHA
100
AcDbLine
 10
73.044182
 20
108.166001
 30
0.0
 11
74.666572
 21
108.166001
 31
0.0
  0
LINE
  5
96D
100
AcDbEntity
  8
ALPHA
100
AcDbLine
 10
70.073934
 20
108.166001
 30
0.0
 11
71.696325
 21
108.166001
 31
0.0
  0
LINE
  5
96E
100
AcDbEntity
  8
ALPHA
100
AcDbLine
 10
72.740253
 20
107.102977
 30
0.0
 11
72.740253
 21
107.35963
 31
0.0
  0
LWPOLYLINE
  5
96F
100
AcDbEntity
  8
ALPHA
100
AcDbPolyline
 90
        4
 70
     0
 43
0.0
 10
74.666572
 20
108.166001
 10
74.741668
 20
108.167586
 10
74.813181
 20
108.172343
 10
74.823764
 20
108.173633
  0
LWPOLYLINE
  5
975
100
AcDbEntity
  8
ALPHA
100
AcDbPolyline
 90
        4
 70
     0
 43
0.0
 10
69.909239
 20
108.174547
 10
69.927325
 20
108.172343
 10
69.998838
 20
108.167586
 10
70.073934
 20
108.166001
  0
LINE
  5
97B
100
AcDbEntity
  8
ALPHA
100
AcDbLine
 10
72.740253
 20
105.388042
 30
0.0
 11
72.740253
 21
105.381425
 31
0.0
  0
LINE
  5
97C
100
AcDbEntity
  8
ALPHA
100
AcDbLine
 10
72.000253
 20
105.381425
 30
0.0
 11
72.000253
 21
105.388042
 31
0.0
  0
LINE
  5
97D
100
AcDbEntity
  8
ALPHA
100
AcDbLine
 10
72.870253
 20
107.457346
 30
0.0
 11
72.870253
 21
107.494164
 31
0.0
  0
LINE
  5
97E
100
AcDbEntity
  8
ALPHA
100
AcDbLine
 10
72.870253
 20
107.367021
 30
0.0
 11
72.870253
 21
107.457346
 31
0.0
  0
LINE
  5
97F
100
AcDbEntity
  8
ALPHA
100
AcDbLine
 10
75.130713
 20
107.568744
 30
0.0
 11
75.133005
 21
107.590212
 31
0.0
  0
LWPOLYLINE
  5
980
100
AcDbEntity
  8
ALPHA
100
AcDbPolyline
 90
        4
 70
     0
 43
0.0
 10
75.033932
 20
107.171747
 10
75.03524
 20
107.174964
 10
75.128088
 20
107.544154
 10
75.130713
 20
107.568744
  0
LINE
  5
986
100
AcDbEntity
  8
ALPHA
100
AcDbLine
 10
75.018814
 20
107.134561
 30
0.0
 11
75.033932
 21
107.171747
 31
0.0
  0
LWPOLYLINE
  5
987
100
AcDbEntity
  8
ALPHA
100
AcDbPolyline
 90
        3
 70
     0
 43
0.0
 10
74.875689
 20
106.794276
 10
74.89169
 20
106.821869
 10
75.018814
 20
107.134561
  0
LINE
  5
98C
100
AcDbEntity
  8
ALPHA
100
AcDbLine
 10
74.795608
 20
106.656175
 30
0.0
 11
74.875689
 21
106.794276
 31
0.0
  0
LWPOLYLINE
  5
98D
100
AcDbEntity
  8
ALPHA
100
AcDbPolyline
 90
        3
 70
     0
 43
0.0
 10
69.887697
 20
106.746684
 10
69.890697
 20
106.739961
 10
69.8963
 20
106.731004
  0
LINE
  5
992
100
AcDbEntity
  8
ALPHA
100
AcDbLine
 10
69.83795
 20
106.858155
 30
0.0
 11
69.887697
 21
106.746684
 31
0.0
  0
LWPOLYLINE
  5
993
100
AcDbEntity
  8
ALPHA
100
AcDbPolyline
 90
        3
 70
     0
 43
0.0
 10
69.72253
 20
107.132569
 10
69.735308
 20
107.088149
 10
69.83795
 20
106.858155
  0
LINE
  5
998
100
AcDbEntity
  8
ALPHA
100
AcDbLine
 10
69.680534
 20
107.278563
 30
0.0
 11
69.72253
 21
107.132569
 31
0.0
  0
LWPOLYLINE
  5
999
100
AcDbEntity
  8
ALPHA
100
AcDbPolyline
 90
        3
 70
     0
 43
0.0
 10
69.619476
 20
107.529026
 10
69.630046
 20
107.454081
 10
69.680534
 20
107.278563
  0
LINE
  5
99E
100
AcDbEntity
  8
ALPHA
100
AcDbLine
 10
69.606876
 20
107.618367
 30
0.0
 11
69.619476
 21
107.529026
 31
0.0
  0
ENDSEC
  0
SECTION
  2
OBJECTS
  0
DICTIONARY
  5
F6B
100
AcDbDictionary
  3
ACAD_GROUP
350
F6C
  3
ACAD_MLINESTYLE
350
F79
  3
ACDBVARIABLEDICTIONARY
350
F89
  0
DICTIONARY
  5
F6C
102
{ACAD_REACTORS
330
F6B
102
}
100
AcDbDictionary
  0
DICTIONARY
  5
F79
102
{ACAD_REACTORS
330
F6B
102
}
100
AcDbDictionary
  3
STANDARD
350
F7A
  0
DICTIONARY
  5
F89
102
{ACAD_REACTORS
330
F6B
102
}
100
AcDbDictionary
  3
DIMADEC
350
F8A
  0
MLINESTYLE
  5
F7A
102
{ACAD_REACTORS
330
F79
102
}
100
AcDbMlineStyle
  2
STANDARD
 70
     0
  3

 62
   256
 51
90.0
 52
90.0
 71
     2
 49
0.5
 62
   256
  6
BYLAYER
 49
-0.5
 62
   256
  6
BYLAYER
  0
DICTIONARYVAR
  5
F8A
102
{ACAD_REACTORS
330
F89
102
}
100
DictionaryVariables
280
     0
  1
0
  0
ENDSEC
  0
EOF
