  0
SECTION
  2
HEADER
  9
$ACADVER
  1
AC1009
  9
$INSBASE
 10
402.590624
 20
-1.041018
 30
0.0
  9
$EXTMIN
 10
137.373092
 20
-221.212194
 30
0.0
  9
$EXTMAX
 10
173.373092
 20
-113.712194
 30
0.0
  9
$LIMMIN
 10
-407.970438
 20
-367.832444
  9
$LIMMAX
 10
429.804077
 20
234.370848
  9
$ORTHOMODE
 70
     1
  9
$REGENMODE
 70
     1
  9
$FILLMODE
 70
     1
  9
$QTEXTMODE
 70
     0
  9
$MIRRTEXT
 70
     1
  9
$DRAGMODE
 70
     2
  9
$LTSCALE
 40
10.0
  9
$OSMODE
 70
    32
  9
$ATTMODE
 70
     1
  9
$TEXTSIZE
 40
6.0
  9
$TRACEWID
 40
1.0
  9
$TEXTSTYLE
  7
ROMANS
  9
$CLAYER
  8
ALPHA
  9
$CELTYPE
  6
BYLAYER
  9
$CECOLOR
 62
   256
  9
$DIMSCALE
 40
1.0
  9
$DIMASZ
 40
5.0
  9
$DIMEXO
 40
2.0
  9
$DIMDLI
 40
0.38
  9
$DIMRND
 40
0.0
  9
$DIMDLE
 40
0.0
  9
$DIMEXE
 40
2.5
  9
$DIMTP
 40
0.0
  9
$DIMTM
 40
0.0
  9
$DIMTXT
 40
2.5
  9
$DIMCEN
 40
0.0
  9
$DIMTSZ
 40
0.0
  9
$DIMTOL
 70
     0
  9
$DIMLIM
 70
     0
  9
$DIMTIH
 70
     1
  9
$DIMTOH
 70
     1
  9
$DIMSE1
 70
     0
  9
$DIMSE2
 70
     0
  9
$DIMTAD
 70
     1
  9
$DIMZIN
 70
    12
  9
$DIMBLK
  1
OPEN30
  9
$DIMASO
 70
     1
  9
$DIMSHO
 70
     1
  9
$DIMPOST
  1

  9
$DIMAPOST
  1

  9
$DIMALT
 70
     0
  9
$DIMALTD
 70
     2
  9
$DIMALTF
 40
25.4
  9
$DIMLFAC
 40
1.0
  9
$DIMTOFL
 70
     0
  9
$DIMTVP
 40
0.0
  9
$DIMTIX
 70
     0
  9
$DIMSOXD
 70
     0
  9
$DIMSAH
 70
     0
  9
$DIMBLK1
  1

  9
$DIMBLK2
  1

  9
$DIMSTYLE
  2
SC_DEFAUT
  9
$DIMCLRD
 70
     0
  9
$DIMCLRE
 70
     0
  9
$DIMCLRT
 70
     0
  9
$DIMTFAC
 40
1.0
  9
$DIMGAP
 40
2.0
  9
$LUNITS
 70
     2
  9
$LUPREC
 70
     1
  9
$SKETCHINC
 40
0.1
  9
$FILLETRAD
 40
0.0
  9
$AUNITS
 70
     0
  9
$AUPREC
 70
     0
  9
$MENU
  1
acad
  9
$ELEVATION
 40
0.0
  9
$PELEVATION
 40
0.0
  9
$THICKNESS
 40
0.0
  9
$LIMCHECK
 70
     0
  9
$BLIPMODE
 70
     0
  9
$CHAMFERA
 40
0.0
  9
$CHAMFERB
 40
0.0
  9
$SKPOLY
 70
     0
  9
$TDCREATE
 40
2450373.687919
  9
$TDUPDATE
 40
2453028.640256
  9
$TDINDWG
 40
1.079487
  9
$TDUSRTIMER
 40
1.079487
  9
$USRTIMER
 70
     1
  9
$ANGBASE
 50
0.0
  9
$ANGDIR
 70
     0
  9
$PDMODE
 70
    32
  9
$PDSIZE
 40
0.0
  9
$PLINEWID
 40
0.0
  9
$COORDS
 70
     1
  9
$SPLFRAME
 70
     0
  9
$SPLINETYPE
 70
     6
  9
$SPLINESEGS
 70
     8
  9
$ATTDIA
 70
     0
  9
$ATTREQ
 70
     1
  9
$HANDLING
 70
     1
  9
$HANDSEED
  5
AFE2
  9
$SURFTAB1
 70
     6
  9
$SURFTAB2
 70
     6
  9
$SURFTYPE
 70
     6
  9
$SURFU
 70
     6
  9
$SURFV
 70
     6
  9
$UCSNAME
  2

  9
$UCSORG
 10
0.0
 20
0.0
 30
0.0
  9
$UCSXDIR
 10
1.0
 20
0.0
 30
0.0
  9
$UCSYDIR
 10
0.0
 20
1.0
 30
0.0
  9
$PUCSNAME
  2

  9
$PUCSORG
 10
0.0
 20
0.0
 30
0.0
  9
$PUCSXDIR
 10
1.0
 20
0.0
 30
0.0
  9
$PUCSYDIR
 10
0.0
 20
1.0
 30
0.0
  9
$USERI1
 70
     0
  9
$USERI2
 70
     0
  9
$USERI3
 70
     0
  9
$USERI4
 70
     0
  9
$USERI5
 70
     0
  9
$USERR1
 40
0.0
  9
$USERR2
 40
0.0
  9
$USERR3
 40
0.0
  9
$USERR4
 40
0.0
  9
$USERR5
 40
0.0
  9
$WORLDVIEW
 70
     1
  9
$SHADEDGE
 70
     3
  9
$SHADEDIF
 70
    70
  9
$TILEMODE
 70
     1
  9
$MAXACTVP
 70
    16
  9
$PLIMCHECK
 70
     0
  9
$PEXTMIN
 10
-1.452248
 20
-0.437698
 30
0.0
  9
$PEXTMAX
 10
12.749749
 20
8.310198
 30
0.0
  9
$PLIMMIN
 10
0.0
 20
0.0
  9
$PLIMMAX
 10
12.0
 20
9.0
  9
$UNITMODE
 70
     0
  9
$VISRETAIN
 70
     0
  9
$PLINEGEN
 70
     0
  9
$PSLTSCALE
 70
     0
  0
ENDSEC
  0
SECTION
  2
TABLES
  0
TABLE
  2
VPORT
 70
     2
  0
VPORT
  2
*ACTIVE
 70
     0
 10
0.0
 20
0.0
 11
1.0
 21
1.0
 12
155.36952
 22
-167.464036
 13
0.0
 23
0.0
 14
1.0
 24
1.0
 15
10.0
 25
10.0
 16
0.0
 26
0.0
 36
1.0
 17
0.0
 27
0.0
 37
0.0
 40
108.330705
 41
1.466346
 42
50.0
 43
0.0
 44
0.0
 50
0.0
 51
0.0
 71
     0
 72
   100
 73
     1
 74
     0
 75
     0
 76
     0
 77
     0
 78
     0
  0
ENDTAB
  0
TABLE
  2
LTYPE
 70
     3
  0
LTYPE
  2
CONTINUOUS
 70
     0
  3
Solid line
 72
    65
 73
     0
 40
0.0
  0
LTYPE
  2
AXES2
 70
     0
  3
___ _ ___ _ ___ _ ___ _ ___ _ ___ _ ___ _ ___ _
 72
    65
 73
     4
 40
1.125
 49
0.75
 49
-0.125
 49
0.125
 49
-0.125
  0
LTYPE
  2
CACHE2
 70
     0
  3
Caché (x.5) _ _ _ _ _ _ _ _ _ _ _ _ _ _ _ _ _
 72
    65
 73
     2
 40
0.1875
 49
0.125
 49
-0.0625
  0
ENDTAB
  0
TABLE
  2
LAYER
 70
     6
  0
LAYER
  2
0
 70
     0
 62
   255
  6
CONTINUOUS
  0
LAYER
  2
COTATION1
 70
     0
 62
     2
  6
CONTINUOUS
  0
LAYER
  2
AXE
 70
     0
 62
    80
  6
AXES2
  0
LAYER
  2
DEFPOINTS
 70
     0
 62
     7
  6
CONTINUOUS
  0
LAYER
  2
ALPHA
 70
     0
 62
   254
  6
CONTINUOUS
  0
LAYER
  2
POINTILLE_COURT
 70
     0
 62
    41
  6
CACHE2
  0
ENDTAB
  0
TABLE
  2
STYLE
 70
     2
  0
STYLE
  2
ROMANS
 70
     0
 40
0.0
 41
1.0
 50
0.0
 71
     0
 42
6.0
  3
romans
  4

  0
STYLE
  2
STANDARD
 70
     0
 40
0.0
 41
1.0
 50
0.0
 71
     0
 42
0.2
  3
txt
  4

  0
ENDTAB
  0
TABLE
  2
VIEW
 70
     0
  0
ENDTAB
  0
TABLE
  2
UCS
 70
     0
  0
ENDTAB
  0
TABLE
  2
APPID
 70
     1
  0
APPID
  2
ACAD
 70
     0
  0
ENDTAB
  0
TABLE
  2
DIMSTYLE
 70
     2
  0
DIMSTYLE
  2
SC_DEFAUT
 70
     0
  3

  4

  5
OPEN30
  6

  7

 40
1.0
 41
5.0
 42
2.0
 43
0.38
 44
2.5
 45
0.0
 46
0.0
 47
0.0
 48
0.0
140
2.5
141
0.0
142
0.0
143
25.4
144
1.0
145
0.0
146
1.0
147
2.0
 71
     0
 72
     0
 73
     1
 74
     1
 75
     0
 76
     0
 77
     1
 78
    12
170
     0
171
     2
172
     0
173
     0
174
     0
175
     0
176
     0
177
     0
178
     0
  0
DIMSTYLE
  2
STANDARD
 70
     0
  3

  4

  5

  6

  7

 40
1.0
 41
3.0
 42
0.0625
 43
0.38
 44
0.18
 45
0.0
 46
0.0
 47
0.01
 48
0.01
140
3.5
141
0.09
142
0.0
143
25.4
144
1.0
145
0.0
146
1.0
147
0.09
 71
     1
 72
     0
 73
     0
 74
     0
 75
     0
 76
     0
 77
     1
 78
     8
170
     0
171
     2
172
     0
173
     0
174
     0
175
     0
176
     0
177
     0
178
     0
  0
ENDTAB
  0
ENDSEC
  0
SECTION
  2
BLOCKS
  0
BLOCK
  8
0
  2
$MODEL_SPACE
 70
     0
 10
0.0
 20
0.0
 30
0.0
  3
$MODEL_SPACE
  1

  0
ENDBLK
  5
AEF3
  8
0
  0
BLOCK
 67
     1
  8
0
  2
$PAPER_SPACE
 70
     0
 10
0.0
 20
0.0
 30
0.0
  3
$PAPER_SPACE
  1

  0
ENDBLK
  5
AEF1
 67
     1
  8
0
  0
BLOCK
  8
0
  2
COTE
 70
     0
 10
0.0
 20
0.0
 30
0.0
  3
COTE
  1

  0
ENDBLK
  5
F
  8
0
  0
BLOCK
  8
0
  2
FOND
 70
     0
 10
0.0
 20
0.0
 30
0.0
  3
FOND
  1

  0
ENDBLK
  5
75
  8
0
  0
BLOCK
  8
0
  2
_OPEN30
 70
     0
 10
0.0
 20
0.0
 30
0.0
  3
_OPEN30
  1

  0
LINE
  5
4B05
  8
COTATION1
 62
     0
 10
-1.0
 20
0.267949
 30
0.0
 11
0.0
 21
0.0
 31
0.0
1001
ACAD
1000
RTLwPs
1070
   158
  0
LINE
  5
4B06
  8
COTATION1
 62
     0
 10
0.0
 20
0.0
 30
0.0
 11
-1.0
 21
-0.267949
 31
0.0
1001
ACAD
1000
RTLwPs
1070
   158
  0
LINE
  5
4B07
  8
COTATION1
 62
     0
 10
0.0
 20
0.0
 30
0.0
 11
-1.0
 21
0.0
 31
0.0
1001
ACAD
1000
RTLwPs
1070
   158
  0
ENDBLK
  5
4B09
  8
0
  0
BLOCK
  8
0
  2
*D3
 70
     1
 10
0.0
 20
0.0
 30
0.0
  3
*D3
  1

  0
LINE
  5
A0C7
  8
COTATION1
 62
     0
 10
141.973092
 20
-132.490175
 30
0.0
 11
141.973092
 21
-115.712194
 31
0.0
1001
ACAD
1000
RTLwPs
1070
   158
  0
LINE
  5
A0C8
  8
COTATION1
 62
     0
 10
158.373092
 20
-131.212194
 30
0.0
 11
158.373092
 21
-115.712194
 31
0.0
1001
ACAD
1000
RTLwPs
1070
   158
  0
LINE
  5
A0C9
  8
COTATION1
 62
     0
 10
146.973092
 20
-118.212194
 30
0.0
 11
153.373092
 21
-118.212194
 31
0.0
1001
ACAD
1000
RTLwPs
1070
   158
  0
INSERT
  5
A0CA
  8
COTATION1
 62
     0
  2
_OPEN30
 10
141.973092
 20
-118.212194
 30
0.0
 41
5.0
 42
5.0
 43
5.0
 50
180.0
1001
ACAD
1000
RTLwPs
1070
   158
  0
INSERT
  5
A0CB
  8
COTATION1
 62
     0
  2
_OPEN30
 10
158.373092
 20
-118.212194
 30
0.0
 41
5.0
 42
5.0
 43
5.0
1001
ACAD
1000
RTLwPs
1070
   158
  0
TEXT
  5
A0CC
  8
COTATION1
 62
     0
 10
145.768331
 20
-116.212194
 30
0.0
 40
2.5
  1
16.4
1001
ACAD
1000
MTEXTBEGIN
1070
    73
1070
     1
1070
    44
1040
1.0
1070
    74
1070
     0
1000
MTEXTEND
  0
POINT
  5
A0CD
  8
DEFPOINTS
 62
     0
 10
141.973092
 20
-134.490175
 30
0.0
  0
POINT
  5
A0CE
  8
DEFPOINTS
 62
     0
 10
158.373092
 20
-133.212194
 30
0.0
  0
POINT
  5
A0CF
  8
DEFPOINTS
 62
     0
 10
158.373092
 20
-118.212194
 30
0.0
  0
ENDBLK
  5
A0BD
  8
0
  0
ENDSEC
  0
SECTION
  2
ENTITIES
  0
INSERT
  5
A
  8
0
  2
COTE
 10
0.0
 20
0.0
 30
0.0
  0
INSERT
  5
17
  8
0
  2
COTE
 10
284.010391
 20
6.373258
 30
0.0
  0
INSERT
  5
72
  8
0
  2
FOND
 10
0.0
 20
0.0
 30
0.0
  0
LINE
  5
9EE1
  8
ALPHA
 10
145.752511
 20
-133.559449
 30
0.0
 11
144.614721
 21
-133.465889
 31
0.0
  0
POLYLINE
  5
9EE2
  8
POINTILLE_COURT
 66
     1
 10
0.0
 20
0.0
 30
0.0
 70
   128
  0
VERTEX
  5
AEF9
  8
POINTILLE_COURT
 10
144.438158
 20
-175.54565
 30
0.0
  0
VERTEX
  5
AEFA
  8
POINTILLE_COURT
 10
144.287116
 20
-176.901115
 30
0.0
  0
VERTEX
  5
AEFB
  8
POINTILLE_COURT
 10
144.440769
 20
-178.257035
 30
0.0
  0
VERTEX
  5
AEFC
  8
POINTILLE_COURT
 10
144.890092
 20
-179.545259
 30
0.0
  0
VERTEX
  5
AEFD
  8
POINTILLE_COURT
 10
145.613877
 20
-180.701635
 30
0.0
  0
VERTEX
  5
AEFE
  8
POINTILLE_COURT
 10
146.57668
 20
-181.668047
 30
0.0
  0
VERTEX
  5
AEFF
  8
POINTILLE_COURT
 10
147.730541
 20
-182.395772
 30
0.0
  0
VERTEX
  5
AF00
  8
POINTILLE_COURT
 10
149.017618
 20
-182.849376
 30
0.0
  0
VERTEX
  5
AF01
  8
POINTILLE_COURT
 10
150.373092
 20
-183.000995
 30
0.0
  0
SEQEND
  5
AF02
  8
POINTILLE_COURT
  0
POLYLINE
  5
9EE3
  8
POINTILLE_COURT
 66
     1
 10
0.0
 20
0.0
 30
0.0
 70
   128
210
0.0
220
0.0
230
-1.0
  0
VERTEX
  5
AF03
  8
POINTILLE_COURT
 10
-147.769249
 20
-181.312141
 30
0.0
  0
VERTEX
  5
AF04
  8
POINTILLE_COURT
 10
-146.394103
 20
-180.387234
 30
0.0
  0
VERTEX
  5
AF05
  8
POINTILLE_COURT
 10
-145.328473
 20
-179.117381
 30
0.0
  0
VERTEX
  5
AF06
  8
POINTILLE_COURT
 10
-144.653929
 20
-177.603384
 30
0.0
  0
VERTEX
  5
AF07
  8
POINTILLE_COURT
 10
-144.423092
 20
-175.962141
 30
0.0
  0
VERTEX
  5
AF08
  8
POINTILLE_COURT
 10
-144.653929
 20
-174.320898
 30
0.0
  0
VERTEX
  5
AF09
  8
POINTILLE_COURT
 10
-145.328473
 20
-172.806901
 30
0.0
  0
VERTEX
  5
AF0A
  8
POINTILLE_COURT
 10
-146.394103
 20
-171.537048
 30
0.0
  0
VERTEX
  5
AF0B
  8
POINTILLE_COURT
 10
-147.769249
 20
-170.612141
 30
0.0
  0
SEQEND
  5
AF0C
  8
POINTILLE_COURT
  0
ARC
  5
9EE4
  8
POINTILLE_COURT
 10
150.373092
 20
-176.887141
 30
0.0
 40
6.325
 50
151.541822
 51
28.44531
  0
CIRCLE
  5
9EE5
  8
POINTILLE_COURT
 10
150.373092
 20
-175.962141
 30
0.0
 40
5.35
  0
CIRCLE
  5
9EE6
  8
POINTILLE_COURT
 10
150.373092
 20
-175.962141
 30
0.0
 40
5.3
  0
LINE
  5
9EE7
  8
ALPHA
 10
158.372874
 20
-133.212194
 30
0.0
 11
142.373311
 21
-133.212194
 31
0.0
  0
LINE
  5
9EE8
  8
ALPHA
 10
157.988421
 20
-134.929779
 30
0.0
 11
142.757763
 21
-134.929779
 31
0.0
  0
LINE
  5
9EE9
  8
ALPHA
 10
157.673092
 20
-135.416312
 30
0.0
 11
143.073092
 21
-135.416312
 31
0.0
  0
LINE
  5
9EEA
  8
POINTILLE_COURT
 10
146.267009
 20
-171.662194
 30
0.0
 11
143.368031
 21
-171.662194
 31
0.0
  0
LINE
  5
9EEB
  8
POINTILLE_COURT
 10
146.123221
 20
-171.812194
 30
0.0
 11
143.423092
 21
-171.812194
 31
0.0
  0
LINE
  5
9EEC
  8
POINTILLE_COURT
 10
142.473092
 20
-182.512141
 30
0.0
 11
147.480869
 21
-182.512141
 31
0.0
  0
LINE
  5
9EED
  8
POINTILLE_COURT
 10
157.573092
 20
-183.212194
 30
0.0
 11
143.173092
 21
-183.212194
 31
0.0
  0
LINE
  5
9EEE
  8
ALPHA
 10
143.073092
 20
-135.416312
 30
0.0
 11
143.073092
 21
-171.972194
 31
0.0
  0
LINE
  5
9EEF
  8
ALPHA
 10
142.373092
 20
-181.712194
 30
0.0
 11
142.373092
 21
-133.212194
 31
0.0
  0
LINE
  5
9EF0
  8
POINTILLE_COURT
 10
143.173092
 20
-183.212141
 30
0.0
 11
143.173093
 21
-172.725694
 31
0.0
  0
LINE
  5
9EF1
  8
POINTILLE_COURT
 10
142.473092
 20
-182.512141
 30
0.0
 11
142.473092
 21
-173.425694
 31
0.0
  0
ARC
  5
9EF2
  8
POINTILLE_COURT
 10
143.173092
 20
-182.512141
 30
0.0
 40
0.7
 50
180.0
 51
270.0
  0
LINE
  5
9EF3
  8
POINTILLE_COURT
 10
142.473092
 20
-181.712194
 30
0.0
 11
142.373092
 21
-181.712194
 31
0.0
  0
LINE
  5
9EF4
  8
POINTILLE_COURT
 10
145.117381
 20
-176.962141
 30
0.0
 11
145.183348
 21
-176.962141
 31
0.0
  0
LINE
  5
9EF5
  8
POINTILLE_COURT
 10
145.633434
 20
-172.372194
 30
0.0
 11
143.423092
 21
-172.372194
 31
0.0
  0
LINE
  5
9EF6
  8
POINTILLE_COURT
 10
145.401744
 20
-172.725694
 30
0.0
 11
143.173093
 21
-172.725694
 31
0.0
  0
LINE
  5
9EF7
  8
POINTILLE_COURT
 10
145.245382
 20
-172.975694
 30
0.0
 11
143.173092
 21
-172.975694
 31
0.0
  0
POLYLINE
  5
9EF8
  8
POINTILLE_COURT
 66
     1
 10
0.0
 20
0.0
 30
0.0
 70
   128
210
0.0
220
0.0
230
-1.0
  0
VERTEX
  5
AF0D
  8
POINTILLE_COURT
 10
-142.373092
 20
-172.672194
 30
0.0
  0
VERTEX
  5
AF0E
  8
POINTILLE_COURT
 10
-142.578347
 20
-172.177032
 30
0.0
  0
VERTEX
  5
AF0F
  8
POINTILLE_COURT
 10
-143.073092
 20
-171.972194
 30
0.0
  0
SEQEND
  5
AF10
  8
POINTILLE_COURT
  0
LINE
  5
9EF9
  8
POINTILLE_COURT
 10
142.47792
 20
-173.372937
 30
0.0
 11
142.473092
 21
-173.425694
 31
0.0
  0
POLYLINE
  5
9EFA
  8
POINTILLE_COURT
 66
     1
 10
0.0
 20
0.0
 30
0.0
 70
   128
  0
VERTEX
  5
AF11
  8
POINTILLE_COURT
 10
143.173092
 20
-172.975694
 30
0.0
  0
VERTEX
  5
AF12
  8
POINTILLE_COURT
 10
142.755446
 20
-173.064576
 30
0.0
  0
VERTEX
  5
AF13
  8
POINTILLE_COURT
 10
142.47792
 20
-173.372937
 30
0.0
  0
SEQEND
  5
AF14
  8
POINTILLE_COURT
  0
POLYLINE
  5
9EFB
  8
POINTILLE_COURT
 66
     1
 10
0.0
 20
0.0
 30
0.0
 70
   128
  0
VERTEX
  5
AF15
  8
POINTILLE_COURT
 10
143.173093
 20
-172.725691
 30
0.0
  0
VERTEX
  5
AF16
  8
POINTILLE_COURT
 10
142.67814
 20
-172.930652
 30
0.0
  0
VERTEX
  5
AF17
  8
POINTILLE_COURT
 10
142.473106
 20
-173.425717
 30
0.0
  0
SEQEND
  5
AF18
  8
POINTILLE_COURT
  0
LINE
  5
9EFC
  8
POINTILLE_COURT
 10
143.659695
 20
-171.662194
 30
0.0
 11
143.573092
 21
-171.812194
 31
0.0
  0
LINE
  5
9EFD
  8
POINTILLE_COURT
 10
143.368031
 20
-171.662194
 30
0.0
 11
143.364319
 21
-172.725694
 31
0.0
  0
LINE
  5
9EFE
  8
POINTILLE_COURT
 10
143.423092
 20
-172.725694
 30
0.0
 11
143.423092
 21
-171.812194
 31
0.0
  0
LINE
  5
9EFF
  8
POINTILLE_COURT
 10
143.366949
 20
-171.972194
 30
0.0
 11
143.073092
 21
-171.972194
 31
0.0
  0
LINE
  5
9F00
  8
POINTILLE_COURT
 10
145.073092
 20
-171.662194
 30
0.0
 11
145.073092
 21
-171.812194
 31
0.0
  0
LINE
  5
9F01
  8
POINTILLE_COURT
 10
145.117381
 20
-174.962141
 30
0.0
 11
145.169421
 21
-174.962141
 31
0.0
  0
LINE
  5
9F02
  8
ALPHA
 10
142.385507
 20
-143.212194
 30
0.0
 11
142.373092
 21
-144.018807
 31
0.0
  0
LINE
  5
9F03
  8
ALPHA
 10
142.373092
 20
-142.405581
 30
0.0
 11
142.385507
 21
-143.212194
 31
0.0
  0
LINE
  5
9F04
  8
ALPHA
 10
142.373051
 20
-142.405553
 30
0.0
 11
142.380176
 21
-143.212194
 31
0.0
  0
LINE
  5
9F05
  8
ALPHA
 10
142.380165
 20
-143.212194
 30
0.0
 11
142.373048
 21
-144.018834
 31
0.0
  0
LINE
  5
9F06
  8
ALPHA
 10
143.073092
 20
-135.416312
 30
0.0
 11
142.757763
 21
-134.929779
 31
0.0
  0
LINE
  5
9F07
  8
ALPHA
 10
143.073092
 20
-135.416312
 30
0.0
 11
142.521267
 21
-135.221699
 31
0.0
  0
LINE
  5
9F08
  8
ALPHA
 10
142.273092
 20
-139.272703
 30
0.0
 11
142.273092
 21
-134.490175
 31
0.0
  0
LINE
  5
9F09
  8
ALPHA
 10
141.973092
 20
-139.272703
 30
0.0
 11
141.973092
 21
-134.490175
 31
0.0
  0
POLYLINE
  5
9F0A
  8
ALPHA
 66
     1
 10
0.0
 20
0.0
 30
0.0
  0
VERTEX
  5
AF19
  8
ALPHA
 10
142.373092
 20
-138.670484
 30
0.0
  0
VERTEX
  5
AF1A
  8
ALPHA
 10
142.342168
 20
-138.66575
 30
0.0
  0
VERTEX
  5
AF1B
  8
ALPHA
 10
142.314304
 20
-138.65203
 30
0.0
  0
VERTEX
  5
AF1C
  8
ALPHA
 10
142.292198
 20
-138.630677
 30
0.0
  0
VERTEX
  5
AF1D
  8
ALPHA
 10
142.277994
 20
-138.603763
 30
0.0
  0
VERTEX
  5
AF1E
  8
ALPHA
 10
142.273092
 20
-138.573892
 30
0.0
  0
SEQEND
  5
AF1F
  8
ALPHA
  0
POLYLINE
  5
9F0B
  8
ALPHA
 66
     1
 10
0.0
 20
0.0
 30
0.0
  0
VERTEX
  5
AF20
  8
ALPHA
 10
142.373092
 20
-139.369296
 30
0.0
  0
VERTEX
  5
AF21
  8
ALPHA
 10
142.342168
 20
-139.364561
 30
0.0
  0
VERTEX
  5
AF22
  8
ALPHA
 10
142.314304
 20
-139.350841
 30
0.0
  0
VERTEX
  5
AF23
  8
ALPHA
 10
142.292198
 20
-139.329489
 30
0.0
  0
VERTEX
  5
AF24
  8
ALPHA
 10
142.277994
 20
-139.302575
 30
0.0
  0
VERTEX
  5
AF25
  8
ALPHA
 10
142.273092
 20
-139.272703
 30
0.0
  0
SEQEND
  5
AF26
  8
ALPHA
  0
POLYLINE
  5
9F0C
  8
ALPHA
 66
     1
 10
0.0
 20
0.0
 30
0.0
  0
VERTEX
  5
AF27
  8
ALPHA
 10
141.973092
 20
-139.272703
 30
0.0
  0
VERTEX
  5
AF28
  8
ALPHA
 10
141.986742
 20
-139.372774
 30
0.0
  0
VERTEX
  5
AF29
  8
ALPHA
 10
142.026644
 20
-139.465825
 30
0.0
  0
VERTEX
  5
AF2A
  8
ALPHA
 10
142.09025
 20
-139.545908
 30
0.0
  0
VERTEX
  5
AF2B
  8
ALPHA
 10
142.173158
 20
-139.607346
 30
0.0
  0
VERTEX
  5
AF2C
  8
ALPHA
 10
142.269492
 20
-139.645889
 30
0.0
  0
VERTEX
  5
AF2D
  8
ALPHA
 10
142.373092
 20
-139.659074
 30
0.0
  0
SEQEND
  5
AF2E
  8
ALPHA
  0
LINE
  5
9F0D
  8
ALPHA
 10
144.581153
 20
-133.46282
 30
0.0
 11
142.673092
 21
-133.25935
 31
0.0
  0
LINE
  5
9F0E
  8
ALPHA
 10
142.521267
 20
-135.221699
 30
0.0
 11
142.757763
 21
-134.929779
 31
0.0
  0
LINE
  5
9F0F
  8
ALPHA
 10
142.673092
 20
-134.871721
 30
0.0
 11
142.757763
 21
-134.929779
 31
0.0
  0
POLYLINE
  5
9F10
  8
ALPHA
 66
     1
 10
0.0
 20
0.0
 30
0.0
 70
   128
210
0.0
220
0.0
230
-1.0
  0
VERTEX
  5
AF2F
  8
ALPHA
 10
-142.373092
 20
-135.163916
 30
0.0
  0
VERTEX
  5
AF30
  8
ALPHA
 10
-142.462416
 20
-134.955894
 30
0.0
  0
VERTEX
  5
AF31
  8
ALPHA
 10
-142.673092
 20
-134.871721
 30
0.0
  0
SEQEND
  5
AF32
  8
ALPHA
  0
LINE
  5
9F11
  8
ALPHA
 10
142.373092
 20
-135.163916
 30
0.0
 11
142.521267
 21
-135.221699
 31
0.0
  0
LINE
  5
9F12
  8
ALPHA
 10
142.466198
 20
-133.316791
 30
0.0
 11
142.673092
 21
-133.25935
 31
0.0
  0
LINE
  5
9F13
  8
ALPHA
 10
142.373092
 20
-133.522194
 30
0.0
 11
142.466198
 21
-133.316791
 31
0.0
  0
LINE
  5
9F14
  8
ALPHA
 10
142.273092
 20
-134.490175
 30
0.0
 11
142.373092
 21
-134.389424
 31
0.0
  0
LINE
  5
9F15
  8
ALPHA
 10
142.364439
 20
-134.724523
 30
0.0
 11
142.373092
 21
-134.724128
 31
0.0
  0
LINE
  5
9F16
  8
ALPHA
 10
142.273092
 20
-134.828307
 30
0.0
 11
142.364439
 21
-134.724523
 31
0.0
  0
POLYLINE
  5
9F17
  8
ALPHA
 66
     1
 10
0.0
 20
0.0
 30
0.0
 70
   128
210
0.0
220
0.0
230
-1.0
  0
VERTEX
  5
AF33
  8
ALPHA
 10
-141.973092
 20
-134.490175
 30
0.0
  0
VERTEX
  5
AF34
  8
ALPHA
 10
-142.089721
 20
-134.205742
 30
0.0
  0
VERTEX
  5
AF35
  8
ALPHA
 10
-142.373092
 20
-134.087171
 30
0.0
  0
SEQEND
  5
AF36
  8
ALPHA
  0
LINE
  5
9F18
  8
ALPHA
 10
142.273092
 20
-134.916936
 30
0.0
 11
141.973092
 21
-134.916936
 31
0.0
  0
LINE
  5
9F19
  8
ALPHA
 10
142.273092
 20
-135.046345
 30
0.0
 11
141.973092
 21
-135.046345
 31
0.0
  0
LINE
  5
9F1A
  8
ALPHA
 10
142.673092
 20
-134.871721
 30
0.0
 11
142.673092
 21
-133.25935
 31
0.0
  0
LINE
  5
9F1B
  8
ALPHA
 10
144.614721
 20
-133.465889
 30
0.0
 11
144.581153
 21
-133.46282
 31
0.0
  0
LINE
  5
9F1C
  8
ALPHA
 10
158.373092
 20
-181.712194
 30
0.0
 11
158.373092
 21
-133.212194
 31
0.0
  0
LINE
  5
9F1D
  8
ALPHA
 10
157.673092
 20
-171.972194
 30
0.0
 11
157.673092
 21
-135.416312
 31
0.0
  0
POLYLINE
  5
9F25
  8
POINTILLE_COURT
 66
     1
 10
0.0
 20
0.0
 30
0.0
 70
   128
  0
VERTEX
  5
AF37
  8
POINTILLE_COURT
 10
150.373092
 20
-183.000995
 30
0.0
  0
VERTEX
  5
AF38
  8
POINTILLE_COURT
 10
151.72855
 20
-182.849394
 30
0.0
  0
VERTEX
  5
AF39
  8
POINTILLE_COURT
 10
153.015608
 20
-182.395789
 30
0.0
  0
VERTEX
  5
AF3A
  8
POINTILLE_COURT
 10
154.169452
 20
-181.668089
 30
0.0
  0
VERTEX
  5
AF3B
  8
POINTILLE_COURT
 10
155.132249
 20
-180.701708
 30
0.0
  0
VERTEX
  5
AF3C
  8
POINTILLE_COURT
 10
155.85604
 20
-179.545366
 30
0.0
  0
VERTEX
  5
AF3D
  8
POINTILLE_COURT
 10
156.305382
 20
-178.257175
 30
0.0
  0
VERTEX
  5
AF3E
  8
POINTILLE_COURT
 10
156.459078
 20
-176.901276
 30
0.0
  0
VERTEX
  5
AF3F
  8
POINTILLE_COURT
 10
156.308068
 20
-175.545832
 30
0.0
  0
SEQEND
  5
AF40
  8
POINTILLE_COURT
  0
POLYLINE
  5
9F26
  8
POINTILLE_COURT
 66
     1
 10
0.0
 20
0.0
 30
0.0
 70
   128
210
0.0
220
0.0
230
-1.0
  0
VERTEX
  5
AF41
  8
POINTILLE_COURT
 10
-152.976936
 20
-170.612141
 30
0.0
  0
VERTEX
  5
AF42
  8
POINTILLE_COURT
 10
-154.352082
 20
-171.537048
 30
0.0
  0
VERTEX
  5
AF43
  8
POINTILLE_COURT
 10
-155.417712
 20
-172.806901
 30
0.0
  0
VERTEX
  5
AF44
  8
POINTILLE_COURT
 10
-156.092256
 20
-174.320898
 30
0.0
  0
VERTEX
  5
AF45
  8
POINTILLE_COURT
 10
-156.323092
 20
-175.962141
 30
0.0
  0
VERTEX
  5
AF46
  8
POINTILLE_COURT
 10
-156.092256
 20
-177.603384
 30
0.0
  0
VERTEX
  5
AF47
  8
POINTILLE_COURT
 10
-155.417712
 20
-179.117381
 30
0.0
  0
VERTEX
  5
AF48
  8
POINTILLE_COURT
 10
-154.352082
 20
-180.387234
 30
0.0
  0
VERTEX
  5
AF49
  8
POINTILLE_COURT
 10
-152.976936
 20
-181.312141
 30
0.0
  0
SEQEND
  5
AF4A
  8
POINTILLE_COURT
  0
ARC
  5
9F27
  8
POINTILLE_COURT
 10
150.373092
 20
-175.962141
 30
0.0
 40
4.1
 50
53.414968
 51
36.585032
  0
CIRCLE
  5
9F28
  8
POINTILLE_COURT
 10
152.873422
 20
-175.962141
 30
0.0
 40
0.549407
  0
CIRCLE
  5
9F29
  8
POINTILLE_COURT
 10
150.373092
 20
-175.962141
 30
0.0
 40
0.549407
  0
CIRCLE
  5
9F2A
  8
POINTILLE_COURT
 10
150.373092
 20
-175.962141
 30
0.0
 40
4.35
  0
CIRCLE
  5
9F2B
  8
POINTILLE_COURT
 10
150.373092
 20
-175.962141
 30
0.0
 40
4.15
  0
CIRCLE
  5
9F2C
  8
POINTILLE_COURT
 10
147.872763
 20
-175.962141
 30
0.0
 40
0.549407
  0
LINE
  5
9F2D
  8
POINTILLE_COURT
 10
158.273092
 20
-173.425694
 30
0.0
 11
158.273092
 21
-182.512141
 31
0.0
  0
LINE
  5
9F2E
  8
POINTILLE_COURT
 10
157.573092
 20
-183.212141
 30
0.0
 11
157.573092
 21
-172.725694
 31
0.0
  0
LINE
  5
9F2F
  8
POINTILLE_COURT
 10
158.273092
 20
-182.512141
 30
0.0
 11
153.265339
 21
-182.512141
 31
0.0
  0
ARC
  5
9F30
  8
POINTILLE_COURT
 10
150.373092
 20
-175.962141
 30
0.0
 40
5.75
 50
248.845824
 51
291.154295
  0
LINE
  5
9F31
  8
POINTILLE_COURT
 10
147.769249
 20
-181.312141
 30
0.0
 11
152.976936
 21
-181.312141
 31
0.0
  0
CIRCLE
  5
9F32
  8
POINTILLE_COURT
 10
147.872763
 20
-175.962141
 30
0.0
 40
0.049407
  0
CIRCLE
  5
9F33
  8
POINTILLE_COURT
 10
150.373092
 20
-178.462471
 30
0.0
 40
0.049407
  0
CIRCLE
  5
9F34
  8
POINTILLE_COURT
 10
150.373092
 20
-175.962141
 30
0.0
 40
0.049407
  0
CIRCLE
  5
9F35
  8
POINTILLE_COURT
 10
150.373092
 20
-178.462471
 30
0.0
 40
0.549407
  0
CIRCLE
  5
9F36
  8
POINTILLE_COURT
 10
152.873422
 20
-175.962141
 30
0.0
 40
0.049407
  0
ARC
  5
9F37
  8
POINTILLE_COURT
 10
157.573092
 20
-182.512141
 30
0.0
 40
0.7
 50
270.0
 51
0.0
  0
LINE
  5
9F38
  8
POINTILLE_COURT
 10
158.373092
 20
-181.712194
 30
0.0
 11
158.273092
 21
-181.712194
 31
0.0
  0
ARC
  5
9F39
  8
POINTILLE_COURT
 10
150.373092
 20
-176.887141
 30
0.0
 40
6.325
 50
83.020695
 51
96.97764
  0
LINE
  5
9F3A
  8
POINTILLE_COURT
 10
152.976936
 20
-170.612141
 30
0.0
 11
147.769249
 21
-170.612141
 31
0.0
  0
CIRCLE
  5
9F3B
  8
POINTILLE_COURT
 10
150.373092
 20
-173.461811
 30
0.0
 40
0.049407
  0
CIRCLE
  5
9F3C
  8
POINTILLE_COURT
 10
150.373092
 20
-173.461811
 30
0.0
 40
0.549407
  0
ARC
  5
9F3D
  8
POINTILLE_COURT
 10
152.954032
 20
-173.381201
 30
0.0
 40
0.5
 50
135.0
 51
315.0
  0
ARC
  5
9F3E
  8
POINTILLE_COURT
 10
152.883322
 20
-173.451912
 30
0.0
 40
0.6
 50
135.0
 51
315.0
  0
LINE
  5
9F3F
  8
POINTILLE_COURT
 10
153.701018
 20
-173.482744
 30
0.0
 11
153.307586
 21
-173.876176
 31
0.0
  0
LINE
  5
9F40
  8
POINTILLE_COURT
 10
153.639763
 20
-173.402578
 30
0.0
 11
153.307586
 21
-173.734755
 31
0.0
  0
LINE
  5
9F41
  8
POINTILLE_COURT
 10
152.600479
 20
-173.027648
 30
0.0
 11
152.932656
 21
-172.695471
 31
0.0
  0
LINE
  5
9F42
  8
POINTILLE_COURT
 10
152.459057
 20
-173.027648
 30
0.0
 11
152.85249
 21
-172.634216
 31
0.0
  0
POLYLINE
  5
9F43
  8
POINTILLE_COURT
 66
     1
 10
0.0
 20
0.0
 30
0.0
 70
   128
  0
VERTEX
  5
AF4B
  8
POINTILLE_COURT
 10
158.373092
 20
-172.672194
 30
0.0
  0
VERTEX
  5
AF4C
  8
POINTILLE_COURT
 10
158.167838
 20
-172.177032
 30
0.0
  0
VERTEX
  5
AF4D
  8
POINTILLE_COURT
 10
157.673092
 20
-171.972194
 30
0.0
  0
SEQEND
  5
AF4E
  8
POINTILLE_COURT
  0
POLYLINE
  5
9F44
  8
POINTILLE_COURT
 66
     1
 10
0.0
 20
0.0
 30
0.0
 70
   128
  0
VERTEX
  5
AF4F
  8
POINTILLE_COURT
 10
158.273092
 20
-173.425694
 30
0.0
  0
VERTEX
  5
AF50
  8
POINTILLE_COURT
 10
158.014469
 20
-173.076421
 30
0.0
  0
VERTEX
  5
AF51
  8
POINTILLE_COURT
 10
157.573092
 20
-172.975694
 30
0.0
  0
SEQEND
  5
AF52
  8
POINTILLE_COURT
  0
POLYLINE
  5
9F45
  8
POINTILLE_COURT
 66
     1
 10
0.0
 20
0.0
 30
0.0
 70
   128
  0
VERTEX
  5
AF53
  8
POINTILLE_COURT
 10
158.273078
 20
-173.425717
 30
0.0
  0
VERTEX
  5
AF54
  8
POINTILLE_COURT
 10
158.068048
 20
-172.930654
 30
0.0
  0
VERTEX
  5
AF55
  8
POINTILLE_COURT
 10
157.573092
 20
-172.725698
 30
0.0
  0
SEQEND
  5
AF56
  8
POINTILLE_COURT
  0
LINE
  5
9F46
  8
POINTILLE_COURT
 10
157.378154
 20
-171.662194
 30
0.0
 11
154.479176
 21
-171.662194
 31
0.0
  0
LINE
  5
9F47
  8
POINTILLE_COURT
 10
157.323092
 20
-171.812194
 30
0.0
 11
154.622964
 21
-171.812194
 31
0.0
  0
LINE
  5
9F48
  8
POINTILLE_COURT
 10
157.323092
 20
-172.372194
 30
0.0
 11
155.112751
 21
-172.372194
 31
0.0
  0
LINE
  5
9F49
  8
POINTILLE_COURT
 10
157.573092
 20
-172.725694
 30
0.0
 11
155.344441
 21
-172.725694
 31
0.0
  0
LINE
  5
9F4A
  8
POINTILLE_COURT
 10
157.573092
 20
-172.975694
 30
0.0
 11
155.500803
 21
-172.975694
 31
0.0
  0
LINE
  5
9F4B
  8
POINTILLE_COURT
 10
155.673092
 20
-171.662194
 30
0.0
 11
155.673092
 21
-171.812194
 31
0.0
  0
LINE
  5
9F4C
  8
POINTILLE_COURT
 10
157.323092
 20
-172.725694
 30
0.0
 11
157.323092
 21
-171.812194
 31
0.0
  0
LINE
  5
9F4D
  8
POINTILLE_COURT
 10
157.378154
 20
-171.662194
 30
0.0
 11
157.381866
 21
-172.725694
 31
0.0
  0
LINE
  5
9F4E
  8
POINTILLE_COURT
 10
157.08649
 20
-171.662194
 30
0.0
 11
157.173092
 21
-171.812194
 31
0.0
  0
LINE
  5
9F4F
  8
POINTILLE_COURT
 10
157.673092
 20
-171.972194
 30
0.0
 11
157.379236
 21
-171.972194
 31
0.0
  0
LINE
  5
9F88
  8
ALPHA
 10
154.993673
 20
-133.559449
 30
0.0
 11
150.373092
 21
-133.728951
 31
0.0
  0
LINE
  5
9F89
  8
ALPHA
 10
150.373092
 20
-133.728951
 30
0.0
 11
145.752511
 21
-133.559449
 31
0.0
  0
LINE
  5
9F8A
  8
ALPHA
 10
158.360678
 20
-143.212194
 30
0.0
 11
158.373092
 21
-142.405581
 31
0.0
  0
LINE
  5
9F8B
  8
ALPHA
 10
158.373092
 20
-144.018807
 30
0.0
 11
158.360678
 21
-143.212194
 31
0.0
  0
LINE
  5
9F8C
  8
ALPHA
 10
158.373135
 20
-144.018836
 30
0.0
 11
158.36602
 21
-143.212194
 31
0.0
  0
LINE
  5
9F8D
  8
ALPHA
 10
158.366008
 20
-143.212194
 30
0.0
 11
158.37314
 21
-142.405554
 31
0.0
  0
LINE
  5
9F8E
  8
ALPHA
 10
158.073092
 20
-133.25935
 30
0.0
 11
156.164951
 21
-133.462827
 31
0.0
  0
LINE
  5
9F8F
  8
ALPHA
 10
158.224918
 20
-135.221699
 30
0.0
 11
157.988421
 21
-134.929779
 31
0.0
  0
LINE
  5
9F90
  8
ALPHA
 10
158.224918
 20
-135.221699
 30
0.0
 11
157.673092
 21
-135.416312
 31
0.0
  0
LINE
  5
9F91
  8
ALPHA
 10
158.073092
 20
-134.871721
 30
0.0
 11
157.988421
 21
-134.929779
 31
0.0
  0
LINE
  5
9F92
  8
ALPHA
 10
157.988421
 20
-134.929779
 30
0.0
 11
157.673092
 21
-135.416312
 31
0.0
  0
LINE
  5
9F93
  8
ALPHA
 10
156.131464
 20
-133.465889
 30
0.0
 11
154.993673
 21
-133.559449
 31
0.0
  0
LINE
  5
9F94
  8
ALPHA
 10
156.164951
 20
-133.462827
 30
0.0
 11
156.131464
 21
-133.465889
 31
0.0
  0
POLYLINE
  5
9F95
  8
ALPHA
 66
     1
 10
0.0
 20
0.0
 30
0.0
 70
   128
  0
VERTEX
  5
AF57
  8
ALPHA
 10
158.373092
 20
-135.163916
 30
0.0
  0
VERTEX
  5
AF58
  8
ALPHA
 10
158.283769
 20
-134.955894
 30
0.0
  0
VERTEX
  5
AF59
  8
ALPHA
 10
158.073092
 20
-134.871721
 30
0.0
  0
SEQEND
  5
AF5A
  8
ALPHA
  0
LINE
  5
9F96
  8
ALPHA
 10
158.373092
 20
-135.163916
 30
0.0
 11
158.224918
 21
-135.221699
 31
0.0
  0
LINE
  5
9F97
  8
ALPHA
 10
158.279987
 20
-133.316791
 30
0.0
 11
158.073092
 21
-133.25935
 31
0.0
  0
LINE
  5
9F98
  8
ALPHA
 10
158.373092
 20
-133.522194
 30
0.0
 11
158.279987
 21
-133.316791
 31
0.0
  0
LINE
  5
9F99
  8
ALPHA
 10
158.073092
 20
-134.871721
 30
0.0
 11
158.073092
 21
-133.25935
 31
0.0
  0
LINE
  5
A0AD
  8
AXE
 10
150.373092
 20
-128.212194
 30
0.0
 11
150.373092
 21
-221.212194
 31
0.0
  0
TEXT
  5
A0AE
  8
AXE
 10
142.896902
 20
-221.212194
 30
0.0
 40
8.0
  1
Y
 72
     2
 11
149.373092
 21
-221.212194
 31
0.0
  0
LINE
  5
A0AF
  8
AXE
 10
137.373092
 20
-156.814235
 30
0.0
 11
173.373092
 21
-156.814235
 31
0.0
  0
TEXT
  5
A0B0
  8
AXE
 10
166.896902
 20
-155.814235
 30
0.0
 40
8.0
  1
Z
 72
     2
 11
173.373092
 21
-155.814235
 31
0.0
  0
DIMENSION
  5
A0B1
  8
COTATION1
  2
*D3
 10
158.373092
 20
-118.212194
 30
0.0
 11
150.173092
 21
-114.962194
 31
0.0
 13
141.973092
 23
-134.490175
 33
0.0
 14
158.373092
 24
-133.212194
 34
0.0
  0
LINE
  5
A930
  8
ALPHA
 10
145.073127
 20
-205.212194
 30
0.0
 11
155.673058
 21
-205.212194
 31
0.0
  0
LINE
  5
A931
  8
ALPHA
 10
155.628804
 20
-204.212194
 30
0.0
 11
145.023186
 21
-204.212194
 31
0.0
  0
LINE
  5
A932
  8
ALPHA
 10
156.123065
 20
-193.212194
 30
0.0
 11
144.62312
 21
-193.212194
 31
0.0
  0
LINE
  5
A933
  8
ALPHA
 10
144.428178
 20
-201.756315
 30
0.0
 11
147.769249
 21
-201.584284
 31
0.0
  0
LINE
  5
A934
  8
ALPHA
 10
144.428178
 20
-202.756315
 30
0.0
 11
147.769249
 21
-202.584284
 31
0.0
  0
LINE
  5
A935
  8
ALPHA
 10
150.373092
 20
-200.112194
 30
0.0
 11
145.028859
 21
-200.355844
 31
0.0
  0
LINE
  5
A936
  8
ALPHA
 10
144.428178
 20
-197.756315
 30
0.0
 11
147.769249
 21
-197.584283
 31
0.0
  0
LINE
  5
A937
  8
ALPHA
 10
144.428178
 20
-198.756315
 30
0.0
 11
147.769249
 21
-198.584284
 31
0.0
  0
LINE
  5
A938
  8
ALPHA
 10
144.428178
 20
-199.756315
 30
0.0
 11
147.769249
 21
-199.584284
 31
0.0
  0
LINE
  5
A939
  8
ALPHA
 10
150.373092
 20
-199.112194
 30
0.0
 11
145.028622
 21
-199.355446
 31
0.0
  0
LINE
  5
A93A
  8
ALPHA
 10
150.373092
 20
-198.112194
 30
0.0
 11
145.028531
 21
-198.355295
 31
0.0
  0
LINE
  5
A93B
  8
ALPHA
 10
150.373092
 20
-197.112194
 30
0.0
 11
145.028859
 21
-197.355844
 31
0.0
  0
LINE
  5
A93C
  8
ALPHA
 10
145.023108
 20
-203.058861
 30
0.0
 11
150.373092
 21
-202.808862
 31
0.0
  0
LINE
  5
A93D
  8
ALPHA
 10
145.023142
 20
-202.058854
 30
0.0
 11
150.373092
 21
-201.808862
 31
0.0
  0
LINE
  5
A93E
  8
ALPHA
 10
145.023107
 20
-201.058863
 30
0.0
 11
150.373092
 21
-200.808862
 31
0.0
  0
LINE
  5
A93F
  8
ALPHA
 10
150.373092
 20
-202.112194
 30
0.0
 11
145.028622
 21
-202.355446
 31
0.0
  0
LINE
  5
A940
  8
ALPHA
 10
145.023108
 20
-200.058861
 30
0.0
 11
150.373092
 21
-199.808862
 31
0.0
  0
LINE
  5
A941
  8
ALPHA
 10
145.023142
 20
-199.058854
 30
0.0
 11
150.373092
 21
-198.808862
 31
0.0
  0
LINE
  5
A942
  8
ALPHA
 10
145.023107
 20
-198.058863
 30
0.0
 11
150.373092
 21
-197.808862
 31
0.0
  0
LINE
  5
A943
  8
ALPHA
 10
150.373092
 20
-201.112194
 30
0.0
 11
145.028531
 21
-201.355295
 31
0.0
  0
LINE
  5
A944
  8
ALPHA
 10
144.428178
 20
-200.756315
 30
0.0
 11
147.769249
 21
-200.584283
 31
0.0
  0
POLYLINE
  5
A945
  8
ALPHA
 66
     1
 10
0.0
 20
0.0
 30
0.0
 70
   128
  0
VERTEX
  5
AF5B
  8
ALPHA
 10
150.373092
 20
-189.740058
 30
0.0
  0
VERTEX
  5
AF5C
  8
ALPHA
 10
146.968229
 20
-189.982496
 30
0.0
  0
VERTEX
  5
AF5D
  8
ALPHA
 10
145.306429
 20
-190.370791
 30
0.0
  0
VERTEX
  5
AF5E
  8
ALPHA
 10
144.532064
 20
-190.72613
 30
0.0
  0
VERTEX
  5
AF5F
  8
ALPHA
 10
144.201384
 20
-191.002462
 30
0.0
  0
VERTEX
  5
AF60
  8
ALPHA
 10
144.048408
 20
-191.394183
 30
0.0
  0
SEQEND
  5
AF61
  8
ALPHA
  0
POLYLINE
  5
A946
  8
ALPHA
 66
     1
 10
0.0
 20
0.0
 30
0.0
 70
   128
  0
VERTEX
  5
AF62
  8
ALPHA
 10
150.373092
 20
-190.634485
 30
0.0
  0
VERTEX
  5
AF63
  8
ALPHA
 10
148.658097
 20
-190.702588
 30
0.0
  0
VERTEX
  5
AF64
  8
ALPHA
 10
146.956679
 20
-190.926454
 30
0.0
  0
VERTEX
  5
AF65
  8
ALPHA
 10
145.30919
 20
-191.39886
 30
0.0
  0
VERTEX
  5
AF66
  8
ALPHA
 10
144.577581
 20
-191.842293
 30
0.0
  0
VERTEX
  5
AF67
  8
ALPHA
 10
144.325523
 20
-192.191366
 30
0.0
  0
VERTEX
  5
AF68
  8
ALPHA
 10
144.328318
 20
-192.613703
 30
0.0
  0
SEQEND
  5
AF69
  8
ALPHA
  0
LINE
  5
A947
  8
ALPHA
 10
144.048092
 20
-183.212194
 30
0.0
 11
144.048092
 21
-191.395016
 31
0.0
  0
LINE
  5
A948
  8
ALPHA
 10
145.023092
 20
-198.058862
 30
0.0
 11
145.023092
 21
-198.355097
 31
0.0
  0
LINE
  5
A949
  8
ALPHA
 10
145.023092
 20
-199.058862
 30
0.0
 11
145.023092
 21
-199.355097
 31
0.0
  0
LINE
  5
A94A
  8
ALPHA
 10
145.023092
 20
-200.058862
 30
0.0
 11
145.023092
 21
-200.355097
 31
0.0
  0
LINE
  5
A94B
  8
ALPHA
 10
145.023092
 20
-201.058862
 30
0.0
 11
145.023092
 21
-201.355097
 31
0.0
  0
LINE
  5
A94C
  8
ALPHA
 10
145.023092
 20
-202.058862
 30
0.0
 11
145.023092
 21
-202.355097
 31
0.0
  0
LINE
  5
A94D
  8
ALPHA
 10
145.023092
 20
-203.058862
 30
0.0
 11
145.023092
 21
-204.212194
 31
0.0
  0
LINE
  5
A94E
  8
ALPHA
 10
144.432095
 20
-198.770115
 30
0.0
 11
144.428178
 21
-198.756315
 31
0.0
  0
LINE
  5
A94F
  8
ALPHA
 10
144.43178
 20
-198.770796
 30
0.0
 11
145.021191
 21
-199.062701
 31
0.0
  0
LINE
  5
A950
  8
ALPHA
 10
144.432095
 20
-199.770115
 30
0.0
 11
144.428178
 21
-199.756315
 31
0.0
  0
LINE
  5
A951
  8
ALPHA
 10
144.43178
 20
-199.770796
 30
0.0
 11
145.021191
 21
-200.062701
 31
0.0
  0
LINE
  5
A952
  8
ALPHA
 10
145.028411
 20
-199.355097
 30
0.0
 11
144.427876
 21
-199.755812
 31
0.0
  0
LINE
  5
A953
  8
ALPHA
 10
144.432095
 20
-200.770115
 30
0.0
 11
144.428178
 21
-200.756315
 31
0.0
  0
LINE
  5
A954
  8
ALPHA
 10
144.43178
 20
-200.770795
 30
0.0
 11
145.021191
 21
-201.0627
 31
0.0
  0
LINE
  5
A955
  8
ALPHA
 10
144.432095
 20
-201.770115
 30
0.0
 11
144.428178
 21
-201.756315
 31
0.0
  0
LINE
  5
A956
  8
ALPHA
 10
144.43178
 20
-201.770796
 30
0.0
 11
145.021191
 21
-202.062701
 31
0.0
  0
LINE
  5
A957
  8
ALPHA
 10
144.432095
 20
-202.770115
 30
0.0
 11
144.428178
 21
-202.756315
 31
0.0
  0
LINE
  5
A958
  8
ALPHA
 10
144.43178
 20
-202.770796
 30
0.0
 11
145.021191
 21
-203.062701
 31
0.0
  0
LINE
  5
A959
  8
ALPHA
 10
145.028411
 20
-200.355097
 30
0.0
 11
144.427876
 21
-200.755811
 31
0.0
  0
LINE
  5
A95A
  8
ALPHA
 10
145.028411
 20
-201.355097
 30
0.0
 11
144.427876
 21
-201.755812
 31
0.0
  0
LINE
  5
A95B
  8
ALPHA
 10
145.028411
 20
-202.355097
 30
0.0
 11
144.427876
 21
-202.755812
 31
0.0
  0
LINE
  5
A95C
  8
ALPHA
 10
145.073092
 20
-204.212194
 30
0.0
 11
145.073092
 21
-205.212194
 31
0.0
  0
LINE
  5
A95D
  8
ALPHA
 10
145.028411
 20
-198.355097
 30
0.0
 11
144.427876
 21
-198.755812
 31
0.0
  0
POLYLINE
  5
A95E
  8
ALPHA
 66
     1
 10
0.0
 20
0.0
 30
0.0
 70
   128
  0
VERTEX
  5
AF6A
  8
ALPHA
 10
144.048102
 20
-191.394032
 30
0.0
  0
VERTEX
  5
AF6B
  8
ALPHA
 10
144.126518
 20
-192.058091
 30
0.0
  0
VERTEX
  5
AF6C
  8
ALPHA
 10
144.359542
 20
-192.685062
 30
0.0
  0
SEQEND
  5
AF6D
  8
ALPHA
  0
LINE
  5
A95F
  8
ALPHA
 10
144.328318
 20
-192.613703
 30
0.0
 11
144.358388
 21
-192.683808
 31
0.0
  0
LINE
  5
A960
  8
ALPHA
 10
145.023092
 20
-193.212194
 30
0.0
 11
145.023092
 21
-197.355097
 31
0.0
  0
LINE
  5
A961
  8
ALPHA
 10
144.432095
 20
-197.770115
 30
0.0
 11
144.428178
 21
-197.756315
 31
0.0
  0
LINE
  5
A962
  8
ALPHA
 10
144.43178
 20
-197.770795
 30
0.0
 11
145.021191
 21
-198.0627
 31
0.0
  0
LINE
  5
A963
  8
ALPHA
 10
145.028411
 20
-197.355097
 30
0.0
 11
144.427876
 21
-197.755811
 31
0.0
  0
LINE
  5
A964
  8
ALPHA
 10
144.623092
 20
-193.212194
 30
0.0
 11
144.35879
 21
-192.68359
 31
0.0
  0
LINE
  5
A965
  8
ALPHA
 10
156.698092
 20
-183.212194
 30
0.0
 11
156.698092
 21
-191.395024
 31
0.0
  0
LINE
  5
A966
  8
ALPHA
 10
155.713436
 20
-198.568426
 30
0.0
 11
156.314405
 21
-198.270796
 31
0.0
  0
POLYLINE
  5
A967
  8
ALPHA
 66
     1
 10
0.0
 20
0.0
 30
0.0
 70
   128
210
0.0
220
0.0
230
-1.0
  0
VERTEX
  5
AF6E
  8
ALPHA
 10
-150.373092
 20
-198.112194
 30
0.0
  0
VERTEX
  5
AF6F
  8
ALPHA
 10
-151.686962
 20
-198.179856
 30
0.0
  0
VERTEX
  5
AF70
  8
ALPHA
 10
-152.976936
 20
-198.440105
 30
0.0
  0
SEQEND
  5
AF71
  8
ALPHA
  0
POLYLINE
  5
A968
  8
ALPHA
 66
     1
 10
0.0
 20
0.0
 30
0.0
 70
   128
210
0.0
220
0.0
230
-1.0
  0
VERTEX
  5
AF72
  8
ALPHA
 10
-147.769249
 20
-198.584284
 30
0.0
  0
VERTEX
  5
AF73
  8
ALPHA
 10
-149.054898
 20
-198.257326
 30
0.0
  0
VERTEX
  5
AF74
  8
ALPHA
 10
-150.373092
 20
-198.112194
 30
0.0
  0
SEQEND
  5
AF75
  8
ALPHA
  0
LINE
  5
A969
  8
ALPHA
 10
152.976936
 20
-198.440105
 30
0.0
 11
156.31409
 21
-198.270115
 31
0.0
  0
LINE
  5
A96A
  8
ALPHA
 10
150.373092
 20
-202.808862
 30
0.0
 11
155.713
 21
-202.567491
 31
0.0
  0
LINE
  5
A96B
  8
ALPHA
 10
155.72308
 20
-201.862193
 30
0.0
 11
150.373092
 21
-202.112194
 31
0.0
  0
LINE
  5
A96C
  8
ALPHA
 10
155.723043
 20
-200.862202
 30
0.0
 11
150.373092
 21
-201.112194
 31
0.0
  0
LINE
  5
A96D
  8
ALPHA
 10
155.723078
 20
-199.862195
 30
0.0
 11
150.373092
 21
-200.112194
 31
0.0
  0
LINE
  5
A96E
  8
ALPHA
 10
155.72308
 20
-198.862193
 30
0.0
 11
150.373092
 21
-199.112194
 31
0.0
  0
LINE
  5
A96F
  8
ALPHA
 10
152.976936
 20
-202.440105
 30
0.0
 11
156.31409
 21
-202.270115
 31
0.0
  0
LINE
  5
A970
  8
ALPHA
 10
150.373092
 20
-201.808862
 30
0.0
 11
155.713266
 21
-201.568057
 31
0.0
  0
LINE
  5
A971
  8
ALPHA
 10
152.976936
 20
-201.440105
 30
0.0
 11
156.31409
 21
-201.270115
 31
0.0
  0
LINE
  5
A972
  8
ALPHA
 10
152.976936
 20
-200.440104
 30
0.0
 11
156.31409
 21
-200.270115
 31
0.0
  0
LINE
  5
A973
  8
ALPHA
 10
150.373092
 20
-200.808862
 30
0.0
 11
155.713189
 21
-200.56789
 31
0.0
  0
LINE
  5
A974
  8
ALPHA
 10
150.373092
 20
-199.808862
 30
0.0
 11
155.713
 21
-199.567491
 31
0.0
  0
LINE
  5
A975
  8
ALPHA
 10
152.976936
 20
-199.440105
 30
0.0
 11
156.31409
 21
-199.270115
 31
0.0
  0
LINE
  5
A976
  8
ALPHA
 10
150.373092
 20
-198.808862
 30
0.0
 11
155.713266
 21
-198.568057
 31
0.0
  0
POLYLINE
  5
A977
  8
ALPHA
 66
     1
 10
0.0
 20
0.0
 30
0.0
 70
   128
210
0.0
220
0.0
230
-1.0
  0
VERTEX
  5
AF76
  8
ALPHA
 10
-150.373092
 20
-202.112194
 30
0.0
  0
VERTEX
  5
AF77
  8
ALPHA
 10
-151.686962
 20
-202.179856
 30
0.0
  0
VERTEX
  5
AF78
  8
ALPHA
 10
-152.976936
 20
-202.440105
 30
0.0
  0
SEQEND
  5
AF79
  8
ALPHA
  0
POLYLINE
  5
A978
  8
ALPHA
 66
     1
 10
0.0
 20
0.0
 30
0.0
 70
   128
210
0.0
220
0.0
230
-1.0
  0
VERTEX
  5
AF7A
  8
ALPHA
 10
-150.373092
 20
-201.112194
 30
0.0
  0
VERTEX
  5
AF7B
  8
ALPHA
 10
-151.686962
 20
-201.179856
 30
0.0
  0
VERTEX
  5
AF7C
  8
ALPHA
 10
-152.976936
 20
-201.440105
 30
0.0
  0
SEQEND
  5
AF7D
  8
ALPHA
  0
POLYLINE
  5
A979
  8
ALPHA
 66
     1
 10
0.0
 20
0.0
 30
0.0
 70
   128
210
0.0
220
0.0
230
-1.0
  0
VERTEX
  5
AF7E
  8
ALPHA
 10
-150.373092
 20
-200.112194
 30
0.0
  0
VERTEX
  5
AF7F
  8
ALPHA
 10
-151.686962
 20
-200.179856
 30
0.0
  0
VERTEX
  5
AF80
  8
ALPHA
 10
-152.976936
 20
-200.440104
 30
0.0
  0
SEQEND
  5
AF81
  8
ALPHA
  0
POLYLINE
  5
A97A
  8
ALPHA
 66
     1
 10
0.0
 20
0.0
 30
0.0
 70
   128
210
0.0
220
0.0
230
-1.0
  0
VERTEX
  5
AF82
  8
ALPHA
 10
-152.976936
 20
-202.440105
 30
0.0
  0
VERTEX
  5
AF83
  8
ALPHA
 10
-151.684512
 20
-202.692283
 30
0.0
  0
VERTEX
  5
AF84
  8
ALPHA
 10
-150.373092
 20
-202.808862
 30
0.0
  0
SEQEND
  5
AF85
  8
ALPHA
  0
POLYLINE
  5
A97B
  8
ALPHA
 66
     1
 10
0.0
 20
0.0
 30
0.0
 70
   128
210
0.0
220
0.0
230
-1.0
  0
VERTEX
  5
AF86
  8
ALPHA
 10
-152.976936
 20
-201.440105
 30
0.0
  0
VERTEX
  5
AF87
  8
ALPHA
 10
-151.684512
 20
-201.692288
 30
0.0
  0
VERTEX
  5
AF88
  8
ALPHA
 10
-150.373092
 20
-201.808862
 30
0.0
  0
SEQEND
  5
AF89
  8
ALPHA
  0
POLYLINE
  5
A97C
  8
ALPHA
 66
     1
 10
0.0
 20
0.0
 30
0.0
 70
   128
210
0.0
220
0.0
230
-1.0
  0
VERTEX
  5
AF8A
  8
ALPHA
 10
-152.976936
 20
-200.440104
 30
0.0
  0
VERTEX
  5
AF8B
  8
ALPHA
 10
-151.684512
 20
-200.692282
 30
0.0
  0
VERTEX
  5
AF8C
  8
ALPHA
 10
-150.373092
 20
-200.808862
 30
0.0
  0
SEQEND
  5
AF8D
  8
ALPHA
  0
POLYLINE
  5
A97D
  8
ALPHA
 66
     1
 10
0.0
 20
0.0
 30
0.0
 70
   128
210
0.0
220
0.0
230
-1.0
  0
VERTEX
  5
AF8E
  8
ALPHA
 10
-150.373092
 20
-199.112194
 30
0.0
  0
VERTEX
  5
AF8F
  8
ALPHA
 10
-151.686962
 20
-199.179856
 30
0.0
  0
VERTEX
  5
AF90
  8
ALPHA
 10
-152.976936
 20
-199.440105
 30
0.0
  0
SEQEND
  5
AF91
  8
ALPHA
  0
POLYLINE
  5
A97E
  8
ALPHA
 66
     1
 10
0.0
 20
0.0
 30
0.0
 70
   128
210
0.0
220
0.0
230
-1.0
  0
VERTEX
  5
AF92
  8
ALPHA
 10
-152.976936
 20
-199.440105
 30
0.0
  0
VERTEX
  5
AF93
  8
ALPHA
 10
-151.684512
 20
-199.692283
 30
0.0
  0
VERTEX
  5
AF94
  8
ALPHA
 10
-150.373092
 20
-199.808862
 30
0.0
  0
SEQEND
  5
AF95
  8
ALPHA
  0
POLYLINE
  5
A97F
  8
ALPHA
 66
     1
 10
0.0
 20
0.0
 30
0.0
 70
   128
210
0.0
220
0.0
230
-1.0
  0
VERTEX
  5
AF96
  8
ALPHA
 10
-147.769249
 20
-202.584284
 30
0.0
  0
VERTEX
  5
AF97
  8
ALPHA
 10
-149.054898
 20
-202.257326
 30
0.0
  0
VERTEX
  5
AF98
  8
ALPHA
 10
-150.373092
 20
-202.112194
 30
0.0
  0
SEQEND
  5
AF99
  8
ALPHA
  0
POLYLINE
  5
A980
  8
ALPHA
 66
     1
 10
0.0
 20
0.0
 30
0.0
 70
   128
210
0.0
220
0.0
230
-1.0
  0
VERTEX
  5
AF9A
  8
ALPHA
 10
-147.769249
 20
-201.584284
 30
0.0
  0
VERTEX
  5
AF9B
  8
ALPHA
 10
-149.054898
 20
-201.257326
 30
0.0
  0
VERTEX
  5
AF9C
  8
ALPHA
 10
-150.373092
 20
-201.112194
 30
0.0
  0
SEQEND
  5
AF9D
  8
ALPHA
  0
POLYLINE
  5
A981
  8
ALPHA
 66
     1
 10
0.0
 20
0.0
 30
0.0
 70
   128
210
0.0
220
0.0
230
-1.0
  0
VERTEX
  5
AF9E
  8
ALPHA
 10
-147.769249
 20
-200.584283
 30
0.0
  0
VERTEX
  5
AF9F
  8
ALPHA
 10
-149.054898
 20
-200.257326
 30
0.0
  0
VERTEX
  5
AFA0
  8
ALPHA
 10
-150.373092
 20
-200.112194
 30
0.0
  0
SEQEND
  5
AFA1
  8
ALPHA
  0
POLYLINE
  5
A982
  8
ALPHA
 66
     1
 10
0.0
 20
0.0
 30
0.0
 70
   128
210
0.0
220
0.0
230
-1.0
  0
VERTEX
  5
AFA2
  8
ALPHA
 10
-150.373092
 20
-202.808862
 30
0.0
  0
VERTEX
  5
AFA3
  8
ALPHA
 10
-149.064999
 20
-202.769101
 30
0.0
  0
VERTEX
  5
AFA4
  8
ALPHA
 10
-147.769249
 20
-202.584284
 30
0.0
  0
SEQEND
  5
AFA5
  8
ALPHA
  0
POLYLINE
  5
A983
  8
ALPHA
 66
     1
 10
0.0
 20
0.0
 30
0.0
 70
   128
210
0.0
220
0.0
230
-1.0
  0
VERTEX
  5
AFA6
  8
ALPHA
 10
-150.373092
 20
-201.808862
 30
0.0
  0
VERTEX
  5
AFA7
  8
ALPHA
 10
-149.064998
 20
-201.769104
 30
0.0
  0
VERTEX
  5
AFA8
  8
ALPHA
 10
-147.769249
 20
-201.584284
 30
0.0
  0
SEQEND
  5
AFA9
  8
ALPHA
  0
POLYLINE
  5
A984
  8
ALPHA
 66
     1
 10
0.0
 20
0.0
 30
0.0
 70
   128
210
0.0
220
0.0
230
-1.0
  0
VERTEX
  5
AFAA
  8
ALPHA
 10
-150.373092
 20
-200.808862
 30
0.0
  0
VERTEX
  5
AFAB
  8
ALPHA
 10
-149.064999
 20
-200.7691
 30
0.0
  0
VERTEX
  5
AFAC
  8
ALPHA
 10
-147.769249
 20
-200.584283
 30
0.0
  0
SEQEND
  5
AFAD
  8
ALPHA
  0
POLYLINE
  5
A985
  8
ALPHA
 66
     1
 10
0.0
 20
0.0
 30
0.0
 70
   128
210
0.0
220
0.0
230
-1.0
  0
VERTEX
  5
AFAE
  8
ALPHA
 10
-147.769249
 20
-199.584284
 30
0.0
  0
VERTEX
  5
AFAF
  8
ALPHA
 10
-149.054898
 20
-199.257326
 30
0.0
  0
VERTEX
  5
AFB0
  8
ALPHA
 10
-150.373092
 20
-199.112194
 30
0.0
  0
SEQEND
  5
AFB1
  8
ALPHA
  0
POLYLINE
  5
A986
  8
ALPHA
 66
     1
 10
0.0
 20
0.0
 30
0.0
 70
   128
210
0.0
220
0.0
230
-1.0
  0
VERTEX
  5
AFB2
  8
ALPHA
 10
-150.373092
 20
-199.808862
 30
0.0
  0
VERTEX
  5
AFB3
  8
ALPHA
 10
-149.064999
 20
-199.769101
 30
0.0
  0
VERTEX
  5
AFB4
  8
ALPHA
 10
-147.769249
 20
-199.584284
 30
0.0
  0
SEQEND
  5
AFB5
  8
ALPHA
  0
POLYLINE
  5
A987
  8
ALPHA
 66
     1
 10
0.0
 20
0.0
 30
0.0
 70
   128
210
0.0
220
0.0
230
-1.0
  0
VERTEX
  5
AFB6
  8
ALPHA
 10
-150.373092
 20
-198.808862
 30
0.0
  0
VERTEX
  5
AFB7
  8
ALPHA
 10
-149.064998
 20
-198.769104
 30
0.0
  0
VERTEX
  5
AFB8
  8
ALPHA
 10
-147.769249
 20
-198.584284
 30
0.0
  0
SEQEND
  5
AFB9
  8
ALPHA
  0
POLYLINE
  5
A988
  8
ALPHA
 66
     1
 10
0.0
 20
0.0
 30
0.0
 70
   128
210
0.0
220
0.0
230
-1.0
  0
VERTEX
  5
AFBA
  8
ALPHA
 10
-152.976936
 20
-198.440105
 30
0.0
  0
VERTEX
  5
AFBB
  8
ALPHA
 10
-151.684512
 20
-198.692288
 30
0.0
  0
VERTEX
  5
AFBC
  8
ALPHA
 10
-150.373092
 20
-198.808862
 30
0.0
  0
SEQEND
  5
AFBD
  8
ALPHA
  0
LINE
  5
A989
  8
ALPHA
 10
156.31409
 20
-199.270115
 30
0.0
 11
156.318007
 21
-199.256315
 31
0.0
  0
LINE
  5
A98A
  8
ALPHA
 10
156.31409
 20
-200.270115
 30
0.0
 11
156.318007
 21
-200.256315
 31
0.0
  0
LINE
  5
A98B
  8
ALPHA
 10
156.31409
 20
-201.270115
 30
0.0
 11
156.318007
 21
-201.256315
 31
0.0
  0
LINE
  5
A98C
  8
ALPHA
 10
156.31409
 20
-202.270115
 30
0.0
 11
156.318007
 21
-202.256315
 31
0.0
  0
LINE
  5
A98D
  8
ALPHA
 10
155.723092
 20
-198.558862
 30
0.0
 11
155.723092
 21
-198.862194
 31
0.0
  0
LINE
  5
A98E
  8
ALPHA
 10
155.723092
 20
-199.558862
 30
0.0
 11
155.723092
 21
-199.862194
 31
0.0
  0
LINE
  5
A98F
  8
ALPHA
 10
155.723092
 20
-200.558862
 30
0.0
 11
155.723092
 21
-200.862194
 31
0.0
  0
LINE
  5
A990
  8
ALPHA
 10
155.723092
 20
-201.558862
 30
0.0
 11
155.723092
 21
-201.862194
 31
0.0
  0
LINE
  5
A991
  8
ALPHA
 10
155.723092
 20
-202.558862
 30
0.0
 11
155.723092
 21
-203.212338
 31
0.0
  0
LINE
  5
A992
  8
ALPHA
 10
155.628804
 20
-204.212194
 30
0.0
 11
155.695662
 21
-203.371669
 31
0.0
  0
LINE
  5
A993
  8
ALPHA
 10
155.695662
 20
-203.371669
 30
0.0
 11
155.723092
 21
-203.212195
 31
0.0
  0
LINE
  5
A994
  8
ALPHA
 10
155.713436
 20
-199.568426
 30
0.0
 11
156.314405
 21
-199.270796
 31
0.0
  0
LINE
  5
A995
  8
ALPHA
 10
156.318309
 20
-199.255812
 30
0.0
 11
155.724731
 21
-198.85974
 31
0.0
  0
LINE
  5
A996
  8
ALPHA
 10
155.713436
 20
-200.568426
 30
0.0
 11
156.314405
 21
-200.270795
 31
0.0
  0
LINE
  5
A997
  8
ALPHA
 10
155.713436
 20
-201.568426
 30
0.0
 11
156.314405
 21
-201.270796
 31
0.0
  0
LINE
  5
A998
  8
ALPHA
 10
155.713436
 20
-202.568426
 30
0.0
 11
156.314405
 21
-202.270796
 31
0.0
  0
LINE
  5
A999
  8
ALPHA
 10
156.318309
 20
-200.255812
 30
0.0
 11
155.724731
 21
-199.859739
 31
0.0
  0
LINE
  5
A99A
  8
ALPHA
 10
156.318309
 20
-201.255812
 30
0.0
 11
155.724731
 21
-200.859739
 31
0.0
  0
LINE
  5
A99B
  8
ALPHA
 10
156.318309
 20
-202.255812
 30
0.0
 11
155.724731
 21
-201.85974
 31
0.0
  0
LINE
  5
A99C
  8
ALPHA
 10
155.673092
 20
-203.531918
 30
0.0
 11
155.673092
 21
-205.212194
 31
0.0
  0
POLYLINE
  5
A99D
  8
ALPHA
 66
     1
 10
0.0
 20
0.0
 30
0.0
 70
   128
  0
VERTEX
  5
AFBE
  8
ALPHA
 10
156.697769
 20
-191.394209
 30
0.0
  0
VERTEX
  5
AFBF
  8
ALPHA
 10
156.544814
 20
-191.002502
 30
0.0
  0
VERTEX
  5
AFC0
  8
ALPHA
 10
156.214159
 20
-190.726143
 30
0.0
  0
VERTEX
  5
AFC1
  8
ALPHA
 10
155.439783
 20
-190.370796
 30
0.0
  0
VERTEX
  5
AFC2
  8
ALPHA
 10
153.777974
 20
-189.982498
 30
0.0
  0
VERTEX
  5
AFC3
  8
ALPHA
 10
150.373092
 20
-189.740058
 30
0.0
  0
SEQEND
  5
AFC4
  8
ALPHA
  0
LINE
  5
A99E
  8
ALPHA
 10
155.723043
 20
-197.862202
 30
0.0
 11
150.373092
 21
-198.112194
 31
0.0
  0
LINE
  5
A99F
  8
ALPHA
 10
155.723078
 20
-196.862195
 30
0.0
 11
150.373092
 21
-197.112194
 31
0.0
  0
LINE
  5
A9A0
  8
ALPHA
 10
150.373092
 20
-197.808862
 30
0.0
 11
155.713189
 21
-197.56789
 31
0.0
  0
LINE
  5
A9A1
  8
ALPHA
 10
152.976936
 20
-197.440104
 30
0.0
 11
156.31409
 21
-197.270115
 31
0.0
  0
POLYLINE
  5
A9A2
  8
ALPHA
 66
     1
 10
0.0
 20
0.0
 30
0.0
 70
   128
  0
VERTEX
  5
AFC5
  8
ALPHA
 10
156.417589
 20
-192.614437
 30
0.0
  0
VERTEX
  5
AFC6
  8
ALPHA
 10
156.420912
 20
-192.192055
 30
0.0
  0
VERTEX
  5
AFC7
  8
ALPHA
 10
156.169116
 20
-191.842762
 30
0.0
  0
VERTEX
  5
AFC8
  8
ALPHA
 10
155.437538
 20
-191.399092
 30
0.0
  0
VERTEX
  5
AFC9
  8
ALPHA
 10
153.789891
 20
-190.926527
 30
0.0
  0
VERTEX
  5
AFCA
  8
ALPHA
 10
152.088282
 20
-190.702611
 30
0.0
  0
VERTEX
  5
AFCB
  8
ALPHA
 10
150.373092
 20
-190.634485
 30
0.0
  0
SEQEND
  5
AFCC
  8
ALPHA
  0
POLYLINE
  5
A9A3
  8
ALPHA
 66
     1
 10
0.0
 20
0.0
 30
0.0
 70
   128
210
0.0
220
0.0
230
-1.0
  0
VERTEX
  5
AFCD
  8
ALPHA
 10
-150.373092
 20
-197.112194
 30
0.0
  0
VERTEX
  5
AFCE
  8
ALPHA
 10
-151.686962
 20
-197.179856
 30
0.0
  0
VERTEX
  5
AFCF
  8
ALPHA
 10
-152.976936
 20
-197.440104
 30
0.0
  0
SEQEND
  5
AFD0
  8
ALPHA
  0
POLYLINE
  5
A9A4
  8
ALPHA
 66
     1
 10
0.0
 20
0.0
 30
0.0
 70
   128
210
0.0
220
0.0
230
-1.0
  0
VERTEX
  5
AFD1
  8
ALPHA
 10
-152.976936
 20
-197.440104
 30
0.0
  0
VERTEX
  5
AFD2
  8
ALPHA
 10
-151.684512
 20
-197.692282
 30
0.0
  0
VERTEX
  5
AFD3
  8
ALPHA
 10
-150.373092
 20
-197.808862
 30
0.0
  0
SEQEND
  5
AFD4
  8
ALPHA
  0
POLYLINE
  5
A9A5
  8
ALPHA
 66
     1
 10
0.0
 20
0.0
 30
0.0
 70
   128
210
0.0
220
0.0
230
-1.0
  0
VERTEX
  5
AFD5
  8
ALPHA
 10
-147.769249
 20
-197.584283
 30
0.0
  0
VERTEX
  5
AFD6
  8
ALPHA
 10
-149.054898
 20
-197.257326
 30
0.0
  0
VERTEX
  5
AFD7
  8
ALPHA
 10
-150.373092
 20
-197.112194
 30
0.0
  0
SEQEND
  5
AFD8
  8
ALPHA
  0
POLYLINE
  5
A9A6
  8
ALPHA
 66
     1
 10
0.0
 20
0.0
 30
0.0
 70
   128
210
0.0
220
0.0
230
-1.0
  0
VERTEX
  5
AFD9
  8
ALPHA
 10
-150.373092
 20
-197.808862
 30
0.0
  0
VERTEX
  5
AFDA
  8
ALPHA
 10
-149.064999
 20
-197.7691
 30
0.0
  0
VERTEX
  5
AFDB
  8
ALPHA
 10
-147.769249
 20
-197.584283
 30
0.0
  0
SEQEND
  5
AFDC
  8
ALPHA
  0
POLYLINE
  5
A9A7
  8
ALPHA
 66
     1
 10
0.0
 20
0.0
 30
0.0
 70
   128
  0
VERTEX
  5
AFDD
  8
ALPHA
 10
156.386655
 20
-192.685044
 30
0.0
  0
VERTEX
  5
AFDE
  8
ALPHA
 10
156.619664
 20
-192.058115
 30
0.0
  0
VERTEX
  5
AFDF
  8
ALPHA
 10
156.698086
 20
-191.394102
 30
0.0
  0
SEQEND
  5
AFE0
  8
ALPHA
  0
LINE
  5
A9A8
  8
ALPHA
 10
156.387767
 20
-192.683858
 30
0.0
 11
156.417589
 21
-192.614437
 31
0.0
  0
LINE
  5
A9A9
  8
ALPHA
 10
156.31409
 20
-197.270115
 30
0.0
 11
156.318007
 21
-197.256315
 31
0.0
  0
LINE
  5
A9AA
  8
ALPHA
 10
156.31409
 20
-198.270115
 30
0.0
 11
156.318007
 21
-198.256315
 31
0.0
  0
LINE
  5
A9AB
  8
ALPHA
 10
155.723092
 20
-193.212194
 30
0.0
 11
155.723092
 21
-196.862194
 31
0.0
  0
LINE
  5
A9AC
  8
ALPHA
 10
155.723092
 20
-197.558862
 30
0.0
 11
155.723092
 21
-197.862194
 31
0.0
  0
LINE
  5
A9AD
  8
ALPHA
 10
155.713436
 20
-197.568426
 30
0.0
 11
156.314405
 21
-197.270795
 31
0.0
  0
LINE
  5
A9AE
  8
ALPHA
 10
156.318309
 20
-197.255812
 30
0.0
 11
155.724731
 21
-196.859739
 31
0.0
  0
LINE
  5
A9AF
  8
ALPHA
 10
156.318309
 20
-198.255812
 30
0.0
 11
155.724731
 21
-197.859739
 31
0.0
  0
LINE
  5
A9B0
  8
ALPHA
 10
156.123092
 20
-193.212194
 30
0.0
 11
156.387389
 21
-192.6836
 31
0.0
  0
VIEWPORT
  5
494D
 67
     1
  8
0
 10
4.995325
 20
6.556512
 30
0.0
 40
22.70986
 41
13.988421
 68
    -1
 69
     1
1001
ACAD
1000
MVIEW
1002
{
1070
    16
1010
0.0
1020
0.0
1030
0.0
1010
0.0
1020
0.0
1030
1.0
1040
0.0
1040
13.988421
1040
4.995325
1040
6.556512
1040
50.0
1040
0.0
1040
0.0
1070
     0
1070
   100
1070
     1
1070
     1
1070
     0
1070
     0
1070
     0
1070
     0
1040
0.0
1040
0.0
1040
0.0
1040
10.0
1040
10.0
1040
10.0
1040
10.0
1070
     0
1002
{
1002
}
1002
}
  0
ENDSEC
  0
EOF
