  0
SECTION
  2
HEADER
  9
$ACADVER
  1
AC1009
  9
$INSBASE
 10
-146.27124
 20
-153.796096
 30
0.0
  9
$EXTMIN
 10
318.175615
 20
-83.941972
 30
0.0
  9
$EXTMAX
 10
388.464593
 20
-24.690304
 30
0.0
  9
$LIMMIN
 10
-407.970438
 20
-367.832444
  9
$LIMMAX
 10
429.804077
 20
234.370848
  9
$ORTHOMODE
 70
     1
  9
$REGENMODE
 70
     1
  9
$FILLMODE
 70
     1
  9
$QTEXTMODE
 70
     0
  9
$MIRRTEXT
 70
     1
  9
$DRAGMODE
 70
     2
  9
$LTSCALE
 40
10.0
  9
$OSMODE
 70
    37
  9
$ATTMODE
 70
     1
  9
$TEXTSIZE
 40
6.0
  9
$TRACEWID
 40
1.0
  9
$TEXTSTYLE
  7
ROMANS
  9
$CLAYER
  8
ALPHA
  9
$CELTYPE
  6
BYLAYER
  9
$CECOLOR
 62
   256
  9
$DIMSCALE
 40
1.0
  9
$DIMASZ
 40
2.0
  9
$DIMEXO
 40
0.3
  9
$DIMDLI
 40
0.1
  9
$DIMRND
 40
0.0
  9
$DIMDLE
 40
0.0
  9
$DIMEXE
 40
0.5
  9
$DIMTP
 40
0.0
  9
$DIMTM
 40
0.0
  9
$DIMTXT
 40
2.0
  9
$DIMCEN
 40
0.0
  9
$DIMTSZ
 40
0.0
  9
$DIMTOL
 70
     0
  9
$DIMLIM
 70
     0
  9
$DIMTIH
 70
     0
  9
$DIMTOH
 70
     0
  9
$DIMSE1
 70
     0
  9
$DIMSE2
 70
     0
  9
$DIMTAD
 70
     1
  9
$DIMZIN
 70
    12
  9
$DIMBLK
  1
OPEN30
  9
$DIMASO
 70
     1
  9
$DIMSHO
 70
     1
  9
$DIMPOST
  1

  9
$DIMAPOST
  1

  9
$DIMALT
 70
     0
  9
$DIMALTD
 70
     2
  9
$DIMALTF
 40
25.4
  9
$DIMLFAC
 40
1.0
  9
$DIMTOFL
 70
     0
  9
$DIMTVP
 40
0.0
  9
$DIMTIX
 70
     0
  9
$DIMSOXD
 70
     0
  9
$DIMSAH
 70
     0
  9
$DIMBLK1
  1

  9
$DIMBLK2
  1

  9
$DIMSTYLE
  2
SC_DEFAUT
  9
$DIMCLRD
 70
     0
  9
$DIMCLRE
 70
     0
  9
$DIMCLRT
 70
     0
  9
$DIMTFAC
 40
1.0
  9
$DIMGAP
 40
0.6
  9
$LUNITS
 70
     2
  9
$LUPREC
 70
     1
  9
$SKETCHINC
 40
0.1
  9
$FILLETRAD
 40
0.0
  9
$AUNITS
 70
     0
  9
$AUPREC
 70
     0
  9
$MENU
  1
acad
  9
$ELEVATION
 40
0.0
  9
$PELEVATION
 40
0.0
  9
$THICKNESS
 40
0.0
  9
$LIMCHECK
 70
     0
  9
$BLIPMODE
 70
     0
  9
$CHAMFERA
 40
0.0
  9
$CHAMFERB
 40
0.0
  9
$SKPOLY
 70
     0
  9
$TDCREATE
 40
2450365.355314
  9
$TDUPDATE
 40
2452618.481774
  9
$TDINDWG
 40
0.88823
  9
$TDUSRTIMER
 40
0.88823
  9
$USRTIMER
 70
     1
  9
$ANGBASE
 50
0.0
  9
$ANGDIR
 70
     0
  9
$PDMODE
 70
    32
  9
$PDSIZE
 40
0.0
  9
$PLINEWID
 40
0.0
  9
$COORDS
 70
     2
  9
$SPLFRAME
 70
     0
  9
$SPLINETYPE
 70
     6
  9
$SPLINESEGS
 70
     8
  9
$ATTDIA
 70
     0
  9
$ATTREQ
 70
     1
  9
$HANDLING
 70
     1
  9
$HANDSEED
  5
4212
  9
$SURFTAB1
 70
     6
  9
$SURFTAB2
 70
     6
  9
$SURFTYPE
 70
     6
  9
$SURFU
 70
     6
  9
$SURFV
 70
     6
  9
$UCSNAME
  2

  9
$UCSORG
 10
0.0
 20
0.0
 30
0.0
  9
$UCSXDIR
 10
1.0
 20
0.0
 30
0.0
  9
$UCSYDIR
 10
0.0
 20
1.0
 30
0.0
  9
$PUCSNAME
  2

  9
$PUCSORG
 10
0.0
 20
0.0
 30
0.0
  9
$PUCSXDIR
 10
1.0
 20
0.0
 30
0.0
  9
$PUCSYDIR
 10
0.0
 20
1.0
 30
0.0
  9
$USERI1
 70
     0
  9
$USERI2
 70
     0
  9
$USERI3
 70
     0
  9
$USERI4
 70
     0
  9
$USERI5
 70
     0
  9
$USERR1
 40
0.0
  9
$USERR2
 40
0.0
  9
$USERR3
 40
0.0
  9
$USERR4
 40
0.0
  9
$USERR5
 40
0.0
  9
$WORLDVIEW
 70
     1
  9
$SHADEDGE
 70
     3
  9
$SHADEDIF
 70
    70
  9
$TILEMODE
 70
     1
  9
$MAXACTVP
 70
    16
  9
$PLIMCHECK
 70
     0
  9
$PEXTMIN
 10
1.000000E+020
 20
1.000000E+020
 30
1.000000E+020
  9
$PEXTMAX
 10
-1.000000E+020
 20
-1.000000E+020
 30
-1.000000E+020
  9
$PLIMMIN
 10
0.0
 20
0.0
  9
$PLIMMAX
 10
12.0
 20
9.0
  9
$UNITMODE
 70
     0
  9
$VISRETAIN
 70
     0
  9
$PLINEGEN
 70
     0
  9
$PSLTSCALE
 70
     0
  0
ENDSEC
  0
SECTION
  2
TABLES
  0
TABLE
  2
VPORT
 70
     2
  0
VPORT
  2
*ACTIVE
 70
     0
 10
0.0
 20
0.0
 11
1.0
 21
1.0
 12
353.32085
 22
-54.302819
 13
0.0
 23
0.0
 14
1.0
 24
1.0
 15
10.0
 25
10.0
 16
0.0
 26
0.0
 36
1.0
 17
0.0
 27
0.0
 37
0.0
 40
59.851085
 41
1.63142
 42
50.0
 43
0.0
 44
0.0
 50
0.0
 51
0.0
 71
     0
 72
   100
 73
     1
 74
     0
 75
     0
 76
     0
 77
     0
 78
     0
  0
ENDTAB
  0
TABLE
  2
LTYPE
 70
    23
  0
LTYPE
  2
CONTINUOUS
 70
     0
  3
Solid line
 72
    65
 73
     0
 40
0.0
  0
LTYPE
  2
AXES2
 70
     0
  3
___ _ ___ _ ___ _ ___ _ ___ _ ___ _ ___ _ ___ _
 72
    65
 73
     4
 40
1.125
 49
0.75
 49
-0.125
 49
0.125
 49
-0.125
  0
LTYPE
  2
AXES
 70
     0
  3
____ _ ____ _ ____ _ ____ _ ____ _ ____ _ ____ 
 72
    65
 73
     4
 40
2.0
 49
1.25
 49
-0.25
 49
0.25
 49
-0.25
  0
LTYPE
  2
AXESX2
 70
     0
  3
________  __  ________  __  ________  __  _____
 72
    65
 73
     4
 40
4.0
 49
2.5
 49
-0.5
 49
0.5
 49
-0.5
  0
LTYPE
  2
TIRETPT
 70
     0
  3
__ . __ . __ . __ . __ . __ . __ . __ . __ . __
 72
    65
 73
     4
 40
1.0
 49
0.5
 49
-0.25
 49
0.0
 49
-0.25
  0
LTYPE
  2
TIRETPT2
 70
     0
  3
_._._._._._._._._._._._._._._._._._._._._._._._
 72
    65
 73
     4
 40
0.5
 49
0.25
 49
-0.125
 49
0.0
 49
-0.125
  0
LTYPE
  2
TIRETPTX2
 70
     0
  3
____  .  ____  .  ____  .  ____  .  ____  .  __
 72
    65
 73
     4
 40
2.0
 49
1.0
 49
-0.5
 49
0.0
 49
-0.5
  0
LTYPE
  2
DISCONTINU
 70
     0
  3
__ __ __ __ __ __ __ __ __ __ __ __ __ __ __ __
 72
    65
 73
     2
 40
0.75
 49
0.5
 49
-0.25
  0
LTYPE
  2
DISCONTINU2
 70
     0
  3
_ _ _ _ _ _ _ _ _ _ _ _ _ _ _ _ _ _ _ _ _ _ _ _
 72
    65
 73
     2
 40
0.375
 49
0.25
 49
-0.125
  0
LTYPE
  2
DISCONTINUX2
 70
     0
  3
____  ____  ____  ____  ____  ____  ____  ____ 
 72
    65
 73
     2
 40
1.5
 49
1.0
 49
-0.5
  0
LTYPE
  2
DIVISE
 70
     0
  3
____ . . ____ . . ____ . . ____ . . ____ . . __
 72
    65
 73
     6
 40
1.25
 49
0.5
 49
-0.25
 49
0.0
 49
-0.25
 49
0.0
 49
-0.25
  0
LTYPE
  2
DIVISE2
 70
     0
  3
__..__..__..__..__..__..__..__..__..__..__..__.
 72
    65
 73
     6
 40
0.625
 49
0.25
 49
-0.125
 49
0.0
 49
-0.125
 49
0.0
 49
-0.125
  0
LTYPE
  2
DIVISEX2
 70
     0
  3
________  .  .  ________  .  .  ________  .  . 
 72
    65
 73
     6
 40
2.5
 49
1.0
 49
-0.5
 49
0.0
 49
-0.5
 49
0.0
 49
-0.5
  0
LTYPE
  2
POINTILLE
 70
     0
  3
. . . . . . . . . . . . . . . . . . . . . . . .
 72
    65
 73
     2
 40
0.25
 49
0.0
 49
-0.25
  0
LTYPE
  2
POINTILLE2
 70
     0
  3
...............................................
 72
    65
 73
     2
 40
0.125
 49
0.0
 49
-0.125
  0
LTYPE
  2
POINTILLEX2
 70
     0
  3
.  .  .  .  .  .  .  .  .  .  .  .  .  .  .  . 
 72
    65
 73
     2
 40
0.5
 49
0.0
 49
-0.5
  0
LTYPE
  2
CACHE
 70
     0
  3
__ __ __ __ __ __ __ __ __ __ __ __ __ __ __ __
 72
    65
 73
     2
 40
0.375
 49
0.25
 49
-0.125
  0
LTYPE
  2
CACHE2
 70
     0
  3
_ _ _ _ _ _ _ _ _ _ _ _ _ _ _ _ _ _ _ _ _ _ _ _
 72
    65
 73
     2
 40
0.1875
 49
0.125
 49
-0.0625
  0
LTYPE
  2
CACHEX2
 70
     0
  3
____ ____ ____ ____ ____ ____ ____ ____ ____ __
 72
    65
 73
     2
 40
0.75
 49
0.5
 49
-0.25
  0
LTYPE
  2
FANTOME
 70
     0
  3
______  __  __  ______  __  __  ______  __  __ 
 72
    65
 73
     6
 40
2.5
 49
1.25
 49
-0.25
 49
0.25
 49
-0.25
 49
0.25
 49
-0.25
  0
LTYPE
  2
FANTOME2
 70
     0
  3
___ _ _ ___ _ _ ___ _ _ ___ _ _ ___ _ _ ___ _ _
 72
    65
 73
     6
 40
1.25
 49
0.625
 49
-0.125
 49
0.125
 49
-0.125
 49
0.125
 49
-0.125
  0
LTYPE
  2
FANTOMEX2
 70
     0
  3
____________    ____    ____    ____________   
 72
    65
 73
     6
 40
5.0
 49
2.5
 49
-0.5
 49
0.5
 49
-0.5
 49
0.5
 49
-0.5
  0
LTYPE
  2
0
 70
     0
  3
MEDUSA PEN 0
 72
    65
 73
     0
 40
0.0
  0
ENDTAB
  0
TABLE
  2
LAYER
 70
    17
  0
LAYER
  2
0
 70
     0
 62
     7
  6
CONTINUOUS
  0
LAYER
  2
TEXTE_MOYEN
 70
     0
 62
   131
  6
CONTINUOUS
  0
LAYER
  2
ALPHA
 70
     0
 62
   254
  6
CONTINUOUS
  0
LAYER
  2
COTATION1
 70
     0
 62
    50
  6
CONTINUOUS
  0
LAYER
  2
AXE
 70
     0
 62
    80
  6
AXES2
  0
LAYER
  2
DEFPOINTS
 70
     0
 62
     7
  6
CONTINUOUS
  0
LAYER
  2
HACHURES1
 70
     0
 62
   130
  6
CONTINUOUS
  0
LAYER
  2
FMULT
 70
     0
 62
   210
  6
CONTINUOUS
  0
LAYER
  2
FDP_CARTOUCHE
 70
     0
 62
   136
  6
CONTINUOUS
  0
LAYER
  2
FDP_TEXTES
 70
     0
 62
   171
  6
CONTINUOUS
  0
LAYER
  2
FDP_LOGO_MG
 70
     0
 62
    30
  6
CONTINUOUS
  0
LAYER
  2
FDP_LOGO_SCH
 70
     0
 62
    90
  6
CONTINUOUS
  0
LAYER
  2
FDP_FDP
 70
     0
 62
   170
  6
CONTINUOUS
  0
LAYER
  2
POINTILLE_COURT2
 70
     0
 62
    41
  6
CACHE2
  0
LAYER
  2
POINTILLE_MOYEN2
 70
     0
 62
   141
  6
CACHE
  0
LAYER
  2
POINTILLE_LONG2
 70
     0
 62
   241
  6
CACHEX2
  0
LAYER
  2
ALPHA_FIN
 70
     0
 62
   255
  6
CONTINUOUS
  0
ENDTAB
  0
TABLE
  2
STYLE
 70
     5
  0
STYLE
  2
ROMANS
 70
     0
 40
0.0
 41
1.0
 50
0.0
 71
     0
 42
6.0
  3
romans
  4

  0
STYLE
  2
STANDARD
 70
     0
 40
0.2
 41
1.0
 50
0.0
 71
     0
 42
0.2
  3
txt
  4

  0
STYLE
  2
STD
 70
     0
 40
0.0
 41
1.0
 50
0.0
 71
     0
 42
0.0
  3
txt
  4

  0
STYLE
  2
INFOCAR
 70
     0
 40
0.0
 41
1.34
 50
0.0
 71
     0
 42
2.0
  3
ROMANS.SHX
  4

  0
STYLE
  2
CARTOUCHE
 70
     0
 40
0.0
 41
1.0
 50
0.0
 71
     0
 42
0.2
  3
ROMANS.SHX
  4

  0
ENDTAB
  0
TABLE
  2
VIEW
 70
     0
  0
ENDTAB
  0
TABLE
  2
UCS
 70
     0
  0
ENDTAB
  0
TABLE
  2
APPID
 70
     4
  0
APPID
  2
ACAD
 70
     0
  0
APPID
  2
AVE_RENDER
 70
     0
  0
APPID
  2
AVE_MATERIAL
 70
     0
  0
APPID
  2
CONTENTBLOCKICON
 70
     0
  0
ENDTAB
  0
TABLE
  2
DIMSTYLE
 70
     1
  0
DIMSTYLE
  2
SC_DEFAUT
 70
     0
  3

  4

  5
OPEN30
  6

  7

 40
1.0
 41
2.0
 42
0.3
 43
0.1
 44
0.5
 45
0.0
 46
0.0
 47
0.0
 48
0.0
140
2.0
141
0.0
142
0.0
143
25.4
144
1.0
145
0.0
146
1.0
147
0.6
 71
     0
 72
     0
 73
     0
 74
     0
 75
     0
 76
     0
 77
     1
 78
    12
170
     0
171
     2
172
     0
173
     0
174
     0
175
     0
176
     0
177
     0
178
     0
  0
ENDTAB
  0
ENDSEC
  0
SECTION
  2
BLOCKS
  0
BLOCK
  8
0
  2
$MODEL_SPACE
 70
     0
 10
0.0
 20
0.0
 30
0.0
  3
$MODEL_SPACE
  1

  0
ENDBLK
  5
4201
  8
0
  0
BLOCK
 67
     1
  8
0
  2
$PAPER_SPACE
 70
     0
 10
0.0
 20
0.0
 30
0.0
  3
$PAPER_SPACE
  1

  0
ENDBLK
  5
41FF
 67
     1
  8
0
  0
BLOCK
  8
0
  2
COTE
 70
     0
 10
0.0
 20
0.0
 30
0.0
  3
COTE
  1

  0
ENDBLK
  5
35
  8
0
  0
BLOCK
  8
0
  2
FOND
 70
     0
 10
0.0
 20
0.0
 30
0.0
  3
FOND
  1

  0
ENDBLK
  5
39
  8
0
  0
BLOCK
  8
0
  2
SCH_ISO
 70
     0
 10
0.0
 20
0.0
 30
0.0
  3
SCH_ISO
  1

  0
ENDBLK
  5
24AD
  8
0
  0
BLOCK
  8
0
  2
_OPEN30
 70
     0
 10
0.0
 20
0.0
 30
0.0
  3
_OPEN30
  1

  0
LINE
  5
27E1
  8
COTATION1
 62
     0
 10
-1.0
 20
0.267949
 30
0.0
 11
0.0
 21
0.0
 31
0.0
1001
ACAD
1000
RTLwPs
1070
   158
  0
LINE
  5
27E2
  8
COTATION1
 62
     0
 10
0.0
 20
0.0
 30
0.0
 11
-1.0
 21
-0.267949
 31
0.0
1001
ACAD
1000
RTLwPs
1070
   158
  0
LINE
  5
27E3
  8
COTATION1
 62
     0
 10
0.0
 20
0.0
 30
0.0
 11
-1.0
 21
0.0
 31
0.0
1001
ACAD
1000
RTLwPs
1070
   158
  0
ENDBLK
  5
27E5
  8
0
  0
BLOCK
  8
0
  2
ECROUS_COTE
 70
     0
 10
0.0
 20
0.0
 30
0.0
  3
ECROUS_COTE
  1

  0
ARC
  5
3053
  8
ALPHA
 10
-8.49992
 20
7.0
 30
0.0
 40
10.499919
 50
340.528634
 51
19.471367
  0
LINE
  5
3054
  8
ALPHA
 10
2.0
 20
1.75
 30
0.0
 11
2.0
 21
12.25
 31
0.0
  0
ARC
  5
3055
  8
ALPHA
 10
8.49992
 20
7.0
 30
0.0
 40
10.499919
 50
160.528622
 51
199.471376
  0
LINE
  5
3056
  8
ALPHA
 10
-2.0
 20
12.25
 30
0.0
 11
-2.0
 21
1.75
 31
0.0
  0
LINE
  5
3057
  8
ALPHA
 10
1.39949
 20
0.0
 30
0.0
 11
-1.39949
 21
0.0
 31
0.0
  0
LINE
  5
3058
  8
ALPHA
 10
1.39949
 20
3.5
 30
0.0
 11
-1.39949
 21
3.5
 31
0.0
  0
ARC
  5
3059
  8
ALPHA
 10
-0.850174
 20
1.75
 30
0.0
 40
2.850172
 50
322.120864
 51
37.879137
  0
ARC
  5
305A
  8
ALPHA
 10
0.850174
 20
1.75
 30
0.0
 40
2.850172
 50
142.120853
 51
217.879146
  0
LINE
  5
305B
  8
ALPHA
 10
1.39949
 20
14.0
 30
0.0
 11
-1.39949
 21
14.0
 31
0.0
  0
LINE
  5
305C
  8
ALPHA
 10
1.39949
 20
10.5
 30
0.0
 11
-1.39949
 21
10.5
 31
0.0
  0
ARC
  5
305D
  8
ALPHA
 10
-0.850174
 20
12.25
 30
0.0
 40
2.850172
 50
322.120864
 51
37.879137
  0
ARC
  5
305E
  8
ALPHA
 10
0.850174
 20
12.25
 30
0.0
 40
2.850172
 50
142.120853
 51
217.879146
  0
ENDBLK
  5
3052
  8
0
  0
BLOCK
  8
0
  2
ECROUS_M18_COTE
 70
     0
 10
0.0
 20
0.0
 30
0.0
  3
ECROUS_M18_COTE
  1

  0
INSERT
  5
32F7
  8
ALPHA
  2
ECROUS_COTE
 10
0.0
 20
-23.625
 30
0.0
 41
2.25
 42
2.25
 43
2.25
  0
ENDBLK
  5
32E7
  8
0
  0
BLOCK
  8
0
  2
ECROUS_M8_COTE
 70
     0
 10
0.0
 20
0.0
 30
0.0
  3
ECROUS_M8_COTE
  1

  0
INSERT
  5
350D
  8
COTATION1
  2
ECROUS_M18_COTE
 10
0.0
 20
-3.499965
 30
0.0
 41
0.44444
 42
0.44444
 43
0.44444
  0
ENDBLK
  5
32ED
  8
0
  0
BLOCK
  8
0
  2
ECROUS_M12_COTE
 70
     0
 10
0.0
 20
0.0
 30
0.0
  3
ECROUS_M12_COTE
  1

  0
INSERT
  5
3585
  8
ALPHA
  2
ECROUS_M8_COTE
 10
0.0
 20
0.0
 30
0.0
 41
1.5
 42
1.5
 43
1.5
  0
ENDBLK
  5
355A
  8
0
  0
BLOCK
  8
0
  2
CABLE
 70
     0
 10
0.0
 20
0.0
 30
0.0
  3
CABLE
  1

  0
POLYLINE
  5
3723
  8
ALPHA
 66
     1
 10
0.0
 20
0.0
 30
0.0
 70
   128
210
0.0
220
0.0
230
-1.0
  0
VERTEX
  5
4207
  8
ALPHA
 10
-5.0
 20
1.7
 30
0.0
  0
VERTEX
  5
4208
  8
ALPHA
 10
-5.24238
 20
1.290404
 30
0.0
  0
VERTEX
  5
4209
  8
ALPHA
 10
-5.147654
 20
0.830277
 30
0.0
  0
SEQEND
  5
420A
  8
ALPHA
  0
POLYLINE
  5
3724
  8
ALPHA
 66
     1
 10
0.0
 20
0.0
 30
0.0
 70
   128
  0
VERTEX
  5
420B
  8
ALPHA
 10
5.0
 20
1.7
 30
0.0
  0
VERTEX
  5
420C
  8
ALPHA
 10
4.898014
 20
1.359825
 30
0.0
  0
VERTEX
  5
420D
  8
ALPHA
 10
4.992591
 20
1.072607
 30
0.0
  0
VERTEX
  5
420E
  8
ALPHA
 10
5.14701
 20
0.814062
 30
0.0
  0
VERTEX
  5
420F
  8
ALPHA
 10
5.0
 20
0.5
 30
0.0
  0
SEQEND
  5
4210
  8
ALPHA
  0
LINE
  5
3725
  8
ALPHA
 10
0.0
 20
1.7
 30
0.0
 11
5.0
 21
1.7
 31
0.0
  0
LINE
  5
3726
  8
ALPHA
 10
0.0
 20
0.5
 30
0.0
 11
5.0
 21
0.5
 31
0.0
  0
ENDBLK
  5
3728
  8
0
  0
BLOCK
  8
0
  2
*D9
 70
     1
 10
0.0
 20
0.0
 30
0.0
  3
*D9
  1

  0
LINE
  5
40C8
  8
COTATION1
 62
     0
 10
363.253422
 20
-54.040146
 30
0.0
 11
383.253422
 21
-54.040146
 31
0.0
1001
ACAD
1000
RTLwPs
1070
   158
  0
LINE
  5
40C9
  8
COTATION1
 62
     0
 10
363.253422
 20
-72.040146
 30
0.0
 11
383.253422
 21
-72.040146
 31
0.0
1001
ACAD
1000
RTLwPs
1070
   158
  0
LINE
  5
40CA
  8
COTATION1
 62
     0
 10
382.753422
 20
-70.040146
 30
0.0
 11
382.753422
 21
-56.040146
 31
0.0
1001
ACAD
1000
RTLwPs
1070
   158
  0
LINE
  5
40CB
  8
COTATION1
 62
     0
 10
382.753422
 20
-54.040146
 30
0.0
 11
382.753422
 21
-45.411575
 31
0.0
1001
ACAD
1000
RTLwPs
1070
   158
  0
INSERT
  5
40CC
  8
COTATION1
 62
     0
  2
_OPEN30
 10
382.753422
 20
-72.040146
 30
0.0
 41
2.0
 42
2.0
 43
2.0
 50
270.0
1001
ACAD
1000
RTLwPs
1070
   158
  0
INSERT
  5
40CD
  8
COTATION1
 62
     0
  2
_OPEN30
 10
382.753422
 20
-54.040146
 30
0.0
 41
2.0
 42
2.0
 43
2.0
 50
90.0
1001
ACAD
1000
RTLwPs
1070
   158
  0
TEXT
  5
40CE
  8
COTATION1
 62
     0
 10
382.153422
 20
-51.821098
 30
0.0
 40
2.0
  1
M18
 50
90.0
1001
ACAD
1000
MTEXTBEGIN
1070
    73
1070
     1
1070
    44
1040
1.0
1070
    74
1070
     0
1000
MTEXTEND
  0
POINT
  5
40CF
  8
DEFPOINTS
 62
     0
 10
362.953422
 20
-54.040146
 30
0.0
  0
POINT
  5
40D0
  8
DEFPOINTS
 62
     0
 10
362.953422
 20
-72.040146
 30
0.0
  0
POINT
  5
40D1
  8
DEFPOINTS
 62
     0
 10
382.753422
 20
-72.040146
 30
0.0
  0
ENDBLK
  5
3D5E
  8
0
  0
BLOCK
  8
0
  2
*D10
 70
     1
 10
0.0
 20
0.0
 30
0.0
  3
*D10
  1

  0
LINE
  5
4070
  8
COTATION1
 62
     0
 10
338.753422
 20
-55.540146
 30
0.0
 11
338.753422
 21
-36.790304
 31
0.0
1001
ACAD
1000
RTLwPs
1070
   158
  0
LINE
  5
4071
  8
COTATION1
 62
     0
 10
364.753422
 20
-55.540146
 30
0.0
 11
364.753422
 21
-36.790304
 31
0.0
1001
ACAD
1000
RTLwPs
1070
   158
  0
LINE
  5
4072
  8
COTATION1
 62
     0
 10
340.753422
 20
-37.290304
 30
0.0
 11
362.753422
 21
-37.290304
 31
0.0
1001
ACAD
1000
RTLwPs
1070
   158
  0
INSERT
  5
4073
  8
COTATION1
 62
     0
  2
_OPEN30
 10
338.753422
 20
-37.290304
 30
0.0
 41
2.0
 42
2.0
 43
2.0
 50
180.0
1001
ACAD
1000
RTLwPs
1070
   158
  0
INSERT
  5
4074
  8
COTATION1
 62
     0
  2
_OPEN30
 10
364.753422
 20
-37.290304
 30
0.0
 41
2.0
 42
2.0
 43
2.0
1001
ACAD
1000
RTLwPs
1070
   158
  0
TEXT
  5
4075
  8
COTATION1
 62
     0
 10
349.84866
 20
-36.690304
 30
0.0
 40
2.0
  1
26
1001
ACAD
1000
MTEXTBEGIN
1070
    73
1070
     1
1070
    44
1040
1.0
1070
    74
1070
     0
1000
MTEXTEND
1000
MTEXTBEGIN
1070
    73
1070
     1
1070
    44
1040
1.0
1070
    74
1070
     0
1000
MTEXTEND
  0
POINT
  5
4076
  8
DEFPOINTS
 62
     0
 10
338.753422
 20
-55.840146
 30
0.0
  0
POINT
  5
4077
  8
DEFPOINTS
 62
     0
 10
364.753422
 20
-55.840146
 30
0.0
  0
POINT
  5
4078
  8
DEFPOINTS
 62
     0
 10
364.753422
 20
-37.290304
 30
0.0
  0
ENDBLK
  5
3DD8
  8
0
  0
BLOCK
  8
0
  2
*D11
 70
     1
 10
0.0
 20
0.0
 30
0.0
  3
*D11
  1

  0
LINE
  5
40E6
  8
COTATION1
 62
     0
 10
332.153422
 20
-55.540146
 30
0.0
 11
332.153422
 21
-26.790304
 31
0.0
1001
ACAD
1000
RTLwPs
1070
   158
  0
LINE
  5
40E7
  8
COTATION1
 62
     0
 10
372.753422
 20
-55.540146
 30
0.0
 11
372.753422
 21
-26.790304
 31
0.0
1001
ACAD
1000
RTLwPs
1070
   158
  0
LINE
  5
40E8
  8
COTATION1
 62
     0
 10
334.153422
 20
-27.290304
 30
0.0
 11
370.753422
 21
-27.290304
 31
0.0
1001
ACAD
1000
RTLwPs
1070
   158
  0
INSERT
  5
40E9
  8
COTATION1
 62
     0
  2
_OPEN30
 10
332.153422
 20
-27.290304
 30
0.0
 41
2.0
 42
2.0
 43
2.0
 50
180.0
1001
ACAD
1000
RTLwPs
1070
   158
  0
INSERT
  5
40EA
  8
COTATION1
 62
     0
  2
_OPEN30
 10
372.753422
 20
-27.290304
 30
0.0
 41
2.0
 42
2.0
 43
2.0
1001
ACAD
1000
RTLwPs
1070
   158
  0
TEXT
  5
40EB
  8
COTATION1
 62
     0
 10
349.120089
 20
-26.690304
 30
0.0
 40
2.0
  1
40.6
1001
ACAD
1000
MTEXTBEGIN
1070
    73
1070
     1
1070
    44
1040
1.0
1070
    74
1070
     0
1000
MTEXTEND
  0
POINT
  5
40EC
  8
DEFPOINTS
 62
     0
 10
332.153422
 20
-55.840146
 30
0.0
  0
POINT
  5
40ED
  8
DEFPOINTS
 62
     0
 10
372.753422
 20
-55.840146
 30
0.0
  0
POINT
  5
40EE
  8
DEFPOINTS
 62
     0
 10
372.753422
 20
-27.290304
 30
0.0
  0
ENDBLK
  5
3DE5
  8
0
  0
BLOCK
  8
0
  2
*D12
 70
     1
 10
0.0
 20
0.0
 30
0.0
  3
*D12
  1

  0
LINE
  5
410E
  8
COTATION1
 62
     0
 10
364.753422
 20
-55.540146
 30
0.0
 11
364.753422
 21
-36.790304
 31
0.0
1001
ACAD
1000
RTLwPs
1070
   158
  0
LINE
  5
410F
  8
COTATION1
 62
     0
 10
372.753422
 20
-55.540146
 30
0.0
 11
372.753422
 21
-36.790304
 31
0.0
1001
ACAD
1000
RTLwPs
1070
   158
  0
LINE
  5
4110
  8
COTATION1
 62
     0
 10
366.753422
 20
-37.290304
 30
0.0
 11
370.753422
 21
-37.290304
 31
0.0
1001
ACAD
1000
RTLwPs
1070
   158
  0
INSERT
  5
4111
  8
COTATION1
 62
     0
  2
_OPEN30
 10
364.753422
 20
-37.290304
 30
0.0
 41
2.0
 42
2.0
 43
2.0
 50
180.0
1001
ACAD
1000
RTLwPs
1070
   158
  0
INSERT
  5
4112
  8
COTATION1
 62
     0
  2
_OPEN30
 10
372.753422
 20
-37.290304
 30
0.0
 41
2.0
 42
2.0
 43
2.0
1001
ACAD
1000
RTLwPs
1070
   158
  0
TEXT
  5
4113
  8
COTATION1
 62
     0
 10
367.801041
 20
-36.690304
 30
0.0
 40
2.0
  1
8
1001
ACAD
1000
MTEXTBEGIN
1070
    73
1070
     1
1070
    44
1040
1.0
1070
    74
1070
     0
1000
MTEXTEND
  0
POINT
  5
4114
  8
DEFPOINTS
 62
     0
 10
364.753422
 20
-55.840146
 30
0.0
  0
POINT
  5
4115
  8
DEFPOINTS
 62
     0
 10
372.753422
 20
-55.840146
 30
0.0
  0
POINT
  5
4116
  8
DEFPOINTS
 62
     0
 10
372.753422
 20
-37.290304
 30
0.0
  0
ENDBLK
  5
40FB
  8
0
  0
ENDSEC
  0
SECTION
  2
ENTITIES
  0
INSERT
  5
32
  8
0
  2
COTE
 10
0.0
 20
0.0
 30
0.0
  0
INSERT
  5
36
  8
0
  2
FOND
 10
0.0
 20
0.0
 30
0.0
  0
INSERT
  5
24AE
  8
ALPHA
  2
SCH_ISO
 10
-66.27012
 20
-238.940658
 30
0.0
  0
LINE
  5
308B
  8
ALPHA
 10
362.953422
 20
-54.040146
 30
0.0
 11
358.003354
 21
-54.040146
 31
0.0
  0
LINE
  5
308C
  8
ALPHA
 10
362.953422
 20
-72.040146
 30
0.0
 11
358.003354
 21
-72.040146
 31
0.0
  0
LINE
  5
309D
  8
ALPHA
 10
340.553422
 20
-54.040146
 30
0.0
 11
340.553422
 21
-72.040146
 31
0.0
  0
LINE
  5
309E
  8
ALPHA
 10
362.953422
 20
-54.040146
 30
0.0
 11
362.953422
 21
-72.040146
 31
0.0
  0
LINE
  5
30F9
  8
ALPHA
 10
338.753422
 20
-55.840146
 30
0.0
 11
338.753422
 21
-70.240146
 31
0.0
  0
LINE
  5
30FA
  8
ALPHA
 10
364.753422
 20
-55.840146
 30
0.0
 11
364.753422
 21
-70.240146
 31
0.0
  0
LINE
  5
30FB
  8
ALPHA_FIN
 10
364.753422
 20
-55.840146
 30
0.0
 11
358.003354
 21
-55.840146
 31
0.0
  0
LINE
  5
30FC
  8
ALPHA_FIN
 10
364.753422
 20
-70.240146
 30
0.0
 11
358.003354
 21
-70.240146
 31
0.0
  0
LINE
  5
30FD
  8
ALPHA
 10
362.953422
 20
-54.040146
 30
0.0
 11
364.753422
 21
-55.840146
 31
0.0
  0
LINE
  5
30FE
  8
ALPHA
 10
364.753422
 20
-70.240146
 30
0.0
 11
362.953422
 21
-72.040146
 31
0.0
  0
LINE
  5
30FF
  8
ALPHA
 10
340.553422
 20
-54.040146
 30
0.0
 11
338.753422
 21
-55.840146
 31
0.0
  0
LINE
  5
3100
  8
ALPHA
 10
338.753422
 20
-70.240146
 30
0.0
 11
340.553422
 21
-72.040146
 31
0.0
  0
LINE
  5
3107
  8
ALPHA
 10
353.003444
 20
-72.040146
 30
0.0
 11
349.003446
 21
-72.040146
 31
0.0
  0
LINE
  5
3108
  8
ALPHA_FIN
 10
353.003444
 20
-70.240146
 30
0.0
 11
349.003446
 21
-70.240146
 31
0.0
  0
LINE
  5
3109
  8
ALPHA_FIN
 10
353.003444
 20
-55.840146
 30
0.0
 11
349.003446
 21
-55.840146
 31
0.0
  0
LINE
  5
310A
  8
ALPHA
 10
353.003444
 20
-54.040146
 30
0.0
 11
349.003446
 21
-54.040146
 31
0.0
  0
LINE
  5
310F
  8
ALPHA
 10
338.753422
 20
-55.840146
 30
0.0
 11
332.153422
 21
-55.840146
 31
0.0
  0
LINE
  5
3110
  8
ALPHA
 10
332.153422
 20
-55.840146
 30
0.0
 11
332.153422
 21
-70.240146
 31
0.0
  0
LINE
  5
3111
  8
ALPHA
 10
338.753422
 20
-70.240146
 30
0.0
 11
332.153422
 21
-70.240146
 31
0.0
  0
INSERT
  5
3778
  8
ALPHA
  2
CABLE
 10
332.153422
 20
-70.615146
 30
0.0
 41
-2.25
 42
2.25
 43
2.25
  0
LINE
  5
3D2A
  8
AXE
 10
351.753423
 20
-42.290304
 30
0.0
 11
351.753422
 21
-83.789989
 31
0.0
  0
TEXT
  5
3D2B
  8
AXE
 10
348.469319
 20
-83.941972
 30
0.0
 40
3.0
  1
Y
 72
     2
 11
350.89789
 21
-83.941972
 31
0.0
  0
LINE
  5
3D2C
  8
AXE
 10
318.175615
 20
-63.040146
 30
0.0
 11
388.464593
 21
-63.040146
 31
0.0
  0
TEXT
  5
3D2D
  8
AXE
 10
386.036022
 20
-62.040146
 30
0.0
 40
3.0
  1
X
 72
     2
 11
388.464593
 21
-62.040146
 31
0.0
  0
DIMENSION
  5
3D52
  8
COTATION1
  2
*D9
 10
382.753422
 20
-72.040146
 30
0.0
 11
382.753422
 21
-48.72586
 31
0.0
 70
   128
  1
M<>
 13
362.953422
 23
-54.040146
 33
0.0
 14
362.953422
 24
-72.040146
 34
0.0
 50
90.0
  0
DIMENSION
  5
3DCC
  8
COTATION1
  2
*D10
 10
364.753422
 20
-37.290304
 30
0.0
 11
351.753422
 21
-35.690304
 31
0.0
 13
338.753422
 23
-55.840146
 33
0.0
 14
364.753422
 24
-55.840146
 34
0.0
  0
DIMENSION
  5
3DD9
  8
COTATION1
  2
*D11
 10
372.753422
 20
-27.290304
 30
0.0
 11
352.453422
 21
-25.690304
 31
0.0
 13
332.153422
 23
-55.840146
 33
0.0
 14
372.753422
 24
-55.840146
 34
0.0
  0
ARC
  5
3F7A
  8
ALPHA
 10
376.628027
 20
-63.040146
 30
0.0
 40
23.624581
 50
160.528633
 51
199.471366
  0
LINE
  5
3F7B
  8
ALPHA
 10
353.003444
 20
-74.852528
 30
0.0
 11
353.003444
 21
-51.227764
 31
0.0
  0
ARC
  5
3F7C
  8
ALPHA
 10
334.37877
 20
-63.040146
 30
0.0
 40
23.624581
 50
340.528624
 51
19.471378
  0
LINE
  5
3F7D
  8
ALPHA
 10
358.003354
 20
-51.227764
 30
0.0
 11
358.003354
 21
-74.852528
 31
0.0
  0
LINE
  5
3F7E
  8
ALPHA
 10
354.354577
 20
-78.789989
 30
0.0
 11
356.652221
 21
-78.789989
 31
0.0
  0
LINE
  5
3F7F
  8
ALPHA
 10
354.354577
 20
-70.915067
 30
0.0
 11
356.652221
 21
-70.915067
 31
0.0
  0
ARC
  5
3F80
  8
ALPHA
 10
359.416271
 20
-74.852528
 30
0.0
 40
6.412824
 50
142.120863
 51
217.879136
  0
ARC
  5
3F81
  8
ALPHA
 10
351.590526
 20
-74.852528
 30
0.0
 40
6.412824
 50
322.120854
 51
37.879148
  0
LINE
  5
3F82
  8
ALPHA
 10
354.354577
 20
-47.290304
 30
0.0
 11
356.652221
 21
-47.290304
 31
0.0
  0
LINE
  5
3F83
  8
ALPHA
 10
354.354577
 20
-55.165225
 30
0.0
 11
356.652221
 21
-55.165225
 31
0.0
  0
ARC
  5
3F84
  8
ALPHA
 10
359.416271
 20
-51.227764
 30
0.0
 40
6.412824
 50
142.120863
 51
217.879136
  0
ARC
  5
3F85
  8
ALPHA
 10
351.590526
 20
-51.227764
 30
0.0
 40
6.412824
 50
322.120854
 51
37.879148
  0
LINE
  5
3F86
  8
ALPHA
 10
349.003444
 20
-74.852528
 30
0.0
 11
349.003444
 21
-51.227764
 31
0.0
  0
ARC
  5
3F87
  8
ALPHA
 10
367.62812
 20
-63.040146
 30
0.0
 40
23.624581
 50
160.528633
 51
199.471366
  0
LINE
  5
3F88
  8
ALPHA
 10
344.003536
 20
-74.852528
 30
0.0
 11
344.003536
 21
-51.227764
 31
0.0
  0
LINE
  5
3F89
  8
ALPHA
 10
349.003446
 20
-51.227764
 30
0.0
 11
349.003446
 21
-74.852528
 31
0.0
  0
ARC
  5
3F8A
  8
ALPHA
 10
325.378863
 20
-63.040146
 30
0.0
 40
23.624581
 50
340.528624
 51
19.471378
  0
LINE
  5
3F8B
  8
ALPHA
 10
345.354669
 20
-78.789989
 30
0.0
 11
347.652313
 21
-78.789989
 31
0.0
  0
LINE
  5
3F8C
  8
ALPHA
 10
345.354669
 20
-70.915067
 30
0.0
 11
347.652313
 21
-70.915067
 31
0.0
  0
ARC
  5
3F8D
  8
ALPHA
 10
350.416363
 20
-74.852528
 30
0.0
 40
6.412824
 50
142.120863
 51
217.879136
  0
ARC
  5
3F8E
  8
ALPHA
 10
342.590619
 20
-74.852528
 30
0.0
 40
6.412824
 50
322.120854
 51
37.879148
  0
LINE
  5
3F8F
  8
ALPHA
 10
345.354669
 20
-47.290304
 30
0.0
 11
347.652313
 21
-47.290304
 31
0.0
  0
LINE
  5
3F90
  8
ALPHA
 10
345.354669
 20
-55.165225
 30
0.0
 11
347.652313
 21
-55.165225
 31
0.0
  0
ARC
  5
3F91
  8
ALPHA
 10
350.416363
 20
-51.227764
 30
0.0
 40
6.412824
 50
142.120863
 51
217.879136
  0
ARC
  5
3F92
  8
ALPHA
 10
342.590619
 20
-51.227764
 30
0.0
 40
6.412824
 50
322.120854
 51
37.879148
  0
LINE
  5
3F94
  8
ALPHA
 10
338.753422
 20
-55.840146
 30
0.0
 11
338.753422
 21
-70.240146
 31
0.0
  0
LINE
  5
3F95
  8
ALPHA
 10
332.153422
 20
-55.840146
 30
0.0
 11
332.153422
 21
-70.240146
 31
0.0
  0
LINE
  5
3F9F
  8
ALPHA_FIN
 10
344.003536
 20
-55.840146
 30
0.0
 11
338.753422
 21
-55.840146
 31
0.0
  0
LINE
  5
3FA0
  8
ALPHA
 10
344.003536
 20
-54.040146
 30
0.0
 11
340.553422
 21
-54.040146
 31
0.0
  0
LINE
  5
3FA1
  8
ALPHA_FIN
 10
344.003536
 20
-70.240146
 30
0.0
 11
338.753422
 21
-70.240146
 31
0.0
  0
LINE
  5
3FA2
  8
ALPHA
 10
344.003536
 20
-72.040146
 30
0.0
 11
340.553422
 21
-72.040146
 31
0.0
  0
LINE
  5
40C7
  8
ALPHA
 10
372.753422
 20
-55.840146
 30
0.0
 11
372.753422
 21
-70.240146
 31
0.0
  0
LINE
  5
40D2
  8
ALPHA
 10
364.753422
 20
-55.840146
 30
0.0
 11
372.753422
 21
-55.840146
 31
0.0
  0
LINE
  5
40D3
  8
ALPHA
 10
364.753422
 20
-70.240146
 30
0.0
 11
372.753422
 21
-70.240146
 31
0.0
  0
DIMENSION
  5
40EF
  8
COTATION1
  2
*D12
 10
372.753422
 20
-37.290304
 30
0.0
 11
368.753422
 21
-35.690304
 31
0.0
 13
364.753422
 23
-55.840146
 33
0.0
 14
372.753422
 24
-55.840146
 34
0.0
  0
ENDSEC
  0
EOF
