  0
SECTION
  2
HEADER
  9
$ACADVER
  1
AC1009
  9
$INSBASE
 10
402.590624
 20
-1.041018
 30
0.0
  9
$EXTMIN
 10
-4.82194
 20
0.388406
 30
0.0
  9
$EXTMAX
 10
66.826351
 20
101.22456
 30
0.0
  9
$LIMMIN
 10
-407.970438
 20
-367.832444
  9
$LIMMAX
 10
429.804077
 20
234.370848
  9
$ORTHOMODE
 70
     0
  9
$REGENMODE
 70
     1
  9
$FILLMODE
 70
     1
  9
$QTEXTMODE
 70
     0
  9
$MIRRTEXT
 70
     1
  9
$DRAGMODE
 70
     2
  9
$LTSCALE
 40
10.0
  9
$OSMODE
 70
    35
  9
$ATTMODE
 70
     1
  9
$TEXTSIZE
 40
6.0
  9
$TRACEWID
 40
1.0
  9
$TEXTSTYLE
  7
ROMANS
  9
$CLAYER
  8
ALPHA
  9
$CELTYPE
  6
BYLAYER
  9
$CECOLOR
 62
   256
  9
$DIMSCALE
 40
1.0
  9
$DIMASZ
 40
5.0
  9
$DIMEXO
 40
2.0
  9
$DIMDLI
 40
0.38
  9
$DIMRND
 40
0.0
  9
$DIMDLE
 40
0.0
  9
$DIMEXE
 40
2.5
  9
$DIMTP
 40
0.0
  9
$DIMTM
 40
0.0
  9
$DIMTXT
 40
2.5
  9
$DIMCEN
 40
0.0
  9
$DIMTSZ
 40
0.0
  9
$DIMTOL
 70
     0
  9
$DIMLIM
 70
     0
  9
$DIMTIH
 70
     1
  9
$DIMTOH
 70
     1
  9
$DIMSE1
 70
     0
  9
$DIMSE2
 70
     0
  9
$DIMTAD
 70
     1
  9
$DIMZIN
 70
    12
  9
$DIMBLK
  1
OPEN30
  9
$DIMASO
 70
     1
  9
$DIMSHO
 70
     1
  9
$DIMPOST
  1

  9
$DIMAPOST
  1

  9
$DIMALT
 70
     0
  9
$DIMALTD
 70
     2
  9
$DIMALTF
 40
25.4
  9
$DIMLFAC
 40
1.0
  9
$DIMTOFL
 70
     0
  9
$DIMTVP
 40
0.0
  9
$DIMTIX
 70
     0
  9
$DIMSOXD
 70
     0
  9
$DIMSAH
 70
     0
  9
$DIMBLK1
  1

  9
$DIMBLK2
  1

  9
$DIMSTYLE
  2
SC_DEFAUT
  9
$DIMCLRD
 70
     0
  9
$DIMCLRE
 70
     0
  9
$DIMCLRT
 70
     0
  9
$DIMTFAC
 40
1.0
  9
$DIMGAP
 40
2.0
  9
$LUNITS
 70
     2
  9
$LUPREC
 70
     1
  9
$SKETCHINC
 40
0.1
  9
$FILLETRAD
 40
0.0
  9
$AUNITS
 70
     0
  9
$AUPREC
 70
     0
  9
$MENU
  1
acad
  9
$ELEVATION
 40
0.0
  9
$PELEVATION
 40
0.0
  9
$THICKNESS
 40
0.0
  9
$LIMCHECK
 70
     0
  9
$BLIPMODE
 70
     0
  9
$CHAMFERA
 40
0.0
  9
$CHAMFERB
 40
0.0
  9
$SKPOLY
 70
     0
  9
$TDCREATE
 40
2450373.687919
  9
$TDUPDATE
 40
2453038.417847
  9
$TDINDWG
 40
1.143523
  9
$TDUSRTIMER
 40
1.143523
  9
$USRTIMER
 70
     1
  9
$ANGBASE
 50
0.0
  9
$ANGDIR
 70
     0
  9
$PDMODE
 70
    32
  9
$PDSIZE
 40
0.0
  9
$PLINEWID
 40
0.0
  9
$COORDS
 70
     1
  9
$SPLFRAME
 70
     0
  9
$SPLINETYPE
 70
     6
  9
$SPLINESEGS
 70
     8
  9
$ATTDIA
 70
     0
  9
$ATTREQ
 70
     1
  9
$HANDLING
 70
     1
  9
$HANDSEED
  5
E58A
  9
$SURFTAB1
 70
     6
  9
$SURFTAB2
 70
     6
  9
$SURFTYPE
 70
     6
  9
$SURFU
 70
     6
  9
$SURFV
 70
     6
  9
$UCSNAME
  2

  9
$UCSORG
 10
0.0
 20
0.0
 30
0.0
  9
$UCSXDIR
 10
1.0
 20
0.0
 30
0.0
  9
$UCSYDIR
 10
0.0
 20
1.0
 30
0.0
  9
$PUCSNAME
  2

  9
$PUCSORG
 10
0.0
 20
0.0
 30
0.0
  9
$PUCSXDIR
 10
1.0
 20
0.0
 30
0.0
  9
$PUCSYDIR
 10
0.0
 20
1.0
 30
0.0
  9
$USERI1
 70
     0
  9
$USERI2
 70
     0
  9
$USERI3
 70
     0
  9
$USERI4
 70
     0
  9
$USERI5
 70
     0
  9
$USERR1
 40
0.0
  9
$USERR2
 40
0.0
  9
$USERR3
 40
0.0
  9
$USERR4
 40
0.0
  9
$USERR5
 40
0.0
  9
$WORLDVIEW
 70
     1
  9
$SHADEDGE
 70
     3
  9
$SHADEDIF
 70
    70
  9
$TILEMODE
 70
     1
  9
$MAXACTVP
 70
    16
  9
$PLIMCHECK
 70
     0
  9
$PEXTMIN
 10
-1.452248
 20
-0.437698
 30
0.0
  9
$PEXTMAX
 10
12.749749
 20
8.310198
 30
0.0
  9
$PLIMMIN
 10
0.0
 20
0.0
  9
$PLIMMAX
 10
12.0
 20
9.0
  9
$UNITMODE
 70
     0
  9
$VISRETAIN
 70
     0
  9
$PLINEGEN
 70
     0
  9
$PSLTSCALE
 70
     0
  0
ENDSEC
  0
SECTION
  2
TABLES
  0
TABLE
  2
VPORT
 70
     2
  0
VPORT
  2
*ACTIVE
 70
     0
 10
0.0
 20
0.0
 11
1.0
 21
1.0
 12
30.986798
 22
50.795145
 13
0.0
 23
0.0
 14
1.0
 24
1.0
 15
10.0
 25
10.0
 16
0.0
 26
0.0
 36
1.0
 17
0.0
 27
0.0
 37
0.0
 40
101.620772
 41
1.466346
 42
50.0
 43
0.0
 44
0.0
 50
0.0
 51
0.0
 71
     0
 72
   100
 73
     1
 74
     0
 75
     0
 76
     0
 77
     0
 78
     0
  0
ENDTAB
  0
TABLE
  2
LTYPE
 70
     2
  0
LTYPE
  2
CONTINUOUS
 70
     0
  3
Solid line
 72
    65
 73
     0
 40
0.0
  0
LTYPE
  2
AXES2
 70
     0
  3
___ _ ___ _ ___ _ ___ _ ___ _ ___ _ ___ _ ___ _
 72
    65
 73
     4
 40
1.125
 49
0.75
 49
-0.125
 49
0.125
 49
-0.125
  0
ENDTAB
  0
TABLE
  2
LAYER
 70
     5
  0
LAYER
  2
0
 70
     0
 62
   255
  6
CONTINUOUS
  0
LAYER
  2
COTATION1
 70
     0
 62
     2
  6
CONTINUOUS
  0
LAYER
  2
AXE
 70
     0
 62
    80
  6
AXES2
  0
LAYER
  2
DEFPOINTS
 70
     0
 62
     7
  6
CONTINUOUS
  0
LAYER
  2
ALPHA
 70
     0
 62
   254
  6
CONTINUOUS
  0
ENDTAB
  0
TABLE
  2
STYLE
 70
     2
  0
STYLE
  2
ROMANS
 70
     0
 40
0.0
 41
1.0
 50
0.0
 71
     0
 42
6.0
  3
romans
  4

  0
STYLE
  2
STANDARD
 70
     0
 40
0.0
 41
1.0
 50
0.0
 71
     0
 42
0.2
  3
txt
  4

  0
ENDTAB
  0
TABLE
  2
VIEW
 70
     0
  0
ENDTAB
  0
TABLE
  2
UCS
 70
     0
  0
ENDTAB
  0
TABLE
  2
APPID
 70
     1
  0
APPID
  2
ACAD
 70
     0
  0
ENDTAB
  0
TABLE
  2
DIMSTYLE
 70
     2
  0
DIMSTYLE
  2
SC_DEFAUT
 70
     0
  3

  4

  5
OPEN30
  6

  7

 40
1.0
 41
5.0
 42
2.0
 43
0.38
 44
2.5
 45
0.0
 46
0.0
 47
0.0
 48
0.0
140
2.5
141
0.0
142
0.0
143
25.4
144
1.0
145
0.0
146
1.0
147
2.0
 71
     0
 72
     0
 73
     1
 74
     1
 75
     0
 76
     0
 77
     1
 78
    12
170
     0
171
     2
172
     0
173
     0
174
     0
175
     0
176
     0
177
     0
178
     0
  0
DIMSTYLE
  2
STANDARD
 70
     0
  3

  4

  5

  6

  7

 40
1.0
 41
0.18
 42
0.0625
 43
0.38
 44
0.18
 45
0.0
 46
0.0
 47
0.0
 48
0.0
140
0.18
141
0.09
142
0.0
143
25.4
144
1.0
145
0.0
146
1.0
147
0.09
 71
     0
 72
     0
 73
     1
 74
     1
 75
     0
 76
     0
 77
     0
 78
     0
170
     0
171
     2
172
     0
173
     0
174
     0
175
     0
176
     0
177
     0
178
     0
  0
ENDTAB
  0
ENDSEC
  0
SECTION
  2
BLOCKS
  0
BLOCK
  8
0
  2
$MODEL_SPACE
 70
     0
 10
0.0
 20
0.0
 30
0.0
  3
$MODEL_SPACE
  1

  0
ENDBLK
  5
E010
  8
0
  0
BLOCK
 67
     1
  8
0
  2
$PAPER_SPACE
 70
     0
 10
0.0
 20
0.0
 30
0.0
  3
$PAPER_SPACE
  1

  0
ENDBLK
  5
E00E
 67
     1
  8
0
  0
BLOCK
  8
0
  2
COTE
 70
     0
 10
0.0
 20
0.0
 30
0.0
  3
COTE
  1

  0
ENDBLK
  5
F
  8
0
  0
BLOCK
  8
0
  2
FOND
 70
     0
 10
0.0
 20
0.0
 30
0.0
  3
FOND
  1

  0
ENDBLK
  5
75
  8
0
  0
BLOCK
  8
0
  2
_OPEN30
 70
     0
 10
0.0
 20
0.0
 30
0.0
  3
_OPEN30
  1

  0
LINE
  5
4B05
  8
COTATION1
 62
     0
 10
-1.0
 20
0.267949
 30
0.0
 11
0.0
 21
0.0
 31
0.0
1001
ACAD
1000
RTLwPs
1070
   158
  0
LINE
  5
4B06
  8
COTATION1
 62
     0
 10
0.0
 20
0.0
 30
0.0
 11
-1.0
 21
-0.267949
 31
0.0
1001
ACAD
1000
RTLwPs
1070
   158
  0
LINE
  5
4B07
  8
COTATION1
 62
     0
 10
0.0
 20
0.0
 30
0.0
 11
-1.0
 21
0.0
 31
0.0
1001
ACAD
1000
RTLwPs
1070
   158
  0
ENDBLK
  5
4B09
  8
0
  0
BLOCK
  8
0
  2
*D3
 70
     1
 10
0.0
 20
0.0
 30
0.0
  3
*D3
  1

  0
LINE
  5
DA1E
  8
COTATION1
 62
     0
 10
12.535064
 20
28.02456
 30
0.0
 11
12.535064
 21
0.388406
 31
0.0
1001
ACAD
1000
RTLwPs
1070
   158
  0
LINE
  5
DA1F
  8
COTATION1
 62
     0
 10
43.531923
 20
28.02456
 30
0.0
 11
43.531923
 21
0.388406
 31
0.0
1001
ACAD
1000
RTLwPs
1070
   158
  0
LINE
  5
DA20
  8
COTATION1
 62
     0
 10
17.535064
 20
2.888406
 30
0.0
 11
38.531923
 21
2.888406
 31
0.0
1001
ACAD
1000
RTLwPs
1070
   158
  0
INSERT
  5
DA21
  8
COTATION1
 62
     0
  2
_OPEN30
 10
12.535064
 20
2.888406
 30
0.0
 41
5.0
 42
5.0
 43
5.0
 50
180.0
1001
ACAD
1000
RTLwPs
1070
   158
  0
INSERT
  5
DA22
  8
COTATION1
 62
     0
  2
_OPEN30
 10
43.531923
 20
2.888406
 30
0.0
 41
5.0
 42
5.0
 43
5.0
1001
ACAD
1000
RTLwPs
1070
   158
  0
TEXT
  5
DA23
  8
COTATION1
 62
     0
 10
26.009684
 20
4.888406
 30
0.0
 40
2.5
  1
31
1001
ACAD
1000
MTEXTBEGIN
1070
    73
1070
     1
1070
    44
1040
1.0
1070
    74
1070
     0
1000
MTEXTEND
  0
POINT
  5
DA24
  8
DEFPOINTS
 62
     0
 10
12.535064
 20
30.02456
 30
0.0
  0
POINT
  5
DA25
  8
DEFPOINTS
 62
     0
 10
43.531923
 20
30.02456
 30
0.0
  0
POINT
  5
DA26
  8
DEFPOINTS
 62
     0
 10
43.531923
 20
2.888406
 30
0.0
  0
ENDBLK
  5
D9CC
  8
0
  0
BLOCK
  8
0
  2
*D4
 70
     1
 10
0.0
 20
0.0
 30
0.0
  3
*D4
  1

  0
LINE
  5
DA27
  8
COTATION1
 62
     0
 10
38.033537
 20
88.72456
 30
0.0
 11
65.933494
 21
88.72456
 31
0.0
1001
ACAD
1000
RTLwPs
1070
   158
  0
LINE
  5
DA28
  8
COTATION1
 62
     0
 10
45.416734
 20
23.62456
 30
0.0
 11
65.933494
 21
23.62456
 31
0.0
1001
ACAD
1000
RTLwPs
1070
   158
  0
LINE
  5
DA29
  8
COTATION1
 62
     0
 10
63.433494
 20
83.72456
 30
0.0
 11
63.433494
 21
59.42456
 31
0.0
1001
ACAD
1000
RTLwPs
1070
   158
  0
LINE
  5
DA2A
  8
COTATION1
 62
     0
 10
63.433494
 20
28.62456
 30
0.0
 11
63.433494
 21
52.92456
 31
0.0
1001
ACAD
1000
RTLwPs
1070
   158
  0
INSERT
  5
DA2B
  8
COTATION1
 62
     0
  2
_OPEN30
 10
63.433494
 20
88.72456
 30
0.0
 41
5.0
 42
5.0
 43
5.0
 50
90.0
1001
ACAD
1000
RTLwPs
1070
   158
  0
INSERT
  5
DA2C
  8
COTATION1
 62
     0
  2
_OPEN30
 10
63.433494
 20
23.62456
 30
0.0
 41
5.0
 42
5.0
 43
5.0
 50
270.0
1001
ACAD
1000
RTLwPs
1070
   158
  0
TEXT
  5
DA2D
  8
COTATION1
 62
     0
 10
59.564446
 20
54.92456
 30
0.0
 40
2.5
  1
65.1
1001
ACAD
1000
MTEXTBEGIN
1070
    73
1070
     1
1070
    44
1040
1.0
1070
    74
1070
     0
1000
MTEXTEND
  0
POINT
  5
DA2E
  8
DEFPOINTS
 62
     0
 10
36.033537
 20
88.72456
 30
0.0
  0
POINT
  5
DA2F
  8
DEFPOINTS
 62
     0
 10
43.416734
 20
23.62456
 30
0.0
  0
POINT
  5
DA30
  8
DEFPOINTS
 62
     0
 10
63.433494
 20
23.62456
 30
0.0
  0
ENDBLK
  5
D9D9
  8
0
  0
ENDSEC
  0
SECTION
  2
ENTITIES
  0
INSERT
  5
A
  8
0
  2
COTE
 10
0.0
 20
0.0
 30
0.0
  0
INSERT
  5
17
  8
0
  2
COTE
 10
284.010391
 20
6.373258
 30
0.0
  0
INSERT
  5
72
  8
0
  2
FOND
 10
0.0
 20
0.0
 30
0.0
  0
ARC
  5
D7C1
  8
ALPHA
 10
36.083494
 20
84.055321
 30
0.0
 40
0.2
 50
302.950817
 51
0.0
  0
ARC
  5
D7C2
  8
ALPHA
 10
28.033494
 20
27.66206
 30
0.0
 40
60.5625
 50
76.156001
 51
103.843999
  0
ARC
  5
D7C3
  8
ALPHA
 10
28.033494
 20
27.66206
 30
0.0
 40
61.0625
 50
76.029932
 51
103.970068
  0
ARC
  5
D7C4
  8
ALPHA
 10
28.033494
 20
30.53056
 30
0.0
 40
45.184
 50
70.110797
 51
79.691295
  0
ARC
  5
D7C5
  8
ALPHA
 10
28.033494
 20
96.17456
 30
0.0
 40
15.0
 50
286.079125
 51
304.518108
  0
ARC
  5
D7C6
  8
ALPHA
 10
38.033494
 20
78.72456
 30
0.0
 40
2.1
 50
121.588136
 51
270.0
  0
LINE
  5
D7C7
  8
ALPHA
 10
38.242579
 20
86.17456
 30
0.0
 11
17.824408
 21
86.17456
 31
0.0
  0
POLYLINE
  5
D7C8
  8
ALPHA
 66
     1
 10
0.0
 20
0.0
 30
0.0
  0
VERTEX
  5
E016
  8
ALPHA
 10
17.824408
 20
86.17456
 30
0.0
  0
VERTEX
  5
E017
  8
ALPHA
 10
22.124003
 20
86.841375
 30
0.0
  0
VERTEX
  5
E018
  8
ALPHA
 10
26.095945
 20
87.138393
 30
0.0
  0
VERTEX
  5
E019
  8
ALPHA
 10
29.702482
 20
87.14759
 30
0.0
  0
VERTEX
  5
E01A
  8
ALPHA
 10
32.93633
 20
86.945307
 30
0.0
  0
VERTEX
  5
E01B
  8
ALPHA
 10
35.784921
 20
86.600298
 30
0.0
  0
VERTEX
  5
E01C
  8
ALPHA
 10
38.242579
 20
86.17456
 30
0.0
  0
SEQEND
  5
E01D
  8
ALPHA
  0
LINE
  5
D7C9
  8
ALPHA
 10
36.033494
 20
88.72456
 30
0.0
 11
36.638818
 21
88.119235
 31
0.0
  0
LINE
  5
D7CA
  8
ALPHA
 10
36.283494
 20
85.57456
 30
0.0
 11
37.933494
 21
85.57456
 31
0.0
  0
LINE
  5
D7CB
  8
ALPHA
 10
37.933494
 20
85.539552
 30
0.0
 11
36.283494
 21
85.539552
 31
0.0
  0
LINE
  5
D7CC
  8
ALPHA
 10
36.513495
 20
84.764554
 30
0.0
 11
36.283494
 21
84.764554
 31
0.0
  0
LINE
  5
D7CD
  8
ALPHA
 10
36.283494
 20
84.673827
 30
0.0
 11
36.533494
 21
84.673827
 31
0.0
  0
POLYLINE
  5
D7CE
  8
ALPHA
 66
     1
 10
0.0
 20
0.0
 30
0.0
  0
VERTEX
  5
E01E
  8
ALPHA
 10
36.729281
 20
73.659319
 30
0.0
  0
VERTEX
  5
E01F
  8
ALPHA
 10
36.685754
 20
73.681559
 30
0.0
  0
VERTEX
  5
E020
  8
ALPHA
 10
36.641093
 20
73.70375
 30
0.0
  0
VERTEX
  5
E021
  8
ALPHA
 10
36.590637
 20
73.728082
 30
0.0
  0
VERTEX
  5
E022
  8
ALPHA
 10
36.533354
 20
73.754797
 30
0.0
  0
VERTEX
  5
E023
  8
ALPHA
 10
36.467866
 20
73.784201
 30
0.0
  0
VERTEX
  5
E024
  8
ALPHA
 10
36.392444
 20
73.816634
 30
0.0
  0
VERTEX
  5
E025
  8
ALPHA
 10
36.304817
 20
73.852497
 30
0.0
  0
VERTEX
  5
E026
  8
ALPHA
 10
36.202034
 20
73.892253
 30
0.0
  0
VERTEX
  5
E027
  8
ALPHA
 10
36.080164
 20
73.936474
 30
0.0
  0
VERTEX
  5
E028
  8
ALPHA
 10
35.933964
 20
73.985923
 30
0.0
  0
VERTEX
  5
E029
  8
ALPHA
 10
35.75633
 20
74.041744
 30
0.0
  0
VERTEX
  5
E02A
  8
ALPHA
 10
35.53971
 20
74.105132
 30
0.0
  0
SEQEND
  5
E02B
  8
ALPHA
  0
POLYLINE
  5
D7CF
  8
ALPHA
 66
     1
 10
0.0
 20
0.0
 30
0.0
  0
VERTEX
  5
E02C
  8
ALPHA
 10
36.729281
 20
73.659319
 30
0.0
  0
VERTEX
  5
E02D
  8
ALPHA
 10
36.684281
 20
73.67804
 30
0.0
  0
VERTEX
  5
E02E
  8
ALPHA
 10
36.6383
 20
73.696942
 30
0.0
  0
VERTEX
  5
E02F
  8
ALPHA
 10
36.586559
 20
73.717891
 30
0.0
  0
VERTEX
  5
E030
  8
ALPHA
 10
36.528048
 20
73.74112
 30
0.0
  0
VERTEX
  5
E031
  8
ALPHA
 10
36.461416
 20
73.766913
 30
0.0
  0
VERTEX
  5
E032
  8
ALPHA
 10
36.384959
 20
73.79557
 30
0.0
  0
VERTEX
  5
E033
  8
ALPHA
 10
36.296432
 20
73.827422
 30
0.0
  0
VERTEX
  5
E034
  8
ALPHA
 10
36.192896
 20
73.862808
 30
0.0
  0
VERTEX
  5
E035
  8
ALPHA
 10
36.070403
 20
73.902102
 30
0.0
  0
VERTEX
  5
E036
  8
ALPHA
 10
35.923632
 20
73.945752
 30
0.0
  0
VERTEX
  5
E037
  8
ALPHA
 10
35.745311
 20
73.994404
 30
0.0
  0
VERTEX
  5
E038
  8
ALPHA
 10
35.527531
 20
74.048561
 30
0.0
  0
SEQEND
  5
E039
  8
ALPHA
  0
POLYLINE
  5
D7D0
  8
ALPHA
 66
     1
 10
0.0
 20
0.0
 30
0.0
  0
VERTEX
  5
E03A
  8
ALPHA
 10
37.128286
 20
74.541003
 30
0.0
  0
VERTEX
  5
E03B
  8
ALPHA
 10
36.41122
 20
74.75942
 30
0.0
  0
VERTEX
  5
E03C
  8
ALPHA
 10
35.743555
 20
75.109804
 30
0.0
  0
VERTEX
  5
E03D
  8
ALPHA
 10
35.149481
 20
75.582554
 30
0.0
  0
SEQEND
  5
E03E
  8
ALPHA
  0
POLYLINE
  5
D7D1
  8
ALPHA
 66
     1
 10
0.0
 20
0.0
 30
0.0
  0
VERTEX
  5
E03F
  8
ALPHA
 10
37.041808
 20
74.53207
 30
0.0
  0
VERTEX
  5
E040
  8
ALPHA
 10
36.811031
 20
74.590576
 30
0.0
  0
VERTEX
  5
E041
  8
ALPHA
 10
36.585704
 20
74.662159
 30
0.0
  0
VERTEX
  5
E042
  8
ALPHA
 10
36.365078
 20
74.746898
 30
0.0
  0
VERTEX
  5
E043
  8
ALPHA
 10
36.149885
 20
74.844501
 30
0.0
  0
VERTEX
  5
E044
  8
ALPHA
 10
35.941064
 20
74.954516
 30
0.0
  0
VERTEX
  5
E045
  8
ALPHA
 10
35.738971
 20
75.076744
 30
0.0
  0
VERTEX
  5
E046
  8
ALPHA
 10
35.544807
 20
75.210432
 30
0.0
  0
VERTEX
  5
E047
  8
ALPHA
 10
35.359052
 20
75.355177
 30
0.0
  0
VERTEX
  5
E048
  8
ALPHA
 10
35.182288
 20
75.510474
 30
0.0
  0
VERTEX
  5
E049
  8
ALPHA
 10
35.015483
 20
75.675367
 30
0.0
  0
SEQEND
  5
E04A
  8
ALPHA
  0
LINE
  5
D7D2
  8
ALPHA
 10
36.420959
 20
73.576748
 30
0.0
 11
36.273346
 21
73.604255
 31
0.0
  0
LINE
  5
D7D3
  8
ALPHA
 10
36.328633
 20
73.736454
 30
0.0
 11
36.2176
 21
73.75713
 31
0.0
  0
POLYLINE
  5
D7D4
  8
ALPHA
 66
     1
 10
0.0
 20
0.0
 30
0.0
  0
VERTEX
  5
E04B
  8
ALPHA
 10
34.739274
 20
73.670376
 30
0.0
  0
VERTEX
  5
E04C
  8
ALPHA
 10
34.919368
 20
73.644716
 30
0.0
  0
VERTEX
  5
E04D
  8
ALPHA
 10
35.082438
 20
73.62366
 30
0.0
  0
VERTEX
  5
E04E
  8
ALPHA
 10
35.230299
 20
73.606351
 30
0.0
  0
VERTEX
  5
E04F
  8
ALPHA
 10
35.364778
 20
73.592076
 30
0.0
  0
VERTEX
  5
E050
  8
ALPHA
 10
35.487716
 20
73.580246
 30
0.0
  0
VERTEX
  5
E051
  8
ALPHA
 10
35.600841
 20
73.570387
 30
0.0
  0
VERTEX
  5
E052
  8
ALPHA
 10
35.704832
 20
73.562191
 30
0.0
  0
VERTEX
  5
E053
  8
ALPHA
 10
35.799967
 20
73.555419
 30
0.0
  0
VERTEX
  5
E054
  8
ALPHA
 10
35.887176
 20
73.54982
 30
0.0
  0
VERTEX
  5
E055
  8
ALPHA
 10
35.967504
 20
73.545177
 30
0.0
  0
VERTEX
  5
E056
  8
ALPHA
 10
36.041286
 20
73.541346
 30
0.0
  0
VERTEX
  5
E057
  8
ALPHA
 10
36.108512
 20
73.538218
 30
0.0
  0
VERTEX
  5
E058
  8
ALPHA
 10
36.169462
 20
73.535679
 30
0.0
  0
VERTEX
  5
E059
  8
ALPHA
 10
36.225281
 20
73.533603
 30
0.0
  0
VERTEX
  5
E05A
  8
ALPHA
 10
36.27727
 20
73.531882
 30
0.0
  0
VERTEX
  5
E05B
  8
ALPHA
 10
36.326722
 20
73.530436
 30
0.0
  0
VERTEX
  5
E05C
  8
ALPHA
 10
36.374764
 20
73.52921
 30
0.0
  0
VERTEX
  5
E05D
  8
ALPHA
 10
36.422392
 20
73.528168
 30
0.0
  0
VERTEX
  5
E05E
  8
ALPHA
 10
36.470599
 20
73.527288
 30
0.0
  0
VERTEX
  5
E05F
  8
ALPHA
 10
36.520381
 20
73.526566
 30
0.0
  0
VERTEX
  5
E060
  8
ALPHA
 10
36.572733
 20
73.526009
 30
0.0
  0
VERTEX
  5
E061
  8
ALPHA
 10
36.628652
 20
73.525644
 30
0.0
  0
VERTEX
  5
E062
  8
ALPHA
 10
36.689138
 20
73.525518
 30
0.0
  0
SEQEND
  5
E063
  8
ALPHA
  0
POLYLINE
  5
D7D5
  8
ALPHA
 66
     1
 10
0.0
 20
0.0
 30
0.0
  0
VERTEX
  5
E064
  8
ALPHA
 10
34.908419
 20
73.574687
 30
0.0
  0
VERTEX
  5
E065
  8
ALPHA
 10
35.072718
 20
73.55509
 30
0.0
  0
VERTEX
  5
E066
  8
ALPHA
 10
35.221764
 20
73.539976
 30
0.0
  0
VERTEX
  5
E067
  8
ALPHA
 10
35.357352
 20
73.528419
 30
0.0
  0
VERTEX
  5
E068
  8
ALPHA
 10
35.481308
 20
73.519677
 30
0.0
  0
VERTEX
  5
E069
  8
ALPHA
 10
35.595359
 20
73.513169
 30
0.0
  0
VERTEX
  5
E06A
  8
ALPHA
 10
35.700177
 20
73.508483
 30
0.0
  0
VERTEX
  5
E06B
  8
ALPHA
 10
35.796042
 20
73.505285
 30
0.0
  0
VERTEX
  5
E06C
  8
ALPHA
 10
35.883887
 20
73.503265
 30
0.0
  0
VERTEX
  5
E06D
  8
ALPHA
 10
35.964768
 20
73.502176
 30
0.0
  0
VERTEX
  5
E06E
  8
ALPHA
 10
36.039027
 20
73.501827
 30
0.0
  0
VERTEX
  5
E06F
  8
ALPHA
 10
36.106657
 20
73.502052
 30
0.0
  0
VERTEX
  5
E070
  8
ALPHA
 10
36.167947
 20
73.502704
 30
0.0
  0
VERTEX
  5
E071
  8
ALPHA
 10
36.224052
 20
73.503674
 30
0.0
  0
VERTEX
  5
E072
  8
ALPHA
 10
36.276284
 20
73.504898
 30
0.0
  0
VERTEX
  5
E073
  8
ALPHA
 10
36.325946
 20
73.506349
 30
0.0
  0
VERTEX
  5
E074
  8
ALPHA
 10
36.374171
 20
73.508027
 30
0.0
  0
VERTEX
  5
E075
  8
ALPHA
 10
36.421957
 20
73.50995
 30
0.0
  0
VERTEX
  5
E076
  8
ALPHA
 10
36.470302
 20
73.512162
 30
0.0
  0
VERTEX
  5
E077
  8
ALPHA
 10
36.520199
 20
73.514724
 30
0.0
  0
VERTEX
  5
E078
  8
ALPHA
 10
36.572644
 20
73.517724
 30
0.0
  0
VERTEX
  5
E079
  8
ALPHA
 10
36.628627
 20
73.521275
 30
0.0
  0
VERTEX
  5
E07A
  8
ALPHA
 10
36.689138
 20
73.525518
 30
0.0
  0
SEQEND
  5
E07B
  8
ALPHA
  0
POLYLINE
  5
D7D6
  8
ALPHA
 66
     1
 10
0.0
 20
0.0
 30
0.0
  0
VERTEX
  5
E07C
  8
ALPHA
 10
13.43097
 20
28.006962
 30
0.0
  0
VERTEX
  5
E07D
  8
ALPHA
 10
15.720393
 20
28.168592
 30
0.0
  0
VERTEX
  5
E07E
  8
ALPHA
 10
17.989397
 20
28.305045
 30
0.0
  0
VERTEX
  5
E07F
  8
ALPHA
 10
20.241262
 20
28.415296
 30
0.0
  0
VERTEX
  5
E080
  8
ALPHA
 10
22.479037
 20
28.498566
 30
0.0
  0
VERTEX
  5
E081
  8
ALPHA
 10
24.705846
 20
28.55432
 30
0.0
  0
VERTEX
  5
E082
  8
ALPHA
 10
26.925
 20
28.582254
 30
0.0
  0
VERTEX
  5
E083
  8
ALPHA
 10
29.141606
 20
28.582256
 30
0.0
  0
VERTEX
  5
E084
  8
ALPHA
 10
31.361533
 20
28.554313
 30
0.0
  0
VERTEX
  5
E085
  8
ALPHA
 10
33.588475
 20
28.498549
 30
0.0
  0
VERTEX
  5
E086
  8
ALPHA
 10
35.825929
 20
28.415287
 30
0.0
  0
VERTEX
  5
E087
  8
ALPHA
 10
38.077533
 20
28.305048
 30
0.0
  0
VERTEX
  5
E088
  8
ALPHA
 10
40.346667
 20
28.168588
 30
0.0
  0
VERTEX
  5
E089
  8
ALPHA
 10
42.636017
 20
28.006962
 30
0.0
  0
SEQEND
  5
E08A
  8
ALPHA
  0
LINE
  5
D7D7
  8
ALPHA
 10
40.483494
 20
26.82456
 30
0.0
 11
15.583494
 21
26.82456
 31
0.0
  0
POLYLINE
  5
D7D8
  8
ALPHA
 66
     1
 10
0.0
 20
0.0
 30
0.0
  0
VERTEX
  5
E08B
  8
ALPHA
 10
13.556489
 20
27.157585
 30
0.0
  0
VERTEX
  5
E08C
  8
ALPHA
 10
15.825999
 20
27.326303
 30
0.0
  0
VERTEX
  5
E08D
  8
ALPHA
 10
18.075543
 20
27.468757
 30
0.0
  0
VERTEX
  5
E08E
  8
ALPHA
 10
20.308092
 20
27.583856
 30
0.0
  0
VERTEX
  5
E08F
  8
ALPHA
 10
22.526677
 20
27.670786
 30
0.0
  0
VERTEX
  5
E090
  8
ALPHA
 10
24.734388
 20
27.728992
 30
0.0
  0
VERTEX
  5
E091
  8
ALPHA
 10
26.934514
 20
27.758153
 30
0.0
  0
VERTEX
  5
E092
  8
ALPHA
 10
29.132104
 20
27.758156
 30
0.0
  0
VERTEX
  5
E093
  8
ALPHA
 10
31.332996
 20
27.728984
 30
0.0
  0
VERTEX
  5
E094
  8
ALPHA
 10
33.540843
 20
27.670769
 30
0.0
  0
VERTEX
  5
E095
  8
ALPHA
 10
35.759113
 20
27.583846
 30
0.0
  0
VERTEX
  5
E096
  8
ALPHA
 10
37.991405
 20
27.468759
 30
0.0
  0
VERTEX
  5
E097
  8
ALPHA
 10
40.241052
 20
27.326299
 30
0.0
  0
VERTEX
  5
E098
  8
ALPHA
 10
42.510498
 20
27.157585
 30
0.0
  0
SEQEND
  5
E099
  8
ALPHA
  0
LINE
  5
D7D9
  8
ALPHA
 10
39.323748
 20
25.731667
 30
0.0
 11
16.743239
 21
25.731667
 31
0.0
  0
LINE
  5
D7DA
  8
ALPHA
 10
38.61896
 20
23.987257
 30
0.0
 11
17.448027
 21
23.987257
 31
0.0
  0
LINE
  5
D7DB
  8
ALPHA
 10
38.155368
 20
23.67456
 30
0.0
 11
17.911619
 21
23.67456
 31
0.0
  0
LINE
  5
D7DD
  8
ALPHA
 10
13.43097
 20
28.006962
 30
0.0
 11
13.43097
 21
72.00268
 31
0.0
  0
LINE
  5
D7DE
  8
ALPHA
 10
12.587956
 20
27.995906
 30
0.0
 11
12.587935
 21
72.00268
 31
0.0
  0
LINE
  5
D7DF
  8
ALPHA
 10
12.535064
 20
70.725151
 30
0.0
 11
12.535064
 21
30.02456
 31
0.0
  0
LINE
  5
D7E0
  8
0
  6
CONTINUOUS
 62
     2
 10
-4.82194
 20
44.07456
 30
0.0
 11
5.17806
 21
44.07456
 31
0.0
  0
LINE
  5
D7E1
  8
0
  6
CONTINUOUS
 62
     2
 10
5.17806
 20
39.07456
 30
0.0
 11
-4.82194
 21
39.07456
 31
0.0
  0
LINE
  5
D7E2
  8
0
  6
CONTINUOUS
 62
     2
 10
24.254646
 20
31.57456
 30
0.0
 11
0.17806
 21
31.57456
 31
0.0
  0
TEXT
  5
D7E3
  8
0
  6
CONTINUOUS
 62
     2
 10
-3.57194
 20
40.32456
 30
0.0
 40
2.5
  1
ENTRY
 41
0.642857
  7
STANDARD
 72
     5
 11
3.92806
 21
40.32456
 31
0.0
  0
LINE
  5
D7E4
  8
0
  6
CONTINUOUS
 62
     2
 10
-4.82194
 20
39.07456
 30
0.0
 11
-4.82194
 21
44.07456
 31
0.0
  0
LINE
  5
D7E5
  8
0
  6
CONTINUOUS
 62
     2
 10
0.17806
 20
34.07456
 30
0.0
 11
0.17806
 21
39.07456
 31
0.0
  0
SOLID
  5
D7E6
  8
0
  6
CONTINUOUS
 62
     2
 10
1.621436
 20
31.57456
 30
0.0
 11
-1.265315
 21
31.57456
 31
0.0
 12
0.17806
 22
34.07456
 32
0.0
 13
0.17806
 23
34.07456
 33
0.0
  0
POLYLINE
  5
D7E7
  8
ALPHA
 66
     1
 10
0.0
 20
0.0
 30
0.0
  0
VERTEX
  5
E09A
  8
ALPHA
 10
12.650253
 20
23.62456
 30
0.0
  0
VERTEX
  5
E09B
  8
ALPHA
 10
12.713921
 20
23.642852
 30
0.0
  0
VERTEX
  5
E09C
  8
ALPHA
 10
12.777935
 20
23.697722
 30
0.0
  0
VERTEX
  5
E09D
  8
ALPHA
 10
12.842251
 20
23.78929
 30
0.0
  0
VERTEX
  5
E09E
  8
ALPHA
 10
12.906815
 20
23.917829
 30
0.0
  0
VERTEX
  5
E09F
  8
ALPHA
 10
12.971471
 20
24.083254
 30
0.0
  0
VERTEX
  5
E0A0
  8
ALPHA
 10
13.036079
 20
24.28493
 30
0.0
  0
VERTEX
  5
E0A1
  8
ALPHA
 10
13.100727
 20
24.522642
 30
0.0
  0
VERTEX
  5
E0A2
  8
ALPHA
 10
13.165462
 20
24.796067
 30
0.0
  0
VERTEX
  5
E0A3
  8
ALPHA
 10
13.230304
 20
25.10474
 30
0.0
  0
VERTEX
  5
E0A4
  8
ALPHA
 10
13.295289
 20
25.448174
 30
0.0
  0
VERTEX
  5
E0A5
  8
ALPHA
 10
13.360468
 20
25.825851
 30
0.0
  0
VERTEX
  5
E0A6
  8
ALPHA
 10
13.425805
 20
26.237013
 30
0.0
  0
VERTEX
  5
E0A7
  8
ALPHA
 10
13.491188
 20
26.681066
 30
0.0
  0
VERTEX
  5
E0A8
  8
ALPHA
 10
13.556489
 20
27.157585
 30
0.0
  0
SEQEND
  5
E0A9
  8
ALPHA
  0
LINE
  5
D7E8
  8
ALPHA
 10
15.833494
 20
26.82456
 30
0.0
 11
15.833494
 21
23.72456
 31
0.0
  0
LINE
  5
D7E9
  8
ALPHA
 10
15.583494
 20
23.62456
 30
0.0
 11
15.583494
 21
26.82456
 31
0.0
  0
POLYLINE
  5
D7EA
  8
ALPHA
 66
     1
 10
0.0
 20
0.0
 30
0.0
  0
VERTEX
  5
E0AA
  8
ALPHA
 10
16.971758
 20
24.168373
 30
0.0
  0
VERTEX
  5
E0AB
  8
ALPHA
 10
16.961354
 20
24.295824
 30
0.0
  0
VERTEX
  5
E0AC
  8
ALPHA
 10
16.934762
 20
24.421435
 30
0.0
  0
VERTEX
  5
E0AD
  8
ALPHA
 10
16.892393
 20
24.54298
 30
0.0
  0
SEQEND
  5
E0AE
  8
ALPHA
  0
POLYLINE
  5
D7EB
  8
ALPHA
 66
     1
 10
0.0
 20
0.0
 30
0.0
  0
VERTEX
  5
E0AF
  8
ALPHA
 10
12.58797
 20
27.988738
 30
0.0
  0
VERTEX
  5
E0B0
  8
ALPHA
 10
12.602614
 20
26.233442
 30
0.0
  0
VERTEX
  5
E0B1
  8
ALPHA
 10
12.618442
 20
24.902494
 30
0.0
  0
VERTEX
  5
E0B2
  8
ALPHA
 10
12.634474
 20
24.044028
 30
0.0
  0
VERTEX
  5
E0B3
  8
ALPHA
 10
12.650231
 20
23.624851
 30
0.0
  0
SEQEND
  5
E0B4
  8
ALPHA
  0
LINE
  5
D7EC
  8
ALPHA
 10
17.448027
 20
23.987257
 30
0.0
 11
16.743239
 21
25.731667
 31
0.0
  0
LINE
  5
D7ED
  8
ALPHA
 10
15.583494
 20
23.62456
 30
0.0
 11
12.650253
 21
23.62456
 31
0.0
  0
ARC
  5
D7EE
  8
ALPHA
 10
17.911619
 20
24.17456
 30
0.0
 40
0.5
 50
202.000002
 51
270.0
  0
POLYLINE
  5
D7EF
  8
ALPHA
 66
     1
 10
0.0
 20
0.0
 30
0.0
  0
VERTEX
  5
E0B5
  8
ALPHA
 10
16.980016
 20
23.72456
 30
0.0
  0
VERTEX
  5
E0B6
  8
ALPHA
 10
16.974421
 20
24.020381
 30
0.0
  0
VERTEX
  5
E0B7
  8
ALPHA
 10
16.971758
 20
24.168373
 30
0.0
  0
SEQEND
  5
E0B8
  8
ALPHA
  0
LINE
  5
D7F0
  8
ALPHA
 10
16.971758
 20
24.168373
 30
0.0
 11
17.374851
 21
24.168373
 31
0.0
  0
LINE
  5
D7F1
  8
ALPHA
 10
15.833494
 20
23.72456
 30
0.0
 11
17.70641
 21
23.72456
 31
0.0
  0
LINE
  5
D7F2
  8
0
  6
CONTINUOUS
 62
     2
 10
5.17806
 20
44.07456
 30
0.0
 11
5.17806
 21
39.07456
 31
0.0
  0
LINE
  5
D7F3
  8
ALPHA
 10
12.615308
 20
27.988729
 30
0.0
 11
12.61525
 21
27.805732
 31
0.0
  0
POLYLINE
  5
D7F4
  8
ALPHA
 66
     1
 10
0.0
 20
0.0
 30
0.0
  0
VERTEX
  5
E0B9
  8
ALPHA
 10
13.455267
 20
27.732394
 30
0.0
  0
VERTEX
  5
E0BA
  8
ALPHA
 10
13.442083
 20
27.868282
 30
0.0
  0
VERTEX
  5
E0BB
  8
ALPHA
 10
13.430973
 20
28.006962
 30
0.0
  0
SEQEND
  5
E0BC
  8
ALPHA
  0
POLYLINE
  5
D7F5
  8
ALPHA
 66
     1
 10
0.0
 20
0.0
 30
0.0
  0
VERTEX
  5
E0BD
  8
ALPHA
 10
13.556488
 20
27.157584
 30
0.0
  0
VERTEX
  5
E0BE
  8
ALPHA
 10
13.537581
 20
27.228289
 30
0.0
  0
VERTEX
  5
E0BF
  8
ALPHA
 10
13.518658
 20
27.312483
 30
0.0
  0
VERTEX
  5
E0C0
  8
ALPHA
 10
13.500282
 20
27.408759
 30
0.0
  0
VERTEX
  5
E0C1
  8
ALPHA
 10
13.483135
 20
27.513929
 30
0.0
  0
VERTEX
  5
E0C2
  8
ALPHA
 10
13.467926
 20
27.623614
 30
0.0
  0
VERTEX
  5
E0C3
  8
ALPHA
 10
13.455267
 20
27.732394
 30
0.0
  0
SEQEND
  5
E0C4
  8
ALPHA
  0
POLYLINE
  5
D7F6
  8
ALPHA
 66
     1
 10
0.0
 20
0.0
 30
0.0
  0
VERTEX
  5
E0C5
  8
ALPHA
 10
12.587956
 20
27.995906
 30
0.0
  0
VERTEX
  5
E0C6
  8
ALPHA
 10
12.628249
 20
27.91876
 30
0.0
  0
VERTEX
  5
E0C7
  8
ALPHA
 10
12.748442
 20
27.848317
 30
0.0
  0
VERTEX
  5
E0C8
  8
ALPHA
 10
12.938095
 20
27.790695
 30
0.0
  0
VERTEX
  5
E0C9
  8
ALPHA
 10
13.18073
 20
27.750902
 30
0.0
  0
VERTEX
  5
E0CA
  8
ALPHA
 10
13.455267
 20
27.732394
 30
0.0
  0
SEQEND
  5
E0CB
  8
ALPHA
  0
LINE
  5
D7F7
  8
ALPHA
 10
12.587935
 20
30.02456
 30
0.0
 11
12.535064
 21
30.02456
 31
0.0
  0
LINE
  5
D7F8
  8
ALPHA
 10
12.587935
 20
28.006962
 30
0.0
 11
13.43097
 21
28.006962
 31
0.0
  0
POLYLINE
  5
D7F9
  8
ALPHA
 66
     1
 10
0.0
 20
0.0
 30
0.0
  0
VERTEX
  5
E0CC
  8
ALPHA
 10
13.556488
 20
27.157584
 30
0.0
  0
VERTEX
  5
E0CD
  8
ALPHA
 10
13.305639
 20
27.196719
 30
0.0
  0
VERTEX
  5
E0CE
  8
ALPHA
 10
13.071909
 20
27.286997
 30
0.0
  0
VERTEX
  5
E0CF
  8
ALPHA
 10
12.87117
 20
27.422234
 30
0.0
  0
VERTEX
  5
E0D0
  8
ALPHA
 10
12.717028
 20
27.593713
 30
0.0
  0
VERTEX
  5
E0D1
  8
ALPHA
 10
12.62032
 20
27.789747
 30
0.0
  0
VERTEX
  5
E0D2
  8
ALPHA
 10
12.587977
 20
27.988944
 30
0.0
  0
SEQEND
  5
E0D3
  8
ALPHA
  0
ARC
  5
D7FA
  8
ALPHA
 10
19.52479
 20
26.855487
 30
0.0
 40
3.0
 50
180.591288
 51
202.0
  0
LINE
  5
D7FB
  8
ALPHA
 10
16.289093
 20
26.82456
 30
0.0
 11
16.290776
 21
26.554701
 31
0.0
  0
POLYLINE
  5
D7FC
  8
ALPHA
 66
     1
 10
0.0
 20
0.0
 30
0.0
  0
VERTEX
  5
E0D4
  8
ALPHA
 10
16.520418
 20
25.430881
 30
0.0
  0
VERTEX
  5
E0D5
  8
ALPHA
 10
16.395425
 20
25.7952
 30
0.0
  0
VERTEX
  5
E0D6
  8
ALPHA
 10
16.318471
 20
26.171892
 30
0.0
  0
VERTEX
  5
E0D7
  8
ALPHA
 10
16.290776
 20
26.554701
 30
0.0
  0
SEQEND
  5
E0D8
  8
ALPHA
  0
POLYLINE
  5
D7FD
  8
ALPHA
 66
     1
 10
0.0
 20
0.0
 30
0.0
  0
VERTEX
  5
E0D9
  8
ALPHA
 10
16.892393
 20
24.54298
 30
0.0
  0
VERTEX
  5
E0DA
  8
ALPHA
 10
16.76893
 20
24.836622
 30
0.0
  0
VERTEX
  5
E0DB
  8
ALPHA
 10
16.64494
 20
25.132589
 30
0.0
  0
VERTEX
  5
E0DC
  8
ALPHA
 10
16.520418
 20
25.430881
 30
0.0
  0
SEQEND
  5
E0DD
  8
ALPHA
  0
LINE
  5
D7FE
  8
ALPHA
 10
16.290776
 20
26.554701
 30
0.0
 11
16.553161
 21
26.554701
 31
0.0
  0
LINE
  5
D7FF
  8
ALPHA
 10
16.520418
 20
25.430881
 30
0.0
 11
16.864765
 21
25.430881
 31
0.0
  0
LINE
  5
D800
  8
ALPHA
 10
16.892393
 20
24.54298
 30
0.0
 11
17.2235
 21
24.54298
 31
0.0
  0
LINE
  5
D802
  8
0
  6
CONTINUOUS
 62
     2
 10
-4.07194
 20
101.22456
 30
0.0
 11
4.42806
 21
101.22456
 31
0.0
  0
LINE
  5
D803
  8
0
  6
CONTINUOUS
 62
     2
 10
4.42806
 20
96.22456
 30
0.0
 11
-4.07194
 21
96.22456
 31
0.0
  0
TEXT
  5
D804
  8
0
  6
CONTINUOUS
 62
     2
 10
-2.82194
 20
97.47456
 30
0.0
 40
2.5
  1
HEAD
 41
0.654545
  7
STANDARD
 72
     5
 11
3.17806
 21
97.47456
 31
0.0
  0
SOLID
  5
D805
  8
0
  6
CONTINUOUS
 62
     2
 10
1.621436
 20
88.72456
 30
0.0
 11
-1.265315
 21
88.72456
 31
0.0
 12
0.17806
 22
91.22456
 32
0.0
 13
0.17806
 23
91.22456
 33
0.0
  0
LINE
  5
D806
  8
0
  6
CONTINUOUS
 62
     2
 10
-4.07194
 20
96.22456
 30
0.0
 11
-4.07194
 21
101.22456
 31
0.0
  0
LINE
  5
D807
  8
0
  6
CONTINUOUS
 62
     2
 10
0.17806
 20
91.22456
 30
0.0
 11
0.17806
 21
96.22456
 31
0.0
  0
ARC
  5
D808
  8
ALPHA
 10
28.033494
 20
96.47456
 30
0.0
 40
15.0
 50
237.049183
 51
247.921031
  0
ARC
  5
D809
  8
ALPHA
 10
28.033494
 20
30.53056
 30
0.0
 40
45.184
 50
100.308705
 51
109.889203
  0
ARC
  5
D80A
  8
ALPHA
 10
28.033494
 20
96.17456
 30
0.0
 40
15.0
 50
235.481892
 51
253.920919
  0
ARC
  5
D80B
  8
ALPHA
 10
18.033494
 20
78.72456
 30
0.0
 40
2.1
 50
270.0
 51
58.411864
  0
LINE
  5
D80C
  8
0
  6
CONTINUOUS
 62
     2
 10
20.03345
 20
88.72456
 30
0.0
 11
0.17806
 21
88.72456
 31
0.0
  0
LINE
  5
D80D
  8
ALPHA
 10
26.49154
 20
85.27456
 30
0.0
 11
19.783494
 21
85.27456
 31
0.0
  0
POLYLINE
  5
D80E
  8
ALPHA
 66
     1
 10
0.0
 20
0.0
 30
0.0
  0
VERTEX
  5
E0DE
  8
ALPHA
 10
19.377849
 20
73.525518
 30
0.0
  0
VERTEX
  5
E0DF
  8
ALPHA
 10
19.427599
 20
73.525602
 30
0.0
  0
VERTEX
  5
E0E0
  8
ALPHA
 10
19.47482
 20
73.525855
 30
0.0
  0
VERTEX
  5
E0E1
  8
ALPHA
 10
19.520622
 20
73.526263
 30
0.0
  0
VERTEX
  5
E0E2
  8
ALPHA
 10
19.566121
 20
73.526827
 30
0.0
  0
VERTEX
  5
E0E3
  8
ALPHA
 10
19.612425
 20
73.527561
 30
0.0
  0
VERTEX
  5
E0E4
  8
ALPHA
 10
19.660667
 20
73.5285
 30
0.0
  0
VERTEX
  5
E0E5
  8
ALPHA
 10
19.712031
 20
73.529694
 30
0.0
  0
VERTEX
  5
E0E6
  8
ALPHA
 10
19.767752
 20
73.531217
 30
0.0
  0
VERTEX
  5
E0E7
  8
ALPHA
 10
19.828751
 20
73.533155
 30
0.0
  0
VERTEX
  5
E0E8
  8
ALPHA
 10
19.895264
 20
73.535591
 30
0.0
  0
VERTEX
  5
E0E9
  8
ALPHA
 10
19.967286
 20
73.538608
 30
0.0
  0
VERTEX
  5
E0EA
  8
ALPHA
 10
20.045198
 20
73.542318
 30
0.0
  0
VERTEX
  5
E0EB
  8
ALPHA
 10
20.129712
 20
73.546867
 30
0.0
  0
VERTEX
  5
E0EC
  8
ALPHA
 10
20.221571
 20
73.552429
 30
0.0
  0
VERTEX
  5
E0ED
  8
ALPHA
 10
20.321474
 20
73.559211
 30
0.0
  0
VERTEX
  5
E0EE
  8
ALPHA
 10
20.430085
 20
73.567452
 30
0.0
  0
VERTEX
  5
E0EF
  8
ALPHA
 10
20.548232
 20
73.577443
 30
0.0
  0
VERTEX
  5
E0F0
  8
ALPHA
 10
20.677123
 20
73.589568
 30
0.0
  0
VERTEX
  5
E0F1
  8
ALPHA
 10
20.818037
 20
73.604288
 30
0.0
  0
VERTEX
  5
E0F2
  8
ALPHA
 10
20.97232
 20
73.622164
 30
0.0
  0
VERTEX
  5
E0F3
  8
ALPHA
 10
21.141609
 20
73.643903
 30
0.0
  0
VERTEX
  5
E0F4
  8
ALPHA
 10
21.327713
 20
73.670376
 30
0.0
  0
SEQEND
  5
E0F5
  8
ALPHA
  0
POLYLINE
  5
D80F
  8
ALPHA
 66
     1
 10
0.0
 20
0.0
 30
0.0
  0
VERTEX
  5
E0F6
  8
ALPHA
 10
21.278812
 20
73.996764
 30
0.0
  0
VERTEX
  5
E0F7
  8
ALPHA
 10
21.10202
 20
73.969787
 30
0.0
  0
VERTEX
  5
E0F8
  8
ALPHA
 10
20.940252
 20
73.944443
 30
0.0
  0
VERTEX
  5
E0F9
  8
ALPHA
 10
20.791899
 20
73.920646
 30
0.0
  0
VERTEX
  5
E0FA
  8
ALPHA
 10
20.655545
 20
73.898308
 30
0.0
  0
VERTEX
  5
E0FB
  8
ALPHA
 10
20.529972
 20
73.877343
 30
0.0
  0
VERTEX
  5
E0FC
  8
ALPHA
 10
20.414031
 20
73.85765
 30
0.0
  0
VERTEX
  5
E0FD
  8
ALPHA
 10
20.306766
 20
73.839144
 30
0.0
  0
VERTEX
  5
E0FE
  8
ALPHA
 10
20.207592
 20
73.821788
 30
0.0
  0
VERTEX
  5
E0FF
  8
ALPHA
 10
20.116038
 20
73.805557
 30
0.0
  0
VERTEX
  5
E100
  8
ALPHA
 10
20.031554
 20
73.7904
 30
0.0
  0
VERTEX
  5
E101
  8
ALPHA
 10
19.953822
 20
73.776302
 30
0.0
  0
VERTEX
  5
E102
  8
ALPHA
 10
19.819541
 20
73.751602
 30
0.0
  0
SEQEND
  5
E103
  8
ALPHA
  0
LINE
  5
D810
  8
ALPHA
 10
19.912463
 20
73.626046
 30
0.0
 11
19.792099
 21
73.603971
 31
0.0
  0
POLYLINE
  5
D811
  8
ALPHA
 66
     1
 10
0.0
 20
0.0
 30
0.0
  0
VERTEX
  5
E104
  8
ALPHA
 10
20.540029
 20
74.04497
 30
0.0
  0
VERTEX
  5
E105
  8
ALPHA
 10
20.373721
 20
74.00286
 30
0.0
  0
VERTEX
  5
E106
  8
ALPHA
 10
20.234136
 20
73.965517
 30
0.0
  0
VERTEX
  5
E107
  8
ALPHA
 10
20.115506
 20
73.931951
 30
0.0
  0
VERTEX
  5
E108
  8
ALPHA
 10
20.014052
 20
73.901694
 30
0.0
  0
VERTEX
  5
E109
  8
ALPHA
 10
19.926218
 20
73.874212
 30
0.0
  0
VERTEX
  5
E10A
  8
ALPHA
 10
19.849452
 20
73.849156
 30
0.0
  0
VERTEX
  5
E10B
  8
ALPHA
 10
19.782413
 20
73.826466
 30
0.0
  0
VERTEX
  5
E10C
  8
ALPHA
 10
19.723717
 20
73.805984
 30
0.0
  0
VERTEX
  5
E10D
  8
ALPHA
 10
19.671264
 20
73.787208
 30
0.0
  0
VERTEX
  5
E10E
  8
ALPHA
 10
19.622985
 20
73.769549
 30
0.0
  0
VERTEX
  5
E10F
  8
ALPHA
 10
19.577075
 20
73.752441
 30
0.0
  0
VERTEX
  5
E110
  8
ALPHA
 10
19.532119
 20
73.735411
 30
0.0
  0
VERTEX
  5
E111
  8
ALPHA
 10
19.486844
 20
73.718011
 30
0.0
  0
VERTEX
  5
E112
  8
ALPHA
 10
19.440065
 20
73.6998
 30
0.0
  0
VERTEX
  5
E113
  8
ALPHA
 10
19.390688
 20
73.680363
 30
0.0
  0
VERTEX
  5
E114
  8
ALPHA
 10
19.337707
 20
73.659319
 30
0.0
  0
SEQEND
  5
E115
  8
ALPHA
  0
POLYLINE
  5
D812
  8
ALPHA
 66
     1
 10
0.0
 20
0.0
 30
0.0
  0
VERTEX
  5
E116
  8
ALPHA
 10
20.526222
 20
74.109764
 30
0.0
  0
VERTEX
  5
E117
  8
ALPHA
 10
20.369195
 20
74.065801
 30
0.0
  0
VERTEX
  5
E118
  8
ALPHA
 10
20.235954
 20
74.026086
 30
0.0
  0
VERTEX
  5
E119
  8
ALPHA
 10
20.121735
 20
73.989921
 30
0.0
  0
VERTEX
  5
E11A
  8
ALPHA
 10
20.023338
 20
73.956954
 30
0.0
  0
VERTEX
  5
E11B
  8
ALPHA
 10
19.937758
 20
73.926726
 30
0.0
  0
VERTEX
  5
E11C
  8
ALPHA
 10
19.862649
 20
73.89887
 30
0.0
  0
VERTEX
  5
E11D
  8
ALPHA
 10
19.796663
 20
73.873282
 30
0.0
  0
VERTEX
  5
E11E
  8
ALPHA
 10
19.738728
 20
73.849891
 30
0.0
  0
VERTEX
  5
E11F
  8
ALPHA
 10
19.687328
 20
73.828368
 30
0.0
  0
VERTEX
  5
E120
  8
ALPHA
 10
19.640674
 20
73.808172
 30
0.0
  0
VERTEX
  5
E121
  8
ALPHA
 10
19.597131
 20
73.788727
 30
0.0
  0
VERTEX
  5
E122
  8
ALPHA
 10
19.555338
 20
73.769497
 30
0.0
  0
VERTEX
  5
E123
  8
ALPHA
 10
19.514203
 20
73.750003
 30
0.0
  0
VERTEX
  5
E124
  8
ALPHA
 10
19.472735
 20
73.729757
 30
0.0
  0
VERTEX
  5
E125
  8
ALPHA
 10
19.430024
 20
73.708249
 30
0.0
  0
VERTEX
  5
E126
  8
ALPHA
 10
19.385253
 20
73.684952
 30
0.0
  0
VERTEX
  5
E127
  8
ALPHA
 10
19.337707
 20
73.659319
 30
0.0
  0
SEQEND
  5
E128
  8
ALPHA
  0
POLYLINE
  5
D813
  8
ALPHA
 66
     1
 10
0.0
 20
0.0
 30
0.0
  0
VERTEX
  5
E129
  8
ALPHA
 10
19.377849
 20
73.525518
 30
0.0
  0
VERTEX
  5
E12A
  8
ALPHA
 10
19.427617
 20
73.521997
 30
0.0
  0
VERTEX
  5
E12B
  8
ALPHA
 10
19.474883
 20
73.518918
 30
0.0
  0
VERTEX
  5
E12C
  8
ALPHA
 10
19.520754
 20
73.516174
 30
0.0
  0
VERTEX
  5
E12D
  8
ALPHA
 10
19.566344
 20
73.513686
 30
0.0
  0
VERTEX
  5
E12E
  8
ALPHA
 10
19.612766
 20
73.511396
 30
0.0
  0
VERTEX
  5
E12F
  8
ALPHA
 10
19.661152
 20
73.509272
 30
0.0
  0
VERTEX
  5
E130
  8
ALPHA
 10
19.712697
 20
73.507303
 30
0.0
  0
VERTEX
  5
E131
  8
ALPHA
 10
19.768642
 20
73.505508
 30
0.0
  0
VERTEX
  5
E132
  8
ALPHA
 10
19.829918
 20
73.50395
 30
0.0
  0
VERTEX
  5
E133
  8
ALPHA
 10
19.896768
 20
73.502736
 30
0.0
  0
VERTEX
  5
E134
  8
ALPHA
 10
19.969192
 20
73.501993
 30
0.0
  0
VERTEX
  5
E135
  8
ALPHA
 10
20.04758
 20
73.501858
 30
0.0
  0
VERTEX
  5
E136
  8
ALPHA
 10
20.132652
 20
73.502498
 30
0.0
  0
VERTEX
  5
E137
  8
ALPHA
 10
20.225161
 20
73.504122
 30
0.0
  0
VERTEX
  5
E138
  8
ALPHA
 10
20.325813
 20
73.506988
 30
0.0
  0
VERTEX
  5
E139
  8
ALPHA
 10
20.435277
 20
73.511403
 30
0.0
  0
VERTEX
  5
E13A
  8
ALPHA
 10
20.554383
 20
73.517744
 30
0.0
  0
VERTEX
  5
E13B
  8
ALPHA
 10
20.684341
 20
73.526493
 30
0.0
  0
VERTEX
  5
E13C
  8
ALPHA
 10
20.826418
 20
73.538248
 30
0.0
  0
VERTEX
  5
E13D
  8
ALPHA
 10
20.981944
 20
73.553743
 30
0.0
  0
VERTEX
  5
E13E
  8
ALPHA
 10
21.152513
 20
73.57391
 30
0.0
  0
VERTEX
  5
E13F
  8
ALPHA
 10
21.339873
 20
73.599911
 30
0.0
  0
SEQEND
  5
E140
  8
ALPHA
  0
POLYLINE
  5
D814
  8
ALPHA
 66
     1
 10
0.0
 20
0.0
 30
0.0
  0
VERTEX
  5
E141
  8
ALPHA
 10
20.917506
 20
75.582554
 30
0.0
  0
VERTEX
  5
E142
  8
ALPHA
 10
20.323432
 20
75.109804
 30
0.0
  0
VERTEX
  5
E143
  8
ALPHA
 10
19.655767
 20
74.75942
 30
0.0
  0
VERTEX
  5
E144
  8
ALPHA
 10
18.938701
 20
74.541003
 30
0.0
  0
SEQEND
  5
E145
  8
ALPHA
  0
POLYLINE
  5
D815
  8
ALPHA
 66
     1
 10
0.0
 20
0.0
 30
0.0
  0
VERTEX
  5
E146
  8
ALPHA
 10
21.051505
 20
75.675369
 30
0.0
  0
VERTEX
  5
E147
  8
ALPHA
 10
20.884188
 20
75.509999
 30
0.0
  0
VERTEX
  5
E148
  8
ALPHA
 10
20.707376
 20
75.354714
 30
0.0
  0
VERTEX
  5
E149
  8
ALPHA
 10
20.521555
 20
75.209974
 30
0.0
  0
VERTEX
  5
E14A
  8
ALPHA
 10
20.327329
 20
75.0763
 30
0.0
  0
VERTEX
  5
E14B
  8
ALPHA
 10
20.125241
 20
74.95413
 30
0.0
  0
VERTEX
  5
E14C
  8
ALPHA
 10
19.916259
 20
74.844088
 30
0.0
  0
VERTEX
  5
E14D
  8
ALPHA
 10
19.701016
 20
74.746524
 30
0.0
  0
VERTEX
  5
E14E
  8
ALPHA
 10
19.480292
 20
74.661812
 30
0.0
  0
VERTEX
  5
E14F
  8
ALPHA
 10
19.254803
 20
74.590247
 30
0.0
  0
VERTEX
  5
E150
  8
ALPHA
 10
19.024759
 20
74.531977
 30
0.0
  0
SEQEND
  5
E151
  8
ALPHA
  0
LINE
  5
D816
  8
ALPHA
 10
20.033494
 20
88.72456
 30
0.0
 11
19.428169
 21
88.119235
 31
0.0
  0
ARC
  5
D817
  8
ALPHA
 10
17.033494
 20
80.72456
 30
0.0
 40
2.1
 50
0.0
 51
180.0
  0
LINE
  5
D818
  8
ALPHA
 10
13.161783
 20
73.197011
 30
0.0
 11
13.161783
 21
85.97979
 31
0.0
  0
LINE
  5
D819
  8
ALPHA
 10
12.66179
 20
73.019436
 30
0.0
 11
12.66179
 21
85.97979
 31
0.0
  0
LINE
  5
D81A
  8
ALPHA
 10
12.533494
 20
70.72456
 30
0.0
 11
12.533494
 21
85.948023
 31
0.0
  0
ARC
  5
D81B
  8
ALPHA
 10
17.033494
 20
78.72456
 30
0.0
 40
2.1
 50
180.0
 51
270.0
  0
POLYLINE
  5
D81C
  8
ALPHA
 66
     1
 10
0.0
 20
0.0
 30
0.0
  0
VERTEX
  5
E152
  8
ALPHA
 10
18.958534
 20
74.517865
 30
0.0
  0
VERTEX
  5
E153
  8
ALPHA
 10
17.513259
 20
74.197671
 30
0.0
  0
VERTEX
  5
E154
  8
ALPHA
 10
16.076448
 20
73.829662
 30
0.0
  0
VERTEX
  5
E155
  8
ALPHA
 10
14.649546
 20
73.413905
 30
0.0
  0
VERTEX
  5
E156
  8
ALPHA
 10
13.2336
 20
72.950358
 30
0.0
  0
SEQEND
  5
E157
  8
ALPHA
  0
POLYLINE
  5
D81D
  8
ALPHA
 66
     1
 10
0.0
 20
0.0
 30
0.0
  0
VERTEX
  5
E158
  8
ALPHA
 10
18.938701
 20
74.541003
 30
0.0
  0
VERTEX
  5
E159
  8
ALPHA
 10
17.022741
 20
74.104857
 30
0.0
  0
VERTEX
  5
E15A
  8
ALPHA
 10
15.125119
 20
73.585315
 30
0.0
  0
VERTEX
  5
E15B
  8
ALPHA
 10
13.249521
 20
72.983046
 30
0.0
  0
SEQEND
  5
E15C
  8
ALPHA
  0
POLYLINE
  5
D81E
  8
ALPHA
 66
     1
 10
0.0
 20
0.0
 30
0.0
  0
VERTEX
  5
E15D
  8
ALPHA
 10
19.084793
 20
73.538297
 30
0.0
  0
VERTEX
  5
E15E
  8
ALPHA
 10
17.657378
 20
73.224682
 30
0.0
  0
VERTEX
  5
E15F
  8
ALPHA
 10
16.238356
 20
72.864173
 30
0.0
  0
VERTEX
  5
E160
  8
ALPHA
 10
14.829213
 20
72.456852
 30
0.0
  0
VERTEX
  5
E161
  8
ALPHA
 10
13.43097
 20
72.00268
 30
0.0
  0
SEQEND
  5
E162
  8
ALPHA
  0
LINE
  5
D81F
  8
ALPHA
 10
17.897476
 20
74.323315
 30
0.0
 11
12.966827
 21
72.889528
 31
0.0
  0
LINE
  5
D820
  8
ALPHA
 10
12.587935
 20
72.00268
 30
0.0
 11
12.648878
 21
72.002684
 31
0.0
  0
LINE
  5
D821
  8
ALPHA
 10
12.648878
 20
72.002684
 30
0.0
 11
13.43097
 21
72.00268
 31
0.0
  0
POLYLINE
  5
D822
  8
ALPHA
 66
     1
 10
0.0
 20
0.0
 30
0.0
  0
VERTEX
  5
E163
  8
ALPHA
 10
13.430972
 20
72.00268
 30
0.0
  0
VERTEX
  5
E164
  8
ALPHA
 10
13.343674
 20
72.287471
 30
0.0
  0
VERTEX
  5
E165
  8
ALPHA
 10
13.275175
 20
72.545846
 30
0.0
  0
VERTEX
  5
E166
  8
ALPHA
 10
13.231773
 20
72.754177
 30
0.0
  0
VERTEX
  5
E167
  8
ALPHA
 10
13.217501
 20
72.893275
 30
0.0
  0
VERTEX
  5
E168
  8
ALPHA
 10
13.233614
 20
72.950316
 30
0.0
  0
SEQEND
  5
E169
  8
ALPHA
  0
LINE
  5
D823
  8
ALPHA
 10
12.65763
 20
72.571597
 30
0.0
 11
12.633494
 21
72.418124
 31
0.0
  0
LINE
  5
D824
  8
ALPHA
 10
12.588149
 20
72.043386
 30
0.0
 11
12.633675
 21
72.335549
 31
0.0
  0
LINE
  5
D825
  8
ALPHA
 10
12.651575
 20
73.015739
 30
0.0
 11
12.650941
 21
72.529065
 31
0.0
  0
LINE
  5
D826
  8
ALPHA
 10
12.633494
 20
72.334484
 30
0.0
 11
12.633494
 21
72.418124
 31
0.0
  0
LINE
  5
D827
  8
ALPHA
 10
12.66179
 20
73.019436
 30
0.0
 11
12.651575
 21
73.015739
 31
0.0
  0
LINE
  5
D828
  8
ALPHA
 10
12.533494
 20
70.72456
 30
0.0
 11
12.535064
 21
70.725151
 31
0.0
  0
LINE
  5
D829
  8
ALPHA
 10
13.2336
 20
72.950358
 30
0.0
 11
13.249521
 21
72.983046
 31
0.0
  0
POLYLINE
  5
D82A
  8
ALPHA
 66
     1
 10
0.0
 20
0.0
 30
0.0
  0
VERTEX
  5
E16A
  8
ALPHA
 10
12.681363
 20
72.456045
 30
0.0
  0
VERTEX
  5
E16B
  8
ALPHA
 10
12.666171
 20
72.422495
 30
0.0
  0
VERTEX
  5
E16C
  8
ALPHA
 10
12.652481
 20
72.388916
 30
0.0
  0
SEQEND
  5
E16D
  8
ALPHA
  0
LINE
  5
D82B
  8
ALPHA
 10
12.633675
 20
72.335549
 30
0.0
 11
12.680565
 21
72.454387
 31
0.0
  0
LINE
  5
D82C
  8
ALPHA
 10
12.652481
 20
72.388916
 30
0.0
 11
12.64028
 21
72.355457
 31
0.0
  0
POLYLINE
  5
D82D
  8
ALPHA
 66
     1
 10
0.0
 20
0.0
 30
0.0
  0
VERTEX
  5
E16E
  8
ALPHA
 10
12.64028
 20
72.355457
 30
0.0
  0
VERTEX
  5
E16F
  8
ALPHA
 10
12.62954
 20
72.322267
 30
0.0
  0
VERTEX
  5
E170
  8
ALPHA
 10
12.620221
 20
72.289495
 30
0.0
  0
VERTEX
  5
E171
  8
ALPHA
 10
12.612273
 20
72.257297
 30
0.0
  0
SEQEND
  5
E172
  8
ALPHA
  0
LINE
  5
D82E
  8
ALPHA
 10
12.612273
 20
72.257297
 30
0.0
 11
12.605631
 21
72.225822
 31
0.0
  0
POLYLINE
  5
D82F
  8
ALPHA
 66
     1
 10
0.0
 20
0.0
 30
0.0
  0
VERTEX
  5
E173
  8
ALPHA
 10
12.605631
 20
72.225822
 30
0.0
  0
VERTEX
  5
E174
  8
ALPHA
 10
12.600211
 20
72.195174
 30
0.0
  0
VERTEX
  5
E175
  8
ALPHA
 10
12.595926
 20
72.16545
 30
0.0
  0
VERTEX
  5
E176
  8
ALPHA
 10
12.59272
 20
72.137124
 30
0.0
  0
VERTEX
  5
E177
  8
ALPHA
 10
12.590457
 20
72.110177
 30
0.0
  0
VERTEX
  5
E178
  8
ALPHA
 10
12.588998
 20
72.084303
 30
0.0
  0
VERTEX
  5
E179
  8
ALPHA
 10
12.588272
 20
72.060961
 30
0.0
  0
VERTEX
  5
E17A
  8
ALPHA
 10
12.588046
 20
72.043031
 30
0.0
  0
VERTEX
  5
E17B
  8
ALPHA
 10
12.587935
 20
72.00268
 30
0.0
  0
SEQEND
  5
E17C
  8
ALPHA
  0
LINE
  5
D830
  8
ALPHA
 10
12.991218
 20
72.846871
 30
0.0
 11
13.249521
 21
72.983046
 31
0.0
  0
POLYLINE
  5
D831
  8
ALPHA
 66
     1
 10
0.0
 20
0.0
 30
0.0
  0
VERTEX
  5
E17D
  8
ALPHA
 10
12.966827
 20
72.889528
 30
0.0
  0
VERTEX
  5
E17E
  8
ALPHA
 10
12.834115
 20
72.81859
 30
0.0
  0
VERTEX
  5
E17F
  8
ALPHA
 10
12.727096
 20
72.7094
 30
0.0
  0
VERTEX
  5
E180
  8
ALPHA
 10
12.65763
 20
72.571597
 30
0.0
  0
SEQEND
  5
E181
  8
ALPHA
  0
LINE
  5
D832
  8
ALPHA
 10
12.784542
 20
72.637266
 30
0.0
 11
12.991218
 21
72.846871
 31
0.0
  0
POLYLINE
  5
D833
  8
ALPHA
 66
     1
 10
0.0
 20
0.0
 30
0.0
  0
VERTEX
  5
E182
  8
ALPHA
 10
12.687955
 20
72.469637
 30
0.0
  0
VERTEX
  5
E183
  8
ALPHA
 10
12.765967
 20
72.59999
 30
0.0
  0
VERTEX
  5
E184
  8
ALPHA
 10
12.972473
 20
72.81162
 30
0.0
  0
VERTEX
  5
E185
  8
ALPHA
 10
13.2336
 20
72.950358
 30
0.0
  0
SEQEND
  5
E186
  8
ALPHA
  0
LINE
  5
D834
  8
ALPHA
 10
12.696825
 20
72.488434
 30
0.0
 11
12.784542
 21
72.637266
 31
0.0
  0
LINE
  5
D835
  8
ALPHA
 10
12.680565
 20
72.454387
 30
0.0
 11
12.687955
 21
72.469637
 31
0.0
  0
LINE
  5
D836
  8
ALPHA
 10
12.69672
 20
72.48848
 30
0.0
 11
12.680565
 21
72.454387
 31
0.0
  0
LINE
  5
D837
  8
ALPHA
 10
14.933494
 20
78.72456
 30
0.0
 11
14.933494
 21
80.72456
 31
0.0
  0
LINE
  5
D838
  8
ALPHA
 10
18.94526
 20
74.50269
 30
0.0
 11
17.897476
 21
74.323315
 31
0.0
  0
POLYLINE
  5
D839
  8
ALPHA
 66
     1
 10
0.0
 20
0.0
 30
0.0
  0
VERTEX
  5
E187
  8
ALPHA
 10
19.024759
 20
74.531977
 30
0.0
  0
VERTEX
  5
E188
  8
ALPHA
 10
19.002708
 20
74.527148
 30
0.0
  0
VERTEX
  5
E189
  8
ALPHA
 10
18.980634
 20
74.522444
 30
0.0
  0
VERTEX
  5
E18A
  8
ALPHA
 10
18.958534
 20
74.517865
 30
0.0
  0
SEQEND
  5
E18B
  8
ALPHA
  0
POLYLINE
  5
D83A
  8
ALPHA
 66
     1
 10
0.0
 20
0.0
 30
0.0
  0
VERTEX
  5
E18C
  8
ALPHA
 10
19.377849
 20
73.525518
 30
0.0
  0
VERTEX
  5
E18D
  8
ALPHA
 10
19.345999
 20
73.527264
 30
0.0
  0
VERTEX
  5
E18E
  8
ALPHA
 10
19.316787
 20
73.530624
 30
0.0
  0
VERTEX
  5
E18F
  8
ALPHA
 10
19.290269
 20
73.535937
 30
0.0
  0
VERTEX
  5
E190
  8
ALPHA
 10
19.266809
 20
73.543927
 30
0.0
  0
VERTEX
  5
E191
  8
ALPHA
 10
19.247983
 20
73.556169
 30
0.0
  0
VERTEX
  5
E192
  8
ALPHA
 10
19.239541
 20
73.57551
 30
0.0
  0
VERTEX
  5
E193
  8
ALPHA
 10
19.248159
 20
73.596917
 30
0.0
  0
VERTEX
  5
E194
  8
ALPHA
 10
19.266193
 20
73.615229
 30
0.0
  0
VERTEX
  5
E195
  8
ALPHA
 10
19.289112
 20
73.631488
 30
0.0
  0
VERTEX
  5
E196
  8
ALPHA
 10
19.315739
 20
73.646569
 30
0.0
  0
VERTEX
  5
E197
  8
ALPHA
 10
19.339608
 20
73.659714
 30
0.0
  0
SEQEND
  5
E198
  8
ALPHA
  0
LINE
  5
D83B
  8
ALPHA
 10
19.792099
 20
73.603971
 30
0.0
 11
19.645314
 21
73.576614
 31
0.0
  0
LINE
  5
D83C
  8
ALPHA
 10
19.819541
 20
73.751602
 30
0.0
 11
19.710765
 21
73.73127
 31
0.0
  0
LINE
  5
D83D
  8
ALPHA
 10
19.645314
 20
73.576614
 30
0.0
 11
19.511288
 21
73.551213
 31
0.0
  0
LINE
  5
D83E
  8
ALPHA
 10
19.710765
 20
73.73127
 30
0.0
 11
19.615334
 21
73.713194
 31
0.0
  0
LINE
  5
D83F
  8
ALPHA
 10
19.615334
 20
73.713194
 30
0.0
 11
19.480408
 21
73.687251
 31
0.0
  0
LINE
  5
D840
  8
ALPHA
 10
19.511288
 20
73.551213
 30
0.0
 11
19.377849
 21
73.525518
 31
0.0
  0
LINE
  5
D841
  8
ALPHA
 10
19.480408
 20
73.687251
 30
0.0
 11
19.345717
 21
73.6609
 31
0.0
  0
LINE
  5
D842
  8
ALPHA
 10
18.958534
 20
74.517865
 30
0.0
 11
18.938701
 21
74.541003
 31
0.0
  0
POLYLINE
  5
D843
  8
ALPHA
 66
     1
 10
0.0
 20
0.0
 30
0.0
  0
VERTEX
  5
E199
  8
ALPHA
 10
18.958534
 20
74.517865
 30
0.0
  0
VERTEX
  5
E19A
  8
ALPHA
 10
18.946784
 20
74.464273
 30
0.0
  0
VERTEX
  5
E19B
  8
ALPHA
 10
18.955234
 20
74.322735
 30
0.0
  0
VERTEX
  5
E19C
  8
ALPHA
 10
18.98308
 20
74.106691
 30
0.0
  0
VERTEX
  5
E19D
  8
ALPHA
 10
19.027678
 20
73.836663
 30
0.0
  0
VERTEX
  5
E19E
  8
ALPHA
 10
19.084793
 20
73.538297
 30
0.0
  0
SEQEND
  5
E19F
  8
ALPHA
  0
POLYLINE
  5
D844
  8
ALPHA
 66
     1
 10
0.0
 20
0.0
 30
0.0
  0
VERTEX
  5
E1A0
  8
ALPHA
 10
19.339608
 20
73.659714
 30
0.0
  0
VERTEX
  5
E1A1
  8
ALPHA
 10
19.24712
 20
73.617133
 30
0.0
  0
VERTEX
  5
E1A2
  8
ALPHA
 10
19.163601
 20
73.577035
 30
0.0
  0
SEQEND
  5
E1A3
  8
ALPHA
  0
POLYLINE
  5
D845
  8
ALPHA
 66
     1
 10
0.0
 20
0.0
 30
0.0
  0
VERTEX
  5
E1A4
  8
ALPHA
 10
19.163601
 20
73.577035
 30
0.0
  0
VERTEX
  5
E1A5
  8
ALPHA
 10
19.126196
 20
73.558749
 30
0.0
  0
VERTEX
  5
E1A6
  8
ALPHA
 10
19.084793
 20
73.538297
 30
0.0
  0
SEQEND
  5
E1A7
  8
ALPHA
  0
LINE
  5
D846
  8
ALPHA
 10
18.033494
 20
76.62456
 30
0.0
 11
17.033494
 21
76.62456
 31
0.0
  0
LINE
  5
D847
  8
ALPHA
 10
19.133494
 20
80.72456
 30
0.0
 11
19.133494
 21
80.513414
 31
0.0
  0
LINE
  5
D848
  8
ALPHA
 10
12.66179
 20
85.97979
 30
0.0
 11
12.533494
 21
85.948023
 31
0.0
  0
LINE
  5
D849
  8
ALPHA
 10
12.66179
 20
85.97979
 30
0.0
 11
13.161783
 21
85.97979
 31
0.0
  0
LINE
  5
D84A
  8
ALPHA
 10
13.422511
 20
86.950744
 30
0.0
 11
13.542151
 21
86.465269
 31
0.0
  0
POLYLINE
  5
D84B
  8
ALPHA
 66
     1
 10
0.0
 20
0.0
 30
0.0
  0
VERTEX
  5
E1A8
  8
ALPHA
 10
13.161783
 20
85.97979
 30
0.0
  0
VERTEX
  5
E1A9
  8
ALPHA
 10
13.165917
 20
86.043948
 30
0.0
  0
VERTEX
  5
E1AA
  8
ALPHA
 10
13.180093
 20
86.113858
 30
0.0
  0
VERTEX
  5
E1AB
  8
ALPHA
 10
13.206187
 20
86.185778
 30
0.0
  0
VERTEX
  5
E1AC
  8
ALPHA
 10
13.244701
 20
86.255545
 30
0.0
  0
VERTEX
  5
E1AD
  8
ALPHA
 10
13.294528
 20
86.319086
 30
0.0
  0
VERTEX
  5
E1AE
  8
ALPHA
 10
13.35305
 20
86.373086
 30
0.0
  0
VERTEX
  5
E1AF
  8
ALPHA
 10
13.416577
 20
86.415535
 30
0.0
  0
VERTEX
  5
E1B0
  8
ALPHA
 10
13.480966
 20
86.445951
 30
0.0
  0
VERTEX
  5
E1B1
  8
ALPHA
 10
13.542151
 20
86.465269
 30
0.0
  0
SEQEND
  5
E1B2
  8
ALPHA
  0
POLYLINE
  5
D84C
  8
ALPHA
 66
     1
 10
0.0
 20
0.0
 30
0.0
  0
VERTEX
  5
E1B3
  8
ALPHA
 10
12.66179
 20
85.97979
 30
0.0
  0
VERTEX
  5
E1B4
  8
ALPHA
 10
12.67005
 20
86.108054
 30
0.0
  0
VERTEX
  5
E1B5
  8
ALPHA
 10
12.698379
 20
86.24782
 30
0.0
  0
VERTEX
  5
E1B6
  8
ALPHA
 10
12.750544
 20
86.391652
 30
0.0
  0
VERTEX
  5
E1B7
  8
ALPHA
 10
12.827576
 20
86.531229
 30
0.0
  0
VERTEX
  5
E1B8
  8
ALPHA
 10
12.927269
 20
86.658375
 30
0.0
  0
VERTEX
  5
E1B9
  8
ALPHA
 10
13.04436
 20
86.766416
 30
0.0
  0
VERTEX
  5
E1BA
  8
ALPHA
 10
13.171435
 20
86.851315
 30
0.0
  0
VERTEX
  5
E1BB
  8
ALPHA
 10
13.300188
 20
86.912126
 30
0.0
  0
VERTEX
  5
E1BC
  8
ALPHA
 10
13.422511
 20
86.950744
 30
0.0
  0
SEQEND
  5
E1BD
  8
ALPHA
  0
POLYLINE
  5
D84D
  8
ALPHA
 66
     1
 10
0.0
 20
0.0
 30
0.0
  0
VERTEX
  5
E1BE
  8
ALPHA
 10
12.533494
 20
85.948023
 30
0.0
  0
VERTEX
  5
E1BF
  8
ALPHA
 10
12.568346
 20
86.209727
 30
0.0
  0
VERTEX
  5
E1C0
  8
ALPHA
 10
12.671694
 20
86.45527
 30
0.0
  0
VERTEX
  5
E1C1
  8
ALPHA
 10
12.833203
 20
86.66188
 30
0.0
  0
VERTEX
  5
E1C2
  8
ALPHA
 10
13.046537
 20
86.82145
 30
0.0
  0
VERTEX
  5
E1C3
  8
ALPHA
 10
13.292092
 20
86.918452
 30
0.0
  0
SEQEND
  5
E1C4
  8
ALPHA
  0
POLYLINE
  5
D84E
  8
ALPHA
 66
     1
 10
0.0
 20
0.0
 30
0.0
  0
VERTEX
  5
E1C5
  8
ALPHA
 10
17.824408
 20
84.656371
 30
0.0
  0
VERTEX
  5
E1C6
  8
ALPHA
 10
18.654557
 20
84.659117
 30
0.0
  0
VERTEX
  5
E1C7
  8
ALPHA
 10
19.533494
 20
84.661763
 30
0.0
  0
SEQEND
  5
E1C8
  8
ALPHA
  0
POLYLINE
  5
D84F
  8
ALPHA
 66
     1
 10
0.0
 20
0.0
 30
0.0
  0
VERTEX
  5
E1C9
  8
ALPHA
 10
19.533494
 20
84.3476
 30
0.0
  0
VERTEX
  5
E1CA
  8
ALPHA
 10
18.654398
 20
84.49913
 30
0.0
  0
VERTEX
  5
E1CB
  8
ALPHA
 10
17.824408
 20
84.656372
 30
0.0
  0
SEQEND
  5
E1CC
  8
ALPHA
  0
LINE
  5
D850
  8
ALPHA
 10
17.916959
 20
84.841488
 30
0.0
 11
17.824408
 21
84.656371
 31
0.0
  0
LINE
  5
D851
  8
ALPHA
 10
17.824408
 20
86.17456
 30
0.0
 11
17.824408
 21
84.656372
 31
0.0
  0
ARC
  5
D852
  8
ALPHA
 10
19.983494
 20
84.055321
 30
0.0
 40
0.2
 50
180.0
 51
237.049183
  0
ARC
  5
D853
  8
ALPHA
 10
20.033494
 20
84.62456
 30
0.0
 40
0.5
 50
120.12429
 51
163.74051
  0
POLYLINE
  5
D854
  8
ALPHA
 66
     1
 10
0.0
 20
0.0
 30
0.0
  0
VERTEX
  5
E1CD
  8
ALPHA
 10
18.533494
 20
85.057888
 30
0.0
  0
VERTEX
  5
E1CE
  8
ALPHA
 10
18.333417
 20
85.082625
 30
0.0
  0
VERTEX
  5
E1CF
  8
ALPHA
 10
18.133494
 20
85.110566
 30
0.0
  0
SEQEND
  5
E1D0
  8
ALPHA
  0
LINE
  5
D855
  8
ALPHA
 10
18.133494
 20
85.57456
 30
0.0
 11
19.783494
 21
85.57456
 31
0.0
  0
LINE
  5
D856
  8
ALPHA
 10
19.783494
 20
85.539552
 30
0.0
 11
18.133494
 21
85.539552
 31
0.0
  0
LINE
  5
D857
  8
ALPHA
 10
19.677685
 20
84.97456
 30
0.0
 11
18.533494
 21
84.97456
 31
0.0
  0
LINE
  5
D858
  8
ALPHA
 10
19.62134
 20
84.907631
 30
0.0
 11
17.916959
 21
84.907631
 31
0.0
  0
LINE
  5
D859
  8
ALPHA
 10
19.583003
 20
84.841488
 30
0.0
 11
17.916959
 21
84.841488
 31
0.0
  0
LINE
  5
D85A
  8
ALPHA
 10
19.783494
 20
84.764554
 30
0.0
 11
19.553492
 21
84.764554
 31
0.0
  0
LINE
  5
D85B
  8
ALPHA
 10
19.533494
 20
84.673827
 30
0.0
 11
19.783494
 21
84.673827
 31
0.0
  0
LINE
  5
D85C
  8
ALPHA
 10
19.783494
 20
84.055321
 30
0.0
 11
19.783494
 21
86.17456
 31
0.0
  0
LINE
  5
D85D
  8
ALPHA
 10
19.533494
 20
83.815353
 30
0.0
 11
19.533494
 21
84.673827
 31
0.0
  0
LINE
  5
D85E
  8
ALPHA
 10
19.133494
 20
86.17456
 30
0.0
 11
19.133494
 21
85.57456
 31
0.0
  0
LINE
  5
D85F
  8
ALPHA
 10
18.533494
 20
84.974566
 30
0.0
 11
18.533494
 21
85.057888
 31
0.0
  0
LINE
  5
D860
  8
ALPHA
 10
18.433494
 20
85.070252
 30
0.0
 11
18.433494
 21
84.907631
 31
0.0
  0
LINE
  5
D861
  8
ALPHA
 10
18.133494
 20
85.110566
 30
0.0
 11
18.133494
 21
86.17456
 31
0.0
  0
LINE
  5
D862
  8
ALPHA
 10
17.916959
 20
84.841488
 30
0.0
 11
17.916959
 21
86.17456
 31
0.0
  0
CIRCLE
  5
D864
  8
ALPHA
 10
28.033494
 20
78.37456
 30
0.0
 40
2.849998
  0
ARC
  5
D865
  8
ALPHA
 10
28.033494
 20
78.37456
 30
0.0
 40
3.05
 50
103.099622
 51
76.900378
  0
ARC
  5
D866
  8
ALPHA
 10
28.033494
 20
83.32456
 30
0.0
 40
2.5
 50
41.344523
 51
138.655477
  0
ARC
  5
D867
  8
ALPHA
 10
28.033494
 20
78.37456
 30
0.0
 40
2.635882
 50
77.956235
 51
102.043765
  0
CIRCLE
  5
D868
  8
ALPHA
 10
28.033494
 20
78.37456
 30
0.0
 40
0.65
  0
ARC
  5
D869
  8
ALPHA
 10
28.033494
 20
78.37456
 30
0.0
 40
0.851277
 50
64.237525
 51
115.762475
  0
CIRCLE
  5
D86A
  8
ALPHA
 10
28.033494
 20
78.37456
 30
0.0
 40
2.65766
  0
ARC
  5
D86B
  8
ALPHA
 10
28.033494
 20
78.37456
 30
0.0
 40
2.635882
 50
257.956235
 51
282.043765
  0
ARC
  5
D86C
  8
ALPHA
 10
28.033494
 20
78.37456
 30
0.0
 40
0.851277
 50
244.237525
 51
295.762475
  0
CIRCLE
  5
D86D
  8
ALPHA
 10
28.033494
 20
78.37456
 30
0.0
 40
2.723097
  0
CIRCLE
  5
D86E
  8
ALPHA
 10
28.033494
 20
78.37456
 30
0.0
 40
2.725
  0
LINE
  5
D870
  8
ALPHA
 10
20.03345
 20
88.72456
 30
0.0
 11
36.033537
 21
88.72456
 31
0.0
  0
POLYLINE
  5
D871
  8
ALPHA
 66
     1
 10
0.0
 20
0.0
 30
0.0
  0
VERTEX
  5
E1D1
  8
ALPHA
 10
28.77174
 20
81.578615
 30
0.0
  0
VERTEX
  5
E1D2
  8
ALPHA
 10
28.548883
 20
81.622434
 30
0.0
  0
VERTEX
  5
E1D3
  8
ALPHA
 10
28.303102
 20
81.652307
 30
0.0
  0
VERTEX
  5
E1D4
  8
ALPHA
 10
28.033493
 20
81.663485
 30
0.0
  0
SEQEND
  5
E1D5
  8
ALPHA
  0
POLYLINE
  5
D872
  8
ALPHA
 66
     1
 10
0.0
 20
0.0
 30
0.0
  0
VERTEX
  5
E1D6
  8
ALPHA
 10
28.72476
 20
81.345191
 30
0.0
  0
VERTEX
  5
E1D7
  8
ALPHA
 10
28.516234
 20
81.386082
 30
0.0
  0
VERTEX
  5
E1D8
  8
ALPHA
 10
28.286096
 20
81.413989
 30
0.0
  0
VERTEX
  5
E1D9
  8
ALPHA
 10
28.033493
 20
81.424436
 30
0.0
  0
SEQEND
  5
E1DA
  8
ALPHA
  0
POLYLINE
  5
D873
  8
ALPHA
 66
     1
 10
0.0
 20
0.0
 30
0.0
  0
VERTEX
  5
E1DB
  8
ALPHA
 10
28.778234
 20
84.387373
 30
0.0
  0
VERTEX
  5
E1DC
  8
ALPHA
 10
28.727226
 20
84.442452
 30
0.0
  0
VERTEX
  5
E1DD
  8
ALPHA
 10
28.672459
 20
84.493518
 30
0.0
  0
VERTEX
  5
E1DE
  8
ALPHA
 10
28.614366
 20
84.540209
 30
0.0
  0
VERTEX
  5
E1DF
  8
ALPHA
 10
28.553253
 20
84.58232
 30
0.0
  0
VERTEX
  5
E1E0
  8
ALPHA
 10
28.489417
 20
84.619674
 30
0.0
  0
VERTEX
  5
E1E1
  8
ALPHA
 10
28.423233
 20
84.652065
 30
0.0
  0
VERTEX
  5
E1E2
  8
ALPHA
 10
28.354966
 20
84.679363
 30
0.0
  0
VERTEX
  5
E1E3
  8
ALPHA
 10
28.284936
 20
84.701418
 30
0.0
  0
VERTEX
  5
E1E4
  8
ALPHA
 10
28.213681
 20
84.718047
 30
0.0
  0
VERTEX
  5
E1E5
  8
ALPHA
 10
28.141731
 20
84.729149
 30
0.0
  0
VERTEX
  5
E1E6
  8
ALPHA
 10
28.069499
 20
84.734695
 30
0.0
  0
VERTEX
  5
E1E7
  8
ALPHA
 10
27.997212
 20
84.734685
 30
0.0
  0
VERTEX
  5
E1E8
  8
ALPHA
 10
27.92503
 20
84.729123
 30
0.0
  0
VERTEX
  5
E1E9
  8
ALPHA
 10
27.853103
 20
84.718008
 30
0.0
  0
VERTEX
  5
E1EA
  8
ALPHA
 10
27.781824
 20
84.701355
 30
0.0
  0
VERTEX
  5
E1EB
  8
ALPHA
 10
27.711743
 20
84.679264
 30
0.0
  0
VERTEX
  5
E1EC
  8
ALPHA
 10
27.643396
 20
84.651906
 30
0.0
  0
VERTEX
  5
E1ED
  8
ALPHA
 10
27.577221
 20
84.619487
 30
0.0
  0
VERTEX
  5
E1EE
  8
ALPHA
 10
27.513397
 20
84.582106
 30
0.0
  0
VERTEX
  5
E1EF
  8
ALPHA
 10
27.452261
 20
84.53994
 30
0.0
  0
VERTEX
  5
E1F0
  8
ALPHA
 10
27.394167
 20
84.493206
 30
0.0
  0
VERTEX
  5
E1F1
  8
ALPHA
 10
27.339495
 20
84.442184
 30
0.0
  0
VERTEX
  5
E1F2
  8
ALPHA
 10
27.288753
 20
84.387373
 30
0.0
  0
SEQEND
  5
E1F3
  8
ALPHA
  0
POLYLINE
  5
D874
  8
ALPHA
 66
     1
 10
0.0
 20
0.0
 30
0.0
  0
VERTEX
  5
E1F4
  8
ALPHA
 10
29.892776
 20
84.960541
 30
0.0
  0
VERTEX
  5
E1F5
  8
ALPHA
 10
29.766658
 20
85.093785
 30
0.0
  0
VERTEX
  5
E1F6
  8
ALPHA
 10
29.631034
 20
85.217304
 30
0.0
  0
VERTEX
  5
E1F7
  8
ALPHA
 10
29.486943
 20
85.330215
 30
0.0
  0
VERTEX
  5
E1F8
  8
ALPHA
 10
29.335111
 20
85.432037
 30
0.0
  0
VERTEX
  5
E1F9
  8
ALPHA
 10
29.176245
 20
85.52234
 30
0.0
  0
VERTEX
  5
E1FA
  8
ALPHA
 10
29.011246
 20
85.600633
 30
0.0
  0
VERTEX
  5
E1FB
  8
ALPHA
 10
28.84075
 20
85.666605
 30
0.0
  0
VERTEX
  5
E1FC
  8
ALPHA
 10
28.66552
 20
85.719899
 30
0.0
  0
VERTEX
  5
E1FD
  8
ALPHA
 10
28.486878
 20
85.760079
 30
0.0
  0
VERTEX
  5
E1FE
  8
ALPHA
 10
28.306136
 20
85.786898
 30
0.0
  0
VERTEX
  5
E1FF
  8
ALPHA
 10
28.124268
 20
85.800297
 30
0.0
  0
VERTEX
  5
E200
  8
ALPHA
 10
27.94202
 20
85.800271
 30
0.0
  0
VERTEX
  5
E201
  8
ALPHA
 10
27.760289
 20
85.786836
 30
0.0
  0
VERTEX
  5
E202
  8
ALPHA
 10
27.579603
 20
85.759984
 30
0.0
  0
VERTEX
  5
E203
  8
ALPHA
 10
27.4009
 20
85.719749
 30
0.0
  0
VERTEX
  5
E204
  8
ALPHA
 10
27.225547
 20
85.666367
 30
0.0
  0
VERTEX
  5
E205
  8
ALPHA
 10
27.054849
 20
85.600249
 30
0.0
  0
VERTEX
  5
E206
  8
ALPHA
 10
26.889876
 20
85.521889
 30
0.0
  0
VERTEX
  5
E207
  8
ALPHA
 10
26.73104
 20
85.431521
 30
0.0
  0
VERTEX
  5
E208
  8
ALPHA
 10
26.579153
 20
85.329568
 30
0.0
  0
VERTEX
  5
E209
  8
ALPHA
 10
26.435062
 20
85.21655
 30
0.0
  0
VERTEX
  5
E20A
  8
ALPHA
 10
26.299674
 20
85.093141
 30
0.0
  0
VERTEX
  5
E20B
  8
ALPHA
 10
26.174211
 20
84.960541
 30
0.0
  0
SEQEND
  5
E20C
  8
ALPHA
  0
POLYLINE
  5
D875
  8
ALPHA
 66
     1
 10
0.0
 20
0.0
 30
0.0
  0
VERTEX
  5
E20D
  8
ALPHA
 10
34.788186
 20
73.996825
 30
0.0
  0
VERTEX
  5
E20E
  8
ALPHA
 10
34.261949
 20
74.072638
 30
0.0
  0
VERTEX
  5
E20F
  8
ALPHA
 10
33.671968
 20
74.150012
 30
0.0
  0
VERTEX
  5
E210
  8
ALPHA
 10
33.016092
 20
74.226681
 30
0.0
  0
VERTEX
  5
E211
  8
ALPHA
 10
32.292271
 20
74.300022
 30
0.0
  0
VERTEX
  5
E212
  8
ALPHA
 10
31.498346
 20
74.367054
 30
0.0
  0
VERTEX
  5
E213
  8
ALPHA
 10
30.62767
 20
74.424615
 30
0.0
  0
VERTEX
  5
E214
  8
ALPHA
 10
29.669398
 20
74.468825
 30
0.0
  0
VERTEX
  5
E215
  8
ALPHA
 10
28.637297
 20
74.494069
 30
0.0
  0
VERTEX
  5
E216
  8
ALPHA
 10
27.562222
 20
74.495628
 30
0.0
  0
VERTEX
  5
E217
  8
ALPHA
 10
26.489943
 20
74.472029
 30
0.0
  0
VERTEX
  5
E218
  8
ALPHA
 10
25.483695
 20
74.427105
 30
0.0
  0
VERTEX
  5
E219
  8
ALPHA
 10
24.581058
 20
74.367992
 30
0.0
  0
VERTEX
  5
E21A
  8
ALPHA
 10
23.772634
 20
74.299828
 30
0.0
  0
VERTEX
  5
E21B
  8
ALPHA
 10
23.047205
 20
74.226277
 30
0.0
  0
VERTEX
  5
E21C
  8
ALPHA
 10
22.395789
 20
74.150107
 30
0.0
  0
VERTEX
  5
E21D
  8
ALPHA
 10
21.809437
 20
74.073244
 30
0.0
  0
VERTEX
  5
E21E
  8
ALPHA
 10
21.278803
 20
73.996825
 30
0.0
  0
SEQEND
  5
E21F
  8
ALPHA
  0
POLYLINE
  5
D876
  8
ALPHA
 66
     1
 10
0.0
 20
0.0
 30
0.0
  0
VERTEX
  5
E220
  8
ALPHA
 10
34.767319
 20
73.857063
 30
0.0
  0
VERTEX
  5
E221
  8
ALPHA
 10
34.242756
 20
73.932619
 30
0.0
  0
VERTEX
  5
E222
  8
ALPHA
 10
33.654638
 20
74.009733
 30
0.0
  0
VERTEX
  5
E223
  8
ALPHA
 10
33.000819
 20
74.086147
 30
0.0
  0
VERTEX
  5
E224
  8
ALPHA
 10
32.279244
 20
74.159246
 30
0.0
  0
VERTEX
  5
E225
  8
ALPHA
 10
31.48776
 20
74.226059
 30
0.0
  0
VERTEX
  5
E226
  8
ALPHA
 10
30.619747
 20
74.283433
 30
0.0
  0
VERTEX
  5
E227
  8
ALPHA
 10
29.664395
 20
74.327499
 30
0.0
  0
VERTEX
  5
E228
  8
ALPHA
 10
28.635446
 20
74.352661
 30
0.0
  0
VERTEX
  5
E229
  8
ALPHA
 10
27.563669
 20
74.354215
 30
0.0
  0
VERTEX
  5
E22A
  8
ALPHA
 10
26.494663
 20
74.330692
 30
0.0
  0
VERTEX
  5
E22B
  8
ALPHA
 10
25.491483
 20
74.285914
 30
0.0
  0
VERTEX
  5
E22C
  8
ALPHA
 10
24.591606
 20
74.226994
 30
0.0
  0
VERTEX
  5
E22D
  8
ALPHA
 10
23.78567
 20
74.159053
 30
0.0
  0
VERTEX
  5
E22E
  8
ALPHA
 10
23.062493
 20
74.085745
 30
0.0
  0
VERTEX
  5
E22F
  8
ALPHA
 10
22.413119
 20
74.009829
 30
0.0
  0
VERTEX
  5
E230
  8
ALPHA
 10
21.828619
 20
73.933224
 30
0.0
  0
VERTEX
  5
E231
  8
ALPHA
 10
21.299666
 20
73.857062
 30
0.0
  0
SEQEND
  5
E232
  8
ALPHA
  0
POLYLINE
  5
D877
  8
ALPHA
 66
     1
 10
0.0
 20
0.0
 30
0.0
  0
VERTEX
  5
E233
  8
ALPHA
 10
34.82574
 20
74.258317
 30
0.0
  0
VERTEX
  5
E234
  8
ALPHA
 10
33.335904
 20
74.455662
 30
0.0
  0
VERTEX
  5
E235
  8
ALPHA
 10
31.832293
 20
74.604146
 30
0.0
  0
VERTEX
  5
E236
  8
ALPHA
 10
30.316643
 20
74.703742
 30
0.0
  0
VERTEX
  5
E237
  8
ALPHA
 10
28.79445
 20
74.753893
 30
0.0
  0
VERTEX
  5
E238
  8
ALPHA
 10
27.272873
 20
74.753899
 30
0.0
  0
VERTEX
  5
E239
  8
ALPHA
 10
25.750671
 20
74.703758
 30
0.0
  0
VERTEX
  5
E23A
  8
ALPHA
 10
24.235022
 20
74.604173
 30
0.0
  0
VERTEX
  5
E23B
  8
ALPHA
 10
22.731462
 20
74.455705
 30
0.0
  0
VERTEX
  5
E23C
  8
ALPHA
 10
21.241247
 20
74.258317
 30
0.0
  0
SEQEND
  5
E23D
  8
ALPHA
  0
POLYLINE
  5
D878
  8
ALPHA
 66
     1
 10
0.0
 20
0.0
 30
0.0
  0
VERTEX
  5
E23E
  8
ALPHA
 10
34.817043
 20
74.18903
 30
0.0
  0
VERTEX
  5
E23F
  8
ALPHA
 10
33.329136
 20
74.385809
 30
0.0
  0
VERTEX
  5
E240
  8
ALPHA
 10
31.827452
 20
74.533874
 30
0.0
  0
VERTEX
  5
E241
  8
ALPHA
 10
30.313723
 20
74.63319
 30
0.0
  0
VERTEX
  5
E242
  8
ALPHA
 10
28.793469
 20
74.6832
 30
0.0
  0
VERTEX
  5
E243
  8
ALPHA
 10
27.273854
 20
74.683206
 30
0.0
  0
VERTEX
  5
E244
  8
ALPHA
 10
25.753591
 20
74.633206
 30
0.0
  0
VERTEX
  5
E245
  8
ALPHA
 10
24.239864
 20
74.533901
 30
0.0
  0
VERTEX
  5
E246
  8
ALPHA
 10
22.73823
 20
74.385852
 30
0.0
  0
VERTEX
  5
E247
  8
ALPHA
 10
21.249944
 20
74.18903
 30
0.0
  0
SEQEND
  5
E248
  8
ALPHA
  0
POLYLINE
  5
D879
  8
ALPHA
 66
     1
 10
0.0
 20
0.0
 30
0.0
  0
VERTEX
  5
E249
  8
ALPHA
 10
21.327713
 20
73.670376
 30
0.0
  0
VERTEX
  5
E24A
  8
ALPHA
 10
22.843715
 20
73.870143
 30
0.0
  0
VERTEX
  5
E24B
  8
ALPHA
 10
24.369203
 20
74.0185
 30
0.0
  0
VERTEX
  5
E24C
  8
ALPHA
 10
25.906179
 20
74.115818
 30
0.0
  0
VERTEX
  5
E24D
  8
ALPHA
 10
27.456852
 20
74.161586
 30
0.0
  0
VERTEX
  5
E24E
  8
ALPHA
 10
28.982717
 20
74.15538
 30
0.0
  0
VERTEX
  5
E24F
  8
ALPHA
 10
30.424842
 20
74.10279
 30
0.0
  0
VERTEX
  5
E250
  8
ALPHA
 10
31.721231
 20
74.016612
 30
0.0
  0
VERTEX
  5
E251
  8
ALPHA
 10
32.853307
 20
73.910916
 30
0.0
  0
VERTEX
  5
E252
  8
ALPHA
 10
33.852612
 20
73.793637
 30
0.0
  0
VERTEX
  5
E253
  8
ALPHA
 10
34.739274
 20
73.670376
 30
0.0
  0
SEQEND
  5
E254
  8
ALPHA
  0
POLYLINE
  5
D87A
  8
ALPHA
 66
     1
 10
0.0
 20
0.0
 30
0.0
  0
VERTEX
  5
E255
  8
ALPHA
 10
21.339873
 20
73.599911
 30
0.0
  0
VERTEX
  5
E256
  8
ALPHA
 10
22.853056
 20
73.799577
 30
0.0
  0
VERTEX
  5
E257
  8
ALPHA
 10
24.375769
 20
73.94786
 30
0.0
  0
VERTEX
  5
E258
  8
ALPHA
 10
25.909984
 20
74.045131
 30
0.0
  0
VERTEX
  5
E259
  8
ALPHA
 10
27.457884
 20
74.090877
 30
0.0
  0
VERTEX
  5
E25A
  8
ALPHA
 10
28.98102
 20
74.084674
 30
0.0
  0
VERTEX
  5
E25B
  8
ALPHA
 10
30.420566
 20
74.032109
 30
0.0
  0
VERTEX
  5
E25C
  8
ALPHA
 10
31.714624
 20
73.945973
 30
0.0
  0
VERTEX
  5
E25D
  8
ALPHA
 10
32.844645
 20
73.840329
 30
0.0
  0
VERTEX
  5
E25E
  8
ALPHA
 10
33.842109
 20
73.72311
 30
0.0
  0
VERTEX
  5
E25F
  8
ALPHA
 10
34.908419
 20
73.574687
 30
0.0
  0
SEQEND
  5
E260
  8
ALPHA
  0
POLYLINE
  5
D87B
  8
ALPHA
 66
     1
 10
0.0
 20
0.0
 30
0.0
  0
VERTEX
  5
E261
  8
ALPHA
 10
29.356778
 20
75.405173
 30
0.0
  0
VERTEX
  5
E262
  8
ALPHA
 10
28.932842
 20
75.251036
 30
0.0
  0
VERTEX
  5
E263
  8
ALPHA
 10
28.483826
 20
75.155804
 30
0.0
  0
VERTEX
  5
E264
  8
ALPHA
 10
28.033494
 20
75.12456
 30
0.0
  0
SEQEND
  5
E265
  8
ALPHA
  0
ARC
  5
D87C
  8
ALPHA
 10
41.171637
 20
71.764318
 30
0.0
 40
20.0
 50
138.655477
 51
163.783569
  0
LINE
  5
D87D
  8
ALPHA
 10
23.633494
 20
82.57456
 30
0.0
 11
23.633494
 21
81.834406
 31
0.0
  0
POLYLINE
  5
D87E
  8
ALPHA
 66
     1
 10
0.0
 20
0.0
 30
0.0
  0
VERTEX
  5
E266
  8
ALPHA
 10
26.00409
 20
84.763971
 30
0.0
  0
VERTEX
  5
E267
  8
ALPHA
 10
25.801904
 20
84.52346
 30
0.0
  0
VERTEX
  5
E268
  8
ALPHA
 10
25.627804
 20
84.310046
 30
0.0
  0
VERTEX
  5
E269
  8
ALPHA
 10
25.478864
 20
84.122594
 30
0.0
  0
VERTEX
  5
E26A
  8
ALPHA
 10
25.339952
 20
83.943513
 30
0.0
  0
VERTEX
  5
E26B
  8
ALPHA
 10
25.196881
 20
83.754583
 30
0.0
  0
VERTEX
  5
E26C
  8
ALPHA
 10
25.041753
 20
83.544334
 30
0.0
  0
VERTEX
  5
E26D
  8
ALPHA
 10
24.876874
 20
83.314375
 30
0.0
  0
VERTEX
  5
E26E
  8
ALPHA
 10
24.705143
 20
83.067315
 30
0.0
  0
VERTEX
  5
E26F
  8
ALPHA
 10
24.526499
 20
82.801588
 30
0.0
  0
VERTEX
  5
E270
  8
ALPHA
 10
24.341213
 20
82.515885
 30
0.0
  0
VERTEX
  5
E271
  8
ALPHA
 10
24.149623
 20
82.208763
 30
0.0
  0
VERTEX
  5
E272
  8
ALPHA
 10
23.952273
 20
81.878834
 30
0.0
  0
VERTEX
  5
E273
  8
ALPHA
 10
23.749681
 20
81.524352
 30
0.0
  0
VERTEX
  5
E274
  8
ALPHA
 10
23.543438
 20
81.145189
 30
0.0
  0
VERTEX
  5
E275
  8
ALPHA
 10
23.335492
 20
80.741841
 30
0.0
  0
VERTEX
  5
E276
  8
ALPHA
 10
23.127421
 20
80.3141
 30
0.0
  0
VERTEX
  5
E277
  8
ALPHA
 10
22.920753
 20
79.861543
 30
0.0
  0
VERTEX
  5
E278
  8
ALPHA
 10
22.715512
 20
79.379935
 30
0.0
  0
VERTEX
  5
E279
  8
ALPHA
 10
22.527521
 20
78.905159
 30
0.0
  0
VERTEX
  5
E27A
  8
ALPHA
 10
22.380081
 20
78.505807
 30
0.0
  0
VERTEX
  5
E27B
  8
ALPHA
 10
22.267342
 20
78.181487
 30
0.0
  0
VERTEX
  5
E27C
  8
ALPHA
 10
22.179153
 20
77.914536
 30
0.0
  0
VERTEX
  5
E27D
  8
ALPHA
 10
22.108017
 20
77.689603
 30
0.0
  0
VERTEX
  5
E27E
  8
ALPHA
 10
22.048766
 20
77.494962
 30
0.0
  0
VERTEX
  5
E27F
  8
ALPHA
 10
21.991821
 20
77.301229
 30
0.0
  0
SEQEND
  5
E280
  8
ALPHA
  0
POLYLINE
  5
D87F
  8
ALPHA
 66
     1
 10
0.0
 20
0.0
 30
0.0
  0
VERTEX
  5
E281
  8
ALPHA
 10
27.127038
 20
84.19698
 30
0.0
  0
VERTEX
  5
E282
  8
ALPHA
 10
26.934934
 20
83.964322
 30
0.0
  0
VERTEX
  5
E283
  8
ALPHA
 10
26.769276
 20
83.758324
 30
0.0
  0
VERTEX
  5
E284
  8
ALPHA
 10
26.627417
 20
83.57772
 30
0.0
  0
VERTEX
  5
E285
  8
ALPHA
 10
26.494897
 20
83.405452
 30
0.0
  0
VERTEX
  5
E286
  8
ALPHA
 10
26.357797
 20
83.223958
 30
0.0
  0
VERTEX
  5
E287
  8
ALPHA
 10
26.208163
 20
83.022255
 30
0.0
  0
VERTEX
  5
E288
  8
ALPHA
 10
26.047462
 20
82.801938
 30
0.0
  0
VERTEX
  5
E289
  8
ALPHA
 10
25.878469
 20
82.565623
 30
0.0
  0
VERTEX
  5
E28A
  8
ALPHA
 10
25.701028
 20
82.311913
 30
0.0
  0
VERTEX
  5
E28B
  8
ALPHA
 10
25.514951
 20
82.039625
 30
0.0
  0
VERTEX
  5
E28C
  8
ALPHA
 10
25.320157
 20
81.747467
 30
0.0
  0
VERTEX
  5
E28D
  8
ALPHA
 10
25.116658
 20
81.434193
 30
0.0
  0
VERTEX
  5
E28E
  8
ALPHA
 10
24.904281
 20
81.098202
 30
0.0
  0
VERTEX
  5
E28F
  8
ALPHA
 10
24.683925
 20
80.739394
 30
0.0
  0
VERTEX
  5
E290
  8
ALPHA
 10
24.456971
 20
80.358211
 30
0.0
  0
VERTEX
  5
E291
  8
ALPHA
 10
24.224527
 20
79.954343
 30
0.0
  0
VERTEX
  5
E292
  8
ALPHA
 10
23.987851
 20
79.527165
 30
0.0
  0
VERTEX
  5
E293
  8
ALPHA
 10
23.746982
 20
79.072247
 30
0.0
  0
VERTEX
  5
E294
  8
ALPHA
 10
23.521965
 20
78.622852
 30
0.0
  0
VERTEX
  5
E295
  8
ALPHA
 10
23.344046
 20
78.243531
 30
0.0
  0
VERTEX
  5
E296
  8
ALPHA
 10
23.208932
 20
77.934117
 30
0.0
  0
VERTEX
  5
E297
  8
ALPHA
 10
23.10546
 20
77.678179
 30
0.0
  0
VERTEX
  5
E298
  8
ALPHA
 10
23.024857
 20
77.461392
 30
0.0
  0
VERTEX
  5
E299
  8
ALPHA
 10
22.960918
 20
77.27277
 30
0.0
  0
VERTEX
  5
E29A
  8
ALPHA
 10
22.909269
 20
77.103661
 30
0.0
  0
SEQEND
  5
E29B
  8
ALPHA
  0
POLYLINE
  5
D880
  8
ALPHA
 66
     1
 10
0.0
 20
0.0
 30
0.0
  0
VERTEX
  5
E29C
  8
ALPHA
 10
21.722724
 20
74.985504
 30
0.0
  0
VERTEX
  5
E29D
  8
ALPHA
 10
22.962805
 20
75.141877
 30
0.0
  0
VERTEX
  5
E29E
  8
ALPHA
 10
24.207619
 20
75.26402
 30
0.0
  0
VERTEX
  5
E29F
  8
ALPHA
 10
25.456701
 20
75.35182
 30
0.0
  0
VERTEX
  5
E2A0
  8
ALPHA
 10
26.710209
 20
75.405173
 30
0.0
  0
SEQEND
  5
E2A1
  8
ALPHA
  0
POLYLINE
  5
D881
  8
ALPHA
 66
     1
 10
0.0
 20
0.0
 30
0.0
  0
VERTEX
  5
E2A2
  8
ALPHA
 10
21.985851
 20
77.281186
 30
0.0
  0
VERTEX
  5
E2A3
  8
ALPHA
 10
21.9123
 20
77.06019
 30
0.0
  0
VERTEX
  5
E2A4
  8
ALPHA
 10
21.833947
 20
76.86236
 30
0.0
  0
VERTEX
  5
E2A5
  8
ALPHA
 10
21.757262
 20
76.693803
 30
0.0
  0
VERTEX
  5
E2A6
  8
ALPHA
 10
21.683324
 20
76.54846
 30
0.0
  0
VERTEX
  5
E2A7
  8
ALPHA
 10
21.612854
 20
76.422219
 30
0.0
  0
VERTEX
  5
E2A8
  8
ALPHA
 10
21.546106
 20
76.311724
 30
0.0
  0
VERTEX
  5
E2A9
  8
ALPHA
 10
21.483059
 20
76.214249
 30
0.0
  0
VERTEX
  5
E2AA
  8
ALPHA
 10
21.423587
 20
76.12766
 30
0.0
  0
VERTEX
  5
E2AB
  8
ALPHA
 10
21.367849
 20
76.050713
 30
0.0
  0
VERTEX
  5
E2AC
  8
ALPHA
 10
21.316191
 20
75.982688
 30
0.0
  0
VERTEX
  5
E2AD
  8
ALPHA
 10
21.268613
 20
75.922607
 30
0.0
  0
VERTEX
  5
E2AE
  8
ALPHA
 10
21.224738
 20
75.869234
 30
0.0
  0
VERTEX
  5
E2AF
  8
ALPHA
 10
21.184101
 20
75.821431
 30
0.0
  0
VERTEX
  5
E2B0
  8
ALPHA
 10
21.146476
 20
75.778493
 30
0.0
  0
VERTEX
  5
E2B1
  8
ALPHA
 10
21.111857
 20
75.740057
 30
0.0
  0
VERTEX
  5
E2B2
  8
ALPHA
 10
21.080222
 20
75.70579
 30
0.0
  0
VERTEX
  5
E2B3
  8
ALPHA
 10
21.051505
 20
75.675369
 30
0.0
  0
SEQEND
  5
E2B4
  8
ALPHA
  0
POLYLINE
  5
D882
  8
ALPHA
 66
     1
 10
0.0
 20
0.0
 30
0.0
  0
VERTEX
  5
E2B5
  8
ALPHA
 10
22.894263
 20
77.051818
 30
0.0
  0
VERTEX
  5
E2B6
  8
ALPHA
 10
22.802271
 20
76.767112
 30
0.0
  0
VERTEX
  5
E2B7
  8
ALPHA
 10
22.70417
 20
76.512311
 30
0.0
  0
VERTEX
  5
E2B8
  8
ALPHA
 10
22.608099
 20
76.295272
 30
0.0
  0
VERTEX
  5
E2B9
  8
ALPHA
 10
22.515433
 20
76.108172
 30
0.0
  0
VERTEX
  5
E2BA
  8
ALPHA
 10
22.427086
 20
75.945702
 30
0.0
  0
VERTEX
  5
E2BB
  8
ALPHA
 10
22.343386
 20
75.803531
 30
0.0
  0
VERTEX
  5
E2BC
  8
ALPHA
 10
22.264311
 20
75.67814
 30
0.0
  0
VERTEX
  5
E2BD
  8
ALPHA
 10
22.189709
 20
75.566776
 30
0.0
  0
VERTEX
  5
E2BE
  8
ALPHA
 10
22.11978
 20
75.467832
 30
0.0
  0
VERTEX
  5
E2BF
  8
ALPHA
 10
22.054962
 20
75.380377
 30
0.0
  0
VERTEX
  5
E2C0
  8
ALPHA
 10
21.995257
 20
75.303151
 30
0.0
  0
VERTEX
  5
E2C1
  8
ALPHA
 10
21.940193
 20
75.234556
 30
0.0
  0
VERTEX
  5
E2C2
  8
ALPHA
 10
21.889189
 20
75.17313
 30
0.0
  0
VERTEX
  5
E2C3
  8
ALPHA
 10
21.841961
 20
75.117964
 30
0.0
  0
VERTEX
  5
E2C4
  8
ALPHA
 10
21.798505
 20
75.068588
 30
0.0
  0
VERTEX
  5
E2C5
  8
ALPHA
 10
21.758788
 20
75.024571
 30
0.0
  0
VERTEX
  5
E2C6
  8
ALPHA
 10
21.722733
 20
74.985506
 30
0.0
  0
SEQEND
  5
E2C7
  8
ALPHA
  0
POLYLINE
  5
D883
  8
ALPHA
 66
     1
 10
0.0
 20
0.0
 30
0.0
  0
VERTEX
  5
E2C8
  8
ALPHA
 10
20.894994
 20
75.579611
 30
0.0
  0
VERTEX
  5
E2C9
  8
ALPHA
 10
21.353755
 20
76.103487
 30
0.0
  0
VERTEX
  5
E2CA
  8
ALPHA
 10
21.714644
 20
76.698866
 30
0.0
  0
VERTEX
  5
E2CB
  8
ALPHA
 10
21.967364
 20
77.349648
 30
0.0
  0
SEQEND
  5
E2CC
  8
ALPHA
  0
LINE
  5
D884
  8
ALPHA
 10
20.894994
 20
75.579611
 30
0.0
 11
20.917506
 21
75.582554
 31
0.0
  0
POLYLINE
  5
D885
  8
ALPHA
 66
     1
 10
0.0
 20
0.0
 30
0.0
  0
VERTEX
  5
E2CD
  8
ALPHA
 10
21.299676
 20
73.857001
 30
0.0
  0
VERTEX
  5
E2CE
  8
ALPHA
 10
21.124402
 20
73.830331
 30
0.0
  0
VERTEX
  5
E2CF
  8
ALPHA
 10
20.96393
 20
73.805249
 30
0.0
  0
VERTEX
  5
E2D0
  8
ALPHA
 10
20.816684
 20
73.781685
 30
0.0
  0
VERTEX
  5
E2D1
  8
ALPHA
 10
20.681276
 20
73.759559
 30
0.0
  0
VERTEX
  5
E2D2
  8
ALPHA
 10
20.55651
 20
73.738793
 30
0.0
  0
VERTEX
  5
E2D3
  8
ALPHA
 10
20.441269
 20
73.719294
 30
0.0
  0
VERTEX
  5
E2D4
  8
ALPHA
 10
20.334598
 20
73.700976
 30
0.0
  0
VERTEX
  5
E2D5
  8
ALPHA
 10
20.235907
 20
73.683804
 30
0.0
  0
VERTEX
  5
E2D6
  8
ALPHA
 10
20.144752
 20
73.667755
 30
0.0
  0
VERTEX
  5
E2D7
  8
ALPHA
 10
20.060609
 20
73.652782
 30
0.0
  0
VERTEX
  5
E2D8
  8
ALPHA
 10
19.912463
 20
73.626046
 30
0.0
  0
SEQEND
  5
E2D9
  8
ALPHA
  0
POLYLINE
  5
D886
  8
ALPHA
 66
     1
 10
0.0
 20
0.0
 30
0.0
  0
VERTEX
  5
E2DA
  8
ALPHA
 10
21.249945
 20
74.18903
 30
0.0
  0
VERTEX
  5
E2DB
  8
ALPHA
 10
21.063878
 20
74.158562
 30
0.0
  0
VERTEX
  5
E2DC
  8
ALPHA
 10
20.873476
 20
74.121804
 30
0.0
  0
VERTEX
  5
E2DD
  8
ALPHA
 10
20.67857
 20
74.07846
 30
0.0
  0
SEQEND
  5
E2DE
  8
ALPHA
  0
POLYLINE
  5
D887
  8
ALPHA
 66
     1
 10
0.0
 20
0.0
 30
0.0
  0
VERTEX
  5
E2DF
  8
ALPHA
 10
21.241247
 20
74.258317
 30
0.0
  0
VERTEX
  5
E2E0
  8
ALPHA
 10
21.053284
 20
74.227483
 30
0.0
  0
VERTEX
  5
E2E1
  8
ALPHA
 10
20.861013
 20
74.190384
 30
0.0
  0
VERTEX
  5
E2E2
  8
ALPHA
 10
20.664268
 20
74.146708
 30
0.0
  0
SEQEND
  5
E2E3
  8
ALPHA
  0
POLYLINE
  5
D888
  8
ALPHA
 66
     1
 10
0.0
 20
0.0
 30
0.0
  0
VERTEX
  5
E2E4
  8
ALPHA
 10
20.67857
 20
74.07846
 30
0.0
  0
VERTEX
  5
E2E5
  8
ALPHA
 10
20.632467
 20
74.067468
 30
0.0
  0
VERTEX
  5
E2E6
  8
ALPHA
 10
20.586287
 20
74.056311
 30
0.0
  0
VERTEX
  5
E2E7
  8
ALPHA
 10
20.540029
 20
74.04497
 30
0.0
  0
SEQEND
  5
E2E8
  8
ALPHA
  0
LINE
  5
D889
  8
ALPHA
 10
20.664268
 20
74.146708
 30
0.0
 11
20.595379
 21
74.128398
 31
0.0
  0
LINE
  5
D88A
  8
ALPHA
 10
20.595379
 20
74.128398
 30
0.0
 11
20.526222
 21
74.109764
 31
0.0
  0
POLYLINE
  5
D88B
  8
ALPHA
 66
     1
 10
0.0
 20
0.0
 30
0.0
  0
VERTEX
  5
E2E9
  8
ALPHA
 10
21.051505
 20
75.675369
 30
0.0
  0
VERTEX
  5
E2EA
  8
ALPHA
 10
21.079491
 20
75.633637
 30
0.0
  0
VERTEX
  5
E2EB
  8
ALPHA
 10
21.171502
 20
75.532272
 30
0.0
  0
VERTEX
  5
E2EC
  8
ALPHA
 10
21.319075
 20
75.3806
 30
0.0
  0
VERTEX
  5
E2ED
  8
ALPHA
 10
21.50863
 20
75.192577
 30
0.0
  0
VERTEX
  5
E2EE
  8
ALPHA
 10
21.722725
 20
74.985504
 30
0.0
  0
SEQEND
  5
E2EF
  8
ALPHA
  0
POLYLINE
  5
D88C
  8
ALPHA
 66
     1
 10
0.0
 20
0.0
 30
0.0
  0
VERTEX
  5
E2F0
  8
ALPHA
 10
21.241247
 20
74.258317
 30
0.0
  0
VERTEX
  5
E2F1
  8
ALPHA
 10
21.244828
 20
74.233012
 30
0.0
  0
VERTEX
  5
E2F2
  8
ALPHA
 10
21.247793
 20
74.209391
 30
0.0
  0
VERTEX
  5
E2F3
  8
ALPHA
 10
21.249945
 20
74.18903
 30
0.0
  0
SEQEND
  5
E2F4
  8
ALPHA
  0
LINE
  5
D88D
  8
ALPHA
 10
21.299668
 20
73.857063
 30
0.0
 11
21.327713
 21
73.670376
 31
0.0
  0
LINE
  5
D88E
  8
ALPHA
 10
21.249944
 20
74.18903
 30
0.0
 11
21.278801
 21
73.996825
 31
0.0
  0
POLYLINE
  5
D88F
  8
ALPHA
 66
     1
 10
0.0
 20
0.0
 30
0.0
  0
VERTEX
  5
E2F5
  8
ALPHA
 10
21.339874
 20
73.599911
 30
0.0
  0
VERTEX
  5
E2F6
  8
ALPHA
 10
21.335831
 20
73.625752
 30
0.0
  0
VERTEX
  5
E2F7
  8
ALPHA
 10
21.331681
 20
73.649798
 30
0.0
  0
VERTEX
  5
E2F8
  8
ALPHA
 10
21.327713
 20
73.670376
 30
0.0
  0
SEQEND
  5
E2F9
  8
ALPHA
  0
POLYLINE
  5
D890
  8
ALPHA
 66
     1
 10
0.0
 20
0.0
 30
0.0
  0
VERTEX
  5
E2FA
  8
ALPHA
 10
21.299676
 20
73.857001
 30
0.0
  0
VERTEX
  5
E2FB
  8
ALPHA
 10
21.291641
 20
73.901094
 30
0.0
  0
VERTEX
  5
E2FC
  8
ALPHA
 10
21.284002
 20
73.95224
 30
0.0
  0
VERTEX
  5
E2FD
  8
ALPHA
 10
21.278812
 20
73.996764
 30
0.0
  0
SEQEND
  5
E2FE
  8
ALPHA
  0
POLYLINE
  5
D891
  8
ALPHA
 66
     1
 10
0.0
 20
0.0
 30
0.0
  0
VERTEX
  5
E2FF
  8
ALPHA
 10
20.664268
 20
74.146708
 30
0.0
  0
VERTEX
  5
E300
  8
ALPHA
 10
20.669932
 20
74.121778
 30
0.0
  0
VERTEX
  5
E301
  8
ALPHA
 10
20.674808
 20
74.098511
 30
0.0
  0
VERTEX
  5
E302
  8
ALPHA
 10
20.67857
 20
74.07846
 30
0.0
  0
SEQEND
  5
E303
  8
ALPHA
  0
POLYLINE
  5
D892
  8
ALPHA
 66
     1
 10
0.0
 20
0.0
 30
0.0
  0
VERTEX
  5
E304
  8
ALPHA
 10
21.722724
 20
74.985504
 30
0.0
  0
VERTEX
  5
E305
  8
ALPHA
 10
21.562944
 20
74.826676
 30
0.0
  0
VERTEX
  5
E306
  8
ALPHA
 10
21.396144
 20
74.675121
 30
0.0
  0
VERTEX
  5
E307
  8
ALPHA
 10
21.22256
 20
74.531071
 30
0.0
  0
VERTEX
  5
E308
  8
ALPHA
 10
21.042503
 20
74.394805
 30
0.0
  0
VERTEX
  5
E309
  8
ALPHA
 10
20.856289
 20
74.266593
 30
0.0
  0
VERTEX
  5
E30A
  8
ALPHA
 10
20.664268
 20
74.146708
 30
0.0
  0
SEQEND
  5
E30B
  8
ALPHA
  0
LINE
  5
D893
  8
ALPHA
 10
20.87315
 20
75.547257
 30
0.0
 11
20.894994
 21
75.579611
 31
0.0
  0
POLYLINE
  5
D894
  8
ALPHA
 66
     1
 10
0.0
 20
0.0
 30
0.0
  0
VERTEX
  5
E30C
  8
ALPHA
 10
21.997728
 20
77.321453
 30
0.0
  0
VERTEX
  5
E30D
  8
ALPHA
 10
22.047088
 20
77.322464
 30
0.0
  0
VERTEX
  5
E30E
  8
ALPHA
 10
22.177473
 20
77.298011
 30
0.0
  0
VERTEX
  5
E30F
  8
ALPHA
 10
22.377265
 20
77.250275
 30
0.0
  0
VERTEX
  5
E310
  8
ALPHA
 10
22.628664
 20
77.183509
 30
0.0
  0
VERTEX
  5
E311
  8
ALPHA
 10
22.909269
 20
77.103661
 30
0.0
  0
SEQEND
  5
E312
  8
ALPHA
  0
LINE
  5
D895
  8
ALPHA
 10
21.997728
 20
77.321453
 30
0.0
 11
21.967364
 21
77.349648
 31
0.0
  0
LINE
  5
D896
  8
ALPHA
 10
21.991821
 20
77.301229
 30
0.0
 11
21.985851
 21
77.281186
 31
0.0
  0
LINE
  5
D897
  8
ALPHA
 10
22.909269
 20
77.103661
 30
0.0
 11
22.894263
 21
77.051818
 31
0.0
  0
ARC
  5
D898
  8
ALPHA
 10
28.033494
 20
78.37456
 30
0.0
 40
2.399515
 50
103.434923
 51
256.565077
  0
POLYLINE
  5
D899
  8
ALPHA
 66
     1
 10
0.0
 20
0.0
 30
0.0
  0
VERTEX
  5
E313
  8
ALPHA
 10
27.295247
 20
81.578616
 30
0.0
  0
VERTEX
  5
E314
  8
ALPHA
 10
27.052706
 20
81.511999
 30
0.0
  0
VERTEX
  5
E315
  8
ALPHA
 10
26.833413
 20
81.43377
 30
0.0
  0
VERTEX
  5
E316
  8
ALPHA
 10
26.636016
 20
81.34756
 30
0.0
  0
VERTEX
  5
E317
  8
ALPHA
 10
26.464516
 20
81.259444
 30
0.0
  0
VERTEX
  5
E318
  8
ALPHA
 10
26.307369
 20
81.166881
 30
0.0
  0
VERTEX
  5
E319
  8
ALPHA
 10
26.150089
 20
81.06173
 30
0.0
  0
VERTEX
  5
E31A
  8
ALPHA
 10
25.982386
 20
80.934051
 30
0.0
  0
VERTEX
  5
E31B
  8
ALPHA
 10
25.805262
 20
80.778956
 30
0.0
  0
VERTEX
  5
E31C
  8
ALPHA
 10
25.623716
 20
80.593877
 30
0.0
  0
VERTEX
  5
E31D
  8
ALPHA
 10
25.443353
 20
80.376566
 30
0.0
  0
VERTEX
  5
E31E
  8
ALPHA
 10
25.28027
 20
80.141049
 30
0.0
  0
VERTEX
  5
E31F
  8
ALPHA
 10
25.13798
 20
79.891284
 30
0.0
  0
VERTEX
  5
E320
  8
ALPHA
 10
25.017353
 20
79.628017
 30
0.0
  0
VERTEX
  5
E321
  8
ALPHA
 10
24.919508
 20
79.352037
 30
0.0
  0
VERTEX
  5
E322
  8
ALPHA
 10
24.845817
 20
79.064276
 30
0.0
  0
VERTEX
  5
E323
  8
ALPHA
 10
24.797122
 20
78.759235
 30
0.0
  0
VERTEX
  5
E324
  8
ALPHA
 10
24.776958
 20
78.422173
 30
0.0
  0
VERTEX
  5
E325
  8
ALPHA
 10
24.795816
 20
78.042419
 30
0.0
  0
VERTEX
  5
E326
  8
ALPHA
 10
24.868974
 20
77.622472
 30
0.0
  0
VERTEX
  5
E327
  8
ALPHA
 10
25.007997
 20
77.184609
 30
0.0
  0
VERTEX
  5
E328
  8
ALPHA
 10
25.214186
 20
76.757553
 30
0.0
  0
VERTEX
  5
E329
  8
ALPHA
 10
25.486662
 20
76.356093
 30
0.0
  0
VERTEX
  5
E32A
  8
ALPHA
 10
25.82588
 20
75.989698
 30
0.0
  0
VERTEX
  5
E32B
  8
ALPHA
 10
26.234575
 20
75.667522
 30
0.0
  0
VERTEX
  5
E32C
  8
ALPHA
 10
26.710183
 20
75.405181
 30
0.0
  0
SEQEND
  5
E32D
  8
ALPHA
  0
LINE
  5
D89A
  8
ALPHA
 10
27.483494
 20
75.796697
 30
0.0
 11
27.483494
 21
77.80456
 31
0.0
  0
POLYLINE
  5
D89B
  8
ALPHA
 66
     1
 10
0.0
 20
0.0
 30
0.0
  0
VERTEX
  5
E32E
  8
ALPHA
 10
27.475988
 20
76.040709
 30
0.0
  0
VERTEX
  5
E32F
  8
ALPHA
 10
27.472345
 20
76.324457
 30
0.0
  0
VERTEX
  5
E330
  8
ALPHA
 10
27.469431
 20
76.591402
 30
0.0
  0
VERTEX
  5
E331
  8
ALPHA
 10
27.467138
 20
76.839172
 30
0.0
  0
VERTEX
  5
E332
  8
ALPHA
 10
27.465368
 20
77.06608
 30
0.0
  0
VERTEX
  5
E333
  8
ALPHA
 10
27.46403
 20
77.270722
 30
0.0
  0
VERTEX
  5
E334
  8
ALPHA
 10
27.463026
 20
77.455658
 30
0.0
  0
VERTEX
  5
E335
  8
ALPHA
 10
27.462269
 20
77.625995
 30
0.0
  0
SEQEND
  5
E336
  8
ALPHA
  0
POLYLINE
  5
D89C
  8
ALPHA
 66
     1
 10
0.0
 20
0.0
 30
0.0
  0
VERTEX
  5
E337
  8
ALPHA
 10
28.033494
 20
75.12456
 30
0.0
  0
VERTEX
  5
E338
  8
ALPHA
 10
27.582848
 20
75.15585
 30
0.0
  0
VERTEX
  5
E339
  8
ALPHA
 10
27.134697
 20
75.250878
 30
0.0
  0
VERTEX
  5
E33A
  8
ALPHA
 10
26.710209
 20
75.405173
 30
0.0
  0
SEQEND
  5
E33B
  8
ALPHA
  0
POLYLINE
  5
D89D
  8
ALPHA
 66
     1
 10
0.0
 20
0.0
 30
0.0
  0
VERTEX
  5
E33C
  8
ALPHA
 10
27.475988
 20
76.040709
 30
0.0
  0
VERTEX
  5
E33D
  8
ALPHA
 10
27.477395
 20
75.959111
 30
0.0
  0
VERTEX
  5
E33E
  8
ALPHA
 10
27.479178
 20
75.889267
 30
0.0
  0
VERTEX
  5
E33F
  8
ALPHA
 10
27.481234
 20
75.834807
 30
0.0
  0
VERTEX
  5
E340
  8
ALPHA
 10
27.483494
 20
75.796697
 30
0.0
  0
SEQEND
  5
E341
  8
ALPHA
  0
POLYLINE
  5
D89E
  8
ALPHA
 66
     1
 10
0.0
 20
0.0
 30
0.0
  0
VERTEX
  5
E342
  8
ALPHA
 10
26.793972
 20
75.587807
 30
0.0
  0
VERTEX
  5
E343
  8
ALPHA
 10
26.7869
 20
75.574184
 30
0.0
  0
VERTEX
  5
E344
  8
ALPHA
 10
26.768617
 20
75.534605
 30
0.0
  0
VERTEX
  5
E345
  8
ALPHA
 10
26.741589
 20
75.475274
 30
0.0
  0
VERTEX
  5
E346
  8
ALPHA
 10
26.710183
 20
75.405181
 30
0.0
  0
SEQEND
  5
E347
  8
ALPHA
  0
ARC
  5
D89F
  8
ALPHA
 10
28.033494
 20
78.37456
 30
0.0
 40
0.851277
 50
154.237525
 51
205.762475
  0
ARC
  5
D8A0
  8
ALPHA
 10
27.363494
 20
77.90456
 30
0.0
 40
0.1
 50
0.0
 51
90.0
  0
ARC
  5
D8A1
  8
ALPHA
 10
27.363494
 20
78.84456
 30
0.0
 40
0.1
 50
270.0
 51
0.0
  0
ARC
  5
D8A2
  8
ALPHA
 10
27.563494
 20
79.04456
 30
0.0
 40
0.1
 50
270.0
 51
0.0
  0
ARC
  5
D8A3
  8
ALPHA
 10
27.563494
 20
77.70456
 30
0.0
 40
0.1
 50
0.0
 51
90.0
  0
POLYLINE
  5
D8A4
  8
ALPHA
 66
     1
 10
0.0
 20
0.0
 30
0.0
  0
VERTEX
  5
E348
  8
ALPHA
 10
28.033493
 20
81.663484
 30
0.0
  0
VERTEX
  5
E349
  8
ALPHA
 10
27.76737
 20
81.652594
 30
0.0
  0
VERTEX
  5
E34A
  8
ALPHA
 10
27.521394
 20
81.62296
 30
0.0
  0
VERTEX
  5
E34B
  8
ALPHA
 10
27.295247
 20
81.578615
 30
0.0
  0
SEQEND
  5
E34C
  8
ALPHA
  0
POLYLINE
  5
D8A5
  8
ALPHA
 66
     1
 10
0.0
 20
0.0
 30
0.0
  0
VERTEX
  5
E34D
  8
ALPHA
 10
28.033494
 20
81.424436
 30
0.0
  0
VERTEX
  5
E34E
  8
ALPHA
 10
27.784152
 20
81.414257
 30
0.0
  0
VERTEX
  5
E34F
  8
ALPHA
 10
27.553833
 20
81.386574
 30
0.0
  0
VERTEX
  5
E350
  8
ALPHA
 10
27.342227
 20
81.345191
 30
0.0
  0
SEQEND
  5
E351
  8
ALPHA
  0
LINE
  5
D8A6
  8
ALPHA
 10
27.463494
 20
78.94456
 30
0.0
 11
27.563494
 21
78.94456
 31
0.0
  0
LINE
  5
D8A7
  8
ALPHA
 10
27.363494
 20
78.74456
 30
0.0
 11
26.795325
 21
78.74456
 31
0.0
  0
POLYLINE
  5
D8A8
  8
ALPHA
 66
     1
 10
0.0
 20
0.0
 30
0.0
  0
VERTEX
  5
E352
  8
ALPHA
 10
27.134521
 20
79.273532
 30
0.0
  0
VERTEX
  5
E353
  8
ALPHA
 10
27.250789
 20
79.217397
 30
0.0
  0
VERTEX
  5
E354
  8
ALPHA
 10
27.359952
 20
79.163083
 30
0.0
  0
VERTEX
  5
E355
  8
ALPHA
 10
27.46222
 20
79.110781
 30
0.0
  0
SEQEND
  5
E356
  8
ALPHA
  0
LINE
  5
D8A9
  8
ALPHA
 10
26.795325
 20
78.00456
 30
0.0
 11
27.363494
 21
78.00456
 31
0.0
  0
LINE
  5
D8AA
  8
ALPHA
 10
27.463494
 20
77.80456
 30
0.0
 11
27.563494
 21
77.80456
 31
0.0
  0
LINE
  5
D8AB
  8
ALPHA
 10
27.134521
 20
79.273532
 30
0.0
 11
27.463494
 21
78.94456
 31
0.0
  0
POLYLINE
  5
D8AC
  8
ALPHA
 66
     1
 10
0.0
 20
0.0
 30
0.0
  0
VERTEX
  5
E357
  8
ALPHA
 10
27.400395
 20
78.751617
 30
0.0
  0
VERTEX
  5
E358
  8
ALPHA
 10
27.316003
 20
78.909848
 30
0.0
  0
VERTEX
  5
E359
  8
ALPHA
 10
27.227548
 20
79.082777
 30
0.0
  0
VERTEX
  5
E35A
  8
ALPHA
 10
27.134521
 20
79.273532
 30
0.0
  0
SEQEND
  5
E35B
  8
ALPHA
  0
LINE
  5
D8AD
  8
ALPHA
 10
27.470119
 20
78.94456
 30
0.0
 11
27.46222
 21
79.110781
 31
0.0
  0
POLYLINE
  5
D8AE
  8
ALPHA
 66
     1
 10
0.0
 20
0.0
 30
0.0
  0
VERTEX
  5
E35C
  8
ALPHA
 10
27.342227
 20
81.345191
 30
0.0
  0
VERTEX
  5
E35D
  8
ALPHA
 10
27.340923
 20
81.364489
 30
0.0
  0
VERTEX
  5
E35E
  8
ALPHA
 10
27.331214
 20
81.417292
 30
0.0
  0
VERTEX
  5
E35F
  8
ALPHA
 10
27.314954
 20
81.493518
 30
0.0
  0
VERTEX
  5
E360
  8
ALPHA
 10
27.295247
 20
81.578616
 30
0.0
  0
SEQEND
  5
E361
  8
ALPHA
  0
POLYLINE
  5
D8AF
  8
ALPHA
 66
     1
 10
0.0
 20
0.0
 30
0.0
  0
VERTEX
  5
E362
  8
ALPHA
 10
27.483494
 20
80.952422
 30
0.0
  0
VERTEX
  5
E363
  8
ALPHA
 10
27.481234
 20
80.914313
 30
0.0
  0
VERTEX
  5
E364
  8
ALPHA
 10
27.479178
 20
80.859852
 30
0.0
  0
VERTEX
  5
E365
  8
ALPHA
 10
27.477395
 20
80.790008
 30
0.0
  0
VERTEX
  5
E366
  8
ALPHA
 10
27.475988
 20
80.70841
 30
0.0
  0
SEQEND
  5
E367
  8
ALPHA
  0
LINE
  5
D8B0
  8
ALPHA
 10
27.462269
 20
77.625995
 30
0.0
 11
27.470754
 21
77.80456
 31
0.0
  0
POLYLINE
  5
D8B1
  8
ALPHA
 66
     1
 10
0.0
 20
0.0
 30
0.0
  0
VERTEX
  5
E368
  8
ALPHA
 10
26.795325
 20
78.74456
 30
0.0
  0
VERTEX
  5
E369
  8
ALPHA
 10
26.791798
 20
78.560095
 30
0.0
  0
VERTEX
  5
E36A
  8
ALPHA
 10
26.790614
 20
78.37456
 30
0.0
  0
VERTEX
  5
E36B
  8
ALPHA
 10
26.791798
 20
78.189024
 30
0.0
  0
VERTEX
  5
E36C
  8
ALPHA
 10
26.795325
 20
78.00456
 30
0.0
  0
SEQEND
  5
E36D
  8
ALPHA
  0
POLYLINE
  5
D8B2
  8
ALPHA
 66
     1
 10
0.0
 20
0.0
 30
0.0
  0
VERTEX
  5
E36E
  8
ALPHA
 10
27.46222
 20
79.110781
 30
0.0
  0
VERTEX
  5
E36F
  8
ALPHA
 10
27.462971
 20
79.282129
 30
0.0
  0
VERTEX
  5
E370
  8
ALPHA
 10
27.463969
 20
79.468007
 30
0.0
  0
VERTEX
  5
E371
  8
ALPHA
 10
27.465302
 20
79.673791
 30
0.0
  0
VERTEX
  5
E372
  8
ALPHA
 10
27.467073
 20
79.902316
 30
0.0
  0
VERTEX
  5
E373
  8
ALPHA
 10
27.469375
 20
80.152196
 30
0.0
  0
VERTEX
  5
E374
  8
ALPHA
 10
27.472311
 20
80.421708
 30
0.0
  0
VERTEX
  5
E375
  8
ALPHA
 10
27.475988
 20
80.70841
 30
0.0
  0
SEQEND
  5
E376
  8
ALPHA
  0
LINE
  5
D8B3
  8
ALPHA
 10
27.663494
 20
77.70456
 30
0.0
 11
27.663494
 21
77.607897
 31
0.0
  0
LINE
  5
D8B4
  8
ALPHA
 10
27.663494
 20
79.141223
 30
0.0
 11
27.663494
 21
79.04456
 31
0.0
  0
LINE
  5
D8B5
  8
ALPHA
 10
27.483494
 20
78.94456
 30
0.0
 11
27.483494
 21
80.952422
 31
0.0
  0
LINE
  5
D8B6
  8
ALPHA
 10
27.463494
 20
77.90456
 30
0.0
 11
27.463494
 21
77.80456
 31
0.0
  0
LINE
  5
D8B7
  8
ALPHA
 10
27.463494
 20
78.94456
 30
0.0
 11
27.463494
 21
78.84456
 31
0.0
  0
LINE
  5
D8B8
  8
ALPHA
 10
27.061067
 20
78.74456
 30
0.0
 11
27.061067
 21
78.00456
 31
0.0
  0
POLYLINE
  5
D8B9
  8
ALPHA
 66
     1
 10
0.0
 20
0.0
 30
0.0
  0
VERTEX
  5
E377
  8
ALPHA
 10
27.111459
 20
77.452525
 30
0.0
  0
VERTEX
  5
E378
  8
ALPHA
 10
27.185074
 20
77.605402
 30
0.0
  0
VERTEX
  5
E379
  8
ALPHA
 10
27.255865
 20
77.746765
 30
0.0
  0
VERTEX
  5
E37A
  8
ALPHA
 10
27.323976
 20
77.878084
 30
0.0
  0
VERTEX
  5
E37B
  8
ALPHA
 10
27.38981
 20
78.001035
 30
0.0
  0
SEQEND
  5
E37C
  8
ALPHA
  0
LINE
  5
D8BA
  8
ALPHA
 10
27.111459
 20
77.452525
 30
0.0
 11
27.463494
 21
77.80456
 31
0.0
  0
POLYLINE
  5
D8BB
  8
ALPHA
 66
     1
 10
0.0
 20
0.0
 30
0.0
  0
VERTEX
  5
E37D
  8
ALPHA
 10
27.462269
 20
77.625995
 30
0.0
  0
VERTEX
  5
E37E
  8
ALPHA
 10
27.352969
 20
77.57022
 30
0.0
  0
VERTEX
  5
E37F
  8
ALPHA
 10
27.236827
 20
77.512669
 30
0.0
  0
VERTEX
  5
E380
  8
ALPHA
 10
27.111459
 20
77.452525
 30
0.0
  0
SEQEND
  5
E381
  8
ALPHA
  0
LINE
  5
D8BC
  8
ALPHA
 10
24.377963
 20
82.57456
 30
0.0
 11
22.395231
 21
82.57456
 31
0.0
  0
LINE
  5
D8BD
  8
ALPHA
 10
20.833494
 20
83.320464
 30
0.0
 11
20.833494
 21
83.038839
 31
0.0
  0
POLYLINE
  5
D8BF
  8
ALPHA
 66
     1
 10
0.0
 20
0.0
 30
0.0
  0
VERTEX
  5
E382
  8
ALPHA
 10
26.174211
 20
84.960541
 30
0.0
  0
VERTEX
  5
E383
  8
ALPHA
 10
26.116904
 20
84.894899
 30
0.0
  0
VERTEX
  5
E384
  8
ALPHA
 10
26.060222
 20
84.829402
 30
0.0
  0
VERTEX
  5
E385
  8
ALPHA
 10
26.00409
 20
84.763971
 30
0.0
  0
SEQEND
  5
E386
  8
ALPHA
  0
POLYLINE
  5
D8C0
  8
ALPHA
 66
     1
 10
0.0
 20
0.0
 30
0.0
  0
VERTEX
  5
E387
  8
ALPHA
 10
26.174211
 20
84.960541
 30
0.0
  0
VERTEX
  5
E388
  8
ALPHA
 10
26.274752
 20
84.984683
 30
0.0
  0
VERTEX
  5
E389
  8
ALPHA
 10
26.451961
 20
84.932947
 30
0.0
  0
VERTEX
  5
E38A
  8
ALPHA
 10
26.692589
 20
84.8092
 30
0.0
  0
VERTEX
  5
E38B
  8
ALPHA
 10
26.978648
 20
84.622695
 30
0.0
  0
VERTEX
  5
E38C
  8
ALPHA
 10
27.288753
 20
84.387373
 30
0.0
  0
SEQEND
  5
E38D
  8
ALPHA
  0
LINE
  5
D8C1
  8
ALPHA
 10
26.174211
 20
84.960541
 30
0.0
 11
26.156616
 21
84.976023
 31
0.0
  0
POLYLINE
  5
D8C2
  8
ALPHA
 66
     1
 10
0.0
 20
0.0
 30
0.0
  0
VERTEX
  5
E38E
  8
ALPHA
 10
27.288753
 20
84.387373
 30
0.0
  0
VERTEX
  5
E38F
  8
ALPHA
 10
27.23425
 20
84.323793
 30
0.0
  0
VERTEX
  5
E390
  8
ALPHA
 10
27.180356
 20
84.260352
 30
0.0
  0
VERTEX
  5
E391
  8
ALPHA
 10
27.127038
 20
84.19698
 30
0.0
  0
SEQEND
  5
E392
  8
ALPHA
  0
ARC
  5
D8C3
  8
ALPHA
 10
14.89535
 20
71.764318
 30
0.0
 40
20.0
 50
16.214675
 51
41.344523
  0
POLYLINE
  5
D8C4
  8
ALPHA
 66
     1
 10
0.0
 20
0.0
 30
0.0
  0
VERTEX
  5
E393
  8
ALPHA
 10
34.018583
 20
77.49375
 30
0.0
  0
VERTEX
  5
E394
  8
ALPHA
 10
33.959804
 20
77.68691
 30
0.0
  0
VERTEX
  5
E395
  8
ALPHA
 10
33.889496
 20
77.909381
 30
0.0
  0
VERTEX
  5
E396
  8
ALPHA
 10
33.802736
 20
78.17233
 30
0.0
  0
VERTEX
  5
E397
  8
ALPHA
 10
33.692108
 20
78.491218
 30
0.0
  0
VERTEX
  5
E398
  8
ALPHA
 10
33.547446
 20
78.884186
 30
0.0
  0
VERTEX
  5
E399
  8
ALPHA
 10
33.363403
 20
79.350822
 30
0.0
  0
VERTEX
  5
E39A
  8
ALPHA
 10
33.159698
 20
79.830983
 30
0.0
  0
VERTEX
  5
E39B
  8
ALPHA
 10
32.952889
 20
80.285794
 30
0.0
  0
VERTEX
  5
E39C
  8
ALPHA
 10
32.744166
 20
80.716509
 30
0.0
  0
VERTEX
  5
E39D
  8
ALPHA
 10
32.535539
 20
81.122525
 30
0.0
  0
VERTEX
  5
E39E
  8
ALPHA
 10
32.328242
 20
81.504723
 30
0.0
  0
VERTEX
  5
E39F
  8
ALPHA
 10
32.124456
 20
81.862161
 30
0.0
  0
VERTEX
  5
E3A0
  8
ALPHA
 10
31.925654
 20
82.195186
 30
0.0
  0
VERTEX
  5
E3A1
  8
ALPHA
 10
31.732516
 20
82.505283
 30
0.0
  0
VERTEX
  5
E3A2
  8
ALPHA
 10
31.545255
 20
82.794367
 30
0.0
  0
VERTEX
  5
E3A3
  8
ALPHA
 10
31.364386
 20
83.063597
 30
0.0
  0
VERTEX
  5
E3A4
  8
ALPHA
 10
31.190655
 20
83.313607
 30
0.0
  0
VERTEX
  5
E3A5
  8
ALPHA
 10
31.024159
 20
83.545811
 30
0.0
  0
VERTEX
  5
E3A6
  8
ALPHA
 10
30.86603
 20
83.76003
 30
0.0
  0
VERTEX
  5
E3A7
  8
ALPHA
 10
30.72071
 20
83.951759
 30
0.0
  0
VERTEX
  5
E3A8
  8
ALPHA
 10
30.581717
 20
84.130752
 30
0.0
  0
VERTEX
  5
E3A9
  8
ALPHA
 10
30.43474
 20
84.315567
 30
0.0
  0
VERTEX
  5
E3AA
  8
ALPHA
 10
30.262353
 20
84.52676
 30
0.0
  0
VERTEX
  5
E3AB
  8
ALPHA
 10
30.062897
 20
84.763971
 30
0.0
  0
SEQEND
  5
E3AC
  8
ALPHA
  0
POLYLINE
  5
D8C5
  8
ALPHA
 66
     1
 10
0.0
 20
0.0
 30
0.0
  0
VERTEX
  5
E3AD
  8
ALPHA
 10
33.157719
 20
77.103661
 30
0.0
  0
VERTEX
  5
E3AE
  8
ALPHA
 10
33.106464
 20
77.271608
 30
0.0
  0
VERTEX
  5
E3AF
  8
ALPHA
 10
33.043111
 20
77.458817
 30
0.0
  0
VERTEX
  5
E3B0
  8
ALPHA
 10
32.963561
 20
77.673269
 30
0.0
  0
VERTEX
  5
E3B1
  8
ALPHA
 10
32.86192
 20
77.925427
 30
0.0
  0
VERTEX
  5
E3B2
  8
ALPHA
 10
32.72949
 20
78.229738
 30
0.0
  0
VERTEX
  5
E3B3
  8
ALPHA
 10
32.555007
 20
78.603089
 30
0.0
  0
VERTEX
  5
E3B4
  8
ALPHA
 10
32.334597
 20
79.044872
 30
0.0
  0
VERTEX
  5
E3B5
  8
ALPHA
 10
32.095202
 20
79.498477
 30
0.0
  0
VERTEX
  5
E3B6
  8
ALPHA
 10
31.857967
 20
79.927789
 30
0.0
  0
VERTEX
  5
E3B7
  8
ALPHA
 10
31.624405
 20
80.334441
 30
0.0
  0
VERTEX
  5
E3B8
  8
ALPHA
 10
31.396364
 20
80.718109
 30
0.0
  0
VERTEX
  5
E3B9
  8
ALPHA
 10
31.174582
 20
81.079742
 30
0.0
  0
VERTEX
  5
E3BA
  8
ALPHA
 10
30.960703
 20
81.418487
 30
0.0
  0
VERTEX
  5
E3BB
  8
ALPHA
 10
30.755512
 20
81.734654
 30
0.0
  0
VERTEX
  5
E3BC
  8
ALPHA
 10
30.558999
 20
82.029603
 30
0.0
  0
VERTEX
  5
E3BD
  8
ALPHA
 10
30.370834
 20
82.305083
 30
0.0
  0
VERTEX
  5
E3BE
  8
ALPHA
 10
30.191115
 20
82.562115
 30
0.0
  0
VERTEX
  5
E3BF
  8
ALPHA
 10
30.02012
 20
82.801232
 30
0.0
  0
VERTEX
  5
E3C0
  8
ALPHA
 10
29.857822
 20
83.023697
 30
0.0
  0
VERTEX
  5
E3C1
  8
ALPHA
 10
29.7053
 20
83.229204
 30
0.0
  0
VERTEX
  5
E3C2
  8
ALPHA
 10
29.566061
 20
83.41339
 30
0.0
  0
VERTEX
  5
E3C3
  8
ALPHA
 10
29.433476
 20
83.585581
 30
0.0
  0
VERTEX
  5
E3C4
  8
ALPHA
 10
29.293486
 20
83.763651
 30
0.0
  0
VERTEX
  5
E3C5
  8
ALPHA
 10
29.129458
 20
83.967511
 30
0.0
  0
VERTEX
  5
E3C6
  8
ALPHA
 10
28.939949
 20
84.19698
 30
0.0
  0
SEQEND
  5
E3C7
  8
ALPHA
  0
LINE
  5
D8C6
  8
ALPHA
 10
32.433494
 20
82.57456
 30
0.0
 11
32.433494
 21
81.834406
 31
0.0
  0
POLYLINE
  5
D8C7
  8
ALPHA
 66
     1
 10
0.0
 20
0.0
 30
0.0
  0
VERTEX
  5
E3C8
  8
ALPHA
 10
34.344263
 20
74.985504
 30
0.0
  0
VERTEX
  5
E3C9
  8
ALPHA
 10
32.975586
 20
75.15611
 30
0.0
  0
VERTEX
  5
E3CA
  8
ALPHA
 10
31.737816
 20
75.274088
 30
0.0
  0
VERTEX
  5
E3CB
  8
ALPHA
 10
30.557973
 20
75.354741
 30
0.0
  0
VERTEX
  5
E3CC
  8
ALPHA
 10
29.356778
 20
75.405173
 30
0.0
  0
SEQEND
  5
E3CD
  8
ALPHA
  0
ARC
  5
D8C8
  8
ALPHA
 10
28.033494
 20
78.37456
 30
0.0
 40
2.399515
 50
283.434923
 51
76.565077
  0
POLYLINE
  5
D8C9
  8
ALPHA
 66
     1
 10
0.0
 20
0.0
 30
0.0
  0
VERTEX
  5
E3CE
  8
ALPHA
 10
28.604718
 20
77.625995
 30
0.0
  0
VERTEX
  5
E3CF
  8
ALPHA
 10
28.603961
 20
77.455658
 30
0.0
  0
VERTEX
  5
E3D0
  8
ALPHA
 10
28.602957
 20
77.270722
 30
0.0
  0
VERTEX
  5
E3D1
  8
ALPHA
 10
28.601619
 20
77.06608
 30
0.0
  0
VERTEX
  5
E3D2
  8
ALPHA
 10
28.599849
 20
76.839172
 30
0.0
  0
VERTEX
  5
E3D3
  8
ALPHA
 10
28.597556
 20
76.591402
 30
0.0
  0
VERTEX
  5
E3D4
  8
ALPHA
 10
28.594642
 20
76.324457
 30
0.0
  0
VERTEX
  5
E3D5
  8
ALPHA
 10
28.590999
 20
76.040709
 30
0.0
  0
SEQEND
  5
E3D6
  8
ALPHA
  0
LINE
  5
D8CA
  8
ALPHA
 10
28.583494
 20
75.796697
 30
0.0
 11
28.583494
 21
77.80456
 31
0.0
  0
POLYLINE
  5
D8CB
  8
ALPHA
 66
     1
 10
0.0
 20
0.0
 30
0.0
  0
VERTEX
  5
E3D7
  8
ALPHA
 10
29.356804
 20
75.405181
 30
0.0
  0
VERTEX
  5
E3D8
  8
ALPHA
 10
29.831556
 20
75.666952
 30
0.0
  0
VERTEX
  5
E3D9
  8
ALPHA
 10
30.247653
 20
75.995784
 30
0.0
  0
VERTEX
  5
E3DA
  8
ALPHA
 10
30.595792
 20
76.375752
 30
0.0
  0
VERTEX
  5
E3DB
  8
ALPHA
 10
30.868919
 20
76.785888
 30
0.0
  0
VERTEX
  5
E3DC
  8
ALPHA
 10
31.072222
 20
77.218531
 30
0.0
  0
VERTEX
  5
E3DD
  8
ALPHA
 10
31.209735
 20
77.67264
 30
0.0
  0
VERTEX
  5
E3DE
  8
ALPHA
 10
31.279719
 20
78.133476
 30
0.0
  0
VERTEX
  5
E3DF
  8
ALPHA
 10
31.285798
 20
78.563744
 30
0.0
  0
VERTEX
  5
E3E0
  8
ALPHA
 10
31.244345
 20
78.941338
 30
0.0
  0
VERTEX
  5
E3E1
  8
ALPHA
 10
31.168204
 20
79.281231
 30
0.0
  0
VERTEX
  5
E3E2
  8
ALPHA
 10
31.0622
 20
79.596579
 30
0.0
  0
VERTEX
  5
E3E3
  8
ALPHA
 10
30.93083
 20
79.887724
 30
0.0
  0
VERTEX
  5
E3E4
  8
ALPHA
 10
30.778373
 20
80.154235
 30
0.0
  0
VERTEX
  5
E3E5
  8
ALPHA
 10
30.608314
 20
80.396578
 30
0.0
  0
VERTEX
  5
E3E6
  8
ALPHA
 10
30.426578
 20
80.612166
 30
0.0
  0
VERTEX
  5
E3E7
  8
ALPHA
 10
30.245845
 20
80.793807
 30
0.0
  0
VERTEX
  5
E3E8
  8
ALPHA
 10
30.071028
 20
80.945035
 30
0.0
  0
VERTEX
  5
E3E9
  8
ALPHA
 10
29.906505
 20
81.069093
 30
0.0
  0
VERTEX
  5
E3EA
  8
ALPHA
 10
29.751859
 20
81.171734
 30
0.0
  0
VERTEX
  5
E3EB
  8
ALPHA
 10
29.596794
 20
81.26257
 30
0.0
  0
VERTEX
  5
E3EC
  8
ALPHA
 10
29.428287
 20
81.348839
 30
0.0
  0
VERTEX
  5
E3ED
  8
ALPHA
 10
29.235672
 20
81.432935
 30
0.0
  0
VERTEX
  5
E3EE
  8
ALPHA
 10
29.018115
 20
81.510782
 30
0.0
  0
VERTEX
  5
E3EF
  8
ALPHA
 10
28.77174
 20
81.578615
 30
0.0
  0
SEQEND
  5
E3F0
  8
ALPHA
  0
POLYLINE
  5
D8CC
  8
ALPHA
 66
     1
 10
0.0
 20
0.0
 30
0.0
  0
VERTEX
  5
E3F1
  8
ALPHA
 10
29.273659
 20
75.588093
 30
0.0
  0
VERTEX
  5
E3F2
  8
ALPHA
 10
29.280541
 20
75.574391
 30
0.0
  0
VERTEX
  5
E3F3
  8
ALPHA
 10
29.298711
 20
75.534766
 30
0.0
  0
VERTEX
  5
E3F4
  8
ALPHA
 10
29.325553
 20
75.47535
 30
0.0
  0
VERTEX
  5
E3F5
  8
ALPHA
 10
29.356804
 20
75.405181
 30
0.0
  0
SEQEND
  5
E3F6
  8
ALPHA
  0
POLYLINE
  5
D8CD
  8
ALPHA
 66
     1
 10
0.0
 20
0.0
 30
0.0
  0
VERTEX
  5
E3F7
  8
ALPHA
 10
28.583494
 20
75.796697
 30
0.0
  0
VERTEX
  5
E3F8
  8
ALPHA
 10
28.585753
 20
75.834801
 30
0.0
  0
VERTEX
  5
E3F9
  8
ALPHA
 10
28.587809
 20
75.889266
 30
0.0
  0
VERTEX
  5
E3FA
  8
ALPHA
 10
28.589592
 20
75.959115
 30
0.0
  0
VERTEX
  5
E3FB
  8
ALPHA
 10
28.590999
 20
76.040709
 30
0.0
  0
SEQEND
  5
E3FC
  8
ALPHA
  0
ARC
  5
D8CE
  8
ALPHA
 10
28.033494
 20
78.37456
 30
0.0
 40
0.851277
 50
334.237525
 51
25.762475
  0
ARC
  5
D8CF
  8
ALPHA
 10
28.503494
 20
79.04456
 30
0.0
 40
0.1
 50
180.0
 51
270.0
  0
ARC
  5
D8D0
  8
ALPHA
 10
28.703494
 20
78.84456
 30
0.0
 40
0.1
 50
180.0
 51
270.0
  0
ARC
  5
D8D1
  8
ALPHA
 10
28.703494
 20
77.90456
 30
0.0
 40
0.1
 50
90.0
 51
180.0
  0
ARC
  5
D8D2
  8
ALPHA
 10
28.503494
 20
77.70456
 30
0.0
 40
0.1
 50
90.0
 51
180.0
  0
LINE
  5
D8D3
  8
ALPHA
 10
28.603494
 20
78.94456
 30
0.0
 11
28.503494
 21
78.94456
 31
0.0
  0
LINE
  5
D8D4
  8
ALPHA
 10
29.271662
 20
78.74456
 30
0.0
 11
28.703494
 21
78.74456
 31
0.0
  0
POLYLINE
  5
D8D5
  8
ALPHA
 66
     1
 10
0.0
 20
0.0
 30
0.0
  0
VERTEX
  5
E3FD
  8
ALPHA
 10
28.955528
 20
77.452525
 30
0.0
  0
VERTEX
  5
E3FE
  8
ALPHA
 10
28.830907
 20
77.512304
 30
0.0
  0
VERTEX
  5
E3FF
  8
ALPHA
 10
28.71403
 20
77.570214
 30
0.0
  0
VERTEX
  5
E400
  8
ALPHA
 10
28.604718
 20
77.625995
 30
0.0
  0
SEQEND
  5
E401
  8
ALPHA
  0
LINE
  5
D8D6
  8
ALPHA
 10
28.703494
 20
78.00456
 30
0.0
 11
29.271662
 21
78.00456
 31
0.0
  0
LINE
  5
D8D7
  8
ALPHA
 10
28.503494
 20
77.80456
 30
0.0
 11
28.603494
 21
77.80456
 31
0.0
  0
LINE
  5
D8D8
  8
ALPHA
 10
28.955528
 20
77.452525
 30
0.0
 11
28.603494
 21
77.80456
 31
0.0
  0
POLYLINE
  5
D8D9
  8
ALPHA
 66
     1
 10
0.0
 20
0.0
 30
0.0
  0
VERTEX
  5
E402
  8
ALPHA
 10
28.677177
 20
78.001035
 30
0.0
  0
VERTEX
  5
E403
  8
ALPHA
 10
28.743011
 20
77.878084
 30
0.0
  0
VERTEX
  5
E404
  8
ALPHA
 10
28.811122
 20
77.746765
 30
0.0
  0
VERTEX
  5
E405
  8
ALPHA
 10
28.881913
 20
77.605402
 30
0.0
  0
VERTEX
  5
E406
  8
ALPHA
 10
28.955528
 20
77.452525
 30
0.0
  0
SEQEND
  5
E407
  8
ALPHA
  0
POLYLINE
  5
D8DA
  8
ALPHA
 66
     1
 10
0.0
 20
0.0
 30
0.0
  0
VERTEX
  5
E408
  8
ALPHA
 10
29.271662
 20
78.00456
 30
0.0
  0
VERTEX
  5
E409
  8
ALPHA
 10
29.275189
 20
78.189024
 30
0.0
  0
VERTEX
  5
E40A
  8
ALPHA
 10
29.276373
 20
78.37456
 30
0.0
  0
VERTEX
  5
E40B
  8
ALPHA
 10
29.275189
 20
78.560096
 30
0.0
  0
VERTEX
  5
E40C
  8
ALPHA
 10
29.271662
 20
78.74456
 30
0.0
  0
SEQEND
  5
E40D
  8
ALPHA
  0
LINE
  5
D8DB
  8
ALPHA
 10
29.00592
 20
78.74456
 30
0.0
 11
29.00592
 21
78.00456
 31
0.0
  0
LINE
  5
D8DC
  8
ALPHA
 10
28.603494
 20
78.84456
 30
0.0
 11
28.603494
 21
78.94456
 31
0.0
  0
LINE
  5
D8DD
  8
ALPHA
 10
28.603494
 20
77.80456
 30
0.0
 11
28.603494
 21
77.90456
 31
0.0
  0
LINE
  5
D8DE
  8
ALPHA
 10
28.583494
 20
78.94456
 30
0.0
 11
28.583494
 21
80.952422
 31
0.0
  0
LINE
  5
D8DF
  8
ALPHA
 10
28.403494
 20
79.04456
 30
0.0
 11
28.403494
 21
79.141223
 31
0.0
  0
LINE
  5
D8E0
  8
ALPHA
 10
28.403494
 20
77.607897
 30
0.0
 11
28.403494
 21
77.70456
 31
0.0
  0
POLYLINE
  5
D8E1
  8
ALPHA
 66
     1
 10
0.0
 20
0.0
 30
0.0
  0
VERTEX
  5
E40E
  8
ALPHA
 10
28.590999
 20
80.70841
 30
0.0
  0
VERTEX
  5
E40F
  8
ALPHA
 10
28.594676
 20
80.421708
 30
0.0
  0
VERTEX
  5
E410
  8
ALPHA
 10
28.597612
 20
80.152196
 30
0.0
  0
VERTEX
  5
E411
  8
ALPHA
 10
28.599914
 20
79.902316
 30
0.0
  0
VERTEX
  5
E412
  8
ALPHA
 10
28.601685
 20
79.673791
 30
0.0
  0
VERTEX
  5
E413
  8
ALPHA
 10
28.603018
 20
79.468007
 30
0.0
  0
VERTEX
  5
E414
  8
ALPHA
 10
28.604016
 20
79.282129
 30
0.0
  0
VERTEX
  5
E415
  8
ALPHA
 10
28.604767
 20
79.110781
 30
0.0
  0
SEQEND
  5
E416
  8
ALPHA
  0
POLYLINE
  5
D8E2
  8
ALPHA
 66
     1
 10
0.0
 20
0.0
 30
0.0
  0
VERTEX
  5
E417
  8
ALPHA
 10
28.590999
 20
80.70841
 30
0.0
  0
VERTEX
  5
E418
  8
ALPHA
 10
28.589592
 20
80.790005
 30
0.0
  0
VERTEX
  5
E419
  8
ALPHA
 10
28.587809
 20
80.859854
 30
0.0
  0
VERTEX
  5
E41A
  8
ALPHA
 10
28.585753
 20
80.914318
 30
0.0
  0
VERTEX
  5
E41B
  8
ALPHA
 10
28.583494
 20
80.952422
 30
0.0
  0
SEQEND
  5
E41C
  8
ALPHA
  0
LINE
  5
D8E3
  8
ALPHA
 10
28.596233
 20
77.80456
 30
0.0
 11
28.604718
 21
77.625995
 31
0.0
  0
POLYLINE
  5
D8E4
  8
ALPHA
 66
     1
 10
0.0
 20
0.0
 30
0.0
  0
VERTEX
  5
E41D
  8
ALPHA
 10
28.72476
 20
81.345191
 30
0.0
  0
VERTEX
  5
E41E
  8
ALPHA
 10
28.726064
 20
81.364489
 30
0.0
  0
VERTEX
  5
E41F
  8
ALPHA
 10
28.735773
 20
81.417292
 30
0.0
  0
VERTEX
  5
E420
  8
ALPHA
 10
28.752033
 20
81.493518
 30
0.0
  0
VERTEX
  5
E421
  8
ALPHA
 10
28.77174
 20
81.578615
 30
0.0
  0
SEQEND
  5
E422
  8
ALPHA
  0
LINE
  5
D8E5
  8
ALPHA
 10
28.604767
 20
79.110781
 30
0.0
 11
28.596868
 21
78.94456
 31
0.0
  0
POLYLINE
  5
D8E6
  8
ALPHA
 66
     1
 10
0.0
 20
0.0
 30
0.0
  0
VERTEX
  5
E423
  8
ALPHA
 10
28.932466
 20
79.273532
 30
0.0
  0
VERTEX
  5
E424
  8
ALPHA
 10
28.839439
 20
79.082777
 30
0.0
  0
VERTEX
  5
E425
  8
ALPHA
 10
28.750984
 20
78.909848
 30
0.0
  0
VERTEX
  5
E426
  8
ALPHA
 10
28.666592
 20
78.751617
 30
0.0
  0
SEQEND
  5
E427
  8
ALPHA
  0
LINE
  5
D8E7
  8
ALPHA
 10
28.932466
 20
79.273532
 30
0.0
 11
28.603494
 21
78.94456
 31
0.0
  0
POLYLINE
  5
D8E8
  8
ALPHA
 66
     1
 10
0.0
 20
0.0
 30
0.0
  0
VERTEX
  5
E428
  8
ALPHA
 10
28.604767
 20
79.110781
 30
0.0
  0
VERTEX
  5
E429
  8
ALPHA
 10
28.707525
 20
79.16333
 30
0.0
  0
VERTEX
  5
E42A
  8
ALPHA
 10
28.816207
 20
79.217402
 30
0.0
  0
VERTEX
  5
E42B
  8
ALPHA
 10
28.932466
 20
79.273532
 30
0.0
  0
SEQEND
  5
E42C
  8
ALPHA
  0
POLYLINE
  5
D8E9
  8
ALPHA
 66
     1
 10
0.0
 20
0.0
 30
0.0
  0
VERTEX
  5
E42D
  8
ALPHA
 10
35.171993
 20
75.579611
 30
0.0
  0
VERTEX
  5
E42E
  8
ALPHA
 10
34.713218
 20
76.103506
 30
0.0
  0
VERTEX
  5
E42F
  8
ALPHA
 10
34.352375
 20
76.698802
 30
0.0
  0
VERTEX
  5
E430
  8
ALPHA
 10
34.099858
 20
77.349078
 30
0.0
  0
SEQEND
  5
E431
  8
ALPHA
  0
POLYLINE
  5
D8EA
  8
ALPHA
 66
     1
 10
0.0
 20
0.0
 30
0.0
  0
VERTEX
  5
E432
  8
ALPHA
 10
34.344256
 20
74.985504
 30
0.0
  0
VERTEX
  5
E433
  8
ALPHA
 10
34.307704
 20
75.025113
 30
0.0
  0
VERTEX
  5
E434
  8
ALPHA
 10
34.273148
 20
75.063362
 30
0.0
  0
VERTEX
  5
E435
  8
ALPHA
 10
34.239223
 20
75.10169
 30
0.0
  0
VERTEX
  5
E436
  8
ALPHA
 10
34.204721
 20
75.141486
 30
0.0
  0
VERTEX
  5
E437
  8
ALPHA
 10
34.168496
 20
75.184187
 30
0.0
  0
VERTEX
  5
E438
  8
ALPHA
 10
34.129464
 20
75.231291
 30
0.0
  0
VERTEX
  5
E439
  8
ALPHA
 10
34.086696
 20
75.284265
 30
0.0
  0
VERTEX
  5
E43A
  8
ALPHA
 10
34.039838
 20
75.344021
 30
0.0
  0
VERTEX
  5
E43B
  8
ALPHA
 10
33.989021
 20
75.41097
 30
0.0
  0
VERTEX
  5
E43C
  8
ALPHA
 10
33.934155
 20
75.485925
 30
0.0
  0
VERTEX
  5
E43D
  8
ALPHA
 10
33.87503
 20
75.570042
 30
0.0
  0
VERTEX
  5
E43E
  8
ALPHA
 10
33.811919
 20
75.663995
 30
0.0
  0
VERTEX
  5
E43F
  8
ALPHA
 10
33.74503
 20
75.768748
 30
0.0
  0
VERTEX
  5
E440
  8
ALPHA
 10
33.674005
 20
75.886506
 30
0.0
  0
VERTEX
  5
E441
  8
ALPHA
 10
33.59865
 20
76.019837
 30
0.0
  0
VERTEX
  5
E442
  8
ALPHA
 10
33.519025
 20
76.171712
 30
0.0
  0
VERTEX
  5
E443
  8
ALPHA
 10
33.435525
 20
76.345644
 30
0.0
  0
VERTEX
  5
E444
  8
ALPHA
 10
33.348801
 20
76.546385
 30
0.0
  0
VERTEX
  5
E445
  8
ALPHA
 10
33.259885
 20
76.780776
 30
0.0
  0
VERTEX
  5
E446
  8
ALPHA
 10
33.172724
 20
77.051818
 30
0.0
  0
SEQEND
  5
E447
  8
ALPHA
  0
POLYLINE
  5
D8EB
  8
ALPHA
 66
     1
 10
0.0
 20
0.0
 30
0.0
  0
VERTEX
  5
E448
  8
ALPHA
 10
35.015483
 20
75.675368
 30
0.0
  0
VERTEX
  5
E449
  8
ALPHA
 10
34.986372
 20
75.706212
 30
0.0
  0
VERTEX
  5
E44A
  8
ALPHA
 10
34.958846
 20
75.73599
 30
0.0
  0
VERTEX
  5
E44B
  8
ALPHA
 10
34.93182
 20
75.765827
 30
0.0
  0
VERTEX
  5
E44C
  8
ALPHA
 10
34.904334
 20
75.796803
 30
0.0
  0
VERTEX
  5
E44D
  8
ALPHA
 10
34.875474
 20
75.830037
 30
0.0
  0
VERTEX
  5
E44E
  8
ALPHA
 10
34.844376
 20
75.866694
 30
0.0
  0
VERTEX
  5
E44F
  8
ALPHA
 10
34.810298
 20
75.907914
 30
0.0
  0
VERTEX
  5
E450
  8
ALPHA
 10
34.772959
 20
75.954406
 30
0.0
  0
VERTEX
  5
E451
  8
ALPHA
 10
34.732462
 20
76.006486
 30
0.0
  0
VERTEX
  5
E452
  8
ALPHA
 10
34.688734
 20
76.064786
 30
0.0
  0
VERTEX
  5
E453
  8
ALPHA
 10
34.641607
 20
76.130201
 30
0.0
  0
VERTEX
  5
E454
  8
ALPHA
 10
34.591296
 20
76.203253
 30
0.0
  0
VERTEX
  5
E455
  8
ALPHA
 10
34.537966
 20
76.284688
 30
0.0
  0
VERTEX
  5
E456
  8
ALPHA
 10
34.48133
 20
76.376216
 30
0.0
  0
VERTEX
  5
E457
  8
ALPHA
 10
34.42123
 20
76.479827
 30
0.0
  0
VERTEX
  5
E458
  8
ALPHA
 10
34.35771
 20
76.597824
 30
0.0
  0
VERTEX
  5
E459
  8
ALPHA
 10
34.291079
 20
76.732928
 30
0.0
  0
VERTEX
  5
E45A
  8
ALPHA
 10
34.221848
 20
76.888819
 30
0.0
  0
VERTEX
  5
E45B
  8
ALPHA
 10
34.150826
 20
77.070797
 30
0.0
  0
VERTEX
  5
E45C
  8
ALPHA
 10
34.081136
 20
77.281186
 30
0.0
  0
SEQEND
  5
E45D
  8
ALPHA
  0
LINE
  5
D8EC
  8
ALPHA
 10
35.149481
 20
75.582554
 30
0.0
 11
35.171993
 21
75.579611
 31
0.0
  0
LINE
  5
D8ED
  8
ALPHA
 10
35.171993
 20
75.579611
 30
0.0
 11
35.193837
 21
75.547257
 31
0.0
  0
POLYLINE
  5
D8EE
  8
ALPHA
 66
     1
 10
0.0
 20
0.0
 30
0.0
  0
VERTEX
  5
E45E
  8
ALPHA
 10
35.413257
 20
74.140471
 30
0.0
  0
VERTEX
  5
E45F
  8
ALPHA
 10
35.219084
 20
74.261104
 30
0.0
  0
VERTEX
  5
E460
  8
ALPHA
 10
35.030843
 20
74.390221
 30
0.0
  0
VERTEX
  5
E461
  8
ALPHA
 10
34.848871
 20
74.527552
 30
0.0
  0
VERTEX
  5
E462
  8
ALPHA
 10
34.673474
 20
74.672838
 30
0.0
  0
VERTEX
  5
E463
  8
ALPHA
 10
34.505093
 20
74.825679
 30
0.0
  0
VERTEX
  5
E464
  8
ALPHA
 10
34.344263
 20
74.985504
 30
0.0
  0
SEQEND
  5
E465
  8
ALPHA
  0
POLYLINE
  5
D8EF
  8
ALPHA
 66
     1
 10
0.0
 20
0.0
 30
0.0
  0
VERTEX
  5
E466
  8
ALPHA
 10
35.53971
 20
74.105132
 30
0.0
  0
VERTEX
  5
E467
  8
ALPHA
 10
35.497468
 20
74.117054
 30
0.0
  0
VERTEX
  5
E468
  8
ALPHA
 10
35.413257
 20
74.140471
 30
0.0
  0
SEQEND
  5
E469
  8
ALPHA
  0
POLYLINE
  5
D8F0
  8
ALPHA
 66
     1
 10
0.0
 20
0.0
 30
0.0
  0
VERTEX
  5
E46A
  8
ALPHA
 10
35.413257
 20
74.140471
 30
0.0
  0
VERTEX
  5
E46B
  8
ALPHA
 10
35.263721
 20
74.17611
 30
0.0
  0
VERTEX
  5
E46C
  8
ALPHA
 10
35.115969
 20
74.207557
 30
0.0
  0
VERTEX
  5
E46D
  8
ALPHA
 10
34.969982
 20
74.234922
 30
0.0
  0
VERTEX
  5
E46E
  8
ALPHA
 10
34.82574
 20
74.258317
 30
0.0
  0
SEQEND
  5
E46F
  8
ALPHA
  0
POLYLINE
  5
D8F1
  8
ALPHA
 66
     1
 10
0.0
 20
0.0
 30
0.0
  0
VERTEX
  5
E470
  8
ALPHA
 10
35.527531
 20
74.048561
 30
0.0
  0
VERTEX
  5
E471
  8
ALPHA
 10
35.484995
 20
74.058613
 30
0.0
  0
VERTEX
  5
E472
  8
ALPHA
 10
35.400126
 20
74.078303
 30
0.0
  0
SEQEND
  5
E473
  8
ALPHA
  0
POLYLINE
  5
D8F2
  8
ALPHA
 66
     1
 10
0.0
 20
0.0
 30
0.0
  0
VERTEX
  5
E474
  8
ALPHA
 10
35.400126
 20
74.078303
 30
0.0
  0
VERTEX
  5
E475
  8
ALPHA
 10
35.251363
 20
74.110981
 30
0.0
  0
VERTEX
  5
E476
  8
ALPHA
 10
35.104633
 20
74.140283
 30
0.0
  0
VERTEX
  5
E477
  8
ALPHA
 10
34.959877
 20
74.166277
 30
0.0
  0
VERTEX
  5
E478
  8
ALPHA
 10
34.817042
 20
74.18903
 30
0.0
  0
SEQEND
  5
E479
  8
ALPHA
  0
LINE
  5
D8F3
  8
ALPHA
 10
36.2176
 20
73.75713
 30
0.0
 11
36.081222
 21
73.782113
 31
0.0
  0
LINE
  5
D8F4
  8
ALPHA
 10
36.273346
 20
73.604255
 30
0.0
 11
36.151881
 21
73.626528
 31
0.0
  0
LINE
  5
D8F5
  8
ALPHA
 10
36.151881
 20
73.626528
 30
0.0
 11
36.002772
 21
73.653427
 31
0.0
  0
POLYLINE
  5
D8F6
  8
ALPHA
 66
     1
 10
0.0
 20
0.0
 30
0.0
  0
VERTEX
  5
E47A
  8
ALPHA
 10
36.081222
 20
73.782113
 30
0.0
  0
VERTEX
  5
E47B
  8
ALPHA
 10
36.003393
 20
73.796169
 30
0.0
  0
VERTEX
  5
E47C
  8
ALPHA
 10
35.919251
 20
73.8112
 30
0.0
  0
VERTEX
  5
E47D
  8
ALPHA
 10
35.828431
 20
73.827232
 30
0.0
  0
VERTEX
  5
E47E
  8
ALPHA
 10
35.730487
 20
73.844301
 30
0.0
  0
VERTEX
  5
E47F
  8
ALPHA
 10
35.625013
 20
73.862425
 30
0.0
  0
VERTEX
  5
E480
  8
ALPHA
 10
35.511435
 20
73.881644
 30
0.0
  0
VERTEX
  5
E481
  8
ALPHA
 10
35.3889
 20
73.902032
 30
0.0
  0
VERTEX
  5
E482
  8
ALPHA
 10
35.256447
 20
73.923666
 30
0.0
  0
VERTEX
  5
E483
  8
ALPHA
 10
35.113035
 20
73.946614
 30
0.0
  0
VERTEX
  5
E484
  8
ALPHA
 10
34.957417
 20
73.970955
 30
0.0
  0
VERTEX
  5
E485
  8
ALPHA
 10
34.788177
 20
73.996764
 30
0.0
  0
SEQEND
  5
E486
  8
ALPHA
  0
POLYLINE
  5
D8F7
  8
ALPHA
 66
     1
 10
0.0
 20
0.0
 30
0.0
  0
VERTEX
  5
E487
  8
ALPHA
 10
36.002772
 20
73.653427
 30
0.0
  0
VERTEX
  5
E488
  8
ALPHA
 10
35.918228
 20
73.668464
 30
0.0
  0
VERTEX
  5
E489
  8
ALPHA
 10
35.826725
 20
73.684566
 30
0.0
  0
VERTEX
  5
E48A
  8
ALPHA
 10
35.72779
 20
73.701771
 30
0.0
  0
VERTEX
  5
E48B
  8
ALPHA
 10
35.621008
 20
73.720097
 30
0.0
  0
VERTEX
  5
E48C
  8
ALPHA
 10
35.505797
 20
73.739579
 30
0.0
  0
VERTEX
  5
E48D
  8
ALPHA
 10
35.381257
 20
73.760294
 30
0.0
  0
VERTEX
  5
E48E
  8
ALPHA
 10
35.246366
 20
73.782321
 30
0.0
  0
VERTEX
  5
E48F
  8
ALPHA
 10
35.100004
 20
73.805732
 30
0.0
  0
VERTEX
  5
E490
  8
ALPHA
 10
34.94083
 20
73.830602
 30
0.0
  0
VERTEX
  5
E491
  8
ALPHA
 10
34.76731
 20
73.857002
 30
0.0
  0
SEQEND
  5
E492
  8
ALPHA
  0
POLYLINE
  5
D8F8
  8
ALPHA
 66
     1
 10
0.0
 20
0.0
 30
0.0
  0
VERTEX
  5
E493
  8
ALPHA
 10
35.413257
 20
74.140471
 30
0.0
  0
VERTEX
  5
E494
  8
ALPHA
 10
35.407872
 20
74.117806
 30
0.0
  0
VERTEX
  5
E495
  8
ALPHA
 10
35.403395
 20
74.096611
 30
0.0
  0
VERTEX
  5
E496
  8
ALPHA
 10
35.400126
 20
74.078303
 30
0.0
  0
SEQEND
  5
E497
  8
ALPHA
  0
POLYLINE
  5
D8F9
  8
ALPHA
 66
     1
 10
0.0
 20
0.0
 30
0.0
  0
VERTEX
  5
E498
  8
ALPHA
 10
34.767319
 20
73.857063
 30
0.0
  0
VERTEX
  5
E499
  8
ALPHA
 10
34.775355
 20
73.901156
 30
0.0
  0
VERTEX
  5
E49A
  8
ALPHA
 10
34.782995
 20
73.952302
 30
0.0
  0
VERTEX
  5
E49B
  8
ALPHA
 10
34.788186
 20
73.996825
 30
0.0
  0
SEQEND
  5
E49C
  8
ALPHA
  0
POLYLINE
  5
D8FA
  8
ALPHA
 66
     1
 10
0.0
 20
0.0
 30
0.0
  0
VERTEX
  5
E49D
  8
ALPHA
 10
34.727114
 20
73.599911
 30
0.0
  0
VERTEX
  5
E49E
  8
ALPHA
 10
34.731156
 20
73.625751
 30
0.0
  0
VERTEX
  5
E49F
  8
ALPHA
 10
34.735305
 20
73.649796
 30
0.0
  0
VERTEX
  5
E4A0
  8
ALPHA
 10
34.739274
 20
73.670376
 30
0.0
  0
SEQEND
  5
E4A1
  8
ALPHA
  0
LINE
  5
D8FB
  8
ALPHA
 10
34.767319
 20
73.857063
 30
0.0
 11
34.739274
 21
73.670376
 31
0.0
  0
LINE
  5
D8FC
  8
ALPHA
 10
34.817043
 20
74.18903
 30
0.0
 11
34.788186
 21
73.996825
 31
0.0
  0
POLYLINE
  5
D8FD
  8
ALPHA
 66
     1
 10
0.0
 20
0.0
 30
0.0
  0
VERTEX
  5
E4A2
  8
ALPHA
 10
34.82574
 20
74.258317
 30
0.0
  0
VERTEX
  5
E4A3
  8
ALPHA
 10
34.82216
 20
74.233013
 30
0.0
  0
VERTEX
  5
E4A4
  8
ALPHA
 10
34.819195
 20
74.209394
 30
0.0
  0
VERTEX
  5
E4A5
  8
ALPHA
 10
34.817043
 20
74.18903
 30
0.0
  0
SEQEND
  5
E4A6
  8
ALPHA
  0
POLYLINE
  5
D8FE
  8
ALPHA
 66
     1
 10
0.0
 20
0.0
 30
0.0
  0
VERTEX
  5
E4A7
  8
ALPHA
 10
35.015483
 20
75.675368
 30
0.0
  0
VERTEX
  5
E4A8
  8
ALPHA
 10
34.987496
 20
75.633638
 30
0.0
  0
VERTEX
  5
E4A9
  8
ALPHA
 10
34.895482
 20
75.532275
 30
0.0
  0
VERTEX
  5
E4AA
  8
ALPHA
 10
34.747908
 20
75.380604
 30
0.0
  0
VERTEX
  5
E4AB
  8
ALPHA
 10
34.558354
 20
75.192581
 30
0.0
  0
VERTEX
  5
E4AC
  8
ALPHA
 10
34.344256
 20
74.985504
 30
0.0
  0
SEQEND
  5
E4AD
  8
ALPHA
  0
POLYLINE
  5
D8FF
  8
ALPHA
 66
     1
 10
0.0
 20
0.0
 30
0.0
  0
VERTEX
  5
E4AE
  8
ALPHA
 10
34.069259
 20
77.321453
 30
0.0
  0
VERTEX
  5
E4AF
  8
ALPHA
 10
34.019845
 20
77.322652
 30
0.0
  0
VERTEX
  5
E4B0
  8
ALPHA
 10
33.889431
 20
77.298297
 30
0.0
  0
VERTEX
  5
E4B1
  8
ALPHA
 10
33.689639
 20
77.250561
 30
0.0
  0
VERTEX
  5
E4B2
  8
ALPHA
 10
33.438269
 20
77.183697
 30
0.0
  0
VERTEX
  5
E4B3
  8
ALPHA
 10
33.157719
 20
77.103661
 30
0.0
  0
SEQEND
  5
E4B4
  8
ALPHA
  0
POLYLINE
  5
D900
  8
ALPHA
 66
     1
 10
0.0
 20
0.0
 30
0.0
  0
VERTEX
  5
E4B5
  8
ALPHA
 10
34.081136
 20
77.281186
 30
0.0
  0
VERTEX
  5
E4B6
  8
ALPHA
 10
34.073191
 20
77.307948
 30
0.0
  0
VERTEX
  5
E4B7
  8
ALPHA
 10
34.018583
 20
77.49375
 30
0.0
  0
SEQEND
  5
E4B8
  8
ALPHA
  0
LINE
  5
D901
  8
ALPHA
 10
33.172724
 20
77.051818
 30
0.0
 11
33.157719
 21
77.103661
 31
0.0
  0
LINE
  5
D902
  8
ALPHA
 10
34.099623
 20
77.349648
 30
0.0
 11
34.069259
 21
77.321453
 31
0.0
  0
LINE
  5
D903
  8
ALPHA
 10
36.283494
 20
85.27456
 30
0.0
 11
29.575447
 21
85.27456
 31
0.0
  0
LINE
  5
D904
  8
ALPHA
 10
33.671756
 20
82.57456
 30
0.0
 11
31.689025
 21
82.57456
 31
0.0
  0
POLYLINE
  5
D905
  8
ALPHA
 66
     1
 10
0.0
 20
0.0
 30
0.0
  0
VERTEX
  5
E4B9
  8
ALPHA
 10
29.892776
 20
84.960541
 30
0.0
  0
VERTEX
  5
E4BA
  8
ALPHA
 10
29.792235
 20
84.984683
 30
0.0
  0
VERTEX
  5
E4BB
  8
ALPHA
 10
29.615026
 20
84.932947
 30
0.0
  0
VERTEX
  5
E4BC
  8
ALPHA
 10
29.374397
 20
84.809201
 30
0.0
  0
VERTEX
  5
E4BD
  8
ALPHA
 10
29.088338
 20
84.622695
 30
0.0
  0
VERTEX
  5
E4BE
  8
ALPHA
 10
28.778234
 20
84.387373
 30
0.0
  0
SEQEND
  5
E4BF
  8
ALPHA
  0
POLYLINE
  5
D906
  8
ALPHA
 66
     1
 10
0.0
 20
0.0
 30
0.0
  0
VERTEX
  5
E4C0
  8
ALPHA
 10
30.062897
 20
84.763971
 30
0.0
  0
VERTEX
  5
E4C1
  8
ALPHA
 10
30.006803
 20
84.829357
 30
0.0
  0
VERTEX
  5
E4C2
  8
ALPHA
 10
29.950148
 20
84.894824
 30
0.0
  0
VERTEX
  5
E4C3
  8
ALPHA
 10
29.892776
 20
84.960541
 30
0.0
  0
SEQEND
  5
E4C4
  8
ALPHA
  0
POLYLINE
  5
D907
  8
ALPHA
 66
     1
 10
0.0
 20
0.0
 30
0.0
  0
VERTEX
  5
E4C5
  8
ALPHA
 10
28.939949
 20
84.19698
 30
0.0
  0
VERTEX
  5
E4C6
  8
ALPHA
 10
28.886668
 20
84.260309
 30
0.0
  0
VERTEX
  5
E4C7
  8
ALPHA
 10
28.832801
 20
84.323719
 30
0.0
  0
VERTEX
  5
E4C8
  8
ALPHA
 10
28.778234
 20
84.387373
 30
0.0
  0
SEQEND
  5
E4C9
  8
ALPHA
  0
LINE
  5
D908
  8
ALPHA
 10
29.892776
 20
84.960541
 30
0.0
 11
29.910371
 21
84.976023
 31
0.0
  0
ARC
  5
D909
  8
ALPHA
 10
28.033494
 20
96.47456
 30
0.0
 40
15.0
 50
292.078969
 51
302.950817
  0
LINE
  5
D90A
  8
ALPHA
 10
36.283494
 20
84.055321
 30
0.0
 11
36.283494
 21
86.17456
 31
0.0
  0
LINE
  5
D90B
  8
ALPHA
 10
35.233494
 20
83.320464
 30
0.0
 11
35.233494
 21
83.038839
 31
0.0
  0
LINE
  5
D90D
  8
0
  6
CONTINUOUS
 62
     2
 10
4.42806
 20
101.22456
 30
0.0
 11
4.42806
 21
96.22456
 31
0.0
  0
LINE
  5
D90E
  8
ALPHA
 10
43.531923
 20
30.02456
 30
0.0
 11
43.531923
 21
70.725151
 31
0.0
  0
LINE
  5
D90F
  8
ALPHA
 10
43.478945
 20
72.042506
 30
0.0
 11
43.479052
 21
28.006962
 31
0.0
  0
LINE
  5
D910
  8
ALPHA
 10
42.636017
 20
72.00268
 30
0.0
 11
42.636017
 21
28.006962
 31
0.0
  0
LINE
  5
D912
  8
ALPHA
 10
38.61896
 20
23.987257
 30
0.0
 11
39.323748
 21
25.731667
 31
0.0
  0
POLYLINE
  5
D913
  8
ALPHA
 66
     1
 10
0.0
 20
0.0
 30
0.0
  0
VERTEX
  5
E4CA
  8
ALPHA
 10
39.174594
 20
24.54298
 30
0.0
  0
VERTEX
  5
E4CB
  8
ALPHA
 10
39.132225
 20
24.421435
 30
0.0
  0
VERTEX
  5
E4CC
  8
ALPHA
 10
39.105633
 20
24.295824
 30
0.0
  0
VERTEX
  5
E4CD
  8
ALPHA
 10
39.095229
 20
24.168373
 30
0.0
  0
SEQEND
  5
E4CE
  8
ALPHA
  0
POLYLINE
  5
D914
  8
ALPHA
 66
     1
 10
0.0
 20
0.0
 30
0.0
  0
VERTEX
  5
E4CF
  8
ALPHA
 10
43.416756
 20
23.624851
 30
0.0
  0
VERTEX
  5
E4D0
  8
ALPHA
 10
43.432513
 20
24.044029
 30
0.0
  0
VERTEX
  5
E4D1
  8
ALPHA
 10
43.448545
 20
24.902496
 30
0.0
  0
VERTEX
  5
E4D2
  8
ALPHA
 10
43.464373
 20
26.233444
 30
0.0
  0
VERTEX
  5
E4D3
  8
ALPHA
 10
43.479018
 20
27.988791
 30
0.0
  0
SEQEND
  5
E4D4
  8
ALPHA
  0
LINE
  5
D915
  8
ALPHA
 10
40.483494
 20
23.62456
 30
0.0
 11
40.483494
 21
26.82456
 31
0.0
  0
LINE
  5
D916
  8
ALPHA
 10
40.233494
 20
26.82456
 30
0.0
 11
40.233494
 21
23.72456
 31
0.0
  0
POLYLINE
  5
D917
  8
ALPHA
 66
     1
 10
0.0
 20
0.0
 30
0.0
  0
VERTEX
  5
E4D5
  8
ALPHA
 10
43.416734
 20
23.62456
 30
0.0
  0
VERTEX
  5
E4D6
  8
ALPHA
 10
43.353066
 20
23.642852
 30
0.0
  0
VERTEX
  5
E4D7
  8
ALPHA
 10
43.289052
 20
23.697722
 30
0.0
  0
VERTEX
  5
E4D8
  8
ALPHA
 10
43.224736
 20
23.78929
 30
0.0
  0
VERTEX
  5
E4D9
  8
ALPHA
 10
43.160172
 20
23.917828
 30
0.0
  0
VERTEX
  5
E4DA
  8
ALPHA
 10
43.095516
 20
24.083254
 30
0.0
  0
VERTEX
  5
E4DB
  8
ALPHA
 10
43.030908
 20
24.28493
 30
0.0
  0
VERTEX
  5
E4DC
  8
ALPHA
 10
42.96626
 20
24.522642
 30
0.0
  0
VERTEX
  5
E4DD
  8
ALPHA
 10
42.901525
 20
24.796066
 30
0.0
  0
VERTEX
  5
E4DE
  8
ALPHA
 10
42.836683
 20
25.10474
 30
0.0
  0
VERTEX
  5
E4DF
  8
ALPHA
 10
42.771698
 20
25.448174
 30
0.0
  0
VERTEX
  5
E4E0
  8
ALPHA
 10
42.706519
 20
25.825851
 30
0.0
  0
VERTEX
  5
E4E1
  8
ALPHA
 10
42.641182
 20
26.237013
 30
0.0
  0
VERTEX
  5
E4E2
  8
ALPHA
 10
42.5758
 20
26.681064
 30
0.0
  0
VERTEX
  5
E4E3
  8
ALPHA
 10
42.510498
 20
27.157585
 30
0.0
  0
SEQEND
  5
E4E4
  8
ALPHA
  0
ARC
  5
D918
  8
ALPHA
 10
38.155368
 20
24.17456
 30
0.0
 40
0.5
 50
270.0
 51
337.999998
  0
POLYLINE
  5
D919
  8
ALPHA
 66
     1
 10
0.0
 20
0.0
 30
0.0
  0
VERTEX
  5
E4E5
  8
ALPHA
 10
39.095229
 20
24.168373
 30
0.0
  0
VERTEX
  5
E4E6
  8
ALPHA
 10
39.089813
 20
23.872443
 30
0.0
  0
VERTEX
  5
E4E7
  8
ALPHA
 10
39.086971
 20
23.72456
 30
0.0
  0
SEQEND
  5
E4E8
  8
ALPHA
  0
LINE
  5
D91A
  8
ALPHA
 10
38.692136
 20
24.168373
 30
0.0
 11
39.095229
 21
24.168373
 31
0.0
  0
LINE
  5
D91B
  8
ALPHA
 10
38.360577
 20
23.72456
 30
0.0
 11
40.233494
 21
23.72456
 31
0.0
  0
LINE
  5
D91C
  8
ALPHA
 10
43.416734
 20
23.62456
 30
0.0
 11
40.483494
 21
23.62456
 31
0.0
  0
ARC
  5
D91D
  8
ALPHA
 10
36.542197
 20
26.855487
 30
0.0
 40
3.0
 50
338.0
 51
359.408712
  0
POLYLINE
  5
D91E
  8
ALPHA
 66
     1
 10
0.0
 20
0.0
 30
0.0
  0
VERTEX
  5
E4E9
  8
ALPHA
 10
39.546569
 20
25.430881
 30
0.0
  0
VERTEX
  5
E4EA
  8
ALPHA
 10
39.422055
 20
25.132608
 30
0.0
  0
VERTEX
  5
E4EB
  8
ALPHA
 10
39.298065
 20
24.836642
 30
0.0
  0
VERTEX
  5
E4EC
  8
ALPHA
 10
39.174594
 20
24.54298
 30
0.0
  0
SEQEND
  5
E4ED
  8
ALPHA
  0
POLYLINE
  5
D91F
  8
ALPHA
 66
     1
 10
0.0
 20
0.0
 30
0.0
  0
VERTEX
  5
E4EE
  8
ALPHA
 10
39.776211
 20
26.554701
 30
0.0
  0
VERTEX
  5
E4EF
  8
ALPHA
 10
39.748516
 20
26.171892
 30
0.0
  0
VERTEX
  5
E4F0
  8
ALPHA
 10
39.671562
 20
25.7952
 30
0.0
  0
VERTEX
  5
E4F1
  8
ALPHA
 10
39.546569
 20
25.430881
 30
0.0
  0
SEQEND
  5
E4F2
  8
ALPHA
  0
LINE
  5
D920
  8
ALPHA
 10
39.776211
 20
26.554701
 30
0.0
 11
39.777894
 21
26.82456
 31
0.0
  0
LINE
  5
D921
  8
ALPHA
 10
39.513826
 20
26.554701
 30
0.0
 11
39.776211
 21
26.554701
 31
0.0
  0
LINE
  5
D922
  8
ALPHA
 10
39.202222
 20
25.430881
 30
0.0
 11
39.546569
 21
25.430881
 31
0.0
  0
LINE
  5
D923
  8
ALPHA
 10
38.843487
 20
24.54298
 30
0.0
 11
39.174594
 21
24.54298
 31
0.0
  0
POLYLINE
  5
D924
  8
ALPHA
 66
     1
 10
0.0
 20
0.0
 30
0.0
  0
VERTEX
  5
E4F3
  8
ALPHA
 10
43.479017
 20
27.995906
 30
0.0
  0
VERTEX
  5
E4F4
  8
ALPHA
 10
43.438726
 20
27.918761
 30
0.0
  0
VERTEX
  5
E4F5
  8
ALPHA
 10
43.318534
 20
27.848319
 30
0.0
  0
VERTEX
  5
E4F6
  8
ALPHA
 10
43.128885
 20
27.790699
 30
0.0
  0
VERTEX
  5
E4F7
  8
ALPHA
 10
42.886253
 20
27.750905
 30
0.0
  0
VERTEX
  5
E4F8
  8
ALPHA
 10
42.61172
 20
27.732394
 30
0.0
  0
SEQEND
  5
E4F9
  8
ALPHA
  0
POLYLINE
  5
D925
  8
ALPHA
 66
     1
 10
0.0
 20
0.0
 30
0.0
  0
VERTEX
  5
E4FA
  8
ALPHA
 10
43.479007
 20
27.988943
 30
0.0
  0
VERTEX
  5
E4FB
  8
ALPHA
 10
43.446697
 20
27.789814
 30
0.0
  0
VERTEX
  5
E4FC
  8
ALPHA
 10
43.350045
 20
27.59384
 30
0.0
  0
VERTEX
  5
E4FD
  8
ALPHA
 10
43.195885
 20
27.42229
 30
0.0
  0
VERTEX
  5
E4FE
  8
ALPHA
 10
42.99513
 20
27.287026
 30
0.0
  0
VERTEX
  5
E4FF
  8
ALPHA
 10
42.761381
 20
27.196717
 30
0.0
  0
VERTEX
  5
E500
  8
ALPHA
 10
42.510499
 20
27.157584
 30
0.0
  0
SEQEND
  5
E501
  8
ALPHA
  0
POLYLINE
  5
D926
  8
ALPHA
 66
     1
 10
0.0
 20
0.0
 30
0.0
  0
VERTEX
  5
E502
  8
ALPHA
 10
42.61172
 20
27.732394
 30
0.0
  0
VERTEX
  5
E503
  8
ALPHA
 10
42.599065
 20
27.623641
 30
0.0
  0
VERTEX
  5
E504
  8
ALPHA
 10
42.583865
 20
27.513985
 30
0.0
  0
VERTEX
  5
E505
  8
ALPHA
 10
42.566712
 20
27.408788
 30
0.0
  0
VERTEX
  5
E506
  8
ALPHA
 10
42.548336
 20
27.312507
 30
0.0
  0
VERTEX
  5
E507
  8
ALPHA
 10
42.529405
 20
27.228303
 30
0.0
  0
VERTEX
  5
E508
  8
ALPHA
 10
42.510499
 20
27.157584
 30
0.0
  0
SEQEND
  5
E509
  8
ALPHA
  0
POLYLINE
  5
D927
  8
ALPHA
 66
     1
 10
0.0
 20
0.0
 30
0.0
  0
VERTEX
  5
E50A
  8
ALPHA
 10
42.636014
 20
28.006962
 30
0.0
  0
VERTEX
  5
E50B
  8
ALPHA
 10
42.624904
 20
27.868282
 30
0.0
  0
VERTEX
  5
E50C
  8
ALPHA
 10
42.61172
 20
27.732394
 30
0.0
  0
SEQEND
  5
E50D
  8
ALPHA
  0
LINE
  5
D928
  8
ALPHA
 10
43.479039
 20
28.006962
 30
0.0
 11
43.479031
 21
27.995906
 31
0.0
  0
LINE
  5
D929
  8
ALPHA
 10
43.451679
 20
27.988782
 30
0.0
 11
43.451737
 21
27.805732
 31
0.0
  0
LINE
  5
D92A
  8
ALPHA
 10
43.531923
 20
30.02456
 30
0.0
 11
43.479052
 21
30.02456
 31
0.0
  0
LINE
  5
D92B
  8
ALPHA
 10
43.479052
 20
28.006962
 30
0.0
 11
42.636017
 21
28.006962
 31
0.0
  0
ARC
  5
D92C
  8
ALPHA
 10
39.033494
 20
80.72456
 30
0.0
 40
2.1
 50
0.0
 51
180.0
  0
LINE
  5
D92D
  8
ALPHA
 10
43.533494
 20
85.948023
 30
0.0
 11
43.533494
 21
70.72456
 31
0.0
  0
LINE
  5
D92E
  8
ALPHA
 10
43.405197
 20
85.97979
 30
0.0
 11
43.405197
 21
73.019436
 31
0.0
  0
LINE
  5
D92F
  8
ALPHA
 10
42.905204
 20
85.97979
 30
0.0
 11
42.905204
 21
73.197011
 31
0.0
  0
ARC
  5
D930
  8
ALPHA
 10
39.033494
 20
78.72456
 30
0.0
 40
2.1
 50
270.0
 51
0.0
  0
POLYLINE
  5
D931
  8
ALPHA
 66
     1
 10
0.0
 20
0.0
 30
0.0
  0
VERTEX
  5
E50E
  8
ALPHA
 10
42.636017
 20
72.00268
 30
0.0
  0
VERTEX
  5
E50F
  8
ALPHA
 10
41.518372
 20
72.369753
 30
0.0
  0
VERTEX
  5
E510
  8
ALPHA
 10
40.393622
 20
72.706837
 30
0.0
  0
VERTEX
  5
E511
  8
ALPHA
 10
39.262196
 20
73.013981
 30
0.0
  0
VERTEX
  5
E512
  8
ALPHA
 10
38.124906
 20
73.291123
 30
0.0
  0
VERTEX
  5
E513
  8
ALPHA
 10
36.982199
 20
73.538294
 30
0.0
  0
SEQEND
  5
E514
  8
ALPHA
  0
POLYLINE
  5
D932
  8
ALPHA
 66
     1
 10
0.0
 20
0.0
 30
0.0
  0
VERTEX
  5
E515
  8
ALPHA
 10
42.833387
 20
72.950358
 30
0.0
  0
VERTEX
  5
E516
  8
ALPHA
 10
41.417473
 20
73.413895
 30
0.0
  0
VERTEX
  5
E517
  8
ALPHA
 10
39.990628
 20
73.829638
 30
0.0
  0
VERTEX
  5
E518
  8
ALPHA
 10
38.553868
 20
74.197637
 30
0.0
  0
VERTEX
  5
E519
  8
ALPHA
 10
37.108453
 20
74.517865
 30
0.0
  0
SEQEND
  5
E51A
  8
ALPHA
  0
POLYLINE
  5
D933
  8
ALPHA
 66
     1
 10
0.0
 20
0.0
 30
0.0
  0
VERTEX
  5
E51B
  8
ALPHA
 10
42.817466
 20
72.983046
 30
0.0
  0
VERTEX
  5
E51C
  8
ALPHA
 10
40.941868
 20
73.585315
 30
0.0
  0
VERTEX
  5
E51D
  8
ALPHA
 10
39.044246
 20
74.104857
 30
0.0
  0
SEQEND
  5
E51E
  8
ALPHA
  0
LINE
  5
D934
  8
ALPHA
 10
43.10016
 20
72.889528
 30
0.0
 11
38.169558
 21
74.323303
 31
0.0
  0
LINE
  5
D935
  8
ALPHA
 10
39.044246
 20
74.104857
 30
0.0
 11
37.128286
 21
74.541003
 31
0.0
  0
POLYLINE
  5
D936
  8
ALPHA
 66
     1
 10
0.0
 20
0.0
 30
0.0
  0
VERTEX
  5
E51F
  8
ALPHA
 10
36.725343
 20
73.660109
 30
0.0
  0
VERTEX
  5
E520
  8
ALPHA
 10
36.746692
 20
73.648895
 30
0.0
  0
VERTEX
  5
E521
  8
ALPHA
 10
36.769312
 20
73.636661
 30
0.0
  0
VERTEX
  5
E522
  8
ALPHA
 10
36.789581
 20
73.623728
 30
0.0
  0
VERTEX
  5
E523
  8
ALPHA
 10
36.806926
 20
73.609907
 30
0.0
  0
VERTEX
  5
E524
  8
ALPHA
 10
36.820474
 20
73.594585
 30
0.0
  0
VERTEX
  5
E525
  8
ALPHA
 10
36.827322
 20
73.577456
 30
0.0
  0
VERTEX
  5
E526
  8
ALPHA
 10
36.82288
 20
73.560779
 30
0.0
  0
VERTEX
  5
E527
  8
ALPHA
 10
36.808568
 20
73.548256
 30
0.0
  0
VERTEX
  5
E528
  8
ALPHA
 10
36.789506
 20
73.539739
 30
0.0
  0
VERTEX
  5
E529
  8
ALPHA
 10
36.767732
 20
73.533817
 30
0.0
  0
VERTEX
  5
E52A
  8
ALPHA
 10
36.743679
 20
73.52969
 30
0.0
  0
VERTEX
  5
E52B
  8
ALPHA
 10
36.717482
 20
73.526987
 30
0.0
  0
VERTEX
  5
E52C
  8
ALPHA
 10
36.689138
 20
73.525518
 30
0.0
  0
SEQEND
  5
E52D
  8
ALPHA
  0
POLYLINE
  5
D937
  8
ALPHA
 66
     1
 10
0.0
 20
0.0
 30
0.0
  0
VERTEX
  5
E52E
  8
ALPHA
 10
36.982199
 20
73.538294
 30
0.0
  0
VERTEX
  5
E52F
  8
ALPHA
 10
36.94054
 20
73.558873
 30
0.0
  0
VERTEX
  5
E530
  8
ALPHA
 10
36.902888
 20
73.577278
 30
0.0
  0
SEQEND
  5
E531
  8
ALPHA
  0
POLYLINE
  5
D938
  8
ALPHA
 66
     1
 10
0.0
 20
0.0
 30
0.0
  0
VERTEX
  5
E532
  8
ALPHA
 10
36.902888
 20
73.577278
 30
0.0
  0
VERTEX
  5
E533
  8
ALPHA
 10
36.818232
 20
73.617895
 30
0.0
  0
VERTEX
  5
E534
  8
ALPHA
 10
36.725343
 20
73.660109
 30
0.0
  0
SEQEND
  5
E535
  8
ALPHA
  0
POLYLINE
  5
D939
  8
ALPHA
 66
     1
 10
0.0
 20
0.0
 30
0.0
  0
VERTEX
  5
E536
  8
ALPHA
 10
37.108453
 20
74.517865
 30
0.0
  0
VERTEX
  5
E537
  8
ALPHA
 10
37.075098
 20
74.524826
 30
0.0
  0
VERTEX
  5
E538
  8
ALPHA
 10
37.041808
 20
74.53207
 30
0.0
  0
SEQEND
  5
E539
  8
ALPHA
  0
LINE
  5
D93A
  8
ALPHA
 10
38.169558
 20
74.323303
 30
0.0
 11
37.121727
 21
74.502688
 31
0.0
  0
LINE
  5
D93B
  8
ALPHA
 10
36.721271
 20
73.6609
 30
0.0
 11
36.598622
 21
73.684914
 31
0.0
  0
LINE
  5
D93C
  8
ALPHA
 10
36.598622
 20
73.684914
 30
0.0
 11
36.468492
 21
73.70998
 31
0.0
  0
LINE
  5
D93D
  8
ALPHA
 10
36.689138
 20
73.525518
 30
0.0
 11
36.555384
 21
73.551273
 31
0.0
  0
LINE
  5
D93E
  8
ALPHA
 10
36.468492
 20
73.70998
 30
0.0
 11
36.328633
 21
73.736454
 31
0.0
  0
LINE
  5
D93F
  8
ALPHA
 10
36.555384
 20
73.551273
 30
0.0
 11
36.420959
 21
73.576748
 31
0.0
  0
POLYLINE
  5
D940
  8
ALPHA
 66
     1
 10
0.0
 20
0.0
 30
0.0
  0
VERTEX
  5
E53A
  8
ALPHA
 10
37.108453
 20
74.517865
 30
0.0
  0
VERTEX
  5
E53B
  8
ALPHA
 10
37.120203
 20
74.464273
 30
0.0
  0
VERTEX
  5
E53C
  8
ALPHA
 10
37.111753
 20
74.322735
 30
0.0
  0
VERTEX
  5
E53D
  8
ALPHA
 10
37.083907
 20
74.106691
 30
0.0
  0
VERTEX
  5
E53E
  8
ALPHA
 10
37.039308
 20
73.836663
 30
0.0
  0
VERTEX
  5
E53F
  8
ALPHA
 10
36.982194
 20
73.538297
 30
0.0
  0
SEQEND
  5
E540
  8
ALPHA
  0
LINE
  5
D941
  8
ALPHA
 10
37.128286
 20
74.541003
 30
0.0
 11
37.108453
 21
74.517865
 31
0.0
  0
LINE
  5
D942
  8
ALPHA
 10
39.033494
 20
76.62456
 30
0.0
 11
38.033494
 21
76.62456
 31
0.0
  0
LINE
  5
D943
  8
ALPHA
 10
36.933494
 20
80.513414
 30
0.0
 11
36.933494
 21
80.72456
 31
0.0
  0
LINE
  5
D944
  8
ALPHA
 10
43.075769
 20
72.846871
 30
0.0
 11
43.282445
 21
72.637266
 31
0.0
  0
LINE
  5
D945
  8
ALPHA
 10
43.450805
 20
72.273731
 30
0.0
 11
43.440809
 21
72.310946
 31
0.0
  0
POLYLINE
  5
D946
  8
ALPHA
 66
     1
 10
0.0
 20
0.0
 30
0.0
  0
VERTEX
  5
E541
  8
ALPHA
 10
42.833373
 20
72.950316
 30
0.0
  0
VERTEX
  5
E542
  8
ALPHA
 10
42.849486
 20
72.893275
 30
0.0
  0
VERTEX
  5
E543
  8
ALPHA
 10
42.835214
 20
72.754177
 30
0.0
  0
VERTEX
  5
E544
  8
ALPHA
 10
42.791812
 20
72.545846
 30
0.0
  0
VERTEX
  5
E545
  8
ALPHA
 10
42.723313
 20
72.287471
 30
0.0
  0
VERTEX
  5
E546
  8
ALPHA
 10
42.636015
 20
72.00268
 30
0.0
  0
SEQEND
  5
E547
  8
ALPHA
  0
POLYLINE
  5
D947
  8
ALPHA
 66
     1
 10
0.0
 20
0.0
 30
0.0
  0
VERTEX
  5
E548
  8
ALPHA
 10
43.440809
 20
72.310946
 30
0.0
  0
VERTEX
  5
E549
  8
ALPHA
 10
43.42906
 20
72.348525
 30
0.0
  0
VERTEX
  5
E54A
  8
ALPHA
 10
43.415606
 20
72.386051
 30
0.0
  0
VERTEX
  5
E54B
  8
ALPHA
 10
43.40055
 20
72.423113
 30
0.0
  0
SEQEND
  5
E54C
  8
ALPHA
  0
LINE
  5
D948
  8
ALPHA
 10
43.433311
 20
72.335538
 30
0.0
 11
43.386413
 21
72.454383
 31
0.0
  0
LINE
  5
D949
  8
ALPHA
 10
43.40055
 20
72.423113
 30
0.0
 11
43.384054
 21
72.459325
 31
0.0
  0
LINE
  5
D94A
  8
ALPHA
 10
43.386422
 20
72.454387
 30
0.0
 11
43.370267
 21
72.48848
 31
0.0
  0
LINE
  5
D94B
  8
ALPHA
 10
43.386413
 20
72.454383
 30
0.0
 11
43.379354
 21
72.468963
 31
0.0
  0
LINE
  5
D94C
  8
ALPHA
 10
42.817466
 20
72.983046
 30
0.0
 11
42.833387
 21
72.950358
 31
0.0
  0
POLYLINE
  5
D94D
  8
ALPHA
 66
     1
 10
0.0
 20
0.0
 30
0.0
  0
VERTEX
  5
E54D
  8
ALPHA
 10
43.409357
 20
72.571597
 30
0.0
  0
VERTEX
  5
E54E
  8
ALPHA
 10
43.339891
 20
72.7094
 30
0.0
  0
VERTEX
  5
E54F
  8
ALPHA
 10
43.232872
 20
72.81859
 30
0.0
  0
VERTEX
  5
E550
  8
ALPHA
 10
43.10016
 20
72.889528
 30
0.0
  0
SEQEND
  5
E551
  8
ALPHA
  0
LINE
  5
D94E
  8
ALPHA
 10
43.282445
 20
72.637266
 30
0.0
 11
43.370162
 21
72.488434
 31
0.0
  0
POLYLINE
  5
D94F
  8
ALPHA
 66
     1
 10
0.0
 20
0.0
 30
0.0
  0
VERTEX
  5
E552
  8
ALPHA
 10
43.379354
 20
72.468963
 30
0.0
  0
VERTEX
  5
E553
  8
ALPHA
 10
43.301015
 20
72.599968
 30
0.0
  0
VERTEX
  5
E554
  8
ALPHA
 10
43.094504
 20
72.811587
 30
0.0
  0
VERTEX
  5
E555
  8
ALPHA
 10
42.833373
 20
72.950316
 30
0.0
  0
SEQEND
  5
E556
  8
ALPHA
  0
LINE
  5
D950
  8
ALPHA
 10
42.817466
 20
72.983046
 30
0.0
 11
43.075769
 21
72.846871
 31
0.0
  0
LINE
  5
D951
  8
ALPHA
 10
43.405197
 20
73.019436
 30
0.0
 11
43.415412
 21
73.015739
 31
0.0
  0
LINE
  5
D952
  8
ALPHA
 10
43.478838
 20
72.043386
 30
0.0
 11
43.433311
 21
72.335538
 31
0.0
  0
LINE
  5
D953
  8
ALPHA
 10
43.433494
 20
72.418124
 30
0.0
 11
43.409357
 21
72.571597
 31
0.0
  0
LINE
  5
D954
  8
ALPHA
 10
43.459059
 20
72.237313
 30
0.0
 11
43.450805
 21
72.273731
 31
0.0
  0
LINE
  5
D955
  8
ALPHA
 10
43.533494
 20
70.72456
 30
0.0
 11
43.531923
 21
70.725151
 31
0.0
  0
LINE
  5
D956
  8
ALPHA
 10
43.479052
 20
72.00268
 30
0.0
 11
42.636017
 21
72.00268
 31
0.0
  0
LINE
  5
D957
  8
ALPHA
 10
43.433494
 20
72.418124
 30
0.0
 11
43.433493
 21
72.043386
 31
0.0
  0
LINE
  5
D958
  8
ALPHA
 10
43.415412
 20
73.015739
 30
0.0
 11
43.416046
 21
72.529065
 31
0.0
  0
POLYLINE
  5
D959
  8
ALPHA
 66
     1
 10
0.0
 20
0.0
 30
0.0
  0
VERTEX
  5
E557
  8
ALPHA
 10
43.478945
 20
72.042506
 30
0.0
  0
VERTEX
  5
E558
  8
ALPHA
 10
43.478739
 20
72.059697
 30
0.0
  0
VERTEX
  5
E559
  8
ALPHA
 10
43.478079
 20
72.08215
 30
0.0
  0
VERTEX
  5
E55A
  8
ALPHA
 10
43.476659
 20
72.108315
 30
0.0
  0
VERTEX
  5
E55B
  8
ALPHA
 10
43.474246
 20
72.137337
 30
0.0
  0
VERTEX
  5
E55C
  8
ALPHA
 10
43.470642
 20
72.168678
 30
0.0
  0
VERTEX
  5
E55D
  8
ALPHA
 10
43.465631
 20
72.202157
 30
0.0
  0
VERTEX
  5
E55E
  8
ALPHA
 10
43.459059
 20
72.237313
 30
0.0
  0
SEQEND
  5
E55F
  8
ALPHA
  0
LINE
  5
D95A
  8
ALPHA
 10
41.133494
 20
80.72456
 30
0.0
 11
41.133494
 21
78.72456
 31
0.0
  0
ARC
  5
D95B
  8
ALPHA
 10
36.033494
 20
84.62456
 30
0.0
 40
0.5
 50
16.25949
 51
59.915828
  0
POLYLINE
  5
D95C
  8
ALPHA
 66
     1
 10
0.0
 20
0.0
 30
0.0
  0
VERTEX
  5
E560
  8
ALPHA
 10
36.533494
 20
84.661763
 30
0.0
  0
VERTEX
  5
E561
  8
ALPHA
 10
37.382198
 20
84.659213
 30
0.0
  0
VERTEX
  5
E562
  8
ALPHA
 10
38.242579
 20
84.656372
 30
0.0
  0
SEQEND
  5
E563
  8
ALPHA
  0
LINE
  5
D95D
  8
ALPHA
 10
37.533494
 20
84.97456
 30
0.0
 11
36.389526
 21
84.97456
 31
0.0
  0
LINE
  5
D95E
  8
ALPHA
 10
38.150028
 20
84.907631
 30
0.0
 11
36.445647
 21
84.907631
 31
0.0
  0
LINE
  5
D95F
  8
ALPHA
 10
38.150028
 20
84.841488
 30
0.0
 11
36.483984
 21
84.841488
 31
0.0
  0
POLYLINE
  5
D960
  8
ALPHA
 66
     1
 10
0.0
 20
0.0
 30
0.0
  0
VERTEX
  5
E564
  8
ALPHA
 10
37.533494
 20
85.057888
 30
0.0
  0
VERTEX
  5
E565
  8
ALPHA
 10
37.73357
 20
85.082625
 30
0.0
  0
VERTEX
  5
E566
  8
ALPHA
 10
37.933494
 20
85.110566
 30
0.0
  0
SEQEND
  5
E567
  8
ALPHA
  0
POLYLINE
  5
D961
  8
ALPHA
 66
     1
 10
0.0
 20
0.0
 30
0.0
  0
VERTEX
  5
E568
  8
ALPHA
 10
38.242579
 20
84.656372
 30
0.0
  0
VERTEX
  5
E569
  8
ALPHA
 10
37.382156
 20
84.493627
 30
0.0
  0
VERTEX
  5
E56A
  8
ALPHA
 10
36.533494
 20
84.347601
 30
0.0
  0
SEQEND
  5
E56B
  8
ALPHA
  0
LINE
  5
D962
  8
ALPHA
 10
38.242579
 20
84.656372
 30
0.0
 11
38.150028
 21
84.841488
 31
0.0
  0
LINE
  5
D963
  8
ALPHA
 10
38.242579
 20
84.656372
 30
0.0
 11
38.242579
 21
86.17456
 31
0.0
  0
LINE
  5
D964
  8
ALPHA
 10
38.150028
 20
84.841488
 30
0.0
 11
38.150028
 21
86.17456
 31
0.0
  0
LINE
  5
D965
  8
ALPHA
 10
37.933494
 20
85.110566
 30
0.0
 11
37.933494
 21
86.17456
 31
0.0
  0
LINE
  5
D966
  8
ALPHA
 10
37.633494
 20
85.070252
 30
0.0
 11
37.633494
 21
84.907631
 31
0.0
  0
LINE
  5
D967
  8
ALPHA
 10
37.533494
 20
84.974566
 30
0.0
 11
37.533494
 21
85.057888
 31
0.0
  0
LINE
  5
D968
  8
ALPHA
 10
36.933494
 20
86.17456
 30
0.0
 11
36.933494
 21
85.57456
 31
0.0
  0
LINE
  5
D969
  8
ALPHA
 10
36.533494
 20
83.815353
 30
0.0
 11
36.533494
 21
84.673827
 31
0.0
  0
POLYLINE
  5
D96A
  8
ALPHA
 66
     1
 10
0.0
 20
0.0
 30
0.0
  0
VERTEX
  5
E56C
  8
ALPHA
 10
42.774895
 20
86.918452
 30
0.0
  0
VERTEX
  5
E56D
  8
ALPHA
 10
43.02045
 20
86.82145
 30
0.0
  0
VERTEX
  5
E56E
  8
ALPHA
 10
43.233784
 20
86.66188
 30
0.0
  0
VERTEX
  5
E56F
  8
ALPHA
 10
43.395293
 20
86.45527
 30
0.0
  0
VERTEX
  5
E570
  8
ALPHA
 10
43.498641
 20
86.209727
 30
0.0
  0
VERTEX
  5
E571
  8
ALPHA
 10
43.533494
 20
85.948023
 30
0.0
  0
SEQEND
  5
E572
  8
ALPHA
  0
POLYLINE
  5
D96B
  8
ALPHA
 66
     1
 10
0.0
 20
0.0
 30
0.0
  0
VERTEX
  5
E573
  8
ALPHA
 10
42.644476
 20
86.950744
 30
0.0
  0
VERTEX
  5
E574
  8
ALPHA
 10
42.765699
 20
86.912552
 30
0.0
  0
VERTEX
  5
E575
  8
ALPHA
 10
42.893752
 20
86.852325
 30
0.0
  0
VERTEX
  5
E576
  8
ALPHA
 10
43.020536
 20
86.768053
 30
0.0
  0
VERTEX
  5
E577
  8
ALPHA
 10
43.137713
 20
86.660539
 30
0.0
  0
VERTEX
  5
E578
  8
ALPHA
 10
43.237782
 20
86.533685
 30
0.0
  0
VERTEX
  5
E579
  8
ALPHA
 10
43.31535
 20
86.394062
 30
0.0
  0
VERTEX
  5
E57A
  8
ALPHA
 10
43.368055
 20
86.249798
 30
0.0
  0
VERTEX
  5
E57B
  8
ALPHA
 10
43.396786
 20
86.109218
 30
0.0
  0
VERTEX
  5
E57C
  8
ALPHA
 10
43.405197
 20
85.97979
 30
0.0
  0
SEQEND
  5
E57D
  8
ALPHA
  0
POLYLINE
  5
D96C
  8
ALPHA
 66
     1
 10
0.0
 20
0.0
 30
0.0
  0
VERTEX
  5
E57E
  8
ALPHA
 10
42.524836
 20
86.465269
 30
0.0
  0
VERTEX
  5
E57F
  8
ALPHA
 10
42.585471
 20
86.446164
 30
0.0
  0
VERTEX
  5
E580
  8
ALPHA
 10
42.649513
 20
86.416038
 30
0.0
  0
VERTEX
  5
E581
  8
ALPHA
 10
42.712897
 20
86.373901
 30
0.0
  0
VERTEX
  5
E582
  8
ALPHA
 10
42.771462
 20
86.320162
 30
0.0
  0
VERTEX
  5
E583
  8
ALPHA
 10
42.821475
 20
86.256767
 30
0.0
  0
VERTEX
  5
E584
  8
ALPHA
 10
42.860255
 20
86.186979
 30
0.0
  0
VERTEX
  5
E585
  8
ALPHA
 10
42.886618
 20
86.114846
 30
0.0
  0
VERTEX
  5
E586
  8
ALPHA
 10
42.900995
 20
86.044532
 30
0.0
  0
VERTEX
  5
E587
  8
ALPHA
 10
42.905204
 20
85.97979
 30
0.0
  0
SEQEND
  5
E588
  8
ALPHA
  0
LINE
  5
D96D
  8
ALPHA
 10
43.533494
 20
85.948023
 30
0.0
 11
43.405197
 21
85.97979
 31
0.0
  0
LINE
  5
D96E
  8
ALPHA
 10
43.405197
 20
85.97979
 30
0.0
 11
42.905204
 21
85.97979
 31
0.0
  0
LINE
  5
D96F
  8
ALPHA
 10
42.644476
 20
86.950744
 30
0.0
 11
42.524836
 21
86.465269
 31
0.0
  0
LINE
  5
D9B7
  8
AXE
 10
28.033494
 20
12.888406
 30
0.0
 11
28.033494
 21
93.72456
 31
0.0
  0
LINE
  5
D9B8
  8
AXE
 10
7.633494
 20
56.07456
 30
0.0
 11
53.433494
 21
56.07456
 31
0.0
  0
TEXT
  5
D9B9
  8
AXE
 10
49.385874
 20
57.07456
 30
0.0
 40
5.0
  1
X
 72
     2
 11
53.433494
 21
57.07456
 31
0.0
  0
DIMENSION
  5
D9BA
  8
COTATION1
  2
*D4
 10
63.433494
 20
23.62456
 30
0.0
 11
63.433494
 21
56.17456
 31
0.0
 13
36.033537
 23
88.72456
 33
0.0
 14
43.416734
 24
23.62456
 34
0.0
 50
90.0
  0
DIMENSION
  5
D9BD
  8
COTATION1
  2
*D3
 10
43.531923
 20
2.888406
 30
0.0
 11
28.033494
 21
6.138406
 31
0.0
 13
12.535064
 23
30.02456
 33
0.0
 14
43.531923
 24
30.02456
 34
0.0
  0
TEXT
  5
D9C0
  8
AXE
 10
22.985874
 20
12.888406
 30
0.0
 40
5.0
  1
Y
 72
     2
 11
27.033494
 21
12.888406
 31
0.0
  0
VIEWPORT
  5
494D
 67
     1
  8
0
 10
4.995325
 20
6.556512
 30
0.0
 40
22.70986
 41
13.988421
 68
    -1
 69
     1
1001
ACAD
1000
MVIEW
1002
{
1070
    16
1010
0.0
1020
0.0
1030
0.0
1010
0.0
1020
0.0
1030
1.0
1040
0.0
1040
13.988421
1040
4.995325
1040
6.556512
1040
50.0
1040
0.0
1040
0.0
1070
     0
1070
   100
1070
     1
1070
     1
1070
     0
1070
     0
1070
     0
1070
     0
1040
0.0
1040
0.0
1040
0.0
1040
10.0
1040
10.0
1040
10.0
1040
10.0
1070
     0
1002
{
1002
}
1002
}
  0
ENDSEC
  0
EOF
