  0
SECTION
  2
HEADER
  9
$ACADVER
  1
AC1015
  9
$ACADMAINTVER
 70
     6
  9
$DWGCODEPAGE
  3
ANSI_1252
  9
$INSBASE
 10
0.0
 20
0.0
 30
0.0
  9
$EXTMIN
 10
0.0
 20
0.0
 30
0.0
  9
$EXTMAX
 10
16.40000099999999
 20
10.25
 30
0.0
  9
$LIMMIN
 10
0.0
 20
0.0
  9
$LIMMAX
 10
32.80000199999999
 20
20.5
  9
$ORTHOMODE
 70
     0
  9
$REGENMODE
 70
     1
  9
$FILLMODE
 70
     1
  9
$QTEXTMODE
 70
     0
  9
$MIRRTEXT
 70
     1
  9
$LTSCALE
 40
1.0
  9
$ATTMODE
 70
     1
  9
$TEXTSIZE
 40
0.2
  9
$TRACEWID
 40
0.05
  9
$TEXTSTYLE
  7
ROMANS
  9
$CLAYER
  8
TEXT1
  9
$CELTYPE
  6
BYLAYER
  9
$CECOLOR
 62
   256
  9
$CELTSCALE
 40
1.0
  9
$DISPSILH
 70
     0
  9
$DIMSCALE
 40
0.0
  9
$DIMASZ
 40
0.07
  9
$DIMEXO
 40
0.0625
  9
$DIMDLI
 40
0.38
  9
$DIMRND
 40
0.01
  9
$DIMDLE
 40
0.0
  9
$DIMEXE
 40
0.0625
  9
$DIMTP
 40
0.0
  9
$DIMTM
 40
0.0
  9
$DIMTXT
 40
0.08
  9
$DIMCEN
 40
0.09
  9
$DIMTSZ
 40
0.0
  9
$DIMTOL
 70
     0
  9
$DIMLIM
 70
     0
  9
$DIMTIH
 70
     1
  9
$DIMTOH
 70
     1
  9
$DIMSE1
 70
     0
  9
$DIMSE2
 70
     0
  9
$DIMTAD
 70
     0
  9
$DIMZIN
 70
     4
  9
$DIMBLK
  1

  9
$DIMASO
 70
     1
  9
$DIMSHO
 70
     1
  9
$DIMPOST
  1

  9
$DIMAPOST
  1

  9
$DIMALT
 70
     0
  9
$DIMALTD
 70
     1
  9
$DIMALTF
 40
25.4
  9
$DIMLFAC
 40
1.0
  9
$DIMTOFL
 70
     0
  9
$DIMTVP
 40
0.0
  9
$DIMTIX
 70
     0
  9
$DIMSOXD
 70
     0
  9
$DIMSAH
 70
     0
  9
$DIMBLK1
  1

  9
$DIMBLK2
  1

  9
$DIMSTYLE
  2
SCHNEIDERELECTRIC
  9
$DIMCLRD
 70
   256
  9
$DIMCLRE
 70
   256
  9
$DIMCLRT
 70
   256
  9
$DIMTFAC
 40
1.0
  9
$DIMGAP
 40
0.04
  9
$DIMJUST
 70
     0
  9
$DIMSD1
 70
     0
  9
$DIMSD2
 70
     0
  9
$DIMTOLJ
 70
     1
  9
$DIMTZIN
 70
     4
  9
$DIMALTZ
 70
     4
  9
$DIMALTTZ
 70
     4
  9
$DIMUPT
 70
     0
  9
$DIMDEC
 70
     4
  9
$DIMTDEC
 70
     4
  9
$DIMALTU
 70
     2
  9
$DIMALTTD
 70
     1
  9
$DIMTXSTY
  7
ROMANS
  9
$DIMAUNIT
 70
     0
  9
$DIMADEC
 70
     0
  9
$DIMALTRND
 40
0.0
  9
$DIMAZIN
 70
     0
  9
$DIMDSEP
 70
    46
  9
$DIMATFIT
 70
     3
  9
$DIMFRAC
 70
     0
  9
$DIMLDRBLK
  1

  9
$DIMLUNIT
 70
     2
  9
$DIMLWD
 70
    -2
  9
$DIMLWE
 70
    -2
  9
$DIMTMOVE
 70
     2
  9
$LUNITS
 70
     2
  9
$LUPREC
 70
     4
  9
$SKETCHINC
 40
0.1
  9
$FILLETRAD
 40
0.5
  9
$AUNITS
 70
     0
  9
$AUPREC
 70
     0
  9
$MENU
  1
.
  9
$ELEVATION
 40
0.0
  9
$PELEVATION
 40
0.0
  9
$THICKNESS
 40
0.0
  9
$LIMCHECK
 70
     0
  9
$CHAMFERA
 40
0.5
  9
$CHAMFERB
 40
0.5
  9
$CHAMFERC
 40
0.0
  9
$CHAMFERD
 40
0.0
  9
$SKPOLY
 70
     0
  9
$TDCREATE
 40
2451764.535041909
  9
$TDUCREATE
 40
2451764.785041909
  9
$TDUPDATE
 40
2452172.218730937
  9
$TDUUPDATE
 40
2452172.468730938
  9
$TDINDWG
 40
0.3078612153
  9
$TDUSRTIMER
 40
0.3078609838
  9
$USRTIMER
 70
     1
  9
$ANGBASE
 50
0.0
  9
$ANGDIR
 70
     0
  9
$PDMODE
 70
     0
  9
$PDSIZE
 40
0.0
  9
$PLINEWID
 40
0.0
  9
$SPLFRAME
 70
     0
  9
$SPLINETYPE
 70
     6
  9
$SPLINESEGS
 70
     8
  9
$HANDSEED
  5
40B5
  9
$SURFTAB1
 70
     6
  9
$SURFTAB2
 70
     6
  9
$SURFTYPE
 70
     6
  9
$SURFU
 70
     6
  9
$SURFV
 70
     6
  9
$UCSBASE
  2

  9
$UCSNAME
  2

  9
$UCSORG
 10
0.0
 20
0.0
 30
0.0
  9
$UCSXDIR
 10
1.0
 20
0.0
 30
0.0
  9
$UCSYDIR
 10
0.0
 20
1.0
 30
0.0
  9
$UCSORTHOREF
  2

  9
$UCSORTHOVIEW
 70
     0
  9
$UCSORGTOP
 10
0.0
 20
0.0
 30
0.0
  9
$UCSORGBOTTOM
 10
0.0
 20
0.0
 30
0.0
  9
$UCSORGLEFT
 10
0.0
 20
0.0
 30
0.0
  9
$UCSORGRIGHT
 10
0.0
 20
0.0
 30
0.0
  9
$UCSORGFRONT
 10
0.0
 20
0.0
 30
0.0
  9
$UCSORGBACK
 10
0.0
 20
0.0
 30
0.0
  9
$PUCSBASE
  2

  9
$PUCSNAME
  2

  9
$PUCSORG
 10
0.0
 20
0.0
 30
0.0
  9
$PUCSXDIR
 10
1.0
 20
0.0
 30
0.0
  9
$PUCSYDIR
 10
0.0
 20
1.0
 30
0.0
  9
$PUCSORTHOREF
  2

  9
$PUCSORTHOVIEW
 70
     0
  9
$PUCSORGTOP
 10
0.0
 20
0.0
 30
0.0
  9
$PUCSORGBOTTOM
 10
0.0
 20
0.0
 30
0.0
  9
$PUCSORGLEFT
 10
0.0
 20
0.0
 30
0.0
  9
$PUCSORGRIGHT
 10
0.0
 20
0.0
 30
0.0
  9
$PUCSORGFRONT
 10
0.0
 20
0.0
 30
0.0
  9
$PUCSORGBACK
 10
0.0
 20
0.0
 30
0.0
  9
$USERI1
 70
     0
  9
$USERI2
 70
     0
  9
$USERI3
 70
     0
  9
$USERI4
 70
     0
  9
$USERI5
 70
     0
  9
$USERR1
 40
0.0
  9
$USERR2
 40
0.0
  9
$USERR3
 40
0.0
  9
$USERR4
 40
0.0
  9
$USERR5
 40
0.0
  9
$WORLDVIEW
 70
     1
  9
$SHADEDGE
 70
     3
  9
$SHADEDIF
 70
    70
  9
$TILEMODE
 70
     0
  9
$MAXACTVP
 70
    48
  9
$PINSBASE
 10
0.0
 20
0.0
 30
0.0
  9
$PLIMCHECK
 70
     0
  9
$PEXTMIN
 10
-0.0006172815800483
 20
-0.1512717527199463
 30
-0.0015258207003583
  9
$PEXTMAX
 10
16.40120720521414
 20
10.25018675959692
 30
0.0000000349246037
  9
$PLIMMIN
 10
-0.4408945311769357
 20
-0.5915497370181854
  9
$PLIMMAX
 10
16.7788669459601
 20
12.71462950073154
  9
$UNITMODE
 70
     0
  9
$VISRETAIN
 70
     1
  9
$PLINEGEN
 70
     0
  9
$PSLTSCALE
 70
     1
  9
$TREEDEPTH
 70
  3020
  9
$CMLSTYLE
  2
STANDARD
  9
$CMLJUST
 70
     0
  9
$CMLSCALE
 40
1.0
  9
$PROXYGRAPHICS
 70
     1
  9
$MEASUREMENT
 70
     0
  9
$CELWEIGHT
370
    -1
  9
$ENDCAPS
280
     0
  9
$JOINSTYLE
280
     0
  9
$LWDISPLAY
290
     0
  9
$INSUNITS
 70
     0
  9
$HYPERLINKBASE
  1

  9
$STYLESHEET
  1

  9
$XEDIT
290
     1
  9
$CEPSNTYPE
380
     0
  9
$PSTYLEMODE
290
     1
  9
$FINGERPRINTGUID
  2
{8985C540-ACEF-11D5-B163-000629A2B5F4}
  9
$VERSIONGUID
  2
{8985C542-ACEF-11D5-B163-000629A2B5F4}
  9
$EXTNAMES
290
     1
  9
$PSVPSCALE
 40
0.0
  9
$OLESTARTUP
290
     0
  0
ENDSEC
  0
SECTION
  2
CLASSES
  0
CLASS
  1
DICTIONARYVAR
  2
AcDbDictionaryVar
  3
AutoCAD 2000
 90
        0
280
     0
281
     0
  0
CLASS
  1
LWPOLYLINE
  2
AcDbPolyline
  3
AutoCAD 2000
 90
    32768
280
     0
281
     1
  0
CLASS
  1
HATCH
  2
AcDbHatch
  3
AutoCAD 2000
 90
    32768
280
     0
281
     1
  0
CLASS
  1
ACDBDICTIONARYWDFLT
  2
AcDbDictionaryWithDefault
  3
AutoCAD 2000
 90
        0
280
     0
281
     0
  0
CLASS
  1
ACDBPLACEHOLDER
  2
AcDbPlaceHolder
  3
AutoCAD 2000
 90
        0
280
     0
281
     0
  0
CLASS
  1
LAYOUT
  2
AcDbLayout
  3
AutoCAD 2000
 90
        0
280
     0
281
     0
  0
ENDSEC
  0
SECTION
  2
TABLES
  0
TABLE
  2
VPORT
  5
4022
330
0
100
AcDbSymbolTable
 70
     1
  0
VPORT
  5
4052
330
4022
100
AcDbSymbolTableRecord
100
AcDbViewportTableRecord
  2
*ACTIVE
 70
     0
 10
0.0
 20
0.0
 11
1.0
 21
1.0
 12
8.199500078510055
 22
5.12468723658785
 13
0.0
 23
0.0
 14
0.5
 24
0.5
 15
0.5
 25
0.5
 16
0.0
 26
0.0
 36
1.0
 17
0.0
 27
0.0
 37
0.0
 40
10.34568549577755
 41
1.724458204334365
 42
50.0
 43
0.0
 44
0.0
 50
0.0
 51
0.0
 71
     0
 72
   100
 73
     1
 74
     2
 75
     0
 76
     0
 77
     0
 78
     0
281
     0
 65
     1
110
0.0
120
0.0
130
0.0
111
1.0
121
0.0
131
0.0
112
0.0
122
1.0
132
0.0
 79
     0
146
0.0
  0
ENDTAB
  0
TABLE
  2
LTYPE
  5
401F
330
0
100
AcDbSymbolTable
 70
     2
  0
LTYPE
  5
402B
330
401F
100
AcDbSymbolTableRecord
100
AcDbLinetypeTableRecord
  2
BYBLOCK
 70
     0
  3

 72
    65
 73
     0
 40
0.0
  0
LTYPE
  5
402C
330
401F
100
AcDbSymbolTableRecord
100
AcDbLinetypeTableRecord
  2
BYLAYER
 70
     0
  3

 72
    65
 73
     0
 40
0.0
  0
LTYPE
  5
402D
330
401F
100
AcDbSymbolTableRecord
100
AcDbLinetypeTableRecord
  2
CONTINUOUS
 70
     0
  3
Solid line
 72
    65
 73
     0
 40
0.0
  0
LTYPE
  5
4051
330
401F
100
AcDbSymbolTableRecord
100
AcDbLinetypeTableRecord
  2
CENTER2
 70
     0
  3
Center (.5x) ___ _ ___ _ ___ _ ___ _ ___ _ ___
 72
    65
 73
     4
 40
1.125
 49
0.75
 74
     0
 49
-0.125
 74
     0
 49
0.125
 74
     0
 49
-0.125
 74
     0
  0
ENDTAB
  0
TABLE
  2
LAYER
  5
401C
330
0
100
AcDbSymbolTable
 70
    14
  0
LAYER
  5
4028
330
401C
100
AcDbSymbolTableRecord
100
AcDbLayerTableRecord
  2
0
 70
     0
 62
     7
  6
CONTINUOUS
370
    -3
390
4079
  0
LAYER
  5
4061
330
401C
100
AcDbSymbolTableRecord
100
AcDbLayerTableRecord
  2
CENTER2
 70
     0
 62
    50
  6
CENTER2
370
    -3
390
4079
  0
LAYER
  5
4062
330
401C
100
AcDbSymbolTableRecord
100
AcDbLayerTableRecord
  2
CONTINUOUS1
 70
     0
 62
     7
  6
CONTINUOUS
370
    -3
390
4079
  0
LAYER
  5
4063
330
401C
100
AcDbSymbolTableRecord
100
AcDbLayerTableRecord
  2
CONTINUOUS2
 70
     0
 62
   254
  6
CONTINUOUS
370
    -3
390
4079
  0
LAYER
  5
4064
330
401C
100
AcDbSymbolTableRecord
100
AcDbLayerTableRecord
  2
CONTINUOUS3
 70
     0
 62
   253
  6
CONTINUOUS
370
    -3
390
4079
  0
LAYER
  5
4065
330
401C
100
AcDbSymbolTableRecord
100
AcDbLayerTableRecord
  2
DIM
 70
     0
 62
     2
  6
CONTINUOUS
370
    -3
390
4079
  0
LAYER
  5
4066
330
401C
100
AcDbSymbolTableRecord
100
AcDbLayerTableRecord
  2
TEXT1
 70
     0
 62
     3
  6
CONTINUOUS
370
    -3
390
4079
  0
LAYER
  5
4067
330
401C
100
AcDbSymbolTableRecord
100
AcDbLayerTableRecord
  2
TEXT2
 70
     0
 62
    80
  6
CONTINUOUS
370
    -3
390
4079
  0
LAYER
  5
4068
330
401C
100
AcDbSymbolTableRecord
100
AcDbLayerTableRecord
  2
TITLEBLOCK
 70
     0
 62
     9
  6
CONTINUOUS
370
    -3
390
4079
  0
LAYER
  5
4069
330
401C
100
AcDbSymbolTableRecord
100
AcDbLayerTableRecord
  2
VIEWPORT
 70
     0
 62
     9
  6
CONTINUOUS
370
    -3
390
4079
  0
LAYER
  5
406A
330
401C
100
AcDbSymbolTableRecord
100
AcDbLayerTableRecord
  2
REFERENCE
 70
     0
 62
     2
  6
CONTINUOUS
370
    -3
390
4079
  0
LAYER
  5
406B
330
401C
100
AcDbSymbolTableRecord
100
AcDbLayerTableRecord
  2
DEFPOINTS
 70
     0
 62
     7
  6
CONTINUOUS
290
     0
370
    -3
390
4079
  0
LAYER
  5
406C
330
401C
100
AcDbSymbolTableRecord
100
AcDbLayerTableRecord
  2
BORDER
 70
     0
 62
     9
  6
CONTINUOUS
370
    -3
390
4079
  0
LAYER
  5
406D
330
401C
100
AcDbSymbolTableRecord
100
AcDbLayerTableRecord
  2
DETAIL
 70
     0
 62
     3
  6
CONTINUOUS
370
    -3
390
4079
  0
ENDTAB
  0
TABLE
  2
STYLE
  5
401D
330
0
100
AcDbSymbolTable
 70
     4
  0
STYLE
  5
4029
330
401D
100
AcDbSymbolTableRecord
100
AcDbTextStyleTableRecord
  2
STANDARD
 70
     0
 40
0.0
 41
1.0
 50
0.0
 71
     0
 42
0.2
  3
txt
  4

  0
STYLE
  5
404E
330
401D
100
AcDbSymbolTableRecord
100
AcDbTextStyleTableRecord
  2
ROMANS
 70
     0
 40
0.0
 41
1.0
 50
0.0
 71
     0
 42
0.2
  3
romans.shx
  4

  0
STYLE
  5
404F
330
401D
100
AcDbSymbolTableRecord
100
AcDbTextStyleTableRecord
  2
M_STANDARD
 70
     0
 40
0.0
 41
0.8
 50
0.0
 71
     0
 42
0.0
  3
MEDUSA.SHX
  4

  0
STYLE
  5
4050
330
401D
100
AcDbSymbolTableRecord
100
AcDbTextStyleTableRecord
  2
SIMPLEX
 70
     0
 40
0.0
 41
1.0
 50
0.0
 71
     0
 42
0.25
  3
SIMPLEX.shx
  4

  0
ENDTAB
  0
TABLE
  2
VIEW
  5
4020
330
0
100
AcDbSymbolTable
 70
     0
  0
ENDTAB
  0
TABLE
  2
UCS
  5
4021
330
0
100
AcDbSymbolTable
 70
     0
  0
ENDTAB
  0
TABLE
  2
APPID
  5
4023
330
0
100
AcDbSymbolTable
 70
    11
  0
APPID
  5
402A
330
4023
100
AcDbSymbolTableRecord
100
AcDbRegAppTableRecord
  2
ACAD
 70
     0
  0
APPID
  5
4053
330
4023
100
AcDbSymbolTableRecord
100
AcDbRegAppTableRecord
  2
DCO15
 70
     0
  0
APPID
  5
4054
330
4023
100
AcDbSymbolTableRecord
100
AcDbRegAppTableRecord
  2
MCAD_NO_VIS
 70
     0
  0
APPID
  5
4055
330
4023
100
AcDbSymbolTableRecord
100
AcDbRegAppTableRecord
  2
ACAD_TEMP_GRAPHIC
 70
     0
  0
APPID
  5
4056
330
4023
100
AcDbSymbolTableRecord
100
AcDbRegAppTableRecord
  2
GENIUS_GENSCREG_15
 70
     0
  0
APPID
  5
4057
330
4023
100
AcDbSymbolTableRecord
100
AcDbRegAppTableRecord
  2
GENIUS_GENODEF_13
 70
     0
  0
APPID
  5
4058
330
4023
100
AcDbSymbolTableRecord
100
AcDbRegAppTableRecord
  2
GENIUS_GENOBJ-N-SDF_13
 70
     0
  0
APPID
  5
4059
330
4023
100
AcDbSymbolTableRecord
100
AcDbRegAppTableRecord
  2
GENIUS_GENOENT_13
 70
     0
  0
APPID
  5
405A
330
4023
100
AcDbSymbolTableRecord
100
AcDbRegAppTableRecord
  2
GENIUS_GENOREF_13
 70
     0
  0
APPID
  5
405B
330
4023
100
AcDbSymbolTableRecord
100
AcDbRegAppTableRecord
  2
GENIUS_GENOLIS_13
 70
     0
  0
APPID
  5
405C
330
4023
100
AcDbSymbolTableRecord
100
AcDbRegAppTableRecord
  2
MED_PRIMTYPE
 70
     0
  0
ENDTAB
  0
TABLE
  2
DIMSTYLE
  5
4024
330
0
100
AcDbSymbolTable
 70
     1
100
AcDbDimStyleTable
 71
     0
  0
DIMSTYLE
105
405D
102
{ACAD_REACTORS
330
3B67
330
3B68
330
3B69
330
3B6A
102
}
330
4024
100
AcDbSymbolTableRecord
100
AcDbDimStyleTableRecord
  2
SCHNEIDERELECTRIC
 70
     0
 40
0.0
 41
0.07
 44
0.0625
 45
0.01
 78
     4
140
0.08
147
0.04
171
     1
176
   256
177
   256
178
   256
274
     1
279
     2
284
     4
285
     4
286
     4
340
404E
  0
ENDTAB
  0
TABLE
  2
BLOCK_RECORD
  5
401B
330
0
100
AcDbSymbolTable
 70
    12
  0
BLOCK_RECORD
  5
4031
330
401B
100
AcDbSymbolTableRecord
100
AcDbBlockTableRecord
  2
*MODEL_SPACE
340
407C
  0
BLOCK_RECORD
  5
402E
330
401B
100
AcDbSymbolTableRecord
100
AcDbBlockTableRecord
  2
*PAPER_SPACE
340
407D
  0
BLOCK_RECORD
  5
4036
330
401B
100
AcDbSymbolTableRecord
100
AcDbBlockTableRecord
  2
LOGO-PAD
340
0
102
{BLKREFS
331
B1E
102
}
  0
BLOCK_RECORD
  5
4037
330
401B
100
AcDbSymbolTableRecord
100
AcDbBlockTableRecord
  2
TITLE-PAD
340
0
102
{BLKREFS
331
B2C
102
}
  0
BLOCK_RECORD
  5
4038
330
401B
100
AcDbSymbolTableRecord
100
AcDbBlockTableRecord
  2
REF2
340
0
102
{BLKREFS
331
233E
102
}
  0
BLOCK_RECORD
  5
4039
330
401B
100
AcDbSymbolTableRecord
100
AcDbBlockTableRecord
  2
$SCREW
340
0
102
{BLKREFS
331
3B3D
331
3B40
331
3B41
331
3B44
102
}
  0
BLOCK_RECORD
  5
403A
330
401B
100
AcDbSymbolTableRecord
100
AcDbBlockTableRecord
  2
*D4
340
0
  0
BLOCK_RECORD
  5
403B
330
401B
100
AcDbSymbolTableRecord
100
AcDbBlockTableRecord
  2
*D5
340
0
  0
BLOCK_RECORD
  5
403C
330
401B
100
AcDbSymbolTableRecord
100
AcDbBlockTableRecord
  2
*D6
340
0
  0
BLOCK_RECORD
  5
403D
330
401B
100
AcDbSymbolTableRecord
100
AcDbBlockTableRecord
  2
*D7
340
0
  0
BLOCK_RECORD
  5
4081
330
401B
100
AcDbSymbolTableRecord
100
AcDbBlockTableRecord
  2
*D8
340
0
  0
BLOCK_RECORD
  5
408E
330
401B
100
AcDbSymbolTableRecord
100
AcDbBlockTableRecord
  2
*D9
340
0
  0
BLOCK_RECORD
  5
409B
330
401B
100
AcDbSymbolTableRecord
100
AcDbBlockTableRecord
  2
*D10
340
0
  0
BLOCK_RECORD
  5
40A8
330
401B
100
AcDbSymbolTableRecord
100
AcDbBlockTableRecord
  2
*D11
340
0
  0
ENDTAB
  0
ENDSEC
  0
SECTION
  2
BLOCKS
  0
BLOCK
  5
4070
330
4031
100
AcDbEntity
  8
0
100
AcDbBlockBegin
  2
*MODEL_SPACE
 70
     0
 10
0.0
 20
0.0
 30
0.0
  3
*MODEL_SPACE
  1

  0
ENDBLK
  5
4071
330
4031
100
AcDbEntity
  8
0
100
AcDbBlockEnd
  0
BLOCK
  5
406E
330
402E
100
AcDbEntity
 67
     1
  8
0
100
AcDbBlockBegin
  2
*PAPER_SPACE
 70
     0
 10
0.0
 20
0.0
 30
0.0
  3
*PAPER_SPACE
  1

  0
ENDBLK
  5
406F
330
402E
100
AcDbEntity
 67
     1
  8
0
100
AcDbBlockEnd
  0
BLOCK
  5
852
330
4036
100
AcDbEntity
  8
0
100
AcDbBlockBegin
  2
LOGO-PAD
 70
     0
 10
0.0
 20
0.0
 30
0.0
  3
LOGO-PAD
  1

  0
HATCH
  5
842
330
4036
100
AcDbEntity
  8
TITLEBLOCK
  6
Continuous
 62
     0
100
AcDbHatch
 10
0.0
 20
0.0
 30
0.0
210
0.0
220
0.0
230
1.0
  2
SOLID
 70
     1
 71
     0
 91
        2
 92
        1
 93
       11
 72
     2
 10
1.203771209334867
 20
0.3650136751459491
 40
0.021562648149145
 50
90.00000747299615
 51
179.9997683268519
 73
     1
 72
     1
 10
1.182208561185898
 20
0.3650137623336376
 11
1.182208392435807
 21
0.2795138227272444
 72
     2
 10
1.203771079023129
 20
0.2795136821032751
 40
0.0215626865877801
 50
179.9996263378447
 51
269.9998903896797
 73
     1
 72
     1
 10
1.203771037772394
 20
0.2579509955155343
 11
1.330521045577125
 21
0.2579511736405264
 72
     2
 10
1.330521265257171
 20
0.2795136382789064
 40
0.021562464639499
 50
269.9994162661957
 51
311.7040125634689
 73
     1
 72
     1
 10
1.344866398698837
 20
0.2634152834601535
 11
1.352083334663557
 21
0.2579511736405264
 72
     1
 10
1.352083334663557
 20
0.2579511736405264
 11
1.365099386916806
 21
0.2751416404960081
 72
     1
 10
1.365099386916806
 20
0.2751416404960081
 11
1.352083522163621
 21
0.284997066934386
 72
     1
 10
1.352083522163621
 20
0.284997066934386
 11
1.352083690913712
 21
0.3650136723335662
 72
     2
 10
1.330521042764654
 20
0.3650136751460369
 40
0.0215626481490576
 50
359.9999925267666
 51
449.9999925267678
 73
     1
 72
     1
 10
1.330521045577125
 20
0.3865763232950938
 11
1.203771206522485
 21
0.3865763232950938
 97
        0
 92
       16
 93
       10
 72
     2
 10
1.21455271481628
 20
0.3542325202904111
 40
0.0107811520434708
 50
90.00043844291294
 51
179.9999701074038
 73
     1
 72
     1
 10
1.203771562772811
 20
0.3542325259151993
 11
1.203771562772811
 21
0.2902950591455122
 72
     2
 10
1.214552849813946
 20
0.2902948416431456
 40
0.0107812870433294
 50
179.9988441113203
 51
269.9988441346395
 73
     1
 72
     1
 10
1.214552632315967
 20
0.2795135546020104
 11
1.323606134809704
 21
0.2795135546020104
 72
     1
 10
1.323606134809704
 20
0.2795135546020104
 11
1.280867956889135
 21
0.311873265117333
 72
     1
 10
1.280867956889135
 20
0.311873265117333
 11
1.293884009142384
 21
0.3290635557226322
 72
     1
 10
1.293884009142384
 20
0.3290635557226322
 11
1.330521045577125
 21
0.3013240413506308
 72
     1
 10
1.330521045577125
 20
0.3013240413506308
 11
1.330521045577125
 21
0.3542324377902786
 72
     2
 10
1.319739809158772
 20
0.3542324359152127
 40
0.0107812364183532
 50
0.0000099648460607
 51
90.00000996484372
 73
     1
 72
     1
 10
1.319739807283706
 20
0.3650136723335662
 11
1.214552632315967
 21
0.3650136723335662
 97
        0
 75
     0
 76
     1
 98
        1
 10
-7.279586802153931
 20
-0.4081141432880261
  0
HATCH
  5
843
330
4036
100
AcDbEntity
  8
TITLEBLOCK
  6
Continuous
 62
     0
100
AcDbHatch
 10
0.0
 20
0.0
 30
0.0
210
0.0
220
0.0
230
1.0
  2
SOLID
 70
     1
 71
     0
 91
        1
 92
        1
 93
        4
 72
     1
 10
3.703333445713536
 20
0.1990762889281312
 11
1.018147379006204
 21
0.1990762889281312
 72
     1
 10
1.018147379006204
 20
0.1990762889281312
 11
1.018147379006204
 21
0.220706173683743
 72
     1
 10
1.018147379006204
 20
0.220706173683743
 11
3.703333445713536
 21
0.220706173683743
 72
     1
 10
3.703333445713536
 20
0.220706173683743
 11
3.703333445713536
 21
0.1990762889281312
 97
        0
 75
     0
 76
     1
 98
        1
 10
-7.279586802153931
 20
-0.4081141432880261
  0
HATCH
  5
844
330
4036
100
AcDbEntity
  8
TITLEBLOCK
  6
Continuous
 62
     0
100
AcDbHatch
 10
0.0
 20
0.0
 30
0.0
210
0.0
220
0.0
230
1.0
  2
SOLID
 70
     1
 71
     0
 91
        4
 92
        1
 93
        4
 72
     1
 10
0.8306472632318495
 20
0.4814782717956759
 11
0.4556470182475714
 21
0.4814782717956759
 72
     1
 10
0.4556470182475714
 20
0.4814782717956759
 11
0.4556470182475714
 21
0.1064783844396073
 72
     1
 10
0.4556470182475714
 20
0.1064783844396073
 11
0.8306472632318495
 21
0.1064783844396073
 72
     1
 10
0.8306472632318495
 20
0.1064783844396073
 11
0.8306472632318495
 21
0.4814782717956759
 97
        0
 92
        0
 93
       10
 72
     1
 10
0.7368972019857374
 20
0.4177282462416896
 11
0.5193971779121789
 21
0.4177282462416896
 72
     1
 10
0.5193971779121789
 20
0.4177282462416896
 11
0.5193971779121789
 21
0.37460312508514
 72
     1
 10
0.5193971779121789
 20
0.37460312508514
 11
0.5531473465883146
 21
0.37460312508514
 72
     1
 10
0.5531473465883146
 20
0.37460312508514
 11
0.5531473465883146
 21
0.2133535311501431
 72
     1
 10
0.5531473465883146
 20
0.2133535311501431
 11
0.5193971779121789
 21
0.2133535311501431
 72
     1
 10
0.5193971779121789
 20
0.2133535311501431
 11
0.5193971779121789
 21
0.1702282758831428
 72
     1
 10
0.5193971779121789
 20
0.1702282758831428
 11
0.7368972019857374
 21
0.1702282758831428
 72
     1
 10
0.7368972019857374
 20
0.1702282758831428
 11
0.7668970141602749
 21
0.2002283115750982
 72
     1
 10
0.7668970141602749
 20
0.2002283115750982
 11
0.7668970141602749
 21
0.3877281658462506
 72
     1
 10
0.7668970141602749
 20
0.3877281658462506
 11
0.7368972019857374
 21
0.4177282462416896
 97
        0
 92
       16
 93
        4
 72
     1
 10
0.7987720492890098
 20
0.4496031025563197
 11
0.4875220533764768
 21
0.4496031025563197
 72
     1
 10
0.4875220533764768
 20
0.4496031025563197
 11
0.4875220533764768
 21
0.1383533301613751
 72
     1
 10
0.4875220533764768
 20
0.1383533301613751
 11
0.7987720492890098
 21
0.1383533301613751
 72
     1
 10
0.7987720492890098
 20
0.1383533301613751
 11
0.7987720492890098
 21
0.4496031025563197
 97
        0
 92
        0
 93
        4
 72
     1
 10
0.5962724677448641
 20
0.37460312508514
 11
0.5962724677448641
 21
0.2133535311501431
 72
     1
 10
0.5962724677448641
 20
0.2133535311501431
 11
0.7237719824106926
 21
0.2133535311501431
 72
     1
 10
0.7237719824106926
 20
0.2133535311501431
 11
0.7237719824106926
 21
0.37460312508514
 72
     1
 10
0.7237719824106926
 20
0.37460312508514
 11
0.5962724677448641
 21
0.37460312508514
 97
        0
 75
     0
 76
     1
 98
        1
 10
-7.279586802153931
 20
-0.313212194787444
  0
HATCH
  5
845
330
4036
100
AcDbEntity
  8
TITLEBLOCK
  6
Continuous
 62
     0
100
AcDbHatch
 10
0.0
 20
0.0
 30
0.0
210
0.0
220
0.0
230
1.0
  2
SOLID
 70
     1
 71
     0
 91
        1
 92
        1
 93
       26
 72
     1
 10
1.050490193885575
 20
0.3650136723335662
 11
1.138990457951802
 21
0.3650136723335662
 72
     2
 10
1.138990281703138
 20
0.3542326140418093
 40
0.0107810582931976
 50
270.0009366709926
 51
360.0009366862294
 73
     0
 72
     1
 10
1.149771339994895
 20
0.3542324377902786
 11
1.171333797831589
 21
0.3542324377902786
 72
     1
 10
1.171333797831589
 20
0.3542324377902786
 11
1.171333797831589
 21
0.3650136723335662
 72
     2
 10
1.149771243432702
 20
0.365013768896207
 40
0.0215625543991033
 50
359.9997434148255
 51
449.9997434160159
 73
     1
 72
     1
 10
1.149771339994895
 20
0.3865763232950938
 11
1.039708786842066
 21
0.3865763232950938
 72
     2
 10
1.039709408398413
 20
0.3650142939052909
 40
0.0215620293987615
 50
90.00165163282177
 51
180.0014125206716
 73
     1
 72
     1
 10
1.018147379006204
 20
0.3650137623336376
 11
1.018147379006204
 21
0.3334199129435318
 72
     2
 10
1.039709363397143
 20
0.3334193363730153
 40
0.0215619843986475
 50
179.9984679027414
 51
269.9984679437668
 73
     1
 72
     1
 10
1.039708786842066
 20
0.3118573519820755
 11
1.138990457951802
 21
0.311857620107139
 72
     2
 10
1.138990280765661
 20
0.3010765608779043
 40
0.0107810592306907
 50
270.0009416531222
 51
360.0009416684906
 73
     0
 72
     1
 10
1.149771339994895
 20
0.3010763836888712
 11
1.149771508744986
 21
0.2902949691454408
 72
     2
 10
1.138990231076649
 20
0.2902948322713164
 40
0.0107812776692067
 50
359.9992725992319
 51
449.9997907459082
 73
     0
 72
     1
 10
1.138990270451738
 20
0.279513554602181
 11
1.050490193885575
 21
0.2795135546020104
 72
     2
 10
1.05049014888543
 20
0.2902951041454384
 40
0.0107815495435218
 50
89.99976085826782
 51
179.9997608594354
 73
     0
 72
     1
 10
1.039708599342002
 20
0.2902950591455122
 11
1.018147379006204
 21
0.2902950591455122
 72
     1
 10
1.018147379006204
 20
0.2902950591455122
 11
1.018147379006204
 21
0.2795138227272444
 72
     2
 10
1.039709273392517
 20
0.2795130680345569
 40
0.0215618943995203
 50
179.9979945776083
 51
269.9987071039827
 73
     1
 72
     1
 10
1.039708786842066
 20
0.2579511736405264
 11
1.149771339994895
 21
0.2579511736405264
 72
     2
 10
1.149771378432784
 20
0.2795135930396681
 40
0.0215624193991759
 50
269.9998978626289
 51
359.9996636967671
 73
     1
 72
     1
 10
1.171333797831589
 20
0.2795134664769192
 11
1.171333797831589
 21
0.3114825579869829
 72
     2
 10
1.149771333432362
 20
0.3114825645494808
 40
0.0215624643992288
 50
359.9999825621309
 51
449.9999825620359
 73
     1
 72
     1
 10
1.149771339994895
 20
0.3330450289487088
 11
1.050490193885575
 21
0.3330447608234748
 72
     2
 10
1.050490103885701
 20
0.3438262653667981
 40
0.0107815045436989
 50
89.99952171675776
 51
179.9999900368059
 73
     0
 72
     1
 10
1.039708599342002
 20
0.3438262634919964
 11
1.039708786842066
 21
0.3542325259151993
 72
     2
 10
1.050490107634269
 20
0.3542323515402983
 40
0.0107813207936133
 50
180.0009266903443
 51
270.0004583701697
 73
     0
 97
        0
 75
     0
 76
     1
 98
        1
 10
-7.279586802153931
 20
-0.4081141432880261
  0
HATCH
  5
846
330
4036
100
AcDbEntity
  8
TITLEBLOCK
  6
Continuous
 62
     0
100
AcDbHatch
 10
0.0
 20
0.0
 30
0.0
210
0.0
220
0.0
230
1.0
  2
SOLID
 70
     1
 71
     0
 91
        1
 92
        1
 93
       18
 72
     2
 10
2.471082802883087
 20
0.3650137595211706
 40
0.021562563774099
 50
180.0000074732525
 51
269.9997683261728
 73
     0
 72
     1
 10
2.471082715695484
 20
0.3865763232950938
 11
2.586957622645552
 21
0.3865763232950938
 72
     2
 10
2.586957713583391
 20
0.3650135813961111
 40
0.0215627418991744
 50
269.9997583630888
 51
359.999758364108
 73
     0
 72
     1
 10
2.608520455482373
 20
0.3650136723335662
 11
2.608520455482373
 21
0.3542324377902786
 72
     1
 10
2.608520455482373
 20
0.3542324377902786
 11
2.586957622645552
 21
0.3542324377902786
 72
     2
 10
2.576176208103625
 20
0.3542322577916381
 40
0.0107814145434302
 50
0.0009565685814303
 51
90.00095658455173
 73
     1
 72
     1
 10
2.576176028101979
 20
0.3650136723335662
 11
2.481864141488966
 21
0.3650136723335662
 72
     2
 10
2.481864045863444
 20
0.3542323421656055
 40
0.0107813301683848
 50
89.99949181235312
 51
179.9994918168631
 73
     1
 72
     1
 10
2.471082715695484
 20
0.3542324377902786
 11
2.471082715695484
 21
0.2902950591455122
 72
     2
 10
2.481864090863785
 20
0.2902951097704553
 40
0.0107813751684203
 50
180.0002690376259
 51
270.0002690388874
 73
     1
 72
     1
 10
2.481864141488966
 20
0.2795137346021532
 11
2.576176028101979
 21
0.2795135546020104
 72
     2
 10
2.576176073102679
 20
0.2902951041456356
 40
0.010781549543719
 50
269.9997608553225
 51
359.9992825760937
 73
     1
 72
     1
 10
2.586957622645552
 20
0.2902949691454408
 11
2.608520455482373
 21
0.2902950591455122
 72
     1
 10
2.608520455482373
 20
0.2902950591455122
 11
2.608520099232048
 21
0.2795134664769192
 72
     2
 10
2.586957670458414
 20
0.2795136024145366
 40
0.0215624287740632
 50
0.0003612140281018
 51
90.00012704854281
 73
     0
 72
     1
 10
2.586957622645552
 20
0.2579511736405264
 11
2.471082715695484
 21
0.2579511736405264
 72
     2
 10
2.471082667882924
 20
0.2795136024144634
 40
0.02156242877399
 50
89.99987295225965
 51
179.9998729525419
 73
     0
 72
     1
 10
2.449520239108988
 20
0.2795135546020104
 11
2.449520239108988
 21
0.3650137623336376
 97
        0
 75
     0
 76
     1
 98
        1
 10
-7.279586802153931
 20
-0.4081141432880261
  0
HATCH
  5
847
330
4036
100
AcDbEntity
  8
TITLEBLOCK
  6
Continuous
 62
     0
100
AcDbHatch
 10
0.0
 20
0.0
 30
0.0
210
0.0
220
0.0
230
1.0
  2
SOLID
 70
     1
 71
     0
 91
        1
 92
        1
 93
       12
 72
     1
 10
2.026708344139745
 20
0.3865765014202565
 11
1.890208311215626
 21
0.3865765014202565
 72
     1
 10
1.890208311215626
 20
0.3865765014202565
 11
1.890208311215626
 21
0.2579511736405264
 72
     1
 10
1.890208311215626
 20
0.2579511736405264
 11
2.026708344139745
 21
0.2579511736405264
 72
     1
 10
2.026708344139745
 20
0.2579511736405264
 11
2.026708344139745
 21
0.2795135546020104
 72
     1
 10
2.026708344139745
 20
0.2795135546020104
 11
1.911770600302059
 21
0.2795135546020104
 72
     1
 10
1.911770600302059
 20
0.2795135546020104
 11
1.911770600302059
 21
0.3114825579869829
 72
     1
 10
1.911770600302059
 20
0.3114825579869829
 11
2.026708344139745
 21
0.3114825579869829
 72
     1
 10
2.026708344139745
 20
0.3114825579869829
 11
2.026708344139745
 21
0.333044848948566
 72
     1
 10
2.026708344139745
 20
0.333044848948566
 11
1.911770600302059
 21
0.333044848948566
 72
     1
 10
1.911770600302059
 20
0.333044848948566
 11
1.911770600302059
 21
0.3650136723335662
 72
     1
 10
1.911770600302059
 20
0.3650136723335662
 11
2.026708344139745
 21
0.3650136723335662
 72
     1
 10
2.026708344139745
 20
0.3650136723335662
 11
2.026708344139745
 21
0.3865765014202565
 97
        0
 75
     0
 76
     1
 98
        1
 10
-7.279586802153931
 20
-0.4081141432880261
  0
HATCH
  5
848
330
4036
100
AcDbEntity
  8
TITLEBLOCK
  6
Continuous
 62
     0
100
AcDbHatch
 10
0.0
 20
0.0
 30
0.0
210
0.0
220
0.0
230
1.0
  2
SOLID
 70
     1
 71
     0
 91
        2
 92
        1
 93
        8
 72
     1
 10
1.614830743814064
 20
0.3865765014202565
 11
1.531145595393223
 21
0.2579509955155343
 72
     1
 10
1.531145595393223
 20
0.2579509955155343
 11
1.556870855949323
 21
0.2579511736405264
 72
     1
 10
1.556870855949323
 20
0.2579511736405264
 11
1.570898996363819
 21
0.2795135546020104
 72
     1
 10
1.570898996363819
 20
0.2795135546020104
 11
1.673830432358027
 21
0.2795135546020104
 72
     1
 10
1.673830432358027
 20
0.2795135546020104
 11
1.687858760272586
 21
0.2579514417655899
 72
     1
 10
1.687858760272586
 20
0.2579514417655899
 11
1.713583120827973
 21
0.2579514417655899
 72
     1
 10
1.713583120827973
 20
0.2579514417655899
 11
1.629898141157394
 21
0.3865765014202565
 72
     1
 10
1.629898141157394
 20
0.3865765014202565
 11
1.614830743814064
 21
0.3865765014202565
 97
        0
 92
       16
 93
        3
 72
     1
 10
1.622364536235675
 20
0.3586169575295115
 11
1.659801223192726
 21
0.3010763836888712
 72
     1
 10
1.659801223192726
 20
0.3010763836888712
 11
1.584928205528949
 21
0.3010762055637086
 72
     1
 10
1.584928205528949
 20
0.3010762055637086
 11
1.622364348735612
 21
0.3586165994043766
 97
        0
 75
     0
 76
     1
 98
        1
 10
-7.279586802153931
 20
-0.4081141432880261
  0
HATCH
  5
849
330
4036
100
AcDbEntity
  8
TITLEBLOCK
  6
Continuous
 62
     0
100
AcDbHatch
 10
0.0
 20
0.0
 30
0.0
210
0.0
220
0.0
230
1.0
  2
SOLID
 70
     1
 71
     0
 91
        1
 92
        1
 93
       12
 72
     1
 10
1.392021104504447
 20
0.3865765014202565
 11
1.370458815418015
 21
0.3865765014202565
 72
     1
 10
1.370458815418015
 20
0.3865765014202565
 11
1.370458627917951
 21
0.2795138227272444
 72
     2
 10
1.39202114575308
 20
0.2795135133528436
 40
0.0215625178373483
 50
179.999177932392
 51
269.9998903944058
 73
     1
 72
     1
 10
1.392021104504447
 20
0.2579509955155343
 11
1.509583287556818
 21
0.2579511736405264
 72
     2
 10
1.509583335369764
 20
0.2795136024146219
 40
0.0215624287741484
 50
269.9998729512306
 51
359.9996387857453
 73
     1
 72
     1
 10
1.531145764143484
 20
0.2795134664769192
 11
1.531146120393639
 21
0.3865765014202565
 72
     1
 10
1.531146120393639
 20
0.3865765014202565
 11
1.509583287556818
 21
0.3865765014202565
 72
     1
 10
1.509583287556818
 20
0.3865765014202565
 11
1.509583287556818
 21
0.2902950591455122
 72
     2
 10
1.498801916139266
 20
0.290294926019563
 40
0.0107813714183743
 50
359.9992925246018
 51
449.9992925333428
 73
     0
 72
     1
 10
1.49880204926357
 20
0.2795135546020104
 11
1.402802342797695
 21
0.2795135546020104
 72
     2
 10
1.402802382172719
 20
0.2902950197703451
 40
0.0107814651684066
 50
90.00020925010334
 51
180.0002092508632
 73
     0
 72
     1
 10
1.392020917004384
 20
0.2902950591455122
 11
1.392021104504447
 21
0.3865765014202565
 97
        0
 75
     0
 76
     1
 98
        1
 10
-7.279586802153931
 20
-0.4081141432880261
  0
HATCH
  5
84A
330
4036
100
AcDbEntity
  8
TITLEBLOCK
  6
Continuous
 62
     0
100
AcDbHatch
 10
0.0
 20
0.0
 30
0.0
210
0.0
220
0.0
230
1.0
  2
SOLID
 70
     1
 71
     0
 91
        2
 92
        1
 93
       13
 72
     2
 10
1.851958289039648
 20
0.2899198104641797
 40
0.0215625675244637
 50
0.0002565813902296
 51
90.00070498518821
 73
     1
 72
     2
 10
1.851958289040149
 20
0.3330449455099156
 40
0.0215625675245372
 50
269.9992950134807
 51
359.9995092535441
 73
     1
 72
     1
 10
1.873520856563896
 20
0.3330447608234748
 11
1.873520856563896
 21
0.3650136657708798
 72
     2
 10
1.851957894958188
 20
0.3650135398162329
 40
0.0215629616060761
 50
0.0003346789653151
 51
89.99920945081219
 73
     1
 72
     1
 10
1.851958192477166
 20
0.3865765014202565
 11
1.720333350237904
 21
0.3865765014202565
 72
     1
 10
1.720333350237904
 20
0.3865765014202565
 11
1.720333350237904
 21
0.2579511736405264
 72
     1
 10
1.720333350237904
 20
0.2579511736405264
 11
1.741896183074725
 21
0.2579511736405264
 72
     1
 10
1.741896183074725
 20
0.2579511736405264
 11
1.741896183074725
 21
0.3007013215688856
 72
     1
 10
1.741896183074725
 20
0.3007013215688856
 11
1.841176785433827
 21
0.3007013215688856
 72
     2
 10
1.841176693559081
 20
0.2899201789011263
 40
0.0107811426681508
 50
270.0004882631974
 51
360.0004882673548
 73
     0
 72
     1
 10
1.851957836226841
 20
0.289920087025598
 11
1.851958192477166
 21
0.2579511736405264
 72
     1
 10
1.851958192477166
 20
0.2579511736405264
 11
1.873520856563896
 21
0.2579511736405264
 72
     1
 10
1.873520856563896
 20
0.2579511736405264
 11
1.873520856563896
 21
0.2899199070254552
 97
        0
 92
       16
 93
        6
 72
     2
 10
1.841176693559081
 20
0.3542325296658069
 40
0.0107811426681508
 50
270.0004882631974
 51
360.0004882673548
 73
     0
 72
     1
 10
1.851957836226841
 20
0.3542324377902786
 11
1.851958192477166
 21
0.333044848948566
 72
     2
 10
1.841176871684197
 20
0.333044935198247
 40
0.0107813207933138
 50
0.0004583615308307
 51
90.00045836519477
 73
     0
 72
     1
 10
1.841176785433827
 20
0.3222636144052784
 11
1.741896183074725
 21
0.3222638825303419
 72
     1
 10
1.741896183074725
 20
0.3222638825303419
 11
1.741896183074725
 21
0.3650136723335662
 72
     1
 10
1.741896183074725
 20
0.3650136723335662
 11
1.841176785433827
 21
0.3650136723335662
 97
        0
 75
     0
 76
     1
 98
        1
 10
-7.279586802153931
 20
-0.4081141432880261
  0
HATCH
  5
84B
330
4036
100
AcDbEntity
  8
TITLEBLOCK
  6
Continuous
 62
     0
100
AcDbHatch
 10
0.0
 20
0.0
 30
0.0
210
0.0
220
0.0
230
1.0
  2
SOLID
 70
     1
 71
     0
 91
        2
 92
        1
 93
       10
 72
     1
 10
2.168832611988261
 20
0.3650136723335662
 11
2.168832611988261
 21
0.2795135546021492
 72
     1
 10
2.168832611988261
 20
0.2795135546021492
 11
2.148020079641632
 21
0.2795135546021492
 72
     1
 10
2.148020079641632
 20
0.2795135546021492
 11
2.148020079641632
 21
0.2579511736406499
 72
     1
 10
2.148020079641632
 20
0.2579511736406499
 11
2.314895263659607
 21
0.2579511736406499
 72
     2
 10
2.314895311472477
 20
0.2795136024147182
 40
0.0215624287741214
 50
269.9998729514336
 51
359.9996387859474
 73
     1
 72
     1
 10
2.336457740246171
 20
0.2795134664770916
 11
2.336457740246171
 21
0.3650136723335662
 72
     2
 10
2.314895087410214
 20
0.3650138485844006
 40
0.0215626528366775
 50
359.9995316703829
 51
449.999531674211
 73
     1
 72
     1
 10
2.314895263659607
 20
0.386576501420358
 11
2.148020079641632
 21
0.386576501420358
 72
     1
 10
2.148020079641632
 20
0.386576501420358
 11
2.148020079641632
 21
0.3650136723335662
 72
     1
 10
2.148020079641632
 20
0.3650136723335662
 11
2.168832611988261
 21
0.3650136723335662
 97
        0
 92
       16
 93
        6
 72
     1
 10
2.190395257324933
 20
0.3650136723335662
 11
2.304113856616218
 21
0.3650136723335662
 72
     2
 10
2.304113942866619
 20
0.3542323515405775
 40
0.0107813207933337
 50
269.9995416346447
 51
359.9995416383139
 73
     0
 72
     1
 10
2.314895263659607
 20
0.3542324377902877
 11
2.314895263659607
 21
0.2902949691455452
 72
     2
 10
2.304113807866077
 20
0.2902950103956483
 40
0.0107814557936096
 50
0.0002192149982456
 51
89.99974092762393
 73
     0
 72
     1
 10
2.304113856616218
 20
0.2795135546021492
 11
2.190395257324933
 21
0.2795135546021492
 72
     1
 10
2.190395257324933
 20
0.2795135546021492
 11
2.190395257324933
 21
0.3650136723335662
 97
        0
 75
     0
 76
     1
 98
        1
 10
-7.279586802153931
 20
-0.4081141432880261
  0
HATCH
  5
84C
330
4036
100
AcDbEntity
  8
TITLEBLOCK
  6
Continuous
 62
     0
100
AcDbHatch
 10
0.0
 20
0.0
 30
0.0
210
0.0
220
0.0
230
1.0
  2
SOLID
 70
     1
 71
     0
 91
        2
 92
        1
 93
        8
 72
     1
 10
3.241392303571654
 20
0.3865765014202565
 11
3.157707226761072
 21
0.2579509955155343
 72
     1
 10
3.157707226761072
 20
0.2579509955155343
 11
3.183432299816939
 21
0.2579511736405264
 72
     1
 10
3.183432299816939
 20
0.2579511736405264
 11
3.197460983981823
 21
0.2795133764768478
 72
     1
 10
3.197460983981823
 20
0.2795133764768478
 11
3.30039082622498
 21
0.2795135546020104
 72
     1
 10
3.30039082622498
 20
0.2795135546020104
 11
3.314419679139785
 21
0.2579514417655899
 72
     1
 10
3.314419679139785
 20
0.2579514417655899
 11
3.340144583445731
 21
0.2579511736405264
 72
     1
 10
3.340144583445731
 20
0.2579511736405264
 11
3.256459603774981
 21
0.3865765014202565
 72
     1
 10
3.256459603774981
 20
0.3865765014202565
 11
3.241392303571654
 21
0.3865765014202565
 97
        0
 92
       16
 93
        3
 72
     1
 10
3.248925740352245
 20
0.358616778466603
 11
3.211489480646473
 21
0.3010762055637086
 72
     1
 10
3.211489480646473
 20
0.3010762055637086
 11
3.28636178580994
 21
0.3010763836888712
 72
     1
 10
3.28636178580994
 20
0.3010763836888712
 11
3.248925740352245
 21
0.358616778466603
 97
        0
 75
     0
 76
     1
 98
        1
 10
-7.279586802153931
 20
-0.4081141432880261
  0
HATCH
  5
84D
330
4036
100
AcDbEntity
  8
TITLEBLOCK
  6
Continuous
 62
     0
100
AcDbHatch
 10
0.0
 20
0.0
 30
0.0
210
0.0
220
0.0
230
1.0
  2
SOLID
 70
     1
 71
     0
 91
        1
 92
        1
 93
       13
 72
     1
 10
2.838488736968525
 20
0.3865765014202565
 11
2.806145209588674
 21
0.3865765014202565
 72
     1
 10
2.806145209588674
 20
0.3865765014202565
 11
2.806145209588674
 21
0.2579511736405264
 72
     1
 10
2.806145209588674
 20
0.2579511736405264
 11
2.827707667425368
 21
0.2579511736405264
 72
     1
 10
2.827707667425368
 20
0.2579511736405264
 11
2.827707667425368
 21
0.3640633654626753
 72
     1
 10
2.827707667425368
 20
0.3640633654626753
 11
2.899718420719221
 21
0.2579514417655899
 72
     1
 10
2.899718420719221
 20
0.2579514417655899
 11
2.922570860648686
 21
0.2579511736405264
 72
     1
 10
2.922570860648686
 20
0.2579511736405264
 11
2.994582138942956
 21
0.3640642598382782
 72
     1
 10
2.994582138942956
 20
0.3640642598382782
 11
2.994582138942956
 21
0.2579511736405264
 72
     1
 10
2.994582138942956
 20
0.2579511736405264
 11
3.016144596779479
 21
0.2579511736405264
 72
     1
 10
3.016144596779479
 20
0.2579511736405264
 11
3.016144596779479
 21
0.3865765014202565
 72
     1
 10
3.016144596779479
 20
0.3865765014202565
 11
2.983801425649954
 21
0.3865765014202565
 72
     1
 10
2.983801425649954
 20
0.3865765014202565
 11
2.911144640683954
 21
0.2795135546020104
 72
     1
 10
2.911144640683954
 20
0.2795135546020104
 11
2.838488380718199
 21
0.3865765014202565
 97
        0
 75
     0
 76
     1
 98
        1
 10
-7.279586802153931
 20
-0.4081141432880261
  0
HATCH
  5
84E
330
4036
100
AcDbEntity
  8
TITLEBLOCK
  6
Continuous
 62
     0
100
AcDbHatch
 10
0.0
 20
0.0
 30
0.0
210
0.0
220
0.0
230
1.0
  2
SOLID
 70
     1
 71
     0
 91
        2
 92
        1
 93
        8
 72
     1
 10
2.79358243888161
 20
0.2795134664769192
 11
2.793582795131936
 21
0.3650136723335662
 72
     2
 10
2.772020240733041
 20
0.3650137688961994
 40
0.0215625543991104
 50
359.9997434148459
 51
449.999743415997
 73
     1
 72
     1
 10
2.772020337295241
 20
0.3865763232950938
 11
2.640957676673206
 21
0.3865763232950938
 72
     2
 10
2.640957763860811
 20
0.3650137595211699
 40
0.0215625637741002
 50
90.00023167383188
 51
179.9999925267453
 73
     1
 72
     1
 10
2.61939520008671
 20
0.3650137623336376
 11
2.61939520008671
 21
0.2795135546020104
 72
     2
 10
2.640957628860649
 20
0.2795136024144641
 40
0.0215624287739915
 50
180.0001270474597
 51
270.0001270477355
 73
     1
 72
     1
 10
2.640957676673206
 20
0.2579511736405264
 11
2.772020337295241
 21
0.2579511736405264
 72
     2
 10
2.772020197607671
 20
0.2795134149140743
 40
0.0215622412740004
 50
270.000371181646
 51
360.000137014207
 73
     1
 97
        0
 92
       16
 93
        8
 72
     2
 10
2.651738913091431
 20
0.3542324359149649
 40
0.0107812364186015
 50
89.9999900344766
 51
179.999521702949
 73
     1
 72
     1
 10
2.640957676673206
 20
0.3542325259151993
 11
2.640957676673206
 21
0.2902950591455122
 72
     2
 10
2.651738958091508
 20
0.2902950160204556
 40
0.010781281418388
 50
179.9997708172488
 51
269.9997708181704
 73
     1
 72
     1
 10
2.651738914966625
 20
0.2795137346021532
 11
2.761238742751839
 21
0.2795135546020104
 72
     2
 10
2.761238956501978
 20
0.2902951041442614
 40
0.0107815495443698
 50
269.9988640797126
 51
359.9992825833961
 73
     1
 72
     1
 10
2.772020506045503
 20
0.2902949691454408
 11
2.772020337295241
 21
0.3542324377902786
 72
     2
 10
2.761239007127366
 20
0.3542323421656908
 40
0.0107813301682991
 50
0.0005081826837109
 51
90.00050818719378
 73
     1
 72
     1
 10
2.76123891150193
 20
0.3650136723335662
 11
2.651738914966625
 21
0.3650136723335662
 97
        0
 75
     0
 76
     1
 98
        1
 10
-7.279586802153931
 20
-0.4081141432880261
  0
HATCH
  5
84F
330
4036
100
AcDbEntity
  8
TITLEBLOCK
  6
Continuous
 62
     0
100
AcDbHatch
 10
0.0
 20
0.0
 30
0.0
210
0.0
220
0.0
230
1.0
  2
SOLID
 70
     1
 71
     0
 91
        2
 92
        1
 93
        8
 72
     2
 10
3.162769048174736
 20
0.3650134554401196
 40
0.0215630459811904
 50
270.0005663490367
 51
359.9994236862867
 73
     0
 72
     1
 10
3.184332094154836
 20
0.3650136723335662
 11
3.184332094154836
 21
0.3222638825303419
 72
     2
 10
3.162769397256125
 20
0.3222640184675962
 40
0.0215626968991391
 50
0.0003612085718475
 51
90.00036121084693
 73
     0
 72
     1
 10
3.162769261318015
 20
0.3007013215688856
 11
3.052707420665665
 21
0.3007013215688856
 72
     1
 10
3.052707420665665
 20
0.3007013215688856
 11
3.052707420665665
 21
0.2579511736405264
 72
     1
 10
3.052707420665665
 20
0.2579511736405264
 11
3.031144250328662
 21
0.2579511736405264
 72
     1
 10
3.031144250328662
 20
0.2579511736405264
 11
3.031144250328662
 21
0.3865765014202565
 72
     1
 10
3.031144250328662
 20
0.3865765014202565
 11
3.162769261318015
 21
0.3865765014202565
 97
        0
 92
       16
 93
        6
 72
     2
 10
3.151988118650169
 20
0.3542325296657216
 40
0.0107811426682361
 50
270.0004882627443
 51
360.0004882669015
 73
     0
 72
     1
 10
3.162769261318015
 20
0.3542324377902786
 11
3.162769261318015
 21
0.333044848948566
 72
     2
 10
3.151988118650169
 20
0.333044757073123
 40
0.0107811426682367
 50
359.9995117330984
 51
449.9995117372556
 73
     0
 72
     1
 10
3.15198821052483
 20
0.3222636144052784
 11
3.052707420665665
 21
0.3222638825303419
 72
     1
 10
3.052707420665665
 20
0.3222638825303419
 11
3.052707420665665
 21
0.3650136723335662
 72
     1
 10
3.052707420665665
 20
0.3650136723335662
 11
3.15198821052483
 21
0.3650136723335662
 97
        0
 75
     0
 76
     1
 98
        1
 10
-7.279586802153931
 20
-0.4081141432880261
  0
HATCH
  5
850
330
4036
100
AcDbEntity
  8
TITLEBLOCK
  6
Continuous
 62
     0
100
AcDbHatch
 10
0.0
 20
0.0
 30
0.0
210
0.0
220
0.0
230
1.0
  2
SOLID
 70
     1
 71
     0
 91
        1
 92
        1
 93
        9
 72
     1
 10
3.556847887515953
 20
0.3865763232950938
 11
3.525206566844968
 21
0.3865765014202565
 72
     1
 10
3.525206566844968
 20
0.3865765014202565
 11
3.60348814923547
 21
0.3136817019238036
 72
     1
 10
3.60348814923547
 20
0.3136817019238036
 11
3.603486349234383
 21
0.2579511736405264
 72
     1
 10
3.603486349234383
 20
0.2579511736405264
 11
3.625050607072164
 21
0.2579511736405264
 72
     1
 10
3.625050607072164
 20
0.2579511736405264
 11
3.625050607072164
 21
0.3136813437984982
 72
     1
 10
3.625050607072164
 20
0.3136813437984982
 11
3.703331833212512
 21
0.3865766795454191
 72
     1
 10
3.703331833212512
 20
0.3865766795454191
 11
3.671691225042007
 21
0.3865765014202565
 72
     1
 10
3.671691225042007
 20
0.3865765014202565
 11
3.61426955627898
 21
0.3331056458632473
 72
     1
 10
3.61426955627898
 20
0.3331056458632473
 11
3.556847887515953
 21
0.3865763232950938
 97
        0
 75
     0
 76
     1
 98
        1
 10
-7.279586802153931
 20
-0.4081141432880261
  0
HATCH
  5
851
330
4036
100
AcDbEntity
  8
TITLEBLOCK
  6
Continuous
 62
     0
100
AcDbHatch
 10
0.0
 20
0.0
 30
0.0
210
0.0
220
0.0
230
1.0
  2
SOLID
 70
     1
 71
     0
 91
        1
 92
        1
 93
       10
 72
     1
 10
3.376247484495632
 20
0.3865765014202565
 11
3.345207161752892
 21
0.3865765014202565
 72
     1
 10
3.345207161752892
 20
0.3865765014202565
 11
3.345207161752892
 21
0.2579511736405264
 72
     1
 10
3.345207161752892
 20
0.2579511736405264
 11
3.366769638339558
 21
0.2579511736405264
 72
     1
 10
3.366769638339558
 20
0.2579511736405264
 11
3.366769638339558
 21
0.3659393041881229
 72
     1
 10
3.366769638339558
 20
0.3659393041881229
 11
3.48273627034943
 21
0.2579509955155343
 72
     1
 10
3.48273627034943
 20
0.2579509955155343
 11
3.515082122730785
 21
0.2579511736405264
 72
     1
 10
3.515082122730785
 20
0.2579511736405264
 11
3.515082122730785
 21
0.3865765014202565
 72
     1
 10
3.515082122730785
 20
0.3865765014202565
 11
3.49351767739277
 21
0.3865765014202565
 72
     1
 10
3.49351767739277
 20
0.3865765014202565
 11
3.49351767739277
 21
0.277374671329744
 72
     1
 10
3.49351767739277
 20
0.277374671329744
 11
3.376247484495632
 21
0.3865765014202565
 97
        0
 75
     0
 76
     1
 98
        1
 10
-7.279586802153931
 20
-0.4081141432880261
  0
ENDBLK
  5
853
330
4036
100
AcDbEntity
  8
0
100
AcDbBlockEnd
  0
BLOCK
  5
AF5
330
4037
100
AcDbEntity
  8
0
100
AcDbBlockBegin
  2
TITLE-PAD
 70
     2
 10
0.0
 20
0.0
 30
0.0
  3
TITLE-PAD
  1

  0
LWPOLYLINE
  5
B1D
330
4037
100
AcDbEntity
  8
CONTINUOUS2
 62
     0
100
AcDbPolyline
 90
        7
 70
     1
 43
0.0
 10
16.40000099999999
 20
0.0
 10
16.40000099999999
 20
0.0
 10
16.40000099999999
 20
0.0
 10
8.002461
 20
0.0
 10
8.002461
 20
0.9120019999999993
 10
16.40000099999999
 20
0.9120019999999993
 10
16.40000099999999
 20
0.0
  0
INSERT
  5
B1E
330
4037
100
AcDbEntity
  8
TITLEBLOCK
 62
     0
100
AcDbBlockReference
  2
LOGO-PAD
 10
12.245701
 20
0.3040000000000003
 30
0.0
  0
LINE
  5
B1F
330
4037
100
AcDbEntity
  8
CONTINUOUS2
 62
     0
100
AcDbLine
 10
16.40000099999999
 20
0.3040000000000003
 30
0.0
 11
12.245701
 21
0.3040000000000003
 31
0.0
  0
LINE
  5
B20
330
4037
100
AcDbEntity
  8
CONTINUOUS2
 62
     0
100
AcDbLine
 10
12.245701
 20
0.9120019999999993
 30
0.0
 11
12.245701
 21
0.0
 31
0.0
  0
TEXT
  5
B21
330
4037
100
AcDbEntity
  8
TEXT1
  6
Continuous
 62
     0
100
AcDbText
 10
12.36897712113656
 20
0.0611566731182909
 30
0.0
 40
0.0699999951940822
  1
NO.
  7
ROMANS
 11
12.36897712113656
 21
0.096156670715332
 31
0.0
100
AcDbText
 73
     2
  0
TEXT
  5
B22
330
4037
100
AcDbEntity
  8
TEXT1
  6
Continuous
 62
     0
100
AcDbText
 10
12.36897712113656
 20
0.1661566731182908
 30
0.0
 40
0.0699999951940822
  1
DWG#
  7
ROMANS
 11
12.36897712113656
 21
0.2011566707153319
 31
0.0
100
AcDbText
 73
     2
  0
ATTDEF
  5
B23
330
4037
100
AcDbEntity
  8
TEXT1
 62
     0
100
AcDbText
 10
10.10183834893798
 20
0.7474460884590166
 30
0.0
 40
0.1
  1

  7
ROMANS
 72
     4
 11
10.10183834893798
 21
0.7474460884590166
 31
0.0
100
AcDbAttributeDefinition
  3
DESCRIPTION 1
  2
DESCRIPTION 1
 70
     0
  0
ATTDEF
  5
B24
330
4037
100
AcDbEntity
  8
TEXT1
 62
     0
100
AcDbText
 10
10.10183834893798
 20
0.6017231711406717
 30
0.0
 40
0.1
  1

  7
ROMANS
 72
     4
 11
10.10183834893798
 21
0.6017231711406717
 31
0.0
100
AcDbAttributeDefinition
  3
DESCRIPTION 2
  2
DESCRIPTION 2
 70
     0
  0
ATTDEF
  5
B25
330
4037
100
AcDbEntity
  8
TEXT1
 62
     0
100
AcDbText
 10
10.10183834893798
 20
0.4560002538223267
 30
0.0
 40
0.08
  1

  7
ROMANS
 72
     4
 11
10.10183834893798
 21
0.4560002538223267
 31
0.0
100
AcDbAttributeDefinition
  3
DESCRIPTION 3
  2
DESCRIPTION 3
 70
     0
  0
ATTDEF
  5
B26
330
4037
100
AcDbEntity
  8
TEXT1
 62
     0
100
AcDbText
 10
10.10183834893798
 20
0.3202773365039833
 30
0.0
 40
0.08
  1

  7
ROMANS
 72
     4
 11
10.10183834893798
 21
0.3202773365039833
 31
0.0
100
AcDbAttributeDefinition
  3
DESCRIPTION 4
  2
DESCRIPTION 4
 70
     0
  0
ATTDEF
  5
B27
330
4037
100
AcDbEntity
  8
TEXT1
 62
     0
100
AcDbText
 10
10.10183834893798
 20
0.1845544191856399
 30
0.0
 40
0.08
  1

  7
ROMANS
 72
     4
 11
10.10183834893798
 21
0.1845544191856399
 31
0.0
100
AcDbAttributeDefinition
  3
DESCRIPTION 5
  2
DESCRIPTION 5
 70
     0
  0
ATTDEF
  5
B28
330
4037
100
AcDbEntity
  8
TEXT1
 62
     0
100
AcDbText
 10
12.74772367103195
 20
0.096540546036505
 30
0.0
 40
0.12
  1

 41
0.9512024731840066
  7
M_STANDARD
 11
12.74772367103195
 21
0.156540546036505
 31
0.0
100
AcDbAttributeDefinition
  3
DRAWING NUMBER
  2
DWGNO
 70
     0
 74
     2
  0
ATTDEF
  5
B29
330
4037
100
AcDbEntity
  8
TEXT1
 62
     0
100
AcDbText
 10
16.35506454949325
 20
-0.1507193079929352
 30
0.0
 40
0.08
  1

  7
ROMANS
 72
     2
 11
16.35506454949325
 21
-0.1107193079929352
 31
0.0
100
AcDbAttributeDefinition
  3
REF DWG #
  2
REF
 70
     0
 74
     2
  0
ATTDEF
  5
B2A
330
4037
100
AcDbEntity
  8
TEXT1
 62
     0
100
AcDbText
 10
0.0266402374038712
 20
-0.1507193079929352
 30
0.0
 40
0.08
  1

  7
ROMANS
 11
0.0266402374038712
 21
-0.1107193079929352
 31
0.0
100
AcDbAttributeDefinition
  3
DATE MODIFIED
  2
DATE
 70
     0
 74
     2
  0
LWPOLYLINE
  5
B2B
330
4037
100
AcDbEntity
  8
CONTINUOUS3
 62
     0
100
AcDbPolyline
 90
        4
 70
   129
 43
0.0
 10
0.0
 20
0.0
 10
16.40000099999999
 20
0.0
 10
16.40000099999999
 20
10.25
 10
0.0
 20
10.25
  0
ENDBLK
  5
AF6
330
4037
100
AcDbEntity
  8
0
100
AcDbBlockEnd
  0
BLOCK
  5
CCA
330
4038
100
AcDbEntity
  8
0
100
AcDbBlockBegin
  2
REF2
 70
     2
 10
0.0
 20
0.0
 30
0.0
  3
REF2
  1

  0
ATTDEF
  5
CB8
330
4038
100
AcDbEntity
  8
REFERENCE
100
AcDbText
 10
2.181075792116067
 20
0.2204373050885355
 30
0.0
 40
0.125
  1

  7
SIMPLEX
100
AcDbAttributeDefinition
  3
Mounting Hardware?
  2
MOUNTING_HWD
 70
     0
  0
ATTDEF
  5
CB9
330
4038
100
AcDbEntity
  8
REFERENCE
100
AcDbText
 10
2.200348442097449
 20
0.4484790897328282
 30
0.0
 40
0.125
  1

  7
SIMPLEX
100
AcDbAttributeDefinition
  3
Terminal Torque
  2
TERM_TORQUE
 70
     0
  0
ATTDEF
  5
CBA
330
4038
100
AcDbEntity
  8
REFERENCE
100
AcDbText
 10
2.193924207883932
 20
0.6579373050885355
 30
0.0
 40
0.125
  1

  7
SIMPLEX
100
AcDbAttributeDefinition
  3
Wire Size?
  2
WIRE_SIZE
 70
     0
  0
ATTDEF
  5
CBB
330
4038
100
AcDbEntity
  8
REFERENCE
100
AcDbText
 10
2.193924207883932
 20
0.8564164127663893
 30
0.0
 40
0.125
  1

  7
SIMPLEX
100
AcDbAttributeDefinition
  3
Weight?
  2
WEIGHT
 70
     0
  0
ATTDEF
  5
CBC
330
4038
100
AcDbEntity
  8
REFERENCE
100
AcDbText
 10
2.1875
 20
1.0625
 30
0.0
 40
0.125
  1

  7
SIMPLEX
100
AcDbAttributeDefinition
  3
Meets Standards
  2
STANDARDS
 70
     0
  0
ATTDEF
  5
CBD
330
4038
100
AcDbEntity
  8
REFERENCE
100
AcDbText
 10
2.206772649981382
 20
1.293916394821363
 30
0.0
 40
0.125
  1

  7
SIMPLEX
100
AcDbAttributeDefinition
  3
CSA File/Guide
  2
CSA
 70
     0
  0
ATTDEF
  5
CBE
330
4038
100
AcDbEntity
  8
REFERENCE
100
AcDbText
 10
2.185634859238193
 20
1.5
 30
0.0
 40
0.125
  1

  7
SIMPLEX
100
AcDbAttributeDefinition
  3
UL File/Guide?
  2
UL
 70
     0
  0
ATTDEF
  5
CBF
330
4038
100
AcDbEntity
  8
REFERENCE
100
AcDbText
 10
2.181075792116067
 20
1.720437305088535
 30
0.0
 40
0.125
  1

  7
SIMPLEX
100
AcDbAttributeDefinition
  3
Ratings?
  2
RATING
 70
     0
  0
ATTDEF
  5
CC0
330
4038
100
AcDbEntity
  8
REFERENCE
100
AcDbText
 10
2.1875
 20
1.9375
 30
0.0
 40
0.125
  1

  7
SIMPLEX
100
AcDbAttributeDefinition
  3
Catalog Number?
  2
CATALOG
 70
     0
  0
TEXT
  5
CC1
330
4038
100
AcDbEntity
  8
TEXT1
100
AcDbText
 10
0.1875
 20
0.2232142857142856
 30
0.0
 40
0.125
  1
Mounting Hwd.:
  7
SIMPLEX
100
AcDbText
  0
TEXT
  5
CC2
330
4038
100
AcDbEntity
  8
TEXT1
100
AcDbText
 10
0.1875
 20
0.4375
 30
0.0
 40
0.125
  1
Terminal torque:
  7
SIMPLEX
100
AcDbText
  0
TEXT
  5
CC3
330
4038
100
AcDbEntity
  8
TEXT1
100
AcDbText
 10
0.1875
 20
0.6517857142857143
 30
0.0
 40
0.125
  1
Wire Size:
  7
SIMPLEX
100
AcDbText
  0
TEXT
  5
CC4
330
4038
100
AcDbEntity
  8
TEXT1
100
AcDbText
 10
0.1875
 20
0.8660714285714286
 30
0.0
 40
0.125
  1
Weight:
  7
SIMPLEX
100
AcDbText
  0
TEXT
  5
CC5
330
4038
100
AcDbEntity
  8
TEXT1
100
AcDbText
 10
0.1875
 20
1.080357142857143
 30
0.0
 40
0.125
  1
Meets Standards:
  7
SIMPLEX
100
AcDbText
  0
TEXT
  5
CC6
330
4038
100
AcDbEntity
  8
TEXT1
100
AcDbText
 10
0.1875
 20
1.294642857142856
 30
0.0
 40
0.125
  1
CSA File/Guide:
  7
SIMPLEX
100
AcDbText
  0
TEXT
  5
CC7
330
4038
100
AcDbEntity
  8
TEXT1
100
AcDbText
 10
0.1875
 20
1.508928571428571
 30
0.0
 40
0.125
  1
UL File/Guide:
  7
SIMPLEX
100
AcDbText
  0
TEXT
  5
CC8
330
4038
100
AcDbEntity
  8
TEXT1
100
AcDbText
 10
0.1875
 20
1.723214285714285
 30
0.0
 40
0.125
  1
Ratings:
  7
SIMPLEX
100
AcDbText
  0
TEXT
  5
CC9
330
4038
100
AcDbEntity
  8
TEXT1
100
AcDbText
 10
0.1875
 20
1.937499999999999
 30
0.0
 40
0.125
  1
Catalog Number:
  7
SIMPLEX
100
AcDbText
  0
ENDBLK
  5
CCB
330
4038
100
AcDbEntity
  8
0
100
AcDbBlockEnd
  0
BLOCK
  5
39D5
330
4039
100
AcDbEntity
  8
0
100
AcDbBlockBegin
  2
$SCREW
 70
     0
 10
0.0
 20
0.0
 30
0.0
  3
$SCREW
  1

  0
LINE
  5
39C9
330
4039
100
AcDbEntity
  8
DETAIL
  6
Continuous
 62
     3
100
AcDbLine
 10
0.0009648380875102
 20
0.0198520336007855
 30
0.0
 11
0.0704353907170248
 21
0.0882911059214626
 31
0.0
  0
CIRCLE
  5
39CA
330
4039
100
AcDbEntity
  8
DETAIL
  6
Continuous
 62
     3
100
AcDbCircle
 10
0.0008230171207764
 20
0.0008904730502302
 30
0.0
 40
0.1117351922359111
  0
LINE
  5
39CB
330
4039
100
AcDbEntity
  8
DETAIL
  6
Continuous
 62
     3
100
AcDbLine
 10
-0.0476793082100819
 20
0.0692293207394972
 30
0.0
 11
0.0009648380875102
 21
0.0198520336007855
 31
0.0
  0
LINE
  5
39CC
330
4039
100
AcDbEntity
  8
DETAIL
  6
Continuous
 62
     3
100
AcDbLine
 10
-0.0667826897273827
 20
0.0504095811556775
 30
0.0
 11
-0.0181385434297781
 21
0.0010322940169649
 31
0.0
  0
ARC
  5
39CD
330
4039
100
AcDbEntity
  8
DETAIL
  6
Continuous
 62
     3
100
AcDbCircle
 10
0.0008230171207764
 20
0.0008904730502302
 30
0.0
 40
0.0838013941769334
100
AcDbArc
 50
35.36457410662271
 51
53.77836654931397
  0
LINE
  5
39CE
330
4039
100
AcDbEntity
  8
DETAIL
  6
Continuous
 62
     3
100
AcDbLine
 10
0.0197845776713308
 20
0.0007486520834954
 30
0.0
 11
0.0892551303008436
 21
0.0691877244041734
 31
0.0
  0
LINE
  5
39CF
330
4039
100
AcDbEntity
  8
DETAIL
  6
Continuous
 62
     3
100
AcDbLine
 10
0.0006811961540425
 20
-0.0180710875003243
 30
0.0
 11
0.0493253424516453
 21
-0.067448374639036
 31
0.0
  0
ARC
  5
39D0
330
4039
100
AcDbEntity
  8
DETAIL
  6
Continuous
 62
     3
100
AcDbCircle
 10
0.0008230171207764
 20
0.0008904730502302
 30
0.0
 40
0.0838013941769334
100
AcDbArc
 50
305.3645741066227
 51
323.7783665493139
  0
LINE
  5
39D1
330
4039
100
AcDbEntity
  8
DETAIL
  6
Continuous
 62
     3
100
AcDbLine
 10
0.0197845776713308
 20
0.0007486520834954
 30
0.0
 11
0.0684287239689354
 21
-0.0486286350552163
 31
0.0
  0
LINE
  5
39D2
330
4039
100
AcDbEntity
  8
DETAIL
  6
Continuous
 62
     3
100
AcDbLine
 10
-0.0876090960592908
 20
-0.0674067783037122
 30
0.0
 11
-0.0181385434297781
 21
0.0010322940169649
 31
0.0
  0
ARC
  5
39D3
330
4039
100
AcDbEntity
  8
DETAIL
  6
Continuous
 62
     3
100
AcDbCircle
 10
0.0008230171207764
 20
0.0008904730502302
 30
0.0
 40
0.0838013941769334
100
AcDbArc
 50
215.3645741066227
 51
233.7783665493139
  0
LINE
  5
39D4
330
4039
100
AcDbEntity
  8
DETAIL
  6
Continuous
 62
     3
100
AcDbLine
 10
-0.068789356475472
 20
-0.0865101598210068
 30
0.0
 11
0.0006811961540425
 21
-0.0180710875003243
 31
0.0
  0
ENDBLK
  5
39D6
330
4039
100
AcDbEntity
  8
0
100
AcDbBlockEnd
  0
BLOCK
  5
3E7D
330
403A
100
AcDbEntity
  8
0
100
AcDbBlockBegin
  2
*D4
 70
     1
 10
0.0
 20
0.0
 30
0.0
  3
*D4
  1

  0
LINE
  5
3E7E
330
403A
100
AcDbEntity
  8
0
  6
ByBlock
100
AcDbLine
 10
9.068217825845632
 20
4.270333572573282
 30
0.0
 11
9.068217825845632
 21
3.70572847142125
 31
0.0
  0
LINE
  5
3E7F
330
403A
100
AcDbEntity
  8
0
  6
ByBlock
100
AcDbLine
 10
10.27478636834055
 20
4.366902115068206
 30
0.0
 11
10.27478636834055
 21
3.70572847142125
 31
0.0
  0
LINE
  5
3E80
330
403A
100
AcDbEntity
  8
0
  6
ByBlock
100
AcDbLine
 10
9.138217825845632
 20
3.76822847142125
 30
0.0
 11
9.526740192331187
 21
3.76822847142125
 31
0.0
  0
LINE
  5
3E81
330
403A
100
AcDbEntity
  8
0
  6
ByBlock
100
AcDbLine
 10
10.20478636834055
 20
3.76822847142125
 30
0.0
 11
9.816264001854998
 21
3.76822847142125
 31
0.0
  0
SOLID
  5
3E82
330
403A
100
AcDbEntity
  8
0
  6
ByBlock
100
AcDbTrace
 10
9.138217825845632
 20
3.779895138087916
 30
0.0
 11
9.138217825845632
 21
3.756561804754583
 31
0.0
 12
9.068217825845632
 22
3.76822847142125
 32
0.0
 13
9.068217825845632
 23
3.76822847142125
 33
0.0
  0
SOLID
  5
3E83
330
403A
100
AcDbEntity
  8
0
  6
ByBlock
100
AcDbTrace
 10
10.20478636834055
 20
3.779895138087916
 30
0.0
 11
10.20478636834055
 21
3.756561804754583
 31
0.0
 12
10.27478636834055
 22
3.76822847142125
 32
0.0
 13
10.27478636834055
 23
3.76822847142125
 33
0.0
  0
TEXT
  5
3E84
330
403A
100
AcDbEntity
  8
0
  6
ByBlock
100
AcDbText
 10
9.543883049474047
 20
3.72822847142125
 30
0.0
 40
0.08
  1
1.21
  7
ROMANS
100
AcDbText
  0
POINT
  5
3E85
330
403A
100
AcDbEntity
  8
DEFPOINTS
  6
ByBlock
 62
     0
100
AcDbPoint
 10
9.068217825845632
 20
4.332833572573282
 30
0.0
  0
POINT
  5
3E86
330
403A
100
AcDbEntity
  8
DEFPOINTS
  6
ByBlock
 62
     0
100
AcDbPoint
 10
10.27478636834055
 20
4.429402115068206
 30
0.0
  0
POINT
  5
3E87
330
403A
100
AcDbEntity
  8
DEFPOINTS
  6
ByBlock
 62
     0
100
AcDbPoint
 10
10.27478636834055
 20
3.76822847142125
 30
0.0
  0
ENDBLK
  5
3E88
330
403A
100
AcDbEntity
  8
0
100
AcDbBlockEnd
  0
BLOCK
  5
3E89
330
403B
100
AcDbEntity
  8
0
100
AcDbBlockBegin
  2
*D5
 70
     1
 10
0.0
 20
0.0
 30
0.0
  3
*D5
  1

  0
LINE
  5
3E8A
330
403B
100
AcDbEntity
  8
0
  6
ByBlock
100
AcDbLine
 10
5.697335055478077
 20
4.34347065756313
 30
0.0
 11
5.697335055478077
 21
3.70572847142125
 31
0.0
  0
LINE
  5
3E8B
330
403B
100
AcDbEntity
  8
0
  6
ByBlock
100
AcDbLine
 10
7.197335055478077
 20
4.34347065756313
 30
0.0
 11
7.197335055478077
 21
3.70572847142125
 31
0.0
  0
LINE
  5
3E8C
330
403B
100
AcDbEntity
  8
0
  6
ByBlock
100
AcDbLine
 10
5.767335055478078
 20
3.76822847142125
 30
0.0
 11
6.291144579287601
 21
3.76822847142125
 31
0.0
  0
LINE
  5
3E8D
330
403B
100
AcDbEntity
  8
0
  6
ByBlock
100
AcDbLine
 10
7.127335055478077
 20
3.76822847142125
 30
0.0
 11
6.603525531668553
 21
3.76822847142125
 31
0.0
  0
SOLID
  5
3E8E
330
403B
100
AcDbEntity
  8
0
  6
ByBlock
100
AcDbTrace
 10
5.767335055478078
 20
3.779895138087916
 30
0.0
 11
5.767335055478078
 21
3.756561804754583
 31
0.0
 12
5.697335055478077
 22
3.76822847142125
 32
0.0
 13
5.697335055478077
 23
3.76822847142125
 33
0.0
  0
SOLID
  5
3E8F
330
403B
100
AcDbEntity
  8
0
  6
ByBlock
100
AcDbTrace
 10
7.127335055478077
 20
3.779895138087916
 30
0.0
 11
7.127335055478077
 21
3.756561804754583
 31
0.0
 12
7.197335055478077
 22
3.76822847142125
 32
0.0
 13
7.197335055478077
 23
3.76822847142125
 33
0.0
  0
TEXT
  5
3E90
330
403B
100
AcDbEntity
  8
0
  6
ByBlock
100
AcDbText
 10
6.308287436430458
 20
3.72822847142125
 30
0.0
 40
0.08
  1
1.50
  7
ROMANS
100
AcDbText
  0
POINT
  5
3E91
330
403B
100
AcDbEntity
  8
DEFPOINTS
  6
ByBlock
 62
     0
100
AcDbPoint
 10
5.697335055478077
 20
4.40597065756313
 30
0.0
  0
POINT
  5
3E92
330
403B
100
AcDbEntity
  8
DEFPOINTS
  6
ByBlock
 62
     0
100
AcDbPoint
 10
7.197335055478077
 20
4.40597065756313
 30
0.0
  0
POINT
  5
3E93
330
403B
100
AcDbEntity
  8
DEFPOINTS
  6
ByBlock
 62
     0
100
AcDbPoint
 10
7.197335055478077
 20
3.76822847142125
 30
0.0
  0
ENDBLK
  5
3E94
330
403B
100
AcDbEntity
  8
0
100
AcDbBlockEnd
  0
BLOCK
  5
3E95
330
403C
100
AcDbEntity
  8
0
100
AcDbBlockBegin
  2
*D6
 70
     1
 10
0.0
 20
0.0
 30
0.0
  3
*D6
  1

  0
LINE
  5
3E96
330
403C
100
AcDbEntity
  8
0
  6
ByBlock
100
AcDbLine
 10
5.634835055478077
 20
4.40597065756313
 30
0.0
 11
5.170835051744457
 21
4.40597065756313
 31
0.0
  0
LINE
  5
3E97
330
403C
100
AcDbEntity
  8
0
  6
ByBlock
100
AcDbLine
 10
5.634835055478077
 20
5.455970657563129
 30
0.0
 11
5.170835051744457
 21
5.455970657563129
 31
0.0
  0
LINE
  5
3E98
330
403C
100
AcDbEntity
  8
0
  6
ByBlock
100
AcDbLine
 10
5.233335051744457
 20
4.475970657563131
 30
0.0
 11
5.233335051744457
 21
4.85097065756313
 31
0.0
  0
LINE
  5
3E99
330
403C
100
AcDbEntity
  8
0
  6
ByBlock
100
AcDbLine
 10
5.233335051744457
 20
5.385970657563129
 30
0.0
 11
5.233335051744457
 21
5.01097065756313
 31
0.0
  0
SOLID
  5
3E9A
330
403C
100
AcDbEntity
  8
0
  6
ByBlock
100
AcDbTrace
 10
5.221668385077791
 20
4.475970657563131
 30
0.0
 11
5.245001718411124
 21
4.475970657563131
 31
0.0
 12
5.233335051744457
 22
4.40597065756313
 32
0.0
 13
5.233335051744457
 23
4.40597065756313
 33
0.0
  0
SOLID
  5
3E9B
330
403C
100
AcDbEntity
  8
0
  6
ByBlock
100
AcDbTrace
 10
5.221668385077791
 20
5.385970657563129
 30
0.0
 11
5.245001718411124
 21
5.385970657563129
 31
0.0
 12
5.233335051744457
 22
5.455970657563129
 32
0.0
 13
5.233335051744457
 23
5.455970657563129
 33
0.0
  0
TEXT
  5
3E9C
330
403C
100
AcDbEntity
  8
0
  6
ByBlock
100
AcDbText
 10
5.094287432696838
 20
4.89097065756313
 30
0.0
 40
0.08
  1
1.05
  7
ROMANS
100
AcDbText
  0
POINT
  5
3E9D
330
403C
100
AcDbEntity
  8
DEFPOINTS
  6
ByBlock
 62
     0
100
AcDbPoint
 10
5.697335055478077
 20
4.40597065756313
 30
0.0
  0
POINT
  5
3E9E
330
403C
100
AcDbEntity
  8
DEFPOINTS
  6
ByBlock
 62
     0
100
AcDbPoint
 10
5.697335055478077
 20
5.455970657563129
 30
0.0
  0
POINT
  5
3E9F
330
403C
100
AcDbEntity
  8
DEFPOINTS
  6
ByBlock
 62
     0
100
AcDbPoint
 10
5.233335051744457
 20
5.455970657563129
 30
0.0
  0
ENDBLK
  5
3EA0
330
403C
100
AcDbEntity
  8
0
100
AcDbBlockEnd
  0
BLOCK
  5
3EA1
330
403D
100
AcDbEntity
  8
0
100
AcDbBlockBegin
  2
*D7
 70
     1
 10
0.0
 20
0.0
 30
0.0
  3
*D7
  1

  0
LINE
  5
3EA2
330
403D
100
AcDbEntity
  8
0
  6
ByBlock
100
AcDbLine
 10
7.199835055478075
 20
4.305970657563131
 30
0.0
 11
7.58517740227667
 21
4.30597065756313
 31
0.0
  0
LINE
  5
3EA3
330
403D
100
AcDbEntity
  8
0
  6
ByBlock
100
AcDbLine
 10
7.199835055478075
 20
5.555970657563129
 30
0.0
 11
7.58517740227667
 21
5.555970657563128
 31
0.0
  0
LINE
  5
3EA4
330
403D
100
AcDbEntity
  8
0
  6
ByBlock
100
AcDbLine
 10
7.52267740227667
 20
4.37597065756313
 30
0.0
 11
7.52267740227667
 21
4.850970657563129
 31
0.0
  0
LINE
  5
3EA5
330
403D
100
AcDbEntity
  8
0
  6
ByBlock
100
AcDbLine
 10
7.52267740227667
 20
5.485970657563128
 30
0.0
 11
7.52267740227667
 21
5.010970657563129
 31
0.0
  0
SOLID
  5
3EA6
330
403D
100
AcDbEntity
  8
0
  6
ByBlock
100
AcDbTrace
 10
7.511010735610003
 20
4.37597065756313
 30
0.0
 11
7.534344068943337
 21
4.37597065756313
 31
0.0
 12
7.52267740227667
 22
4.30597065756313
 32
0.0
 13
7.52267740227667
 23
4.30597065756313
 33
0.0
  0
SOLID
  5
3EA7
330
403D
100
AcDbEntity
  8
0
  6
ByBlock
100
AcDbTrace
 10
7.511010735610003
 20
5.485970657563128
 30
0.0
 11
7.534344068943337
 21
5.485970657563128
 31
0.0
 12
7.52267740227667
 22
5.555970657563128
 32
0.0
 13
7.52267740227667
 23
5.555970657563128
 33
0.0
  0
TEXT
  5
3EA8
330
403D
100
AcDbEntity
  8
0
  6
ByBlock
100
AcDbText
 10
7.383629783229051
 20
4.890970657563129
 30
0.0
 40
0.08
  1
1.25
  7
ROMANS
100
AcDbText
  0
POINT
  5
3EA9
330
403D
100
AcDbEntity
  8
DEFPOINTS
  6
ByBlock
 62
     0
100
AcDbPoint
 10
7.137335055478075
 20
4.305970657563131
 30
0.0
  0
POINT
  5
3EAA
330
403D
100
AcDbEntity
  8
DEFPOINTS
  6
ByBlock
 62
     0
100
AcDbPoint
 10
7.137335055478075
 20
5.555970657563129
 30
0.0
  0
POINT
  5
3EAB
330
403D
100
AcDbEntity
  8
DEFPOINTS
  6
ByBlock
 62
     0
100
AcDbPoint
 10
7.52267740227667
 20
5.555970657563128
 30
0.0
  0
ENDBLK
  5
3EAC
330
403D
100
AcDbEntity
  8
0
100
AcDbBlockEnd
  0
BLOCK
  5
408C
330
4081
100
AcDbEntity
  8
0
100
AcDbBlockBegin
  2
*D8
 70
     1
 10
0.0
 20
0.0
 30
0.0
  3
*D8
  1

  0
LINE
  5
4082
330
4081
100
AcDbEntity
  8
DIM
370
    -2
100
AcDbLine
 10
9.068217825845632
 20
4.270333572573282
 30
0.0
 11
9.068217825845632
 21
3.70572847142125
 31
0.0
  0
LINE
  5
4083
330
4081
100
AcDbEntity
  8
DIM
370
    -2
100
AcDbLine
 10
10.27478636834055
 20
4.366902115068206
 30
0.0
 11
10.27478636834055
 21
3.70572847142125
 31
0.0
  0
LINE
  5
4084
330
4081
100
AcDbEntity
  8
DIM
370
    -2
100
AcDbLine
 10
9.138217825845632
 20
3.76822847142125
 30
0.0
 11
9.439121144712142
 21
3.76822847142125
 31
0.0
  0
LINE
  5
4085
330
4081
100
AcDbEntity
  8
DIM
370
    -2
100
AcDbLine
 10
10.20478636834055
 20
3.76822847142125
 30
0.0
 11
9.903883049474046
 21
3.76822847142125
 31
0.0
  0
SOLID
  5
4086
330
4081
100
AcDbEntity
  8
DIM
100
AcDbTrace
 10
9.138217825845632
 20
3.779895138087916
 30
0.0
 11
9.138217825845632
 21
3.756561804754583
 31
0.0
 12
9.068217825845632
 22
3.76822847142125
 32
0.0
 13
9.068217825845632
 23
3.76822847142125
 33
0.0
  0
SOLID
  5
4087
330
4081
100
AcDbEntity
  8
DIM
100
AcDbTrace
 10
10.20478636834055
 20
3.779895138087916
 30
0.0
 11
10.20478636834055
 21
3.756561804754583
 31
0.0
 12
10.27478636834055
 22
3.76822847142125
 32
0.0
 13
10.27478636834055
 23
3.76822847142125
 33
0.0
  0
MTEXT
  5
4088
330
4081
100
AcDbEntity
  8
DIM
100
AcDbMText
 10
9.671502097093094
 20
3.76822847142125
 30
0.0
 40
0.08
 41
0.0
 71
     5
 72
     1
  1
\A1;1.2100
  7
ROMANS
 73
     1
 44
1.0
  0
POINT
  5
4089
330
4081
100
AcDbEntity
  8
DEFPOINTS
 62
     0
100
AcDbPoint
 10
9.068217825845632
 20
4.332833572573282
 30
0.0
  0
POINT
  5
408A
330
4081
100
AcDbEntity
  8
DEFPOINTS
 62
     0
100
AcDbPoint
 10
10.27478636834055
 20
4.429402115068206
 30
0.0
  0
POINT
  5
408B
330
4081
100
AcDbEntity
  8
DEFPOINTS
 62
     0
100
AcDbPoint
 10
10.27478636834055
 20
3.76822847142125
 30
0.0
  0
ENDBLK
  5
408D
330
4081
100
AcDbEntity
  8
0
100
AcDbBlockEnd
  0
BLOCK
  5
4099
330
408E
100
AcDbEntity
  8
0
100
AcDbBlockBegin
  2
*D9
 70
     1
 10
0.0
 20
0.0
 30
0.0
  3
*D9
  1

  0
LINE
  5
408F
330
408E
100
AcDbEntity
  8
DIM
370
    -2
100
AcDbLine
 10
5.697335055478077
 20
4.34347065756313
 30
0.0
 11
5.697335055478077
 21
3.70572847142125
 31
0.0
  0
LINE
  5
4090
330
408E
100
AcDbEntity
  8
DIM
370
    -2
100
AcDbLine
 10
7.197335055478077
 20
4.34347065756313
 30
0.0
 11
7.197335055478077
 21
3.70572847142125
 31
0.0
  0
LINE
  5
4091
330
408E
100
AcDbEntity
  8
DIM
370
    -2
100
AcDbLine
 10
5.767335055478078
 20
3.76822847142125
 30
0.0
 11
6.214954103097125
 21
3.76822847142125
 31
0.0
  0
LINE
  5
4092
330
408E
100
AcDbEntity
  8
DIM
370
    -2
100
AcDbLine
 10
7.127335055478077
 20
3.76822847142125
 30
0.0
 11
6.67971600785903
 21
3.76822847142125
 31
0.0
  0
SOLID
  5
4093
330
408E
100
AcDbEntity
  8
DIM
100
AcDbTrace
 10
5.767335055478078
 20
3.779895138087916
 30
0.0
 11
5.767335055478078
 21
3.756561804754583
 31
0.0
 12
5.697335055478077
 22
3.76822847142125
 32
0.0
 13
5.697335055478077
 23
3.76822847142125
 33
0.0
  0
SOLID
  5
4094
330
408E
100
AcDbEntity
  8
DIM
100
AcDbTrace
 10
7.127335055478077
 20
3.779895138087916
 30
0.0
 11
7.127335055478077
 21
3.756561804754583
 31
0.0
 12
7.197335055478077
 22
3.76822847142125
 32
0.0
 13
7.197335055478077
 23
3.76822847142125
 33
0.0
  0
MTEXT
  5
4095
330
408E
100
AcDbEntity
  8
DIM
100
AcDbMText
 10
6.447335055478077
 20
3.76822847142125
 30
0.0
 40
0.08
 41
0.0
 71
     5
 72
     1
  1
\A1;1.5000
  7
ROMANS
 73
     1
 44
1.0
  0
POINT
  5
4096
330
408E
100
AcDbEntity
  8
DEFPOINTS
 62
     0
100
AcDbPoint
 10
5.697335055478077
 20
4.40597065756313
 30
0.0
  0
POINT
  5
4097
330
408E
100
AcDbEntity
  8
DEFPOINTS
 62
     0
100
AcDbPoint
 10
7.197335055478077
 20
4.40597065756313
 30
0.0
  0
POINT
  5
4098
330
408E
100
AcDbEntity
  8
DEFPOINTS
 62
     0
100
AcDbPoint
 10
7.197335055478077
 20
3.76822847142125
 30
0.0
  0
ENDBLK
  5
409A
330
408E
100
AcDbEntity
  8
0
100
AcDbBlockEnd
  0
BLOCK
  5
40A6
330
409B
100
AcDbEntity
  8
0
100
AcDbBlockBegin
  2
*D10
 70
     1
 10
0.0
 20
0.0
 30
0.0
  3
*D10
  1

  0
LINE
  5
409C
330
409B
100
AcDbEntity
  8
DIM
370
    -2
100
AcDbLine
 10
5.634835055478077
 20
4.40597065756313
 30
0.0
 11
5.170835051744457
 21
4.40597065756313
 31
0.0
  0
LINE
  5
409D
330
409B
100
AcDbEntity
  8
DIM
370
    -2
100
AcDbLine
 10
5.634835055478077
 20
5.455970657563129
 30
0.0
 11
5.170835051744457
 21
5.455970657563129
 31
0.0
  0
LINE
  5
409E
330
409B
100
AcDbEntity
  8
DIM
370
    -2
100
AcDbLine
 10
5.233335051744457
 20
4.475970657563131
 30
0.0
 11
5.233335051744457
 21
4.85097065756313
 31
0.0
  0
LINE
  5
409F
330
409B
100
AcDbEntity
  8
DIM
370
    -2
100
AcDbLine
 10
5.233335051744457
 20
5.385970657563129
 30
0.0
 11
5.233335051744457
 21
5.01097065756313
 31
0.0
  0
SOLID
  5
40A0
330
409B
100
AcDbEntity
  8
DIM
100
AcDbTrace
 10
5.221668385077791
 20
4.475970657563131
 30
0.0
 11
5.245001718411124
 21
4.475970657563131
 31
0.0
 12
5.233335051744457
 22
4.40597065756313
 32
0.0
 13
5.233335051744457
 23
4.40597065756313
 33
0.0
  0
SOLID
  5
40A1
330
409B
100
AcDbEntity
  8
DIM
100
AcDbTrace
 10
5.221668385077791
 20
5.385970657563129
 30
0.0
 11
5.245001718411124
 21
5.385970657563129
 31
0.0
 12
5.233335051744457
 22
5.455970657563129
 32
0.0
 13
5.233335051744457
 23
5.455970657563129
 33
0.0
  0
MTEXT
  5
40A2
330
409B
100
AcDbEntity
  8
DIM
100
AcDbMText
 10
5.233335051744457
 20
4.930970657563131
 30
0.0
 40
0.08
 41
0.0
 71
     5
 72
     1
  1
\A1;1.0500
  7
ROMANS
 73
     1
 44
1.0
  0
POINT
  5
40A3
330
409B
100
AcDbEntity
  8
DEFPOINTS
 62
     0
100
AcDbPoint
 10
5.697335055478077
 20
4.40597065756313
 30
0.0
  0
POINT
  5
40A4
330
409B
100
AcDbEntity
  8
DEFPOINTS
 62
     0
100
AcDbPoint
 10
5.697335055478077
 20
5.455970657563129
 30
0.0
  0
POINT
  5
40A5
330
409B
100
AcDbEntity
  8
DEFPOINTS
 62
     0
100
AcDbPoint
 10
5.233335051744457
 20
5.455970657563129
 30
0.0
  0
ENDBLK
  5
40A7
330
409B
100
AcDbEntity
  8
0
100
AcDbBlockEnd
  0
BLOCK
  5
40B3
330
40A8
100
AcDbEntity
  8
0
100
AcDbBlockBegin
  2
*D11
 70
     1
 10
0.0
 20
0.0
 30
0.0
  3
*D11
  1

  0
LINE
  5
40A9
330
40A8
100
AcDbEntity
  8
DIM
370
    -2
100
AcDbLine
 10
7.199835055478075
 20
4.305970657563131
 30
0.0
 11
7.58517740227667
 21
4.305970657563131
 31
0.0
  0
LINE
  5
40AA
330
40A8
100
AcDbEntity
  8
DIM
370
    -2
100
AcDbLine
 10
7.199835055478075
 20
5.555970657563129
 30
0.0
 11
7.58517740227667
 21
5.555970657563129
 31
0.0
  0
LINE
  5
40AB
330
40A8
100
AcDbEntity
  8
DIM
370
    -2
100
AcDbLine
 10
7.52267740227667
 20
4.375970657563131
 30
0.0
 11
7.52267740227667
 21
4.85097065756313
 31
0.0
  0
LINE
  5
40AC
330
40A8
100
AcDbEntity
  8
DIM
370
    -2
100
AcDbLine
 10
7.52267740227667
 20
5.485970657563129
 30
0.0
 11
7.52267740227667
 21
5.01097065756313
 31
0.0
  0
SOLID
  5
40AD
330
40A8
100
AcDbEntity
  8
DIM
100
AcDbTrace
 10
7.511010735610003
 20
4.375970657563131
 30
0.0
 11
7.534344068943337
 21
4.375970657563131
 31
0.0
 12
7.52267740227667
 22
4.305970657563131
 32
0.0
 13
7.52267740227667
 23
4.305970657563131
 33
0.0
  0
SOLID
  5
40AE
330
40A8
100
AcDbEntity
  8
DIM
100
AcDbTrace
 10
7.511010735610003
 20
5.485970657563129
 30
0.0
 11
7.534344068943337
 21
5.485970657563129
 31
0.0
 12
7.52267740227667
 22
5.555970657563129
 32
0.0
 13
7.52267740227667
 23
5.555970657563129
 33
0.0
  0
MTEXT
  5
40AF
330
40A8
100
AcDbEntity
  8
DIM
100
AcDbMText
 10
7.522677402276669
 20
4.930970657563131
 30
0.0
 40
0.08
 41
0.0
 71
     5
 72
     1
  1
\A1;1.2500
  7
ROMANS
 73
     1
 44
1.0
  0
POINT
  5
40B0
330
40A8
100
AcDbEntity
  8
DEFPOINTS
 62
     0
100
AcDbPoint
 10
7.137335055478075
 20
4.305970657563131
 30
0.0
  0
POINT
  5
40B1
330
40A8
100
AcDbEntity
  8
DEFPOINTS
 62
     0
100
AcDbPoint
 10
7.137335055478075
 20
5.555970657563129
 30
0.0
  0
POINT
  5
40B2
330
40A8
100
AcDbEntity
  8
DEFPOINTS
 62
     0
100
AcDbPoint
 10
7.52267740227667
 20
5.555970657563129
 30
0.0
  0
ENDBLK
  5
40B4
330
40A8
100
AcDbEntity
  8
0
100
AcDbBlockEnd
  0
ENDSEC
  0
SECTION
  2
ENTITIES
  0
LWPOLYLINE
  5
BF7
330
4031
100
AcDbEntity
  8
VIEWPORT
100
AcDbPolyline
 90
        6
 70
     1
 43
0.0
 10
16.40000099999999
 20
10.25
 10
16.40000099999999
 20
0.9120019999999993
 10
8.002461
 20
0.9120019999999993
 10
8.002461
 20
0.0
 10
0.0
 20
0.0
 10
0.0
 20
10.25
1001
GENIUS_GENOREF_13
1005
0
1005
0
1005
0
1005
0
1005
0
1005
0
1005
0
1005
0
1005
0
1005
0
1005
0
1005
0
1005
0
1005
0
1005
0
  0
VIEWPORT
  5
BF8
330
4031
100
AcDbEntity
  8
VIEWPORT
100
AcDbViewport
 10
8.200000499999999
 20
5.125
 30
0.0
 40
16.40000099999999
 41
10.25
 69
     0
 12
8.193386135163111
 22
5.146330469914577
 13
0.0
 23
0.0
 14
0.5
 24
0.5
 15
0.5
 25
0.5
 16
0.0
 26
0.0
 36
1.0
 17
0.0
 27
0.0
 37
0.0
 42
50.0
 43
0.0
 44
0.0
 45
10.25
 50
0.0
 51
0.0
 72
   100
 90
    32832
  1

281
     0
 71
     1
 74
     0
110
0.0
120
0.0
130
0.0
111
1.0
121
0.0
131
0.0
112
0.0
122
1.0
132
0.0
 79
     0
146
0.0
1001
GENIUS_GENOREF_13
1005
0
1005
0
1005
0
1005
0
1005
0
1005
0
1005
0
1005
0
1005
0
1005
0
1005
0
1005
0
1005
0
1005
0
1005
0
1001
GENIUS_GENSCREG_15
1000
PF
1040
0.0
1000
DF
1040
0.0
1000
MIN
1011
0.0
1021
0.0
1031
0.0
1000
MAX
1011
16.40000099999999
1021
10.25
1031
0.0
1000
FLAGS
1070
     2
  0
TEXT
  5
160D
330
4031
100
AcDbEntity
  8
TITLEBLOCK
100
AcDbText
 10
1.27453125
 20
0.0684374999999986
 30
0.0
 40
0.065625
  1
TO INCORPORATING IN A DESIGN FILE."
 41
0.9
  7
SIMPLEX
 72
     4
 11
2.15625
 21
0.1074999999999986
 31
0.0
100
AcDbText
  0
TEXT
  5
160E
330
4031
100
AcDbEntity
  8
TITLEBLOCK
100
AcDbText
 10
0.3154687499999988
 20
0.2193749999999992
 30
0.0
 40
0.065625
  1
USER SHOULD VERIFY DRAWINGS ARE TO THE LATEST/CURRENT REVISION PRIOR
 41
0.9
  7
SIMPLEX
 72
     4
 11
2.15625
 21
0.2474999999999992
 31
0.0
100
AcDbText
  0
TEXT
  5
160F
330
4031
100
AcDbEntity
  8
TITLEBLOCK
100
AcDbText
 10
0.15234375
 20
0.6690624999999989
 30
0.0
 40
0.065625
  1
"THE SQUARE D COMPANY HAS PROPRIETARY RIGHTS TO THE INFORMATION CONTAINED
 41
0.9
  7
SIMPLEX
 72
     4
 11
2.15625
 21
0.7049999999999988
 31
0.0
100
AcDbText
  0
TEXT
  5
1610
330
4031
100
AcDbEntity
  8
TITLEBLOCK
100
AcDbText
 10
0.1270312500000004
 20
0.5228125000000006
 30
0.0
 40
0.065625
  1
HEREON. THIS INFORMATION REMAINS THE PROPERTY OF SQUARE D COMPANY AND MAY
 41
0.9
  7
SIMPLEX
 72
     4
 11
2.15625
 21
0.5525000000000007
 31
0.0
100
AcDbText
  0
TEXT
  5
1611
330
4031
100
AcDbEntity
  8
TITLEBLOCK
100
AcDbText
 10
0.1565624999999979
 20
0.3703124999999999
 30
0.0
 40
0.065625
  1
BE USED ONLY IN CONFORMANCE WITH INSTRUCTIONS ISSUED BY SQUARE D COMPANY.
 41
0.9
  7
SIMPLEX
 72
     4
 11
2.15625
 21
0.3999999999999999
 31
0.0
100
AcDbText
  0
LWPOLYLINE
  5
1612
330
4031
100
AcDbEntity
  8
TITLEBLOCK
100
AcDbPolyline
 90
        2
 70
     0
 43
0.0064
 10
4.3125
 20
0.0000000000000004
 10
4.3125
 20
0.8000000000000003
  0
TEXT
  5
1616
330
4031
100
AcDbEntity
  8
TITLEBLOCK
100
AcDbText
 10
4.3918560035627
 20
0.2736099999999983
 30
0.0
 40
0.1216581250000001
  1
%%uDO NOT SCALE DRAWING
  7
SIMPLEX
 72
     1
 11
5.53225609433651
 21
0.2736099999999983
 31
0.0
100
AcDbText
  0
TEXT
  5
1617
330
4031
100
AcDbEntity
  8
TITLEBLOCK
100
AcDbText
 10
4.523189427669843
 20
0.1314713244811549
 30
0.0
 40
0.056
  1
UNLESS OTHERWISE SPECIFIED DIMENSIONS ARE IN INCHES
 41
0.8
  7
SIMPLEX
 72
     4
 11
5.53225609433651
 21
0.159471324481155
 31
0.0
100
AcDbText
  0
LWPOLYLINE
  5
1618
330
4031
100
AcDbEntity
  8
TITLEBLOCK
100
AcDbPolyline
 90
        2
 70
     0
 43
0.0064
 10
4.3125
 20
0.4799999999999982
 10
4.3125
 20
0.0000000000000004
  0
LWPOLYLINE
  5
161C
330
4031
100
AcDbEntity
  8
TITLEBLOCK
100
AcDbPolyline
 90
        2
 70
     0
 43
0.0064
 10
6.746211000000039
 20
0.7999999999999976
 10
6.746211000000039
 20
0.0000000000000004
  0
LWPOLYLINE
  5
1620
330
4031
100
AcDbEntity
  8
TITLEBLOCK
100
AcDbPolyline
 90
        2
 70
     0
 43
0.0064
 10
4.3125
 20
0.4799999999999982
 10
8.002461000000039
 20
0.4799999999999982
  0
TEXT
  5
1624
330
4031
100
AcDbEntity
  8
TITLEBLOCK
100
AcDbText
 10
7.023711000000039
 20
0.3487499999999986
 30
0.0
 40
0.075
  1
%%uTOLERANCES
  7
SIMPLEX
100
AcDbText
  0
TEXT
  5
1625
330
4031
100
AcDbEntity
  8
TITLEBLOCK
100
AcDbText
 10
6.811211000000039
 20
0.2237499999999986
 30
0.0
 40
0.05
  1
UNLESS OTHERWISE SPECIFIED
  7
SIMPLEX
100
AcDbText
  0
TEXT
  5
1626
330
4031
100
AcDbEntity
  8
TITLEBLOCK
100
AcDbText
 10
6.886211000000038
 20
0.1049999999999982
 30
0.0
 40
0.05
  1
2 PLACE DECIMALS
  7
SIMPLEX
100
AcDbText
  0
TEXT
  5
1627
330
4031
100
AcDbEntity
  8
TITLEBLOCK
100
AcDbText
 10
7.679961000000039
 20
0.123749999999998
 30
0.0
 40
0.05
  1
+
  7
SIMPLEX
100
AcDbText
  0
LINE
  5
1628
330
4031
100
AcDbEntity
  8
TITLEBLOCK
100
AcDbLine
 10
7.67746100000004
 20
0.1093749999999987
 30
0.0
 11
7.72746100000004
 21
0.1093749999999987
 31
0.0
  0
TEXT
  5
1629
330
4031
100
AcDbEntity
  8
TITLEBLOCK
100
AcDbText
 10
7.786211000000038
 20
0.1049999999999982
 30
0.0
 40
0.05
  1
.01
  7
SIMPLEX
100
AcDbText
  0
LINE
  5
162A
330
4031
100
AcDbEntity
  8
TITLEBLOCK
100
AcDbLine
 10
7.34846243440004
 20
0.6501758575999986
 30
0.0
 11
7.95646261760004
 21
0.6501758575999986
 31
0.0
  0
LINE
  5
162B
330
4031
100
AcDbEntity
  8
TITLEBLOCK
100
AcDbLine
 10
7.47646307520004
 20
0.6981771471999996
 30
0.0
 11
7.47646307520004
 21
0.7621772767999988
 31
0.0
  0
LINE
  5
162C
330
4031
100
AcDbEntity
  8
TITLEBLOCK
100
AcDbLine
 10
7.668462128800038
 20
0.6821759223999995
 30
0.0
 11
7.892461152800038
 21
0.7141755103999983
 31
0.0
  0
LINE
  5
162D
330
4031
100
AcDbEntity
  8
TITLEBLOCK
100
AcDbLine
 10
7.892461152800038
 20
0.7141755103999983
 30
0.0
 11
7.892461152800038
 21
0.5861757279999993
 31
0.0
  0
LINE
  5
162E
330
4031
100
AcDbEntity
  8
TITLEBLOCK
100
AcDbLine
 10
7.892461152800038
 20
0.5861757279999993
 30
0.0
 11
7.668462128800038
 21
0.6181757927999985
 31
0.0
  0
LINE
  5
162F
330
4031
100
AcDbEntity
  8
TITLEBLOCK
100
AcDbLine
 10
7.668462128800038
 20
0.6181757927999985
 30
0.0
 11
7.668462128800038
 21
0.6821759223999995
 31
0.0
  0
LINE
  5
1630
330
4031
100
AcDbEntity
  8
TITLEBLOCK
100
AcDbLine
 10
7.47646307520004
 20
0.6021759983999986
 30
0.0
 11
7.47646307520004
 21
0.5381758687999994
 31
0.0
  0
LINE
  5
1631
330
4031
100
AcDbEntity
  8
TITLEBLOCK
100
AcDbLine
 10
7.47646307520004
 20
0.6661756511999984
 30
0.0
 11
7.47646307520004
 21
0.6341755863999983
 31
0.0
  0
CIRCLE
  5
1632
330
4031
100
AcDbEntity
  8
TITLEBLOCK
100
AcDbCircle
 10
7.47646307520004
 20
0.650176334399998
 30
0.0
 40
0.0320000023999995
  0
CIRCLE
  5
1633
330
4031
100
AcDbEntity
  8
TITLEBLOCK
100
AcDbCircle
 10
7.47646307520004
 20
0.650176334399998
 30
0.0
 40
0.0639999807999999
  0
TEXT
  5
1634
330
4031
100
AcDbEntity
  8
TITLEBLOCK
100
AcDbText
 10
6.779961000000039
 20
0.6737499999999988
 30
0.0
 40
0.05
  1
THIRD ANGLE
  7
SIMPLEX
100
AcDbText
  0
TEXT
  5
1635
330
4031
100
AcDbEntity
  8
TITLEBLOCK
100
AcDbText
 10
6.811211000000039
 20
0.5737499999999982
 30
0.0
 40
0.05
  1
PROJECTION
  7
SIMPLEX
100
AcDbText
  0
LWPOLYLINE
  5
1636
330
4031
100
AcDbEntity
  8
TITLEBLOCK
100
AcDbPolyline
 90
        2
 70
     0
 43
0.0064
 10
8.002461000000039
 20
0.7999999999999976
 10
6.746211000000039
 20
0.7999999999999976
  0
LWPOLYLINE
  5
163A
330
4031
100
AcDbEntity
  8
TITLEBLOCK
100
AcDbPolyline
 90
        2
 70
     0
 43
0.0064
 10
4.3125
 20
0.7999999999999985
 10
0.0
 20
0.8000000000000003
  0
INSERT
  5
233E
330
4031
100
AcDbEntity
  8
TEXT1
100
AcDbBlockReference
 66
     1
  2
REF2
 10
0.0
 20
0.8000000000000003
 30
0.0
 41
0.6399987200000011
 42
0.63999872
 43
0.63999872
  0
ATTRIB
  5
233F
330
233E
100
AcDbEntity
  8
TEXT1
100
AcDbText
 10
1.199997599999999
 20
0.941079593096912
 30
0.0
 40
0.07999984
  1
CLIP-ON FRONT MOUNTING
  7
ROMANS
100
AcDbAttribute
  2
MOUNTING_HWD
 70
     0
  0
ATTRIB
  5
2340
330
233E
100
AcDbEntity
  8
TEXT1
100
AcDbText
 10
1.199997599999999
 20
1.087026043375775
 30
0.0
 40
0.07999984
  1
7 LB-IN
  7
ROMANS
100
AcDbAttribute
  2
TERM_TORQUE
 70
     0
  0
ATTRIB
  5
2341
330
233E
100
AcDbEntity
  8
TEXT1
100
AcDbText
 10
1.199997599999999
 20
1.221079033096912
 30
0.0
 40
0.07999984
  1
SEE CHART
  7
ROMANS
100
AcDbAttribute
  2
WIRE_SIZE
 70
     0
  0
ATTRIB
  5
2342
330
233E
100
AcDbEntity
  8
TEXT1
100
AcDbText
 10
1.199997599999999
 20
1.348105407957481
 30
0.0
 40
0.07999984
  1
-
  7
ROMANS
100
AcDbAttribute
  2
WEIGHT
 70
     0
  0
ATTRIB
  5
2343
330
233E
100
AcDbEntity
  8
TEXT1
100
AcDbText
 10
1.199997599999999
 20
1.47999864
 30
0.0
 40
0.07999984
  1
-
  7
ROMANS
100
AcDbAttribute
  2
STANDARDS
 70
     0
  0
ATTRIB
  5
2344
330
233E
100
AcDbEntity
  8
TEXT1
100
AcDbText
 10
1.199997599999999
 20
1.628104836472687
 30
0.0
 40
0.07999984
  1
-
  7
ROMANS
100
AcDbAttribute
  2
CSA
 70
     0
  0
ATTRIB
  5
2345
330
233E
100
AcDbEntity
  8
TEXT1
100
AcDbText
 10
1.207026898796186
 20
1.759998079999999
 30
0.0
 40
0.07999984
  1
-
  7
ROMANS
100
AcDbAttribute
  2
UL
 70
     0
  0
ATTRIB
  5
2346
330
233E
100
AcDbEntity
  8
TEXT1
100
AcDbText
 10
1.199997599999999
 20
1.901077673096912
 30
0.0
 40
0.07999984
  1
-
  7
ROMANS
100
AcDbAttribute
  2
RATING
 70
     0
  0
ATTRIB
  5
2347
330
233E
100
AcDbEntity
  8
TEXT1
100
AcDbText
 10
1.199997599999999
 20
2.03999752
 30
0.0
 40
0.07999984
  1
LA1 KN20, LA1 KN02, LA1 KN11
  7
ROMANS
100
AcDbAttribute
  2
CATALOG
 70
     0
  0
SEQEND
  5
2348
330
233E
100
AcDbEntity
  8
BORDER
  0
LINE
  5
3AFE
330
4031
100
AcDbEntity
  8
CONTINUOUS2
100
AcDbLine
 10
5.697335055478077
 20
5.455970657563129
 30
0.0
 11
5.777335055478076
 21
5.455970657563129
 31
0.0
  0
LINE
  5
3AFF
330
4031
100
AcDbEntity
  8
CONTINUOUS2
100
AcDbLine
 10
5.777335055478076
 20
5.455970657563129
 30
0.0
 11
5.777335055478076
 21
5.545970657563129
 31
0.0
  0
LINE
  5
3B00
330
4031
100
AcDbEntity
  8
CONTINUOUS2
100
AcDbLine
 10
5.777335055478076
 20
5.545970657563129
 30
0.0
 11
5.807335055478077
 21
5.545970657563129
 31
0.0
  0
LINE
  5
3B01
330
4031
100
AcDbEntity
  8
CONTINUOUS2
100
AcDbLine
 10
5.807335055478077
 20
5.545970657563129
 30
0.0
 11
5.807335055478077
 21
5.455970657563129
 31
0.0
  0
LINE
  5
3B02
330
4031
100
AcDbEntity
  8
CONTINUOUS2
100
AcDbLine
 10
5.807335055478077
 20
5.455970657563129
 30
0.0
 11
6.107335055478074
 21
5.455970657563129
 31
0.0
  0
LINE
  5
3B03
330
4031
100
AcDbEntity
  8
CONTINUOUS2
100
AcDbLine
 10
6.107335055478074
 20
5.455970657563129
 30
0.0
 11
6.107335055478074
 21
5.56597065756313
 31
0.0
  0
LINE
  5
3B04
330
4031
100
AcDbEntity
  8
CONTINUOUS2
100
AcDbLine
 10
6.107335055478074
 20
5.56597065756313
 30
0.0
 11
6.137335055478075
 21
5.56597065756313
 31
0.0
  0
LINE
  5
3B05
330
4031
100
AcDbEntity
  8
CONTINUOUS2
100
AcDbLine
 10
6.137335055478075
 20
5.56597065756313
 30
0.0
 11
6.137335055478075
 21
5.455970657563129
 31
0.0
  0
LINE
  5
3B06
330
4031
100
AcDbEntity
  8
CONTINUOUS2
100
AcDbLine
 10
6.467335055478077
 20
5.56597065756313
 30
0.0
 11
6.467335055478077
 21
5.455970657563129
 31
0.0
  0
LINE
  5
3B07
330
4031
100
AcDbEntity
  8
CONTINUOUS2
100
AcDbLine
 10
6.437335055478076
 20
5.56597065756313
 30
0.0
 11
6.467335055478077
 21
5.56597065756313
 31
0.0
  0
LINE
  5
3B08
330
4031
100
AcDbEntity
  8
CONTINUOUS2
100
AcDbLine
 10
6.437335055478076
 20
5.455970657563129
 30
0.0
 11
6.437335055478076
 21
5.56597065756313
 31
0.0
  0
LINE
  5
3B09
330
4031
100
AcDbEntity
  8
CONTINUOUS2
100
AcDbLine
 10
6.137335055478075
 20
5.455970657563129
 30
0.0
 11
6.437335055478076
 21
5.455970657563129
 31
0.0
  0
LINE
  5
3B0A
330
4031
100
AcDbEntity
  8
CONTINUOUS2
100
AcDbLine
 10
6.797335055478075
 20
5.56597065756313
 30
0.0
 11
6.797335055478075
 21
5.455970657563129
 31
0.0
  0
LINE
  5
3B0B
330
4031
100
AcDbEntity
  8
CONTINUOUS2
100
AcDbLine
 10
6.767335055478078
 20
5.56597065756313
 30
0.0
 11
6.797335055478075
 21
5.56597065756313
 31
0.0
  0
LINE
  5
3B0C
330
4031
100
AcDbEntity
  8
CONTINUOUS2
100
AcDbLine
 10
6.767335055478078
 20
5.455970657563129
 30
0.0
 11
6.767335055478078
 21
5.56597065756313
 31
0.0
  0
LINE
  5
3B0D
330
4031
100
AcDbEntity
  8
CONTINUOUS2
100
AcDbLine
 10
6.467335055478077
 20
5.455970657563129
 30
0.0
 11
6.767335055478078
 21
5.455970657563129
 31
0.0
  0
LINE
  5
3B0E
330
4031
100
AcDbEntity
  8
CONTINUOUS2
100
AcDbLine
 10
6.797335055478075
 20
5.455970657563129
 30
0.0
 11
7.107335055478074
 21
5.455970657563129
 31
0.0
  0
LINE
  5
3B0F
330
4031
100
AcDbEntity
  8
CONTINUOUS2
100
AcDbLine
 10
7.107335055478074
 20
5.455970657563129
 30
0.0
 11
7.107335055478074
 21
5.555970657563129
 31
0.0
  0
LINE
  5
3B10
330
4031
100
AcDbEntity
  8
CONTINUOUS2
100
AcDbLine
 10
7.107335055478074
 20
5.555970657563129
 30
0.0
 11
7.137335055478075
 21
5.555970657563129
 31
0.0
  0
LINE
  5
3B11
330
4031
100
AcDbEntity
  8
CONTINUOUS2
100
AcDbLine
 10
7.137335055478075
 20
5.555970657563129
 30
0.0
 11
7.137335055478075
 21
5.455970657563129
 31
0.0
  0
LINE
  5
3B12
330
4031
100
AcDbEntity
  8
CONTINUOUS2
100
AcDbLine
 10
7.137335055478075
 20
5.455970657563129
 30
0.0
 11
7.197335055478077
 21
5.455970657563129
 31
0.0
  0
LINE
  5
3B13
330
4031
100
AcDbEntity
  8
CONTINUOUS2
100
AcDbLine
 10
7.197335055478077
 20
5.455970657563129
 30
0.0
 11
7.197335055478077
 21
4.40597065756313
 31
0.0
  0
LINE
  5
3B14
330
4031
100
AcDbEntity
  8
CONTINUOUS2
100
AcDbLine
 10
7.137335055478075
 20
4.305970657563131
 30
0.0
 11
7.137335055478075
 21
4.40597065756313
 31
0.0
  0
LINE
  5
3B15
330
4031
100
AcDbEntity
  8
CONTINUOUS2
100
AcDbLine
 10
7.107335055478074
 20
4.305970657563131
 30
0.0
 11
7.137335055478075
 21
4.305970657563131
 31
0.0
  0
LINE
  5
3B16
330
4031
100
AcDbEntity
  8
CONTINUOUS2
100
AcDbLine
 10
7.107335055478074
 20
4.40597065756313
 30
0.0
 11
7.107335055478074
 21
4.305970657563131
 31
0.0
  0
LINE
  5
3B17
330
4031
100
AcDbEntity
  8
CONTINUOUS2
100
AcDbLine
 10
6.797335055478075
 20
4.40597065756313
 30
0.0
 11
7.107335055478074
 21
4.40597065756313
 31
0.0
  0
LINE
  5
3B18
330
4031
100
AcDbEntity
  8
CONTINUOUS2
100
AcDbLine
 10
6.467335055478077
 20
4.40597065756313
 30
0.0
 11
6.767335055478078
 21
4.40597065756313
 31
0.0
  0
LINE
  5
3B19
330
4031
100
AcDbEntity
  8
CONTINUOUS2
100
AcDbLine
 10
6.767335055478078
 20
4.40597065756313
 30
0.0
 11
6.767335055478078
 21
4.29597065756313
 31
0.0
  0
LINE
  5
3B1A
330
4031
100
AcDbEntity
  8
CONTINUOUS2
100
AcDbLine
 10
6.767335055478078
 20
4.29597065756313
 30
0.0
 11
6.797335055478075
 21
4.29597065756313
 31
0.0
  0
LINE
  5
3B1B
330
4031
100
AcDbEntity
  8
CONTINUOUS2
100
AcDbLine
 10
6.797335055478075
 20
4.29597065756313
 30
0.0
 11
6.797335055478075
 21
4.40597065756313
 31
0.0
  0
LINE
  5
3B1C
330
4031
100
AcDbEntity
  8
CONTINUOUS2
100
AcDbLine
 10
6.137335055478075
 20
4.40597065756313
 30
0.0
 11
6.437335055478076
 21
4.40597065756313
 31
0.0
  0
LINE
  5
3B1D
330
4031
100
AcDbEntity
  8
CONTINUOUS2
100
AcDbLine
 10
6.437335055478076
 20
4.40597065756313
 30
0.0
 11
6.437335055478076
 21
4.29597065756313
 31
0.0
  0
LINE
  5
3B1E
330
4031
100
AcDbEntity
  8
CONTINUOUS2
100
AcDbLine
 10
6.437335055478076
 20
4.29597065756313
 30
0.0
 11
6.467335055478077
 21
4.29597065756313
 31
0.0
  0
LINE
  5
3B1F
330
4031
100
AcDbEntity
  8
CONTINUOUS2
100
AcDbLine
 10
6.467335055478077
 20
4.29597065756313
 30
0.0
 11
6.467335055478077
 21
4.40597065756313
 31
0.0
  0
LINE
  5
3B20
330
4031
100
AcDbEntity
  8
CONTINUOUS2
100
AcDbLine
 10
6.137335055478075
 20
4.29597065756313
 30
0.0
 11
6.137335055478075
 21
4.40597065756313
 31
0.0
  0
LINE
  5
3B21
330
4031
100
AcDbEntity
  8
CONTINUOUS2
100
AcDbLine
 10
6.107335055478074
 20
4.29597065756313
 30
0.0
 11
6.137335055478075
 21
4.29597065756313
 31
0.0
  0
LINE
  5
3B22
330
4031
100
AcDbEntity
  8
CONTINUOUS2
100
AcDbLine
 10
6.107335055478074
 20
4.40597065756313
 30
0.0
 11
6.107335055478074
 21
4.29597065756313
 31
0.0
  0
LINE
  5
3B23
330
4031
100
AcDbEntity
  8
CONTINUOUS2
100
AcDbLine
 10
5.807335055478077
 20
4.40597065756313
 30
0.0
 11
6.107335055478074
 21
4.40597065756313
 31
0.0
  0
LINE
  5
3B24
330
4031
100
AcDbEntity
  8
CONTINUOUS2
100
AcDbLine
 10
5.807335055478077
 20
4.315970657563131
 30
0.0
 11
5.807335055478077
 21
4.40597065756313
 31
0.0
  0
LINE
  5
3B25
330
4031
100
AcDbEntity
  8
CONTINUOUS2
100
AcDbLine
 10
5.777335055478076
 20
4.315970657563131
 30
0.0
 11
5.807335055478077
 21
4.315970657563131
 31
0.0
  0
LINE
  5
3B26
330
4031
100
AcDbEntity
  8
CONTINUOUS2
100
AcDbLine
 10
5.777335055478076
 20
4.40597065756313
 30
0.0
 11
5.777335055478076
 21
4.315970657563131
 31
0.0
  0
LINE
  5
3B27
330
4031
100
AcDbEntity
  8
CONTINUOUS2
100
AcDbLine
 10
5.697335055478077
 20
4.40597065756313
 30
0.0
 11
5.777335055478076
 21
4.40597065756313
 31
0.0
  0
LINE
  5
3B28
330
4031
100
AcDbEntity
  8
CONTINUOUS2
100
AcDbLine
 10
7.137335055478075
 20
4.40597065756313
 30
0.0
 11
7.197335055478077
 21
4.40597065756313
 31
0.0
  0
LINE
  5
3B29
330
4031
100
AcDbEntity
  8
CONTINUOUS2
100
AcDbLine
 10
5.697335055478077
 20
5.455970657563129
 30
0.0
 11
5.697335055478077
 21
4.40597065756313
 31
0.0
  0
LINE
  5
3B2A
330
4031
100
AcDbEntity
  8
CONTINUOUS2
100
AcDbLine
 10
6.437335055478076
 20
5.455970657563129
 30
0.0
 11
6.437335055478076
 21
5.515970657563129
 31
0.0
  0
LINE
  5
3B2B
330
4031
100
AcDbEntity
  8
CONTINUOUS2
100
AcDbLine
 10
6.437335055478076
 20
5.515970657563129
 30
0.0
 11
6.237335055478077
 21
5.515970657563129
 31
0.0
  0
LINE
  5
3B2C
330
4031
100
AcDbEntity
  8
CONTINUOUS2
100
AcDbLine
 10
6.197335055478077
 20
5.455970657563129
 30
0.0
 11
6.237335055478077
 21
5.515970657563129
 31
0.0
  0
LINE
  5
3B2D
330
4031
100
AcDbEntity
  8
CONTINUOUS2
100
AcDbLine
 10
6.707335055478075
 20
5.455970657563129
 30
0.0
 11
6.667335055478076
 21
5.515970657563129
 31
0.0
  0
LINE
  5
3B2E
330
4031
100
AcDbEntity
  8
CONTINUOUS2
100
AcDbLine
 10
6.467335055478077
 20
5.515970657563129
 30
0.0
 11
6.667335055478076
 21
5.515970657563129
 31
0.0
  0
LINE
  5
3B2F
330
4031
100
AcDbEntity
  8
CONTINUOUS2
100
AcDbLine
 10
6.197335055478077
 20
4.40597065756313
 30
0.0
 11
6.237335055478077
 21
4.345970657563131
 31
0.0
  0
LINE
  5
3B30
330
4031
100
AcDbEntity
  8
CONTINUOUS2
100
AcDbLine
 10
6.437335055478076
 20
4.345970657563131
 30
0.0
 11
6.237335055478077
 21
4.345970657563131
 31
0.0
  0
LINE
  5
3B31
330
4031
100
AcDbEntity
  8
CONTINUOUS2
100
AcDbLine
 10
6.467335055478077
 20
4.345970657563131
 30
0.0
 11
6.667335055478076
 21
4.345970657563131
 31
0.0
  0
LINE
  5
3B32
330
4031
100
AcDbEntity
  8
CONTINUOUS2
100
AcDbLine
 10
6.707335055478075
 20
4.40597065756313
 30
0.0
 11
6.667335055478076
 21
4.345970657563131
 31
0.0
  0
LINE
  5
3B33
330
4031
100
AcDbEntity
  8
CONTINUOUS1
100
AcDbLine
 10
5.777335055478076
 20
5.455970657563129
 30
0.0
 11
5.807335055478077
 21
5.455970657563129
 31
0.0
  0
LINE
  5
3B34
330
4031
100
AcDbEntity
  8
CONTINUOUS1
100
AcDbLine
 10
6.107335055478074
 20
5.455970657563129
 30
0.0
 11
6.137335055478075
 21
5.455970657563129
 31
0.0
  0
LINE
  5
3B35
330
4031
100
AcDbEntity
  8
CONTINUOUS1
100
AcDbLine
 10
6.437335055478076
 20
5.455970657563129
 30
0.0
 11
6.467335055478077
 21
5.455970657563129
 31
0.0
  0
LINE
  5
3B36
330
4031
100
AcDbEntity
  8
CONTINUOUS1
100
AcDbLine
 10
6.767335055478078
 20
5.455970657563129
 30
0.0
 11
6.797335055478075
 21
5.455970657563129
 31
0.0
  0
LINE
  5
3B37
330
4031
100
AcDbEntity
  8
CONTINUOUS1
100
AcDbLine
 10
7.107335055478074
 20
5.455970657563129
 30
0.0
 11
7.137335055478075
 21
5.455970657563129
 31
0.0
  0
LINE
  5
3B38
330
4031
100
AcDbEntity
  8
CONTINUOUS1
100
AcDbLine
 10
5.777335055478076
 20
4.40597065756313
 30
0.0
 11
5.807335055478077
 21
4.40597065756313
 31
0.0
  0
LINE
  5
3B39
330
4031
100
AcDbEntity
  8
CONTINUOUS1
100
AcDbLine
 10
6.107335055478074
 20
4.40597065756313
 30
0.0
 11
6.137335055478075
 21
4.40597065756313
 31
0.0
  0
LINE
  5
3B3A
330
4031
100
AcDbEntity
  8
CONTINUOUS1
100
AcDbLine
 10
6.437335055478076
 20
4.40597065756313
 30
0.0
 11
6.467335055478077
 21
4.40597065756313
 31
0.0
  0
LINE
  5
3B3B
330
4031
100
AcDbEntity
  8
CONTINUOUS1
100
AcDbLine
 10
6.767335055478078
 20
4.40597065756313
 30
0.0
 11
6.797335055478075
 21
4.40597065756313
 31
0.0
  0
LINE
  5
3B3C
330
4031
100
AcDbEntity
  8
CONTINUOUS1
100
AcDbLine
 10
7.107335055478074
 20
4.40597065756313
 30
0.0
 11
7.137335055478075
 21
4.40597065756313
 31
0.0
  0
INSERT
  5
3B3D
330
4031
100
AcDbEntity
  8
CONTINUOUS1
100
AcDbBlockReference
  2
$SCREW
 10
5.957335055478075
 20
5.195970657563129
 30
0.0
  0
LINE
  5
3B3E
330
4031
100
AcDbEntity
  8
CONTINUOUS1
100
AcDbLine
 10
5.909655747267994
 20
5.265199978302626
 30
0.0
 11
5.890552365750693
 21
5.246380238718806
 31
0.0
  0
LINE
  5
3B3F
330
4031
100
AcDbEntity
  8
CONTINUOUS1
100
AcDbLine
 10
5.909655747267994
 20
4.596741336823634
 30
0.0
 11
5.890552365750693
 21
4.615561076407454
 31
0.0
  0
INSERT
  5
3B40
330
4031
100
AcDbEntity
  8
CONTINUOUS1
100
AcDbBlockReference
  2
$SCREW
 10
5.957335055478075
 20
4.665970657563131
 30
0.0
 41
-1.0
 50
180.0
  0
INSERT
  5
3B41
330
4031
100
AcDbEntity
  8
CONTINUOUS1
100
AcDbBlockReference
  2
$SCREW
 10
6.937335055478076
 20
4.665970657563131
 30
0.0
 50
180.0
  0
LINE
  5
3B42
330
4031
100
AcDbEntity
  8
CONTINUOUS1
100
AcDbLine
 10
6.985014363688158
 20
4.596741336823634
 30
0.0
 11
7.004117745205459
 21
4.615561076407454
 31
0.0
  0
LINE
  5
3B43
330
4031
100
AcDbEntity
  8
CONTINUOUS1
100
AcDbLine
 10
6.985014363688158
 20
5.265199978302626
 30
0.0
 11
7.004117745205459
 21
5.246380238718806
 31
0.0
  0
INSERT
  5
3B44
330
4031
100
AcDbEntity
  8
CONTINUOUS1
100
AcDbBlockReference
  2
$SCREW
 10
6.937335055478076
 20
5.195970657563129
 30
0.0
 41
-1.0
  0
LINE
  5
3B45
330
4031
100
AcDbEntity
  8
CONTINUOUS1
100
AcDbLine
 10
5.767335055478074
 20
4.775970657563129
 30
0.0
 11
6.417335055478076
 21
4.775970657563129
 31
0.0
  0
LINE
  5
3B46
330
4031
100
AcDbEntity
  8
CONTINUOUS1
100
AcDbLine
 10
6.417335055478076
 20
4.775970657563129
 30
0.0
 11
6.417335055478076
 21
5.075970657563129
 31
0.0
  0
LINE
  5
3B47
330
4031
100
AcDbEntity
  8
CONTINUOUS1
100
AcDbLine
 10
6.417335055478076
 20
5.075970657563129
 30
0.0
 11
5.767335055478074
 21
5.075970657563129
 31
0.0
  0
LINE
  5
3B48
330
4031
100
AcDbEntity
  8
CONTINUOUS1
100
AcDbLine
 10
5.757335055478076
 20
5.075970657563129
 30
0.0
 11
5.757335055478076
 21
4.775970657563129
 31
0.0
  0
LINE
  5
3B49
330
4031
100
AcDbEntity
  8
CONTINUOUS1
100
AcDbLine
 10
6.927335055478074
 20
4.875970657563129
 30
0.0
 11
7.137335055478075
 21
4.875970657563129
 31
0.0
  0
LINE
  5
3B4A
330
4031
100
AcDbEntity
  8
CONTINUOUS1
100
AcDbLine
 10
7.137335055478075
 20
4.875970657563129
 30
0.0
 11
7.137335055478075
 21
4.955970657563129
 31
0.0
  0
LINE
  5
3B4B
330
4031
100
AcDbEntity
  8
CONTINUOUS1
100
AcDbLine
 10
7.137335055478075
 20
4.955970657563129
 30
0.0
 11
6.927335055478074
 21
4.955970657563129
 31
0.0
  0
LINE
  5
3B4C
330
4031
100
AcDbEntity
  8
CONTINUOUS1
100
AcDbLine
 10
6.927335055478074
 20
4.955970657563129
 30
0.0
 11
6.927335055478074
 21
4.875970657563129
 31
0.0
  0
LINE
  5
3B4D
330
4031
100
AcDbEntity
  8
CONTINUOUS1
100
AcDbLine
 10
9.068217825845632
 20
5.555970657563129
 30
0.0
 11
10.06821782584563
 21
5.555970657563129
 31
0.0
  0
LINE
  5
3B4E
330
4031
100
AcDbEntity
  8
CONTINUOUS1
100
AcDbLine
 10
10.06821782584563
 20
5.555970657563129
 30
0.0
 11
10.06821782584563
 21
5.455970657563129
 31
0.0
  0
LINE
  5
3B4F
330
4031
100
AcDbEntity
  8
CONTINUOUS1
100
AcDbLine
 10
10.06821782584563
 20
5.455970657563129
 30
0.0
 11
10.21821782584563
 21
5.455970657563129
 31
0.0
  0
LINE
  5
3B50
330
4031
100
AcDbEntity
  8
CONTINUOUS1
100
AcDbLine
 10
10.21821782584563
 20
5.455970657563129
 30
0.0
 11
10.25357316490496
 21
5.420615318503802
 31
0.0
  0
LINE
  5
3B51
330
4031
100
AcDbEntity
  8
CONTINUOUS1
100
AcDbLine
 10
10.25357316490496
 20
5.420615318503802
 30
0.0
 11
10.25357316490496
 21
5.310615318503802
 31
0.0
  0
LINE
  5
3B52
330
4031
100
AcDbEntity
  8
CONTINUOUS1
100
AcDbLine
 10
10.25357316490496
 20
5.310615318503802
 30
0.0
 11
10.27478636834055
 21
5.289402115068205
 31
0.0
  0
LINE
  5
3B53
330
4031
100
AcDbEntity
  8
CONTINUOUS1
100
AcDbLine
 10
10.27478636834055
 20
5.289402115068205
 30
0.0
 11
10.37478636834055
 21
5.289402115068205
 31
0.0
  0
LINE
  5
3B54
330
4031
100
AcDbEntity
  8
CONTINUOUS1
100
AcDbLine
 10
10.37478636834055
 20
5.289402115068205
 30
0.0
 11
10.37478636834055
 21
5.319402115068205
 31
0.0
  0
LINE
  5
3B55
330
4031
100
AcDbEntity
  8
CONTINUOUS1
100
AcDbLine
 10
10.37478636834055
 20
5.319402115068205
 30
0.0
 11
10.42478636834055
 21
5.319402115068205
 31
0.0
  0
LINE
  5
3B56
330
4031
100
AcDbEntity
  8
CONTINUOUS1
100
AcDbLine
 10
10.42478636834055
 20
5.319402115068205
 30
0.0
 11
10.42478636834055
 21
5.219402115068206
 31
0.0
  0
LINE
  5
3B57
330
4031
100
AcDbEntity
  8
CONTINUOUS1
100
AcDbLine
 10
10.42478636834055
 20
5.219402115068206
 30
0.0
 11
10.27821782584563
 21
5.219402115068206
 31
0.0
  0
LINE
  5
3B58
330
4031
100
AcDbEntity
  8
CONTINUOUS1
100
AcDbLine
 10
10.27821782584563
 20
5.219402115068206
 30
0.0
 11
10.27821782584563
 21
5.059402115068206
 31
0.0
  0
LINE
  5
3B59
330
4031
100
AcDbEntity
  8
CONTINUOUS1
100
AcDbLine
 10
10.27821782584563
 20
5.059402115068206
 30
0.0
 11
10.37821782584563
 21
5.059402115068206
 31
0.0
  0
LINE
  5
3B5A
330
4031
100
AcDbEntity
  8
CONTINUOUS1
100
AcDbLine
 10
10.37821782584563
 20
5.059402115068206
 30
0.0
 11
10.37821782584563
 21
4.829402115068205
 31
0.0
  0
LINE
  5
3B5B
330
4031
100
AcDbEntity
  8
CONTINUOUS1
100
AcDbLine
 10
10.37821782584563
 20
4.829402115068205
 30
0.0
 11
10.27821782584563
 21
4.829402115068205
 31
0.0
  0
LINE
  5
3B5C
330
4031
100
AcDbEntity
  8
CONTINUOUS1
100
AcDbLine
 10
10.27821782584563
 20
4.829402115068205
 30
0.0
 11
10.27821782584563
 21
4.669402115068204
 31
0.0
  0
LINE
  5
3B5D
330
4031
100
AcDbEntity
  8
CONTINUOUS1
100
AcDbLine
 10
10.42478636834055
 20
4.669402115068205
 30
0.0
 11
10.27821782584563
 21
4.669402115068205
 31
0.0
  0
LINE
  5
3B5E
330
4031
100
AcDbEntity
  8
CONTINUOUS1
100
AcDbLine
 10
10.42478636834055
 20
4.569402115068205
 30
0.0
 11
10.42478636834055
 21
4.669402115068205
 31
0.0
  0
LINE
  5
3B5F
330
4031
100
AcDbEntity
  8
CONTINUOUS1
100
AcDbLine
 10
10.37478636834055
 20
4.569402115068205
 30
0.0
 11
10.42478636834055
 21
4.569402115068205
 31
0.0
  0
LINE
  5
3B60
330
4031
100
AcDbEntity
  8
CONTINUOUS1
100
AcDbLine
 10
10.37478636834055
 20
4.599402115068206
 30
0.0
 11
10.37478636834055
 21
4.569402115068205
 31
0.0
  0
LINE
  5
3B61
330
4031
100
AcDbEntity
  8
CONTINUOUS1
100
AcDbLine
 10
10.27478636834055
 20
4.599402115068206
 30
0.0
 11
10.37478636834055
 21
4.599402115068206
 31
0.0
  0
LINE
  5
3B62
330
4031
100
AcDbEntity
  8
CONTINUOUS1
100
AcDbLine
 10
10.27478636834055
 20
4.599402115068206
 30
0.0
 11
10.27478636834055
 21
4.429402115068206
 31
0.0
  0
LINE
  5
3B63
330
4031
100
AcDbEntity
  8
CONTINUOUS1
100
AcDbLine
 10
10.27478636834055
 20
4.429402115068206
 30
0.0
 11
10.06821782584563
 21
4.429402115068206
 31
0.0
  0
LINE
  5
3B64
330
4031
100
AcDbEntity
  8
CONTINUOUS1
100
AcDbLine
 10
10.06821782584563
 20
4.332833572573282
 30
0.0
 11
10.06821782584563
 21
4.429402115068206
 31
0.0
  0
LINE
  5
3B65
330
4031
100
AcDbEntity
  8
CONTINUOUS1
100
AcDbLine
 10
9.068217825845632
 20
4.332833572573282
 30
0.0
 11
10.06821782584563
 21
4.332833572573282
 31
0.0
  0
LINE
  5
3B66
330
4031
100
AcDbEntity
  8
CONTINUOUS1
100
AcDbLine
 10
9.068217825845632
 20
5.555970657563129
 30
0.0
 11
9.068217825845632
 21
4.332833572573282
 31
0.0
  0
DIMENSION
  5
3B67
330
4031
100
AcDbEntity
  8
DIM
100
AcDbDimension
  2
*D8
 10
10.27478636834055
 20
3.76822847142125
 30
0.0
 11
9.671502097093094
 21
3.76822847142125
 31
0.0
 70
    32
 71
     5
 42
1.206568542494924
  3
SCHNEIDERELECTRIC
100
AcDbAlignedDimension
 13
9.068217825845632
 23
4.332833572573282
 33
0.0
 14
10.27478636834055
 24
4.429402115068206
 34
0.0
100
AcDbRotatedDimension
1001
ACAD
1000
DSTYLE
1002
{
1070
    40
1040
1.0
1002
}
  0
DIMENSION
  5
3B68
330
4031
100
AcDbEntity
  8
DIM
100
AcDbDimension
  2
*D9
 10
7.197335055478077
 20
3.76822847142125
 30
0.0
 11
6.447335055478077
 21
3.76822847142125
 31
0.0
 70
    32
 71
     5
 42
1.5
  3
SCHNEIDERELECTRIC
100
AcDbAlignedDimension
 13
5.697335055478077
 23
4.40597065756313
 33
0.0
 14
7.197335055478077
 24
4.40597065756313
 34
0.0
100
AcDbRotatedDimension
1001
ACAD
1000
DSTYLE
1002
{
1070
    40
1040
1.0
1002
}
  0
DIMENSION
  5
3B69
330
4031
100
AcDbEntity
  8
DIM
100
AcDbDimension
  2
*D10
 10
5.233335051744457
 20
5.455970657563129
 30
0.0
 11
5.233335051744457
 21
4.930970657563131
 31
0.0
 70
    32
 71
     5
 42
1.049999999999998
  3
SCHNEIDERELECTRIC
100
AcDbAlignedDimension
 13
5.697335055478077
 23
4.40597065756313
 33
0.0
 14
5.697335055478077
 24
5.455970657563129
 34
0.0
 50
90.0
100
AcDbRotatedDimension
1001
ACAD
1000
DSTYLE
1002
{
1070
    40
1040
1.0
1002
}
  0
DIMENSION
  5
3B6A
330
4031
100
AcDbEntity
  8
DIM
100
AcDbDimension
  2
*D11
 10
7.52267740227667
 20
5.555970657563129
 30
0.0
 11
7.522677402276669
 21
4.930970657563131
 31
0.0
 70
    32
 71
     5
 42
1.249999999999998
  3
SCHNEIDERELECTRIC
100
AcDbAlignedDimension
 13
7.137335055478075
 23
4.305970657563131
 33
0.0
 14
7.137335055478075
 24
5.555970657563129
 34
0.0
 50
90.0
100
AcDbRotatedDimension
1001
ACAD
1000
DSTYLE
1002
{
1070
    40
1040
1.0
1002
}
  0
TEXT
  5
3B6B
330
4031
100
AcDbEntity
  8
TEXT1
100
AcDbText
 10
1.903725628809738
 20
9.373901846707033
 30
0.0
 40
0.08
  1
SCREW CLAMP
  7
ROMANS
100
AcDbText
  0
TEXT
  5
3B6C
330
4031
100
AcDbEntity
  8
TEXT1
100
AcDbText
 10
0.8565564141855972
 20
9.149307483585706
 30
0.0
 40
0.08
  1
1
  7
ROMANS
100
AcDbText
  0
TEXT
  5
3B6D
330
4031
100
AcDbEntity
  8
TEXT1
100
AcDbText
 10
1.761157921451282
 20
9.785039416530191
 30
0.0
 40
0.08
  1
TYPE OF CONNECTION
  7
ROMANS
100
AcDbText
  0
TEXT
  5
3B6E
330
4031
100
AcDbEntity
  8
TEXT1
100
AcDbText
 10
1.376556414185596
 20
9.149307483585706
 30
0.0
 40
0.08
  1
1
  7
ROMANS
100
AcDbText
  0
TEXT
  5
3B6F
330
4031
100
AcDbEntity
  8
TEXT1
100
AcDbText
 10
0.3389900042759031
 20
9.165349938094372
 30
0.0
 40
0.08
  1
KN11
  7
ROMANS
100
AcDbText
  0
LINE
  5
3B70
330
4031
100
AcDbEntity
  8
CONTINUOUS1
100
AcDbLine
 10
3.253841305695313
 20
9.914378855335984
 30
0.0
 11
3.253841305695313
 21
9.114378855335983
 31
0.0
  0
TEXT
  5
3B71
330
4031
100
AcDbEntity
  8
TEXT1
100
AcDbText
 10
1.32841070225313
 20
9.626570529521595
 30
0.0
 40
0.08
  1
NC
  7
ROMANS
100
AcDbText
  0
TEXT
  5
3B72
330
4031
100
AcDbEntity
  8
TEXT1
100
AcDbText
 10
1.390391397439294
 20
9.466145964992477
 30
0.0
 40
0.08
  1
-
  7
ROMANS
100
AcDbText
  0
TEXT
  5
3B73
330
4031
100
AcDbEntity
  8
TEXT1
100
AcDbText
 10
0.3389900042759031
 20
9.474378855335984
 30
0.0
 40
0.08
  1
KN20
  7
ROMANS
100
AcDbText
  0
TEXT
  5
3B74
330
4031
100
AcDbEntity
  8
TEXT1
100
AcDbText
 10
0.716131418837346
 20
9.778973837632696
 30
0.0
 40
0.08
  1
AUX CONTACTS
  7
ROMANS
100
AcDbText
  0
TEXT
  5
3B75
330
4031
100
AcDbEntity
  8
TEXT1
100
AcDbText
 10
0.8084107022531306
 20
9.626570529521595
 30
0.0
 40
0.08
  1
NO
  7
ROMANS
100
AcDbText
  0
TEXT
  5
3B76
330
4031
100
AcDbEntity
  8
TEXT1
100
AcDbText
 10
0.8405078258463127
 20
9.466145964992477
 30
0.0
 40
0.08
  1
2
  7
ROMANS
100
AcDbText
  0
LINE
  5
3B77
330
4031
100
AcDbEntity
  8
CONTINUOUS1
100
AcDbLine
 10
1.693841305695315
 20
9.914378855335984
 30
0.0
 11
1.693841305695315
 21
9.114378855335983
 31
0.0
  0
LINE
  5
3B78
330
4031
100
AcDbEntity
  8
CONTINUOUS1
100
AcDbLine
 10
1.173841305695315
 20
9.749415341175584
 30
0.0
 11
1.173841305695315
 21
9.114378855335983
 31
0.0
  0
LINE
  5
3B79
330
4031
100
AcDbEntity
  8
CONTINUOUS1
100
AcDbLine
 10
0.6538413056953126
 20
9.914378855335984
 30
0.0
 11
0.6538413056953126
 21
9.114378855335983
 31
0.0
  0
TEXT
  5
3B7A
330
4031
100
AcDbEntity
  8
TEXT1
100
AcDbText
 10
0.8642392259596185
 20
9.309732028672369
 30
0.0
 40
0.08
  1
-
  7
ROMANS
100
AcDbText
  0
TEXT
  5
3B7B
330
4031
100
AcDbEntity
  8
TEXT1
100
AcDbText
 10
1.374122797552598
 20
9.309732028672369
 30
0.0
 40
0.08
  1
2
  7
ROMANS
100
AcDbText
  0
TEXT
  5
3B7C
330
4031
100
AcDbEntity
  8
TEXT1
100
AcDbText
 10
0.3389900042759031
 20
9.314378855335984
 30
0.0
 40
0.08
  1
KN02
  7
ROMANS
100
AcDbText
  0
LINE
  5
3B7D
330
4031
100
AcDbEntity
  8
CONTINUOUS1
100
AcDbLine
 10
0.2938413056953131
 20
9.914378855335984
 30
0.0
 11
0.2938413056953131
 21
9.274378855335983
 31
0.0
  0
LINE
  5
3B7E
330
4031
100
AcDbEntity
  8
CONTINUOUS1
100
AcDbLine
 10
0.2938413056953131
 20
9.914378855335984
 30
0.0
 11
3.253841305695313
 21
9.914378855335984
 31
0.0
  0
LINE
  5
3B7F
330
4031
100
AcDbEntity
  8
CONTINUOUS1
100
AcDbLine
 10
0.6538413056953126
 20
9.749415341175584
 30
0.0
 11
3.253841305695313
 21
9.749415341175584
 31
0.0
  0
LINE
  5
3B80
330
4031
100
AcDbEntity
  8
CONTINUOUS1
100
AcDbLine
 10
0.2938413056953131
 20
9.594378855335984
 30
0.0
 11
1.693841305695315
 21
9.594378855335984
 31
0.0
  0
LINE
  5
3B81
330
4031
100
AcDbEntity
  8
CONTINUOUS1
100
AcDbLine
 10
0.2938413056953131
 20
9.434378855335983
 30
0.0
 11
1.693841305695315
 21
9.434378855335983
 31
0.0
  0
LINE
  5
3B82
330
4031
100
AcDbEntity
  8
CONTINUOUS1
100
AcDbLine
 10
0.2938413056953131
 20
9.274378855335983
 30
0.0
 11
1.693841305695315
 21
9.274378855335983
 31
0.0
  0
LINE
  5
3B83
330
4031
100
AcDbEntity
  8
CONTINUOUS1
100
AcDbLine
 10
0.2938413056953131
 20
9.114378855335983
 30
0.0
 11
3.253841305695313
 21
9.114378855335983
 31
0.0
  0
LINE
  5
3B84
330
4031
100
AcDbEntity
  8
CONTINUOUS1
100
AcDbLine
 10
0.2938413056953131
 20
9.434378855335983
 30
0.0
 11
0.2938413056953131
 21
9.114378855335983
 31
0.0
  0
LINE
  5
3B86
330
4031
100
AcDbEntity
  8
CONTINUOUS1
100
AcDbLine
 10
0.3146413056953143
 20
8.571815341175584
 30
0.0
 11
3.133841305695312
 21
8.571815341175584
 31
0.0
  0
LINE
  5
3B87
330
4031
100
AcDbEntity
  8
CONTINUOUS1
100
AcDbLine
 10
0.3146413056953143
 20
8.736778855335984
 30
0.0
 11
3.133841305695312
 21
8.736778855335984
 31
0.0
  0
LINE
  5
3B88
330
4031
100
AcDbEntity
  8
CONTINUOUS1
100
AcDbLine
 10
0.3146413056953143
 20
8.096778855335985
 30
0.0
 11
3.133841305695312
 21
8.096778855335983
 31
0.0
  0
LINE
  5
3B89
330
4031
100
AcDbEntity
  8
CONTINUOUS1
100
AcDbLine
 10
0.3146413056953143
 20
8.256778855335985
 30
0.0
 11
3.133841305695312
 21
8.256778855335983
 31
0.0
  0
LINE
  5
3B8A
330
4031
100
AcDbEntity
  8
CONTINUOUS1
100
AcDbLine
 10
0.3146413056953143
 20
8.416778855335985
 30
0.0
 11
3.133841305695312
 21
8.416778855335984
 31
0.0
  0
TEXT
  5
3B8B
330
4031
100
AcDbEntity
  8
TEXT1
100
AcDbText
 10
0.3769314188373443
 20
8.601373837632696
 30
0.0
 40
0.08
  1
TYPE OF CABLE
  7
ROMANS
100
AcDbText
  0
LINE
  5
3B8C
330
4031
100
AcDbEntity
  8
CONTINUOUS1
100
AcDbLine
 10
0.3146413056953143
 20
8.736778855335984
 30
0.0
 11
0.3146413056953143
 21
8.096778855335985
 31
0.0
  0
TEXT
  5
3B8D
330
4031
100
AcDbEntity
  8
TEXT1
100
AcDbText
 10
0.4674392259596161
 20
8.132132028672369
 30
0.0
 40
0.08
  1
SOLID CABLE
  7
ROMANS
100
AcDbText
  0
TEXT
  5
3B8E
330
4031
100
AcDbEntity
  8
TEXT1
100
AcDbText
 10
0.4757078258463139
 20
8.288545964992477
 30
0.0
 40
0.08
  1
STANDARD CABLE WITH CABLE END
  7
ROMANS
100
AcDbText
  0
TEXT
  5
3B8F
330
4031
100
AcDbEntity
  8
TEXT1
100
AcDbText
 10
0.4692107022531325
 20
8.448970529521593
 30
0.0
 40
0.08
  1
STANDARD CABLE WITHOUT CABLE END
  7
ROMANS
100
AcDbText
  0
LINE
  5
3B90
330
4031
100
AcDbEntity
  8
CONTINUOUS1
100
AcDbLine
 10
3.133841305695312
 20
8.736778855335984
 30
0.0
 11
3.133841305695312
 21
8.096778855335983
 31
0.0
  0
LINE
  5
3B91
330
4031
100
AcDbEntity
  8
CONTINUOUS1
100
AcDbLine
 10
3.137041305695312
 20
8.736778855335984
 30
0.0
 11
4.177041305695315
 21
8.736778855335984
 31
0.0
  0
LINE
  5
3B92
330
4031
100
AcDbEntity
  8
CONTINUOUS1
100
AcDbLine
 10
3.137041305695312
 20
8.571815341175584
 30
0.0
 11
4.177041305695315
 21
8.571815341175584
 31
0.0
  0
LINE
  5
3B93
330
4031
100
AcDbEntity
  8
CONTINUOUS1
100
AcDbLine
 10
3.137041305695312
 20
8.096778855335985
 30
0.0
 11
4.177041305695315
 21
8.096778855335983
 31
0.0
  0
LINE
  5
3B94
330
4031
100
AcDbEntity
  8
CONTINUOUS1
100
AcDbLine
 10
3.137041305695312
 20
8.416778855335985
 30
0.0
 11
4.177041305695315
 21
8.416778855335984
 31
0.0
  0
LINE
  5
3B95
330
4031
100
AcDbEntity
  8
CONTINUOUS1
100
AcDbLine
 10
3.137041305695312
 20
8.256778855335985
 30
0.0
 11
4.177041305695315
 21
8.256778855335983
 31
0.0
  0
TEXT
  5
3B96
330
4031
100
AcDbEntity
  8
TEXT1
100
AcDbText
 10
3.199331418837342
 20
8.601373837632696
 30
0.0
 40
0.08
  1
WIRE SIZE
  7
ROMANS
100
AcDbText
  0
LINE
  5
3B97
330
4031
100
AcDbEntity
  8
CONTINUOUS1
100
AcDbLine
 10
3.137041305695312
 20
8.736778855335984
 30
0.0
 11
3.137041305695312
 21
8.096778855335985
 31
0.0
  0
TEXT
  5
3B98
330
4031
100
AcDbEntity
  8
TEXT1
100
AcDbText
 10
3.29161070225313
 20
8.448970529521593
 30
0.0
 40
0.08
  1
AWG 16-10
  7
ROMANS
100
AcDbText
  0
TEXT
  5
3B99
330
4031
100
AcDbEntity
  8
TEXT1
100
AcDbText
 10
3.298107825846312
 20
8.275745964992477
 30
0.0
 40
0.08
  1
AWG 18-10
  7
ROMANS
100
AcDbText
  0
TEXT
  5
3B9A
330
4031
100
AcDbEntity
  8
TEXT1
100
AcDbText
 10
3.302639225959616
 20
8.132132028672369
 30
0.0
 40
0.08
  1
AWG 22-12
  7
ROMANS
100
AcDbText
  0
LINE
  5
3B9B
330
4031
100
AcDbEntity
  8
CONTINUOUS1
100
AcDbLine
 10
4.177041305695315
 20
8.736778855335984
 30
0.0
 11
4.177041305695315
 21
8.096778855335983
 31
0.0
  0
TEXT
  5
3B9C
330
4031
100
AcDbEntity
  8
TEXT1
100
AcDbText
 10
0.3389900042759031
 20
9.704778855335984
 30
0.0
 40
0.08
  1
TYPE
  7
ROMANS
100
AcDbText
  0
LINE
  5
3BF9
330
4031
100
AcDbEntity
  8
CENTER2
100
AcDbLine
 10
10.28869218666237
 20
3.902435975361402
 30
0.0
 11
11.09869218666237
 21
3.902435975361402
 31
0.0
  0
LINE
  5
3BFA
330
4031
100
AcDbEntity
  8
CENTER2
100
AcDbLine
 10
12.27869218666237
 20
5.832435975361402
 30
0.0
 11
12.27869218666237
 21
6.077646899037238
 31
0.0
  0
LINE
  5
3BFB
330
4031
100
AcDbEntity
  8
CENTER2
100
AcDbLine
 10
12.27869218666237
 20
6.077646899037238
 30
0.0
 11
12.52869218666237
 21
6.077646899037238
 31
0.0
  0
LINE
  5
3BFC
330
4031
100
AcDbEntity
  8
CENTER2
100
AcDbLine
 10
11.21869218666237
 20
5.832435975361402
 30
0.0
 11
12.27869218666237
 21
5.832435975361402
 31
0.0
  0
ARC
  5
3BFD
330
4031
100
AcDbEntity
  8
CENTER2
100
AcDbCircle
 10
12.42010312772679
 20
5.697721236246874
 30
0.0
 40
0.0296174491698496
100
AcDbArc
 50
9.159761361183072
 51
189.1597613611836
  0
LINE
  5
3BFE
330
4031
100
AcDbEntity
  8
CENTER2
100
AcDbLine
 10
12.40869218666237
 20
5.582435975361402
 30
0.0
 11
12.39086335121584
 21
5.693006497132348
 31
0.0
  0
LINE
  5
3BFF
330
4031
100
AcDbEntity
  8
CENTER2
100
AcDbLine
 10
12.44934290423775
 20
5.702435975361401
 30
0.0
 11
12.44934290423775
 21
5.702435975361401
 31
0.0
  0
LINE
  5
3C00
330
4031
100
AcDbEntity
  8
CENTER2
100
AcDbLine
 10
12.46869218666237
 20
5.582435975361402
 30
0.0
 11
12.52869218666237
 21
5.582435975361402
 31
0.0
  0
LINE
  5
3C01
330
4031
100
AcDbEntity
  8
CENTER2
100
AcDbLine
 10
12.46869218666237
 20
5.582435975361402
 30
0.0
 11
12.44934290423775
 21
5.702435975361401
 31
0.0
  0
LINE
  5
3C02
330
4031
100
AcDbEntity
  8
CENTER2
100
AcDbLine
 10
12.40869218666237
 20
4.332435975361402
 30
0.0
 11
12.44869218666237
 21
4.332435975361402
 31
0.0
  0
LINE
  5
3C03
330
4031
100
AcDbEntity
  8
CENTER2
100
AcDbLine
 10
12.52869218666237
 20
4.332435975361402
 30
0.0
 11
12.48869218666237
 21
4.382435975361403
 31
0.0
  0
LINE
  5
3C04
330
4031
100
AcDbEntity
  8
CENTER2
100
AcDbLine
 10
12.48869218666237
 20
4.382435975361403
 30
0.0
 11
12.44869218666237
 21
4.332435975361402
 31
0.0
  0
LINE
  5
3C05
330
4031
100
AcDbEntity
  8
CENTER2
100
AcDbLine
 10
12.40869218666237
 20
5.582435975361402
 30
0.0
 11
12.40869218666237
 21
4.332435975361402
 31
0.0
  0
LINE
  5
3C06
330
4031
100
AcDbEntity
  8
CENTER2
100
AcDbLine
 10
11.21869218666237
 20
4.032435975361403
 30
0.0
 11
12.27869218666237
 21
4.032435975361403
 31
0.0
  0
LINE
  5
3C07
330
4031
100
AcDbEntity
  8
CENTER2
100
AcDbLine
 10
12.52869218666237
 20
6.077646899037238
 30
0.0
 11
12.52869218666237
 21
5.582435975361402
 31
0.0
  0
LINE
  5
3C08
330
4031
100
AcDbEntity
  8
CENTER2
100
AcDbLine
 10
12.27869218666237
 20
3.797260130825163
 30
0.0
 11
12.52869218666237
 21
3.797260130825163
 31
0.0
  0
LINE
  5
3C09
330
4031
100
AcDbEntity
  8
CENTER2
100
AcDbLine
 10
12.52869218666237
 20
4.332435975361402
 30
0.0
 11
12.52869218666237
 21
3.832435975361402
 31
0.0
  0
LINE
  5
3C0A
330
4031
100
AcDbEntity
  8
CENTER2
100
AcDbLine
 10
12.52869218666237
 20
3.797260130825163
 30
0.0
 11
12.52869218666237
 21
4.282435975361403
 31
0.0
  0
LINE
  5
3C0B
330
4031
100
AcDbEntity
  8
CENTER2
100
AcDbLine
 10
12.27869218666237
 20
4.032435975361403
 30
0.0
 11
12.27869218666237
 21
3.797260130825163
 31
0.0
  0
LINE
  5
3C0C
330
4031
100
AcDbEntity
  8
CENTER2
100
AcDbLine
 10
11.21869218666237
 20
5.902435975361402
 30
0.0
 11
11.21869218666237
 21
5.832435975361402
 31
0.0
  0
LINE
  5
3C0D
330
4031
100
AcDbEntity
  8
CENTER2
100
AcDbLine
 10
11.09869218666237
 20
5.962435975361403
 30
0.0
 11
11.21869218666237
 21
5.902435975361402
 31
0.0
  0
LINE
  5
3C0E
330
4031
100
AcDbEntity
  8
CENTER2
100
AcDbLine
 10
10.28869218666237
 20
5.962435975361403
 30
0.0
 11
11.09869218666237
 21
5.962435975361403
 31
0.0
  0
LINE
  5
3C0F
330
4031
100
AcDbEntity
  8
CENTER2
100
AcDbLine
 10
10.28869218666237
 20
3.902435975361402
 30
0.0
 11
10.28869218666237
 21
5.962435975361403
 31
0.0
  0
LINE
  5
3C10
330
4031
100
AcDbEntity
  8
CENTER2
100
AcDbLine
 10
11.09869218666237
 20
3.902435975361402
 30
0.0
 11
11.21869218666237
 21
3.962435975361403
 31
0.0
  0
LINE
  5
3C11
330
4031
100
AcDbEntity
  8
CENTER2
100
AcDbLine
 10
11.21869218666237
 20
3.962435975361403
 30
0.0
 11
11.21869218666237
 21
4.032435975361403
 31
0.0
  0
TEXT
  5
3C12
330
4031
100
AcDbEntity
  8
TEXT2
100
AcDbText
 10
10.32638364075133
 20
6.404232682379879
 30
0.0
 40
0.08
  1
Direct mounting on the mini-contactor
  7
ROMANS
 11
10.32638364075133
 21
6.484232682379879
 31
0.0
100
AcDbText
 73
     3
  0
VIEWPORT
  5
32
330
402E
100
AcDbEntity
 67
     1
  8
0
100
AcDbViewport
 10
8.230696968707817
 20
5.075811201618518
 30
0.0
 40
16.54345519666285
 41
10.65257024587748
 68
     1
 69
     1
 12
8.230696968707817
 22
5.075811201618518
 13
0.0
 23
0.0
 14
0.5
 24
0.5
 15
0.5
 25
0.5
 16
0.0
 26
0.0
 36
1.0
 17
0.0
 27
0.0
 37
0.0
 42
50.0
 43
0.0
 44
0.0
 45
10.65257024587748
 50
0.0
 51
0.0
 72
   100
 90
    32768
  1

281
     0
 71
     1
 74
     0
110
0.0
120
0.0
130
0.0
111
1.0
121
0.0
131
0.0
112
0.0
122
1.0
132
0.0
 79
     0
146
0.0
  0
LWPOLYLINE
  5
175
330
402E
100
AcDbEntity
 67
     1
  8
VIEWPORT
100
AcDbPolyline
 90
        6
 70
     1
 43
0.0
 10
16.40000099999999
 20
10.25
 10
16.40000099999999
 20
0.9120019999999993
 10
8.002461
 20
0.9120019999999993
 10
8.002461
 20
0.0
 10
0.0
 20
0.0
 10
0.0
 20
10.25
1001
GENIUS_GENOREF_13
1005
0
1005
0
1005
0
1005
0
1005
0
1005
0
1005
0
1005
0
1005
0
1005
0
1005
0
1005
0
1005
0
1005
0
1005
0
  0
VIEWPORT
  5
177
330
402E
100
AcDbEntity
 67
     1
  8
VIEWPORT
100
AcDbViewport
 10
8.200000499999999
 20
5.125
 30
0.0
 40
16.40000099999999
 41
10.25
 68
     2
 69
     2
 12
8.200000647009566
 22
5.125000091880973
 13
0.0
 23
0.0
 14
0.5
 24
0.5
 15
0.5
 25
0.5
 16
0.0
 26
0.0
 36
1.0
 17
0.0
 27
0.0
 37
0.0
 42
50.0
 43
0.0
 44
0.0
 45
10.25
 50
0.0
 51
0.0
 72
   100
 90
    32832
  1

281
     0
 71
     1
 74
     0
110
0.0
120
0.0
130
0.0
111
1.0
121
0.0
131
0.0
112
0.0
122
1.0
132
0.0
 79
     0
146
0.0
1001
GENIUS_GENOREF_13
1005
0
1005
0
1005
0
1005
0
1005
0
1005
0
1005
0
1005
0
1005
0
1005
0
1005
0
1005
0
1005
0
1005
0
1005
0
1001
GENIUS_GENSCREG_15
1000
PF
1040
0.0
1000
DF
1040
0.0
1000
MIN
1011
0.0
1021
0.0
1031
0.0
1000
MAX
1011
16.40000099999999
1021
10.25
1031
0.0
1000
FLAGS
1070
     2
  0
INSERT
  5
B2C
330
402E
100
AcDbEntity
 67
     1
  8
TITLEBLOCK
100
AcDbBlockReference
 66
     1
  2
TITLE-PAD
 10
0.0
 20
0.0
 30
0.0
  0
ATTRIB
  5
B2D
330
B2C
100
AcDbEntity
 67
     1
  8
TEXT1
 62
     0
100
AcDbText
 10
10.10183834893798
 20
0.7474460884590166
 30
0.0
 40
0.1
  1

  7
ROMANS
 72
     4
 11
10.10183834893798
 21
0.7474460884590166
 31
0.0
100
AcDbAttribute
  2
DESCRIPTION 1
 70
     0
  0
ATTRIB
  5
B2E
330
B2C
100
AcDbEntity
 67
     1
  8
TEXT1
 62
     0
100
AcDbText
 10
8.528028825128465
 20
0.5588660282835286
 30
0.0
 40
0.1
  1
IEC AUXILIARY CONTACT BLOCK (K-LINE)
  7
ROMANS
 72
     4
 11
10.10183834893798
 21
0.6017231711406717
 31
0.0
100
AcDbAttribute
  2
DESCRIPTION 2
 70
     0
  0
ATTRIB
  5
B2F
330
B2C
100
AcDbEntity
 67
     1
  8
TEXT1
 62
     0
100
AcDbText
 10
9.08469549179513
 20
0.4236193014413744
 30
0.0
 40
0.08
  1
LA1 KN20, LA1 KN02, LA1 KN11
  7
ROMANS
 72
     4
 11
10.10183834893798
 21
0.4560002538223267
 31
0.0
100
AcDbAttribute
  2
DESCRIPTION 3
 70
     0
  0
ATTRIB
  5
B30
330
B2C
100
AcDbEntity
 67
     1
  8
TEXT1
 62
     0
100
AcDbText
 10
10.10183834893798
 20
0.3202773365039833
 30
0.0
 40
0.08
  1

  7
ROMANS
 72
     4
 11
10.10183834893798
 21
0.3202773365039833
 31
0.0
100
AcDbAttribute
  2
DESCRIPTION 4
 70
     0
  0
ATTRIB
  5
B31
330
B2C
100
AcDbEntity
 67
     1
  8
TEXT1
 62
     0
100
AcDbText
 10
10.10183834893798
 20
0.1845544191856399
 30
0.0
 40
0.08
  1

  7
ROMANS
 72
     4
 11
10.10183834893798
 21
0.1845544191856399
 31
0.0
100
AcDbAttribute
  2
DESCRIPTION 5
 70
     0
  0
ATTRIB
  5
B32
330
B2C
100
AcDbEntity
 67
     1
  8
TEXT1
 62
     0
100
AcDbText
 10
12.74772367103195
 20
0.096540546036505
 30
0.0
 40
0.12
  1
E0210701-01
 41
0.9512024731840066
  7
M_STANDARD
 11
12.74772367103195
 21
0.156540546036505
 31
0.0
100
AcDbAttribute
  2
DWGNO
 70
     0
 74
     2
  0
ATTRIB
  5
B33
330
B2C
100
AcDbEntity
 67
     1
  8
TEXT1
 62
     0
100
AcDbText
 10
15.78363597806468
 20
-0.1507193079929352
 30
0.0
 40
0.08
  1
E0210701
  7
ROMANS
 72
     2
 11
16.35506454949325
 21
-0.1107193079929352
 31
0.0
100
AcDbAttribute
  2
REF
 70
     0
 74
     2
  0
ATTRIB
  5
B34
330
B2C
100
AcDbEntity
 67
     1
  8
TEXT1
 62
     0
100
AcDbText
 10
0.0266402374038712
 20
-0.1507193079929352
 30
0.0
 40
0.08
  1
NOVEMBER 2000
  7
ROMANS
 11
0.0266402374038712
 21
-0.1107193079929352
 31
0.0
100
AcDbAttribute
  2
DATE
 70
     0
 74
     2
  0
SEQEND
  5
B35
330
B2C
100
AcDbEntity
 67
     1
  8
0
  0
ENDSEC
  0
SECTION
  2
OBJECTS
  0
DICTIONARY
  5
4026
330
0
100
AcDbDictionary
281
     1
  3
ACAD_GROUP
350
4027
  3
ACAD_MLINESTYLE
350
4034
  3
ACDBVARIABLEDICTIONARY
350
4072
  3
ACAD_PLOTSTYLENAME
350
4078
  3
ACAD_LAYOUT
350
407A
  3
ACAD_PLOTSETTINGS
350
407B
  0
DICTIONARY
  5
4027
102
{ACAD_REACTORS
330
4026
102
}
330
4026
100
AcDbDictionary
281
     1
  0
DICTIONARY
  5
4034
102
{ACAD_REACTORS
330
4026
102
}
330
4026
100
AcDbDictionary
281
     1
  3
STANDARD
350
4035
  0
DICTIONARY
  5
4072
102
{ACAD_REACTORS
330
4026
102
}
330
4026
100
AcDbDictionary
281
     1
  3
DIMADEC
350
4073
  0
ACDBDICTIONARYWDFLT
  5
4078
102
{ACAD_REACTORS
330
4026
102
}
330
4026
100
AcDbDictionary
281
     1
  3
Normal
350
4079
100
AcDbDictionaryWithDefault
340
4079
  0
DICTIONARY
  5
407A
102
{ACAD_REACTORS
330
4026
102
}
330
4026
100
AcDbDictionary
281
     1
  3
Model
350
407C
  3
Layout1
350
407D
  0
DICTIONARY
  5
407B
102
{ACAD_REACTORS
330
4026
102
}
330
4026
100
AcDbDictionary
281
     1
  0
MLINESTYLE
  5
4035
102
{ACAD_REACTORS
330
4034
102
}
330
4034
100
AcDbMlineStyle
  2
STANDARD
 70
     0
  3

 62
   256
 51
90.0
 52
90.0
 71
     2
 49
0.5
 62
   256
  6
BYLAYER
 49
-0.5
 62
   256
  6
BYLAYER
  0
DICTIONARYVAR
  5
4073
102
{ACAD_REACTORS
330
4072
102
}
330
4072
100
DictionaryVariables
280
     0
  1
0
  0
ACDBPLACEHOLDER
  5
4079
102
{ACAD_REACTORS
330
4078
102
}
330
4078
  0
LAYOUT
  5
407C
102
{ACAD_REACTORS
330
407A
102
}
330
407A
100
AcDbPlotSettings
  1

  2
HP LaserJet 5Si MX
  4

  6

 40
0.0
 41
0.0
 42
0.0
 43
0.0
 44
0.0
 45
0.0
 46
0.0
 47
0.0
 48
0.0
 49
0.0
140
0.0
141
0.0
142
1.0
143
1.0
 70
  1712
 72
     0
 73
     0
 74
     0
  7
Default R14 pen assignments.ctb
 75
     0
147
1.0
148
0.0
149
0.0
100
AcDbLayout
  1
Model
 70
     1
 71
     0
 10
0.0
 20
0.0
 11
12.0
 21
9.0
 12
0.0
 22
0.0
 32
0.0
 14
0.0
 24
0.0
 34
0.0
 15
0.0
 25
0.0
 35
0.0
146
0.0
 13
0.0
 23
0.0
 33
0.0
 16
1.0
 26
0.0
 36
0.0
 17
0.0
 27
1.0
 37
0.0
 76
     0
330
4031
  0
LAYOUT
  5
407D
102
{ACAD_REACTORS
330
407A
102
}
330
407A
100
AcDbPlotSettings
  1

  2
HP LaserJet 5Si MX
  4
Letter
  6

 40
7.143749713897705
 41
6.127734661102294
 42
7.14373779296875
 43
7.14373779296875
 44
215.8999938964843
 45
279.3999938964843
 46
0.0
 47
0.0
 48
0.0
 49
0.0
140
0.0
141
0.0
142
1.0
143
1.56543289575492
 70
   688
 72
     0
 73
     1
 74
     1
  7
Default R14 pen assignments.ctb
 75
     0
147
0.6388009366046674
148
0.0156789521332257
149
3.842302519086636
100
AcDbLayout
  1
Layout1
 70
     1
 71
     1
 10
-0.4408945311769357
 20
-0.5915497370181854
 11
16.7788669459601
 21
12.71462950073154
 12
0.0
 22
0.0
 32
0.0
 14
-0.0006172815800483
 24
-0.1512717527199463
 34
-0.0015258207003583
 15
16.40120720521414
 25
10.25018675959692
 35
0.0000000349246037
146
0.0
 13
0.0
 23
0.0
 33
0.0
 16
1.0
 26
0.0
 36
0.0
 17
0.0
 27
1.0
 37
0.0
 76
     0
330
402E
331
32
  0
ENDSEC
  0
EOF
