  0
SECTION
  2
HEADER
  9
$ACADVER
  1
AC1014
  9
$ACADMAINTVER
 70
     0
  9
$DWGCODEPAGE
  3
ANSI_1252
  9
$INSBASE
 10
567.897966
 20
-29.933898
 30
0.0
  9
$EXTMIN
 10
514.499031
 20
-73.773697
 30
0.0
  9
$EXTMAX
 10
652.514348
 20
11.504665
 30
0.0
  9
$LIMMIN
 10
0.0
 20
0.0
  9
$LIMMAX
 10
210.0
 20
297.0
  9
$ORTHOMODE
 70
     0
  9
$REGENMODE
 70
     1
  9
$FILLMODE
 70
     1
  9
$QTEXTMODE
 70
     0
  9
$MIRRTEXT
 70
     1
  9
$DRAGMODE
 70
     2
  9
$LTSCALE
 40
10.0
  9
$OSMODE
 70
     0
  9
$ATTMODE
 70
     1
  9
$TEXTSIZE
 40
2.9
  9
$TRACEWID
 40
0.05
  9
$TEXTSTYLE
  7
ROMANS
  9
$CLAYER
  8
AXE
  9
$CELTYPE
  6
BYLAYER
  9
$CECOLOR
 62
   256
  9
$CELTSCALE
 40
1.0
  9
$DELOBJ
 70
     1
  9
$DISPSILH
 70
     0
  9
$DIMSCALE
 40
1.0
  9
$DIMASZ
 40
3.0
  9
$DIMEXO
 40
0.0625
  9
$DIMDLI
 40
0.38
  9
$DIMRND
 40
0.01
  9
$DIMDLE
 40
0.0
  9
$DIMEXE
 40
0.18
  9
$DIMTP
 40
0.0
  9
$DIMTM
 40
0.0
  9
$DIMTXT
 40
2.5
  9
$DIMCEN
 40
0.09
  9
$DIMTSZ
 40
0.0
  9
$DIMTOL
 70
     0
  9
$DIMLIM
 70
     0
  9
$DIMTIH
 70
     0
  9
$DIMTOH
 70
     0
  9
$DIMSE1
 70
     0
  9
$DIMSE2
 70
     0
  9
$DIMTAD
 70
     1
  9
$DIMZIN
 70
    12
  9
$DIMBLK
  1
_OPEN
  9
$DIMASO
 70
     1
  9
$DIMSHO
 70
     1
  9
$DIMPOST
  1

  9
$DIMAPOST
  1

  9
$DIMALT
 70
     0
  9
$DIMALTD
 70
     2
  9
$DIMALTF
 40
25.4
  9
$DIMLFAC
 40
1.0
  9
$DIMTOFL
 70
     1
  9
$DIMTVP
 40
0.0
  9
$DIMTIX
 70
     0
  9
$DIMSOXD
 70
     0
  9
$DIMSAH
 70
     0
  9
$DIMBLK1
  1

  9
$DIMBLK2
  1

  9
$DIMSTYLE
  2
SC_STAND
  9
$DIMCLRD
 70
     0
  9
$DIMCLRE
 70
     0
  9
$DIMCLRT
 70
     0
  9
$DIMTFAC
 40
1.0
  9
$DIMGAP
 40
1.0
  9
$DIMJUST
 70
     0
  9
$DIMSD1
 70
     0
  9
$DIMSD2
 70
     0
  9
$DIMTOLJ
 70
     1
  9
$DIMTZIN
 70
    12
  9
$DIMALTZ
 70
    12
  9
$DIMALTTZ
 70
    12
  9
$DIMFIT
 70
     5
  9
$DIMUPT
 70
     0
  9
$DIMUNIT
 70
     2
  9
$DIMDEC
 70
     4
  9
$DIMTDEC
 70
     4
  9
$DIMALTU
 70
     2
  9
$DIMALTTD
 70
     2
  9
$DIMTXSTY
  7
ROMANS
  9
$DIMAUNIT
 70
     0
  9
$LUNITS
 70
     2
  9
$LUPREC
 70
     4
  9
$SKETCHINC
 40
0.1
  9
$FILLETRAD
 40
0.0
  9
$AUNITS
 70
     0
  9
$AUPREC
 70
     0
  9
$MENU
  1
.
  9
$ELEVATION
 40
0.0
  9
$PELEVATION
 40
0.0
  9
$THICKNESS
 40
0.0
  9
$LIMCHECK
 70
     0
  9
$BLIPMODE
 70
     1
  9
$CHAMFERA
 40
1.0
  9
$CHAMFERB
 40
1.0
  9
$CHAMFERC
 40
0.0
  9
$CHAMFERD
 40
0.0
  9
$SKPOLY
 70
     0
  9
$TDCREATE
 40
2451255.658637384
  9
$TDUPDATE
 40
2451387.895995150
  9
$TDINDWG
 40
0.3897748958
  9
$TDUSRTIMER
 40
0.3897748958
  9
$USRTIMER
 70
     1
  9
$ANGBASE
 50
0.0
  9
$ANGDIR
 70
     0
  9
$PDMODE
 70
     0
  9
$PDSIZE
 40
0.0
  9
$PLINEWID
 40
0.0
  9
$COORDS
 70
     1
  9
$SPLFRAME
 70
     0
  9
$SPLINETYPE
 70
     6
  9
$SPLINESEGS
 70
     8
  9
$ATTDIA
 70
     1
  9
$ATTREQ
 70
     1
  9
$HANDLING
 70
     1
  9
$HANDSEED
  5
FE
  9
$SURFTAB1
 70
     6
  9
$SURFTAB2
 70
     6
  9
$SURFTYPE
 70
     6
  9
$SURFU
 70
     6
  9
$SURFV
 70
     6
  9
$UCSNAME
  2

  9
$UCSORG
 10
0.0
 20
0.0
 30
0.0
  9
$UCSXDIR
 10
1.0
 20
0.0
 30
0.0
  9
$UCSYDIR
 10
0.0
 20
1.0
 30
0.0
  9
$PUCSNAME
  2

  9
$PUCSORG
 10
0.0
 20
0.0
 30
0.0
  9
$PUCSXDIR
 10
1.0
 20
0.0
 30
0.0
  9
$PUCSYDIR
 10
0.0
 20
1.0
 30
0.0
  9
$USERI1
 70
     0
  9
$USERI2
 70
     0
  9
$USERI3
 70
     0
  9
$USERI4
 70
     0
  9
$USERI5
 70
     0
  9
$USERR1
 40
0.0
  9
$USERR2
 40
0.0
  9
$USERR3
 40
0.0
  9
$USERR4
 40
0.0
  9
$USERR5
 40
0.0
  9
$WORLDVIEW
 70
     1
  9
$SHADEDGE
 70
     3
  9
$SHADEDIF
 70
    70
  9
$TILEMODE
 70
     1
  9
$MAXACTVP
 70
    16
  9
$PINSBASE
 10
0.0
 20
0.0
 30
0.0
  9
$PLIMCHECK
 70
     0
  9
$PEXTMIN
 10
0.0
 20
0.0
 30
0.0
  9
$PEXTMAX
 10
420.0
 20
297.0
 30
0.0
  9
$PLIMMIN
 10
0.0
 20
0.0
  9
$PLIMMAX
 10
420.0
 20
297.0
  9
$UNITMODE
 70
     0
  9
$VISRETAIN
 70
     0
  9
$PLINEGEN
 70
     0
  9
$PSLTSCALE
 70
     1
  9
$TREEDEPTH
 70
  3020
  9
$PICKSTYLE
 70
     1
  9
$CMLSTYLE
  2
STANDARD
  9
$CMLJUST
 70
     0
  9
$CMLSCALE
 40
1.0
  9
$PROXYGRAPHICS
 70
     1
  9
$MEASUREMENT
 70
     0
  0
ENDSEC
  0
SECTION
  2
CLASSES
  0
CLASS
  1
DICTIONARYVAR
  2
AcDbDictionaryVar
  3
"AutoCAD"
 90
        0
280
     0
281
     0
  0
CLASS
  1
LWPOLYLINE
  2
AcDbPolyline
  3
"AutoCAD"
 90
        0
280
     0
281
     1
  0
ENDSEC
  0
SECTION
  2
TABLES
  0
TABLE
  2
VPORT
  5
CF
100
AcDbSymbolTable
 70
     1
  0
VPORT
  5
F9
100
AcDbSymbolTableRecord
100
AcDbViewportTableRecord
  2
*ACTIVE
 70
     0
 10
0.0
 20
0.0
 11
1.0
 21
1.0
 12
614.472685
 22
-13.946944
 13
0.0
 23
0.0
 14
1.0
 24
1.0
 15
0.0
 25
0.0
 16
0.0
 26
0.0
 36
1.0
 17
0.0
 27
0.0
 37
0.0
 40
119.653507
 41
1.671053
 42
50.0
 43
0.0
 44
0.0
 50
0.0
 51
0.0
 71
     0
 72
   100
 73
     1
 74
     1
 75
     0
 76
     0
 77
     0
 78
     0
  0
ENDTAB
  0
TABLE
  2
LTYPE
  5
CC
100
AcDbSymbolTable
 70
     2
  0
LTYPE
  5
D8
100
AcDbSymbolTableRecord
100
AcDbLinetypeTableRecord
  2
BYBLOCK
 70
     0
  3

 72
    65
 73
     0
 40
0.0
  0
LTYPE
  5
D9
100
AcDbSymbolTableRecord
100
AcDbLinetypeTableRecord
  2
BYLAYER
 70
     0
  3

 72
    65
 73
     0
 40
0.0
  0
LTYPE
  5
DA
100
AcDbSymbolTableRecord
100
AcDbLinetypeTableRecord
  2
CONTINUOUS
 70
     0
  3
Solid line
 72
    65
 73
     0
 40
0.0
  0
LTYPE
  5
E9
100
AcDbSymbolTableRecord
100
AcDbLinetypeTableRecord
  2
AXES2
 70
     0
  3
___ _ ___ _ ___ _ ___ _ ___ _ ___ _ ___ _ ___ _
 72
    65
 73
     4
 40
1.125
 49
0.75
 74
     0
 49
-0.125
 74
     0
 49
0.125
 74
     0
 49
-0.125
 74
     0
  0
ENDTAB
  0
TABLE
  2
LAYER
  5
C9
100
AcDbSymbolTable
 70
     5
  0
LAYER
  5
D5
100
AcDbSymbolTableRecord
100
AcDbLayerTableRecord
  2
0
 70
     0
 62
   255
  6
CONTINUOUS
  0
LAYER
  5
EC
100
AcDbSymbolTableRecord
100
AcDbLayerTableRecord
  2
AXE
 70
     0
 62
    80
  6
AXES2
  0
LAYER
  5
ED
100
AcDbSymbolTableRecord
100
AcDbLayerTableRecord
  2
COTATION1
 70
     0
 62
     2
  6
CONTINUOUS
  0
LAYER
  5
EE
100
AcDbSymbolTableRecord
100
AcDbLayerTableRecord
  2
ALPHA
 70
     0
 62
   254
  6
CONTINUOUS
  0
LAYER
  5
EF
100
AcDbSymbolTableRecord
100
AcDbLayerTableRecord
  2
DEFPOINTS
 70
     0
 62
     7
  6
CONTINUOUS
  0
ENDTAB
  0
TABLE
  2
STYLE
  5
CA
100
AcDbSymbolTable
 70
     2
  0
STYLE
  5
D6
100
AcDbSymbolTableRecord
100
AcDbTextStyleTableRecord
  2
STANDARD
 70
     0
 40
0.0
 41
1.0
 50
0.0
 71
     0
 42
0.2
  3
txt
  4

  0
STYLE
  5
E8
100
AcDbSymbolTableRecord
100
AcDbTextStyleTableRecord
  2
ROMANS
 70
     0
 40
0.0
 41
1.0
 50
0.0
 71
     0
 42
2.9
  3
romans.shx
  4

  0
ENDTAB
  0
TABLE
  2
VIEW
  5
CD
100
AcDbSymbolTable
 70
     0
  0
ENDTAB
  0
TABLE
  2
UCS
  5
CE
100
AcDbSymbolTable
 70
     0
  0
ENDTAB
  0
TABLE
  2
APPID
  5
D0
100
AcDbSymbolTable
 70
     1
  0
APPID
  5
D7
100
AcDbSymbolTableRecord
100
AcDbRegAppTableRecord
  2
ACAD
 70
     0
  0
ENDTAB
  0
TABLE
  2
DIMSTYLE
  5
D1
100
AcDbSymbolTable
 70
     1
  0
DIMSTYLE
105
EB
102
{ACAD_REACTORS
330
21
330
36
330
43
330
87
102
}
100
AcDbSymbolTableRecord
100
AcDbDimStyleTableRecord
  2
SC_STAND
 70
     0
  3

  4

  5

  6

  7

 40
1.0
 41
3.0
 42
0.0625
 43
0.38
 44
0.18
 45
0.01
 46
0.0
 47
0.0
 48
0.0
140
2.5
141
0.09
142
0.0
143
25.4
144
1.0
145
0.0
146
1.0
147
1.0
 71
     0
 72
     0
 73
     0
 74
     0
 75
     0
 76
     0
 77
     1
 78
    12
170
     0
171
     2
172
     1
173
     0
174
     0
175
     0
176
     0
177
     0
178
     0
270
     2
271
     4
272
     4
273
     2
274
     2
340
E8
275
     0
280
     0
281
     0
282
     0
283
     1
284
    12
285
    12
286
    12
287
     5
288
     0
  0
ENDTAB
  0
TABLE
  2
BLOCK_RECORD
  5
C8
100
AcDbSymbolTable
 70
     5
  0
BLOCK_RECORD
  5
DE
100
AcDbSymbolTableRecord
100
AcDbBlockTableRecord
  2
*MODEL_SPACE
  0
BLOCK_RECORD
  5
DB
100
AcDbSymbolTableRecord
100
AcDbBlockTableRecord
  2
*PAPER_SPACE
  0
BLOCK_RECORD
  5
E3
100
AcDbSymbolTableRecord
100
AcDbBlockTableRecord
  2
*D0
  0
BLOCK_RECORD
  5
E4
100
AcDbSymbolTableRecord
100
AcDbBlockTableRecord
  2
*D1
  0
BLOCK_RECORD
  5
E5
100
AcDbSymbolTableRecord
100
AcDbBlockTableRecord
  2
*D2
  0
BLOCK_RECORD
  5
E6
100
AcDbSymbolTableRecord
100
AcDbBlockTableRecord
  2
*D3
  0
BLOCK_RECORD
  5
E7
100
AcDbSymbolTableRecord
100
AcDbBlockTableRecord
  2
_OPEN
  0
ENDTAB
  0
ENDSEC
  0
SECTION
  2
BLOCKS
  0
BLOCK
  5
F2
100
AcDbEntity
  8
0
100
AcDbBlockBegin
  2
*MODEL_SPACE
 70
     0
 10
0.0
 20
0.0
 30
0.0
  3
*MODEL_SPACE
  1

  0
ENDBLK
  5
F3
100
AcDbEntity
  8
0
100
AcDbBlockEnd
  0
BLOCK
  5
F0
100
AcDbEntity
 67
     1
  8
0
100
AcDbBlockBegin
  2
*PAPER_SPACE
 70
     0
 10
0.0
 20
0.0
 30
0.0
  3
*PAPER_SPACE
  1

  0
ENDBLK
  5
F1
100
AcDbEntity
 67
     1
  8
0
100
AcDbBlockEnd
  0
BLOCK
  5
94
100
AcDbEntity
  8
0
100
AcDbBlockBegin
  2
*D0
 70
     1
 10
0.0
 20
0.0
 30
0.0
  3
*D0
  1

  0
LINE
  5
89
100
AcDbEntity
  8
0
  6
BYBLOCK
 62
     0
100
AcDbLine
 10
563.897966
 20
-17.760806
 30
0.0
 11
563.897966
 21
-10.056406
 31
0.0
  0
LINE
  5
8A
100
AcDbEntity
  8
0
  6
BYBLOCK
 62
     0
100
AcDbLine
 10
567.897966
 20
-17.760806
 30
0.0
 11
567.897966
 21
-10.056406
 31
0.0
  0
LINE
  5
8B
100
AcDbEntity
  8
0
  6
BYBLOCK
 62
     0
100
AcDbLine
 10
560.897966
 20
-10.236406
 30
0.0
 11
557.897966
 21
-10.236406
 31
0.0
  0
LINE
  5
8C
100
AcDbEntity
  8
0
  6
BYBLOCK
 62
     0
100
AcDbLine
 10
570.897966
 20
-10.236406
 30
0.0
 11
573.897966
 21
-10.236406
 31
0.0
  0
LINE
  5
8D
100
AcDbEntity
  8
0
  6
BYBLOCK
 62
     0
100
AcDbLine
 10
563.897966
 20
-10.236406
 30
0.0
 11
567.897966
 21
-10.236406
 31
0.0
  0
INSERT
  5
8E
100
AcDbEntity
  8
0
  6
BYBLOCK
 62
     0
100
AcDbBlockReference
  2
_OPEN
 10
563.897966
 20
-10.236406
 30
0.0
 41
3.0
 42
3.0
 43
3.0
  0
INSERT
  5
8F
100
AcDbEntity
  8
0
  6
BYBLOCK
 62
     0
100
AcDbBlockReference
  2
_OPEN
 10
567.897966
 20
-10.236406
 30
0.0
 41
3.0
 42
3.0
 43
3.0
 50
180.0
  0
TEXT
  5
90
100
AcDbEntity
  8
0
  6
BYBLOCK
 62
     0
100
AcDbText
 10
565.064633
 20
-9.236406
 30
0.0
 40
2.5
  1
4
100
AcDbText
  0
POINT
  5
91
100
AcDbEntity
  8
DEFPOINTS
  6
BYBLOCK
 62
     0
100
AcDbPoint
 10
563.897966
 20
-17.823306
 30
0.0
  0
POINT
  5
92
100
AcDbEntity
  8
DEFPOINTS
  6
BYBLOCK
 62
     0
100
AcDbPoint
 10
567.897966
 20
-17.823306
 30
0.0
  0
POINT
  5
93
100
AcDbEntity
  8
DEFPOINTS
  6
BYBLOCK
 62
     0
100
AcDbPoint
 10
567.897966
 20
-10.236406
 30
0.0
  0
ENDBLK
  5
95
100
AcDbEntity
  8
0
100
AcDbBlockEnd
  0
BLOCK
  5
4E
100
AcDbEntity
  8
0
100
AcDbBlockBegin
  2
*D1
 70
     1
 10
0.0
 20
0.0
 30
0.0
  3
*D1
  1

  0
LINE
  5
45
100
AcDbEntity
  8
0
  6
BYBLOCK
 62
     0
100
AcDbLine
 10
556.291875
 20
-37.942374
 30
0.0
 11
556.291875
 21
-53.564251
 31
0.0
  0
LINE
  5
46
100
AcDbEntity
  8
0
  6
BYBLOCK
 62
     0
100
AcDbLine
 10
611.291875
 20
-37.942374
 30
0.0
 11
611.291875
 21
-53.564251
 31
0.0
  0
LINE
  5
47
100
AcDbEntity
  8
0
  6
BYBLOCK
 62
     0
100
AcDbLine
 10
559.291875
 20
-53.384251
 30
0.0
 11
608.291875
 21
-53.384251
 31
0.0
  0
INSERT
  5
48
100
AcDbEntity
  8
0
  6
BYBLOCK
 62
     0
100
AcDbBlockReference
  2
_OPEN
 10
556.291875
 20
-53.384251
 30
0.0
 41
3.0
 42
3.0
 43
3.0
 50
180.0
  0
INSERT
  5
49
100
AcDbEntity
  8
0
  6
BYBLOCK
 62
     0
100
AcDbBlockReference
  2
_OPEN
 10
611.291875
 20
-53.384251
 30
0.0
 41
3.0
 42
3.0
 43
3.0
  0
TEXT
  5
4A
100
AcDbEntity
  8
0
  6
BYBLOCK
 62
     0
100
AcDbText
 10
581.708542
 20
-52.384251
 30
0.0
 40
2.5
  1
55
100
AcDbText
  0
POINT
  5
4B
100
AcDbEntity
  8
DEFPOINTS
  6
BYBLOCK
 62
     0
100
AcDbPoint
 10
556.291875
 20
-37.879874
 30
0.0
  0
POINT
  5
4C
100
AcDbEntity
  8
DEFPOINTS
  6
BYBLOCK
 62
     0
100
AcDbPoint
 10
611.291875
 20
-37.879874
 30
0.0
  0
POINT
  5
4D
100
AcDbEntity
  8
DEFPOINTS
  6
BYBLOCK
 62
     0
100
AcDbPoint
 10
611.291875
 20
-53.384251
 30
0.0
  0
ENDBLK
  5
4F
100
AcDbEntity
  8
0
100
AcDbBlockEnd
  0
BLOCK
  5
41
100
AcDbEntity
  8
0
100
AcDbBlockBegin
  2
*D2
 70
     1
 10
0.0
 20
0.0
 30
0.0
  3
*D2
  1

  0
LINE
  5
38
100
AcDbEntity
  8
0
  6
BYBLOCK
 62
     0
100
AcDbLine
 10
554.791875
 20
-37.942374
 30
0.0
 11
554.791875
 21
-62.190997
 31
0.0
  0
LINE
  5
39
100
AcDbEntity
  8
0
  6
BYBLOCK
 62
     0
100
AcDbLine
 10
637.791875
 20
-37.942374
 30
0.0
 11
637.791875
 21
-62.190997
 31
0.0
  0
LINE
  5
3A
100
AcDbEntity
  8
0
  6
BYBLOCK
 62
     0
100
AcDbLine
 10
557.791875
 20
-62.010997
 30
0.0
 11
634.791875
 21
-62.010997
 31
0.0
  0
INSERT
  5
3B
100
AcDbEntity
  8
0
  6
BYBLOCK
 62
     0
100
AcDbBlockReference
  2
_OPEN
 10
554.791875
 20
-62.010997
 30
0.0
 41
3.0
 42
3.0
 43
3.0
 50
180.0
  0
INSERT
  5
3C
100
AcDbEntity
  8
0
  6
BYBLOCK
 62
     0
100
AcDbBlockReference
  2
_OPEN
 10
637.791875
 20
-62.010997
 30
0.0
 41
3.0
 42
3.0
 43
3.0
  0
TEXT
  5
3D
100
AcDbEntity
  8
0
  6
BYBLOCK
 62
     0
100
AcDbText
 10
594.208542
 20
-61.010997
 30
0.0
 40
2.5
  1
83
100
AcDbText
  0
POINT
  5
3E
100
AcDbEntity
  8
DEFPOINTS
  6
BYBLOCK
 62
     0
100
AcDbPoint
 10
554.791875
 20
-37.879874
 30
0.0
  0
POINT
  5
3F
100
AcDbEntity
  8
DEFPOINTS
  6
BYBLOCK
 62
     0
100
AcDbPoint
 10
637.791875
 20
-37.879874
 30
0.0
  0
POINT
  5
40
100
AcDbEntity
  8
DEFPOINTS
  6
BYBLOCK
 62
     0
100
AcDbPoint
 10
637.791875
 20
-62.010997
 30
0.0
  0
ENDBLK
  5
42
100
AcDbEntity
  8
0
100
AcDbBlockEnd
  0
BLOCK
  5
34
100
AcDbEntity
  8
0
100
AcDbBlockBegin
  2
*D3
 70
     1
 10
0.0
 20
0.0
 30
0.0
  3
*D3
  1

  0
LINE
  5
24
100
AcDbEntity
  8
0
  6
BYBLOCK
 62
     0
100
AcDbLine
 10
539.791875
 20
-37.942374
 30
0.0
 11
539.791875
 21
-73.453697
 31
0.0
  0
LINE
  5
25
100
AcDbEntity
  8
0
  6
BYBLOCK
 62
     0
100
AcDbLine
 10
649.791875
 20
-34.115318
 30
0.0
 11
649.791875
 21
-73.453697
 31
0.0
  0
LINE
  5
26
100
AcDbEntity
  8
0
  6
BYBLOCK
 62
     0
100
AcDbLine
 10
542.791875
 20
-73.273697
 30
0.0
 11
646.791875
 21
-73.273697
 31
0.0
  0
INSERT
  5
27
100
AcDbEntity
  8
0
  6
BYBLOCK
 62
     0
100
AcDbBlockReference
  2
_OPEN
 10
539.791875
 20
-73.273697
 30
0.0
 41
3.0
 42
3.0
 43
3.0
 50
180.0
  0
INSERT
  5
2E
100
AcDbEntity
  8
0
  6
BYBLOCK
 62
     0
100
AcDbBlockReference
  2
_OPEN
 10
649.791875
 20
-73.273697
 30
0.0
 41
3.0
 42
3.0
 43
3.0
  0
TEXT
  5
2F
100
AcDbEntity
  8
0
  6
BYBLOCK
 62
     0
100
AcDbText
 10
592.500209
 20
-72.273697
 30
0.0
 40
2.5
  1
110
100
AcDbText
  0
POINT
  5
30
100
AcDbEntity
  8
DEFPOINTS
  6
BYBLOCK
 62
     0
100
AcDbPoint
 10
539.791875
 20
-37.879874
 30
0.0
  0
POINT
  5
32
100
AcDbEntity
  8
DEFPOINTS
  6
BYBLOCK
 62
     0
100
AcDbPoint
 10
649.791875
 20
-34.052818
 30
0.0
  0
POINT
  5
33
100
AcDbEntity
  8
DEFPOINTS
  6
BYBLOCK
 62
     0
100
AcDbPoint
 10
649.791875
 20
-73.273697
 30
0.0
  0
ENDBLK
  5
35
100
AcDbEntity
  8
0
100
AcDbBlockEnd
  0
BLOCK
  5
2C
100
AcDbEntity
  8
0
100
AcDbBlockBegin
  2
_OPEN
 70
     0
 10
0.0
 20
0.0
 30
0.0
  3
_OPEN
  1

  0
LINE
  5
29
100
AcDbEntity
  8
0
  6
BYBLOCK
 62
     0
100
AcDbLine
 10
-1.0
 20
0.166667
 30
0.0
 11
0.0
 21
0.0
 31
0.0
  0
LINE
  5
2A
100
AcDbEntity
  8
0
  6
BYBLOCK
 62
     0
100
AcDbLine
 10
0.0
 20
0.0
 30
0.0
 11
-1.0
 21
-0.166667
 31
0.0
  0
LINE
  5
2B
100
AcDbEntity
  8
0
  6
BYBLOCK
 62
     0
100
AcDbLine
 10
0.0
 20
0.0
 30
0.0
 11
-1.0
 21
0.0
 31
0.0
  0
ENDBLK
  5
2D
100
AcDbEntity
  8
0
100
AcDbBlockEnd
  0
ENDSEC
  0
SECTION
  2
ENTITIES
  0
DIMENSION
  5
21
100
AcDbEntity
  8
COTATION1
100
AcDbDimension
  2
*D3
 10
649.791875
 20
-73.273697
 30
0.0
 11
594.791875
 21
-71.023697
 31
0.0
  3
SC_STAND
100
AcDbAlignedDimension
 13
539.791875
 23
-37.879874
 33
0.0
 14
649.791875
 24
-34.052818
 34
0.0
100
AcDbRotatedDimension
1001
ACAD
1000
DSTYLE
1002
{
1070
   284
1070
     0
1070
   340
1005
E
1070
   287
1070
     3
1070
     5
1000
_OPEN
1070
   285
1070
     0
1070
   286
1070
     0
1002
}
  0
DIMENSION
  5
36
100
AcDbEntity
  8
COTATION1
100
AcDbDimension
  2
*D2
 10
637.791875
 20
-62.010997
 30
0.0
 11
596.291875
 21
-59.760997
 31
0.0
  3
SC_STAND
100
AcDbAlignedDimension
 13
554.791875
 23
-37.879874
 33
0.0
 14
637.791875
 24
-37.879874
 34
0.0
100
AcDbRotatedDimension
1001
ACAD
1000
DSTYLE
1002
{
1070
   284
1070
     0
1070
   340
1005
E
1070
   287
1070
     3
1070
     5
1000
_OPEN
1070
   285
1070
     0
1070
   286
1070
     0
1002
}
  0
DIMENSION
  5
43
100
AcDbEntity
  8
COTATION1
100
AcDbDimension
  2
*D1
 10
611.291875
 20
-53.384251
 30
0.0
 11
583.791875
 21
-51.134251
 31
0.0
  3
SC_STAND
100
AcDbAlignedDimension
 13
556.291875
 23
-37.879874
 33
0.0
 14
611.291875
 24
-37.879874
 34
0.0
100
AcDbRotatedDimension
1001
ACAD
1000
DSTYLE
1002
{
1070
   284
1070
     0
1070
   340
1005
E
1070
   287
1070
     3
1070
     5
1000
_OPEN
1070
   285
1070
     0
1070
   286
1070
     0
1002
}
  0
INSERT
  5
50
100
AcDbEntity
  8
COTATION1
100
AcDbBlockReference
  2
_OPEN
 10
577.218716
 20
-20.879874
 30
0.0
 41
3.0
 42
3.0
 43
3.0
 50
238.120005
1001
ACAD
1000
DSTYLE
1002
{
1070
   284
1070
     0
1070
   340
1005
FC3702020000000E
1070
   287
1070
     3
1070
     5
1000
_OPEN
1070
   285
1070
     0
1070
   286
1070
     0
1002
}
  0
LWPOLYLINE
  5
C3
100
AcDbEntity
  8
COTATION1
100
AcDbPolyline
 90
        3
 70
   128
 43
0.0
 10
578.803142
 20
-18.332406
 10
585.187599
 20
-8.06736
 10
599.187599
 20
-8.06736
1001
ACAD
1000
R13OBJECT
1002
{
1005
50
1002
}
  0
LINE
  5
51
100
AcDbEntity
  8
ALPHA
 62
   255
100
AcDbLine
 10
577.218716
 20
-21.879874
 30
0.0
 11
611.291875
 21
-21.879874
 31
0.0
  0
LINE
  5
52
100
AcDbEntity
  8
ALPHA
100
AcDbLine
 10
577.218716
 20
-20.879874
 30
0.0
 11
610.291875
 21
-20.879874
 31
0.0
  0
LINE
  5
53
100
AcDbEntity
  8
ALPHA
 62
   255
100
AcDbLine
 10
577.218716
 20
-37.879874
 30
0.0
 11
611.291875
 21
-37.879874
 31
0.0
  0
LINE
  5
54
100
AcDbEntity
  8
ALPHA
100
AcDbLine
 10
577.218716
 20
-38.879874
 30
0.0
 11
610.291875
 21
-38.879874
 31
0.0
  0
LINE
  5
55
100
AcDbEntity
  8
AXE
100
AcDbLine
 10
514.499031
 20
-29.879874
 30
0.0
 11
652.514348
 21
-29.879874
 31
0.0
  0
LINE
  5
56
100
AcDbEntity
  8
AXE
100
AcDbLine
 10
567.897966
 20
-29.797325
 30
0.0
 11
567.897966
 21
6.135782
 31
0.0
  0
TEXT
  5
57
100
AcDbEntity
  8
AXE
100
AcDbText
 10
518.020047
 20
-24.996093
 30
0.0
 40
15.0
  1
Z
  7
ROMANS
100
AcDbText
  0
LINE
  5
58
100
AcDbEntity
  8
ALPHA
100
AcDbLine
 10
539.791875
 20
-23.544278
 30
0.0
 11
539.791875
 21
-37.879874
 31
0.0
  0
LINE
  5
59
100
AcDbEntity
  8
ALPHA
100
AcDbLine
 10
539.791875
 20
-37.879874
 30
0.0
 11
554.791875
 21
-23.544278
 31
0.0
  0
LINE
  5
5A
100
AcDbEntity
  8
ALPHA
100
AcDbLine
 10
567.897966
 20
-17.823306
 30
0.0
 11
567.897966
 21
-41.936442
 31
0.0
  0
ARC
  5
5B
100
AcDbEntity
  8
ALPHA
100
AcDbCircle
 10
545.76055
 20
-29.865612
 30
0.0
 40
22.137521
100
AcDbArc
 50
341.800237
 51
18.199554
  0
LINE
  5
5C
100
AcDbEntity
  8
ALPHA
100
AcDbLine
 10
577.218716
 20
-17.823306
 30
0.0
 11
577.218716
 21
-41.936442
 31
0.0
  0
ARC
  5
5D
100
AcDbEntity
  8
ALPHA
100
AcDbCircle
 10
555.0813
 20
-29.865612
 30
0.0
 40
22.137521
100
AcDbArc
 50
341.800237
 51
18.199554
  0
LINE
  5
5E
100
AcDbEntity
  8
ALPHA
100
AcDbLine
 10
573.218716
 20
-41.936442
 30
0.0
 11
573.218716
 21
-17.823306
 31
0.0
  0
ARC
  5
5F
100
AcDbEntity
  8
ALPHA
100
AcDbCircle
 10
595.356337
 20
-29.866041
 30
0.0
 40
22.137464
100
AcDbArc
 50
161.800315
 51
198.19964
  0
LINE
  5
60
100
AcDbEntity
  8
ALPHA
100
AcDbLine
 10
554.791875
 20
-37.879874
 30
0.0
 11
554.791875
 21
-29.879874
 31
0.0
  0
LINE
  5
61
100
AcDbEntity
  8
ALPHA
100
AcDbLine
 10
557.291875
 20
-38.879874
 30
0.0
 11
557.291875
 21
-29.879874
 31
0.0
  0
LINE
  5
62
100
AcDbEntity
  8
ALPHA
100
AcDbLine
 10
556.291875
 20
-37.879874
 30
0.0
 11
556.291875
 21
-29.879874
 31
0.0
  0
LINE
  5
63
100
AcDbEntity
  8
ALPHA
100
AcDbLine
 10
563.897966
 20
-41.936442
 30
0.0
 11
563.897966
 21
-17.823306
 31
0.0
  0
ARC
  5
64
100
AcDbEntity
  8
ALPHA
100
AcDbCircle
 10
586.035587
 20
-29.866041
 30
0.0
 40
22.137464
100
AcDbArc
 50
161.800315
 51
198.19964
  0
LINE
  5
65
100
AcDbEntity
  8
ALPHA
100
AcDbLine
 10
556.291875
 20
-37.879874
 30
0.0
 11
539.791875
 21
-37.879874
 31
0.0
  0
LINE
  5
66
100
AcDbEntity
  8
ALPHA
100
AcDbLine
 10
566.790605
 20
-43.736308
 30
0.0
 11
565.005571
 21
-43.736308
 31
0.0
  0
LINE
  5
67
100
AcDbEntity
  8
ALPHA
100
AcDbLine
 10
566.876299
 20
-36.808105
 30
0.0
 11
564.919817
 21
-36.808105
 31
0.0
  0
ARC
  5
68
100
AcDbEntity
  8
ALPHA
100
AcDbCircle
 10
569.914063
 20
-40.258477
 30
0.0
 40
6.015943
100
AcDbArc
 50
144.677747
 51
215.322166
  0
LINE
  5
69
100
AcDbEntity
  8
ALPHA
100
AcDbLine
 10
565.005571
 20
-43.736308
 30
0.0
 11
563.897966
 21
-41.936442
 31
0.0
  0
LINE
  5
6A
100
AcDbEntity
  8
ALPHA
 62
   255
100
AcDbLine
 10
556.291875
 20
-37.879874
 30
0.0
 11
563.897966
 21
-37.879874
 31
0.0
  0
LINE
  5
6B
100
AcDbEntity
  8
ALPHA
100
AcDbLine
 10
557.291875
 20
-38.879874
 30
0.0
 11
563.897966
 21
-38.879874
 31
0.0
  0
LINE
  5
6C
100
AcDbEntity
  8
ALPHA
100
AcDbLine
 10
557.291875
 20
-38.879874
 30
0.0
 11
556.291875
 21
-37.879874
 31
0.0
  0
ARC
  5
6D
100
AcDbEntity
  8
ALPHA
100
AcDbCircle
 10
561.887174
 20
-40.251007
 30
0.0
 40
6.015893
100
AcDbArc
 50
324.595232
 51
35.239668
  0
ARC
  5
6E
100
AcDbEntity
  8
ALPHA
100
AcDbCircle
 10
571.207924
 20
-40.251007
 30
0.0
 40
6.015893
100
AcDbArc
 50
324.595232
 51
35.239668
  0
ARC
  5
6F
100
AcDbEntity
  8
ALPHA
100
AcDbCircle
 10
579.234814
 20
-40.258477
 30
0.0
 40
6.015943
100
AcDbArc
 50
144.677747
 51
215.322166
  0
LINE
  5
70
100
AcDbEntity
  8
ALPHA
100
AcDbLine
 10
574.326321
 20
-43.736308
 30
0.0
 11
573.218716
 21
-41.936442
 31
0.0
  0
LINE
  5
71
100
AcDbEntity
  8
ALPHA
100
AcDbLine
 10
567.897966
 20
-41.936442
 30
0.0
 11
566.790605
 21
-43.736308
 31
0.0
  0
LINE
  5
72
100
AcDbEntity
  8
ALPHA
100
AcDbLine
 10
577.218716
 20
-41.936442
 30
0.0
 11
576.111355
 21
-43.736308
 31
0.0
  0
LINE
  5
73
100
AcDbEntity
  8
ALPHA
100
AcDbLine
 10
576.111355
 20
-43.736308
 30
0.0
 11
574.326321
 21
-43.736308
 31
0.0
  0
LINE
  5
74
100
AcDbEntity
  8
ALPHA
 62
   255
100
AcDbLine
 10
567.897966
 20
-37.879874
 30
0.0
 11
573.218716
 21
-37.879874
 31
0.0
  0
LINE
  5
75
100
AcDbEntity
  8
ALPHA
100
AcDbLine
 10
567.897966
 20
-38.879874
 30
0.0
 11
573.218716
 21
-38.879874
 31
0.0
  0
LINE
  5
76
100
AcDbEntity
  8
ALPHA
100
AcDbLine
 10
576.197049
 20
-36.808105
 30
0.0
 11
574.240567
 21
-36.808105
 31
0.0
  0
LINE
  5
77
100
AcDbEntity
  8
ALPHA
100
AcDbLine
 10
539.791875
 20
-23.544278
 30
0.0
 11
554.791875
 21
-23.544278
 31
0.0
  0
ARC
  5
78
100
AcDbEntity
  8
ALPHA
100
AcDbCircle
 10
561.926243
 20
-19.487491
 30
0.0
 40
5.971845
100
AcDbArc
 50
324.543137
 51
35.457176
  0
ARC
  5
79
100
AcDbEntity
  8
ALPHA
100
AcDbCircle
 10
571.246993
 20
-19.487491
 30
0.0
 40
5.971845
100
AcDbArc
 50
324.543137
 51
35.457176
  0
ARC
  5
7A
100
AcDbEntity
  8
ALPHA
100
AcDbCircle
 10
579.190684
 20
-19.487796
 30
0.0
 40
5.971845
100
AcDbArc
 50
144.542824
 51
215.456864
  0
ARC
  5
7B
100
AcDbEntity
  8
ALPHA
100
AcDbCircle
 10
569.869933
 20
-19.487796
 30
0.0
 40
5.971845
100
AcDbArc
 50
144.542824
 51
215.456864
  0
LINE
  5
7C
100
AcDbEntity
  8
ALPHA
100
AcDbLine
 10
566.790605
 20
-22.951698
 30
0.0
 11
565.005571
 21
-22.951698
 31
0.0
  0
LINE
  5
7D
100
AcDbEntity
  8
ALPHA
100
AcDbLine
 10
556.291875
 20
-21.879874
 30
0.0
 11
556.291875
 21
-29.879874
 31
0.0
  0
LINE
  5
7E
100
AcDbEntity
  8
ALPHA
100
AcDbLine
 10
557.291875
 20
-20.879874
 30
0.0
 11
557.291875
 21
-29.879874
 31
0.0
  0
LINE
  5
7F
100
AcDbEntity
  8
ALPHA
100
AcDbLine
 10
554.791875
 20
-23.147692
 30
0.0
 11
554.791875
 21
-29.879874
 31
0.0
  0
LINE
  5
80
100
AcDbEntity
  8
ALPHA
100
AcDbLine
 10
557.291875
 20
-20.879874
 30
0.0
 11
563.897966
 21
-20.879874
 31
0.0
  0
LINE
  5
81
100
AcDbEntity
  8
ALPHA
 62
   255
100
AcDbLine
 10
556.291875
 20
-21.879874
 30
0.0
 11
563.897966
 21
-21.879874
 31
0.0
  0
LINE
  5
82
100
AcDbEntity
  8
ALPHA
100
AcDbLine
 10
557.291875
 20
-20.879874
 30
0.0
 11
556.291875
 21
-21.879874
 31
0.0
  0
LINE
  5
83
100
AcDbEntity
  8
ALPHA
100
AcDbLine
 10
556.291875
 20
-23.147692
 30
0.0
 11
554.791875
 21
-23.147692
 31
0.0
  0
LINE
  5
84
100
AcDbEntity
  8
ALPHA
100
AcDbLine
 10
567.897966
 20
-20.879874
 30
0.0
 11
573.218716
 21
-20.879874
 31
0.0
  0
LINE
  5
85
100
AcDbEntity
  8
ALPHA
 62
   255
100
AcDbLine
 10
567.897966
 20
-21.879874
 30
0.0
 11
573.218716
 21
-21.879874
 31
0.0
  0
LINE
  5
86
100
AcDbEntity
  8
ALPHA
100
AcDbLine
 10
576.111355
 20
-22.951698
 30
0.0
 11
574.326321
 21
-22.951698
 31
0.0
  0
DIMENSION
  5
87
100
AcDbEntity
  8
COTATION1
100
AcDbDimension
  2
*D0
 10
567.897966
 20
-10.236406
 30
0.0
 11
565.897966
 21
-7.986406
 31
0.0
  3
SC_STAND
100
AcDbAlignedDimension
 13
563.897966
 23
-17.823306
 33
0.0
 14
567.897966
 24
-17.823306
 34
0.0
100
AcDbRotatedDimension
1001
ACAD
1000
DSTYLE
1002
{
1070
   284
1070
     0
1070
   340
1005
E
1070
   287
1070
     3
1070
     5
1000
_OPEN
1070
   285
1070
     0
1070
   286
1070
     0
1002
}
  0
LINE
  5
96
100
AcDbEntity
  8
ALPHA
100
AcDbLine
 10
565.005571
 20
-16.023563
 30
0.0
 11
566.790605
 21
-16.023258
 31
0.0
  0
LINE
  5
97
100
AcDbEntity
  8
ALPHA
100
AcDbLine
 10
563.897966
 20
-17.823306
 30
0.0
 11
565.005571
 21
-16.023563
 31
0.0
  0
LINE
  5
98
100
AcDbEntity
  8
ALPHA
100
AcDbLine
 10
573.218716
 20
-17.823306
 30
0.0
 11
574.326321
 21
-16.023563
 31
0.0
  0
LINE
  5
99
100
AcDbEntity
  8
ALPHA
100
AcDbLine
 10
566.790605
 20
-16.023258
 30
0.0
 11
567.897966
 21
-17.823306
 31
0.0
  0
LINE
  5
9A
100
AcDbEntity
  8
ALPHA
100
AcDbLine
 10
576.111355
 20
-16.023258
 30
0.0
 11
577.218716
 21
-17.823306
 31
0.0
  0
LINE
  5
9B
100
AcDbEntity
  8
ALPHA
100
AcDbLine
 10
574.326321
 20
-16.023563
 30
0.0
 11
576.111355
 21
-16.023258
 31
0.0
  0
TEXT
  5
9C
100
AcDbEntity
  8
AXE
100
AcDbText
 10
551.951089
 20
-3.495335
 30
0.0
 40
15.0
  1
Y
  7
ROMANS
100
AcDbText
  0
LINE
  5
9D
100
AcDbEntity
  8
ALPHA
100
AcDbLine
 10
611.291875
 20
-21.879874
 30
0.0
 11
637.791875
 21
-21.879874
 31
0.0
  0
LINE
  5
9E
100
AcDbEntity
  8
ALPHA
100
AcDbLine
 10
611.291875
 20
-37.879874
 30
0.0
 11
637.791875
 21
-37.879874
 31
0.0
  0
LINE
  5
9F
100
AcDbEntity
  8
ALPHA
100
AcDbLine
 10
627.203757
 20
-37.879874
 30
0.0
 11
627.203757
 21
-29.879874
 31
0.0
  0
LINE
  5
A0
100
AcDbEntity
  8
ALPHA
100
AcDbLine
 10
610.291875
 20
-38.879874
 30
0.0
 11
610.291875
 21
-29.879874
 31
0.0
  0
LINE
  5
A1
100
AcDbEntity
  8
ALPHA
100
AcDbLine
 10
611.291875
 20
-37.879874
 30
0.0
 11
611.291875
 21
-29.879874
 31
0.0
  0
LINE
  5
A2
100
AcDbEntity
  8
ALPHA
100
AcDbLine
 10
610.291875
 20
-38.879874
 30
0.0
 11
611.291875
 21
-37.879874
 31
0.0
  0
TEXT
  5
A3
100
AcDbEntity
  8
COTATION1
100
AcDbText
 10
589.187599
 20
-7.06736
 30
0.0
 40
2.5
  1
M18x1
100
AcDbText
  0
LINE
  5
A4
100
AcDbEntity
  8
ALPHA
100
AcDbLine
 10
611.291875
 20
-21.879874
 30
0.0
 11
611.291875
 21
-29.879874
 31
0.0
  0
LINE
  5
A5
100
AcDbEntity
  8
ALPHA
100
AcDbLine
 10
610.291875
 20
-20.879874
 30
0.0
 11
610.291875
 21
-29.879874
 31
0.0
  0
LINE
  5
A6
100
AcDbEntity
  8
ALPHA
100
AcDbLine
 10
610.291875
 20
-20.879874
 30
0.0
 11
611.291875
 21
-21.879874
 31
0.0
  0
LINE
  5
A7
100
AcDbEntity
  8
ALPHA
100
AcDbLine
 10
627.203757
 20
-21.879874
 30
0.0
 11
627.203757
 21
-29.879874
 31
0.0
  0
LINE
  5
A8
100
AcDbEntity
  8
ALPHA
100
AcDbLine
 10
649.791875
 20
-34.052818
 30
0.0
 11
649.791875
 21
-29.879874
 31
0.0
  0
LINE
  5
A9
100
AcDbEntity
  8
ALPHA
100
AcDbLine
 10
648.429538
 20
-29.879874
 30
0.0
 11
648.429538
 21
-34.052818
 31
0.0
  0
LINE
  5
AA
100
AcDbEntity
  8
ALPHA
100
AcDbLine
 10
640.791875
 20
-29.879874
 30
0.0
 11
640.791875
 21
-34.052818
 31
0.0
  0
LINE
  5
AB
100
AcDbEntity
  8
ALPHA
100
AcDbLine
 10
647.929538
 20
-34.552818
 30
0.0
 11
647.929538
 21
-29.879874
 31
0.0
  0
LINE
  5
AC
100
AcDbEntity
  8
ALPHA
100
AcDbLine
 10
641.291875
 20
-34.552818
 30
0.0
 11
641.291875
 21
-29.879874
 31
0.0
  0
LINE
  5
AD
100
AcDbEntity
  8
ALPHA
100
AcDbLine
 10
637.791875
 20
-21.879874
 30
0.0
 11
637.791875
 21
-37.879874
 31
0.0
  0
LINE
  5
AE
100
AcDbEntity
  8
ALPHA
100
AcDbLine
 10
641.291875
 20
-34.552818
 30
0.0
 11
647.929538
 21
-34.552818
 31
0.0
  0
LINE
  5
AF
100
AcDbEntity
  8
ALPHA
 62
   255
100
AcDbLine
 10
640.791875
 20
-34.052818
 30
0.0
 11
648.429538
 21
-34.052818
 31
0.0
  0
LINE
  5
B0
100
AcDbEntity
  8
ALPHA
100
AcDbLine
 10
640.791875
 20
-34.052818
 30
0.0
 11
637.791875
 21
-34.052818
 31
0.0
  0
LINE
  5
B1
100
AcDbEntity
  8
ALPHA
100
AcDbLine
 10
641.291875
 20
-34.552818
 30
0.0
 11
640.791875
 21
-34.052818
 31
0.0
  0
LINE
  5
B2
100
AcDbEntity
  8
ALPHA
100
AcDbLine
 10
648.429538
 20
-34.052818
 30
0.0
 11
649.791875
 21
-34.052818
 31
0.0
  0
LINE
  5
B3
100
AcDbEntity
  8
ALPHA
100
AcDbLine
 10
647.929538
 20
-34.552818
 30
0.0
 11
648.429538
 21
-34.052818
 31
0.0
  0
LINE
  5
B4
100
AcDbEntity
  8
ALPHA
100
AcDbLine
 10
649.791875
 20
-25.70693
 30
0.0
 11
649.791875
 21
-29.879874
 31
0.0
  0
LINE
  5
B5
100
AcDbEntity
  8
ALPHA
100
AcDbLine
 10
648.429538
 20
-29.879874
 30
0.0
 11
648.429538
 21
-25.70693
 31
0.0
  0
LINE
  5
B6
100
AcDbEntity
  8
ALPHA
100
AcDbLine
 10
640.791875
 20
-29.879874
 30
0.0
 11
640.791875
 21
-25.70693
 31
0.0
  0
LINE
  5
B7
100
AcDbEntity
  8
ALPHA
100
AcDbLine
 10
641.291875
 20
-25.20693
 30
0.0
 11
641.291875
 21
-29.879874
 31
0.0
  0
LINE
  5
B8
100
AcDbEntity
  8
ALPHA
100
AcDbLine
 10
647.929538
 20
-25.20693
 30
0.0
 11
647.929538
 21
-29.879874
 31
0.0
  0
LINE
  5
B9
100
AcDbEntity
  8
ALPHA
100
AcDbLine
 10
641.291875
 20
-25.20693
 30
0.0
 11
647.929538
 21
-25.20693
 31
0.0
  0
LINE
  5
BA
100
AcDbEntity
  8
ALPHA
 62
   255
100
AcDbLine
 10
640.791875
 20
-25.70693
 30
0.0
 11
648.429538
 21
-25.70693
 31
0.0
  0
LINE
  5
BB
100
AcDbEntity
  8
ALPHA
100
AcDbLine
 10
640.791875
 20
-25.70693
 30
0.0
 11
637.791875
 21
-25.70693
 31
0.0
  0
LINE
  5
BC
100
AcDbEntity
  8
ALPHA
100
AcDbLine
 10
641.291875
 20
-25.20693
 30
0.0
 11
640.791875
 21
-25.70693
 31
0.0
  0
LINE
  5
BD
100
AcDbEntity
  8
ALPHA
100
AcDbLine
 10
648.429538
 20
-25.70693
 30
0.0
 11
649.791875
 21
-25.70693
 31
0.0
  0
LINE
  5
BE
100
AcDbEntity
  8
ALPHA
100
AcDbLine
 10
647.929538
 20
-25.20693
 30
0.0
 11
648.429538
 21
-25.70693
 31
0.0
  0
ENDSEC
  0
SECTION
  2
OBJECTS
  0
DICTIONARY
  5
D3
100
AcDbDictionary
  3
ACAD_GROUP
350
D4
  3
ACAD_MLINESTYLE
350
E1
  3
ACDBVARIABLEDICTIONARY
350
F4
  0
DICTIONARY
  5
D4
102
{ACAD_REACTORS
330
D3
102
}
100
AcDbDictionary
  0
DICTIONARY
  5
E1
102
{ACAD_REACTORS
330
D3
102
}
100
AcDbDictionary
  3
STANDARD
350
E2
  0
DICTIONARY
  5
F4
102
{ACAD_REACTORS
330
D3
102
}
100
AcDbDictionary
  3
DIMADEC
350
F5
  0
MLINESTYLE
  5
E2
102
{ACAD_REACTORS
330
E1
102
}
100
AcDbMlineStyle
  2
STANDARD
 70
     0
  3

 62
   256
 51
90.0
 52
90.0
 71
     2
 49
0.5
 62
   256
  6
BYLAYER
 49
-0.5
 62
   256
  6
BYLAYER
  0
DICTIONARYVAR
  5
F5
102
{ACAD_REACTORS
330
F4
102
}
100
DictionaryVariables
280
     0
  1
0
  0
ENDSEC
  0
EOF
