  0
SECTION
  2
HEADER
  9
$ACADVER
  1
AC1014
  9
$ACADMAINTVER
 70
     0
  9
$DWGCODEPAGE
  3
ANSI_1252
  9
$INSBASE
 10
0.0
 20
0.0
 30
0.0
  9
$EXTMIN
 10
78.777883
 20
99.5
 30
0.0
  9
$EXTMAX
 10
140.5
 20
168.549008
 30
0.0
  9
$LIMMIN
 10
0.0
 20
0.0
  9
$LIMMAX
 10
210.0
 20
297.0
  9
$ORTHOMODE
 70
     0
  9
$REGENMODE
 70
     1
  9
$FILLMODE
 70
     1
  9
$QTEXTMODE
 70
     0
  9
$MIRRTEXT
 70
     1
  9
$DRAGMODE
 70
     2
  9
$LTSCALE
 40
10.0
  9
$OSMODE
 70
     0
  9
$ATTMODE
 70
     1
  9
$TEXTSIZE
 40
2.9
  9
$TRACEWID
 40
0.05
  9
$TEXTSTYLE
  7
ROMANS
  9
$CLAYER
  8
COTATION1
  9
$CELTYPE
  6
BYLAYER
  9
$CECOLOR
 62
   256
  9
$CELTSCALE
 40
1.0
  9
$DELOBJ
 70
     1
  9
$DISPSILH
 70
     0
  9
$DIMSCALE
 40
1.0
  9
$DIMASZ
 40
3.0
  9
$DIMEXO
 40
0.0625
  9
$DIMDLI
 40
0.38
  9
$DIMRND
 40
0.01
  9
$DIMDLE
 40
0.0
  9
$DIMEXE
 40
0.18
  9
$DIMTP
 40
0.0
  9
$DIMTM
 40
0.0
  9
$DIMTXT
 40
2.5
  9
$DIMCEN
 40
0.09
  9
$DIMTSZ
 40
0.0
  9
$DIMTOL
 70
     0
  9
$DIMLIM
 70
     0
  9
$DIMTIH
 70
     0
  9
$DIMTOH
 70
     0
  9
$DIMSE1
 70
     0
  9
$DIMSE2
 70
     0
  9
$DIMTAD
 70
     1
  9
$DIMZIN
 70
    12
  9
$DIMBLK
  1

  9
$DIMASO
 70
     1
  9
$DIMSHO
 70
     1
  9
$DIMPOST
  1

  9
$DIMAPOST
  1

  9
$DIMALT
 70
     0
  9
$DIMALTD
 70
     2
  9
$DIMALTF
 40
25.4
  9
$DIMLFAC
 40
1.0
  9
$DIMTOFL
 70
     1
  9
$DIMTVP
 40
0.0
  9
$DIMTIX
 70
     0
  9
$DIMSOXD
 70
     0
  9
$DIMSAH
 70
     0
  9
$DIMBLK1
  1

  9
$DIMBLK2
  1

  9
$DIMSTYLE
  2
SC_STAND
  9
$DIMCLRD
 70
     0
  9
$DIMCLRE
 70
     0
  9
$DIMCLRT
 70
     0
  9
$DIMTFAC
 40
1.0
  9
$DIMGAP
 40
1.0
  9
$DIMJUST
 70
     0
  9
$DIMSD1
 70
     0
  9
$DIMSD2
 70
     0
  9
$DIMTOLJ
 70
     1
  9
$DIMTZIN
 70
    12
  9
$DIMALTZ
 70
    12
  9
$DIMALTTZ
 70
    12
  9
$DIMFIT
 70
     5
  9
$DIMUPT
 70
     0
  9
$DIMUNIT
 70
     2
  9
$DIMDEC
 70
     4
  9
$DIMTDEC
 70
     4
  9
$DIMALTU
 70
     2
  9
$DIMALTTD
 70
     2
  9
$DIMTXSTY
  7
ROMANS
  9
$DIMAUNIT
 70
     0
  9
$LUNITS
 70
     2
  9
$LUPREC
 70
     4
  9
$SKETCHINC
 40
0.1
  9
$FILLETRAD
 40
0.0
  9
$AUNITS
 70
     0
  9
$AUPREC
 70
     0
  9
$MENU
  1
.
  9
$ELEVATION
 40
0.0
  9
$PELEVATION
 40
0.0
  9
$THICKNESS
 40
0.0
  9
$LIMCHECK
 70
     0
  9
$BLIPMODE
 70
     1
  9
$CHAMFERA
 40
0.0
  9
$CHAMFERB
 40
0.0
  9
$CHAMFERC
 40
0.0
  9
$CHAMFERD
 40
0.0
  9
$SKPOLY
 70
     0
  9
$TDCREATE
 40
2450988.723616666
  9
$TDUPDATE
 40
2451387.896836169
  9
$TDINDWG
 40
0.0015734954
  9
$TDUSRTIMER
 40
0.0015734954
  9
$USRTIMER
 70
     1
  9
$ANGBASE
 50
0.0
  9
$ANGDIR
 70
     0
  9
$PDMODE
 70
     0
  9
$PDSIZE
 40
0.0
  9
$PLINEWID
 40
0.0
  9
$COORDS
 70
     1
  9
$SPLFRAME
 70
     0
  9
$SPLINETYPE
 70
     6
  9
$SPLINESEGS
 70
     8
  9
$ATTDIA
 70
     1
  9
$ATTREQ
 70
     1
  9
$HANDLING
 70
     1
  9
$HANDSEED
  5
8D4
  9
$SURFTAB1
 70
     6
  9
$SURFTAB2
 70
     6
  9
$SURFTYPE
 70
     6
  9
$SURFU
 70
     6
  9
$SURFV
 70
     6
  9
$UCSNAME
  2

  9
$UCSORG
 10
0.0
 20
0.0
 30
0.0
  9
$UCSXDIR
 10
1.0
 20
0.0
 30
0.0
  9
$UCSYDIR
 10
0.0
 20
1.0
 30
0.0
  9
$PUCSNAME
  2

  9
$PUCSORG
 10
0.0
 20
0.0
 30
0.0
  9
$PUCSXDIR
 10
1.0
 20
0.0
 30
0.0
  9
$PUCSYDIR
 10
0.0
 20
1.0
 30
0.0
  9
$USERI1
 70
     0
  9
$USERI2
 70
     0
  9
$USERI3
 70
     0
  9
$USERI4
 70
     0
  9
$USERI5
 70
     0
  9
$USERR1
 40
0.0
  9
$USERR2
 40
0.0
  9
$USERR3
 40
0.0
  9
$USERR4
 40
0.0
  9
$USERR5
 40
0.0
  9
$WORLDVIEW
 70
     1
  9
$SHADEDGE
 70
     3
  9
$SHADEDIF
 70
    70
  9
$TILEMODE
 70
     1
  9
$MAXACTVP
 70
    16
  9
$PINSBASE
 10
0.0
 20
0.0
 30
0.0
  9
$PLIMCHECK
 70
     0
  9
$PEXTMIN
 10
0.0
 20
0.0
 30
0.0
  9
$PEXTMAX
 10
420.0
 20
297.0
 30
0.0
  9
$PLIMMIN
 10
0.0
 20
0.0
  9
$PLIMMAX
 10
420.0
 20
297.0
  9
$UNITMODE
 70
     0
  9
$VISRETAIN
 70
     0
  9
$PLINEGEN
 70
     0
  9
$PSLTSCALE
 70
     1
  9
$TREEDEPTH
 70
  3020
  9
$PICKSTYLE
 70
     1
  9
$CMLSTYLE
  2
STANDARD
  9
$CMLJUST
 70
     0
  9
$CMLSCALE
 40
1.0
  9
$PROXYGRAPHICS
 70
     1
  9
$MEASUREMENT
 70
     0
  0
ENDSEC
  0
SECTION
  2
CLASSES
  0
CLASS
  1
DICTIONARYVAR
  2
AcDbDictionaryVar
  3
"AutoCAD"
 90
        0
280
     0
281
     0
  0
CLASS
  1
LWPOLYLINE
  2
AcDbPolyline
  3
"AutoCAD"
 90
        0
280
     0
281
     1
  0
ENDSEC
  0
SECTION
  2
TABLES
  0
TABLE
  2
VPORT
  5
876
100
AcDbSymbolTable
 70
     1
  0
VPORT
  5
8CF
100
AcDbSymbolTableRecord
100
AcDbViewportTableRecord
  2
*ACTIVE
 70
     0
 10
0.0
 20
0.0
 11
1.0
 21
1.0
 12
257.127367
 22
153.871495
 13
0.0
 23
0.0
 14
2.5
 24
2.5
 15
10.0
 25
10.0
 16
0.0
 26
0.0
 36
1.0
 17
0.0
 27
0.0
 37
0.0
 40
307.74299
 41
1.671053
 42
50.0
 43
0.0
 44
0.0
 50
0.0
 51
0.0
 71
     0
 72
   100
 73
     1
 74
     1
 75
     1
 76
     1
 77
     0
 78
     0
  0
ENDTAB
  0
TABLE
  2
LTYPE
  5
873
100
AcDbSymbolTable
 70
    23
  0
LTYPE
  5
87F
100
AcDbSymbolTableRecord
100
AcDbLinetypeTableRecord
  2
BYBLOCK
 70
     0
  3

 72
    65
 73
     0
 40
0.0
  0
LTYPE
  5
880
100
AcDbSymbolTableRecord
100
AcDbLinetypeTableRecord
  2
BYLAYER
 70
     0
  3

 72
    65
 73
     0
 40
0.0
  0
LTYPE
  5
881
100
AcDbSymbolTableRecord
100
AcDbLinetypeTableRecord
  2
CONTINUOUS
 70
     0
  3
Solid line
 72
    65
 73
     0
 40
0.0
  0
LTYPE
  5
895
100
AcDbSymbolTableRecord
100
AcDbLinetypeTableRecord
  2
AXES
 70
     0
  3
____ _ ____ _ ____ _ ____ _ ____ _ ____ _ ____ 
 72
    65
 73
     4
 40
2.0
 49
1.25
 74
     0
 49
-0.25
 74
     0
 49
0.25
 74
     0
 49
-0.25
 74
     0
  0
LTYPE
  5
896
100
AcDbSymbolTableRecord
100
AcDbLinetypeTableRecord
  2
AXES2
 70
     0
  3
___ _ ___ _ ___ _ ___ _ ___ _ ___ _ ___ _ ___ _
 72
    65
 73
     4
 40
1.125
 49
0.75
 74
     0
 49
-0.125
 74
     0
 49
0.125
 74
     0
 49
-0.125
 74
     0
  0
LTYPE
  5
897
100
AcDbSymbolTableRecord
100
AcDbLinetypeTableRecord
  2
AXESX2
 70
     0
  3
________  __  ________  __  ________  __  _____
 72
    65
 73
     4
 40
4.0
 49
2.5
 74
     0
 49
-0.5
 74
     0
 49
0.5
 74
     0
 49
-0.5
 74
     0
  0
LTYPE
  5
898
100
AcDbSymbolTableRecord
100
AcDbLinetypeTableRecord
  2
TIRETPT
 70
     0
  3
__ . __ . __ . __ . __ . __ . __ . __ . __ . __
 72
    65
 73
     4
 40
1.0
 49
0.5
 74
     0
 49
-0.25
 74
     0
 49
0.0
 74
     0
 49
-0.25
 74
     0
  0
LTYPE
  5
899
100
AcDbSymbolTableRecord
100
AcDbLinetypeTableRecord
  2
TIRETPT2
 70
     0
  3
_._._._._._._._._._._._._._._._._._._._._._._._
 72
    65
 73
     4
 40
0.5
 49
0.25
 74
     0
 49
-0.125
 74
     0
 49
0.0
 74
     0
 49
-0.125
 74
     0
  0
LTYPE
  5
89A
100
AcDbSymbolTableRecord
100
AcDbLinetypeTableRecord
  2
TIRETPTX2
 70
     0
  3
____  .  ____  .  ____  .  ____  .  ____  .  __
 72
    65
 73
     4
 40
2.0
 49
1.0
 74
     0
 49
-0.5
 74
     0
 49
0.0
 74
     0
 49
-0.5
 74
     0
  0
LTYPE
  5
89B
100
AcDbSymbolTableRecord
100
AcDbLinetypeTableRecord
  2
DISCONTINU
 70
     0
  3
__ __ __ __ __ __ __ __ __ __ __ __ __ __ __ __
 72
    65
 73
     2
 40
0.75
 49
0.5
 74
     0
 49
-0.25
 74
     0
  0
LTYPE
  5
89C
100
AcDbSymbolTableRecord
100
AcDbLinetypeTableRecord
  2
DISCONTINU2
 70
     0
  3
_ _ _ _ _ _ _ _ _ _ _ _ _ _ _ _ _ _ _ _ _ _ _ _
 72
    65
 73
     2
 40
0.375
 49
0.25
 74
     0
 49
-0.125
 74
     0
  0
LTYPE
  5
89D
100
AcDbSymbolTableRecord
100
AcDbLinetypeTableRecord
  2
DISCONTINUX2
 70
     0
  3
____  ____  ____  ____  ____  ____  ____  ____ 
 72
    65
 73
     2
 40
1.5
 49
1.0
 74
     0
 49
-0.5
 74
     0
  0
LTYPE
  5
89E
100
AcDbSymbolTableRecord
100
AcDbLinetypeTableRecord
  2
DIVISE
 70
     0
  3
____ . . ____ . . ____ . . ____ . . ____ . . __
 72
    65
 73
     6
 40
1.25
 49
0.5
 74
     0
 49
-0.25
 74
     0
 49
0.0
 74
     0
 49
-0.25
 74
     0
 49
0.0
 74
     0
 49
-0.25
 74
     0
  0
LTYPE
  5
89F
100
AcDbSymbolTableRecord
100
AcDbLinetypeTableRecord
  2
DIVISE2
 70
     0
  3
__..__..__..__..__..__..__..__..__..__..__..__.
 72
    65
 73
     6
 40
0.625
 49
0.25
 74
     0
 49
-0.125
 74
     0
 49
0.0
 74
     0
 49
-0.125
 74
     0
 49
0.0
 74
     0
 49
-0.125
 74
     0
  0
LTYPE
  5
8A0
100
AcDbSymbolTableRecord
100
AcDbLinetypeTableRecord
  2
DIVISEX2
 70
     0
  3
________  .  .  ________  .  .  ________  .  . 
 72
    65
 73
     6
 40
2.5
 49
1.0
 74
     0
 49
-0.5
 74
     0
 49
0.0
 74
     0
 49
-0.5
 74
     0
 49
0.0
 74
     0
 49
-0.5
 74
     0
  0
LTYPE
  5
8A1
100
AcDbSymbolTableRecord
100
AcDbLinetypeTableRecord
  2
POINTILLE
 70
     0
  3
. . . . . . . . . . . . . . . . . . . . . . . .
 72
    65
 73
     2
 40
0.25
 49
0.0
 74
     0
 49
-0.25
 74
     0
  0
LTYPE
  5
8A2
100
AcDbSymbolTableRecord
100
AcDbLinetypeTableRecord
  2
POINTILLE2
 70
     0
  3
...............................................
 72
    65
 73
     2
 40
0.125
 49
0.0
 74
     0
 49
-0.125
 74
     0
  0
LTYPE
  5
8A3
100
AcDbSymbolTableRecord
100
AcDbLinetypeTableRecord
  2
POINTILLEX2
 70
     0
  3
.  .  .  .  .  .  .  .  .  .  .  .  .  .  .  . 
 72
    65
 73
     2
 40
0.5
 49
0.0
 74
     0
 49
-0.5
 74
     0
  0
LTYPE
  5
8A4
100
AcDbSymbolTableRecord
100
AcDbLinetypeTableRecord
  2
CACHE
 70
     0
  3
__ __ __ __ __ __ __ __ __ __ __ __ __ __ __ __
 72
    65
 73
     2
 40
0.375
 49
0.25
 74
     0
 49
-0.125
 74
     0
  0
LTYPE
  5
8A5
100
AcDbSymbolTableRecord
100
AcDbLinetypeTableRecord
  2
CACHE2
 70
     0
  3
_ _ _ _ _ _ _ _ _ _ _ _ _ _ _ _ _ _ _ _ _ _ _ _
 72
    65
 73
     2
 40
0.1875
 49
0.125
 74
     0
 49
-0.0625
 74
     0
  0
LTYPE
  5
8A6
100
AcDbSymbolTableRecord
100
AcDbLinetypeTableRecord
  2
CACHEX2
 70
     0
  3
____ ____ ____ ____ ____ ____ ____ ____ ____ __
 72
    65
 73
     2
 40
0.75
 49
0.5
 74
     0
 49
-0.25
 74
     0
  0
LTYPE
  5
8A7
100
AcDbSymbolTableRecord
100
AcDbLinetypeTableRecord
  2
FANTOME
 70
     0
  3
______  __  __  ______  __  __  ______  __  __ 
 72
    65
 73
     6
 40
2.5
 49
1.25
 74
     0
 49
-0.25
 74
     0
 49
0.25
 74
     0
 49
-0.25
 74
     0
 49
0.25
 74
     0
 49
-0.25
 74
     0
  0
LTYPE
  5
8A8
100
AcDbSymbolTableRecord
100
AcDbLinetypeTableRecord
  2
FANTOME2
 70
     0
  3
___ _ _ ___ _ _ ___ _ _ ___ _ _ ___ _ _ ___ _ _
 72
    65
 73
     6
 40
1.25
 49
0.625
 74
     0
 49
-0.125
 74
     0
 49
0.125
 74
     0
 49
-0.125
 74
     0
 49
0.125
 74
     0
 49
-0.125
 74
     0
  0
LTYPE
  5
8A9
100
AcDbSymbolTableRecord
100
AcDbLinetypeTableRecord
  2
FANTOMEX2
 70
     0
  3
____________    ____    ____    ____________   
 72
    65
 73
     6
 40
5.0
 49
2.5
 74
     0
 49
-0.5
 74
     0
 49
0.5
 74
     0
 49
-0.5
 74
     0
 49
0.5
 74
     0
 49
-0.5
 74
     0
  0
LTYPE
  5
8AA
100
AcDbSymbolTableRecord
100
AcDbLinetypeTableRecord
  2
0
 70
     0
  3
MEDUSA PEN 0
 72
    65
 73
     0
 40
0.0
  0
ENDTAB
  0
TABLE
  2
LAYER
  5
870
100
AcDbSymbolTable
 70
    21
  0
LAYER
  5
87C
100
AcDbSymbolTableRecord
100
AcDbLayerTableRecord
  2
0
 70
     0
 62
   255
  6
CONTINUOUS
  0
LAYER
  5
8B2
100
AcDbSymbolTableRecord
100
AcDbLayerTableRecord
  2
COTATION1
 70
     0
 62
     2
  6
CONTINUOUS
  0
LAYER
  5
8B3
100
AcDbSymbolTableRecord
100
AcDbLayerTableRecord
  2
ASHADE
 70
     0
 62
     7
  6
CONTINUOUS
  0
LAYER
  5
8B4
100
AcDbSymbolTableRecord
100
AcDbLayerTableRecord
  2
ALPHA
 70
     0
 62
   255
  6
CONTINUOUS
  0
LAYER
  5
8B5
100
AcDbSymbolTableRecord
100
AcDbLayerTableRecord
  2
DEFPOINTS
 70
     0
 62
     7
  6
CONTINUOUS
  0
LAYER
  5
8B6
100
AcDbSymbolTableRecord
100
AcDbLayerTableRecord
  2
AXE
 70
     0
 62
    80
  6
AXES2
  0
LAYER
  5
8B7
100
AcDbSymbolTableRecord
100
AcDbLayerTableRecord
  2
CONSTRUCTION
 70
     0
 62
     6
  6
CONTINUOUS
  0
LAYER
  5
8B8
100
AcDbSymbolTableRecord
100
AcDbLayerTableRecord
  2
HACHURES
 70
     0
 62
     9
  6
CONTINUOUS
  0
LAYER
  5
8B9
100
AcDbSymbolTableRecord
100
AcDbLayerTableRecord
  2
FMULT
 70
     0
 62
     6
  6
CONTINUOUS
  0
LAYER
  5
8BA
100
AcDbSymbolTableRecord
100
AcDbLayerTableRecord
  2
TEXTE
 70
     0
 62
   131
  6
CONTINUOUS
  0
LAYER
  5
8BB
100
AcDbSymbolTableRecord
100
AcDbLayerTableRecord
  2
FDP_CARTOUCHE
 70
     0
 62
     4
  6
CONTINUOUS
  0
LAYER
  5
8BC
100
AcDbSymbolTableRecord
100
AcDbLayerTableRecord
  2
FDP_TEXTES
 70
     0
 62
     5
  6
CONTINUOUS
  0
LAYER
  5
8BD
100
AcDbSymbolTableRecord
100
AcDbLayerTableRecord
  2
FDP_LOGO_MG
 70
     0
 62
    30
  6
CONTINUOUS
  0
LAYER
  5
8BE
100
AcDbSymbolTableRecord
100
AcDbLayerTableRecord
  2
FDP_LOGO_SCH
 70
     0
 62
     3
  6
CONTINUOUS
  0
LAYER
  5
8BF
100
AcDbSymbolTableRecord
100
AcDbLayerTableRecord
  2
FDP_FDP
 70
     0
 62
     5
  6
CONTINUOUS
  0
LAYER
  5
8C0
100
AcDbSymbolTableRecord
100
AcDbLayerTableRecord
  2
COTATION2
 70
     0
 62
     2
  6
CONTINUOUS
  0
LAYER
  5
8C1
100
AcDbSymbolTableRecord
100
AcDbLayerTableRecord
  2
COTATION3
 70
     0
 62
     2
  6
CONTINUOUS
  0
LAYER
  5
8C2
100
AcDbSymbolTableRecord
100
AcDbLayerTableRecord
  2
COTATION4
 70
     0
 62
     2
  6
CONTINUOUS
  0
LAYER
  5
8C3
100
AcDbSymbolTableRecord
100
AcDbLayerTableRecord
  2
POINTILLE_COURT
 70
     0
 62
    40
  6
CACHE2
  0
LAYER
  5
8C4
100
AcDbSymbolTableRecord
100
AcDbLayerTableRecord
  2
POINTILLE_MOYEN
 70
     0
 62
   140
  6
CACHE
  0
LAYER
  5
8C5
100
AcDbSymbolTableRecord
100
AcDbLayerTableRecord
  2
POINTILLE_LONG
 70
     0
 62
   240
  6
CACHEX2
  0
ENDTAB
  0
TABLE
  2
STYLE
  5
871
100
AcDbSymbolTable
 70
     4
  0
STYLE
  5
87D
100
AcDbSymbolTableRecord
100
AcDbTextStyleTableRecord
  2
STANDARD
 70
     0
 40
0.0
 41
1.0
 50
0.0
 71
     0
 42
0.2
  3
txt
  4

  0
STYLE
  5
892
100
AcDbSymbolTableRecord
100
AcDbTextStyleTableRecord
  2
ROMANS
 70
     0
 40
0.0
 41
1.0
 50
0.0
 71
     0
 42
2.9
  3
romans.shx
  4

  0
STYLE
  5
893
100
AcDbSymbolTableRecord
100
AcDbTextStyleTableRecord
  2
INFOCAR
 70
     0
 40
0.0
 41
1.34
 50
0.0
 71
     0
 42
2.0
  3
ROMANS.SHX
  4

  0
STYLE
  5
894
100
AcDbSymbolTableRecord
100
AcDbTextStyleTableRecord
  2
CARTOUCHE
 70
     0
 40
0.0
 41
1.0
 50
0.0
 71
     0
 42
0.2
  3
ROMANS.SHX
  4

  0
ENDTAB
  0
TABLE
  2
VIEW
  5
874
100
AcDbSymbolTable
 70
     0
  0
ENDTAB
  0
TABLE
  2
UCS
  5
875
100
AcDbSymbolTable
 70
     0
  0
ENDTAB
  0
TABLE
  2
APPID
  5
877
100
AcDbSymbolTable
 70
     3
  0
APPID
  5
87E
100
AcDbSymbolTableRecord
100
AcDbRegAppTableRecord
  2
ACAD
 70
     0
  0
APPID
  5
8AC
100
AcDbSymbolTableRecord
100
AcDbRegAppTableRecord
  2
AVE_RENDER
 70
     0
  0
APPID
  5
8AD
100
AcDbSymbolTableRecord
100
AcDbRegAppTableRecord
  2
AVE_MATERIAL
 70
     0
  0
ENDTAB
  0
TABLE
  2
DIMSTYLE
  5
878
100
AcDbSymbolTable
 70
     2
  0
DIMSTYLE
105
8AE
102
{ACAD_REACTORS
330
4A2
330
4B4
330
4C1
330
4D0
330
4DD
102
}
100
AcDbSymbolTableRecord
100
AcDbDimStyleTableRecord
  2
SC_STAND
 70
     0
  3

  4

  5

  6

  7

 40
1.0
 41
3.0
 42
0.0625
 43
0.38
 44
0.18
 45
0.01
 46
0.0
 47
0.0
 48
0.0
140
2.5
141
0.09
142
0.0
143
25.4
144
1.0
145
0.0
146
1.0
147
1.0
 71
     0
 72
     0
 73
     0
 74
     0
 75
     0
 76
     0
 77
     1
 78
    12
170
     0
171
     2
172
     1
173
     0
174
     0
175
     0
176
     0
177
     0
178
     0
270
     2
271
     4
272
     4
273
     2
274
     2
340
892
275
     0
280
     0
281
     0
282
     0
283
     1
284
    12
285
    12
286
    12
287
     5
288
     0
  0
DIMSTYLE
105
8AF
100
AcDbSymbolTableRecord
100
AcDbDimStyleTableRecord
  2
STANDARD
 70
     0
  3

  4

  5

  6

  7

 40
1.0
 41
0.18
 42
0.0625
 43
0.38
 44
0.18
 45
0.0
 46
0.0
 47
0.0
 48
0.0
140
0.18
141
0.09
142
0.0
143
25.4
144
1.0
145
0.0
146
1.0
147
0.09
 71
     0
 72
     0
 73
     1
 74
     1
 75
     0
 76
     0
 77
     0
 78
     0
170
     0
171
     2
172
     0
173
     0
174
     0
175
     0
176
     0
177
     0
178
     0
270
     2
271
     4
272
     4
273
     2
274
     2
340
892
275
     0
280
     0
281
     0
282
     0
283
     1
284
    12
285
    12
286
    12
287
     5
288
     0
  0
ENDTAB
  0
TABLE
  2
BLOCK_RECORD
  5
86F
100
AcDbSymbolTable
 70
     8
  0
BLOCK_RECORD
  5
885
100
AcDbSymbolTableRecord
100
AcDbBlockTableRecord
  2
*MODEL_SPACE
  0
BLOCK_RECORD
  5
882
100
AcDbSymbolTableRecord
100
AcDbBlockTableRecord
  2
*PAPER_SPACE
  0
BLOCK_RECORD
  5
88A
100
AcDbSymbolTableRecord
100
AcDbBlockTableRecord
  2
AVE_RENDER
  0
BLOCK_RECORD
  5
88B
100
AcDbSymbolTableRecord
100
AcDbBlockTableRecord
  2
AVE_GLOBAL
  0
BLOCK_RECORD
  5
88C
100
AcDbSymbolTableRecord
100
AcDbBlockTableRecord
  2
*D2
  0
BLOCK_RECORD
  5
88D
100
AcDbSymbolTableRecord
100
AcDbBlockTableRecord
  2
*D3
  0
BLOCK_RECORD
  5
88E
100
AcDbSymbolTableRecord
100
AcDbBlockTableRecord
  2
*D4
  0
BLOCK_RECORD
  5
88F
100
AcDbSymbolTableRecord
100
AcDbBlockTableRecord
  2
*D5
  0
BLOCK_RECORD
  5
890
100
AcDbSymbolTableRecord
100
AcDbBlockTableRecord
  2
*D6
  0
BLOCK_RECORD
  5
891
100
AcDbSymbolTableRecord
100
AcDbBlockTableRecord
  2
SCH_ISO
  0
ENDTAB
  0
ENDSEC
  0
SECTION
  2
BLOCKS
  0
BLOCK
  5
8C8
100
AcDbEntity
  8
0
100
AcDbBlockBegin
  2
*MODEL_SPACE
 70
     0
 10
0.0
 20
0.0
 30
0.0
  3
*MODEL_SPACE
  1

  0
ENDBLK
  5
8C9
100
AcDbEntity
  8
0
100
AcDbBlockEnd
  0
BLOCK
  5
8C6
100
AcDbEntity
 67
     1
  8
0
100
AcDbBlockBegin
  2
*PAPER_SPACE
 70
     0
 10
0.0
 20
0.0
 30
0.0
  3
*PAPER_SPACE
  1

  0
ENDBLK
  5
8C7
100
AcDbEntity
 67
     1
  8
0
100
AcDbBlockEnd
  0
BLOCK
  5
8
100
AcDbEntity
  8
0
100
AcDbBlockBegin
  2
AVE_RENDER
 70
     0
 10
0.0
 20
0.0
 30
0.0
  3
AVE_RENDER
  1
AVE_RENDER
  0
ENDBLK
  5
A
100
AcDbEntity
  8
0
100
AcDbBlockEnd
  0
BLOCK
  5
16
100
AcDbEntity
  8
0
100
AcDbBlockBegin
  2
AVE_GLOBAL
 70
     0
 10
0.0
 20
0.0
 30
0.0
  3
AVE_GLOBAL
  1
AVE_GLOBAL
  0
ENDBLK
  5
17
100
AcDbEntity
  8
0
100
AcDbBlockEnd
  0
BLOCK
  5
4B2
100
AcDbEntity
  8
0
100
AcDbBlockBegin
  2
*D2
 70
     1
 10
0.0
 20
0.0
 30
0.0
  3
*D2
  1
AVE_RENDER
  0
LINE
  5
4A7
100
AcDbEntity
  8
0
  6
BYBLOCK
 62
     0
100
AcDbLine
 10
79.160007
 20
152.94723
 30
0.0
 11
79.160007
 21
99.82
 31
0.0
  0
LINE
  5
4A9
100
AcDbEntity
  8
0
  6
BYBLOCK
 62
     0
100
AcDbLine
 10
121.970061
 20
145.818089
 30
0.0
 11
121.970061
 21
99.82
 31
0.0
  0
LINE
  5
4AA
100
AcDbEntity
  8
0
  6
BYBLOCK
 62
     0
100
AcDbLine
 10
82.160007
 20
100.0
 30
0.0
 11
118.970061
 21
100.0
 31
0.0
  0
SOLID
  5
4AB
100
AcDbEntity
  8
0
  6
BYBLOCK
 62
     0
100
AcDbTrace
 10
82.160007
 20
100.5
 30
0.0
 11
82.160007
 21
99.5
 31
0.0
 12
79.160007
 22
100.0
 32
0.0
 13
79.160007
 23
100.0
 33
0.0
  0
SOLID
  5
4AC
100
AcDbEntity
  8
0
  6
BYBLOCK
 62
     0
100
AcDbTrace
 10
118.970061
 20
100.5
 30
0.0
 11
118.970061
 21
99.5
 31
0.0
 12
121.970061
 22
100.0
 32
0.0
 13
121.970061
 23
100.0
 33
0.0
  0
TEXT
  5
4AD
100
AcDbEntity
  8
0
  6
BYBLOCK
 62
     0
100
AcDbText
 10
95.565034
 20
101.0
 30
0.0
 40
2.5
  1
42.81
  7
ROMANS
100
AcDbText
  0
POINT
  5
4AE
100
AcDbEntity
  8
DEFPOINTS
  6
BYBLOCK
 62
     0
100
AcDbPoint
 10
79.160007
 20
153.00973
 30
0.0
  0
POINT
  5
4B0
100
AcDbEntity
  8
DEFPOINTS
  6
BYBLOCK
 62
     0
100
AcDbPoint
 10
121.970061
 20
145.880589
 30
0.0
  0
POINT
  5
4B1
100
AcDbEntity
  8
DEFPOINTS
  6
BYBLOCK
 62
     0
100
AcDbPoint
 10
121.970061
 20
100.0
 30
0.0
  0
ENDBLK
  5
4B3
100
AcDbEntity
  8
0
100
AcDbBlockEnd
  0
BLOCK
  5
4BF
100
AcDbEntity
  8
0
100
AcDbBlockBegin
  2
*D3
 70
     1
 10
0.0
 20
0.0
 30
0.0
  3
*D3
  1
AVE_RENDER
  0
LINE
  5
4B6
100
AcDbEntity
  8
0
  6
BYBLOCK
 62
     0
100
AcDbLine
 10
96.070061
 20
139.94723
 30
0.0
 11
96.070061
 21
109.82
 31
0.0
  0
LINE
  5
4B7
100
AcDbEntity
  8
0
  6
BYBLOCK
 62
     0
100
AcDbLine
 10
121.970061
 20
145.755589
 30
0.0
 11
121.970061
 21
109.82
 31
0.0
  0
LINE
  5
4B8
100
AcDbEntity
  8
0
  6
BYBLOCK
 62
     0
100
AcDbLine
 10
99.070061
 20
110.0
 30
0.0
 11
118.970061
 21
110.0
 31
0.0
  0
SOLID
  5
4B9
100
AcDbEntity
  8
0
  6
BYBLOCK
 62
     0
100
AcDbTrace
 10
99.070061
 20
110.5
 30
0.0
 11
99.070061
 21
109.5
 31
0.0
 12
96.070061
 22
110.0
 32
0.0
 13
96.070061
 23
110.0
 33
0.0
  0
SOLID
  5
4BA
100
AcDbEntity
  8
0
  6
BYBLOCK
 62
     0
100
AcDbTrace
 10
118.970061
 20
110.5
 30
0.0
 11
118.970061
 21
109.5
 31
0.0
 12
121.970061
 22
110.0
 32
0.0
 13
121.970061
 23
110.0
 33
0.0
  0
TEXT
  5
4BB
100
AcDbEntity
  8
0
  6
BYBLOCK
 62
     0
100
AcDbText
 10
104.912918
 20
111.0
 30
0.0
 40
2.5
  1
25.9
  7
ROMANS
100
AcDbText
  0
POINT
  5
4BC
100
AcDbEntity
  8
DEFPOINTS
  6
BYBLOCK
 62
     0
100
AcDbPoint
 10
96.070061
 20
140.00973
 30
0.0
  0
POINT
  5
4BD
100
AcDbEntity
  8
DEFPOINTS
  6
BYBLOCK
 62
     0
100
AcDbPoint
 10
121.970061
 20
145.818089
 30
0.0
  0
POINT
  5
4BE
100
AcDbEntity
  8
DEFPOINTS
  6
BYBLOCK
 62
     0
100
AcDbPoint
 10
121.970061
 20
110.0
 30
0.0
  0
ENDBLK
  5
4C0
100
AcDbEntity
  8
0
100
AcDbBlockEnd
  0
BLOCK
  5
4CE
100
AcDbEntity
  8
0
100
AcDbBlockBegin
  2
*D4
 70
     1
 10
0.0
 20
0.0
 30
0.0
  3
*D4
  1
AVE_RENDER
  0
LINE
  5
4C3
100
AcDbEntity
  8
0
  6
BYBLOCK
 62
     0
100
AcDbLine
 10
96.070061
 20
139.88473
 30
0.0
 11
96.070061
 21
119.82
 31
0.0
  0
LINE
  5
4C4
100
AcDbEntity
  8
0
  6
BYBLOCK
 62
     0
100
AcDbLine
 10
103.070061
 20
139.94723
 30
0.0
 11
103.070061
 21
119.82
 31
0.0
  0
LINE
  5
4C5
100
AcDbEntity
  8
0
  6
BYBLOCK
 62
     0
100
AcDbLine
 10
93.070061
 20
120.0
 30
0.0
 11
90.070061
 21
120.0
 31
0.0
  0
LINE
  5
4C6
100
AcDbEntity
  8
0
  6
BYBLOCK
 62
     0
100
AcDbLine
 10
106.070061
 20
120.0
 30
0.0
 11
109.070061
 21
120.0
 31
0.0
  0
LINE
  5
4C7
100
AcDbEntity
  8
0
  6
BYBLOCK
 62
     0
100
AcDbLine
 10
96.070061
 20
120.0
 30
0.0
 11
103.070061
 21
120.0
 31
0.0
  0
SOLID
  5
4C8
100
AcDbEntity
  8
0
  6
BYBLOCK
 62
     0
100
AcDbTrace
 10
93.070061
 20
120.5
 30
0.0
 11
93.070061
 21
119.5
 31
0.0
 12
96.070061
 22
120.0
 32
0.0
 13
96.070061
 23
120.0
 33
0.0
  0
SOLID
  5
4C9
100
AcDbEntity
  8
0
  6
BYBLOCK
 62
     0
100
AcDbTrace
 10
106.070061
 20
120.5
 30
0.0
 11
106.070061
 21
119.5
 31
0.0
 12
103.070061
 22
120.0
 32
0.0
 13
103.070061
 23
120.0
 33
0.0
  0
TEXT
  5
4CA
100
AcDbEntity
  8
0
  6
BYBLOCK
 62
     0
100
AcDbText
 10
98.379585
 20
121.0
 30
0.0
 40
2.5
  1
7
  7
ROMANS
100
AcDbText
  0
POINT
  5
4CB
100
AcDbEntity
  8
DEFPOINTS
  6
BYBLOCK
 62
     0
100
AcDbPoint
 10
96.070061
 20
139.94723
 30
0.0
  0
POINT
  5
4CC
100
AcDbEntity
  8
DEFPOINTS
  6
BYBLOCK
 62
     0
100
AcDbPoint
 10
103.070061
 20
140.00973
 30
0.0
  0
POINT
  5
4CD
100
AcDbEntity
  8
DEFPOINTS
  6
BYBLOCK
 62
     0
100
AcDbPoint
 10
103.070061
 20
120.0
 30
0.0
  0
ENDBLK
  5
4CF
100
AcDbEntity
  8
0
100
AcDbBlockEnd
  0
BLOCK
  5
4DB
100
AcDbEntity
  8
0
100
AcDbBlockBegin
  2
*D5
 70
     1
 10
0.0
 20
0.0
 30
0.0
  3
*D5
  1
AVE_RENDER
  0
LINE
  5
4D2
100
AcDbEntity
  8
0
  6
BYBLOCK
 62
     0
100
AcDbLine
 10
103.132561
 20
168.50973
 30
0.0
 11
140.18
 21
168.50973
 31
0.0
  0
LINE
  5
4D3
100
AcDbEntity
  8
0
  6
BYBLOCK
 62
     0
100
AcDbLine
 10
103.132561
 20
140.00973
 30
0.0
 11
140.18
 21
140.00973
 31
0.0
  0
LINE
  5
4D4
100
AcDbEntity
  8
0
  6
BYBLOCK
 62
     0
100
AcDbLine
 10
140.0
 20
165.50973
 30
0.0
 11
140.0
 21
143.00973
 31
0.0
  0
SOLID
  5
4D5
100
AcDbEntity
  8
0
  6
BYBLOCK
 62
     0
100
AcDbTrace
 10
139.5
 20
165.50973
 30
0.0
 11
140.5
 21
165.50973
 31
0.0
 12
140.0
 22
168.50973
 32
0.0
 13
140.0
 23
168.50973
 33
0.0
  0
SOLID
  5
4D6
100
AcDbEntity
  8
0
  6
BYBLOCK
 62
     0
100
AcDbTrace
 10
139.5
 20
143.00973
 30
0.0
 11
140.5
 21
143.00973
 31
0.0
 12
140.0
 22
140.00973
 32
0.0
 13
140.0
 23
140.00973
 33
0.0
  0
TEXT
  5
4D7
100
AcDbEntity
  8
0
  6
BYBLOCK
 62
     0
100
AcDbText
 10
139.0
 20
150.093063
 30
0.0
 40
2.5
  1
28.5
 50
90.0
  7
ROMANS
100
AcDbText
  0
POINT
  5
4D8
100
AcDbEntity
  8
DEFPOINTS
  6
BYBLOCK
 62
     0
100
AcDbPoint
 10
103.070061
 20
168.50973
 30
0.0
  0
POINT
  5
4D9
100
AcDbEntity
  8
DEFPOINTS
  6
BYBLOCK
 62
     0
100
AcDbPoint
 10
103.070061
 20
140.00973
 30
0.0
  0
POINT
  5
4DA
100
AcDbEntity
  8
DEFPOINTS
  6
BYBLOCK
 62
     0
100
AcDbPoint
 10
140.0
 20
140.00973
 30
0.0
  0
ENDBLK
  5
4DC
100
AcDbEntity
  8
0
100
AcDbBlockEnd
  0
BLOCK
  5
4E8
100
AcDbEntity
  8
0
100
AcDbBlockBegin
  2
*D6
 70
     1
 10
0.0
 20
0.0
 30
0.0
  3
*D6
  1
AVE_RENDER
  0
LINE
  5
4DF
100
AcDbEntity
  8
0
  6
BYBLOCK
 62
     0
100
AcDbLine
 10
108.932561
 20
164.75973
 30
0.0
 11
132.68
 21
164.75973
 31
0.0
  0
LINE
  5
4E0
100
AcDbEntity
  8
0
  6
BYBLOCK
 62
     0
100
AcDbLine
 10
108.932561
 20
143.75973
 30
0.0
 11
132.68
 21
143.75973
 31
0.0
  0
LINE
  5
4E1
100
AcDbEntity
  8
0
  6
BYBLOCK
 62
     0
100
AcDbLine
 10
132.5
 20
161.75973
 30
0.0
 11
132.5
 21
146.75973
 31
0.0
  0
SOLID
  5
4E2
100
AcDbEntity
  8
0
  6
BYBLOCK
 62
     0
100
AcDbTrace
 10
132.0
 20
161.75973
 30
0.0
 11
133.0
 21
161.75973
 31
0.0
 12
132.5
 22
164.75973
 32
0.0
 13
132.5
 23
164.75973
 33
0.0
  0
SOLID
  5
4E3
100
AcDbEntity
  8
0
  6
BYBLOCK
 62
     0
100
AcDbTrace
 10
132.0
 20
146.75973
 30
0.0
 11
133.0
 21
146.75973
 31
0.0
 12
132.5
 22
143.75973
 32
0.0
 13
132.5
 23
143.75973
 33
0.0
  0
TEXT
  5
4E4
100
AcDbEntity
  8
0
  6
BYBLOCK
 62
     0
100
AcDbText
 10
131.5
 20
152.23592
 30
0.0
 40
2.5
  1
21
 50
90.0
  7
ROMANS
100
AcDbText
  0
POINT
  5
4E5
100
AcDbEntity
  8
DEFPOINTS
  6
BYBLOCK
 62
     0
100
AcDbPoint
 10
108.870061
 20
164.75973
 30
0.0
  0
POINT
  5
4E6
100
AcDbEntity
  8
DEFPOINTS
  6
BYBLOCK
 62
     0
100
AcDbPoint
 10
108.870061
 20
143.75973
 30
0.0
  0
POINT
  5
4E7
100
AcDbEntity
  8
DEFPOINTS
  6
BYBLOCK
 62
     0
100
AcDbPoint
 10
132.5
 20
143.75973
 30
0.0
  0
ENDBLK
  5
4E9
100
AcDbEntity
  8
0
100
AcDbBlockEnd
  0
BLOCK
  5
538
100
AcDbEntity
  8
0
100
AcDbBlockBegin
  2
SCH_ISO
 70
     0
 10
0.0
 20
0.0
 30
0.0
  3
SCH_ISO
  1

  0
INSERT
  5
52F
100
AcDbEntity
  8
ASHADE
 62
     1
100
AcDbBlockReference
  2
AVE_RENDER
 10
0.0
 20
0.0
 30
0.0
1001
AVE_RENDER
1002
{
1070
     6
1000
Pref
1070
    50
1070
    20
1070
     1
1070
     0
1000

1070
    10
1070
     1
1070
    30
1040
25.4
1070
     1
1040
0.3
1040
0.7
1040
0.0
1040
10.0
1010
-1.0
1020
-1.0
1030
-1.0
1040
0.3
1070
    49
1070
     0
1070
     0
1010
1.0
1020
1.0
1030
1.0
1040
45.0
1070
     1
1070
     0
1000
WCS
1040
0.0
1002
}
  0
INSERT
  5
530
100
AcDbEntity
  8
ASHADE
 62
     3
100
AcDbBlockReference
  2
AVE_RENDER
 10
0.0
 20
0.0
 30
0.0
1001
AVE_RENDER
1002
{
1070
     0
1000
Full Opt
1070
     0
1070
     1
1070
     1
1070
     1
1070
     0
1070
     0
1070
     0
1070
     1
1070
     1
1040
0.0001
1040
0.0001
1002
}
  0
INSERT
  5
531
100
AcDbEntity
  8
ASHADE
 62
     4
100
AcDbBlockReference
  2
AVE_RENDER
 10
0.0
 20
0.0
 30
0.0
1001
AVE_RENDER
1002
{
1070
     0
1000
Quick Opt
1070
     0
1070
     1
1070
     1
1070
     1
1070
     0
1070
     0
1070
     1
1002
}
  0
INSERT
  5
532
100
AcDbEntity
  8
ASHADE
 62
     5
100
AcDbBlockReference
  2
AVE_RENDER
 10
0.0
 20
0.0
 30
0.0
1001
AVE_RENDER
1002
{
1070
     1
1000
Scanl Opt
1070
     2
1070
     0
1070
     2
1040
2.0
1040
4.0
1070
     0
1070
     1
1070
     0
1040
0.03
1002
}
  0
INSERT
  5
533
100
AcDbEntity
  8
ASHADE
 62
     6
100
AcDbBlockReference
  2
AVE_RENDER
 10
0.0
 20
0.0
 30
0.0
1001
AVE_RENDER
1002
{
1070
     2
1000
Raytr Opt
1070
     2
1070
     0
1070
     2
1040
2.0
1040
4.0
1070
     0
1070
     1
1070
     1
1040
0.03
1070
     3
1040
0.03
1002
}
  0
INSERT
  5
534
100
AcDbEntity
  8
ASHADE
 62
     7
100
AcDbBlockReference
  2
AVE_RENDER
 10
0.0
 20
0.0
 30
0.0
1001
AVE_RENDER
1002
{
1070
     0
1000
RFile Opt
1070
     5
1070
   640
1070
   480
1070
 10000
1070
     3
1070
    32
1070
    24
1070
     0
1070
     0
1070
     0
1070
     1
1070
     0
1070
     0
1070
     0
1002
}
  0
INSERT
  5
535
100
AcDbEntity
  8
ASHADE
 62
     8
100
AcDbBlockReference
  2
AVE_RENDER
 10
0.0
 20
0.0
 30
0.0
1001
AVE_RENDER
1002
{
1070
     0
1000
Fog Opt
1070
     0
1070
     0
1040
0.0
1040
1.0
1040
0.0
1040
1.0
1010
0.5
1020
0.5
1030
0.5
1002
}
  0
INSERT
  5
536
100
AcDbEntity
  8
ASHADE
 62
     9
100
AcDbBlockReference
  2
AVE_RENDER
 10
0.0
 20
0.0
 30
0.0
1001
AVE_RENDER
1002
{
1070
     0
1000
BG Opt
1070
     0
1070
     1
1010
0.0
1020
0.0
1030
0.0
1010
1.0
1020
0.0
1030
0.0
1010
0.0
1020
1.0
1030
0.0
1010
0.0
1020
0.0
1030
1.0
1040
0.5
1040
0.33
1040
0.0
1000

1070
     1
1000

1070
     1
1070
     1
1040
1.0
1040
1.0
1040
0.0
1040
0.0
1070
     0
1002
}
  0
INSERT
  5
537
100
AcDbEntity
  8
ASHADE
 62
     1
100
AcDbBlockReference
  2
AVE_GLOBAL
 10
0.0
 20
0.0
 30
0.0
1001
AVE_MATERIAL
1002
{
1000
*GLOBAL*
1000
1
1000
Finition globale.
1002
{
1002
}
1002
{
1070
    63
1002
{
1002
{
1010
-1.0
1020
-1.0
1030
-1.0
1002
}
1040
0.1
1000

1040
0.0
1002
{
1002
}
1040
0.0
1002
{
1002
}
1040
0.0
1002
}
1002
{
1002
{
1010
-1.0
1020
-1.0
1030
-1.0
1002
}
1040
0.7
1000

1040
0.0
1002
{
1002
}
1040
0.0
1002
{
1002
}
1040
0.0
1002
}
1002
{
1002
{
1010
-1.0
1020
-1.0
1030
-1.0
1002
}
1040
0.2
1000

1040
0.0
1002
{
1002
}
1040
0.0
1002
{
1002
}
1040
0.0
1002
}
1002
{
1070
     0
1002
{
1070
     1
1002
{
1040
1.0
1040
1.0
1000

1040
0.0
1002
{
1002
}
1040
0.0
1002
{
1002
}
1040
0.0
1002
}
1002
}
1040
1.0
1040
0.0
1040
0.0
1002
}
1002
{
1040
1.0
1040
1.0
1000

1040
0.0
1002
{
1002
}
1040
0.0
1002
{
1002
}
1040
0.0
1002
}
1002
{
1040
0.5
1040
1.0
1000

1040
0.0
1002
{
1002
}
1040
0.0
1002
{
1002
}
1040
0.0
1002
}
1002
{
1070
     0
1040
0.0
1002
{
1002
}
1040
1.0
1002
{
1002
}
1040
0.0
1002
}
1002
{
1040
0.0
1002
{
1002
{
1010
0.0
1020
0.0
1030
0.0
1002
}
1040
1.0
1000

1040
0.0
1002
{
1002
}
1040
0.0
1002
{
1002
}
1040
0.0
1002
}
1002
}
1002
{
1002
{
1070
     1
1002
{
1040
0.0
1040
1.0
1000

1040
0.0
1002
{
1002
}
1040
0.0
1002
{
1002
}
1040
0.0
1002
}
1002
}
1040
0.0
1002
{
1002
}
1010
1.0
1020
0.0
1030
0.0
1010
0.0
1020
1.0
1030
0.0
1010
0.0
1020
0.0
1030
1.0
1070
     0
1002
}
1002
{
1002
{
1040
1.0
1040
1.0
1002
{
1070
     1
1002
{
1040
1.0
1040
1.0
1000

1040
0.0
1002
{
1002
}
1040
0.0
1002
{
1002
}
1040
0.0
1002
}
1002
}
1002
}
1070
     0
1040
0.0
1002
{
1002
}
1002
}
1002
{
1002
}
1002
}
1002
{
1071
        3
1070
     3
1070
     0
1002
{
1070
     2
1070
     0
1070
     0
1040
0.0
1002
}
1070
     0
1070
     2
1002
{
1002
}
1002
}
1002
{
1040
8030.0
1040
190.300003
1040
0.305
1040
228.0
1040
545.0
1040
14.0
1040
17.4
1040
0.456
1002
}
1002
}
  0
ENDBLK
  5
539
100
AcDbEntity
  8
0
100
AcDbBlockEnd
  0
ENDSEC
  0
SECTION
  2
ENTITIES
  0
INSERT
  5
3
100
AcDbEntity
  8
ALPHA
100
AcDbBlockReference
  2
AVE_RENDER
 10
0.0
 20
0.0
 30
0.0
1001
AVE_RENDER
1002
{
1070
     6
1000
Pref
1070
    50
1070
    20
1070
     1
1070
     0
1000

1070
    10
1070
     1
1070
    30
1040
25.4
1070
     1
1040
0.3
1040
0.7
1040
0.0
1040
10.0
1010
-1.0
1020
-1.0
1030
-1.0
1040
0.3
1070
    49
1070
     0
1070
     0
1010
1.0
1020
1.0
1030
1.0
1040
45.0
1070
     1
1070
     0
1000
WCS
1040
0.0
1002
}
  0
INSERT
  5
D
100
AcDbEntity
  8
ALPHA
100
AcDbBlockReference
  2
AVE_RENDER
 10
0.0
 20
0.0
 30
0.0
1001
AVE_RENDER
1002
{
1070
     0
1000
Full Opt
1070
     0
1070
     1
1070
     1
1070
     1
1070
     0
1070
     0
1070
     0
1070
     1
1070
     1
1040
0.0001
1040
0.0001
1002
}
  0
INSERT
  5
E
100
AcDbEntity
  8
ALPHA
100
AcDbBlockReference
  2
AVE_RENDER
 10
0.0
 20
0.0
 30
0.0
1001
AVE_RENDER
1002
{
1070
     0
1000
Quick Opt
1070
     0
1070
     1
1070
     1
1070
     1
1070
     0
1070
     0
1070
     1
1002
}
  0
INSERT
  5
F
100
AcDbEntity
  8
ALPHA
100
AcDbBlockReference
  2
AVE_RENDER
 10
0.0
 20
0.0
 30
0.0
1001
AVE_RENDER
1002
{
1070
     1
1000
Scanl Opt
1070
     2
1070
     0
1070
     2
1040
2.0
1040
4.0
1070
     0
1070
     1
1070
     0
1040
0.03
1002
}
  0
INSERT
  5
10
100
AcDbEntity
  8
ALPHA
100
AcDbBlockReference
  2
AVE_RENDER
 10
0.0
 20
0.0
 30
0.0
1001
AVE_RENDER
1002
{
1070
     2
1000
Raytr Opt
1070
     2
1070
     0
1070
     2
1040
2.0
1040
4.0
1070
     0
1070
     1
1070
     1
1040
0.03
1070
     3
1040
0.03
1002
}
  0
INSERT
  5
11
100
AcDbEntity
  8
ALPHA
100
AcDbBlockReference
  2
AVE_RENDER
 10
0.0
 20
0.0
 30
0.0
1001
AVE_RENDER
1002
{
1070
     0
1000
RFile Opt
1070
     5
1070
   640
1070
   480
1070
 10000
1070
     3
1070
    32
1070
    24
1070
     0
1070
     0
1070
     0
1070
     1
1070
     0
1070
     0
1070
     0
1002
}
  0
INSERT
  5
12
100
AcDbEntity
  8
ALPHA
100
AcDbBlockReference
  2
AVE_RENDER
 10
0.0
 20
0.0
 30
0.0
1001
AVE_RENDER
1002
{
1070
     0
1000
Fog Opt
1070
     0
1070
     0
1040
0.0
1040
1.0
1040
0.0
1040
1.0
1010
0.5
1020
0.5
1030
0.5
1002
}
  0
INSERT
  5
13
100
AcDbEntity
  8
ALPHA
100
AcDbBlockReference
  2
AVE_RENDER
 10
0.0
 20
0.0
 30
0.0
1001
AVE_RENDER
1002
{
1070
     0
1000
BG Opt
1070
     0
1070
     1
1010
0.0
1020
0.0
1030
0.0
1010
1.0
1020
0.0
1030
0.0
1010
0.0
1020
1.0
1030
0.0
1010
0.0
1020
0.0
1030
1.0
1040
0.5
1040
0.33
1040
0.0
1000

1070
     1
1000

1070
     1
1070
     1
1040
1.0
1040
1.0
1040
0.0
1040
0.0
1070
     0
1002
}
  0
INSERT
  5
14
100
AcDbEntity
  8
ALPHA
100
AcDbBlockReference
  2
AVE_GLOBAL
 10
0.0
 20
0.0
 30
0.0
1001
AVE_MATERIAL
1002
{
1000
*GLOBAL*
1000
1
1000
Finition globale.
1002
{
1002
}
1002
{
1070
    63
1002
{
1002
{
1010
-1.0
1020
-1.0
1030
-1.0
1002
}
1040
0.1
1000

1040
0.0
1002
{
1002
}
1040
0.0
1002
{
1002
}
1040
0.0
1002
}
1002
{
1002
{
1010
-1.0
1020
-1.0
1030
-1.0
1002
}
1040
0.7
1000

1040
0.0
1002
{
1002
}
1040
0.0
1002
{
1002
}
1040
0.0
1002
}
1002
{
1002
{
1010
-1.0
1020
-1.0
1030
-1.0
1002
}
1040
0.2
1000

1040
0.0
1002
{
1002
}
1040
0.0
1002
{
1002
}
1040
0.0
1002
}
1002
{
1070
     0
1002
{
1070
     1
1002
{
1040
1.0
1040
1.0
1000

1040
0.0
1002
{
1002
}
1040
0.0
1002
{
1002
}
1040
0.0
1002
}
1002
}
1040
1.0
1040
0.0
1040
0.0
1002
}
1002
{
1040
1.0
1040
1.0
1000

1040
0.0
1002
{
1002
}
1040
0.0
1002
{
1002
}
1040
0.0
1002
}
1002
{
1040
0.5
1040
1.0
1000

1040
0.0
1002
{
1002
}
1040
0.0
1002
{
1002
}
1040
0.0
1002
}
1002
{
1070
     0
1040
0.0
1002
{
1002
}
1040
1.0
1002
{
1002
}
1040
0.0
1002
}
1002
{
1040
0.0
1002
{
1002
{
1010
0.0
1020
0.0
1030
0.0
1002
}
1040
1.0
1000

1040
0.0
1002
{
1002
}
1040
0.0
1002
{
1002
}
1040
0.0
1002
}
1002
}
1002
{
1002
{
1070
     1
1002
{
1040
0.0
1040
1.0
1000

1040
0.0
1002
{
1002
}
1040
0.0
1002
{
1002
}
1040
0.0
1002
}
1002
}
1040
0.0
1002
{
1002
}
1010
1.0
1020
0.0
1030
0.0
1010
0.0
1020
1.0
1030
0.0
1010
0.0
1020
0.0
1030
1.0
1070
     0
1002
}
1002
{
1002
{
1040
1.0
1040
1.0
1002
{
1070
     1
1002
{
1040
1.0
1040
1.0
1000

1040
0.0
1002
{
1002
}
1040
0.0
1002
{
1002
}
1040
0.0
1002
}
1002
}
1002
}
1070
     0
1040
0.0
1002
{
1002
}
1002
}
1002
{
1002
}
1002
}
1002
{
1071
        3
1070
     3
1070
     0
1002
{
1070
     2
1070
     0
1070
     0
1040
0.0
1002
}
1070
     0
1070
     2
1002
{
1002
}
1002
}
1002
{
1040
8030.0
1040
190.300003
1040
0.305
1040
228.0
1040
545.0
1040
14.0
1040
17.4
1040
0.456
1002
}
1002
}
  0
LWPOLYLINE
  5
19
100
AcDbEntity
  8
ALPHA
100
AcDbPolyline
 90
       22
 70
     0
 43
0.0
 10
81.007091
 20
140.739321
 10
81.007091
 20
140.881577
 10
81.007091
 20
141.305355
 10
81.007091
 20
142.001736
 10
81.007091
 20
142.956066
 10
81.007091
 20
144.148264
 10
81.007091
 20
145.55324
 10
81.007091
 20
147.14143
 10
81.007091
 20
148.879416
 10
81.007091
 20
150.730616
 10
81.007091
 20
152.656081
 10
81.007091
 20
154.615365
 10
81.007091
 20
156.567034
 10
81.007091
 20
158.470232
 10
81.007091
 20
160.284801
 10
81.007091
 20
161.972589
 10
81.007091
 20
163.498071
 10
81.007091
 20
164.829147
 10
81.007091
 20
165.937807
 10
81.007091
 20
166.800721
 10
81.007091
 20
167.399731
 10
81.007091
 20
167.722231
  0
LINE
  5
31
100
AcDbEntity
  8
ALPHA
100
AcDbLine
 10
93.54438
 20
144.841577
 30
0.0
 11
81.969837
 21
144.841577
 31
0.0
  0
LWPOLYLINE
  5
32
100
AcDbEntity
  8
ALPHA
100
AcDbPolyline
 90
        6
 70
     0
 43
0.0
 10
93.54438
 20
145.677345
 10
93.54438
 20
145.517062
 10
93.54438
 20
145.336102
 10
93.54438
 20
145.15171
 10
93.54438
 20
144.98146
 10
93.54438
 20
144.841577
  0
LINE
  5
3A
100
AcDbEntity
  8
ALPHA
100
AcDbLine
 10
93.54438
 20
145.774503
 30
0.0
 11
93.54438
 21
145.677345
 31
0.0
  0
LINE
  5
3B
100
AcDbEntity
  8
ALPHA
100
AcDbLine
 10
95.654503
 20
148.447744
 30
0.0
 11
95.64438
 21
148.447744
 31
0.0
  0
LINE
  5
3C
100
AcDbEntity
  8
ALPHA
100
AcDbLine
 10
95.64438
 20
163.61297
 30
0.0
 11
95.654503
 21
163.61297
 31
0.0
  0
LINE
  5
3D
100
AcDbEntity
  8
ALPHA
100
AcDbLine
 10
95.64438
 20
144.906489
 30
0.0
 11
95.654503
 21
144.906489
 31
0.0
  0
LWPOLYLINE
  5
3E
100
AcDbEntity
  8
ALPHA
100
AcDbPolyline
 90
       14
 70
     0
 43
0.0
 10
81.969837
 20
152.164525
 10
81.695
 20
152.170608
 10
81.46335
 20
152.197697
 10
81.290916
 20
152.258954
 10
81.174137
 20
152.358588
 10
81.102673
 20
152.491963
 10
81.064945
 20
152.651254
 10
81.053322
 20
152.823463
 10
81.065113
 20
152.990462
 10
81.103111
 20
153.135039
 10
81.175209
 20
153.246471
 10
81.292549
 20
153.319201
 10
81.46509
 20
153.353433
 10
81.664872
 20
153.359721
  0
LINE
  5
4E
100
AcDbEntity
  8
ALPHA
100
AcDbLine
 10
93.54438
 20
142.811436
 30
0.0
 11
81.969837
 21
142.811436
 31
0.0
  0
LWPOLYLINE
  5
4F
100
AcDbEntity
  8
ALPHA
100
AcDbPolyline
 90
        9
 70
     0
 43
0.0
 10
81.969837
 20
140.038314
 10
81.695153
 20
140.07673
 10
81.463091
 20
140.176777
 10
81.289689
 20
140.308393
 10
81.173104
 20
140.442657
 10
81.10202
 20
140.55915
 10
81.064654
 20
140.644025
 10
81.053324
 20
140.68582
 10
81.054779
 20
140.688897
  0
LWPOLYLINE
  5
5A
100
AcDbEntity
  8
ALPHA
100
AcDbPolyline
 90
       12
 70
     0
 43
0.0
 10
81.969837
 20
144.841577
 10
81.696252
 20
144.8671
 10
81.464897
 20
144.941681
 10
81.292447
 20
145.05787
 10
81.175115
 20
145.204153
 10
81.103008
 20
145.366048
 10
81.065048
 20
145.529017
 10
81.053322
 20
145.677286
 10
81.065024
 20
145.794397
 10
81.102954
 20
145.869387
 10
81.174988
 20
145.899327
 10
81.194531
 20
145.900097
  0
LWPOLYLINE
  5
68
100
AcDbEntity
  8
ALPHA
100
AcDbPolyline
 90
       11
 70
     0
 43
0.0
 10
81.969837
 20
142.811436
 10
81.694944
 20
142.84264
 10
81.462909
 20
142.930127
 10
81.290011
 20
143.059276
 10
81.173656
 20
143.211458
 10
81.10227
 20
143.370306
 10
81.064741
 20
143.52056
 10
81.053323
 20
143.646498
 10
81.065249
 20
143.733938
 10
81.103349
 20
143.775257
 10
81.127676
 20
143.778777
  0
LINE
  5
75
100
AcDbEntity
  8
ALPHA
100
AcDbLine
 10
95.654503
 20
155.401717
 30
0.0
 11
95.64438
 21
155.401717
 31
0.0
  0
LINE
  5
76
100
AcDbEntity
  8
ALPHA
100
AcDbLine
 10
81.969837
 20
168.231783
 30
0.0
 11
81.969837
 21
168.454799
 31
0.0
  0
LINE
  5
77
100
AcDbEntity
  8
ALPHA
100
AcDbLine
 10
81.969837
 20
168.224834
 30
0.0
 11
81.969837
 21
168.231783
 31
0.0
  0
LWPOLYLINE
  5
78
100
AcDbEntity
  8
ALPHA
100
AcDbPolyline
 90
        5
 70
     0
 43
0.0
 10
81.969837
 20
165.708023
 10
81.969837
 20
166.570323
 10
81.969837
 20
167.283816
 10
81.969837
 20
167.839876
 10
81.969837
 20
168.224834
  0
LINE
  5
7F
100
AcDbEntity
  8
ALPHA
100
AcDbLine
 10
93.54438
 20
165.011412
 30
0.0
 11
93.54438
 21
164.953695
 31
0.0
  0
LWPOLYLINE
  5
80
100
AcDbEntity
  8
ALPHA
100
AcDbPolyline
 90
        5
 70
     0
 43
0.0
 10
93.54438
 20
165.708023
 10
93.54438
 20
165.545821
 10
93.54438
 20
165.364069
 10
93.54438
 20
165.180088
 10
93.54438
 20
165.011412
  0
LINE
  5
87
100
AcDbEntity
  8
ALPHA
100
AcDbLine
 10
95.654503
 20
155.060477
 30
0.0
 11
95.64438
 21
155.060477
 31
0.0
  0
LWPOLYLINE
  5
88
100
AcDbEntity
  8
ALPHA
100
AcDbPolyline
 90
        6
 70
     0
 43
0.0
 10
93.54438
 20
165.708023
 10
93.731771
 20
165.690122
 10
93.90004
 20
165.638092
 10
94.033249
 20
165.55608
 10
94.116963
 20
165.452536
 10
94.14438
 20
165.340682
  0
LINE
  5
90
100
AcDbEntity
  8
ALPHA
100
AcDbLine
 10
95.654503
 20
154.985883
 30
0.0
 11
95.64438
 21
154.985883
 31
0.0
  0
LINE
  5
91
100
AcDbEntity
  8
ALPHA
100
AcDbLine
 10
93.54438
 20
140.038314
 30
0.0
 11
81.969837
 21
140.038314
 31
0.0
  0
LINE
  5
92
100
AcDbEntity
  8
ALPHA
100
AcDbLine
 10
93.54438
 20
162.842114
 30
0.0
 11
93.54438
 21
162.744956
 31
0.0
  0
LWPOLYLINE
  5
93
100
AcDbEntity
  8
ALPHA
100
AcDbPolyline
 90
        6
 70
     0
 43
0.0
 10
93.54438
 20
163.677882
 10
93.54438
 20
163.537999
 10
93.54438
 20
163.367749
 10
93.54438
 20
163.183357
 10
93.54438
 20
163.002397
 10
93.54438
 20
162.842114
  0
LWPOLYLINE
  5
9B
100
AcDbEntity
  8
ALPHA
100
AcDbPolyline
 90
        6
 70
     0
 43
0.0
 10
93.54438
 20
163.677882
 10
93.726887
 20
163.656582
 10
93.895881
 20
163.592165
 10
94.03074
 20
163.489774
 10
94.116068
 20
163.360451
 10
94.14438
 20
163.219361
  0
LINE
  5
A3
100
AcDbEntity
  8
ALPHA
100
AcDbLine
 10
95.654503
 20
153.533576
 30
0.0
 11
95.64438
 21
153.533576
 31
0.0
  0
LINE
  5
A4
100
AcDbEntity
  8
ALPHA
100
AcDbLine
 10
95.654503
 20
153.458982
 30
0.0
 11
95.64438
 21
153.458982
 31
0.0
  0
LINE
  5
A5
100
AcDbEntity
  8
ALPHA
100
AcDbLine
 10
95.654503
 20
153.117742
 30
0.0
 11
95.64438
 21
153.117742
 31
0.0
  0
LWPOLYLINE
  5
A6
100
AcDbEntity
  8
ALPHA
100
AcDbPolyline
 90
       11
 70
     0
 43
0.0
 10
93.54438
 20
156.354934
 10
93.54438
 20
156.303482
 10
93.54438
 20
156.200208
 10
93.54438
 20
156.054957
 10
93.54438
 20
155.88157
 10
93.54438
 20
155.696572
 10
93.54438
 20
155.517592
 10
93.54438
 20
155.361689
 10
93.54438
 20
155.243719
 10
93.54438
 20
155.174926
 10
93.54438
 20
155.161865
  0
LWPOLYLINE
  5
B3
100
AcDbEntity
  8
ALPHA
100
AcDbPolyline
 90
        6
 70
     0
 43
0.0
 10
93.54438
 20
156.354934
 10
93.731771
 20
156.325236
 10
93.90004
 20
156.239338
 10
94.033249
 20
156.105185
 10
94.116963
 20
155.93791
 10
94.14438
 20
155.75973
  0
LWPOLYLINE
  5
BB
100
AcDbEntity
  8
ALPHA
100
AcDbPolyline
 90
       11
 70
     0
 43
0.0
 10
81.127674
 20
164.740682
 10
81.103309
 20
164.744215
 10
81.065235
 20
164.78556
 10
81.053323
 20
164.873011
 10
81.06475
 20
164.998951
 10
81.10228
 20
165.149183
 10
81.173665
 20
165.308017
 10
81.290012
 20
165.460184
 10
81.462909
 20
165.589332
 10
81.694954
 20
165.676821
 10
81.969837
 20
165.708023
  0
LWPOLYLINE
  5
C8
100
AcDbEntity
  8
ALPHA
100
AcDbPolyline
 90
        6
 70
     0
 43
0.0
 10
93.54438
 20
152.164525
 10
93.731771
 20
152.194223
 10
93.90004
 20
152.280121
 10
94.033249
 20
152.414274
 10
94.116963
 20
152.581549
 10
94.14438
 20
152.75973
  0
LWPOLYLINE
  5
D0
100
AcDbEntity
  8
ALPHA
100
AcDbPolyline
 90
        6
 70
     0
 43
0.0
 10
93.54438
 20
144.841577
 10
93.731771
 20
144.864126
 10
93.90004
 20
144.929543
 10
94.033249
 20
145.032287
 10
94.116963
 20
145.161385
 10
94.14438
 20
145.300098
  0
LWPOLYLINE
  5
D8
100
AcDbEntity
  8
ALPHA
100
AcDbPolyline
 90
       12
 70
     0
 43
0.0
 10
81.194521
 20
162.619362
 10
81.175083
 20
162.620124
 10
81.103079
 20
162.64995
 10
81.065109
 20
162.724718
 10
81.053322
 20
162.841444
 10
81.064877
 20
162.989306
 10
81.102533
 20
163.15194
 10
81.173894
 20
163.313237
 10
81.29028
 20
163.459564
 10
81.463137
 20
163.576931
 10
81.695032
 20
163.652118
 10
81.969837
 20
163.677882
  0
LWPOLYLINE
  5
E6
100
AcDbEntity
  8
ALPHA
100
AcDbPolyline
 90
        6
 70
     0
 43
0.0
 10
93.54438
 20
142.811436
 10
93.731771
 20
142.829337
 10
93.90004
 20
142.881367
 10
94.033249
 20
142.963379
 10
94.116963
 20
143.066923
 10
94.14438
 20
143.178777
  0
LWPOLYLINE
  5
EE
100
AcDbEntity
  8
ALPHA
100
AcDbPolyline
 90
        6
 70
     0
 43
0.0
 10
93.54438
 20
140.038314
 10
93.731771
 20
140.040246
 10
93.90004
 20
140.046186
 10
94.033249
 20
140.056505
 10
94.116963
 20
140.071145
 10
94.14438
 20
140.088897
  0
LINE
  5
F6
100
AcDbEntity
  8
ALPHA
100
AcDbLine
 10
93.54438
 20
165.708023
 30
0.0
 11
81.969837
 21
165.708023
 31
0.0
  0
LWPOLYLINE
  5
F7
100
AcDbEntity
  8
ALPHA
100
AcDbPolyline
 90
        5
 70
     0
 43
0.0
 10
93.54438
 20
143.508048
 10
93.54438
 20
143.339371
 10
93.54438
 20
143.15539
 10
93.54438
 20
142.973638
 10
93.54438
 20
142.811436
  0
LINE
  5
FE
100
AcDbEntity
  8
ALPHA
100
AcDbLine
 10
93.54438
 20
143.565764
 30
0.0
 11
93.54438
 21
143.508048
 31
0.0
  0
LWPOLYLINE
  5
FF
100
AcDbEntity
  8
ALPHA
100
AcDbPolyline
 90
       11
 70
     0
 43
0.0
 10
93.54438
 20
153.357594
 10
93.54438
 20
153.344533
 10
93.54438
 20
153.27574
 10
93.54438
 20
153.15777
 10
93.54438
 20
153.001867
 10
93.54438
 20
152.822887
 10
93.54438
 20
152.637889
 10
93.54438
 20
152.464502
 10
93.54438
 20
152.319251
 10
93.54438
 20
152.215978
 10
93.54438
 20
152.164525
  0
LINE
  5
10C
100
AcDbEntity
  8
ALPHA
100
AcDbLine
 10
81.969837
 20
140.038314
 30
0.0
 11
81.969837
 21
140.00973
 31
0.0
  0
LWPOLYLINE
  5
10D
100
AcDbEntity
  8
ALPHA
100
AcDbPolyline
 90
        5
 70
     0
 43
0.0
 10
81.969837
 20
142.811436
 10
81.969837
 20
141.85992
 10
81.969837
 20
141.094446
 10
81.969837
 20
140.5265
 10
81.969837
 20
140.164602
  0
LWPOLYLINE
  5
114
100
AcDbEntity
  8
ALPHA
100
AcDbPolyline
 90
        3
 70
     0
 43
0.0
 10
81.969837
 20
144.841577
 10
81.969837
 20
144.183458
 10
81.969837
 20
143.565764
  0
LWPOLYLINE
  5
119
100
AcDbEntity
  8
ALPHA
100
AcDbPolyline
 90
        5
 70
     0
 43
0.0
 10
81.969837
 20
152.164525
 10
81.969837
 20
150.45698
 10
81.969837
 20
148.806491
 10
81.969837
 20
147.23782
 10
81.969837
 20
145.774503
  0
LINE
  5
120
100
AcDbEntity
  8
ALPHA
100
AcDbLine
 10
95.654503
 20
166.719665
 30
0.0
 11
95.64438
 21
166.719665
 31
0.0
  0
LWPOLYLINE
  5
121
100
AcDbEntity
  8
ALPHA
100
AcDbPolyline
 90
        3
 70
     0
 43
0.0
 10
81.969837
 20
154.25973
 10
81.969837
 20
153.808435
 10
81.969837
 20
153.357594
  0
LWPOLYLINE
  5
126
100
AcDbEntity
  8
ALPHA
100
AcDbPolyline
 90
        3
 70
     0
 43
0.0
 10
81.969837
 20
154.25973
 10
81.969837
 20
154.711024
 10
81.969837
 20
155.161865
  0
LWPOLYLINE
  5
12B
100
AcDbEntity
  8
ALPHA
100
AcDbPolyline
 90
        5
 70
     0
 43
0.0
 10
81.969837
 20
156.354934
 10
81.969837
 20
158.062479
 10
81.969837
 20
159.712968
 10
81.969837
 20
161.281639
 10
81.969837
 20
162.744956
  0
LINE
  5
132
100
AcDbEntity
  8
ALPHA
100
AcDbLine
 10
95.654503
 20
160.071715
 30
0.0
 11
95.64438
 21
160.071715
 31
0.0
  0
LWPOLYLINE
  5
133
100
AcDbEntity
  8
ALPHA
100
AcDbPolyline
 90
        3
 70
     0
 43
0.0
 10
81.969837
 20
163.677882
 10
81.969837
 20
164.336001
 10
81.969837
 20
164.953695
  0
LWPOLYLINE
  5
138
100
AcDbEntity
  8
ALPHA
100
AcDbPolyline
 90
       14
 70
     0
 43
0.0
 10
81.664586
 20
155.159738
 10
81.463259
 20
155.166185
 10
81.290713
 20
155.200937
 10
81.174098
 20
155.274104
 10
81.102653
 20
155.385533
 10
81.06494
 20
155.530145
 10
81.053322
 20
155.697033
 10
81.065068
 20
155.869077
 10
81.1029
 20
156.028129
 10
81.174449
 20
156.16127
 10
81.291296
 20
156.260718
 10
81.463659
 20
156.321827
 10
81.695141
 20
156.348859
 10
81.969837
 20
156.354934
  0
LINE
  5
148
100
AcDbEntity
  8
ALPHA
100
AcDbLine
 10
95.654503
 20
141.799794
 30
0.0
 11
95.64438
 21
141.799794
 31
0.0
  0
LINE
  5
149
100
AcDbEntity
  8
ALPHA
100
AcDbLine
 10
93.54438
 20
156.354934
 30
0.0
 11
81.969837
 21
156.354934
 31
0.0
  0
LINE
  5
14A
100
AcDbEntity
  8
ALPHA
100
AcDbLine
 10
93.54438
 20
140.164602
 30
0.0
 11
93.54438
 21
140.038314
 31
0.0
  0
LINE
  5
14B
100
AcDbEntity
  8
ALPHA
100
AcDbLine
 10
93.54438
 20
163.677882
 30
0.0
 11
81.969837
 21
163.677882
 31
0.0
  0
LINE
  5
14C
100
AcDbEntity
  8
ALPHA
100
AcDbLine
 10
93.54438
 20
152.164525
 30
0.0
 11
81.969837
 21
152.164525
 31
0.0
  0
LINE
  5
14D
100
AcDbEntity
  8
ALPHA
100
AcDbLine
 10
95.64438
 20
161.983025
 30
0.0
 11
95.654503
 21
161.983025
 31
0.0
  0
LINE
  5
14E
100
AcDbEntity
  8
ALPHA
100
AcDbLine
 10
95.64438
 20
146.536434
 30
0.0
 11
95.654503
 21
146.536434
 31
0.0
  0
LWPOLYLINE
  5
14F
100
AcDbEntity
  8
ALPHA
100
AcDbPolyline
 90
        7
 70
     0
 43
0.0
 10
79.160008
 20
154.24973
 10
79.160064
 20
153.928796
 10
79.160099
 20
153.62973
 10
79.160111
 20
153.372917
 10
79.160099
 20
153.175858
 10
79.160064
 20
153.051981
 10
79.160008
 20
153.00973
  0
LINE
  5
158
100
AcDbEntity
  8
ALPHA
100
AcDbLine
 10
95.64438
 20
165.385547
 30
0.0
 11
95.654503
 21
165.385547
 31
0.0
  0
LINE
  5
159
100
AcDbEntity
  8
ALPHA
100
AcDbLine
 10
90.772352
 20
168.454799
 30
0.0
 11
81.969837
 21
168.454799
 31
0.0
  0
LINE
  5
15A
100
AcDbEntity
  8
ALPHA
100
AcDbLine
 10
92.84438
 20
168.454799
 30
0.0
 11
90.772352
 21
168.454799
 31
0.0
  0
LINE
  5
15B
100
AcDbEntity
  8
ALPHA
100
AcDbLine
 10
95.654503
 20
147.581719
 30
0.0
 11
95.64438
 21
147.581719
 31
0.0
  0
LINE
  5
15C
100
AcDbEntity
  8
ALPHA
100
AcDbLine
 10
95.654503
 20
153.75973
 30
0.0
 11
95.64438
 21
153.75973
 31
0.0
  0
LINE
  5
15D
100
AcDbEntity
  8
ALPHA
100
AcDbLine
 10
95.654503
 20
142.80329
 30
0.0
 11
95.64438
 21
142.80329
 31
0.0
  0
LINE
  5
15E
100
AcDbEntity
  8
ALPHA
100
AcDbLine
 10
95.654503
 20
165.716169
 30
0.0
 11
95.64438
 21
165.716169
 31
0.0
  0
LINE
  5
15F
100
AcDbEntity
  8
ALPHA
100
AcDbLine
 10
95.654503
 20
160.93774
 30
0.0
 11
95.64438
 21
160.93774
 31
0.0
  0
LINE
  5
160
100
AcDbEntity
  8
ALPHA
100
AcDbLine
 10
95.654503
 20
154.75973
 30
0.0
 11
95.64438
 21
154.75973
 31
0.0
  0
LWPOLYLINE
  5
161
100
AcDbEntity
  8
ALPHA
100
AcDbPolyline
 90
        6
 70
     0
 43
0.0
 10
81.969837
 20
164.953695
 10
81.69649
 20
164.925384
 10
81.465173
 20
164.859597
 10
81.292673
 20
164.791843
 10
81.175412
 20
164.748484
 10
81.127674
 20
164.740682
  0
LWPOLYLINE
  5
169
100
AcDbEntity
  8
ALPHA
100
AcDbPolyline
 90
        5
 70
     0
 43
0.0
 10
81.969837
 20
162.744956
 10
81.696735
 20
162.722645
 10
81.465147
 20
162.673867
 10
81.292273
 20
162.631847
 10
81.194521
 20
162.619362
  0
LWPOLYLINE
  5
170
100
AcDbEntity
  8
ALPHA
100
AcDbPolyline
 90
        3
 70
     0
 43
0.0
 10
81.969837
 20
155.161865
 10
81.695048
 20
155.159852
 10
81.664586
 20
155.159738
  0
LWPOLYLINE
  5
175
100
AcDbEntity
  8
ALPHA
100
AcDbPolyline
 90
        6
 70
     0
 43
0.0
 10
93.54438
 20
164.953695
 10
93.731771
 20
164.973512
 10
93.90004
 20
165.030529
 10
94.033249
 20
165.11868
 10
94.116963
 20
165.227073
 10
94.14438
 20
165.340682
  0
LWPOLYLINE
  5
17D
100
AcDbEntity
  8
ALPHA
100
AcDbPolyline
 90
        6
 70
     0
 43
0.0
 10
93.54438
 20
162.744956
 10
93.726887
 20
162.767722
 10
93.895881
 20
162.836128
 10
94.03074
 20
162.943504
 10
94.116068
 20
163.076804
 10
94.14438
 20
163.219361
  0
LWPOLYLINE
  5
185
100
AcDbEntity
  8
ALPHA
100
AcDbPolyline
 90
        6
 70
     0
 43
0.0
 10
93.54438
 20
155.161865
 10
93.731771
 20
155.191823
 10
93.90004
 20
155.278397
 10
94.033249
 20
155.41338
 10
94.116963
 20
155.581311
 10
94.14438
 20
155.75973
  0
LWPOLYLINE
  5
18D
100
AcDbEntity
  8
ALPHA
100
AcDbPolyline
 90
        6
 70
     0
 43
0.0
 10
93.54438
 20
153.357594
 10
93.731771
 20
153.327636
 10
93.90004
 20
153.241063
 10
94.033249
 20
153.106079
 10
94.116963
 20
152.938148
 10
94.14438
 20
152.75973
  0
LWPOLYLINE
  5
195
100
AcDbEntity
  8
ALPHA
100
AcDbPolyline
 90
        6
 70
     0
 43
0.0
 10
93.54438
 20
145.774503
 10
93.731771
 20
145.750404
 10
93.90004
 20
145.680956
 10
94.033249
 20
145.573247
 10
94.116963
 20
145.440229
 10
94.14438
 20
145.300098
  0
LWPOLYLINE
  5
19D
100
AcDbEntity
  8
ALPHA
100
AcDbPolyline
 90
        6
 70
     0
 43
0.0
 10
93.54438
 20
143.565764
 10
93.731771
 20
143.545947
 10
93.90004
 20
143.48893
 10
94.033249
 20
143.400779
 10
94.116963
 20
143.292386
 10
94.14438
 20
143.178777
  0
LWPOLYLINE
  5
1A5
100
AcDbEntity
  8
ALPHA
100
AcDbPolyline
 90
        6
 70
     0
 43
0.0
 10
93.54438
 20
140.164602
 10
93.731771
 20
140.16022
 10
93.90004
 20
140.147903
 10
94.033249
 20
140.129733
 10
94.116963
 20
140.108892
 10
94.14438
 20
140.088897
  0
LINE
  5
1AD
100
AcDbEntity
  8
ALPHA
100
AcDbLine
 10
95.64438
 20
140.00973
 30
0.0
 11
95.14438
 21
140.00973
 31
0.0
  0
LINE
  5
1AE
100
AcDbEntity
  8
ALPHA
100
AcDbLine
 10
95.64438
 20
168.50973
 30
0.0
 11
95.14438
 21
168.50973
 31
0.0
  0
LINE
  5
1AF
100
AcDbEntity
  8
ALPHA
100
AcDbLine
 10
95.14438
 20
168.50973
 30
0.0
 11
94.370061
 21
168.50973
 31
0.0
  0
ARC
  5
1B0
100
AcDbEntity
  8
ALPHA
100
AcDbCircle
 10
129.14438
 20
154.25973
 30
0.0
 40
50.0
100
AcDbArc
 50
181.432544
 51
195.688556
  0
LINE
  5
1B1
100
AcDbEntity
  8
ALPHA
100
AcDbLine
 10
79.160007
 20
153.00973
 30
0.0
 11
79.160008
 21
153.00973
 31
0.0
  0
LINE
  5
1B2
100
AcDbEntity
  8
ALPHA
100
AcDbLine
 10
95.64438
 20
140.00973
 30
0.0
 11
95.14438
 21
140.00973
 31
0.0
  0
LINE
  5
1B3
100
AcDbEntity
  8
ALPHA
100
AcDbLine
 10
93.54438
 20
140.00973
 30
0.0
 11
81.969837
 21
140.00973
 31
0.0
  0
LINE
  5
1B4
100
AcDbEntity
  8
ALPHA
100
AcDbLine
 10
95.14438
 20
140.00973
 30
0.0
 11
93.54438
 21
140.00973
 31
0.0
  0
LINE
  5
1B5
100
AcDbEntity
  8
ALPHA
100
AcDbLine
 10
95.64438
 20
168.50973
 30
0.0
 11
95.14438
 21
168.50973
 31
0.0
  0
ARC
  5
1B6
100
AcDbEntity
  8
ALPHA
100
AcDbCircle
 10
81.969837
 20
141.00973
 30
0.0
 40
1.0
100
AcDbArc
 50
195.688556
 51
199.428969
  0
ARC
  5
1B7
100
AcDbEntity
  8
ALPHA
100
AcDbCircle
 10
81.969837
 20
141.00973
 30
0.0
 40
1.0
100
AcDbArc
 50
199.428969
 51
270.0
  0
LINE
  5
1B8
100
AcDbEntity
  8
ALPHA
100
AcDbLine
 10
95.64438
 20
166.75973
 30
0.0
 11
95.654503
 21
166.75973
 31
0.0
  0
LWPOLYLINE
  5
1B9
100
AcDbEntity
  8
ALPHA
100
AcDbPolyline
 90
        5
 70
     0
 43
0.0
 10
95.64438
 20
141.405541
 10
95.64438
 20
141.297474
 10
95.64438
 20
140.586955
 10
95.64438
 20
140.154774
 10
95.64438
 20
140.00973
  0
LWPOLYLINE
  5
1C0
100
AcDbEntity
  8
ALPHA
100
AcDbPolyline
 90
        9
 70
     0
 43
0.0
 10
95.64438
 20
154.25973
 10
95.64438
 20
152.231743
 10
95.64438
 20
150.245041
 10
95.64438
 20
148.340066
 10
95.64438
 20
146.555598
 10
95.64438
 20
144.927964
 10
95.64438
 20
143.490298
 10
95.64438
 20
142.271867
 10
95.64438
 20
141.405541
  0
LWPOLYLINE
  5
1CB
100
AcDbEntity
  8
ALPHA
100
AcDbPolyline
 90
        4
 70
     0
 43
0.0
 10
95.64438
 20
159.713856
 10
95.64438
 20
158.274418
 10
95.64438
 20
156.287716
 10
95.64438
 20
154.25973
  0
LWPOLYLINE
  5
1D1
100
AcDbEntity
  8
ALPHA
100
AcDbPolyline
 90
        4
 70
     0
 43
0.0
 10
95.64438
 20
162.465652
 10
95.64438
 20
161.963861
 10
95.64438
 20
160.179393
 10
95.64438
 20
159.713856
  0
LINE
  5
1D7
100
AcDbEntity
  8
ALPHA
100
AcDbLine
 10
95.64438
 20
162.589225
 30
0.0
 11
95.64438
 21
162.465652
 31
0.0
  0
LWPOLYLINE
  5
1D8
100
AcDbEntity
  8
ALPHA
100
AcDbPolyline
 90
        3
 70
     0
 43
0.0
 10
95.64438
 20
163.65973
 10
95.64438
 20
163.591495
 10
95.64438
 20
162.589225
  0
LWPOLYLINE
  5
1DD
100
AcDbEntity
  8
ALPHA
100
AcDbPolyline
 90
        3
 70
     0
 43
0.0
 10
95.64438
 20
165.385547
 10
95.64438
 20
165.029161
 10
95.64438
 20
163.65973
  0
LINE
  5
1E2
100
AcDbEntity
  8
ALPHA
100
AcDbLine
 10
95.64438
 20
165.716169
 30
0.0
 11
95.64438
 21
165.385547
 31
0.0
  0
LWPOLYLINE
  5
1E3
100
AcDbEntity
  8
ALPHA
100
AcDbPolyline
 90
        3
 70
     0
 43
0.0
 10
95.64438
 20
166.719665
 10
95.64438
 20
166.247592
 10
95.64438
 20
165.716169
  0
LINE
  5
1E8
100
AcDbEntity
  8
ALPHA
100
AcDbLine
 10
95.64438
 20
167.113919
 30
0.0
 11
95.64438
 21
166.719665
 31
0.0
  0
LWPOLYLINE
  5
1E9
100
AcDbEntity
  8
ALPHA
100
AcDbPolyline
 90
        5
 70
     0
 43
0.0
 10
95.64438
 20
168.50973
 10
95.64438
 20
168.364685
 10
95.64438
 20
167.932504
 10
95.64438
 20
167.221985
 10
95.64438
 20
167.113919
  0
LINE
  5
1F0
100
AcDbEntity
  8
ALPHA
100
AcDbLine
 10
95.64438
 20
143.114366
 30
0.0
 11
95.654503
 21
143.114366
 31
0.0
  0
LWPOLYLINE
  5
1F1
100
AcDbEntity
  8
ALPHA
100
AcDbPolyline
 90
        7
 70
     0
 43
0.0
 10
81.969837
 20
168.454799
 10
81.756865
 20
168.431769
 10
81.550339
 20
168.362196
 10
81.366212
 20
168.251272
 10
81.209924
 20
168.103435
 10
81.087085
 20
167.922507
 10
81.007091
 20
167.722231
  0
LINE
  5
1FA
100
AcDbEntity
  8
ALPHA
100
AcDbLine
 10
95.654503
 20
141.75973
 30
0.0
 11
95.64438
 21
141.75973
 31
0.0
  0
LINE
  5
1FB
100
AcDbEntity
  8
ALPHA
100
AcDbLine
 10
93.54438
 20
153.357594
 30
0.0
 11
81.969837
 21
153.357594
 31
0.0
  0
LINE
  5
1FC
100
AcDbEntity
  8
ALPHA
100
AcDbLine
 10
93.54438
 20
145.774503
 30
0.0
 11
81.969837
 21
145.774503
 31
0.0
  0
LINE
  5
1FD
100
AcDbEntity
  8
ALPHA
100
AcDbLine
 10
93.54438
 20
143.565764
 30
0.0
 11
81.969837
 21
143.565764
 31
0.0
  0
LINE
  5
1FE
100
AcDbEntity
  8
ALPHA
100
AcDbLine
 10
93.54438
 20
140.164602
 30
0.0
 11
81.969837
 21
140.164602
 31
0.0
  0
LWPOLYLINE
  5
1FF
100
AcDbEntity
  8
ALPHA
100
AcDbPolyline
 90
        3
 70
     0
 43
0.0
 10
81.664872
 20
153.359721
 10
81.696435
 20
153.359599
 10
81.969837
 20
153.357594
  0
LWPOLYLINE
  5
204
100
AcDbEntity
  8
ALPHA
100
AcDbPolyline
 90
       17
 70
     0
 43
0.0
 10
79.160008
 20
154.24973
 10
79.162893
 20
154.796798
 10
79.170513
 20
155.284482
 10
79.181691
 20
155.731863
 10
79.197373
 20
156.19208
 10
79.219832
 20
156.704533
 10
79.251785
 20
157.28735
 10
79.295949
 20
157.943668
 10
79.355454
 20
158.675653
 10
79.43393
 20
159.485496
 10
79.535566
 20
160.375539
 10
79.665306
 20
161.349072
 10
79.829172
 20
162.41128
 10
80.034672
 20
163.56962
 10
80.291233
 20
164.833637
 10
80.610536
 20
166.213955
 10
81.007091
 20
167.722231
  0
LINE
  5
217
100
AcDbEntity
  8
ALPHA
100
AcDbLine
 10
79.160008
 20
153.00973
 30
0.0
 11
79.160007
 21
153.00973
 31
0.0
  0
LWPOLYLINE
  5
218
100
AcDbEntity
  8
ALPHA
100
AcDbPolyline
 90
        8
 70
     0
 43
0.0
 10
81.054779
 20
140.688897
 10
81.065344
 20
140.678488
 10
81.103519
 20
140.624656
 10
81.175735
 20
140.533254
 10
81.293149
 20
140.417488
 10
81.465622
 20
140.297669
 10
81.696744
 20
140.202142
 10
81.969837
 20
140.164602
  0
LWPOLYLINE
  5
222
100
AcDbEntity
  8
ALPHA
100
AcDbPolyline
 90
        5
 70
     0
 43
0.0
 10
81.194531
 20
145.900097
 10
81.292236
 20
145.88762
 10
81.464946
 20
145.845642
 10
81.696459
 20
145.796858
 10
81.969837
 20
145.774503
  0
LWPOLYLINE
  5
229
100
AcDbEntity
  8
ALPHA
100
AcDbPolyline
 90
        6
 70
     0
 43
0.0
 10
81.127676
 20
143.778777
 10
81.175474
 20
143.770958
 10
81.292749
 20
143.727585
 10
81.465268
 20
143.659828
 10
81.696556
 20
143.594062
 10
81.969837
 20
143.565764
  0
LINE
  5
231
100
AcDbEntity
  8
ALPHA
100
AcDbLine
 10
93.54438
 20
155.161865
 30
0.0
 11
81.969837
 21
155.161865
 31
0.0
  0
LINE
  5
232
100
AcDbEntity
  8
ALPHA
100
AcDbLine
 10
92.870835
 20
168.455174
 30
0.0
 11
92.84438
 21
168.454799
 31
0.0
  0
LWPOLYLINE
  5
233
100
AcDbEntity
  8
ALPHA
100
AcDbPolyline
 90
        4
 70
     0
 43
0.0
 10
94.34438
 20
168.474599
 10
93.844039
 20
168.468486
 10
93.34403
 20
168.461886
 10
92.870835
 20
168.455174
  0
LINE
  5
239
100
AcDbEntity
  8
ALPHA
100
AcDbLine
 10
93.54438
 20
164.953695
 30
0.0
 11
81.969837
 21
164.953695
 31
0.0
  0
LINE
  5
23A
100
AcDbEntity
  8
ALPHA
100
AcDbLine
 10
93.54438
 20
162.744956
 30
0.0
 11
81.969837
 21
162.744956
 31
0.0
  0
LWPOLYLINE
  5
23B
100
AcDbEntity
  8
ALPHA
100
AcDbPolyline
 90
        7
 70
     0
 43
0.0
 10
118.870061
 20
159.876104
 10
118.874339
 20
159.915756
 10
118.887049
 20
159.954101
 10
118.907829
 20
159.990072
 10
118.936087
 20
160.022676
 10
118.971019
 20
160.051029
 10
119.011634
 20
160.074366
  0
LWPOLYLINE
  5
244
100
AcDbEntity
  8
ALPHA
100
AcDbPolyline
 90
        6
 70
     0
 43
0.0
 10
120.487218
 20
161.928069
 10
120.487218
 20
162.365914
 10
120.487218
 20
162.769626
 10
120.487218
 20
163.137506
 10
120.487218
 20
163.468004
 10
120.487218
 20
163.75973
  0
LWPOLYLINE
  5
24C
100
AcDbEntity
  8
ALPHA
100
AcDbPolyline
 90
        7
 70
     0
 43
0.0
 10
120.487218
 20
161.928069
 10
120.443648
 20
161.979039
 10
120.397596
 20
162.019075
 10
120.350078
 20
162.049059
 10
120.301757
 20
162.069813
 10
120.25316
 20
162.081961
 10
120.204375
 20
162.085967
  0
LWPOLYLINE
  5
255
100
AcDbEntity
  8
ALPHA
100
AcDbPolyline
 90
        5
 70
     0
 43
0.0
 10
120.204375
 20
162.085967
 10
120.204375
 20
162.572065
 10
120.204375
 20
163.014566
 10
120.204375
 20
163.411147
 10
120.204375
 20
163.75973
  0
LWPOLYLINE
  5
25C
100
AcDbEntity
  8
ALPHA
100
AcDbPolyline
 90
        7
 70
     0
 43
0.0
 10
121.852903
 20
162.290864
 10
121.852903
 20
162.000934
 10
121.852903
 20
161.676843
 10
121.852903
 20
161.320021
 10
121.852903
 20
160.932043
 10
121.852903
 20
160.51462
 10
121.852903
 20
160.069596
  0
LINE
  5
265
100
AcDbEntity
  8
ALPHA
100
AcDbLine
 10
121.970061
 20
151.85973
 30
0.0
 11
123.170061
 21
151.85973
 31
0.0
  0
LWPOLYLINE
  5
266
100
AcDbEntity
  8
ALPHA
100
AcDbPolyline
 90
       24
 70
     0
 43
0.0
 10
96.070061
 20
140.00973
 10
96.070061
 20
140.01841
 10
96.070061
 20
140.087793
 10
96.070061
 20
140.226219
 10
96.070061
 20
140.433015
 10
96.070061
 20
140.707174
 10
96.070061
 20
141.04736
 10
96.070061
 20
141.451914
 10
96.070061
 20
141.918868
 10
96.070061
 20
142.445944
 10
96.070061
 20
143.030576
 10
96.070061
 20
143.669916
 10
96.070061
 20
144.360848
 10
96.070061
 20
145.100006
 10
96.070061
 20
145.88379
 10
96.070061
 20
146.70838
 10
96.070061
 20
147.56976
 10
96.070061
 20
148.463732
 10
96.070061
 20
149.385942
 10
96.070061
 20
150.331897
 10
96.070061
 20
151.296988
 10
96.070061
 20
152.276513
 10
96.070061
 20
153.2657
 10
96.070061
 20
154.25973
  0
LWPOLYLINE
  5
280
100
AcDbEntity
  8
ALPHA
100
AcDbPolyline
 90
        5
 70
     0
 43
0.0
 10
103.620061
 20
164.35973
 10
103.620061
 20
164.534099
 10
103.620061
 20
164.659249
 10
103.620061
 20
164.734579
 10
103.620061
 20
164.75973
  0
LWPOLYLINE
  5
287
100
AcDbEntity
  8
ALPHA
100
AcDbPolyline
 90
       10
 70
     0
 43
0.0
 10
119.381381
 20
150.648409
 10
119.386915
 20
150.635651
 10
119.384999
 20
150.616186
 10
119.37571
 20
150.590814
 10
119.359427
 20
150.560571
 10
119.336816
 20
150.526693
 10
119.308802
 20
150.490564
 10
119.276529
 20
150.453662
 10
119.241316
 20
150.417494
 10
119.204603
 20
150.383539
  0
LINE
  5
293
100
AcDbEntity
  8
ALPHA
100
AcDbLine
 10
122.570061
 20
154.45973
 30
0.0
 11
121.970061
 21
154.45973
 31
0.0
  0
LWPOLYLINE
  5
294
100
AcDbEntity
  8
ALPHA
100
AcDbPolyline
 90
        7
 70
     0
 43
0.0
 10
121.770061
 20
145.668455
 10
121.770061
 20
145.882007
 10
121.770061
 20
146.131111
 10
121.770061
 20
146.414709
 10
121.770061
 20
146.731597
 10
121.770061
 20
147.08043
 10
121.770061
 20
147.45973
  0
LWPOLYLINE
  5
29D
100
AcDbEntity
  8
ALPHA
100
AcDbPolyline
 90
        4
 70
     0
 43
0.0
 10
103.570061
 20
164.777821
 10
103.467998
 20
165.064922
 10
103.363452
 20
165.358836
 10
103.256366
 20
165.65973
  0
LINE
  5
2A3
100
AcDbEntity
  8
ALPHA
100
AcDbLine
 10
103.256366
 20
165.65973
 30
0.0
 11
103.570061
 21
165.65973
 31
0.0
  0
LINE
  5
2A4
100
AcDbEntity
  8
ALPHA
100
AcDbLine
 10
118.870061
 20
156.928062
 30
0.0
 11
116.670061
 21
156.928062
 31
0.0
  0
LINE
  5
2A5
100
AcDbEntity
  8
ALPHA
100
AcDbLine
 10
104.070061
 20
149.422375
 30
0.0
 11
103.070061
 21
149.422375
 31
0.0
  0
LWPOLYLINE
  5
2A6
100
AcDbEntity
  8
ALPHA
100
AcDbPolyline
 90
        4
 70
     0
 43
0.0
 10
103.070061
 20
149.868727
 10
103.120141
 20
150.266185
 10
103.165917
 20
150.663027
 10
103.207318
 20
151.05973
  0
LWPOLYLINE
  5
2AC
100
AcDbEntity
  8
ALPHA
100
AcDbPolyline
 90
        6
 70
     0
 43
0.0
 10
103.070061
 20
166.203312
 10
103.102838
 20
166.104493
 10
103.138208
 20
165.999513
 10
103.175895
 20
165.889384
 10
103.215452
 20
165.775583
 10
103.256366
 20
165.65973
  0
LWPOLYLINE
  5
2B4
100
AcDbEntity
  8
ALPHA
100
AcDbPolyline
 90
        3
 70
     0
 43
0.0
 10
121.470061
 20
148.065396
 10
121.470061
 20
147.758776
 10
121.470061
 20
147.45973
  0
LWPOLYLINE
  5
2B9
100
AcDbEntity
  8
ALPHA
100
AcDbPolyline
 90
        6
 70
     0
 43
0.0
 10
103.620061
 20
154.25973
 10
103.620061
 20
153.6098
 10
103.620061
 20
152.962362
 10
103.620061
 20
152.3199
 10
103.620061
 20
151.684877
 10
103.620061
 20
151.05973
  0
LWPOLYLINE
  5
2C1
100
AcDbEntity
  8
ALPHA
100
AcDbPolyline
 90
        4
 70
     0
 43
0.0
 10
121.970061
 20
148.380954
 10
121.931847
 20
148.312971
 10
121.893127
 20
148.244622
 10
121.853893
 20
148.175897
  0
LWPOLYLINE
  5
2C7
100
AcDbEntity
  8
ALPHA
100
AcDbPolyline
 90
        7
 70
     0
 43
0.0
 10
103.620061
 20
144.75973
 10
103.620061
 20
144.457615
 10
103.620061
 20
144.208184
 10
103.620061
 20
144.012779
 10
103.620061
 20
143.872448
 10
103.620061
 20
143.787947
 10
103.620061
 20
143.75973
  0
LWPOLYLINE
  5
2D0
100
AcDbEntity
  8
ALPHA
100
AcDbPolyline
 90
       21
 70
     0
 43
0.0
 10
116.270061
 20
154.25973
 10
116.270061
 20
153.527484
 10
116.270061
 20
152.799987
 10
116.270061
 20
152.081957
 10
116.270061
 20
151.378051
 10
116.270061
 20
150.692833
 10
116.270061
 20
150.030749
 10
116.270061
 20
149.396091
 10
116.270061
 20
148.792975
 10
116.270061
 20
148.225313
 10
116.270061
 20
147.696787
 10
116.270061
 20
147.210824
 10
116.270061
 20
146.770576
 10
116.270061
 20
146.378898
 10
116.270061
 20
146.038331
 10
116.270061
 20
145.751082
 10
116.270061
 20
145.519015
 10
116.270061
 20
145.343635
 10
116.270061
 20
145.226079
 10
116.270061
 20
145.16711
 10
116.270061
 20
145.15973
  0
LWPOLYLINE
  5
2E7
100
AcDbEntity
  8
ALPHA
100
AcDbPolyline
 90
       21
 70
     0
 43
0.0
 10
116.270061
 20
154.25973
 10
116.270061
 20
154.991975
 10
116.270061
 20
155.719472
 10
116.270061
 20
156.437502
 10
116.270061
 20
157.141408
 10
116.270061
 20
157.826626
 10
116.270061
 20
158.48871
 10
116.270061
 20
159.123369
 10
116.270061
 20
159.726484
 10
116.270061
 20
160.294146
 10
116.270061
 20
160.822672
 10
116.270061
 20
161.308635
 10
116.270061
 20
161.748883
 10
116.270061
 20
162.140561
 10
116.270061
 20
162.481128
 10
116.270061
 20
162.768377
 10
116.270061
 20
163.000444
 10
116.270061
 20
163.175824
 10
116.270061
 20
163.29338
 10
116.270061
 20
163.352349
 10
116.270061
 20
163.35973
  0
LWPOLYLINE
  5
2FE
100
AcDbEntity
  8
ALPHA
100
AcDbPolyline
 90
        5
 70
     0
 43
0.0
 10
121.73221
 20
160.133427
 10
121.460287
 20
160.548118
 10
121.16465
 20
160.982453
 10
120.841739
 20
161.440763
 10
120.487218
 20
161.928069
  0
LINE
  5
305
100
AcDbEntity
  8
ALPHA
100
AcDbLine
 10
122.670061
 20
151.55973
 30
0.0
 11
122.670061
 21
150.55973
 31
0.0
  0
LINE
  5
306
100
AcDbEntity
  8
ALPHA
100
AcDbLine
 10
118.570061
 20
162.085967
 30
0.0
 11
120.204375
 21
162.085967
 31
0.0
  0
LINE
  5
307
100
AcDbEntity
  8
ALPHA
100
AcDbLine
 10
119.011634
 20
160.074366
 30
0.0
 11
118.570061
 21
160.074366
 31
0.0
  0
LINE
  5
308
100
AcDbEntity
  8
ALPHA
100
AcDbLine
 10
121.73221
 20
160.133427
 30
0.0
 11
119.170061
 21
160.133427
 31
0.0
  0
LINE
  5
309
100
AcDbEntity
  8
ALPHA
100
AcDbLine
 10
107.670061
 20
162.745011
 30
0.0
 11
115.870061
 21
162.745011
 31
0.0
  0
LINE
  5
30A
100
AcDbEntity
  8
ALPHA
100
AcDbLine
 10
107.670061
 20
162.085967
 30
0.0
 11
115.870061
 21
162.085967
 31
0.0
  0
LINE
  5
30B
100
AcDbEntity
  8
ALPHA
100
AcDbLine
 10
119.204603
 20
150.383539
 30
0.0
 11
118.570061
 21
150.383539
 31
0.0
  0
LWPOLYLINE
  5
30C
100
AcDbEntity
  8
ALPHA
100
AcDbPolyline
 90
       10
 70
     0
 43
0.0
 10
103.620061
 20
154.25973
 10
103.620061
 20
155.009841
 10
103.620061
 20
155.75612
 10
103.620061
 20
156.494752
 10
103.620061
 20
157.221963
 10
103.620061
 20
157.934036
 10
103.620061
 20
158.627334
 10
103.620061
 20
159.298312
 10
103.620061
 20
159.943543
 10
103.620061
 20
160.55973
  0
LWPOLYLINE
  5
318
100
AcDbEntity
  8
ALPHA
100
AcDbPolyline
 90
       18
 70
     0
 43
0.0
 10
121.821504
 20
148.208286
 10
121.787662
 20
148.238636
 10
121.754666
 20
148.262057
 10
121.722722
 20
148.279368
 10
121.69196
 20
148.291154
 10
121.66246
 20
148.297826
 10
121.634342
 20
148.299648
 10
121.607753
 20
148.296799
 10
121.582938
 20
148.289443
 10
121.560437
 20
148.277963
 10
121.540593
 20
148.262952
 10
121.523322
 20
148.244834
 10
121.508295
 20
148.223546
 10
121.495294
 20
148.198587
 10
121.484581
 20
148.1698
 10
121.476602
 20
148.137545
 10
121.471718
 20
148.102632
 10
121.470061
 20
148.065396
  0
LWPOLYLINE
  5
32C
100
AcDbEntity
  8
ALPHA
100
AcDbPolyline
 90
        5
 70
     0
 43
0.0
 10
119.204603
 20
150.383539
 10
119.810304
 20
149.763752
 10
120.391128
 20
149.169421
 10
120.944964
 20
148.602704
 10
121.470061
 20
148.065396
  0
LINE
  5
333
100
AcDbEntity
  8
ALPHA
100
AcDbLine
 10
121.670061
 20
162.895214
 30
0.0
 11
121.870061
 21
162.895214
 31
0.0
  0
LINE
  5
334
100
AcDbEntity
  8
ALPHA
100
AcDbLine
 10
121.670061
 20
162.798441
 30
0.0
 11
121.870061
 21
162.798441
 31
0.0
  0
LWPOLYLINE
  5
335
100
AcDbEntity
  8
ALPHA
100
AcDbPolyline
 90
       14
 70
     0
 43
0.0
 10
118.866507
 20
151.05973
 10
118.868685
 20
151.055376
 10
118.875426
 20
151.041891
 10
118.886996
 20
151.018755
 10
118.903472
 20
150.985801
 10
118.924682
 20
150.943383
 10
118.950334
 20
150.892078
 10
118.980185
 20
150.832376
 10
119.013774
 20
150.765196
 10
119.050314
 20
150.692118
 10
119.088813
 20
150.615117
 10
119.128148
 20
150.536451
 10
119.167131
 20
150.458476
 10
119.204603
 20
150.383539
  0
LINE
  5
345
100
AcDbEntity
  8
ALPHA
100
AcDbLine
 10
121.670061
 20
162.637152
 30
0.0
 11
121.870061
 21
162.637152
 31
0.0
  0
LWPOLYLINE
  5
346
100
AcDbEntity
  8
ALPHA
100
AcDbPolyline
 90
       24
 70
     0
 43
0.0
 10
96.070061
 20
154.25973
 10
96.070061
 20
155.253759
 10
96.070061
 20
156.242946
 10
96.070061
 20
157.222471
 10
96.070061
 20
158.187562
 10
96.070061
 20
159.133517
 10
96.070061
 20
160.055727
 10
96.070061
 20
160.949699
 10
96.070061
 20
161.811079
 10
96.070061
 20
162.635669
 10
96.070061
 20
163.419453
 10
96.070061
 20
164.158611
 10
96.070061
 20
164.849543
 10
96.070061
 20
165.488883
 10
96.070061
 20
166.073515
 10
96.070061
 20
166.600592
 10
96.070061
 20
167.067545
 10
96.070061
 20
167.472099
 10
96.070061
 20
167.812285
 10
96.070061
 20
168.086444
 10
96.070061
 20
168.29324
 10
96.070061
 20
168.431667
 10
96.070061
 20
168.501049
 10
96.070061
 20
168.50973
  0
LINE
  5
360
100
AcDbEntity
  8
ALPHA
100
AcDbLine
 10
121.68773
 20
162.475864
 30
0.0
 11
121.870061
 21
162.475864
 31
0.0
  0
LINE
  5
361
100
AcDbEntity
  8
ALPHA
100
AcDbLine
 10
121.85943
 20
162.282317
 30
0.0
 11
121.870061
 21
162.282317
 31
0.0
  0
LINE
  5
362
100
AcDbEntity
  8
ALPHA
100
AcDbLine
 10
121.770061
 20
160.109097
 30
0.0
 11
121.73221
 21
160.133427
 31
0.0
  0
LINE
  5
363
100
AcDbEntity
  8
ALPHA
100
AcDbLine
 10
116.670061
 20
151.591397
 30
0.0
 11
118.570061
 21
151.591397
 31
0.0
  0
LWPOLYLINE
  5
364
100
AcDbEntity
  8
ALPHA
100
AcDbPolyline
 90
        5
 70
     0
 43
0.0
 10
119.011634
 20
160.074366
 10
119.049749
 20
160.100554
 10
119.089709
 20
160.119119
 10
119.130337
 20
160.129979
 10
119.170061
 20
160.133427
  0
LINE
  5
36B
100
AcDbEntity
  8
ALPHA
100
AcDbLine
 10
119.170061
 20
160.133427
 30
0.0
 11
119.170061
 21
159.080637
 31
0.0
  0
LINE
  5
36C
100
AcDbEntity
  8
ALPHA
100
AcDbLine
 10
112.333404
 20
163.75973
 30
0.0
 11
112.333404
 21
164.05973
 31
0.0
  0
LINE
  5
36D
100
AcDbEntity
  8
ALPHA
100
AcDbLine
 10
121.770061
 20
160.109097
 30
0.0
 11
121.770061
 21
159.080637
 31
0.0
  0
LWPOLYLINE
  5
36E
100
AcDbEntity
  8
ALPHA
100
AcDbPolyline
 90
        4
 70
     0
 43
0.0
 10
121.770061
 20
160.109097
 10
121.799048
 20
160.092082
 10
121.826943
 20
160.078858
 10
121.852903
 20
160.069596
  0
LWPOLYLINE
  5
374
100
AcDbEntity
  8
ALPHA
100
AcDbPolyline
 90
        7
 70
     0
 43
0.0
 10
121.852903
 20
160.069596
 10
121.890321
 20
160.058818
 10
121.919899
 20
160.050268
 10
121.942254
 20
160.043157
 10
121.957855
 20
160.036949
 10
121.967042
 20
160.031257
 10
121.970061
 20
160.025776
  0
LINE
  5
37D
100
AcDbEntity
  8
ALPHA
100
AcDbLine
 10
104.070061
 20
163.107328
 30
0.0
 11
103.070061
 21
163.107328
 31
0.0
  0
LWPOLYLINE
  5
37E
100
AcDbEntity
  8
ALPHA
100
AcDbPolyline
 90
        4
 70
     0
 43
0.0
 10
103.620061
 20
160.55973
 10
103.455888
 20
161.29459
 10
103.273536
 20
162.061179
 10
103.070061
 20
162.871402
  0
LINE
  5
384
100
AcDbEntity
  8
ALPHA
100
AcDbLine
 10
103.620061
 20
160.55973
 30
0.0
 11
104.070061
 21
160.55973
 31
0.0
  0
LINE
  5
385
100
AcDbEntity
  8
ALPHA
100
AcDbLine
 10
120.487218
 20
163.75973
 30
0.0
 11
120.204375
 21
163.75973
 31
0.0
  0
LINE
  5
386
100
AcDbEntity
  8
ALPHA
100
AcDbLine
 10
121.970061
 20
161.971944
 30
0.0
 11
121.970061
 21
160.025776
 31
0.0
  0
LINE
  5
387
100
AcDbEntity
  8
ALPHA
100
AcDbLine
 10
121.770061
 20
145.668455
 30
0.0
 11
120.270061
 21
145.668455
 31
0.0
  0
LWPOLYLINE
  5
388
100
AcDbEntity
  8
ALPHA
100
AcDbPolyline
 90
        3
 70
     0
 43
0.0
 10
121.770061
 20
145.668455
 10
121.870847
 20
145.775282
 10
121.970061
 20
145.880589
  0
LINE
  5
38D
100
AcDbEntity
  8
ALPHA
100
AcDbLine
 10
121.670061
 20
162.959729
 30
0.0
 11
121.670061
 21
163.459724
 31
0.0
  0
LINE
  5
38E
100
AcDbEntity
  8
ALPHA
100
AcDbLine
 10
121.670061
 20
162.895214
 30
0.0
 11
121.670061
 21
162.959729
 31
0.0
  0
LINE
  5
38F
100
AcDbEntity
  8
ALPHA
100
AcDbLine
 10
121.670061
 20
162.798441
 30
0.0
 11
121.670061
 21
162.895214
 31
0.0
  0
LINE
  5
390
100
AcDbEntity
  8
ALPHA
100
AcDbLine
 10
121.670061
 20
162.701668
 30
0.0
 11
121.670061
 21
162.798441
 31
0.0
  0
LINE
  5
391
100
AcDbEntity
  8
ALPHA
100
AcDbLine
 10
121.670061
 20
162.637152
 30
0.0
 11
121.670061
 21
162.701668
 31
0.0
  0
LINE
  5
392
100
AcDbEntity
  8
ALPHA
100
AcDbLine
 10
121.670061
 20
162.572637
 30
0.0
 11
121.670061
 21
162.637152
 31
0.0
  0
LINE
  5
393
100
AcDbEntity
  8
ALPHA
100
AcDbLine
 10
121.670061
 20
162.495627
 30
0.0
 11
121.670061
 21
162.572637
 31
0.0
  0
LWPOLYLINE
  5
394
100
AcDbEntity
  8
ALPHA
100
AcDbPolyline
 90
        3
 70
     0
 43
0.0
 10
121.852903
 20
162.290864
 10
121.7623
 20
162.39246
 10
121.670061
 20
162.495627
  0
LINE
  5
399
100
AcDbEntity
  8
ALPHA
100
AcDbLine
 10
120.487218
 20
163.75973
 30
0.0
 11
121.370061
 21
163.75973
 31
0.0
  0
LINE
  5
39A
100
AcDbEntity
  8
ALPHA
100
AcDbLine
 10
118.570061
 20
163.75973
 30
0.0
 11
120.204375
 21
163.75973
 31
0.0
  0
LINE
  5
39B
100
AcDbEntity
  8
ALPHA
100
AcDbLine
 10
121.970061
 20
147.45973
 30
0.0
 11
121.470061
 21
147.45973
 31
0.0
  0
LINE
  5
39C
100
AcDbEntity
  8
ALPHA
100
AcDbLine
 10
121.970061
 20
148.380954
 30
0.0
 11
121.970061
 21
147.45973
 31
0.0
  0
LINE
  5
39D
100
AcDbEntity
  8
ALPHA
100
AcDbLine
 10
121.853893
 20
148.175897
 30
0.0
 11
121.821504
 21
148.208286
 31
0.0
  0
LINE
  5
39E
100
AcDbEntity
  8
ALPHA
100
AcDbLine
 10
108.870061
 20
144.75973
 30
0.0
 11
115.870061
 21
144.75973
 31
0.0
  0
LINE
  5
39F
100
AcDbEntity
  8
ALPHA
100
AcDbLine
 10
108.870061
 20
163.75973
 30
0.0
 11
115.870061
 21
163.75973
 31
0.0
  0
LINE
  5
3A0
100
AcDbEntity
  8
ALPHA
100
AcDbLine
 10
108.870061
 20
164.35973
 30
0.0
 11
108.870061
 21
163.75973
 31
0.0
  0
LINE
  5
3A1
100
AcDbEntity
  8
ALPHA
100
AcDbLine
 10
108.870061
 20
144.75973
 30
0.0
 11
108.870061
 21
143.759735
 31
0.0
  0
LWPOLYLINE
  5
3A2
100
AcDbEntity
  8
ALPHA
100
AcDbPolyline
 90
        5
 70
     0
 43
0.0
 10
95.654503
 20
166.719665
 10
95.654503
 20
166.82016
 10
95.654503
 20
166.983081
 10
95.654503
 20
167.081168
 10
95.654503
 20
167.113919
  0
LWPOLYLINE
  5
3A9
100
AcDbEntity
  8
ALPHA
100
AcDbPolyline
 90
        5
 70
     0
 43
0.0
 10
95.654503
 20
165.716169
 10
95.654503
 20
165.952311
 10
95.654503
 20
166.303458
 10
95.654503
 20
166.593234
 10
95.654503
 20
166.719665
  0
LWPOLYLINE
  5
3B0
100
AcDbEntity
  8
ALPHA
100
AcDbPolyline
 90
        3
 70
     0
 43
0.0
 10
95.654503
 20
165.385547
 10
95.654503
 20
165.541581
 10
95.654503
 20
165.716169
  0
LWPOLYLINE
  5
3B5
100
AcDbEntity
  8
ALPHA
100
AcDbPolyline
 90
        5
 70
     0
 43
0.0
 10
95.654503
 20
163.65973
 10
95.654503
 20
163.974277
 10
95.654503
 20
164.550038
 10
95.654503
 20
165.073361
 10
95.654503
 20
165.385547
  0
LWPOLYLINE
  5
3BC
100
AcDbEntity
  8
ALPHA
100
AcDbPolyline
 90
        4
 70
     0
 43
0.0
 10
95.654503
 20
162.589225
 10
95.654503
 20
162.677433
 10
95.654503
 20
163.349014
 10
95.654503
 20
163.65973
  0
LINE
  5
3C2
100
AcDbEntity
  8
ALPHA
100
AcDbLine
 10
95.654503
 20
162.465652
 30
0.0
 11
95.654503
 21
162.589225
 31
0.0
  0
LWPOLYLINE
  5
3C3
100
AcDbEntity
  8
ALPHA
100
AcDbPolyline
 90
        5
 70
     0
 43
0.0
 10
95.654503
 20
159.713856
 10
95.654503
 20
160.420087
 10
95.654503
 20
161.209229
 10
95.654503
 20
161.962958
 10
95.654503
 20
162.465652
  0
LWPOLYLINE
  5
3CA
100
AcDbEntity
  8
ALPHA
100
AcDbPolyline
 90
        8
 70
     0
 43
0.0
 10
95.654503
 20
154.25973
 10
95.654503
 20
155.176737
 10
95.654503
 20
156.089071
 10
95.654503
 20
156.992084
 10
95.654503
 20
157.881173
 10
95.654503
 20
158.751808
 10
95.654503
 20
159.599553
 10
95.654503
 20
159.713856
  0
LINE
  5
3D4
100
AcDbEntity
  8
ALPHA
100
AcDbLine
 10
122.570061
 20
154.45973
 30
0.0
 11
122.570061
 21
152.45973
 31
0.0
  0
LINE
  5
3D5
100
AcDbEntity
  8
ALPHA
100
AcDbLine
 10
123.170061
 20
152.45973
 30
0.0
 11
122.570061
 21
152.45973
 31
0.0
  0
LINE
  5
3D6
100
AcDbEntity
  8
ALPHA
100
AcDbLine
 10
107.670061
 20
164.35973
 30
0.0
 11
108.870061
 21
164.35973
 31
0.0
  0
LINE
  5
3D7
100
AcDbEntity
  8
ALPHA
100
AcDbLine
 10
108.870061
 20
164.05973
 30
0.0
 11
112.333404
 21
164.05973
 31
0.0
  0
LINE
  5
3D8
100
AcDbEntity
  8
ALPHA
100
AcDbLine
 10
112.333404
 20
164.05973
 30
0.0
 11
112.499242
 21
164.05973
 31
0.0
  0
LINE
  5
3D9
100
AcDbEntity
  8
ALPHA
100
AcDbLine
 10
101.870061
 20
152.75973
 30
0.0
 11
101.870061
 21
154.25973
 31
0.0
  0
LINE
  5
3DA
100
AcDbEntity
  8
ALPHA
100
AcDbLine
 10
101.870061
 20
154.25973
 30
0.0
 11
101.870061
 21
155.75973
 31
0.0
  0
LINE
  5
3DB
100
AcDbEntity
  8
ALPHA
100
AcDbLine
 10
103.070061
 20
155.864716
 30
0.0
 11
103.070061
 21
152.654743
 31
0.0
  0
LINE
  5
3DC
100
AcDbEntity
  8
ALPHA
100
AcDbLine
 10
103.070061
 20
152.654743
 30
0.0
 11
101.870061
 21
152.75973
 31
0.0
  0
LINE
  5
3DD
100
AcDbEntity
  8
ALPHA
100
AcDbLine
 10
101.870061
 20
155.75973
 30
0.0
 11
103.070061
 21
155.864716
 31
0.0
  0
LINE
  5
3DE
100
AcDbEntity
  8
ALPHA
100
AcDbLine
 10
123.170061
 20
151.85973
 30
0.0
 11
123.170061
 21
152.45973
 31
0.0
  0
LINE
  5
3DF
100
AcDbEntity
  8
ALPHA
100
AcDbLine
 10
123.170061
 20
151.85973
 30
0.0
 11
123.170061
 21
151.55973
 31
0.0
  0
LINE
  5
3E0
100
AcDbEntity
  8
ALPHA
100
AcDbLine
 10
122.570061
 20
154.75973
 30
0.0
 11
121.770061
 21
154.75973
 31
0.0
  0
LINE
  5
3E1
100
AcDbEntity
  8
ALPHA
100
AcDbLine
 10
123.170061
 20
151.55973
 30
0.0
 11
123.170061
 21
150.55973
 31
0.0
  0
LINE
  5
3E2
100
AcDbEntity
  8
ALPHA
100
AcDbLine
 10
122.670061
 20
151.55973
 30
0.0
 11
123.170061
 21
151.55973
 31
0.0
  0
LINE
  5
3E3
100
AcDbEntity
  8
ALPHA
100
AcDbLine
 10
122.670061
 20
150.55973
 30
0.0
 11
121.970061
 21
150.55973
 31
0.0
  0
LINE
  5
3E4
100
AcDbEntity
  8
ALPHA
100
AcDbLine
 10
122.570061
 20
154.45973
 30
0.0
 11
122.570061
 21
154.75973
 31
0.0
  0
LINE
  5
3E5
100
AcDbEntity
  8
ALPHA
100
AcDbLine
 10
118.570061
 20
150.383539
 30
0.0
 11
118.570061
 21
151.05973
 31
0.0
  0
LINE
  5
3E6
100
AcDbEntity
  8
ALPHA
100
AcDbLine
 10
118.866507
 20
151.05973
 30
0.0
 11
118.570061
 21
151.05973
 31
0.0
  0
LINE
  5
3E7
100
AcDbEntity
  8
ALPHA
100
AcDbLine
 10
119.381379
 20
150.648411
 30
0.0
 11
121.821504
 21
148.208286
 31
0.0
  0
LINE
  5
3E8
100
AcDbEntity
  8
ALPHA
100
AcDbLine
 10
119.381379
 20
150.648411
 30
0.0
 11
119.381381
 21
150.648409
 31
0.0
  0
LINE
  5
3E9
100
AcDbEntity
  8
ALPHA
100
AcDbLine
 10
119.043284
 20
150.986506
 30
0.0
 11
119.045724
 21
150.984066
 31
0.0
  0
ARC
  5
3EA
100
AcDbEntity
  8
ALPHA
100
AcDbCircle
 10
118.866507
 20
150.80973
 30
0.0
 40
0.25
100
AcDbArc
 50
45.000004
 51
90.000003
  0
LINE
  5
3EB
100
AcDbEntity
  8
ALPHA
100
AcDbLine
 10
118.870061
 20
156.928062
 30
0.0
 11
118.870061
 21
159.876104
 31
0.0
  0
LINE
  5
3EC
100
AcDbEntity
  8
ALPHA
100
AcDbLine
 10
121.770061
 20
159.080637
 30
0.0
 11
119.170061
 21
159.080637
 31
0.0
  0
ARC
  5
3ED
100
AcDbEntity
  8
ALPHA
100
AcDbCircle
 10
119.170061
 20
155.05973
 30
0.0
 40
0.3
100
AcDbArc
 50
180.0
 51
270.0
  0
LWPOLYLINE
  5
3EE
100
AcDbEntity
  8
ALPHA
100
AcDbPolyline
 90
       10
 70
     0
 43
0.0
 10
119.170061
 20
159.080637
 10
119.117976
 20
159.077146
 10
119.06738
 20
159.066742
 10
119.020083
 20
159.049788
 10
118.97714
 20
159.026605
 10
118.940273
 20
158.998076
 10
118.910212
 20
158.96471
 10
118.888168
 20
158.927786
 10
118.874614
 20
158.888076
 10
118.870061
 20
158.846965
  0
ARC
  5
3FA
100
AcDbEntity
  8
ALPHA
100
AcDbCircle
 10
121.770061
 20
154.55973
 30
0.0
 40
0.2
100
AcDbArc
 50
0.0
 51
90.0
  0
LINE
  5
3FB
100
AcDbEntity
  8
ALPHA
100
AcDbLine
 10
121.970061
 20
160.025776
 30
0.0
 11
121.970061
 21
159.232131
 31
0.0
  0
LINE
  5
3FC
100
AcDbEntity
  8
ALPHA
100
AcDbLine
 10
104.070061
 20
164.35973
 30
0.0
 11
103.070061
 21
164.35973
 31
0.0
  0
LINE
  5
3FD
100
AcDbEntity
  8
ALPHA
100
AcDbLine
 10
104.070061
 20
163.107328
 30
0.0
 11
104.070061
 21
164.35973
 31
0.0
  0
LINE
  5
3FE
100
AcDbEntity
  8
ALPHA
100
AcDbLine
 10
104.070061
 20
160.55973
 30
0.0
 11
104.070061
 21
163.107328
 31
0.0
  0
LINE
  5
3FF
100
AcDbEntity
  8
ALPHA
100
AcDbLine
 10
121.870061
 20
162.282317
 30
0.0
 11
121.870061
 21
162.268395
 31
0.0
  0
LINE
  5
400
100
AcDbEntity
  8
ALPHA
100
AcDbLine
 10
121.870061
 20
162.475864
 30
0.0
 11
121.870061
 21
162.282317
 31
0.0
  0
LINE
  5
401
100
AcDbEntity
  8
ALPHA
100
AcDbLine
 10
121.870061
 20
162.637152
 30
0.0
 11
121.870061
 21
162.475864
 31
0.0
  0
LINE
  5
402
100
AcDbEntity
  8
ALPHA
100
AcDbLine
 10
121.870061
 20
162.798441
 30
0.0
 11
121.870061
 21
162.637152
 31
0.0
  0
LINE
  5
403
100
AcDbEntity
  8
ALPHA
100
AcDbLine
 10
121.870061
 20
162.895214
 30
0.0
 11
121.870061
 21
162.798441
 31
0.0
  0
LINE
  5
404
100
AcDbEntity
  8
ALPHA
100
AcDbLine
 10
121.870061
 20
162.959729
 30
0.0
 11
121.870061
 21
162.895214
 31
0.0
  0
LINE
  5
405
100
AcDbEntity
  8
ALPHA
100
AcDbLine
 10
104.070061
 20
151.05973
 30
0.0
 11
103.207318
 21
151.05973
 31
0.0
  0
LINE
  5
406
100
AcDbEntity
  8
ALPHA
100
AcDbLine
 10
104.070061
 20
144.75973
 30
0.0
 11
103.070061
 21
144.75973
 31
0.0
  0
LINE
  5
407
100
AcDbEntity
  8
ALPHA
100
AcDbLine
 10
104.070061
 20
149.422375
 30
0.0
 11
104.070061
 21
151.05973
 31
0.0
  0
LINE
  5
408
100
AcDbEntity
  8
ALPHA
100
AcDbLine
 10
104.070061
 20
144.75973
 30
0.0
 11
104.070061
 21
149.422375
 31
0.0
  0
LINE
  5
409
100
AcDbEntity
  8
ALPHA
100
AcDbLine
 10
107.670061
 20
162.745011
 30
0.0
 11
107.670061
 21
162.085967
 31
0.0
  0
LINE
  5
40A
100
AcDbEntity
  8
ALPHA
100
AcDbLine
 10
107.670061
 20
164.35973
 30
0.0
 11
107.670061
 21
162.745011
 31
0.0
  0
LINE
  5
40B
100
AcDbEntity
  8
ALPHA
100
AcDbLine
 10
121.670061
 20
162.959729
 30
0.0
 11
121.870061
 21
162.959729
 31
0.0
  0
LINE
  5
40C
100
AcDbEntity
  8
ALPHA
100
AcDbLine
 10
107.670061
 20
147.45973
 30
0.0
 11
115.870061
 21
147.45973
 31
0.0
  0
LINE
  5
40D
100
AcDbEntity
  8
ALPHA
100
AcDbLine
 10
107.670061
 20
151.05973
 30
0.0
 11
115.870061
 21
151.05973
 31
0.0
  0
LINE
  5
40E
100
AcDbEntity
  8
ALPHA
100
AcDbLine
 10
107.670061
 20
151.05973
 30
0.0
 11
107.670061
 21
147.45973
 31
0.0
  0
LINE
  5
40F
100
AcDbEntity
  8
ALPHA
100
AcDbLine
 10
121.770061
 20
154.75973
 30
0.0
 11
119.170061
 21
154.75973
 31
0.0
  0
LINE
  5
410
100
AcDbEntity
  8
ALPHA
100
AcDbLine
 10
118.870061
 20
156.928062
 30
0.0
 11
118.870061
 21
155.05973
 31
0.0
  0
LINE
  5
411
100
AcDbEntity
  8
ALPHA
100
AcDbLine
 10
121.970061
 20
150.55973
 30
0.0
 11
121.970061
 21
148.380954
 31
0.0
  0
LINE
  5
412
100
AcDbEntity
  8
ALPHA
100
AcDbLine
 10
122.670061
 20
151.55973
 30
0.0
 11
121.970061
 21
151.55973
 31
0.0
  0
LINE
  5
413
100
AcDbEntity
  8
ALPHA
100
AcDbLine
 10
121.970061
 20
154.55973
 30
0.0
 11
121.970061
 21
151.55973
 31
0.0
  0
LINE
  5
414
100
AcDbEntity
  8
ALPHA
100
AcDbLine
 10
103.570061
 20
165.65973
 30
0.0
 11
103.570061
 21
164.777821
 31
0.0
  0
LINE
  5
415
100
AcDbEntity
  8
ALPHA
100
AcDbLine
 10
118.570061
 20
147.45973
 30
0.0
 11
121.470061
 21
147.45973
 31
0.0
  0
LINE
  5
416
100
AcDbEntity
  8
ALPHA
100
AcDbLine
 10
103.070061
 20
166.65973
 30
0.0
 11
103.570061
 21
166.65973
 31
0.0
  0
LINE
  5
417
100
AcDbEntity
  8
ALPHA
100
AcDbLine
 10
103.620061
 20
164.75973
 30
0.0
 11
108.870061
 21
164.75973
 31
0.0
  0
LINE
  5
418
100
AcDbEntity
  8
ALPHA
100
AcDbLine
 10
108.870061
 20
164.75973
 30
0.0
 11
108.870061
 21
164.35973
 31
0.0
  0
LINE
  5
419
100
AcDbEntity
  8
ALPHA
100
AcDbLine
 10
118.570061
 20
151.591397
 30
0.0
 11
118.570061
 21
151.05973
 31
0.0
  0
LINE
  5
41A
100
AcDbEntity
  8
ALPHA
100
AcDbLine
 10
118.570061
 20
150.383539
 30
0.0
 11
118.570061
 21
147.45973
 31
0.0
  0
LINE
  5
41B
100
AcDbEntity
  8
ALPHA
100
AcDbLine
 10
103.070061
 20
168.50973
 30
0.0
 11
96.070061
 21
168.50973
 31
0.0
  0
LINE
  5
41C
100
AcDbEntity
  8
ALPHA
100
AcDbLine
 10
103.070061
 20
140.00973
 30
0.0
 11
96.070061
 21
140.00973
 31
0.0
  0
LINE
  5
41D
100
AcDbEntity
  8
ALPHA
100
AcDbLine
 10
103.070061
 20
149.890027
 30
0.0
 11
103.070061
 21
152.654743
 31
0.0
  0
LINE
  5
41E
100
AcDbEntity
  8
ALPHA
100
AcDbLine
 10
103.070061
 20
149.868727
 30
0.0
 11
103.070061
 21
149.890027
 31
0.0
  0
LINE
  5
41F
100
AcDbEntity
  8
ALPHA
100
AcDbLine
 10
103.070061
 20
149.422375
 30
0.0
 11
103.070061
 21
149.868727
 31
0.0
  0
LINE
  5
420
100
AcDbEntity
  8
ALPHA
100
AcDbLine
 10
103.070061
 20
144.75973
 30
0.0
 11
103.070061
 21
149.422375
 31
0.0
  0
LINE
  5
421
100
AcDbEntity
  8
ALPHA
100
AcDbLine
 10
103.070061
 20
142.22973
 30
0.0
 11
103.070061
 21
144.75973
 31
0.0
  0
LINE
  5
422
100
AcDbEntity
  8
ALPHA
100
AcDbLine
 10
103.070061
 20
140.00973
 30
0.0
 11
103.070061
 21
142.22973
 31
0.0
  0
LINE
  5
423
100
AcDbEntity
  8
ALPHA
100
AcDbLine
 10
103.620061
 20
143.75973
 30
0.0
 11
103.070061
 21
142.22973
 31
0.0
  0
LINE
  5
424
100
AcDbEntity
  8
ALPHA
100
AcDbLine
 10
103.620061
 20
164.75973
 30
0.0
 11
103.570061
 21
164.89882
 31
0.0
  0
LINE
  5
425
100
AcDbEntity
  8
ALPHA
100
AcDbLine
 10
121.670061
 20
163.45973
 30
0.0
 11
121.366198
 21
163.763593
 31
0.0
  0
LINE
  5
426
100
AcDbEntity
  8
ALPHA
100
AcDbLine
 10
118.570061
 20
163.35973
 30
0.0
 11
116.270061
 21
163.35973
 31
0.0
  0
LINE
  5
427
100
AcDbEntity
  8
ALPHA
100
AcDbLine
 10
116.670061
 20
151.591397
 30
0.0
 11
116.670061
 21
154.25973
 31
0.0
  0
LINE
  5
428
100
AcDbEntity
  8
ALPHA
100
AcDbLine
 10
120.270061
 20
145.15973
 30
0.0
 11
116.270061
 21
145.15973
 31
0.0
  0
LINE
  5
429
100
AcDbEntity
  8
ALPHA
100
AcDbLine
 10
116.670061
 20
154.25973
 30
0.0
 11
116.670061
 21
156.928062
 31
0.0
  0
LINE
  5
42A
100
AcDbEntity
  8
ALPHA
100
AcDbLine
 10
120.270061
 20
145.15973
 30
0.0
 11
120.270061
 21
145.668455
 31
0.0
  0
LINE
  5
42B
100
AcDbEntity
  8
ALPHA
100
AcDbLine
 10
103.620061
 20
143.75973
 30
0.0
 11
108.870061
 21
143.75973
 31
0.0
  0
LINE
  5
42C
100
AcDbEntity
  8
ALPHA
100
AcDbLine
 10
118.570061
 20
162.085967
 30
0.0
 11
118.570061
 21
160.074366
 31
0.0
  0
LINE
  5
42D
100
AcDbEntity
  8
ALPHA
100
AcDbLine
 10
118.570061
 20
163.75973
 30
0.0
 11
118.570061
 21
162.085967
 31
0.0
  0
LWPOLYLINE
  5
42E
100
AcDbEntity
  8
ALPHA
100
AcDbPolyline
 90
       23
 70
     0
 43
0.0
 10
95.654503
 20
141.405541
 10
95.654503
 20
141.438292
 10
95.654503
 20
141.536378
 10
95.654503
 20
141.699299
 10
95.654503
 20
141.926226
 10
95.654503
 20
142.216001
 10
95.654503
 20
142.567148
 10
95.654503
 20
142.977878
 10
95.654503
 20
143.446098
 10
95.654503
 20
143.969421
 10
95.654503
 20
144.545182
 10
95.654503
 20
145.170445
 10
95.654503
 20
145.842026
 10
95.654503
 20
146.556501
 10
95.654503
 20
147.31023
 10
95.654503
 20
148.099372
 10
95.654503
 20
148.919906
 10
95.654503
 20
149.767651
 10
95.654503
 20
150.638286
 10
95.654503
 20
151.527375
 10
95.654503
 20
152.430388
 10
95.654503
 20
153.342722
 10
95.654503
 20
154.25973
  0
LINE
  5
447
100
AcDbEntity
  8
ALPHA
100
AcDbLine
 10
115.870061
 20
163.75973
 30
0.0
 11
115.870061
 21
162.745011
 31
0.0
  0
LINE
  5
448
100
AcDbEntity
  8
ALPHA
100
AcDbLine
 10
115.870061
 20
162.745011
 30
0.0
 11
115.870061
 21
162.085962
 31
0.0
  0
LINE
  5
449
100
AcDbEntity
  8
ALPHA
100
AcDbLine
 10
115.870061
 20
162.085962
 30
0.0
 11
115.870061
 21
154.25973
 31
0.0
  0
LINE
  5
44A
100
AcDbEntity
  8
ALPHA
100
AcDbLine
 10
115.870061
 20
154.25973
 30
0.0
 11
115.870061
 21
151.05973
 31
0.0
  0
LINE
  5
44B
100
AcDbEntity
  8
ALPHA
100
AcDbLine
 10
96.070061
 20
168.50973
 30
0.0
 11
95.654503
 21
167.113919
 31
0.0
  0
LINE
  5
44C
100
AcDbEntity
  8
ALPHA
100
AcDbLine
 10
115.870061
 20
151.05973
 30
0.0
 11
115.870061
 21
147.45973
 31
0.0
  0
LINE
  5
44D
100
AcDbEntity
  8
ALPHA
100
AcDbLine
 10
96.070061
 20
140.00973
 30
0.0
 11
95.654503
 21
141.405541
 31
0.0
  0
LINE
  5
44E
100
AcDbEntity
  8
ALPHA
100
AcDbLine
 10
115.870061
 20
147.45973
 30
0.0
 11
115.870061
 21
144.75973
 31
0.0
  0
LINE
  5
44F
100
AcDbEntity
  8
ALPHA
100
AcDbLine
 10
121.970061
 20
147.45973
 30
0.0
 11
121.970061
 21
145.880589
 31
0.0
  0
LINE
  5
450
100
AcDbEntity
  8
ALPHA
100
AcDbLine
 10
116.270061
 20
163.35973
 30
0.0
 11
115.870061
 21
163.75973
 31
0.0
  0
LINE
  5
451
100
AcDbEntity
  8
ALPHA
100
AcDbLine
 10
116.270061
 20
145.15973
 30
0.0
 11
115.870061
 21
144.75973
 31
0.0
  0
LINE
  5
452
100
AcDbEntity
  8
ALPHA
100
AcDbLine
 10
121.970061
 20
160.025776
 30
0.0
 11
121.970061
 21
161.971944
 31
0.0
  0
LWPOLYLINE
  5
453
100
AcDbEntity
  8
ALPHA
100
AcDbPolyline
 90
        6
 70
     0
 43
0.0
 10
121.970061
 20
161.971944
 10
121.964836
 20
162.04485
 10
121.949601
 20
162.114685
 10
121.925328
 20
162.179508
 10
121.892627
 20
162.238841
 10
121.852903
 20
162.290864
  0
LINE
  5
45B
100
AcDbEntity
  8
ALPHA
100
AcDbLine
 10
103.070061
 20
166.65973
 30
0.0
 11
103.070061
 21
168.50973
 31
0.0
  0
LINE
  5
45C
100
AcDbEntity
  8
ALPHA
100
AcDbLine
 10
103.070061
 20
166.203312
 30
0.0
 11
103.070061
 21
166.65973
 31
0.0
  0
LINE
  5
45D
100
AcDbEntity
  8
ALPHA
100
AcDbLine
 10
103.070061
 20
164.35973
 30
0.0
 11
103.070061
 21
166.203312
 31
0.0
  0
LINE
  5
45E
100
AcDbEntity
  8
ALPHA
100
AcDbLine
 10
103.070061
 20
163.107328
 30
0.0
 11
103.070061
 21
164.35973
 31
0.0
  0
LINE
  5
45F
100
AcDbEntity
  8
ALPHA
100
AcDbLine
 10
103.070061
 20
162.871402
 30
0.0
 11
103.070061
 21
163.107328
 31
0.0
  0
LINE
  5
460
100
AcDbEntity
  8
ALPHA
100
AcDbLine
 10
103.070061
 20
155.864716
 30
0.0
 11
103.070061
 21
162.871402
 31
0.0
  0
LINE
  5
461
100
AcDbEntity
  8
ALPHA
100
AcDbLine
 10
112.49924
 20
163.75973
 30
0.0
 11
112.49924
 21
164.05973
 31
0.0
  0
LINE
  5
462
100
AcDbEntity
  8
ALPHA
100
AcDbLine
 10
123.170061
 20
151.55973
 30
0.0
 11
123.170061
 21
150.55973
 31
0.0
  0
LINE
  5
463
100
AcDbEntity
  8
ALPHA
100
AcDbLine
 10
123.170061
 20
150.55973
 30
0.0
 11
122.670061
 21
150.55973
 31
0.0
  0
LINE
  5
464
100
AcDbEntity
  8
ALPHA
100
AcDbLine
 10
119.381381
 20
150.648409
 30
0.0
 11
119.338585
 21
150.691206
 31
0.0
  0
LINE
  5
465
100
AcDbEntity
  8
ALPHA
100
AcDbLine
 10
119.338584
 20
150.691206
 30
0.0
 11
119.381379
 21
150.648411
 31
0.0
  0
LINE
  5
466
100
AcDbEntity
  8
ALPHA
100
AcDbLine
 10
119.328194
 20
150.701598
 30
0.0
 11
119.284689
 21
150.745102
 31
0.0
  0
LINE
  5
467
100
AcDbEntity
  8
ALPHA
100
AcDbLine
 10
119.328193
 20
150.701598
 30
0.0
 11
119.338584
 21
150.691206
 31
0.0
  0
LINE
  5
468
100
AcDbEntity
  8
ALPHA
100
AcDbLine
 10
119.284689
 20
150.745101
 30
0.0
 11
119.328193
 21
150.701598
 31
0.0
  0
LWPOLYLINE
  5
469
100
AcDbEntity
  8
ALPHA
100
AcDbPolyline
 90
        3
 70
     0
 43
0.0
 10
119.254578
 20
150.775214
 10
119.241263
 20
150.788528
 10
119.236022
 20
150.793769
  0
LINE
  5
46E
100
AcDbEntity
  8
ALPHA
100
AcDbLine
 10
119.254578
 20
150.775213
 30
0.0
 11
119.284689
 21
150.745101
 31
0.0
  0
LINE
  5
46F
100
AcDbEntity
  8
ALPHA
100
AcDbLine
 10
119.236022
 20
150.793768
 30
0.0
 11
119.254578
 21
150.775213
 31
0.0
  0
LWPOLYLINE
  5
470
100
AcDbEntity
  8
ALPHA
100
AcDbPolyline
 90
        3
 70
     0
 43
0.0
 10
119.213612
 20
150.81618
 10
119.199569
 20
150.830223
 10
119.195538
 20
150.834253
  0
LINE
  5
475
100
AcDbEntity
  8
ALPHA
100
AcDbLine
 10
119.213612
 20
150.816178
 30
0.0
 11
119.236022
 21
150.793768
 31
0.0
  0
LINE
  5
476
100
AcDbEntity
  8
ALPHA
100
AcDbLine
 10
119.195539
 20
150.834251
 30
0.0
 11
119.213612
 21
150.816178
 31
0.0
  0
LINE
  5
477
100
AcDbEntity
  8
ALPHA
100
AcDbLine
 10
119.178366
 20
150.851426
 30
0.0
 11
119.16044
 21
150.86935
 31
0.0
  0
LINE
  5
478
100
AcDbEntity
  8
ALPHA
100
AcDbLine
 10
119.178368
 20
150.851423
 30
0.0
 11
119.195539
 21
150.834251
 31
0.0
  0
LINE
  5
479
100
AcDbEntity
  8
ALPHA
100
AcDbLine
 10
119.160444
 20
150.869346
 30
0.0
 11
119.178368
 21
150.851423
 31
0.0
  0
LINE
  5
47A
100
AcDbEntity
  8
ALPHA
100
AcDbLine
 10
119.147304
 20
150.882488
 30
0.0
 11
119.130416
 21
150.899375
 31
0.0
  0
LINE
  5
47B
100
AcDbEntity
  8
ALPHA
100
AcDbLine
 10
119.147308
 20
150.882482
 30
0.0
 11
119.160444
 21
150.869346
 31
0.0
  0
LINE
  5
47C
100
AcDbEntity
  8
ALPHA
100
AcDbLine
 10
119.130422
 20
150.899368
 30
0.0
 11
119.147308
 21
150.882482
 31
0.0
  0
LINE
  5
47D
100
AcDbEntity
  8
ALPHA
100
AcDbLine
 10
119.118661
 20
150.91113
 30
0.0
 11
119.104627
 21
150.925164
 31
0.0
  0
LINE
  5
47E
100
AcDbEntity
  8
ALPHA
100
AcDbLine
 10
119.118669
 20
150.911121
 30
0.0
 11
119.130422
 21
150.899368
 31
0.0
  0
LINE
  5
47F
100
AcDbEntity
  8
ALPHA
100
AcDbLine
 10
119.104634
 20
150.925156
 30
0.0
 11
119.118669
 21
150.911121
 31
0.0
  0
LINE
  5
480
100
AcDbEntity
  8
ALPHA
100
AcDbLine
 10
119.09367
 20
150.936122
 30
0.0
 11
119.082913
 21
150.946878
 31
0.0
  0
LINE
  5
481
100
AcDbEntity
  8
ALPHA
100
AcDbLine
 10
119.093683
 20
150.936107
 30
0.0
 11
119.104634
 21
150.925156
 31
0.0
  0
LINE
  5
482
100
AcDbEntity
  8
ALPHA
100
AcDbLine
 10
119.082922
 20
150.946868
 30
0.0
 11
119.093683
 21
150.936107
 31
0.0
  0
LINE
  5
483
100
AcDbEntity
  8
ALPHA
100
AcDbLine
 10
119.073134
 20
150.956656
 30
0.0
 11
119.065689
 21
150.964102
 31
0.0
  0
LINE
  5
484
100
AcDbEntity
  8
ALPHA
100
AcDbLine
 10
119.07315
 20
150.95664
 30
0.0
 11
119.082922
 21
150.946868
 31
0.0
  0
LINE
  5
485
100
AcDbEntity
  8
ALPHA
100
AcDbLine
 10
119.065693
 20
150.964098
 30
0.0
 11
119.07315
 21
150.95664
 31
0.0
  0
LINE
  5
486
100
AcDbEntity
  8
ALPHA
100
AcDbLine
 10
119.056668
 20
150.973121
 30
0.0
 11
119.052933
 21
150.976857
 31
0.0
  0
LINE
  5
487
100
AcDbEntity
  8
ALPHA
100
AcDbLine
 10
119.06377
 20
150.96602
 30
0.0
 11
119.065693
 21
150.964098
 31
0.0
  0
LINE
  5
488
100
AcDbEntity
  8
ALPHA
100
AcDbLine
 10
119.056657
 20
150.973134
 30
0.0
 11
119.06377
 21
150.96602
 31
0.0
  0
LINE
  5
489
100
AcDbEntity
  8
ALPHA
100
AcDbLine
 10
119.052902
 20
150.976889
 30
0.0
 11
119.056657
 21
150.973134
 31
0.0
  0
LINE
  5
48A
100
AcDbEntity
  8
ALPHA
100
AcDbLine
 10
119.045844
 20
150.983946
 30
0.0
 11
119.045844
 21
150.983946
 31
0.0
  0
LINE
  5
48B
100
AcDbEntity
  8
ALPHA
100
AcDbLine
 10
119.045724
 20
150.984066
 30
0.0
 11
119.052902
 21
150.976889
 31
0.0
  0
LINE
  5
48C
100
AcDbEntity
  8
ALPHA
100
AcDbLine
 10
119.045724
 20
150.984066
 30
0.0
 11
119.045724
 21
150.984066
 31
0.0
  0
LINE
  5
48D
100
AcDbEntity
  8
ALPHA
100
AcDbLine
 10
121.970061
 20
160.025776
 30
0.0
 11
121.970061
 21
159.232131
 31
0.0
  0
LWPOLYLINE
  5
48E
100
AcDbEntity
  8
ALPHA
100
AcDbPolyline
 90
        9
 70
     0
 43
0.0
 10
121.970061
 20
159.232131
 10
121.966218
 20
159.202847
 10
121.954839
 20
159.174566
 10
121.93636
 20
159.148394
 10
121.91149
 20
159.125369
 10
121.881183
 20
159.106412
 10
121.846603
 20
159.092291
 10
121.809082
 20
159.08358
 10
121.770061
 20
159.080637
  0
LINE
  5
499
100
AcDbEntity
  8
ALPHA
100
AcDbLine
 10
103.070061
 20
166.65973
 30
0.0
 11
103.570061
 21
166.65973
 31
0.0
  0
LINE
  5
49A
100
AcDbEntity
  8
ALPHA
100
AcDbLine
 10
103.570061
 20
166.65973
 30
0.0
 11
103.570061
 21
165.65973
 31
0.0
  0
LINE
  5
49B
100
AcDbEntity
  8
ALPHA
100
AcDbLine
 10
92.870061
 20
168.50973
 30
0.0
 11
92.870061
 21
168.454799
 31
0.0
  0
LINE
  5
49C
100
AcDbEntity
  8
ALPHA
100
AcDbLine
 10
94.34337
 20
168.548309
 30
0.0
 11
94.370061
 21
168.549008
 31
0.0
  0
LINE
  5
49D
100
AcDbEntity
  8
ALPHA
100
AcDbLine
 10
92.870061
 20
168.50973
 30
0.0
 11
94.34337
 21
168.548309
 31
0.0
  0
LINE
  5
49E
100
AcDbEntity
  8
ALPHA
100
AcDbLine
 10
94.370061
 20
168.509725
 30
0.0
 11
94.370061
 21
168.474599
 31
0.0
  0
LINE
  5
49F
100
AcDbEntity
  8
ALPHA
100
AcDbLine
 10
94.370061
 20
168.549008
 30
0.0
 11
94.370061
 21
168.509725
 31
0.0
  0
LINE
  5
4A0
100
AcDbEntity
  8
ALPHA
100
AcDbLine
 10
92.84296
 20
168.50902
 30
0.0
 11
90.772352
 21
168.454799
 31
0.0
  0
LINE
  5
4A1
100
AcDbEntity
  8
ALPHA
100
AcDbLine
 10
92.870061
 20
168.50973
 30
0.0
 11
92.84296
 21
168.50902
 31
0.0
  0
DIMENSION
  5
4A2
100
AcDbEntity
  8
COTATION1
100
AcDbDimension
  2
*D2
 10
121.970061
 20
100.0
 30
0.0
 11
100.565034
 21
102.25
 31
0.0
  3
SC_STAND
100
AcDbAlignedDimension
 13
79.160007
 23
153.00973
 33
0.0
 14
121.970061
 24
145.880589
 34
0.0
100
AcDbRotatedDimension
  0
DIMENSION
  5
4B4
100
AcDbEntity
  8
COTATION1
100
AcDbDimension
  2
*D3
 10
121.970061
 20
110.0
 30
0.0
 11
109.020061
 21
112.25
 31
0.0
  3
SC_STAND
100
AcDbAlignedDimension
 13
96.070061
 23
140.00973
 33
0.0
 14
121.970061
 24
145.818089
 34
0.0
100
AcDbRotatedDimension
  0
DIMENSION
  5
4C1
100
AcDbEntity
  8
COTATION1
100
AcDbDimension
  2
*D4
 10
103.070061
 20
120.0
 30
0.0
 11
99.570061
 21
122.25
 31
0.0
  3
SC_STAND
100
AcDbAlignedDimension
 13
96.070061
 23
139.94723
 33
0.0
 14
103.070061
 24
140.00973
 34
0.0
100
AcDbRotatedDimension
  0
DIMENSION
  5
4D0
100
AcDbEntity
  8
COTATION1
100
AcDbDimension
  2
*D5
 10
140.0
 20
140.00973
 30
0.0
 11
137.75
 21
154.25973
 31
0.0
  3
SC_STAND
100
AcDbAlignedDimension
 13
103.070061
 23
168.50973
 33
0.0
 14
103.070061
 24
140.00973
 34
0.0
 50
90.0
100
AcDbRotatedDimension
  0
DIMENSION
  5
4DD
100
AcDbEntity
  8
COTATION1
100
AcDbDimension
  2
*D6
 10
132.5
 20
143.75973
 30
0.0
 11
130.25
 21
154.25973
 31
0.0
  3
SC_STAND
100
AcDbAlignedDimension
 13
108.870061
 23
164.75973
 33
0.0
 14
108.870061
 24
143.75973
 34
0.0
 50
90.0
100
AcDbRotatedDimension
  0
INSERT
  5
53A
100
AcDbEntity
  8
COTATION1
100
AcDbBlockReference
  2
SCH_ISO
 10
0.0
 20
0.0
 30
0.0
  0
VIEWPORT
  5
4ED
100
AcDbEntity
 67
     1
  8
0
100
AcDbViewport
 10
251.108558
 20
148.5
 30
0.0
 40
8035.473851
 41
4752.0
 68
    -1
 69
     1
1001
ACAD
1000
MVIEW
1002
{
1070
    16
1010
0.0
1020
0.0
1030
0.0
1010
0.0
1020
0.0
1030
1.0
1040
0.0
1040
4752.0
1040
251.108558
1040
148.5
1040
50.0
1040
0.0
1040
0.0
1070
     0
1070
   100
1070
     1
1070
     1
1070
     0
1070
     0
1070
     0
1070
     0
1040
0.0
1040
0.0
1040
0.0
1040
1.0
1040
1.0
1040
0.0
1040
0.0
1070
     0
1002
{
1002
}
1002
}
  0
ENDSEC
  0
SECTION
  2
OBJECTS
  0
DICTIONARY
  5
87A
100
AcDbDictionary
  3
ACAD_GROUP
350
87B
  3
ACAD_MLINESTYLE
350
888
  3
ACDBVARIABLEDICTIONARY
350
8CA
  0
DICTIONARY
  5
87B
102
{ACAD_REACTORS
330
87A
102
}
100
AcDbDictionary
  0
DICTIONARY
  5
888
102
{ACAD_REACTORS
330
87A
102
}
100
AcDbDictionary
  3
STANDARD
350
889
  0
DICTIONARY
  5
8CA
102
{ACAD_REACTORS
330
87A
102
}
100
AcDbDictionary
  3
DIMADEC
350
8CB
  0
MLINESTYLE
  5
889
102
{ACAD_REACTORS
330
888
102
}
100
AcDbMlineStyle
  2
STANDARD
 70
     0
  3

 62
   256
 51
90.0
 52
90.0
 71
     2
 49
0.5
 62
   256
  6
BYLAYER
 49
-0.5
 62
   256
  6
BYLAYER
  0
DICTIONARYVAR
  5
8CB
102
{ACAD_REACTORS
330
8CA
102
}
100
DictionaryVariables
280
     0
  1
0
  0
ENDSEC
  0
EOF
