  0
SECTION
  2
HEADER
  9
$ACADVER
  1
AC1014
  9
$ACADMAINTVER
 70
     0
  9
$DWGCODEPAGE
  3
ANSI_1252
  9
$INSBASE
 10
93.894301
 20
236.06014
 30
0.0
  9
$EXTMIN
 10
48.859864
 20
9.145295
 30
0.0
  9
$EXTMAX
 10
182.833558
 20
150.063492
 30
0.0
  9
$LIMMIN
 10
0.0
 20
0.0
  9
$LIMMAX
 10
210.0
 20
297.0
  9
$ORTHOMODE
 70
     1
  9
$REGENMODE
 70
     1
  9
$FILLMODE
 70
     1
  9
$QTEXTMODE
 70
     0
  9
$MIRRTEXT
 70
     0
  9
$DRAGMODE
 70
     1
  9
$LTSCALE
 40
7.0
  9
$OSMODE
 70
  4095
  9
$ATTMODE
 70
     1
  9
$TEXTSIZE
 40
2.5
  9
$TRACEWID
 40
0.05
  9
$TEXTSTYLE
  7
STANDARD
  9
$CLAYER
  8
COTATION1
  9
$CELTYPE
  6
BYLAYER
  9
$CECOLOR
 62
   256
  9
$CELTSCALE
 40
1.0
  9
$DELOBJ
 70
     1
  9
$DISPSILH
 70
     0
  9
$DIMSCALE
 40
1.0
  9
$DIMASZ
 40
3.0
  9
$DIMEXO
 40
0.0625
  9
$DIMDLI
 40
0.38
  9
$DIMRND
 40
0.01
  9
$DIMDLE
 40
0.0
  9
$DIMEXE
 40
0.18
  9
$DIMTP
 40
0.0
  9
$DIMTM
 40
0.0
  9
$DIMTXT
 40
2.5
  9
$DIMCEN
 40
0.09
  9
$DIMTSZ
 40
0.0
  9
$DIMTOL
 70
     0
  9
$DIMLIM
 70
     0
  9
$DIMTIH
 70
     0
  9
$DIMTOH
 70
     0
  9
$DIMSE1
 70
     0
  9
$DIMSE2
 70
     0
  9
$DIMTAD
 70
     1
  9
$DIMZIN
 70
    12
  9
$DIMBLK
  1

  9
$DIMASO
 70
     1
  9
$DIMSHO
 70
     0
  9
$DIMPOST
  1

  9
$DIMAPOST
  1

  9
$DIMALT
 70
     0
  9
$DIMALTD
 70
     2
  9
$DIMALTF
 40
25.4
  9
$DIMLFAC
 40
1.0
  9
$DIMTOFL
 70
     1
  9
$DIMTVP
 40
0.0
  9
$DIMTIX
 70
     0
  9
$DIMSOXD
 70
     0
  9
$DIMSAH
 70
     0
  9
$DIMBLK1
  1

  9
$DIMBLK2
  1

  9
$DIMSTYLE
  2
SC_STAND
  9
$DIMCLRD
 70
     0
  9
$DIMCLRE
 70
     0
  9
$DIMCLRT
 70
     0
  9
$DIMTFAC
 40
1.0
  9
$DIMGAP
 40
1.0
  9
$DIMJUST
 70
     0
  9
$DIMSD1
 70
     0
  9
$DIMSD2
 70
     0
  9
$DIMTOLJ
 70
     1
  9
$DIMTZIN
 70
    12
  9
$DIMALTZ
 70
    12
  9
$DIMALTTZ
 70
    12
  9
$DIMFIT
 70
     5
  9
$DIMUPT
 70
     0
  9
$DIMUNIT
 70
     2
  9
$DIMDEC
 70
     3
  9
$DIMTDEC
 70
     3
  9
$DIMALTU
 70
     2
  9
$DIMALTTD
 70
     2
  9
$DIMTXSTY
  7
STANDARD
  9
$DIMAUNIT
 70
     0
  9
$LUNITS
 70
     2
  9
$LUPREC
 70
     3
  9
$SKETCHINC
 40
0.1
  9
$FILLETRAD
 40
0.0625
  9
$AUNITS
 70
     0
  9
$AUPREC
 70
     0
  9
$MENU
  1
ACAD
  9
$ELEVATION
 40
0.0
  9
$PELEVATION
 40
0.0
  9
$THICKNESS
 40
0.0
  9
$LIMCHECK
 70
     0
  9
$BLIPMODE
 70
     1
  9
$CHAMFERA
 40
0.0
  9
$CHAMFERB
 40
0.0
  9
$CHAMFERC
 40
0.0
  9
$CHAMFERD
 40
0.0
  9
$SKPOLY
 70
     0
  9
$TDCREATE
 40
2450953.590960648
  9
$TDUPDATE
 40
2453531.463508391
  9
$TDINDWG
 40
0.0053158218
  9
$TDUSRTIMER
 40
0.0053158218
  9
$USRTIMER
 70
     1
  9
$ANGBASE
 50
0.0
  9
$ANGDIR
 70
     0
  9
$PDMODE
 70
     0
  9
$PDSIZE
 40
0.0
  9
$PLINEWID
 40
0.0
  9
$COORDS
 70
     0
  9
$SPLFRAME
 70
     0
  9
$SPLINETYPE
 70
     6
  9
$SPLINESEGS
 70
     8
  9
$ATTDIA
 70
     0
  9
$ATTREQ
 70
     1
  9
$HANDLING
 70
     1
  9
$HANDSEED
  5
1D34
  9
$SURFTAB1
 70
     6
  9
$SURFTAB2
 70
     6
  9
$SURFTYPE
 70
     6
  9
$SURFU
 70
     6
  9
$SURFV
 70
     6
  9
$UCSNAME
  2

  9
$UCSORG
 10
0.0
 20
0.0
 30
0.0
  9
$UCSXDIR
 10
1.0
 20
0.0
 30
0.0
  9
$UCSYDIR
 10
0.0
 20
1.0
 30
0.0
  9
$PUCSNAME
  2

  9
$PUCSORG
 10
0.0
 20
0.0
 30
0.0
  9
$PUCSXDIR
 10
1.0
 20
0.0
 30
0.0
  9
$PUCSYDIR
 10
0.0
 20
1.0
 30
0.0
  9
$USERI1
 70
     0
  9
$USERI2
 70
     0
  9
$USERI3
 70
     0
  9
$USERI4
 70
     0
  9
$USERI5
 70
     0
  9
$USERR1
 40
0.0
  9
$USERR2
 40
0.0
  9
$USERR3
 40
0.0
  9
$USERR4
 40
0.0
  9
$USERR5
 40
0.0
  9
$WORLDVIEW
 70
     1
  9
$SHADEDGE
 70
     3
  9
$SHADEDIF
 70
    70
  9
$TILEMODE
 70
     1
  9
$MAXACTVP
 70
    32
  9
$PINSBASE
 10
0.0
 20
0.0
 30
0.0
  9
$PLIMCHECK
 70
     0
  9
$PEXTMIN
 10
-3.174999
 20
-3.175
 30
0.0
  9
$PEXTMAX
 10
203.812116
 20
370.276807
 30
0.0
  9
$PLIMMIN
 10
-3.175
 20
-3.175
  9
$PLIMMAX
 10
203.812115
 20
370.276807
  9
$UNITMODE
 70
     0
  9
$VISRETAIN
 70
     0
  9
$PLINEGEN
 70
     0
  9
$PSLTSCALE
 70
     1
  9
$TREEDEPTH
 70
  3020
  9
$PICKSTYLE
 70
     1
  9
$CMLSTYLE
  2
STANDARD
  9
$CMLJUST
 70
     0
  9
$CMLSCALE
 40
1.0
  9
$PROXYGRAPHICS
 70
     1
  9
$MEASUREMENT
 70
     0
  0
ENDSEC
  0
SECTION
  2
CLASSES
  0
CLASS
  1
DICTIONARYVAR
  2
AcDbDictionaryVar
  3
"AutoCAD"
 90
        0
280
     0
281
     0
  0
CLASS
  1
HATCH
  2
AcDbHatch
  3
"ACAD_SEDONA"
 90
        0
280
     0
281
     1
  0
ENDSEC
  0
SECTION
  2
TABLES
  0
TABLE
  2
VPORT
  5
F4
100
AcDbSymbolTable
 70
     3
  0
VPORT
  5
1D33
100
AcDbSymbolTableRecord
100
AcDbViewportTableRecord
  2
*ACTIVE
 70
     0
 10
0.0
 20
0.0
 11
1.0
 21
1.0
 12
115.846711
 22
79.604394
 13
0.0
 23
0.0
 14
1.0
 24
1.0
 15
10.0
 25
10.0
 16
0.0
 26
0.0
 36
1.0
 17
0.0
 27
0.0
 37
0.0
 40
142.020556
 41
1.643603
 42
50.0
 43
0.0
 44
0.0
 50
0.0
 51
0.0
 71
     0
 72
   100
 73
     1
 74
     1
 75
     0
 76
     1
 77
     0
 78
     0
  0
ENDTAB
  0
TABLE
  2
LTYPE
  5
F1
100
AcDbSymbolTable
 70
     5
  0
LTYPE
  5
FD
100
AcDbSymbolTableRecord
100
AcDbLinetypeTableRecord
  2
BYBLOCK
 70
     0
  3

 72
    65
 73
     0
 40
0.0
  0
LTYPE
  5
FE
100
AcDbSymbolTableRecord
100
AcDbLinetypeTableRecord
  2
BYLAYER
 70
     0
  3

 72
    65
 73
     0
 40
0.0
  0
LTYPE
  5
FF
100
AcDbSymbolTableRecord
100
AcDbLinetypeTableRecord
  2
CONTINUOUS
 70
     0
  3
Solid line
 72
    65
 73
     0
 40
0.0
  0
ENDTAB
  0
TABLE
  2
LAYER
  5
EE
100
AcDbSymbolTable
 70
     5
  0
LAYER
  5
FA
100
AcDbSymbolTableRecord
100
AcDbLayerTableRecord
  2
0
 70
     0
 62
     7
  6
CONTINUOUS
  0
LAYER
  5
12C
100
AcDbSymbolTableRecord
100
AcDbLayerTableRecord
  2
ALPHA
 70
     0
 62
   255
  6
CONTINUOUS
  0
LAYER
  5
12F
100
AcDbSymbolTableRecord
100
AcDbLayerTableRecord
  2
COTATION1
 70
     0
 62
     2
  6
CONTINUOUS
  0
LAYER
  5
13B
100
AcDbSymbolTableRecord
100
AcDbLayerTableRecord
  2
ASHADE
 70
     0
 62
     7
  6
CONTINUOUS
  0
LAYER
  5
13E
100
AcDbSymbolTableRecord
100
AcDbLayerTableRecord
  2
DEFPOINTS
 70
     0
 62
     7
  6
CONTINUOUS
  0
ENDTAB
  0
TABLE
  2
STYLE
  5
EF
100
AcDbSymbolTable
 70
     2
  0
STYLE
  5
FB
100
AcDbSymbolTableRecord
100
AcDbTextStyleTableRecord
  2
STANDARD
 70
     0
 40
0.0
 41
1.0
 50
0.0
 71
     0
 42
2.5
  3
txt
  4

  0
ENDTAB
  0
TABLE
  2
VIEW
  5
F2
100
AcDbSymbolTable
 70
     0
  0
ENDTAB
  0
TABLE
  2
UCS
  5
F3
100
AcDbSymbolTable
 70
     0
  0
ENDTAB
  0
TABLE
  2
APPID
  5
F5
100
AcDbSymbolTable
 70
     3
  0
APPID
  5
FC
100
AcDbSymbolTableRecord
100
AcDbRegAppTableRecord
  2
ACAD
 70
     0
  0
APPID
  5
127
100
AcDbSymbolTableRecord
100
AcDbRegAppTableRecord
  2
AVE_RENDER
 70
     0
  0
APPID
  5
128
100
AcDbSymbolTableRecord
100
AcDbRegAppTableRecord
  2
AVE_MATERIAL
 70
     0
  0
ENDTAB
  0
TABLE
  2
DIMSTYLE
  5
F6
100
AcDbSymbolTable
 70
     2
  0
DIMSTYLE
105
129
100
AcDbSymbolTableRecord
100
AcDbDimStyleTableRecord
  2
STANDARD
 70
     0
  3

  4

  5

  6

  7

 40
1.0
 41
0.18
 42
0.0625
 43
0.38
 44
0.18
 45
0.0
 46
0.0
 47
0.0
 48
0.0
140
0.18
141
0.09
142
0.0
143
25.4
144
1.0
145
0.0
146
1.0
147
0.09
 71
     0
 72
     0
 73
     1
 74
     1
 75
     0
 76
     0
 77
     0
 78
     0
170
     0
171
     2
172
     0
173
     0
174
     0
175
     0
176
     0
177
     0
178
     0
270
     2
271
     3
272
     3
273
     2
274
     2
340
FB
275
     0
280
     0
281
     0
282
     0
283
     1
284
    12
285
    12
286
    12
287
     5
288
     0
  0
DIMSTYLE
105
12A
102
{ACAD_REACTORS
330
1D05
102
}
100
AcDbSymbolTableRecord
100
AcDbDimStyleTableRecord
  2
SC_STAND
 70
     0
  3

  4

  5

  6

  7

 40
1.0
 41
3.0
 42
0.0625
 43
0.38
 44
0.18
 45
0.01
 46
0.0
 47
0.0
 48
0.0
140
2.5
141
0.09
142
0.0
143
25.4
144
1.0
145
0.0
146
1.0
147
1.0
 71
     0
 72
     0
 73
     0
 74
     0
 75
     0
 76
     0
 77
     1
 78
    12
170
     0
171
     2
172
     1
173
     0
174
     0
175
     0
176
     0
177
     0
178
     0
270
     2
271
     3
272
     3
273
     2
274
     2
340
FB
275
     0
280
     0
281
     0
282
     0
283
     1
284
    12
285
    12
286
    12
287
     5
288
     0
  0
ENDTAB
  0
TABLE
  2
BLOCK_RECORD
  5
ED
100
AcDbSymbolTable
 70
    10
  0
BLOCK_RECORD
  5
103
100
AcDbSymbolTableRecord
100
AcDbBlockTableRecord
  2
*MODEL_SPACE
  0
BLOCK_RECORD
  5
100
100
AcDbSymbolTableRecord
100
AcDbBlockTableRecord
  2
*PAPER_SPACE
  0
BLOCK_RECORD
  5
108
100
AcDbSymbolTableRecord
100
AcDbBlockTableRecord
  2
AVE_RENDER
  0
BLOCK_RECORD
  5
109
100
AcDbSymbolTableRecord
100
AcDbBlockTableRecord
  2
AVE_GLOBAL
  0
BLOCK_RECORD
  5
10A
100
AcDbSymbolTableRecord
100
AcDbBlockTableRecord
  2
SCH_IS
  0
BLOCK_RECORD
  5
1CF9
100
AcDbSymbolTableRecord
100
AcDbBlockTableRecord
  2
*D9
  0
ENDTAB
  0
ENDSEC
  0
SECTION
  2
BLOCKS
  0
BLOCK
  5
141
100
AcDbEntity
  8
0
100
AcDbBlockBegin
  2
*MODEL_SPACE
 70
     0
 10
0.0
 20
0.0
 30
0.0
  3
*MODEL_SPACE
  1

  0
ENDBLK
  5
142
100
AcDbEntity
  8
0
100
AcDbBlockEnd
  0
BLOCK
  5
13F
100
AcDbEntity
 67
     1
  8
0
100
AcDbBlockBegin
  2
*PAPER_SPACE
 70
     0
 10
0.0
 20
0.0
 30
0.0
  3
*PAPER_SPACE
  1

  0
ENDBLK
  5
140
100
AcDbEntity
 67
     1
  8
0
100
AcDbBlockEnd
  0
BLOCK
  5
8D
100
AcDbEntity
  8
0
100
AcDbBlockBegin
  2
AVE_RENDER
 70
     0
 10
0.0
 20
0.0
 30
0.0
  3
AVE_RENDER
  1
AVE_RENDER
  0
ENDBLK
  5
8E
100
AcDbEntity
  8
0
100
AcDbBlockEnd
  0
BLOCK
  5
90
100
AcDbEntity
  8
0
100
AcDbBlockBegin
  2
AVE_GLOBAL
 70
     0
 10
0.0
 20
0.0
 30
0.0
  3
AVE_GLOBAL
  1
AVE_GLOBAL
  0
ENDBLK
  5
91
100
AcDbEntity
  8
0
100
AcDbBlockEnd
  0
BLOCK
  5
C9
100
AcDbEntity
  8
0
100
AcDbBlockBegin
  2
SCH_IS
 70
     0
 10
0.0
 20
0.0
 30
0.0
  3
SCH_IS
  1

  0
INSERT
  5
C0
100
AcDbEntity
  8
ASHADE
 62
     1
100
AcDbBlockReference
  2
AVE_RENDER
 10
0.0
 20
0.0
 30
0.0
1001
AVE_RENDER
1002
{
1070
     6
1000
Pref
1070
    50
1070
    20
1070
     1
1070
     0
1000

1070
    10
1070
     1
1070
    30
1040
25.4
1070
     1
1040
0.3
1040
0.7
1040
0.0
1040
10.0
1010
-1.0
1020
-1.0
1030
-1.0
1040
0.3
1070
    49
1070
     0
1070
     0
1010
1.0
1020
1.0
1030
1.0
1040
45.0
1070
     1
1070
     0
1000
WCS
1040
0.0
1002
}
  0
INSERT
  5
C1
100
AcDbEntity
  8
ASHADE
 62
     3
100
AcDbBlockReference
  2
AVE_RENDER
 10
0.0
 20
0.0
 30
0.0
1001
AVE_RENDER
1002
{
1070
     0
1000
Full Opt
1070
     0
1070
     1
1070
     1
1070
     1
1070
     0
1070
     0
1070
     0
1070
     1
1070
     1
1040
0.0001
1040
0.0001
1002
}
  0
INSERT
  5
C2
100
AcDbEntity
  8
ASHADE
 62
     4
100
AcDbBlockReference
  2
AVE_RENDER
 10
0.0
 20
0.0
 30
0.0
1001
AVE_RENDER
1002
{
1070
     0
1000
Quick Opt
1070
     0
1070
     1
1070
     1
1070
     1
1070
     0
1070
     0
1070
     1
1002
}
  0
INSERT
  5
C3
100
AcDbEntity
  8
ASHADE
 62
     5
100
AcDbBlockReference
  2
AVE_RENDER
 10
0.0
 20
0.0
 30
0.0
1001
AVE_RENDER
1002
{
1070
     1
1000
Scanl Opt
1070
     2
1070
     0
1070
     2
1040
2.0
1040
4.0
1070
     0
1070
     1
1070
     0
1040
0.03
1002
}
  0
INSERT
  5
C4
100
AcDbEntity
  8
ASHADE
 62
     6
100
AcDbBlockReference
  2
AVE_RENDER
 10
0.0
 20
0.0
 30
0.0
1001
AVE_RENDER
1002
{
1070
     2
1000
Raytr Opt
1070
     2
1070
     0
1070
     2
1040
2.0
1040
4.0
1070
     0
1070
     1
1070
     1
1040
0.03
1070
     3
1040
0.03
1002
}
  0
INSERT
  5
C5
100
AcDbEntity
  8
ASHADE
 62
     7
100
AcDbBlockReference
  2
AVE_RENDER
 10
0.0
 20
0.0
 30
0.0
1001
AVE_RENDER
1002
{
1070
     0
1000
RFile Opt
1070
     5
1070
   640
1070
   480
1070
 10000
1070
     3
1070
    32
1070
    24
1070
     0
1070
     0
1070
     0
1070
     1
1070
     0
1070
     0
1070
     0
1002
}
  0
INSERT
  5
C6
100
AcDbEntity
  8
ASHADE
 62
     8
100
AcDbBlockReference
  2
AVE_RENDER
 10
0.0
 20
0.0
 30
0.0
1001
AVE_RENDER
1002
{
1070
     0
1000
Fog Opt
1070
     0
1070
     0
1040
0.0
1040
1.0
1040
0.0
1040
1.0
1010
0.5
1020
0.5
1030
0.5
1002
}
  0
INSERT
  5
C7
100
AcDbEntity
  8
ASHADE
 62
     9
100
AcDbBlockReference
  2
AVE_RENDER
 10
0.0
 20
0.0
 30
0.0
1001
AVE_RENDER
1002
{
1070
     0
1000
BG Opt
1070
     0
1070
     1
1010
0.0
1020
0.0
1030
0.0
1010
1.0
1020
0.0
1030
0.0
1010
0.0
1020
1.0
1030
0.0
1010
0.0
1020
0.0
1030
1.0
1040
0.5
1040
0.33
1040
0.0
1000

1070
     1
1000

1070
     1
1070
     1
1040
1.0
1040
1.0
1040
0.0
1040
0.0
1070
     0
1002
}
  0
INSERT
  5
C8
100
AcDbEntity
  8
ASHADE
 62
     1
100
AcDbBlockReference
  2
AVE_GLOBAL
 10
0.0
 20
0.0
 30
0.0
1001
AVE_MATERIAL
1002
{
1000
*GLOBAL*
1000
1
1000
Finition globale.
1002
{
1002
}
1002
{
1070
    63
1002
{
1002
{
1010
-1.0
1020
-1.0
1030
-1.0
1002
}
1040
0.1
1000

1040
0.0
1002
{
1002
}
1040
0.0
1002
{
1002
}
1040
0.0
1002
}
1002
{
1002
{
1010
-1.0
1020
-1.0
1030
-1.0
1002
}
1040
0.7
1000

1040
0.0
1002
{
1002
}
1040
0.0
1002
{
1002
}
1040
0.0
1002
}
1002
{
1002
{
1010
-1.0
1020
-1.0
1030
-1.0
1002
}
1040
0.2
1000

1040
0.0
1002
{
1002
}
1040
0.0
1002
{
1002
}
1040
0.0
1002
}
1002
{
1070
     0
1002
{
1070
     1
1002
{
1040
1.0
1040
1.0
1000

1040
0.0
1002
{
1002
}
1040
0.0
1002
{
1002
}
1040
0.0
1002
}
1002
}
1040
1.0
1040
0.0
1040
0.0
1002
}
1002
{
1040
1.0
1040
1.0
1000

1040
0.0
1002
{
1002
}
1040
0.0
1002
{
1002
}
1040
0.0
1002
}
1002
{
1040
0.5
1040
1.0
1000

1040
0.0
1002
{
1002
}
1040
0.0
1002
{
1002
}
1040
0.0
1002
}
1002
{
1070
     0
1040
0.0
1002
{
1002
}
1040
1.0
1002
{
1002
}
1040
0.0
1002
}
1002
{
1040
0.0
1002
{
1002
{
1010
0.0
1020
0.0
1030
0.0
1002
}
1040
1.0
1000

1040
0.0
1002
{
1002
}
1040
0.0
1002
{
1002
}
1040
0.0
1002
}
1002
}
1002
{
1002
{
1070
     1
1002
{
1040
0.0
1040
1.0
1000

1040
0.0
1002
{
1002
}
1040
0.0
1002
{
1002
}
1040
0.0
1002
}
1002
}
1040
0.0
1002
{
1002
}
1010
1.0
1020
0.0
1030
0.0
1010
0.0
1020
1.0
1030
0.0
1010
0.0
1020
0.0
1030
1.0
1070
     0
1002
}
1002
{
1002
{
1040
1.0
1040
1.0
1002
{
1070
     1
1002
{
1040
1.0
1040
1.0
1000

1040
0.0
1002
{
1002
}
1040
0.0
1002
{
1002
}
1040
0.0
1002
}
1002
}
1002
}
1070
     0
1040
0.0
1002
{
1002
}
1002
}
1002
{
1002
}
1002
}
1002
{
1071
        3
1070
     3
1070
     0
1002
{
1070
     2
1070
     0
1070
     0
1040
0.0
1002
}
1070
     0
1070
     2
1002
{
1002
}
1002
}
1002
{
1040
8030.0
1040
190.300003
1040
0.305
1040
228.0
1040
545.0
1040
14.0
1040
17.4
1040
0.456
1002
}
1002
}
  0
ENDBLK
  5
CA
100
AcDbEntity
  8
0
100
AcDbBlockEnd
  0
BLOCK
  5
1D27
100
AcDbEntity
  8
0
100
AcDbBlockBegin
  2
*D9
 70
     1
 10
0.0
 20
0.0
 30
0.0
  3
*D9
  1

  0
LINE
  5
1D28
100
AcDbEntity
  8
0
  6
BYBLOCK
 62
     0
100
AcDbLine
 10
48.872255
 20
21.285671
 30
0.0
 11
48.872255
 21
9.482225
 31
0.0
  0
LINE
  5
1D29
100
AcDbEntity
  8
0
  6
BYBLOCK
 62
     0
100
AcDbLine
 10
182.82153
 20
79.566097
 30
0.0
 11
182.82153
 21
9.482225
 31
0.0
  0
LINE
  5
1D2A
100
AcDbEntity
  8
0
  6
BYBLOCK
 62
     0
100
AcDbLine
 10
51.872255
 20
9.662225
 30
0.0
 11
179.82153
 21
9.662225
 31
0.0
  0
SOLID
  5
1D2B
100
AcDbEntity
  8
0
  6
BYBLOCK
 62
     0
100
AcDbTrace
 10
51.872255
 20
10.162225
 30
0.0
 11
51.872255
 21
9.162225
 31
0.0
 12
48.872255
 22
9.662225
 32
0.0
 13
48.872255
 23
9.662225
 33
0.0
  0
SOLID
  5
1D2C
100
AcDbEntity
  8
0
  6
BYBLOCK
 62
     0
100
AcDbTrace
 10
179.82153
 20
10.162225
 30
0.0
 11
179.82153
 21
9.162225
 31
0.0
 12
182.82153
 22
9.662225
 32
0.0
 13
182.82153
 23
9.662225
 33
0.0
  0
MTEXT
  5
1D2D
100
AcDbEntity
  8
0
  6
BYBLOCK
 62
     0
100
AcDbMText
 10
115.846893
 20
11.912225
 30
0.0
 40
2.5
 41
0.0
 71
     5
 72
     1
  1
\A1;134
  0
POINT
  5
1D2E
100
AcDbEntity
  8
DEFPOINTS
  6
BYBLOCK
 62
     0
100
AcDbPoint
 10
48.872255
 20
21.348171
 30
0.0
  0
POINT
  5
1D2F
100
AcDbEntity
  8
DEFPOINTS
  6
BYBLOCK
 62
     0
100
AcDbPoint
 10
182.82153
 20
79.628597
 30
0.0
  0
POINT
  5
1D30
100
AcDbEntity
  8
DEFPOINTS
  6
BYBLOCK
 62
     0
100
AcDbPoint
 10
182.82153
 20
9.662225
 30
0.0
  0
ENDBLK
  5
1D31
100
AcDbEntity
  8
0
100
AcDbBlockEnd
  0
ENDSEC
  0
SECTION
  2
ENTITIES
  0
INSERT
  5
CC
100
AcDbEntity
  8
0
100
AcDbBlockReference
  2
SCH_IS
 10
-68.718396
 20
-140.042541
 30
0.0
  0
INSERT
  5
EC
100
AcDbEntity
  8
COTATION1
100
AcDbBlockReference
  2
SCH_IS
 10
0.0
 20
0.0
 30
0.0
  0
SPLINE
  5
180F
100
AcDbEntity
  8
ALPHA
 62
     7
100
AcDbSpline
210
0.0
220
0.0
230
1.0
 70
     8
 71
     3
 72
    11
 73
     7
 74
     0
 42
0.0000001
 43
0.0000001
 40
0.0
 40
0.0
 40
0.0
 40
0.0
 40
1.0
 40
1.0
 40
1.0
 40
2.0
 40
2.0
 40
2.0
 40
2.0
 10
115.0423767111674
 20
115.2762060135986
 30
0.0
 10
115.8583475770528
 20
115.2762060135986
 30
0.0
 10
116.5203226747091
 20
115.9381811112549
 30
0.0
 10
116.5203226747091
 20
116.7541519771403
 30
0.0
 10
116.5203226747091
 20
117.5706396073486
 30
0.0
 10
115.8583475770528
 20
118.2322701954563
 30
0.0
 10
115.0423767111674
 20
118.2322701954563
 30
0.0
  0
SPLINE
  5
1810
100
AcDbEntity
  8
ALPHA
 62
     7
100
AcDbSpline
210
0.0
220
0.0
230
1.0
 70
     8
 71
     3
 72
     8
 73
     4
 74
     0
 42
0.0000001
 43
0.0000001
 40
0.0
 40
0.0
 40
0.0
 40
0.0
 40
1.0
 40
1.0
 40
1.0
 40
1.0
 10
115.1407341872959
 20
59.84685895413687
 30
0.0
 10
115.9026170540494
 20
59.84685895413687
 30
0.0
 10
116.5203226747091
 20
60.4649090843452
 30
0.0
 10
116.5203226747091
 20
61.22661969632438
 30
0.0
  0
SPLINE
  5
1811
100
AcDbEntity
  8
ALPHA
 62
     7
100
AcDbSpline
210
0.0
220
0.0
230
-1.0
 70
     8
 71
     3
 72
     8
 73
     4
 74
     0
 42
0.0000001
 43
0.0000001
 40
0.0
 40
0.0
 40
0.0
 40
0.0
 40
1.0
 40
1.0
 40
1.0
 40
1.0
 10
116.5203226747091
 20
61.81814259128966
 30
0.0
 10
116.5203226747091
 20
62.57985320326882
 30
0.0
 10
115.9026170540494
 20
63.19686980483132
 30
0.0
 10
115.1407341872959
 20
63.19686980483132
 30
0.0
  0
LINE
  5
1812
100
AcDbEntity
  8
ALPHA
 62
     7
100
AcDbLine
 10
143.471305
 20
148.484687
 30
0.0
 11
85.825039
 21
148.484687
 31
0.0
  0
LINE
  5
1813
100
AcDbEntity
  8
ALPHA
 62
     7
100
AcDbLine
 10
82.868802
 20
149.962805
 30
0.0
 11
140.435142
 21
149.962805
 31
0.0
  0
LINE
  5
1814
100
AcDbEntity
  8
ALPHA
 62
     7
100
AcDbLine
 10
82.868802
 20
149.012648
 30
0.0
 11
138.343625
 21
149.012648
 31
0.0
  0
LINE
  5
1815
100
AcDbEntity
  8
ALPHA
 62
     7
100
AcDbLine
 10
81.390684
 20
133.210684
 30
0.0
 11
143.676288
 21
133.210684
 31
0.0
  0
LINE
  5
1816
100
AcDbEntity
  8
ALPHA
 62
     7
100
AcDbLine
 10
134.567455
 20
132.682723
 30
0.0
 11
89.86493
 21
132.682723
 31
0.0
  0
LINE
  5
1817
100
AcDbEntity
  8
ALPHA
 62
     7
100
AcDbLine
 10
139.037122
 20
131.634036
 30
0.0
 11
110.460055
 21
131.634036
 31
0.0
  0
LINE
  5
1818
100
AcDbEntity
  8
ALPHA
 62
     7
100
AcDbLine
 10
115.584118
 20
92.118963
 30
0.0
 11
128.394878
 21
92.118963
 31
0.0
  0
LINE
  5
1819
100
AcDbEntity
  8
ALPHA
 62
     7
100
AcDbLine
 10
128.394878
 20
87.98037
 30
0.0
 11
115.584118
 21
87.98037
 31
0.0
  0
LINE
  5
181A
100
AcDbEntity
  8
ALPHA
 62
     7
100
AcDbLine
 10
91.047631
 20
83.644201
 30
0.0
 11
123.536949
 21
83.644201
 31
0.0
  0
LINE
  5
181B
100
AcDbEntity
  8
ALPHA
 62
     7
100
AcDbLine
 10
139.981423
 20
83.3493
 30
0.0
 11
91.047631
 21
83.3493
 31
0.0
  0
LINE
  5
181C
100
AcDbEntity
  8
ALPHA
 62
     7
100
AcDbLine
 10
110.559102
 20
36.88702
 30
0.0
 11
141.227858
 21
36.88702
 31
0.0
  0
LINE
  5
181D
100
AcDbEntity
  8
ALPHA
 62
     7
100
AcDbLine
 10
79.222685
 20
36.689616
 30
0.0
 11
141.508289
 21
36.689616
 31
0.0
  0
LINE
  5
181E
100
AcDbEntity
  8
ALPHA
 62
     7
100
AcDbLine
 10
83.65704
 20
21.908434
 30
0.0
 11
139.01404
 21
21.874672
 31
0.0
  0
LINE
  5
181F
100
AcDbEntity
  8
ALPHA
 62
     7
100
AcDbLine
 10
83.65704
 20
21.41613
 30
0.0
 11
141.303306
 21
21.41613
 31
0.0
  0
LINE
  5
1820
100
AcDbEntity
  8
ALPHA
 62
     7
100
AcDbLine
 10
80.700804
 20
19.938184
 30
0.0
 11
138.267143
 21
19.938184
 31
0.0
  0
LINE
  5
1821
100
AcDbEntity
  8
ALPHA
 62
     7
100
AcDbLine
 10
91.047631
 20
83.644201
 30
0.0
 11
91.047631
 21
111.728791
 31
0.0
  0
LINE
  5
1822
100
AcDbEntity
  8
ALPHA
 62
     7
100
AcDbLine
 10
90.850744
 20
111.827321
 30
0.0
 11
90.850744
 21
55.659001
 31
0.0
  0
LINE
  5
1823
100
AcDbEntity
  8
ALPHA
 62
     7
100
AcDbLine
 10
90.357751
 20
112.031271
 30
0.0
 11
90.357751
 21
55.659001
 31
0.0
  0
LINE
  5
1824
100
AcDbEntity
  8
ALPHA
 62
     7
100
AcDbLine
 10
55.572966
 20
65.562617
 30
0.0
 11
55.572966
 21
100.544289
 31
0.0
  0
LINE
  5
1825
100
AcDbEntity
  8
ALPHA
 62
     7
100
AcDbLine
 10
48.872255
 20
55.659001
 30
0.0
 11
110.559102
 21
55.659001
 31
0.0
  0
LINE
  5
1826
100
AcDbEntity
  8
ALPHA
 62
     7
100
AcDbLine
 10
110.164638
 20
55.461597
 30
0.0
 11
48.872255
 21
55.461597
 31
0.0
  0
LINE
  5
1827
100
AcDbEntity
  8
ALPHA
 62
     7
100
AcDbLine
 10
48.872255
 20
54.969293
 30
0.0
 11
109.671645
 21
54.969293
 31
0.0
  0
LINE
  5
1828
100
AcDbEntity
  8
ALPHA
 62
     7
100
AcDbLine
 10
61.159189
 20
28.129243
 30
0.0
 11
76.410454
 21
28.139923
 31
0.0
  0
LINE
  5
1829
100
AcDbEntity
  8
ALPHA
 62
     7
100
AcDbLine
 10
57.183548
 20
43.240121
 30
0.0
 11
57.252106
 21
51.123533
 31
0.0
  0
LINE
  5
182A
100
AcDbEntity
  8
ALPHA
 62
     7
100
AcDbLine
 10
48.872255
 20
21.397182
 30
0.0
 11
48.872255
 21
63.591678
 31
0.0
  0
LINE
  5
182B
100
AcDbEntity
  8
ALPHA
 62
     7
100
AcDbLine
 10
50.444769
 20
51.123533
 30
0.0
 11
50.513327
 21
43.240121
 31
0.0
  0
LINE
  5
182C
100
AcDbEntity
  8
ALPHA
 62
     7
100
AcDbLine
 10
56.887442
 20
42.946943
 30
0.0
 11
50.808744
 21
42.946943
 31
0.0
  0
LINE
  5
182D
100
AcDbEntity
  8
ALPHA
 62
     7
100
AcDbLine
 10
60.697201
 20
30.038515
 30
0.0
 11
48.872255
 21
30.038515
 31
0.0
  0
LINE
  5
182E
100
AcDbEntity
  8
ALPHA
 62
     7
100
AcDbLine
 10
48.872255
 20
22.451036
 30
0.0
 11
57.040232
 21
22.451036
 31
0.0
  0
LINE
  5
182F
100
AcDbEntity
  8
ALPHA
 62
     7
100
AcDbLine
 10
56.786329
 20
21.968034
 30
0.0
 11
48.872255
 21
21.968034
 31
0.0
  0
LINE
  5
1830
100
AcDbEntity
  8
ALPHA
 62
     7
100
AcDbLine
 10
53.700385
 20
21.397182
 30
0.0
 11
48.872255
 21
21.397182
 31
0.0
  0
SPLINE
  5
1831
100
AcDbEntity
  8
ALPHA
 62
     7
100
AcDbSpline
210
0.0
220
0.0
230
1.0
 70
     8
 71
     3
 72
     8
 73
     4
 74
     0
 42
0.0000001
 43
0.0000001
 40
0.0
 40
0.0
 40
0.0
 40
0.0
 40
1.0
 40
1.0
 40
1.0
 40
1.0
 10
50.5133266894661
 20
43.24012067288689
 30
0.0
 10
50.51470472766054
 20
43.07785667549104
 30
0.0
 10
50.64716864910152
 20
42.94694304701882
 30
0.0
 10
50.80874362740012
 20
42.94694304701882
 30
0.0
  0
LINE
  5
1832
100
AcDbEntity
  8
ALPHA
 62
     7
100
AcDbLine
 10
58.63445
 20
21.805081
 30
0.0
 11
58.791374
 21
27.970768
 31
0.0
  0
LINE
  5
1833
100
AcDbEntity
  8
ALPHA
 62
     7
100
AcDbLine
 10
56.524846
 20
21.515349
 30
0.0
 11
58.233269
 21
24.47503
 31
0.0
  0
LINE
  5
1834
100
AcDbEntity
  8
ALPHA
 62
     7
100
AcDbLine
 10
58.305099
 20
21.99525
 30
0.0
 11
58.305099
 21
26.786
 31
0.0
  0
LINE
  5
1835
100
AcDbEntity
  8
ALPHA
 62
     7
100
AcDbLine
 10
57.504631
 20
23.212058
 30
0.0
 11
57.504631
 21
25.035892
 31
0.0
  0
LINE
  5
1836
100
AcDbEntity
  8
ALPHA
 62
     7
100
AcDbLine
 10
57.040232
 20
22.451036
 30
0.0
 11
57.040232
 21
25.204701
 31
0.0
  0
POLYLINE
  5
1837
100
AcDbEntity
  8
ALPHA
 62
     7
100
AcDb2dPolyline
 66
     1
 10
0.0
 20
0.0
 30
0.0
  0
VERTEX
  5
1838
100
AcDbEntity
  8
ALPHA
 62
     7
100
AcDbVertex
100
AcDb2dVertex
 10
58.305099
 20
21.99525
 30
0.0
  0
VERTEX
  5
1839
100
AcDbEntity
  8
ALPHA
 62
     7
100
AcDbVertex
100
AcDb2dVertex
 10
58.267892
 20
21.809215
 30
0.0
  0
VERTEX
  5
183A
100
AcDbEntity
  8
ALPHA
 62
     7
100
AcDbVertex
100
AcDb2dVertex
 10
58.164712
 20
21.655908
 30
0.0
  0
VERTEX
  5
183B
100
AcDbEntity
  8
ALPHA
 62
     7
100
AcDbVertex
100
AcDb2dVertex
 10
58.007098
 20
21.552556
 30
0.0
  0
VERTEX
  5
183C
100
AcDbEntity
  8
ALPHA
 62
     7
100
AcDbVertex
100
AcDb2dVertex
 10
57.815723
 20
21.515349
 30
0.0
  0
SEQEND
  5
183D
100
AcDbEntity
  8
ALPHA
 62
     7
  0
POLYLINE
  5
183E
100
AcDbEntity
  8
ALPHA
 62
     7
100
AcDb2dPolyline
 66
     1
 10
0.0
 20
0.0
 30
0.0
  0
VERTEX
  5
183F
100
AcDbEntity
  8
ALPHA
 62
     7
100
AcDbVertex
100
AcDb2dVertex
 10
58.142835
 20
21.318978
 30
0.0
  0
VERTEX
  5
1840
100
AcDbEntity
  8
ALPHA
 62
     7
100
AcDbVertex
100
AcDb2dVertex
 10
58.162644
 20
21.319667
 30
0.0
  0
VERTEX
  5
1841
100
AcDbEntity
  8
ALPHA
 62
     7
100
AcDbVertex
100
AcDb2dVertex
 10
58.345924
 20
21.361697
 30
0.0
  0
VERTEX
  5
1842
100
AcDbEntity
  8
ALPHA
 62
     7
100
AcDbVertex
100
AcDb2dVertex
 10
58.500092
 20
21.468495
 30
0.0
  0
VERTEX
  5
1843
100
AcDbEntity
  8
ALPHA
 62
     7
100
AcDbVertex
100
AcDb2dVertex
 10
58.602583
 20
21.62318
 30
0.0
  0
SEQEND
  5
1844
100
AcDbEntity
  8
ALPHA
 62
     7
  0
LINE
  5
1845
100
AcDbEntity
  8
ALPHA
 62
     7
100
AcDbLine
 10
55.671496
 20
21.814038
 30
0.0
 11
54.193378
 21
21.814038
 31
0.0
  0
POLYLINE
  5
1846
100
AcDbEntity
  8
ALPHA
 62
     7
100
AcDb2dPolyline
 66
     1
 10
0.0
 20
0.0
 30
0.0
  0
VERTEX
  5
1847
100
AcDbEntity
  8
ALPHA
 62
     7
100
AcDbVertex
100
AcDb2dVertex
 10
54.193378
 20
21.592174
 30
0.0
  0
VERTEX
  5
1848
100
AcDbEntity
  8
ALPHA
 62
     7
100
AcDbVertex
100
AcDb2dVertex
 10
54.468985
 20
21.602165
 30
0.0
  0
VERTEX
  5
1849
100
AcDbEntity
  8
ALPHA
 62
     7
100
AcDbVertex
100
AcDb2dVertex
 10
54.805054
 20
21.625247
 30
0.0
  0
VERTEX
  5
184A
100
AcDbEntity
  8
ALPHA
 62
     7
100
AcDbVertex
100
AcDb2dVertex
 10
55.086174
 20
21.657286
 30
0.0
  0
VERTEX
  5
184B
100
AcDbEntity
  8
ALPHA
 62
     7
100
AcDbVertex
100
AcDb2dVertex
 10
55.298048
 20
21.69725
 30
0.0
  0
VERTEX
  5
184C
100
AcDbEntity
  8
ALPHA
 62
     7
100
AcDbVertex
100
AcDb2dVertex
 10
55.429822
 20
21.744792
 30
0.0
  0
VERTEX
  5
184D
100
AcDbEntity
  8
ALPHA
 62
     7
100
AcDbVertex
100
AcDb2dVertex
 10
55.474609
 20
21.798535
 30
0.0
  0
SEQEND
  5
184E
100
AcDbEntity
  8
ALPHA
 62
     7
  0
POLYLINE
  5
184F
100
AcDbEntity
  8
ALPHA
 62
     7
100
AcDb2dPolyline
 66
     1
 10
0.0
 20
0.0
 30
0.0
  0
VERTEX
  5
1850
100
AcDbEntity
  8
ALPHA
 62
     7
100
AcDbVertex
100
AcDb2dVertex
 10
54.193378
 20
21.464361
 30
0.0
  0
VERTEX
  5
1851
100
AcDbEntity
  8
ALPHA
 62
     7
100
AcDbVertex
100
AcDb2dVertex
 10
54.029047
 20
21.441279
 30
0.0
  0
VERTEX
  5
1852
100
AcDbEntity
  8
ALPHA
 62
     7
100
AcDbVertex
100
AcDb2dVertex
 10
53.864716
 20
21.418886
 30
0.0
  0
VERTEX
  5
1853
100
AcDbEntity
  8
ALPHA
 62
     7
100
AcDbVertex
100
AcDb2dVertex
 10
53.700385
 20
21.397182
 30
0.0
  0
SEQEND
  5
1854
100
AcDbEntity
  8
ALPHA
 62
     7
  0
LINE
  5
1855
100
AcDbEntity
  8
ALPHA
 62
     7
100
AcDbLine
 10
54.193378
 20
21.464361
 30
0.0
 11
54.193378
 21
21.814038
 31
0.0
  0
LINE
  5
1856
100
AcDbEntity
  8
ALPHA
 62
     7
100
AcDbLine
 10
55.671496
 20
21.319667
 30
0.0
 11
58.142835
 21
21.318978
 31
0.0
  0
LINE
  5
1857
100
AcDbEntity
  8
ALPHA
 62
     7
100
AcDbLine
 10
56.524846
 20
21.515349
 30
0.0
 11
57.815723
 21
21.515349
 31
0.0
  0
LINE
  5
1858
100
AcDbEntity
  8
ALPHA
 62
     7
100
AcDbLine
 10
55.671496
 20
21.814038
 30
0.0
 11
55.671496
 21
21.319667
 31
0.0
  0
LINE
  5
1859
100
AcDbEntity
  8
ALPHA
 62
     7
100
AcDbLine
 10
58.63445
 20
21.805081
 30
0.0
 11
58.602583
 21
21.62318
 31
0.0
  0
LINE
  5
185A
100
AcDbEntity
  8
ALPHA
 62
     7
100
AcDbLine
 10
56.755151
 20
26.786
 30
0.0
 11
58.305099
 21
26.786
 31
0.0
  0
LINE
  5
185B
100
AcDbEntity
  8
ALPHA
 62
     7
100
AcDbLine
 10
57.504631
 20
26.786
 30
0.0
 11
57.504631
 21
29.773587
 31
0.0
  0
LINE
  5
185C
100
AcDbEntity
  8
ALPHA
 62
     7
100
AcDbLine
 10
57.040232
 20
26.786
 30
0.0
 11
57.040232
 21
29.756017
 31
0.0
  0
LINE
  5
185D
100
AcDbEntity
  8
ALPHA
 62
     7
100
AcDbLine
 10
56.755151
 20
26.786
 30
0.0
 11
56.755151
 21
25.308054
 31
0.0
  0
LINE
  5
185E
100
AcDbEntity
  8
ALPHA
 62
     7
100
AcDbLine
 10
56.755151
 20
25.308054
 30
0.0
 11
58.233269
 21
24.770275
 31
0.0
  0
LINE
  5
185F
100
AcDbEntity
  8
ALPHA
 62
     7
100
AcDbLine
 10
58.233269
 20
24.770275
 30
0.0
 11
58.233269
 21
24.47503
 31
0.0
  0
LINE
  5
1860
100
AcDbEntity
  8
ALPHA
 62
     7
100
AcDbLine
 10
57.385775
 20
29.756017
 30
0.0
 11
57.504631
 21
29.773587
 31
0.0
  0
LINE
  5
1861
100
AcDbEntity
  8
ALPHA
 62
     7
100
AcDbLine
 10
57.040232
 20
29.756017
 30
0.0
 11
57.385775
 21
29.756017
 31
0.0
  0
LINE
  5
1862
100
AcDbEntity
  8
ALPHA
 62
     7
100
AcDbLine
 10
57.385775
 20
29.756017
 30
0.0
 11
57.385775
 21
30.038515
 31
0.0
  0
LINE
  5
1863
100
AcDbEntity
  8
ALPHA
 62
     7
100
AcDbLine
 10
58.791374
 20
27.970768
 30
0.0
 11
59.210987
 21
29.88762
 31
0.0
  0
LINE
  5
1864
100
AcDbEntity
  8
ALPHA
 62
     7
100
AcDbLine
 10
60.697201
 20
28.63705
 30
0.0
 11
60.697201
 21
30.038515
 31
0.0
  0
SPLINE
  5
1865
100
AcDbEntity
  8
ALPHA
 62
     7
100
AcDbSpline
210
0.0
220
0.0
230
-1.0
 70
     8
 71
     3
 72
     8
 73
     4
 74
     0
 42
0.0000001
 43
0.0000001
 40
0.0
 40
0.0
 40
0.0
 40
0.0
 40
1.0
 40
1.0
 40
1.0
 40
1.0
 10
61.18950534615012
 20
28.1440567622966
 30
0.0
 10
60.91768731229596
 20
28.1440567622966
 30
0.0
 10
60.69720120118485
 20
28.36454287340771
 30
0.0
 10
60.69720120118485
 20
28.6367054168105
 30
0.0
  0
LINE
  5
1866
100
AcDbEntity
  8
ALPHA
 62
     7
100
AcDbLine
 10
59.210987
 20
29.88762
 30
0.0
 11
59.219083
 21
29.956866
 31
0.0
  0
LINE
  5
1867
100
AcDbEntity
  8
ALPHA
 62
     7
100
AcDbLine
 10
59.219083
 20
29.947909
 30
0.0
 11
59.219083
 21
30.038515
 31
0.0
  0
SPLINE
  5
1868
100
AcDbEntity
  8
ALPHA
 62
     7
100
AcDbSpline
210
0.0
220
0.0
230
1.0
 70
     8
 71
     3
 72
     8
 73
     4
 74
     0
 42
0.0000001
 43
0.0000001
 40
0.0
 40
0.0
 40
0.0
 40
0.0
 40
1.0
 40
1.0
 40
1.0
 40
1.0
 10
56.88744235786887
 20
42.94694304701882
 30
0.0
 10
57.04970635526471
 20
42.94694304701882
 30
0.0
 10
57.18217027670568
 20
43.07785667549104
 30
0.0
 10
57.18354831490012
 20
43.24012067288689
 30
0.0
  0
SPLINE
  5
1869
100
AcDbEntity
  8
ALPHA
 62
     7
100
AcDbSpline
210
0.0
220
0.0
230
-1.0
 70
     8
 71
     3
 72
    11
 73
     7
 74
     0
 42
0.0000001
 43
0.0000001
 40
0.0
 40
0.0
 40
0.0
 40
0.0
 40
1.0
 40
1.0
 40
1.0
 40
2.0
 40
2.0
 40
2.0
 40
2.0
 10
53.22168850587234
 20
69.11967796455354
 30
0.0
 10
53.10696682618484
 20
69.23646670153272
 30
0.0
 10
52.92024265083762
 20
69.23784473972716
 30
0.0
 10
52.80345391385846
 20
69.12381207913688
 30
0.0
 10
52.80087009224388
 20
69.12105600274799
 30
0.0
 10
52.79811401585498
 20
69.1182999263591
 30
0.0
 10
52.79535793946609
 20
69.11554384997021
 30
0.0
  0
LINE
  5
186A
100
AcDbEntity
  8
ALPHA
 62
     7
100
AcDbLine
 10
54.240231
 20
63.591678
 30
0.0
 11
48.872255
 21
63.591678
 31
0.0
  0
LINE
  5
186B
100
AcDbEntity
  8
ALPHA
 62
     7
100
AcDbLine
 10
56.956689
 20
51.421878
 30
0.0
 11
50.740186
 21
51.421878
 31
0.0
  0
SPLINE
  5
186C
100
AcDbEntity
  8
ALPHA
 62
     7
100
AcDbSpline
210
0.0
220
0.0
230
-1.0
 70
     8
 71
     3
 72
     8
 73
     4
 74
     0
 42
0.0000001
 43
0.0000001
 40
0.0
 40
0.0
 40
0.0
 40
0.0
 40
1.0
 40
1.0
 40
1.0
 40
1.0
 10
49.26275702800776
 20
65.16264128920633
 30
0.0
 10
49.07327677627165
 20
64.9080487327827
 30
0.0
 10
48.97078518555985
 20
64.59902366767855
 30
0.0
 10
48.97078518555985
 20
64.2813858638591
 30
0.0
  0
SPLINE
  5
186D
100
AcDbEntity
  8
ALPHA
 62
     7
100
AcDbSpline
210
0.0
220
0.0
230
1.0
 70
     8
 71
     3
 72
     8
 73
     4
 74
     0
 42
0.0000001
 43
0.0000001
 40
0.0
 40
0.0
 40
0.0
 40
0.0
 40
1.0
 40
1.0
 40
1.0
 40
1.0
 10
50.44890340387581
 20
64.57663054701882
 30
0.0
 10
50.28526136828554
 20
64.57663054701882
 30
0.0
 10
50.15279744684456
 20
64.44433888035216
 30
0.0
 10
50.15279744684456
 20
64.2813858638591
 30
0.0
  0
SPLINE
  5
186E
100
AcDbEntity
  8
ALPHA
 62
     7
100
AcDbSpline
210
0.0
220
0.0
230
-1.0
 70
     8
 71
     3
 72
     8
 73
     4
 74
     0
 42
0.0000001
 43
0.0000001
 40
0.0
 40
0.0
 40
0.0
 40
0.0
 40
1.0
 40
1.0
 40
1.0
 40
1.0
 10
50.74414808703554
 20
64.37991559476188
 30
0.0
 10
50.74414808703554
 20
64.48843610257438
 30
0.0
 10
50.6559536425911
 20
64.57663054701882
 30
0.0
 10
50.54726088000429
 20
64.57663054701882
 30
0.0
  0
SPLINE
  5
186F
100
AcDbEntity
  8
ALPHA
 62
     7
100
AcDbSpline
210
0.0
220
0.0
230
-1.0
 70
     8
 71
     3
 72
    11
 73
     7
 74
     0
 42
0.0000001
 43
0.0000001
 40
0.0
 40
0.0
 40
0.0
 40
0.0
 40
1.0
 40
1.0
 40
1.0
 40
2.0
 40
2.0
 40
2.0
 40
2.0
 10
50.74018622722651
 20
51.42187794285216
 30
0.0
 10
50.57723321073346
 20
51.42187794285216
 30
0.0
 10
50.44476928929249
 20
51.28924176663687
 30
0.0
 10
50.44476928929249
 20
51.1255997310466
 30
0.0
 10
50.44476928929249
 20
51.12491071194938
 30
0.0
 10
50.44476928929249
 20
51.12422169285216
 30
0.0
 10
50.44476928929249
 20
51.12353267375493
 30
0.0
  0
LINE
  5
1870
100
AcDbEntity
  8
ALPHA
 62
     7
100
AcDbLine
 10
51.040254
 20
55.659001
 30
0.0
 11
51.040254
 21
55.461597
 31
0.0
  0
LINE
  5
1871
100
AcDbEntity
  8
ALPHA
 62
     7
100
AcDbLine
 10
48.970785
 20
64.281386
 30
0.0
 11
48.970785
 21
63.591678
 31
0.0
  0
LINE
  5
1872
100
AcDbEntity
  8
ALPHA
 62
     7
100
AcDbLine
 10
50.152797
 20
63.591678
 30
0.0
 11
50.152797
 21
64.281386
 31
0.0
  0
LINE
  5
1873
100
AcDbEntity
  8
ALPHA
 62
     7
100
AcDbLine
 10
50.744148
 20
64.379916
 30
0.0
 11
50.744148
 21
63.591678
 31
0.0
  0
LINE
  5
1874
100
AcDbEntity
  8
ALPHA
 62
     7
100
AcDbLine
 10
50.547261
 20
64.576631
 30
0.0
 11
49.463606
 21
64.576631
 31
0.0
  0
LINE
  5
1875
100
AcDbEntity
  8
ALPHA
 62
     7
100
AcDbLine
 10
49.319773
 20
65.422057
 30
0.0
 11
52.795358
 21
69.115544
 31
0.0
  0
SPLINE
  5
1876
100
AcDbEntity
  8
ALPHA
 62
     7
100
AcDbSpline
210
0.0
220
0.0
230
-1.0
 70
     8
 71
     3
 72
     8
 73
     4
 74
     0
 42
0.0000001
 43
0.0000001
 40
0.0
 40
0.0
 40
0.0
 40
0.0
 40
1.0
 40
1.0
 40
1.0
 40
1.0
 10
49.3197733583029
 20
65.42205697931049
 30
0.0
 10
49.28515014866748
 20
65.38519445760909
 30
0.0
 10
49.26602986871957
 20
65.33696312080355
 30
0.0
 10
49.26602986871957
 20
65.28700923625493
 30
0.0
  0
SPLINE
  5
1877
100
AcDbEntity
  8
ALPHA
 62
     7
100
AcDbSpline
210
0.0
220
0.0
230
1.0
 70
     8
 71
     3
 72
     8
 73
     4
 74
     0
 42
0.0000001
 43
0.0000001
 40
0.0
 40
0.0
 40
0.0
 40
0.0
 40
1.0
 40
1.0
 40
1.0
 40
1.0
 10
49.26602986871957
 20
64.77437902792161
 30
0.0
 10
49.26602986871957
 20
64.66482499146327
 30
0.0
 10
49.35439656793832
 20
64.57663054701882
 30
0.0
 10
49.46360609484804
 20
64.57663054701882
 30
0.0
  0
LINE
  5
1878
100
AcDbEntity
  8
ALPHA
 62
     7
100
AcDbLine
 10
49.26603
 20
64.774379
 30
0.0
 11
49.26603
 21
65.287009
 31
0.0
  0
LINE
  5
1879
100
AcDbEntity
  8
ALPHA
 62
     7
100
AcDbLine
 10
54.456066
 20
64.81572
 30
0.0
 11
53.798914
 21
64.43676
 31
0.0
  0
LINE
  5
187A
100
AcDbEntity
  8
ALPHA
 62
     7
100
AcDbLine
 10
54.240231
 20
63.591678
 30
0.0
 11
54.587152
 21
65.562617
 31
0.0
  0
SPLINE
  5
187B
100
AcDbEntity
  8
ALPHA
 62
     7
100
AcDbSpline
210
0.0
220
0.0
230
1.0
 70
     8
 71
     3
 72
    11
 73
     7
 74
     0
 42
0.0000001
 43
0.0000001
 40
0.0
 40
0.0
 40
0.0
 40
0.0
 40
1.0
 40
1.0
 40
1.0
 40
2.0
 40
2.0
 40
2.0
 40
2.0
 10
57.25210571507373
 20
51.12353267375493
 30
0.0
 10
57.25348375326817
 20
51.28648569024798
 30
0.0
 10
57.12239787002165
 20
51.42049990465771
 30
0.0
 10
56.9594448535286
 20
51.42187794285216
 30
0.0
 10
56.95806681533415
 20
51.42187794285216
 30
0.0
 10
56.95737779623692
 20
51.42187794285216
 30
0.0
 10
56.95668877713971
 20
51.42187794285216
 30
0.0
  0
LINE
  5
187C
100
AcDbEntity
  8
ALPHA
 62
     7
100
AcDbLine
 10
57.291552
 20
55.659001
 30
0.0
 11
57.290174
 21
55.461597
 31
0.0
  0
LINE
  5
187D
100
AcDbEntity
  8
ALPHA
 62
     7
100
AcDbLine
 10
56.952727
 20
55.461597
 30
0.0
 11
56.952727
 21
55.659001
 31
0.0
  0
SPLINE
  5
187E
100
AcDbEntity
  8
ALPHA
 62
     7
100
AcDbSpline
210
0.0
220
0.0
230
-1.0
 70
     8
 71
     3
 72
     8
 73
     4
 74
     0
 42
0.0000001
 43
0.0000001
 40
0.0
 40
0.0
 40
0.0
 40
0.0
 40
1.0
 40
1.0
 40
1.0
 40
1.0
 10
53.79891425457026
 20
64.43675967028271
 30
0.0
 10
53.73845282878901
 20
64.40161969632438
 30
0.0
 10
53.70038452366749
 20
64.33650739163688
 30
0.0
 10
53.70038452366749
 20
64.2658829341716
 30
0.0
  0
LINE
  5
187F
100
AcDbEntity
  8
ALPHA
 62
     7
100
AcDbLine
 10
54.248327
 20
63.640254
 30
0.0
 11
54.065048
 21
63.664025
 31
0.0
  0
POLYLINE
  5
1880
100
AcDbEntity
  8
ALPHA
 62
     7
100
AcDb2dPolyline
 66
     1
 10
0.0
 20
0.0
 30
0.0
  0
VERTEX
  5
1881
100
AcDbEntity
  8
ALPHA
 62
     7
100
AcDbVertex
100
AcDb2dVertex
 10
54.065048
 20
63.664025
 30
0.0
  0
VERTEX
  5
1882
100
AcDbEntity
  8
ALPHA
 62
     7
100
AcDbVertex
100
AcDb2dVertex
 10
53.830781
 20
63.693308
 30
0.0
  0
VERTEX
  5
1883
100
AcDbEntity
  8
ALPHA
 62
     7
100
AcDbVertex
100
AcDb2dVertex
 10
53.700385
 20
63.708122
 30
0.0
  0
SEQEND
  5
1884
100
AcDbEntity
  8
ALPHA
 62
     7
  0
LINE
  5
1885
100
AcDbEntity
  8
ALPHA
 62
     7
100
AcDbLine
 10
53.700385
 20
64.265883
 30
0.0
 11
53.700385
 21
63.591678
 31
0.0
  0
LINE
  5
1886
100
AcDbEntity
  8
ALPHA
 62
     7
100
AcDbLine
 10
58.275299
 20
55.461597
 30
0.0
 11
58.277366
 21
55.659001
 31
0.0
  0
LINE
  5
1887
100
AcDbEntity
  8
ALPHA
 62
     7
100
AcDbLine
 10
58.813078
 20
55.461597
 30
0.0
 11
58.811011
 21
55.659001
 31
0.0
  0
SPLINE
  5
1888
100
AcDbEntity
  8
ALPHA
 62
     7
100
AcDbSpline
210
0.0
220
0.0
230
1.0
 70
     8
 71
     3
 72
     8
 73
     4
 74
     0
 42
0.0000001
 43
0.0000001
 40
0.0
 40
0.0
 40
0.0
 40
0.0
 40
1.0
 40
1.0
 40
1.0
 40
1.0
 10
55.17109578668832
 20
65.78654808174104
 30
0.0
 10
54.8078104676779
 20
67.04194087687994
 30
0.0
 10
54.13773939562929
 20
68.18743512601187
 30
0.0
 10
53.22168850587234
 20
69.11967796455354
 30
0.0
  0
LINE
  5
1889
100
AcDbEntity
  8
ALPHA
 62
     7
100
AcDbLine
 10
54.041966
 20
64.576631
 30
0.0
 11
54.414036
 21
64.576631
 31
0.0
  0
LINE
  5
188A
100
AcDbEntity
  8
ALPHA
 62
     7
100
AcDbLine
 10
55.572966
 20
65.562617
 30
0.0
 11
54.587152
 21
65.562617
 31
0.0
  0
LINE
  5
188B
100
AcDbEntity
  8
ALPHA
 62
     7
100
AcDbLine
 10
55.178503
 20
65.731771
 30
0.0
 11
55.178503
 21
65.562617
 31
0.0
  0
LINE
  5
188C
100
AcDbEntity
  8
ALPHA
 62
     7
100
AcDbLine
 10
110.559102
 20
36.88702
 30
0.0
 11
110.559102
 21
55.659001
 31
0.0
  0
LINE
  5
188D
100
AcDbEntity
  8
ALPHA
 62
     7
100
AcDbLine
 10
110.164638
 20
36.98555
 30
0.0
 11
110.164638
 21
55.461597
 31
0.0
  0
LINE
  5
188E
100
AcDbEntity
  8
ALPHA
 62
     7
100
AcDbLine
 10
109.671645
 20
54.969293
 30
0.0
 11
109.671645
 21
36.98555
 31
0.0
  0
LINE
  5
188F
100
AcDbEntity
  8
ALPHA
 62
     7
100
AcDbLine
 10
106.826168
 20
36.98555
 30
0.0
 11
106.726261
 21
48.377103
 31
0.0
  0
LINE
  5
1890
100
AcDbEntity
  8
ALPHA
 62
     7
100
AcDbLine
 10
98.532618
 20
49.094371
 30
0.0
 11
98.426681
 21
36.98555
 31
0.0
  0
LINE
  5
1891
100
AcDbEntity
  8
ALPHA
 62
     7
100
AcDbLine
 10
98.426681
 20
36.98555
 30
0.0
 11
83.706649
 21
36.98555
 31
0.0
  0
LINE
  5
1892
100
AcDbEntity
  8
ALPHA
 62
     7
100
AcDbLine
 10
80.144765
 20
19.790045
 30
0.0
 11
80.264999
 21
33.560091
 31
0.0
  0
LINE
  5
1893
100
AcDbEntity
  8
ALPHA
 62
     7
100
AcDbLine
 10
83.65704
 20
28.3139
 30
0.0
 11
83.65704
 21
21.07541
 31
0.0
  0
LINE
  5
1894
100
AcDbEntity
  8
ALPHA
 62
     7
100
AcDbLine
 10
80.700804
 20
19.938184
 30
0.0
 11
80.700804
 21
32.748082
 31
0.0
  0
LINE
  5
1895
100
AcDbEntity
  8
ALPHA
 62
     7
100
AcDbLine
 10
78.025687
 20
20.571392
 30
0.0
 11
77.971427
 21
26.731223
 31
0.0
  0
LINE
  5
1896
100
AcDbEntity
  8
ALPHA
 62
     7
100
AcDbLine
 10
80.144765
 20
19.790045
 30
0.0
 11
78.814097
 21
19.790045
 31
0.0
  0
SPLINE
  5
1897
100
AcDbEntity
  8
ALPHA
 62
     7
100
AcDbSpline
210
0.0
220
0.0
230
1.0
 70
     8
 71
     3
 72
     8
 73
     4
 74
     0
 42
0.0000001
 43
0.0000001
 40
0.0
 40
0.0
 40
0.0
 40
0.0
 40
1.0
 40
1.0
 40
1.0
 40
1.0
 10
78.02568698677513
 20
20.57139237427577
 30
0.0
 10
78.02913208226122
 20
20.13903289076883
 30
0.0
 10
78.38087633139318
 20
19.79004471802577
 30
0.0
 10
78.81409708877164
 20
19.79004471802577
 30
0.0
  0
LINE
  5
1898
100
AcDbEntity
  8
ALPHA
 62
     7
100
AcDbLine
 10
80.700804
 20
21.07541
 30
0.0
 11
83.65704
 21
21.07541
 31
0.0
  0
SPLINE
  5
1899
100
AcDbEntity
  8
ALPHA
 62
     7
100
AcDbSpline
210
0.0
220
0.0
230
-1.0
 70
     8
 71
     3
 72
    11
 73
     7
 74
     0
 42
0.0000001
 43
0.0000001
 40
0.0
 40
0.0
 40
0.0
 40
0.0
 40
1.0
 40
1.0
 40
1.0
 40
2.0
 40
2.0
 40
2.0
 40
2.0
 10
78.8282219802647
 20
36.93594044285215
 30
0.0
 10
77.90355835179248
 20
36.93594044285215
 30
0.0
 10
77.15321655491748
 20
36.18628766507439
 30
0.0
 10
77.15321655491748
 20
35.26093501750493
 30
0.0
 10
77.15321655491748
 20
34.33558236993549
 30
0.0
 10
77.90355835179248
 20
33.58592959215771
 30
0.0
 10
78.8282219802647
 20
33.58592959215771
 30
0.0
  0
SPLINE
  5
189A
100
AcDbEntity
  8
ALPHA
 62
     7
100
AcDbSpline
210
0.0
220
0.0
230
-1.0
 70
     8
 71
     3
 72
    11
 73
     7
 74
     0
 42
0.0000001
 43
0.0000001
 40
0.0
 40
0.0
 40
0.0
 40
0.0
 40
1.0
 40
1.0
 40
1.0
 40
2.0
 40
2.0
 40
2.0
 40
2.0
 10
79.22268541342443
 20
36.68961611559521
 30
0.0
 10
78.40671454753901
 20
36.68961611559521
 30
0.0
 10
77.74473944988276
 20
36.02815778226188
 30
0.0
 10
77.74473944988276
 20
35.21132564250493
 30
0.0
 10
77.74473944988276
 20
34.39518252184521
 30
0.0
 10
78.40671454753901
 20
33.73337967896327
 30
0.0
 10
79.22268541342443
 20
33.73337967896327
 30
0.0
  0
LINE
  5
189B
100
AcDbEntity
  8
ALPHA
 62
     7
100
AcDbLine
 10
78.828222
 20
33.58593
 30
0.0
 11
79.814208
 21
33.58593
 31
0.0
  0
LINE
  5
189C
100
AcDbEntity
  8
ALPHA
 62
     7
100
AcDbLine
 10
79.814208
 20
30.924938
 30
0.0
 11
78.828222
 21
30.924938
 31
0.0
  0
LINE
  5
189D
100
AcDbEntity
  8
ALPHA
 62
     7
100
AcDbLine
 10
78.828222
 20
27.574927
 30
0.0
 11
80.212634
 21
27.574927
 31
0.0
  0
LINE
  5
189E
100
AcDbEntity
  8
ALPHA
 62
     7
100
AcDbLine
 10
80.210739
 20
27.278993
 30
0.0
 11
78.828222
 21
27.278993
 31
0.0
  0
SPLINE
  5
189F
100
AcDbEntity
  8
ALPHA
 62
     7
100
AcDbSpline
210
0.0
220
0.0
230
-1.0
 70
     8
 71
     3
 72
    11
 73
     7
 74
     0
 42
0.0000001
 43
0.0000001
 40
0.0
 40
0.0
 40
0.0
 40
0.0
 40
1.0
 40
1.0
 40
1.0
 40
2.0
 40
2.0
 40
2.0
 40
2.0
 10
78.8282219802647
 20
30.92493783868549
 30
0.0
 10
77.90355835179248
 20
30.92493783868549
 30
0.0
 10
77.15321655491748
 20
30.1749405513591
 30
0.0
 10
77.15321655491748
 20
29.24993241333827
 30
0.0
 10
77.15321655491748
 20
28.32457976576883
 30
0.0
 10
77.90355835179248
 20
27.57492698799104
 30
0.0
 10
78.8282219802647
 20
27.57492698799104
 30
0.0
  0
SPLINE
  5
18A0
100
AcDbEntity
  8
ALPHA
 62
     7
100
AcDbSpline
210
0.0
220
0.0
230
1.0
 70
     8
 71
     3
 72
     8
 73
     4
 74
     0
 42
0.0000001
 43
0.0000001
 40
0.0
 40
0.0
 40
0.0
 40
0.0
 40
1.0
 40
1.0
 40
1.0
 40
1.0
 10
76.41045396811192
 20
28.13992264771327
 30
0.0
 10
76.72412991212235
 20
27.45676021281744
 30
0.0
 10
77.31220771160152
 20
26.93827334215771
 30
0.0
 10
78.02913208226122
 20
26.71193056872022
 30
0.0
  0
LINE
  5
18A1
100
AcDbEntity
  8
ALPHA
 62
     7
100
AcDbLine
 10
78.828222
 20
27.574927
 30
0.0
 11
78.828222
 21
27.278993
 31
0.0
  0
LINE
  5
18A2
100
AcDbEntity
  8
ALPHA
 62
     7
100
AcDbLine
 10
80.700804
 20
28.3139
 30
0.0
 11
83.65704
 21
28.3139
 31
0.0
  0
LINE
  5
18A3
100
AcDbEntity
  8
ALPHA
 62
     7
100
AcDbLine
 10
79.814208
 20
33.58593
 30
0.0
 11
79.814208
 21
30.924938
 31
0.0
  0
SPLINE
  5
18A4
100
AcDbEntity
  8
ALPHA
 62
     7
100
AcDbSpline
210
0.0
220
0.0
230
-1.0
 70
     8
 71
     3
 72
     8
 73
     4
 74
     0
 42
0.0000001
 43
0.0000001
 40
0.0
 40
0.0
 40
0.0
 40
0.0
 40
1.0
 40
1.0
 40
1.0
 40
1.0
 10
80.7008036317404
 20
32.74808236993548
 30
0.0
 10
80.7008036317404
 20
33.29275196628965
 30
0.0
 10
80.25948689996956
 20
33.73337967896327
 30
0.0
 10
79.71567857748692
 20
33.73337967896327
 30
0.0
  0
LINE
  5
18A5
100
AcDbEntity
  8
ALPHA
 62
     7
100
AcDbLine
 10
79.715679
 20
33.73338
 30
0.0
 11
79.222685
 21
33.73338
 31
0.0
  0
LINE
  5
18A6
100
AcDbEntity
  8
ALPHA
 62
     7
100
AcDbLine
 10
80.294799
 20
36.93594
 30
0.0
 11
78.828222
 21
36.93594
 31
0.0
  0
LINE
  5
18A7
100
AcDbEntity
  8
ALPHA
 62
     7
100
AcDbLine
 10
80.795199
 20
38.315701
 30
0.0
 11
83.706649
 21
38.315701
 31
0.0
  0
LINE
  5
18A8
100
AcDbEntity
  8
ALPHA
 62
     7
100
AcDbLine
 10
80.700804
 20
38.167562
 30
0.0
 11
83.706649
 21
38.167562
 31
0.0
  0
LINE
  5
18A9
100
AcDbEntity
  8
ALPHA
 62
     7
100
AcDbLine
 10
80.700804
 20
37.217749
 30
0.0
 11
83.706649
 21
37.217749
 31
0.0
  0
SPLINE
  5
18AA
100
AcDbEntity
  8
ALPHA
 62
     7
100
AcDbSpline
210
0.0
220
0.0
230
-1.0
 70
     8
 71
     3
 72
    11
 73
     7
 74
     0
 42
0.0000001
 43
0.0000001
 40
0.0
 40
0.0
 40
0.0
 40
0.0
 40
1.0
 40
1.0
 40
1.0
 40
2.0
 40
2.0
 40
2.0
 40
2.0
 10
80.79519924805984
 20
38.31570118503965
 30
0.0
 10
80.52303670465708
 20
38.31570118503965
 30
0.0
 10
80.30237833877164
 20
38.09487056437993
 30
0.0
 10
80.30237833877164
 20
37.82270802097716
 30
0.0
 10
80.30237833877164
 20
37.82132998278271
 30
0.0
 10
80.30237833877164
 20
37.81926292549104
 30
0.0
 10
80.30237833877164
 20
37.81719586819937
 30
0.0
  0
SPLINE
  5
18AB
100
AcDbEntity
  8
ALPHA
 62
     7
100
AcDbSpline
210
0.0
220
0.0
230
1.0
 70
     8
 71
     3
 72
     8
 73
     4
 74
     0
 42
0.0000001
 43
0.0000001
 40
0.0
 40
0.0
 40
0.0
 40
0.0
 40
1.0
 40
1.0
 40
1.0
 40
1.0
 10
80.20798272245221
 20
36.68961611559521
 30
0.0
 10
80.48014526585498
 20
36.68961611559521
 30
0.0
 10
80.7008036317404
 20
36.91010222670632
 30
0.0
 10
80.7008036317404
 20
37.18260927965771
 30
0.0
  0
LINE
  5
18AC
100
AcDbEntity
  8
ALPHA
 62
     7
100
AcDbLine
 10
80.293421
 20
36.78849
 30
0.0
 11
80.302378
 21
37.827531
 31
0.0
  0
LINE
  5
18AD
100
AcDbEntity
  8
ALPHA
 62
     7
100
AcDbLine
 10
80.700804
 20
38.167562
 30
0.0
 11
80.700804
 21
37.182609
 31
0.0
  0
LINE
  5
18AE
100
AcDbEntity
  8
ALPHA
 62
     7
100
AcDbLine
 10
83.706649
 20
36.98555
 30
0.0
 11
83.706649
 21
38.315701
 31
0.0
  0
LINE
  5
18AF
100
AcDbEntity
  8
ALPHA
 62
     7
100
AcDbLine
 10
98.438222
 20
38.315701
 30
0.0
 11
106.813938
 21
38.315701
 31
0.0
  0
LINE
  5
18B0
100
AcDbEntity
  8
ALPHA
 62
     7
100
AcDbLine
 10
98.436844
 20
38.167562
 30
0.0
 11
106.815316
 21
38.167562
 31
0.0
  0
LINE
  5
18B1
100
AcDbEntity
  8
ALPHA
 62
     7
100
AcDbLine
 10
98.428748
 20
37.217749
 30
0.0
 11
106.823412
 21
37.217749
 31
0.0
  0
SPLINE
  5
18B2
100
AcDbEntity
  8
ALPHA
 62
     7
100
AcDbSpline
210
0.0
220
0.0
230
-1.0
 70
     8
 71
     3
 72
     8
 73
     4
 74
     0
 42
0.0000001
 43
0.0000001
 40
0.0
 40
0.0
 40
0.0
 40
0.0
 40
1.0
 40
1.0
 40
1.0
 40
1.0
 10
104.1143615744487
 20
38.31570118503965
 30
0.0
 10
104.0098029264452
 20
38.31570118503965
 30
0.0
 10
103.9133402528341
 20
38.26057965726188
 30
0.0
 10
103.8597690180251
 20
38.171007174623
 30
0.0
  0
LINE
  5
18B3
100
AcDbEntity
  8
ALPHA
 62
     7
100
AcDbLine
 10
103.523011
 20
38.167562
 30
0.0
 11
103.523011
 21
38.315701
 31
0.0
  0
LINE
  5
18B4
100
AcDbEntity
  8
ALPHA
 62
     7
100
AcDbLine
 10
106.826168
 20
36.98555
 30
0.0
 11
110.164638
 21
36.98555
 31
0.0
  0
LINE
  5
18B5
100
AcDbEntity
  8
ALPHA
 62
     7
100
AcDbLine
 10
110.164638
 20
38.167562
 30
0.0
 11
110.559102
 21
38.167562
 31
0.0
  0
LINE
  5
18B6
100
AcDbEntity
  8
ALPHA
 62
     7
100
AcDbLine
 10
110.164638
 20
37.217749
 30
0.0
 11
110.559102
 21
37.217749
 31
0.0
  0
LINE
  5
18B7
100
AcDbEntity
  8
ALPHA
 62
     7
100
AcDbLine
 10
110.164638
 20
41.173408
 30
0.0
 11
110.559102
 21
41.173408
 31
0.0
  0
LINE
  5
18B8
100
AcDbEntity
  8
ALPHA
 62
     7
100
AcDbLine
 10
110.164638
 20
39.252078
 30
0.0
 11
110.559102
 21
39.252078
 31
0.0
  0
LINE
  5
18B9
100
AcDbEntity
  8
ALPHA
 62
     7
100
AcDbLine
 10
91.047631
 20
55.659001
 30
0.0
 11
91.047631
 21
83.3493
 31
0.0
  0
LINE
  5
18BA
100
AcDbEntity
  8
ALPHA
 62
     7
100
AcDbLine
 10
92.525749
 20
55.659001
 30
0.0
 11
92.525749
 21
55.461597
 31
0.0
  0
LINE
  5
18BB
100
AcDbEntity
  8
ALPHA
 62
     7
100
AcDbLine
 10
93.560484
 20
83.644201
 30
0.0
 11
93.560484
 21
83.3493
 31
0.0
  0
LINE
  5
18BC
100
AcDbEntity
  8
ALPHA
 62
     7
100
AcDbLine
 10
106.726261
 20
48.377103
 30
0.0
 11
98.532618
 21
49.094371
 31
0.0
  0
LINE
  5
18BD
100
AcDbEntity
  8
ALPHA
 62
     7
100
AcDbLine
 10
98.525039
 20
48.304067
 30
0.0
 11
106.733151
 21
47.58542
 31
0.0
  0
LINE
  5
18BE
100
AcDbEntity
  8
ALPHA
 62
     7
100
AcDbLine
 10
110.164638
 20
45.952789
 30
0.0
 11
110.559102
 21
45.952789
 31
0.0
  0
LINE
  5
18BF
100
AcDbEntity
  8
ALPHA
 62
     7
100
AcDbLine
 10
110.559102
 20
55.264537
 30
0.0
 11
110.164638
 21
55.264537
 31
0.0
  0
LINE
  5
18C0
100
AcDbEntity
  8
ALPHA
 62
     7
100
AcDbLine
 10
113.564258
 20
59.846859
 30
0.0
 11
113.564258
 21
63.19687
 31
0.0
  0
LINE
  5
18C1
100
AcDbEntity
  8
ALPHA
 62
     7
100
AcDbLine
 10
115.140734
 20
59.846859
 30
0.0
 11
113.564258
 21
59.846859
 31
0.0
  0
LINE
  5
18C2
100
AcDbEntity
  8
ALPHA
 62
     7
100
AcDbLine
 10
113.564258
 20
63.19687
 30
0.0
 11
115.140734
 21
63.19687
 31
0.0
  0
LINE
  5
18C3
100
AcDbEntity
  8
ALPHA
 62
     7
100
AcDbLine
 10
112.627882
 20
83.3493
 30
0.0
 11
112.627882
 21
83.644201
 31
0.0
  0
LINE
  5
18C4
100
AcDbEntity
  8
ALPHA
 62
     7
100
AcDbLine
 10
58.555041
 20
146.828974
 30
0.0
 11
79.516724
 21
146.828974
 31
0.0
  0
LINE
  5
18C5
100
AcDbEntity
  8
ALPHA
 62
     7
100
AcDbLine
 10
58.555041
 20
146.531318
 30
0.0
 11
79.518102
 21
146.531318
 31
0.0
  0
LINE
  5
18C6
100
AcDbEntity
  8
ALPHA
 62
     7
100
AcDbLine
 10
58.555041
 20
145.521388
 30
0.0
 11
79.512073
 21
145.521388
 31
0.0
  0
LINE
  5
18C7
100
AcDbEntity
  8
ALPHA
 62
     7
100
AcDbLine
 10
48.872255
 20
144.998595
 30
0.0
 11
79.506561
 21
144.998595
 31
0.0
  0
LINE
  5
18C8
100
AcDbEntity
  8
ALPHA
 62
     7
100
AcDbLine
 10
56.361376
 20
119.316269
 30
0.0
 11
56.361376
 21
127.199854
 31
0.0
  0
LINE
  5
18C9
100
AcDbEntity
  8
ALPHA
 62
     7
100
AcDbLine
 10
50.448903
 20
127.199854
 30
0.0
 11
50.448903
 21
119.316269
 31
0.0
  0
LINE
  5
18CA
100
AcDbEntity
  8
ALPHA
 62
     7
100
AcDbLine
 10
48.872255
 20
146.907867
 30
0.0
 11
48.872255
 21
116.557265
 31
0.0
  0
LINE
  5
18CB
100
AcDbEntity
  8
ALPHA
 62
     7
100
AcDbLine
 10
50.448903
 20
119.316269
 30
0.0
 11
56.361376
 21
119.316269
 31
0.0
  0
LINE
  5
18CC
100
AcDbEntity
  8
ALPHA
 62
     7
100
AcDbLine
 10
51.853641
 20
103.263847
 30
0.0
 11
53.688154
 21
103.424389
 31
0.0
  0
LINE
  5
18CD
100
AcDbEntity
  8
ALPHA
 62
     7
100
AcDbLine
 10
53.076478
 20
98.571799
 30
0.0
 11
50.05444
 21
100.544289
 31
0.0
  0
LINE
  5
18CE
100
AcDbEntity
  8
ALPHA
 62
     7
100
AcDbLine
 10
53.503497
 20
116.064444
 30
0.0
 11
52.786573
 21
114.093677
 31
0.0
  0
SPLINE
  5
18CF
100
AcDbEntity
  8
ALPHA
 62
     7
100
AcDbSpline
210
0.0
220
0.0
230
-1.0
 70
     8
 71
     3
 72
     8
 73
     4
 74
     0
 42
0.0000001
 43
0.0000001
 40
0.0
 40
0.0
 40
0.0
 40
0.0
 40
1.0
 40
1.0
 40
1.0
 40
1.0
 10
51.85364108833763
 20
103.2638470726264
 30
0.0
 10
50.8357876269661
 20
103.1746190995361
 30
0.0
 10
50.05443997071609
 20
102.3224747310466
 30
0.0
 10
50.05443997071609
 20
101.300659409866
 30
0.0
  0
LINE
  5
18D0
100
AcDbEntity
  8
ALPHA
 62
     7
100
AcDbLine
 10
50.05444
 20
100.544289
 30
0.0
 11
50.05444
 21
101.300659
 31
0.0
  0
LINE
  5
18D1
100
AcDbEntity
  8
ALPHA
 62
     7
100
AcDbLine
 10
52.29358
 20
114.093677
 30
0.0
 11
48.872255
 21
116.557265
 31
0.0
  0
LINE
  5
18D2
100
AcDbEntity
  8
ALPHA
 62
     7
100
AcDbLine
 10
52.786573
 20
114.093677
 30
0.0
 11
52.29358
 21
114.093677
 31
0.0
  0
LINE
  5
18D3
100
AcDbEntity
  8
ALPHA
 62
     7
100
AcDbLine
 10
54.587152
 20
104.405896
 30
0.0
 11
54.587152
 21
116.064444
 31
0.0
  0
LINE
  5
18D4
100
AcDbEntity
  8
ALPHA
 62
     7
100
AcDbLine
 10
54.488622
 20
100.544289
 30
0.0
 11
53.569471
 21
98.571799
 31
0.0
  0
LINE
  5
18D5
100
AcDbEntity
  8
ALPHA
 62
     7
100
AcDbLine
 10
53.076478
 20
98.571799
 30
0.0
 11
53.569471
 21
98.571799
 31
0.0
  0
LINE
  5
18D6
100
AcDbEntity
  8
ALPHA
 62
     7
100
AcDbLine
 10
54.488622
 20
100.544289
 30
0.0
 11
55.572966
 21
100.544289
 31
0.0
  0
SPLINE
  5
18D7
100
AcDbEntity
  8
ALPHA
 62
     7
100
AcDbSpline
210
0.0
220
0.0
230
1.0
 70
     8
 71
     3
 72
     8
 73
     4
 74
     0
 42
0.0000001
 43
0.0000001
 40
0.0
 40
0.0
 40
0.0
 40
0.0
 40
1.0
 40
1.0
 40
1.0
 40
1.0
 10
53.68815443469179
 20
103.4243885222792
 30
0.0
 10
54.1968227832161
 20
103.46883025405
 30
0.0
 10
54.58715210179248
 20
103.894988565682
 30
0.0
 10
54.58715210179248
 20
104.4058962262722
 30
0.0
  0
LINE
  5
18D8
100
AcDbEntity
  8
ALPHA
 62
     7
100
AcDbLine
 10
54.587152
 20
116.064444
 30
0.0
 11
53.503497
 21
116.064444
 31
0.0
  0
LINE
  5
18D9
100
AcDbEntity
  8
ALPHA
 62
     7
100
AcDbLine
 10
48.872255
 20
146.907867
 30
0.0
 11
58.555041
 21
146.907867
 31
0.0
  0
LINE
  5
18DA
100
AcDbEntity
  8
ALPHA
 62
     7
100
AcDbLine
 10
53.959111
 20
146.279482
 30
0.0
 11
50.645791
 21
146.279482
 31
0.0
  0
LINE
  5
18DB
100
AcDbEntity
  8
ALPHA
 62
     7
100
AcDbLine
 10
50.645791
 20
145.6399
 30
0.0
 11
53.319529
 21
145.6399
 31
0.0
  0
LINE
  5
18DC
100
AcDbEntity
  8
ALPHA
 62
     7
100
AcDbLine
 10
56.361376
 20
127.199854
 30
0.0
 11
50.448903
 21
127.199854
 31
0.0
  0
LINE
  5
18DD
100
AcDbEntity
  8
ALPHA
 62
     7
100
AcDbLine
 10
50.645791
 20
145.208746
 30
0.0
 11
50.645791
 21
146.528217
 31
0.0
  0
LINE
  5
18DE
100
AcDbEntity
  8
ALPHA
 62
     7
100
AcDbLine
 10
50.547261
 20
145.208746
 30
0.0
 11
50.547261
 21
146.907867
 31
0.0
  0
LINE
  5
18DF
100
AcDbEntity
  8
ALPHA
 62
     7
100
AcDbLine
 10
49.069143
 20
146.907867
 30
0.0
 11
49.069143
 21
145.170333
 31
0.0
  0
LINE
  5
18E0
100
AcDbEntity
  8
ALPHA
 62
     7
100
AcDbLine
 10
50.547261
 20
145.938934
 30
0.0
 11
49.069143
 21
145.938934
 31
0.0
  0
LINE
  5
18E1
100
AcDbEntity
  8
ALPHA
 62
     7
100
AcDbLine
 10
49.554729
 20
145.208746
 30
0.0
 11
50.645791
 21
145.208746
 31
0.0
  0
LINE
  5
18E2
100
AcDbEntity
  8
ALPHA
 62
     7
100
AcDbLine
 10
48.872255
 20
145.154658
 30
0.0
 11
49.554729
 21
145.208746
 31
0.0
  0
LINE
  5
18E3
100
AcDbEntity
  8
ALPHA
 62
     7
100
AcDbLine
 10
50.645791
 20
146.528217
 30
0.0
 11
50.547261
 21
146.528217
 31
0.0
  0
LINE
  5
18E4
100
AcDbEntity
  8
ALPHA
 62
     7
100
AcDbLine
 10
73.852126
 20
146.159937
 30
0.0
 11
73.852126
 21
145.521388
 31
0.0
  0
LINE
  5
18E5
100
AcDbEntity
  8
ALPHA
 62
     7
100
AcDbLine
 10
72.867001
 20
145.521388
 30
0.0
 11
72.867001
 21
146.159937
 31
0.0
  0
LINE
  5
18E6
100
AcDbEntity
  8
ALPHA
 62
     7
100
AcDbLine
 10
71.142386
 20
146.159937
 30
0.0
 11
71.142386
 21
145.521388
 31
0.0
  0
LINE
  5
18E7
100
AcDbEntity
  8
ALPHA
 62
     7
100
AcDbLine
 10
70.157261
 20
145.521388
 30
0.0
 11
70.157261
 21
146.159937
 31
0.0
  0
LINE
  5
18E8
100
AcDbEntity
  8
ALPHA
 62
     7
100
AcDbLine
 10
68.18615
 20
146.159937
 30
0.0
 11
68.18615
 21
145.521388
 31
0.0
  0
LINE
  5
18E9
100
AcDbEntity
  8
ALPHA
 62
     7
100
AcDbLine
 10
67.201025
 20
145.521388
 30
0.0
 11
67.201025
 21
146.159937
 31
0.0
  0
LINE
  5
18EA
100
AcDbEntity
  8
ALPHA
 62
     7
100
AcDbLine
 10
65.229913
 20
146.159937
 30
0.0
 11
65.229913
 21
145.521388
 31
0.0
  0
LINE
  5
18EB
100
AcDbEntity
  8
ALPHA
 62
     7
100
AcDbLine
 10
64.244788
 20
145.521388
 30
0.0
 11
64.244788
 21
146.159937
 31
0.0
  0
LINE
  5
18EC
100
AcDbEntity
  8
ALPHA
 62
     7
100
AcDbLine
 10
58.555041
 20
145.521388
 30
0.0
 11
58.555041
 21
146.531318
 31
0.0
  0
LINE
  5
18ED
100
AcDbEntity
  8
ALPHA
 62
     7
100
AcDbLine
 10
56.361376
 20
146.496006
 30
0.0
 11
56.361376
 21
146.018688
 31
0.0
  0
LINE
  5
18EE
100
AcDbEntity
  8
ALPHA
 62
     7
100
AcDbLine
 10
54.587152
 20
145.275236
 30
0.0
 11
54.587152
 21
146.496006
 31
0.0
  0
LINE
  5
18EF
100
AcDbEntity
  8
ALPHA
 62
     7
100
AcDbLine
 10
53.959111
 20
146.279482
 30
0.0
 11
53.514349
 21
145.83472
 31
0.0
  0
LINE
  5
18F0
100
AcDbEntity
  8
ALPHA
 62
     7
100
AcDbLine
 10
54.587152
 20
145.275236
 30
0.0
 11
56.361376
 21
145.275236
 31
0.0
  0
POLYLINE
  5
18F1
100
AcDbEntity
  8
ALPHA
 62
     7
100
AcDb2dPolyline
 66
     1
 10
0.0
 20
0.0
 30
0.0
  0
VERTEX
  5
18F2
100
AcDbEntity
  8
ALPHA
 62
     7
100
AcDbVertex
100
AcDb2dVertex
 10
53.437007
 20
145.757377
 30
0.0
  0
VERTEX
  5
18F3
100
AcDbEntity
  8
ALPHA
 62
     7
100
AcDbVertex
100
AcDb2dVertex
 10
53.802876
 20
145.739635
 30
0.0
  0
VERTEX
  5
18F4
100
AcDbEntity
  8
ALPHA
 62
     7
100
AcDbVertex
100
AcDb2dVertex
 10
54.189933
 20
145.728783
 30
0.0
  0
VERTEX
  5
18F5
100
AcDbEntity
  8
ALPHA
 62
     7
100
AcDbVertex
100
AcDb2dVertex
 10
54.587152
 20
145.724993
 30
0.0
  0
SEQEND
  5
18F6
100
AcDbEntity
  8
ALPHA
 62
     7
  0
LINE
  5
18F7
100
AcDbEntity
  8
ALPHA
 62
     7
100
AcDbLine
 10
53.437007
 20
145.757377
 30
0.0
 11
53.319529
 21
145.6399
 31
0.0
  0
LINE
  5
18F8
100
AcDbEntity
  8
ALPHA
 62
     7
100
AcDbLine
 10
56.11488
 20
146.004391
 30
0.0
 11
56.361376
 21
146.018688
 31
0.0
  0
LINE
  5
18F9
100
AcDbEntity
  8
ALPHA
 62
     7
100
AcDbLine
 10
56.11488
 20
146.004391
 30
0.0
 11
56.042877
 21
145.997328
 31
0.0
  0
LINE
  5
18FA
100
AcDbEntity
  8
ALPHA
 62
     7
100
AcDbLine
 10
56.361376
 20
145.956159
 30
0.0
 11
56.11488
 21
145.970457
 31
0.0
  0
POLYLINE
  5
18FB
100
AcDbEntity
  8
ALPHA
 62
     7
100
AcDb2dPolyline
 66
     1
 10
0.0
 20
0.0
 30
0.0
  0
VERTEX
  5
18FC
100
AcDbEntity
  8
ALPHA
 62
     7
100
AcDbVertex
100
AcDb2dVertex
 10
56.01635
 20
145.98751
 30
0.0
  0
VERTEX
  5
18FD
100
AcDbEntity
  8
ALPHA
 62
     7
100
AcDbVertex
100
AcDb2dVertex
 10
56.042877
 20
145.977691
 30
0.0
  0
VERTEX
  5
18FE
100
AcDbEntity
  8
ALPHA
 62
     7
100
AcDbVertex
100
AcDb2dVertex
 10
56.11488
 20
145.970457
 30
0.0
  0
SEQEND
  5
18FF
100
AcDbEntity
  8
ALPHA
 62
     7
  0
LINE
  5
1900
100
AcDbEntity
  8
ALPHA
 62
     7
100
AcDbLine
 10
56.361376
 20
145.956159
 30
0.0
 11
56.361376
 21
145.275236
 31
0.0
  0
LINE
  5
1901
100
AcDbEntity
  8
ALPHA
 62
     7
100
AcDbLine
 10
56.01635
 20
145.275236
 30
0.0
 11
56.01635
 21
145.98751
 31
0.0
  0
LINE
  5
1902
100
AcDbEntity
  8
ALPHA
 62
     7
100
AcDbLine
 10
56.361376
 20
146.496006
 30
0.0
 11
54.587152
 21
146.496006
 31
0.0
  0
POLYLINE
  5
1903
100
AcDbEntity
  8
ALPHA
 62
     7
100
AcDb2dPolyline
 66
     1
 10
0.0
 20
0.0
 30
0.0
  0
VERTEX
  5
1904
100
AcDbEntity
  8
ALPHA
 62
     7
100
AcDbVertex
100
AcDb2dVertex
 10
54.587152
 20
146.216953
 30
0.0
  0
VERTEX
  5
1905
100
AcDbEntity
  8
ALPHA
 62
     7
100
AcDbVertex
100
AcDb2dVertex
 10
54.351508
 20
146.216264
 30
0.0
  0
VERTEX
  5
1906
100
AcDbEntity
  8
ALPHA
 62
     7
100
AcDbVertex
100
AcDb2dVertex
 10
54.117241
 20
146.213163
 30
0.0
  0
VERTEX
  5
1907
100
AcDbEntity
  8
ALPHA
 62
     7
100
AcDbVertex
100
AcDb2dVertex
 10
53.887798
 20
146.208168
 30
0.0
  0
SEQEND
  5
1908
100
AcDbEntity
  8
ALPHA
 62
     7
  0
LINE
  5
1909
100
AcDbEntity
  8
ALPHA
 62
     7
100
AcDbLine
 10
58.555041
 20
146.82863
 30
0.0
 11
58.555041
 21
146.907867
 31
0.0
  0
POLYLINE
  5
190A
100
AcDbEntity
  8
ALPHA
 62
     7
100
AcDb2dPolyline
 66
     1
 10
0.0
 20
0.0
 30
0.0
  0
VERTEX
  5
190B
100
AcDbEntity
  8
ALPHA
 62
     7
100
AcDbVertex
100
AcDb2dVertex
 10
64.244788
 20
146.159937
 30
0.0
  0
VERTEX
  5
190C
100
AcDbEntity
  8
ALPHA
 62
     7
100
AcDbVertex
100
AcDb2dVertex
 10
64.284235
 20
146.22436
 30
0.0
  0
VERTEX
  5
190D
100
AcDbEntity
  8
ALPHA
 62
     7
100
AcDbVertex
100
AcDb2dVertex
 10
64.3962
 20
146.280171
 30
0.0
  0
VERTEX
  5
190E
100
AcDbEntity
  8
ALPHA
 62
     7
100
AcDbVertex
100
AcDb2dVertex
 10
64.558464
 20
146.316689
 30
0.0
  0
VERTEX
  5
190F
100
AcDbEntity
  8
ALPHA
 62
     7
100
AcDbVertex
100
AcDb2dVertex
 10
64.74381
 20
146.328574
 30
0.0
  0
VERTEX
  5
1910
100
AcDbEntity
  8
ALPHA
 62
     7
100
AcDbVertex
100
AcDb2dVertex
 10
64.9264
 20
146.315138
 30
0.0
  0
VERTEX
  5
1911
100
AcDbEntity
  8
ALPHA
 62
     7
100
AcDbVertex
100
AcDb2dVertex
 10
65.083325
 20
146.278793
 30
0.0
  0
VERTEX
  5
1912
100
AcDbEntity
  8
ALPHA
 62
     7
100
AcDbVertex
100
AcDb2dVertex
 10
65.190639
 20
146.224016
 30
0.0
  0
VERTEX
  5
1913
100
AcDbEntity
  8
ALPHA
 62
     7
100
AcDbVertex
100
AcDb2dVertex
 10
65.229913
 20
146.159937
 30
0.0
  0
SEQEND
  5
1914
100
AcDbEntity
  8
ALPHA
 62
     7
  0
POLYLINE
  5
1915
100
AcDbEntity
  8
ALPHA
 62
     7
100
AcDb2dPolyline
 66
     1
 10
0.0
 20
0.0
 30
0.0
  0
VERTEX
  5
1916
100
AcDbEntity
  8
ALPHA
 62
     7
100
AcDbVertex
100
AcDb2dVertex
 10
67.201025
 20
146.159937
 30
0.0
  0
VERTEX
  5
1917
100
AcDbEntity
  8
ALPHA
 62
     7
100
AcDbVertex
100
AcDb2dVertex
 10
67.240299
 20
146.22436
 30
0.0
  0
VERTEX
  5
1918
100
AcDbEntity
  8
ALPHA
 62
     7
100
AcDbVertex
100
AcDb2dVertex
 10
67.352437
 20
146.280171
 30
0.0
  0
VERTEX
  5
1919
100
AcDbEntity
  8
ALPHA
 62
     7
100
AcDbVertex
100
AcDb2dVertex
 10
67.514701
 20
146.316689
 30
0.0
  0
VERTEX
  5
191A
100
AcDbEntity
  8
ALPHA
 62
     7
100
AcDbVertex
100
AcDb2dVertex
 10
67.700047
 20
146.328574
 30
0.0
  0
VERTEX
  5
191B
100
AcDbEntity
  8
ALPHA
 62
     7
100
AcDbVertex
100
AcDb2dVertex
 10
67.882637
 20
146.315138
 30
0.0
  0
VERTEX
  5
191C
100
AcDbEntity
  8
ALPHA
 62
     7
100
AcDbVertex
100
AcDb2dVertex
 10
68.039561
 20
146.278793
 30
0.0
  0
VERTEX
  5
191D
100
AcDbEntity
  8
ALPHA
 62
     7
100
AcDbVertex
100
AcDb2dVertex
 10
68.146876
 20
146.224016
 30
0.0
  0
VERTEX
  5
191E
100
AcDbEntity
  8
ALPHA
 62
     7
100
AcDbVertex
100
AcDb2dVertex
 10
68.18615
 20
146.159937
 30
0.0
  0
SEQEND
  5
191F
100
AcDbEntity
  8
ALPHA
 62
     7
  0
POLYLINE
  5
1920
100
AcDbEntity
  8
ALPHA
 62
     7
100
AcDb2dPolyline
 66
     1
 10
0.0
 20
0.0
 30
0.0
  0
VERTEX
  5
1921
100
AcDbEntity
  8
ALPHA
 62
     7
100
AcDbVertex
100
AcDb2dVertex
 10
70.157261
 20
146.159937
 30
0.0
  0
VERTEX
  5
1922
100
AcDbEntity
  8
ALPHA
 62
     7
100
AcDbVertex
100
AcDb2dVertex
 10
70.196535
 20
146.22436
 30
0.0
  0
VERTEX
  5
1923
100
AcDbEntity
  8
ALPHA
 62
     7
100
AcDbVertex
100
AcDb2dVertex
 10
70.308673
 20
146.280171
 30
0.0
  0
VERTEX
  5
1924
100
AcDbEntity
  8
ALPHA
 62
     7
100
AcDbVertex
100
AcDb2dVertex
 10
70.470937
 20
146.316689
 30
0.0
  0
VERTEX
  5
1925
100
AcDbEntity
  8
ALPHA
 62
     7
100
AcDbVertex
100
AcDb2dVertex
 10
70.656283
 20
146.328574
 30
0.0
  0
VERTEX
  5
1926
100
AcDbEntity
  8
ALPHA
 62
     7
100
AcDbVertex
100
AcDb2dVertex
 10
70.838873
 20
146.315138
 30
0.0
  0
VERTEX
  5
1927
100
AcDbEntity
  8
ALPHA
 62
     7
100
AcDbVertex
100
AcDb2dVertex
 10
70.995797
 20
146.278793
 30
0.0
  0
VERTEX
  5
1928
100
AcDbEntity
  8
ALPHA
 62
     7
100
AcDbVertex
100
AcDb2dVertex
 10
71.10294
 20
146.224016
 30
0.0
  0
VERTEX
  5
1929
100
AcDbEntity
  8
ALPHA
 62
     7
100
AcDbVertex
100
AcDb2dVertex
 10
71.142386
 20
146.159937
 30
0.0
  0
SEQEND
  5
192A
100
AcDbEntity
  8
ALPHA
 62
     7
  0
POLYLINE
  5
192B
100
AcDbEntity
  8
ALPHA
 62
     7
100
AcDb2dPolyline
 66
     1
 10
0.0
 20
0.0
 30
0.0
  0
VERTEX
  5
192C
100
AcDbEntity
  8
ALPHA
 62
     7
100
AcDbVertex
100
AcDb2dVertex
 10
72.867001
 20
146.159937
 30
0.0
  0
VERTEX
  5
192D
100
AcDbEntity
  8
ALPHA
 62
     7
100
AcDbVertex
100
AcDb2dVertex
 10
72.906275
 20
146.22436
 30
0.0
  0
VERTEX
  5
192E
100
AcDbEntity
  8
ALPHA
 62
     7
100
AcDbVertex
100
AcDb2dVertex
 10
73.018413
 20
146.280171
 30
0.0
  0
VERTEX
  5
192F
100
AcDbEntity
  8
ALPHA
 62
     7
100
AcDbVertex
100
AcDb2dVertex
 10
73.180677
 20
146.316689
 30
0.0
  0
VERTEX
  5
1930
100
AcDbEntity
  8
ALPHA
 62
     7
100
AcDbVertex
100
AcDb2dVertex
 10
73.366023
 20
146.328574
 30
0.0
  0
VERTEX
  5
1931
100
AcDbEntity
  8
ALPHA
 62
     7
100
AcDbVertex
100
AcDb2dVertex
 10
73.549302
 20
146.315138
 30
0.0
  0
VERTEX
  5
1932
100
AcDbEntity
  8
ALPHA
 62
     7
100
AcDbVertex
100
AcDb2dVertex
 10
73.705537
 20
146.278793
 30
0.0
  0
VERTEX
  5
1933
100
AcDbEntity
  8
ALPHA
 62
     7
100
AcDbVertex
100
AcDb2dVertex
 10
73.813369
 20
146.224016
 30
0.0
  0
VERTEX
  5
1934
100
AcDbEntity
  8
ALPHA
 62
     7
100
AcDbVertex
100
AcDb2dVertex
 10
73.852126
 20
146.159937
 30
0.0
  0
SEQEND
  5
1935
100
AcDbEntity
  8
ALPHA
 62
     7
  0
LINE
  5
1936
100
AcDbEntity
  8
ALPHA
 62
     7
100
AcDbLine
 10
110.460055
 20
113.206909
 30
0.0
 11
110.460055
 21
131.634036
 31
0.0
  0
LINE
  5
1937
100
AcDbEntity
  8
ALPHA
 62
     7
100
AcDbLine
 10
110.164638
 20
113.403797
 30
0.0
 11
110.164638
 21
131.634036
 31
0.0
  0
LINE
  5
1938
100
AcDbEntity
  8
ALPHA
 62
     7
100
AcDbLine
 10
109.869221
 20
131.634036
 30
0.0
 11
109.869221
 21
113.699558
 31
0.0
  0
LINE
  5
1939
100
AcDbEntity
  8
ALPHA
 62
     7
100
AcDbLine
 10
101.985809
 20
126.214212
 30
0.0
 11
101.985809
 21
122.420473
 31
0.0
  0
LINE
  5
193A
100
AcDbEntity
  8
ALPHA
 62
     7
100
AcDbLine
 10
98.635109
 20
122.420473
 30
0.0
 11
98.635109
 21
126.214212
 31
0.0
  0
LINE
  5
193B
100
AcDbEntity
  8
ALPHA
 62
     7
100
AcDbLine
 10
109.869221
 20
113.699558
 30
0.0
 11
92.026038
 21
113.699558
 31
0.0
  0
LINE
  5
193C
100
AcDbEntity
  8
ALPHA
 62
     7
100
AcDbLine
 10
110.164638
 20
113.403797
 30
0.0
 11
92.427392
 21
113.403797
 31
0.0
  0
LINE
  5
193D
100
AcDbEntity
  8
ALPHA
 62
     7
100
AcDbLine
 10
92.525749
 20
113.206909
 30
0.0
 11
110.460055
 21
113.206909
 31
0.0
  0
LINE
  5
193E
100
AcDbEntity
  8
ALPHA
 62
     7
100
AcDbLine
 10
91.047631
 20
111.728791
 30
0.0
 11
92.525749
 21
113.206909
 31
0.0
  0
LINE
  5
193F
100
AcDbEntity
  8
ALPHA
 62
     7
100
AcDbLine
 10
92.427392
 20
113.403797
 30
0.0
 11
90.850744
 21
111.827321
 31
0.0
  0
LINE
  5
1940
100
AcDbEntity
  8
ALPHA
 62
     7
100
AcDbLine
 10
90.357751
 20
112.031271
 30
0.0
 11
92.026038
 21
113.699558
 31
0.0
  0
CIRCLE
  5
1941
100
AcDbEntity
  8
ALPHA
 62
     7
100
AcDbCircle
 10
99.620579
 20
88.512637
 30
0.0
 40
0.98547
  0
LINE
  5
1942
100
AcDbEntity
  8
ALPHA
 62
     7
100
AcDbLine
 10
98.290255
 20
90.828258
 30
0.0
 11
100.951075
 21
90.828258
 31
0.0
  0
LINE
  5
1943
100
AcDbEntity
  8
ALPHA
 62
     7
100
AcDbLine
 10
100.951075
 20
86.196672
 30
0.0
 11
98.290255
 21
86.196672
 31
0.0
  0
SPLINE
  5
1944
100
AcDbEntity
  8
ALPHA
 62
     7
100
AcDbSpline
210
0.0
220
0.0
230
-1.0
 70
     8
 71
     3
 72
     8
 73
     4
 74
     0
 42
0.0000001
 43
0.0000001
 40
0.0
 40
0.0
 40
0.0
 40
0.0
 40
1.0
 40
1.0
 40
1.0
 40
1.0
 10
98.2902554004036
 20
90.82825815118548
 30
0.0
 10
97.74627482314665
 20
90.82825815118548
 30
0.0
 10
97.30495809137581
 20
90.38694141941466
 30
0.0
 10
97.30495809137581
 20
89.8427885873834
 30
0.0
  0
SPLINE
  5
1945
100
AcDbEntity
  8
ALPHA
 62
     7
100
AcDbSpline
210
0.0
220
0.0
230
1.0
 70
     8
 71
     3
 72
     8
 73
     4
 74
     0
 42
0.0000001
 43
0.0000001
 40
0.0
 40
0.0
 40
0.0
 40
0.0
 40
1.0
 40
1.0
 40
1.0
 40
1.0
 10
97.30495809137581
 20
87.18214134345979
 30
0.0
 10
97.30495809137581
 20
86.63798851142855
 30
0.0
 10
97.74627482314665
 20
86.19667177965771
 30
0.0
 10
98.2902554004036
 20
86.19667177965771
 30
0.0
  0
LINE
  5
1946
100
AcDbEntity
  8
ALPHA
 62
     7
100
AcDbLine
 10
97.304958
 20
87.182141
 30
0.0
 11
97.304958
 21
89.842789
 31
0.0
  0
SPLINE
  5
1947
100
AcDbEntity
  8
ALPHA
 62
     7
100
AcDbSpline
210
0.0
220
0.0
230
-1.0
 70
     8
 71
     3
 72
     8
 73
     4
 74
     0
 42
0.0000001
 43
0.0000001
 40
0.0
 40
0.0
 40
0.0
 40
0.0
 40
1.0
 40
1.0
 40
1.0
 40
1.0
 10
101.9361999533549
 20
89.8427885873834
 30
0.0
 10
101.9361999533549
 20
90.38694141941466
 30
0.0
 10
101.4955722406813
 20
90.82825815118548
 30
0.0
 10
100.9510748991015
 20
90.82825815118548
 30
0.0
  0
LINE
  5
1948
100
AcDbEntity
  8
ALPHA
 62
     7
100
AcDbLine
 10
101.9362
 20
89.842789
 30
0.0
 11
101.9362
 21
87.182141
 31
0.0
  0
SPLINE
  5
1949
100
AcDbEntity
  8
ALPHA
 62
     7
100
AcDbSpline
210
0.0
220
0.0
230
1.0
 70
     8
 71
     3
 72
     8
 73
     4
 74
     0
 42
0.0000001
 43
0.0000001
 40
0.0
 40
0.0
 40
0.0
 40
0.0
 40
1.0
 40
1.0
 40
1.0
 40
1.0
 10
100.9510748991015
 20
86.19667177965771
 30
0.0
 10
101.4955722406813
 20
86.19667177965771
 30
0.0
 10
101.9361999533549
 20
86.63798851142855
 30
0.0
 10
101.9361999533549
 20
87.18214134345979
 30
0.0
  0
LINE
  5
194A
100
AcDbEntity
  8
ALPHA
 62
     7
100
AcDbLine
 10
115.584118
 20
87.98037
 30
0.0
 11
115.584118
 21
92.118963
 31
0.0
  0
LINE
  5
194B
100
AcDbEntity
  8
ALPHA
 62
     7
100
AcDbLine
 10
101.985809
 20
122.420473
 30
0.0
 11
98.635109
 21
122.420473
 31
0.0
  0
LINE
  5
194C
100
AcDbEntity
  8
ALPHA
 62
     7
100
AcDbLine
 10
113.909113
 20
118.23227
 30
0.0
 11
113.909113
 21
115.276206
 31
0.0
  0
LINE
  5
194D
100
AcDbEntity
  8
ALPHA
 62
     7
100
AcDbLine
 10
113.564258
 20
115.276206
 30
0.0
 11
113.564258
 21
118.23227
 31
0.0
  0
LINE
  5
194E
100
AcDbEntity
  8
ALPHA
 62
     7
100
AcDbLine
 10
115.042377
 20
115.276206
 30
0.0
 11
113.564258
 21
115.276206
 31
0.0
  0
LINE
  5
194F
100
AcDbEntity
  8
ALPHA
 62
     7
100
AcDbLine
 10
113.564258
 20
118.23227
 30
0.0
 11
115.042377
 21
118.23227
 31
0.0
  0
LINE
  5
1950
100
AcDbEntity
  8
ALPHA
 62
     7
100
AcDbLine
 10
89.86493
 20
131.634036
 30
0.0
 11
110.164638
 21
131.634036
 31
0.0
  0
LINE
  5
1951
100
AcDbEntity
  8
ALPHA
 62
     7
100
AcDbLine
 10
104.547582
 20
128.776329
 30
0.0
 11
94.398331
 21
128.776329
 31
0.0
  0
LINE
  5
1952
100
AcDbEntity
  8
ALPHA
 62
     7
100
AcDbLine
 10
85.825039
 20
141.586745
 30
0.0
 11
85.825039
 21
148.825235
 31
0.0
  0
LINE
  5
1953
100
AcDbEntity
  8
ALPHA
 62
     7
100
AcDbLine
 10
82.868802
 20
137.15239
 30
0.0
 11
82.868802
 21
149.962805
 31
0.0
  0
LINE
  5
1954
100
AcDbEntity
  8
ALPHA
 62
     7
100
AcDbLine
 10
82.433687
 20
136.340381
 30
0.0
 11
82.316209
 21
149.76833
 31
0.0
  0
LINE
  5
1955
100
AcDbEntity
  8
ALPHA
 62
     7
100
AcDbLine
 10
82.033711
 20
148.297619
 30
0.0
 11
82.128796
 21
137.349622
 31
0.0
  0
LINE
  5
1956
100
AcDbEntity
  8
ALPHA
 62
     7
100
AcDbLine
 10
79.50191
 20
145.008758
 30
0.0
 11
79.528954
 21
148.107621
 31
0.0
  0
LINE
  5
1957
100
AcDbEntity
  8
ALPHA
 62
     7
100
AcDbLine
 10
76.620949
 20
146.176301
 30
0.0
 11
76.620949
 21
145.521388
 31
0.0
  0
LINE
  5
1958
100
AcDbEntity
  8
ALPHA
 62
     7
100
AcDbLine
 10
75.635824
 20
145.521388
 30
0.0
 11
75.635824
 21
146.176301
 31
0.0
  0
LINE
  5
1959
100
AcDbEntity
  8
ALPHA
 62
     7
100
AcDbLine
 10
82.868802
 20
141.586745
 30
0.0
 11
85.825039
 21
141.586745
 31
0.0
  0
LINE
  5
195A
100
AcDbEntity
  8
ALPHA
 62
     7
100
AcDbLine
 10
89.86493
 20
133.010352
 30
0.0
 11
83.952457
 21
133.010352
 31
0.0
  0
SPLINE
  5
195B
100
AcDbEntity
  8
ALPHA
 62
     7
100
AcDbSpline
210
0.0
220
0.0
230
1.0
 70
     8
 71
     3
 72
    14
 73
    10
 74
     0
 42
0.0000001
 43
0.0000001
 40
0.0
 40
0.0
 40
0.0
 40
0.0
 40
1.0
 40
1.0
 40
1.0
 40
2.0
 40
2.0
 40
2.0
 40
3.0
 40
3.0
 40
3.0
 40
3.0
 10
80.99690958877165
 20
136.6595691863417
 30
0.0
 10
79.93564792427512
 20
136.659741441116
 30
0.0
 10
79.07471856229595
 20
135.799501098234
 30
0.0
 10
79.07471856229595
 20
134.7384116885118
 30
0.0
 10
79.07471856229595
 20
133.6771500240153
 30
0.0
 10
79.93495890517789
 20
132.8165651715847
 30
0.0
 10
80.99622056967442
 20
132.8165651715847
 30
0.0
 10
80.99622056967442
 20
132.8165651715847
 30
0.0
 10
80.99622056967442
 20
132.8165651715847
 30
0.0
 10
80.99690958877165
 20
132.8165651715847
 30
0.0
  0
SPLINE
  5
195C
100
AcDbEntity
  8
ALPHA
 62
     7
100
AcDbSpline
210
0.0
220
0.0
230
-1.0
 70
     8
 71
     3
 72
    11
 73
     7
 74
     0
 42
0.0000001
 43
0.0000001
 40
0.0
 40
0.0
 40
0.0
 40
0.0
 40
1.0
 40
1.0
 40
1.0
 40
2.0
 40
2.0
 40
2.0
 40
2.0
 10
81.39068400283415
 20
136.1669205318278
 30
0.0
 10
80.57454088217443
 20
136.1669205318278
 30
0.0
 10
79.91256578451817
 20
135.5052899437202
 30
0.0
 10
79.91256578451817
 20
134.6888023135118
 30
0.0
 10
79.91256578451817
 20
133.8723146833035
 30
0.0
 10
80.57454088217443
 20
133.2106840951959
 30
0.0
 10
81.39068400283415
 20
133.2106840951959
 30
0.0
  0
LINE
  5
195D
100
AcDbEntity
  8
ALPHA
 62
     7
100
AcDbLine
 10
82.173582
 20
132.816565
 30
0.0
 11
80.99691
 21
132.816565
 31
0.0
  0
LINE
  5
195E
100
AcDbEntity
  8
ALPHA
 62
     7
100
AcDbLine
 10
83.952457
 20
132.682723
 30
0.0
 11
82.868802
 21
132.682723
 31
0.0
  0
LINE
  5
195F
100
AcDbEntity
  8
ALPHA
 62
     7
100
AcDbLine
 10
82.868802
 20
131.732566
 30
0.0
 11
83.952457
 21
131.732566
 31
0.0
  0
LINE
  5
1960
100
AcDbEntity
  8
ALPHA
 62
     7
100
AcDbLine
 10
82.173582
 20
131.634036
 30
0.0
 11
83.952457
 21
131.634036
 31
0.0
  0
SPLINE
  5
1961
100
AcDbEntity
  8
ALPHA
 62
     7
100
AcDbSpline
210
0.0
220
0.0
230
1.0
 70
     8
 71
     3
 72
     8
 73
     4
 74
     0
 42
0.0000001
 43
0.0000001
 40
0.0
 40
0.0
 40
0.0
 40
0.0
 40
1.0
 40
1.0
 40
1.0
 40
1.0
 10
82.86880222115012
 20
132.718035440682
 30
0.0
 10
82.86880222115012
 20
132.9492013478
 30
0.0
 10
82.70791626194874
 20
133.1491891407688
 30
0.0
 10
82.48174574328555
 20
133.1991430253174
 30
0.0
  0
LINE
  5
1962
100
AcDbEntity
  8
ALPHA
 62
     7
100
AcDbLine
 10
82.868802
 20
132.718035
 30
0.0
 11
82.868802
 21
131.732566
 31
0.0
  0
LINE
  5
1963
100
AcDbEntity
  8
ALPHA
 62
     7
100
AcDbLine
 10
82.173582
 20
131.634036
 30
0.0
 11
82.173582
 21
132.816565
 31
0.0
  0
LINE
  5
1964
100
AcDbEntity
  8
ALPHA
 62
     7
100
AcDbLine
 10
83.952457
 20
131.634036
 30
0.0
 11
83.952457
 21
133.010352
 31
0.0
  0
SPLINE
  5
1965
100
AcDbEntity
  8
ALPHA
 62
     7
100
AcDbSpline
210
0.0
220
0.0
230
1.0
 70
     8
 71
     3
 72
    11
 73
     7
 74
     0
 42
0.0000001
 43
0.0000001
 40
0.0
 40
0.0
 40
0.0
 40
0.0
 40
1.0
 40
1.0
 40
1.0
 40
2.0
 40
2.0
 40
2.0
 40
2.0
 10
81.43891533963971
 20
136.6595691863417
 30
0.0
 10
81.82045966472651
 20
136.6595691863417
 30
0.0
 10
82.12879571073345
 20
136.9684219966716
 30
0.0
 10
82.12879571073345
 20
137.3492773026611
 30
0.0
 10
82.12879571073345
 20
137.3492773026611
 30
0.0
 10
82.12879571073345
 20
137.3496218122097
 30
0.0
 10
82.12879571073345
 20
137.3496218122097
 30
0.0
  0
LINE
  5
1966
100
AcDbEntity
  8
ALPHA
 62
     7
100
AcDbLine
 10
81.390684
 20
136.166921
 30
0.0
 11
81.883677
 21
136.166921
 31
0.0
  0
LINE
  5
1967
100
AcDbEntity
  8
ALPHA
 62
     7
100
AcDbLine
 10
80.99691
 20
136.659569
 30
0.0
 11
81.438915
 21
136.659569
 31
0.0
  0
SPLINE
  5
1968
100
AcDbEntity
  8
ALPHA
 62
     7
100
AcDbSpline
210
0.0
220
0.0
230
1.0
 70
     8
 71
     3
 72
     8
 73
     4
 74
     0
 42
0.0000001
 43
0.0000001
 40
0.0
 40
0.0
 40
0.0
 40
0.0
 40
1.0
 40
1.0
 40
1.0
 40
1.0
 10
81.88367716689665
 20
136.1669205318278
 30
0.0
 10
82.4274854893793
 20
136.1669205318278
 30
0.0
 10
82.86880222115012
 20
136.6082372635986
 30
0.0
 10
82.86880222115012
 20
137.1523900956299
 30
0.0
  0
LINE
  5
1969
100
AcDbEntity
  8
ALPHA
 62
     7
100
AcDbLine
 10
94.398331
 20
128.776329
 30
0.0
 11
94.398331
 21
131.634036
 31
0.0
  0
LINE
  5
196A
100
AcDbEntity
  8
ALPHA
 62
     7
100
AcDbLine
 10
93.80698
 20
127.593973
 30
0.0
 11
91.638982
 21
127.593973
 31
0.0
  0
LINE
  5
196B
100
AcDbEntity
  8
ALPHA
 62
     7
100
AcDbLine
 10
91.638982
 20
126.608331
 30
0.0
 11
93.80698
 21
126.608331
 31
0.0
  0
SPLINE
  5
196C
100
AcDbEntity
  8
ALPHA
 62
     7
100
AcDbSpline
210
0.0
220
0.0
230
-1.0
 70
     8
 71
     3
 72
    11
 73
     7
 74
     0
 42
0.0000001
 43
0.0000001
 40
0.0
 40
0.0
 40
0.0
 40
0.0
 40
1.0
 40
1.0
 40
1.0
 40
2.0
 40
2.0
 40
2.0
 40
2.0
 10
91.63898180014317
 20
127.5939726694146
 30
0.0
 10
91.36681925674039
 20
127.5939726694146
 30
0.0
 10
91.14616089085499
 20
127.3733143035292
 30
0.0
 10
91.14616089085499
 20
127.1009795053521
 30
0.0
 10
91.14616089085499
 20
126.8289892167236
 30
0.0
 10
91.36681925674039
 20
126.6083308508382
 30
0.0
 10
91.63898180014317
 20
126.6083308508382
 30
0.0
  0
SPLINE
  5
196D
100
AcDbEntity
  8
ALPHA
 62
     7
100
AcDbSpline
210
0.0
220
0.0
230
1.0
 70
     8
 71
     3
 72
    11
 73
     7
 74
     0
 42
0.0000001
 43
0.0000001
 40
0.0
 40
0.0
 40
0.0
 40
0.0
 40
1.0
 40
1.0
 40
1.0
 40
2.0
 40
2.0
 40
2.0
 40
2.0
 10
93.80698038955291
 20
126.6083308508382
 30
0.0
 10
94.07931518772997
 20
126.6083308508382
 30
0.0
 10
94.29928453451818
 20
126.8289892167236
 30
0.0
 10
94.29928453451818
 20
127.1009795053521
 30
0.0
 10
94.29928453451818
 20
127.3733143035292
 30
0.0
 10
94.07931518772997
 20
127.5939726694146
 30
0.0
 10
93.80698038955291
 20
127.5939726694146
 30
0.0
  0
LINE
  5
196E
100
AcDbEntity
  8
ALPHA
 62
     7
100
AcDbLine
 10
89.86493
 20
133.010352
 30
0.0
 11
89.86493
 21
131.634036
 31
0.0
  0
LINE
  5
196F
100
AcDbEntity
  8
ALPHA
 62
     7
100
AcDbLine
 10
85.825039
 20
148.825235
 30
0.0
 11
82.868802
 21
148.825235
 31
0.0
  0
POLYLINE
  5
1970
100
AcDbEntity
  8
ALPHA
 62
     7
100
AcDb2dPolyline
 66
     1
 10
0.0
 20
0.0
 30
0.0
  0
VERTEX
  5
1971
100
AcDbEntity
  8
ALPHA
 62
     7
100
AcDbVertex
100
AcDb2dVertex
 10
75.635824
 20
146.176301
 30
0.0
  0
VERTEX
  5
1972
100
AcDbEntity
  8
ALPHA
 62
     7
100
AcDbVertex
100
AcDb2dVertex
 10
75.675098
 20
146.241069
 30
0.0
  0
VERTEX
  5
1973
100
AcDbEntity
  8
ALPHA
 62
     7
100
AcDbVertex
100
AcDb2dVertex
 10
75.787236
 20
146.297396
 30
0.0
  0
VERTEX
  5
1974
100
AcDbEntity
  8
ALPHA
 62
     7
100
AcDbVertex
100
AcDb2dVertex
 10
75.950189
 20
146.334431
 30
0.0
  0
VERTEX
  5
1975
100
AcDbEntity
  8
ALPHA
 62
     7
100
AcDbVertex
100
AcDb2dVertex
 10
76.135535
 20
146.346316
 30
0.0
  0
VERTEX
  5
1976
100
AcDbEntity
  8
ALPHA
 62
     7
100
AcDbVertex
100
AcDb2dVertex
 10
76.318125
 20
146.332708
 30
0.0
  0
VERTEX
  5
1977
100
AcDbEntity
  8
ALPHA
 62
     7
100
AcDbVertex
100
AcDb2dVertex
 10
76.47436
 20
146.295674
 30
0.0
  0
VERTEX
  5
1978
100
AcDbEntity
  8
ALPHA
 62
     7
100
AcDbVertex
100
AcDb2dVertex
 10
76.582192
 20
146.240724
 30
0.0
  0
VERTEX
  5
1979
100
AcDbEntity
  8
ALPHA
 62
     7
100
AcDbVertex
100
AcDb2dVertex
 10
76.620949
 20
146.176301
 30
0.0
  0
SEQEND
  5
197A
100
AcDbEntity
  8
ALPHA
 62
     7
  0
LINE
  5
197B
100
AcDbEntity
  8
ALPHA
 62
     7
100
AcDbLine
 10
81.499377
 20
150.061335
 30
0.0
 11
82.020792
 21
150.061335
 31
0.0
  0
SPLINE
  5
197C
100
AcDbEntity
  8
ALPHA
 62
     7
100
AcDbSpline
210
0.0
220
0.0
230
-1.0
 70
     8
 71
     3
 72
     8
 73
     4
 74
     0
 42
0.0000001
 43
0.0000001
 40
0.0
 40
0.0
 40
0.0
 40
0.0
 40
1.0
 40
1.0
 40
1.0
 40
1.0
 10
81.49937676542096
 20
150.0613351368625
 30
0.0
 10
80.41778903755638
 20
150.0613351368625
 30
0.0
 10
79.53842841472651
 20
149.1892092145535
 30
0.0
 10
79.5289544021397
 20
148.1076214866889
 30
0.0
  0
LINE
  5
197D
100
AcDbEntity
  8
ALPHA
 62
     7
100
AcDbLine
 10
82.020792
 20
150.021544
 30
0.0
 11
82.033711
 21
148.553589
 31
0.0
  0
LINE
  5
197E
100
AcDbEntity
  8
ALPHA
 62
     7
100
AcDbLine
 10
82.033711
 20
148.297619
 30
0.0
 11
82.033711
 21
148.553589
 31
0.0
  0
SPLINE
  5
197F
100
AcDbEntity
  8
ALPHA
 62
     7
100
AcDbSpline
210
0.0
220
0.0
230
-1.0
 70
     8
 71
     3
 72
     8
 73
     4
 74
     0
 42
0.0000001
 43
0.0000001
 40
0.0
 40
0.0
 40
0.0
 40
0.0
 40
1.0
 40
1.0
 40
1.0
 40
1.0
 10
82.3162089051779
 20
149.7683297657688
 30
0.0
 10
82.31483086698345
 20
149.930249253616
 30
0.0
 10
82.1830559646397
 20
150.0613351368625
 30
0.0
 10
82.02079196724387
 20
150.0613351368625
 30
0.0
  0
LINE
  5
1980
100
AcDbEntity
  8
ALPHA
 62
     7
100
AcDbLine
 10
98.635109
 20
126.214212
 30
0.0
 11
101.985809
 21
126.214212
 31
0.0
  0
LINE
  5
1981
100
AcDbEntity
  8
ALPHA
 62
     7
100
AcDbLine
 10
104.547582
 20
128.776329
 30
0.0
 11
104.547582
 21
131.634036
 31
0.0
  0
LINE
  5
1982
100
AcDbEntity
  8
ALPHA
 62
     7
100
AcDbLine
 10
182.82153
 20
80.291434
 30
0.0
 11
182.82153
 21
86.307604
 31
0.0
  0
LINE
  5
1983
100
AcDbEntity
  8
ALPHA
 62
     7
100
AcDbLine
 10
182.818774
 20
85.96964
 30
0.0
 11
182.818774
 21
80.383762
 31
0.0
  0
LINE
  5
1984
100
AcDbEntity
  8
ALPHA
 62
     7
100
AcDbLine
 10
169.127275
 20
96.54815
 30
0.0
 11
169.127275
 21
70.051232
 31
0.0
  0
LINE
  5
1985
100
AcDbEntity
  8
ALPHA
 62
     7
100
AcDbLine
 10
167.46605
 20
96.701285
 30
0.0
 11
167.46605
 21
80.508475
 31
0.0
  0
LINE
  5
1986
100
AcDbEntity
  8
ALPHA
 62
     7
100
AcDbLine
 10
167.387158
 20
80.569797
 30
0.0
 11
167.387158
 21
104.978643
 31
0.0
  0
POLYLINE
  5
1987
100
AcDbEntity
  8
ALPHA
 62
     7
100
AcDb2dPolyline
 66
     1
 10
0.0
 20
0.0
 30
0.0
  0
VERTEX
  5
1988
100
AcDbEntity
  8
ALPHA
 62
     7
100
AcDbVertex
100
AcDb2dVertex
 10
169.147257
 20
86.583039
 30
0.0
  0
VERTEX
  5
1989
100
AcDbEntity
  8
ALPHA
 62
     7
100
AcDbVertex
100
AcDb2dVertex
 10
169.172751
 20
84.399021
 30
0.0
  0
VERTEX
  5
198A
100
AcDbEntity
  8
ALPHA
 62
     7
100
AcDbVertex
100
AcDb2dVertex
 10
169.172751
 20
82.200706
 30
0.0
  0
VERTEX
  5
198B
100
AcDbEntity
  8
ALPHA
 62
     7
100
AcDbVertex
100
AcDb2dVertex
 10
169.147257
 20
80.016515
 30
0.0
  0
SEQEND
  5
198C
100
AcDbEntity
  8
ALPHA
 62
     7
  0
POLYLINE
  5
198D
100
AcDbEntity
  8
ALPHA
 62
     7
100
AcDb2dPolyline
 66
     1
 10
0.0
 20
0.0
 30
0.0
  0
VERTEX
  5
198E
100
AcDbEntity
  8
ALPHA
 62
     7
100
AcDbVertex
100
AcDb2dVertex
 10
166.198255
 20
83.299346
 30
0.0
  0
VERTEX
  5
198F
100
AcDbEntity
  8
ALPHA
 62
     7
100
AcDbVertex
100
AcDb2dVertex
 10
166.229605
 20
86.083673
 30
0.0
  0
VERTEX
  5
1990
100
AcDbEntity
  8
ALPHA
 62
     7
100
AcDbVertex
100
AcDb2dVertex
 10
166.320556
 20
88.818217
 30
0.0
  0
VERTEX
  5
1991
100
AcDbEntity
  8
ALPHA
 62
     7
100
AcDbVertex
100
AcDb2dVertex
 10
166.463872
 20
91.42202
 30
0.0
  0
VERTEX
  5
1992
100
AcDbEntity
  8
ALPHA
 62
     7
100
AcDbVertex
100
AcDb2dVertex
 10
166.642328
 20
93.805854
 30
0.0
  0
VERTEX
  5
1993
100
AcDbEntity
  8
ALPHA
 62
     7
100
AcDbVertex
100
AcDb2dVertex
 10
166.835942
 20
95.900128
 30
0.0
  0
VERTEX
  5
1994
100
AcDbEntity
  8
ALPHA
 62
     7
100
AcDbVertex
100
AcDb2dVertex
 10
167.026112
 20
97.65971
 30
0.0
  0
VERTEX
  5
1995
100
AcDbEntity
  8
ALPHA
 62
     7
100
AcDbVertex
100
AcDb2dVertex
 10
167.190443
 20
99.028791
 30
0.0
  0
SEQEND
  5
1996
100
AcDbEntity
  8
ALPHA
 62
     7
  0
LINE
  5
1997
100
AcDbEntity
  8
ALPHA
 62
     7
100
AcDbLine
 10
166.062518
 20
83.299346
 30
0.0
 11
166.062518
 21
104.978643
 31
0.0
  0
LINE
  5
1998
100
AcDbEntity
  8
ALPHA
 62
     7
100
AcDbLine
 10
165.83652
 20
83.299346
 30
0.0
 11
165.83652
 21
85.171756
 31
0.0
  0
LINE
  5
1999
100
AcDbEntity
  8
ALPHA
 62
     7
100
AcDbLine
 10
164.749592
 20
85.171756
 30
0.0
 11
164.749592
 21
82.758811
 31
0.0
  0
LINE
  5
199A
100
AcDbEntity
  8
ALPHA
 62
     7
100
AcDbLine
 10
164.600764
 20
104.485995
 30
0.0
 11
164.600764
 21
62.113387
 31
0.0
  0
LINE
  5
199B
100
AcDbEntity
  8
ALPHA
 62
     7
100
AcDbLine
 10
165.83652
 20
85.171756
 30
0.0
 11
164.938728
 21
84.284988
 31
0.0
  0
LINE
  5
199C
100
AcDbEntity
  8
ALPHA
 62
     7
100
AcDbLine
 10
140.416538
 20
98.425899
 30
0.0
 11
140.416538
 21
42.700963
 31
0.0
  0
LINE
  5
199D
100
AcDbEntity
  8
ALPHA
 62
     7
100
AcDbLine
 10
140.248418
 20
98.425899
 30
0.0
 11
140.248418
 21
83.644201
 31
0.0
  0
LINE
  5
199E
100
AcDbEntity
  8
ALPHA
 62
     7
100
AcDbLine
 10
140.022764
 20
98.425899
 30
0.0
 11
140.022764
 21
83.644201
 31
0.0
  0
LINE
  5
199F
100
AcDbEntity
  8
ALPHA
 62
     7
100
AcDbLine
 10
131.814135
 20
87.19196
 30
0.0
 11
131.814135
 21
83.644201
 31
0.0
  0
LINE
  5
19A0
100
AcDbEntity
  8
ALPHA
 62
     7
100
AcDbLine
 10
123.536949
 20
83.644201
 30
0.0
 11
123.536949
 21
87.19196
 31
0.0
  0
POLYLINE
  5
19A1
100
AcDbEntity
  8
ALPHA
 62
     7
100
AcDb2dPolyline
 66
     1
 10
0.0
 20
0.0
 30
0.0
  0
VERTEX
  5
19A2
100
AcDbEntity
  8
ALPHA
 62
     7
100
AcDbVertex
100
AcDb2dVertex
 10
181.658466
 20
84.531657
 30
0.0
  0
VERTEX
  5
19A3
100
AcDbEntity
  8
ALPHA
 62
     7
100
AcDbVertex
100
AcDb2dVertex
 10
181.917881
 20
84.586434
 30
0.0
  0
VERTEX
  5
19A4
100
AcDbEntity
  8
ALPHA
 62
     7
100
AcDbVertex
100
AcDb2dVertex
 10
182.242409
 20
84.745598
 30
0.0
  0
VERTEX
  5
19A5
100
AcDbEntity
  8
ALPHA
 62
     7
100
AcDbVertex
100
AcDb2dVertex
 10
182.621714
 20
85.184675
 30
0.0
  0
VERTEX
  5
19A6
100
AcDbEntity
  8
ALPHA
 62
     7
100
AcDbVertex
100
AcDb2dVertex
 10
182.811884
 20
85.833042
 30
0.0
  0
SEQEND
  5
19A7
100
AcDbEntity
  8
ALPHA
 62
     7
  0
LINE
  5
19A8
100
AcDbEntity
  8
ALPHA
 62
     7
100
AcDbLine
 10
140.590516
 20
41.715321
 30
0.0
 11
162.952975
 21
41.715321
 31
0.0
  0
LINE
  5
19A9
100
AcDbEntity
  8
ALPHA
 62
     7
100
AcDbLine
 10
140.022764
 20
45.952789
 30
0.0
 11
140.022764
 21
42.996552
 31
0.0
  0
POLYLINE
  5
19AA
100
AcDbEntity
  8
ALPHA
 62
     7
100
AcDb2dPolyline
 66
     1
 10
0.0
 20
0.0
 30
0.0
  0
VERTEX
  5
19AB
100
AcDbEntity
  8
ALPHA
 62
     7
100
AcDbVertex
100
AcDb2dVertex
 10
135.963408
 20
21.41613
 30
0.0
  0
VERTEX
  5
19AC
100
AcDbEntity
  8
ALPHA
 62
     7
100
AcDbVertex
100
AcDb2dVertex
 10
136.040578
 20
21.359975
 30
0.0
  0
VERTEX
  5
19AD
100
AcDbEntity
  8
ALPHA
 62
     7
100
AcDbVertex
100
AcDb2dVertex
 10
136.116026
 20
21.176351
 30
0.0
  0
VERTEX
  5
19AE
100
AcDbEntity
  8
ALPHA
 62
     7
100
AcDbVertex
100
AcDb2dVertex
 10
136.17597
 20
20.887997
 30
0.0
  0
SEQEND
  5
19AF
100
AcDbEntity
  8
ALPHA
 62
     7
  0
POLYLINE
  5
19B0
100
AcDbEntity
  8
ALPHA
 62
     7
100
AcDb2dPolyline
 66
     1
 10
0.0
 20
0.0
 30
0.0
  0
VERTEX
  5
19B1
100
AcDbEntity
  8
ALPHA
 62
     7
100
AcDbVertex
100
AcDb2dVertex
 10
136.17597
 20
20.887997
 30
0.0
  0
VERTEX
  5
19B2
100
AcDbEntity
  8
ALPHA
 62
     7
100
AcDbVertex
100
AcDb2dVertex
 10
136.247628
 20
20.254444
 30
0.0
  0
VERTEX
  5
19B3
100
AcDbEntity
  8
ALPHA
 62
     7
100
AcDbVertex
100
AcDb2dVertex
 10
136.283113
 20
19.938184
 30
0.0
  0
SEQEND
  5
19B4
100
AcDbEntity
  8
ALPHA
 62
     7
  0
LINE
  5
19B5
100
AcDbEntity
  8
ALPHA
 62
     7
100
AcDbLine
 10
141.796299
 20
21.908434
 30
0.0
 11
141.796299
 21
24.69276
 31
0.0
  0
LINE
  5
19B6
100
AcDbEntity
  8
ALPHA
 62
     7
100
AcDbLine
 10
138.971665
 20
21.41613
 30
0.0
 11
138.971665
 21
36.689616
 31
0.0
  0
LINE
  5
19B7
100
AcDbEntity
  8
ALPHA
 62
     7
100
AcDbLine
 10
138.34707
 20
21.41613
 30
0.0
 11
138.34707
 21
20.376744
 31
0.0
  0
LINE
  5
19B8
100
AcDbEntity
  8
ALPHA
 62
     7
100
AcDbLine
 10
138.34707
 20
20.376744
 30
0.0
 11
138.288848
 21
19.938184
 31
0.0
  0
SPLINE
  5
19B9
100
AcDbEntity
  8
ALPHA
 62
     7
100
AcDbSpline
210
0.0
220
0.0
230
-1.0
 70
     8
 71
     3
 72
     8
 73
     4
 74
     0
 42
0.0000001
 43
0.0000001
 40
0.0
 40
0.0
 40
0.0
 40
0.0
 40
1.0
 40
1.0
 40
1.0
 40
1.0
 10
141.3033060731466
 20
21.41612978747021
 30
0.0
 10
141.5754686165494
 20
21.41612978747021
 30
0.0
 10
141.7962992372091
 20
21.63696040812993
 30
0.0
 10
141.7962992372091
 20
21.9084339324355
 30
0.0
  0
LINE
  5
19BA
100
AcDbEntity
  8
ALPHA
 62
     7
100
AcDbLine
 10
141.796299
 20
33.904945
 30
0.0
 11
141.796299
 21
36.689616
 31
0.0
  0
LINE
  5
19BB
100
AcDbEntity
  8
ALPHA
 62
     7
100
AcDbLine
 10
141.7398
 20
28.526807
 30
0.0
 11
141.738422
 21
29.298853
 31
0.0
  0
LINE
  5
19BC
100
AcDbEntity
  8
ALPHA
 62
     7
100
AcDbLine
 10
141.738077
 20
29.298853
 30
0.0
 11
141.740489
 21
28.332848
 31
0.0
  0
POLYLINE
  5
19BD
100
AcDbEntity
  8
ALPHA
 62
     7
100
AcDb2dPolyline
 66
     1
 10
0.0
 20
0.0
 30
0.0
  0
VERTEX
  5
19BE
100
AcDbEntity
  8
ALPHA
 62
     7
100
AcDbVertex
100
AcDb2dVertex
 10
140.494053
 20
29.298853
 30
0.0
  0
VERTEX
  5
19BF
100
AcDbEntity
  8
ALPHA
 62
     7
100
AcDbVertex
100
AcDb2dVertex
 10
140.505422
 20
28.337671
 30
0.0
  0
VERTEX
  5
19C0
100
AcDbEntity
  8
ALPHA
 62
     7
100
AcDbVertex
100
AcDb2dVertex
 10
140.540906
 20
27.418175
 30
0.0
  0
VERTEX
  5
19C1
100
AcDbEntity
  8
ALPHA
 62
     7
100
AcDbVertex
100
AcDb2dVertex
 10
140.597406
 20
26.581706
 30
0.0
  0
VERTEX
  5
19C2
100
AcDbEntity
  8
ALPHA
 62
     7
100
AcDbVertex
100
AcDb2dVertex
 10
140.669064
 20
25.868916
 30
0.0
  0
VERTEX
  5
19C3
100
AcDbEntity
  8
ALPHA
 62
     7
100
AcDbVertex
100
AcDb2dVertex
 10
140.753469
 20
25.299786
 30
0.0
  0
SEQEND
  5
19C4
100
AcDbEntity
  8
ALPHA
 62
     7
  0
POLYLINE
  5
19C5
100
AcDbEntity
  8
ALPHA
 62
     7
100
AcDb2dPolyline
 66
     1
 10
0.0
 20
0.0
 30
0.0
  0
VERTEX
  5
19C6
100
AcDbEntity
  8
ALPHA
 62
     7
100
AcDbVertex
100
AcDb2dVertex
 10
140.753469
 20
25.299786
 30
0.0
  0
VERTEX
  5
19C7
100
AcDbEntity
  8
ALPHA
 62
     7
100
AcDbVertex
100
AcDb2dVertex
 10
140.845797
 20
24.901188
 30
0.0
  0
VERTEX
  5
19C8
100
AcDbEntity
  8
ALPHA
 62
     7
100
AcDbVertex
100
AcDb2dVertex
 10
140.940193
 20
24.695516
 30
0.0
  0
VERTEX
  5
19C9
100
AcDbEntity
  8
ALPHA
 62
     7
100
AcDbVertex
100
AcDb2dVertex
 10
141.031144
 20
24.691382
 30
0.0
  0
VERTEX
  5
19CA
100
AcDbEntity
  8
ALPHA
 62
     7
100
AcDbVertex
100
AcDb2dVertex
 10
141.115204
 20
24.88982
 30
0.0
  0
VERTEX
  5
19CB
100
AcDbEntity
  8
ALPHA
 62
     7
100
AcDbVertex
100
AcDb2dVertex
 10
141.189962
 20
25.282905
 30
0.0
  0
VERTEX
  5
19CC
100
AcDbEntity
  8
ALPHA
 62
     7
100
AcDbVertex
100
AcDb2dVertex
 10
141.25163
 20
25.849279
 30
0.0
  0
VERTEX
  5
19CD
100
AcDbEntity
  8
ALPHA
 62
     7
100
AcDbVertex
100
AcDb2dVertex
 10
141.30055
 20
26.564136
 30
0.0
  0
VERTEX
  5
19CE
100
AcDbEntity
  8
ALPHA
 62
     7
100
AcDbVertex
100
AcDb2dVertex
 10
141.336034
 20
27.403361
 30
0.0
  0
VERTEX
  5
19CF
100
AcDbEntity
  8
ALPHA
 62
     7
100
AcDbVertex
100
AcDb2dVertex
 10
141.35705
 20
28.329403
 30
0.0
  0
VERTEX
  5
19D0
100
AcDbEntity
  8
ALPHA
 62
     7
100
AcDbVertex
100
AcDb2dVertex
 10
141.364629
 20
29.298853
 30
0.0
  0
SEQEND
  5
19D1
100
AcDbEntity
  8
ALPHA
 62
     7
  0
POLYLINE
  5
19D2
100
AcDbEntity
  8
ALPHA
 62
     7
100
AcDb2dPolyline
 66
     1
 10
0.0
 20
0.0
 30
0.0
  0
VERTEX
  5
19D3
100
AcDbEntity
  8
ALPHA
 62
     7
100
AcDbVertex
100
AcDb2dVertex
 10
141.787342
 20
25.056218
 30
0.0
  0
VERTEX
  5
19D4
100
AcDbEntity
  8
ALPHA
 62
     7
100
AcDbVertex
100
AcDb2dVertex
 10
141.777351
 20
25.50029
 30
0.0
  0
VERTEX
  5
19D5
100
AcDbEntity
  8
ALPHA
 62
     7
100
AcDbVertex
100
AcDb2dVertex
 10
141.766327
 20
26.096292
 30
0.0
  0
VERTEX
  5
19D6
100
AcDbEntity
  8
ALPHA
 62
     7
100
AcDbVertex
100
AcDb2dVertex
 10
141.754958
 20
26.820107
 30
0.0
  0
VERTEX
  5
19D7
100
AcDbEntity
  8
ALPHA
 62
     7
100
AcDbVertex
100
AcDb2dVertex
 10
141.746001
 20
27.641073
 30
0.0
  0
SEQEND
  5
19D8
100
AcDbEntity
  8
ALPHA
 62
     7
  0
LINE
  5
19D9
100
AcDbEntity
  8
ALPHA
 62
     7
100
AcDbLine
 10
141.777351
 20
25.50029
 30
0.0
 11
141.781485
 21
25.291173
 31
0.0
  0
LINE
  5
19DA
100
AcDbEntity
  8
ALPHA
 62
     7
100
AcDbLine
 10
141.787342
 20
25.056218
 30
0.0
 11
141.790787
 21
24.89671
 31
0.0
  0
LINE
  5
19DB
100
AcDbEntity
  8
ALPHA
 62
     7
100
AcDbLine
 10
141.796299
 20
24.687592
 30
0.0
 11
141.787342
 21
25.055529
 31
0.0
  0
LINE
  5
19DC
100
AcDbEntity
  8
ALPHA
 62
     7
100
AcDbLine
 10
141.746001
 20
27.641073
 30
0.0
 11
141.7398
 21
28.533008
 31
0.0
  0
LINE
  5
19DD
100
AcDbEntity
  8
ALPHA
 62
     7
100
AcDbLine
 10
141.746001
 20
27.641073
 30
0.0
 11
141.748068
 21
27.409562
 31
0.0
  0
LINE
  5
19DE
100
AcDbEntity
  8
ALPHA
 62
     7
100
AcDbLine
 10
141.740489
 20
28.332848
 30
0.0
 11
141.743245
 21
28.034847
 31
0.0
  0
LINE
  5
19DF
100
AcDbEntity
  8
ALPHA
 62
     7
100
AcDbLine
 10
141.755647
 20
26.76843
 30
0.0
 11
141.758403
 21
26.57206
 31
0.0
  0
LINE
  5
19E0
100
AcDbEntity
  8
ALPHA
 62
     7
100
AcDbLine
 10
141.748068
 20
27.409562
 30
0.0
 11
141.754958
 21
26.820107
 31
0.0
  0
LINE
  5
19E1
100
AcDbEntity
  8
ALPHA
 62
     7
100
AcDbLine
 10
141.758403
 20
26.57206
 30
0.0
 11
141.761504
 21
26.386714
 31
0.0
  0
POLYLINE
  5
19E2
100
AcDbEntity
  8
ALPHA
 62
     7
100
AcDb2dPolyline
 66
     1
 10
0.0
 20
0.0
 30
0.0
  0
VERTEX
  5
19E3
100
AcDbEntity
  8
ALPHA
 62
     7
100
AcDbVertex
100
AcDb2dVertex
 10
140.756225
 20
33.313767
 30
0.0
  0
VERTEX
  5
19E4
100
AcDbEntity
  8
ALPHA
 62
     7
100
AcDbVertex
100
AcDb2dVertex
 10
140.671131
 20
32.746704
 30
0.0
  0
VERTEX
  5
19E5
100
AcDbEntity
  8
ALPHA
 62
     7
100
AcDbVertex
100
AcDb2dVertex
 10
140.598095
 20
32.031158
 30
0.0
  0
VERTEX
  5
19E6
100
AcDbEntity
  8
ALPHA
 62
     7
100
AcDbVertex
100
AcDb2dVertex
 10
140.541595
 20
31.189866
 30
0.0
  0
VERTEX
  5
19E7
100
AcDbEntity
  8
ALPHA
 62
     7
100
AcDbVertex
100
AcDb2dVertex
 10
140.505422
 20
30.263824
 30
0.0
  0
VERTEX
  5
19E8
100
AcDbEntity
  8
ALPHA
 62
     7
100
AcDbVertex
100
AcDb2dVertex
 10
140.494053
 20
29.298853
 30
0.0
  0
SEQEND
  5
19E9
100
AcDbEntity
  8
ALPHA
 62
     7
  0
LINE
  5
19EA
100
AcDbEntity
  8
ALPHA
 62
     7
100
AcDbLine
 10
141.75358
 20
31.654265
 30
0.0
 11
141.748068
 21
31.195378
 31
0.0
  0
LINE
  5
19EB
100
AcDbEntity
  8
ALPHA
 62
     7
100
AcDbLine
 10
141.745312
 20
30.948709
 30
0.0
 11
141.754958
 21
31.775876
 31
0.0
  0
POLYLINE
  5
19EC
100
AcDbEntity
  8
ALPHA
 62
     7
100
AcDb2dPolyline
 66
     1
 10
0.0
 20
0.0
 30
0.0
  0
VERTEX
  5
19ED
100
AcDbEntity
  8
ALPHA
 62
     7
100
AcDbVertex
100
AcDb2dVertex
 10
141.364629
 20
29.298853
 30
0.0
  0
VERTEX
  5
19EE
100
AcDbEntity
  8
ALPHA
 62
     7
100
AcDbVertex
100
AcDb2dVertex
 10
141.35705
 20
30.265202
 30
0.0
  0
VERTEX
  5
19EF
100
AcDbEntity
  8
ALPHA
 62
     7
100
AcDbVertex
100
AcDb2dVertex
 10
141.336034
 20
31.18711
 30
0.0
  0
VERTEX
  5
19F0
100
AcDbEntity
  8
ALPHA
 62
     7
100
AcDbVertex
100
AcDb2dVertex
 10
141.301239
 20
32.023579
 30
0.0
  0
VERTEX
  5
19F1
100
AcDbEntity
  8
ALPHA
 62
     7
100
AcDbVertex
100
AcDb2dVertex
 10
141.253008
 20
32.736714
 30
0.0
  0
VERTEX
  5
19F2
100
AcDbEntity
  8
ALPHA
 62
     7
100
AcDbVertex
100
AcDb2dVertex
 10
141.19134
 20
33.304121
 30
0.0
  0
VERTEX
  5
19F3
100
AcDbEntity
  8
ALPHA
 62
     7
100
AcDbVertex
100
AcDb2dVertex
 10
141.11796
 20
33.699962
 30
0.0
  0
VERTEX
  5
19F4
100
AcDbEntity
  8
ALPHA
 62
     7
100
AcDbVertex
100
AcDb2dVertex
 10
141.0339
 20
33.903567
 30
0.0
  0
VERTEX
  5
19F5
100
AcDbEntity
  8
ALPHA
 62
     7
100
AcDbVertex
100
AcDb2dVertex
 10
140.942949
 20
33.906323
 30
0.0
  0
VERTEX
  5
19F6
100
AcDbEntity
  8
ALPHA
 62
     7
100
AcDbVertex
100
AcDb2dVertex
 10
140.849242
 20
33.707541
 30
0.0
  0
SEQEND
  5
19F7
100
AcDbEntity
  8
ALPHA
 62
     7
  0
LINE
  5
19F8
100
AcDbEntity
  8
ALPHA
 62
     7
100
AcDbLine
 10
141.744623
 20
30.781277
 30
0.0
 11
141.740489
 21
30.268647
 31
0.0
  0
LINE
  5
19F9
100
AcDbEntity
  8
ALPHA
 62
     7
100
AcDbLine
 10
141.748068
 20
31.195378
 30
0.0
 11
141.745312
 21
30.948709
 31
0.0
  0
LINE
  5
19FA
100
AcDbEntity
  8
ALPHA
 62
     7
100
AcDbLine
 10
141.7398
 20
30.060219
 30
0.0
 11
141.745312
 21
30.948709
 31
0.0
  0
LINE
  5
19FB
100
AcDbEntity
  8
ALPHA
 62
     7
100
AcDbLine
 10
141.740489
 20
30.268647
 30
0.0
 11
141.7398
 21
30.065387
 31
0.0
  0
LINE
  5
19FC
100
AcDbEntity
  8
ALPHA
 62
     7
100
AcDbLine
 10
141.738422
 20
29.298853
 30
0.0
 11
141.7398
 21
30.065387
 31
0.0
  0
LINE
  5
19FD
100
AcDbEntity
  8
ALPHA
 62
     7
100
AcDbLine
 10
140.849242
 20
33.707541
 30
0.0
 11
140.756225
 21
33.313767
 31
0.0
  0
LINE
  5
19FE
100
AcDbEntity
  8
ALPHA
 62
     7
100
AcDbLine
 10
141.787342
 20
33.542521
 30
0.0
 11
141.796299
 21
33.911147
 31
0.0
  0
LINE
  5
19FF
100
AcDbEntity
  8
ALPHA
 62
     7
100
AcDbLine
 10
141.764949
 20
32.449393
 30
0.0
 11
141.758403
 21
32.034603
 31
0.0
  0
POLYLINE
  5
1A00
100
AcDbEntity
  8
ALPHA
 62
     7
100
AcDb2dPolyline
 66
     1
 10
0.0
 20
0.0
 30
0.0
  0
VERTEX
  5
1A01
100
AcDbEntity
  8
ALPHA
 62
     7
100
AcDbVertex
100
AcDb2dVertex
 10
141.754958
 20
31.772431
 30
0.0
  0
VERTEX
  5
1A02
100
AcDbEntity
  8
ALPHA
 62
     7
100
AcDbVertex
100
AcDb2dVertex
 10
141.765638
 20
32.498313
 30
0.0
  0
VERTEX
  5
1A03
100
AcDbEntity
  8
ALPHA
 62
     7
100
AcDbVertex
100
AcDb2dVertex
 10
141.777351
 20
33.096382
 30
0.0
  0
VERTEX
  5
1A04
100
AcDbEntity
  8
ALPHA
 62
     7
100
AcDbVertex
100
AcDb2dVertex
 10
141.787342
 20
33.541832
 30
0.0
  0
SEQEND
  5
1A05
100
AcDbEntity
  8
ALPHA
 62
     7
  0
LINE
  5
1A06
100
AcDbEntity
  8
ALPHA
 62
     7
100
AcDbLine
 10
141.758403
 20
32.034603
 30
0.0
 11
141.754958
 21
31.775876
 31
0.0
  0
LINE
  5
1A07
100
AcDbEntity
  8
ALPHA
 62
     7
100
AcDbLine
 10
141.796299
 20
41.715321
 30
0.0
 11
141.796299
 21
37.182609
 31
0.0
  0
LINE
  5
1A08
100
AcDbEntity
  8
ALPHA
 62
     7
100
AcDbLine
 10
141.649538
 20
39.692706
 30
0.0
 11
141.649538
 21
37.182609
 31
0.0
  0
LINE
  5
1A09
100
AcDbEntity
  8
ALPHA
 62
     7
100
AcDbLine
 10
141.534816
 20
37.182609
 30
0.0
 11
141.534816
 21
39.692706
 31
0.0
  0
LINE
  5
1A0A
100
AcDbEntity
  8
ALPHA
 62
     7
100
AcDbLine
 10
141.5076
 20
39.416754
 30
0.0
 11
141.5076
 21
37.166073
 31
0.0
  0
SPLINE
  5
1A0B
100
AcDbEntity
  8
ALPHA
 62
     7
100
AcDbSpline
210
0.0
220
0.0
230
1.0
 70
     8
 71
     3
 72
     8
 73
     4
 74
     0
 42
0.0000001
 43
0.0000001
 40
0.0
 40
0.0
 40
0.0
 40
0.0
 40
1.0
 40
1.0
 40
1.0
 40
1.0
 10
141.6550503222785
 20
36.93042829007438
 30
0.0
 10
141.7425557476257
 20
36.98417177965771
 30
0.0
 10
141.7962992372091
 20
37.0799454341716
 30
0.0
 10
141.7962992372091
 20
37.18260927965771
 30
0.0
  0
POLYLINE
  5
1A0C
100
AcDbEntity
  8
ALPHA
 62
     7
100
AcDb2dPolyline
 66
     1
 10
0.0
 20
0.0
 30
0.0
  0
VERTEX
  5
1A0D
100
AcDbEntity
  8
ALPHA
 62
     7
100
AcDbVertex
100
AcDb2dVertex
 10
141.508289
 20
36.689616
 30
0.0
  0
VERTEX
  5
1A0E
100
AcDbEntity
  8
ALPHA
 62
     7
100
AcDbVertex
100
AcDb2dVertex
 10
141.516557
 20
36.714076
 30
0.0
  0
VERTEX
  5
1A0F
100
AcDbEntity
  8
ALPHA
 62
     7
100
AcDbVertex
100
AcDb2dVertex
 10
141.524137
 20
36.784012
 30
0.0
  0
VERTEX
  5
1A10
100
AcDbEntity
  8
ALPHA
 62
     7
100
AcDbVertex
100
AcDb2dVertex
 10
141.529993
 20
36.892532
 30
0.0
  0
VERTEX
  5
1A11
100
AcDbEntity
  8
ALPHA
 62
     7
100
AcDbVertex
100
AcDb2dVertex
 10
141.533438
 20
37.029647
 30
0.0
  0
SEQEND
  5
1A12
100
AcDbEntity
  8
ALPHA
 62
     7
  0
LINE
  5
1A13
100
AcDbEntity
  8
ALPHA
 62
     7
100
AcDbLine
 10
141.533438
 20
37.029647
 30
0.0
 11
141.534816
 21
37.182609
 31
0.0
  0
POLYLINE
  5
1A14
100
AcDbEntity
  8
ALPHA
 62
     7
100
AcDb2dPolyline
 66
     1
 10
0.0
 20
0.0
 30
0.0
  0
VERTEX
  5
1A15
100
AcDbEntity
  8
ALPHA
 62
     7
100
AcDbVertex
100
AcDb2dVertex
 10
141.649538
 20
37.182609
 30
0.0
  0
VERTEX
  5
1A16
100
AcDbEntity
  8
ALPHA
 62
     7
100
AcDbVertex
100
AcDb2dVertex
 10
141.650227
 20
37.029647
 30
0.0
  0
VERTEX
  5
1A17
100
AcDbEntity
  8
ALPHA
 62
     7
100
AcDbVertex
100
AcDb2dVertex
 10
141.652983
 20
36.892532
 30
0.0
  0
VERTEX
  5
1A18
100
AcDbEntity
  8
ALPHA
 62
     7
100
AcDbVertex
100
AcDb2dVertex
 10
141.657117
 20
36.784012
 30
0.0
  0
VERTEX
  5
1A19
100
AcDbEntity
  8
ALPHA
 62
     7
100
AcDbVertex
100
AcDb2dVertex
 10
141.66263
 20
36.714076
 30
0.0
  0
VERTEX
  5
1A1A
100
AcDbEntity
  8
ALPHA
 62
     7
100
AcDbVertex
100
AcDb2dVertex
 10
141.668142
 20
36.689616
 30
0.0
  0
SEQEND
  5
1A1B
100
AcDbEntity
  8
ALPHA
 62
     7
  0
LINE
  5
1A1C
100
AcDbEntity
  8
ALPHA
 62
     7
100
AcDbLine
 10
141.796299
 20
36.689616
 30
0.0
 11
141.668142
 21
36.689616
 31
0.0
  0
POLYLINE
  5
1A1D
100
AcDbEntity
  8
ALPHA
 62
     7
100
AcDb2dPolyline
 66
     1
 10
0.0
 20
0.0
 30
0.0
  0
VERTEX
  5
1A1E
100
AcDbEntity
  8
ALPHA
 62
     7
100
AcDbVertex
100
AcDb2dVertex
 10
141.227858
 20
36.88702
 30
0.0
  0
VERTEX
  5
1A1F
100
AcDbEntity
  8
ALPHA
 62
     7
100
AcDbVertex
100
AcDb2dVertex
 10
141.31433
 20
36.900111
 30
0.0
  0
VERTEX
  5
1A20
100
AcDbEntity
  8
ALPHA
 62
     7
100
AcDbVertex
100
AcDb2dVertex
 10
141.394946
 20
36.940075
 30
0.0
  0
VERTEX
  5
1A21
100
AcDbEntity
  8
ALPHA
 62
     7
100
AcDbVertex
100
AcDb2dVertex
 10
141.456268
 20
37.002431
 30
0.0
  0
VERTEX
  5
1A22
100
AcDbEntity
  8
ALPHA
 62
     7
100
AcDbVertex
100
AcDb2dVertex
 10
141.496231
 20
37.085458
 30
0.0
  0
VERTEX
  5
1A23
100
AcDbEntity
  8
ALPHA
 62
     7
100
AcDbVertex
100
AcDb2dVertex
 10
141.5076
 20
37.165384
 30
0.0
  0
SEQEND
  5
1A24
100
AcDbEntity
  8
ALPHA
 62
     7
  0
POLYLINE
  5
1A25
100
AcDbEntity
  8
ALPHA
 62
     7
100
AcDb2dPolyline
 66
     1
 10
0.0
 20
0.0
 30
0.0
  0
VERTEX
  5
1A26
100
AcDbEntity
  8
ALPHA
 62
     7
100
AcDbVertex
100
AcDb2dVertex
 10
141.455579
 20
41.326026
 30
0.0
  0
VERTEX
  5
1A27
100
AcDbEntity
  8
ALPHA
 62
     7
100
AcDbVertex
100
AcDb2dVertex
 10
141.471082
 20
41.533765
 30
0.0
  0
VERTEX
  5
1A28
100
AcDbEntity
  8
ALPHA
 62
     7
100
AcDbVertex
100
AcDb2dVertex
 10
141.487963
 20
41.688105
 30
0.0
  0
SEQEND
  5
1A29
100
AcDbEntity
  8
ALPHA
 62
     7
  0
POLYLINE
  5
1A2A
100
AcDbEntity
  8
ALPHA
 62
     7
100
AcDb2dPolyline
 66
     1
 10
0.0
 20
0.0
 30
0.0
  0
VERTEX
  5
1A2B
100
AcDbEntity
  8
ALPHA
 62
     7
100
AcDbVertex
100
AcDb2dVertex
 10
141.46557
 20
40.631494
 30
0.0
  0
VERTEX
  5
1A2C
100
AcDbEntity
  8
ALPHA
 62
     7
100
AcDbVertex
100
AcDb2dVertex
 10
141.466259
 20
40.726579
 30
0.0
  0
VERTEX
  5
1A2D
100
AcDbEntity
  8
ALPHA
 62
     7
100
AcDbVertex
100
AcDb2dVertex
 10
141.467637
 20
40.825109
 30
0.0
  0
VERTEX
  5
1A2E
100
AcDbEntity
  8
ALPHA
 62
     7
100
AcDbVertex
100
AcDb2dVertex
 10
141.471082
 20
40.925017
 30
0.0
  0
VERTEX
  5
1A2F
100
AcDbEntity
  8
ALPHA
 62
     7
100
AcDbVertex
100
AcDb2dVertex
 10
141.475905
 20
41.026647
 30
0.0
  0
VERTEX
  5
1A30
100
AcDbEntity
  8
ALPHA
 62
     7
100
AcDbVertex
100
AcDb2dVertex
 10
141.482107
 20
41.128622
 30
0.0
  0
VERTEX
  5
1A31
100
AcDbEntity
  8
ALPHA
 62
     7
100
AcDbVertex
100
AcDb2dVertex
 10
141.489341
 20
41.22784
 30
0.0
  0
VERTEX
  5
1A32
100
AcDbEntity
  8
ALPHA
 62
     7
100
AcDbVertex
100
AcDb2dVertex
 10
141.498298
 20
41.323614
 30
0.0
  0
VERTEX
  5
1A33
100
AcDbEntity
  8
ALPHA
 62
     7
100
AcDbVertex
100
AcDb2dVertex
 10
141.508978
 20
41.413876
 30
0.0
  0
VERTEX
  5
1A34
100
AcDbEntity
  8
ALPHA
 62
     7
100
AcDbVertex
100
AcDb2dVertex
 10
141.521381
 20
41.496558
 30
0.0
  0
VERTEX
  5
1A35
100
AcDbEntity
  8
ALPHA
 62
     7
100
AcDbVertex
100
AcDb2dVertex
 10
141.534816
 20
41.570627
 30
0.0
  0
VERTEX
  5
1A36
100
AcDbEntity
  8
ALPHA
 62
     7
100
AcDbVertex
100
AcDb2dVertex
 10
141.550664
 20
41.633673
 30
0.0
  0
VERTEX
  5
1A37
100
AcDbEntity
  8
ALPHA
 62
     7
100
AcDbVertex
100
AcDb2dVertex
 10
141.566856
 20
41.681904
 30
0.0
  0
VERTEX
  5
1A38
100
AcDbEntity
  8
ALPHA
 62
     7
100
AcDbVertex
100
AcDb2dVertex
 10
141.585115
 20
41.710498
 30
0.0
  0
VERTEX
  5
1A39
100
AcDbEntity
  8
ALPHA
 62
     7
100
AcDbVertex
100
AcDb2dVertex
 10
141.596139
 20
41.715321
 30
0.0
  0
SEQEND
  5
1A3A
100
AcDbEntity
  8
ALPHA
 62
     7
  0
POLYLINE
  5
1A3B
100
AcDbEntity
  8
ALPHA
 62
     7
100
AcDb2dPolyline
 66
     1
 10
0.0
 20
0.0
 30
0.0
  0
VERTEX
  5
1A3C
100
AcDbEntity
  8
ALPHA
 62
     7
100
AcDbVertex
100
AcDb2dVertex
 10
141.691224
 20
41.529975
 30
0.0
  0
VERTEX
  5
1A3D
100
AcDbEntity
  8
ALPHA
 62
     7
100
AcDbVertex
100
AcDb2dVertex
 10
141.683645
 20
41.665023
 30
0.0
  0
VERTEX
  5
1A3E
100
AcDbEntity
  8
ALPHA
 62
     7
100
AcDbVertex
100
AcDb2dVertex
 10
141.679511
 20
41.715321
 30
0.0
  0
SEQEND
  5
1A3F
100
AcDbEntity
  8
ALPHA
 62
     7
  0
POLYLINE
  5
1A40
100
AcDbEntity
  8
ALPHA
 62
     7
100
AcDb2dPolyline
 66
     1
 10
0.0
 20
0.0
 30
0.0
  0
VERTEX
  5
1A41
100
AcDbEntity
  8
ALPHA
 62
     7
100
AcDbVertex
100
AcDb2dVertex
 10
141.596139
 20
41.715321
 30
0.0
  0
VERTEX
  5
1A42
100
AcDbEntity
  8
ALPHA
 62
     7
100
AcDbVertex
100
AcDb2dVertex
 10
141.604063
 20
41.712565
 30
0.0
  0
VERTEX
  5
1A43
100
AcDbEntity
  8
ALPHA
 62
     7
100
AcDbVertex
100
AcDb2dVertex
 10
141.621977
 20
41.686727
 30
0.0
  0
VERTEX
  5
1A44
100
AcDbEntity
  8
ALPHA
 62
     7
100
AcDbVertex
100
AcDb2dVertex
 10
141.636102
 20
41.639874
 30
0.0
  0
VERTEX
  5
1A45
100
AcDbEntity
  8
ALPHA
 62
     7
100
AcDbVertex
100
AcDb2dVertex
 10
141.64816
 20
41.578207
 30
0.0
  0
VERTEX
  5
1A46
100
AcDbEntity
  8
ALPHA
 62
     7
100
AcDbVertex
100
AcDb2dVertex
 10
141.658495
 20
41.504826
 30
0.0
  0
VERTEX
  5
1A47
100
AcDbEntity
  8
ALPHA
 62
     7
100
AcDbVertex
100
AcDb2dVertex
 10
141.666764
 20
41.422488
 30
0.0
  0
VERTEX
  5
1A48
100
AcDbEntity
  8
ALPHA
 62
     7
100
AcDbVertex
100
AcDb2dVertex
 10
141.673998
 20
41.332227
 30
0.0
  0
VERTEX
  5
1A49
100
AcDbEntity
  8
ALPHA
 62
     7
100
AcDbVertex
100
AcDb2dVertex
 10
141.679511
 20
41.236453
 30
0.0
  0
VERTEX
  5
1A4A
100
AcDbEntity
  8
ALPHA
 62
     7
100
AcDbVertex
100
AcDb2dVertex
 10
141.684334
 20
41.13689
 30
0.0
  0
VERTEX
  5
1A4B
100
AcDbEntity
  8
ALPHA
 62
     7
100
AcDbVertex
100
AcDb2dVertex
 10
141.688468
 20
41.034226
 30
0.0
  0
VERTEX
  5
1A4C
100
AcDbEntity
  8
ALPHA
 62
     7
100
AcDbVertex
100
AcDb2dVertex
 10
141.691224
 20
40.930184
 30
0.0
  0
VERTEX
  5
1A4D
100
AcDbEntity
  8
ALPHA
 62
     7
100
AcDbVertex
100
AcDb2dVertex
 10
141.692946
 20
40.829243
 30
0.0
  0
VERTEX
  5
1A4E
100
AcDbEntity
  8
ALPHA
 62
     7
100
AcDbVertex
100
AcDb2dVertex
 10
141.693635
 20
40.731402
 30
0.0
  0
VERTEX
  5
1A4F
100
AcDbEntity
  8
ALPHA
 62
     7
100
AcDbVertex
100
AcDb2dVertex
 10
141.694324
 20
40.635628
 30
0.0
  0
VERTEX
  5
1A50
100
AcDbEntity
  8
ALPHA
 62
     7
100
AcDbVertex
100
AcDb2dVertex
 10
141.693635
 20
40.539855
 30
0.0
  0
VERTEX
  5
1A51
100
AcDbEntity
  8
ALPHA
 62
     7
100
AcDbVertex
100
AcDb2dVertex
 10
141.692946
 20
40.441325
 30
0.0
  0
VERTEX
  5
1A52
100
AcDbEntity
  8
ALPHA
 62
     7
100
AcDbVertex
100
AcDb2dVertex
 10
141.691224
 20
40.341073
 30
0.0
  0
VERTEX
  5
1A53
100
AcDbEntity
  8
ALPHA
 62
     7
100
AcDbVertex
100
AcDb2dVertex
 10
141.688468
 20
40.23772
 30
0.0
  0
VERTEX
  5
1A54
100
AcDbEntity
  8
ALPHA
 62
     7
100
AcDbVertex
100
AcDb2dVertex
 10
141.685023
 20
40.135401
 30
0.0
  0
VERTEX
  5
1A55
100
AcDbEntity
  8
ALPHA
 62
     7
100
AcDbVertex
100
AcDb2dVertex
 10
141.6802
 20
40.035493
 30
0.0
  0
VERTEX
  5
1A56
100
AcDbEntity
  8
ALPHA
 62
     7
100
AcDbVertex
100
AcDb2dVertex
 10
141.674687
 20
39.939719
 30
0.0
  0
VERTEX
  5
1A57
100
AcDbEntity
  8
ALPHA
 62
     7
100
AcDbVertex
100
AcDb2dVertex
 10
141.667453
 20
39.849458
 30
0.0
  0
VERTEX
  5
1A58
100
AcDbEntity
  8
ALPHA
 62
     7
100
AcDbVertex
100
AcDb2dVertex
 10
141.659184
 20
39.766431
 30
0.0
  0
VERTEX
  5
1A59
100
AcDbEntity
  8
ALPHA
 62
     7
100
AcDbVertex
100
AcDb2dVertex
 10
141.649538
 20
39.692706
 30
0.0
  0
SEQEND
  5
1A5A
100
AcDbEntity
  8
ALPHA
 62
     7
  0
LINE
  5
1A5B
100
AcDbEntity
  8
ALPHA
 62
     7
100
AcDbLine
 10
141.668142
 20
39.416754
 30
0.0
 11
141.678821
 21
39.533542
 31
0.0
  0
POLYLINE
  5
1A5C
100
AcDbEntity
  8
ALPHA
 62
     7
100
AcDb2dPolyline
 66
     1
 10
0.0
 20
0.0
 30
0.0
  0
VERTEX
  5
1A5D
100
AcDbEntity
  8
ALPHA
 62
     7
100
AcDbVertex
100
AcDb2dVertex
 10
141.678821
 20
39.533542
 30
0.0
  0
VERTEX
  5
1A5E
100
AcDbEntity
  8
ALPHA
 62
     7
100
AcDbVertex
100
AcDb2dVertex
 10
141.687779
 20
39.662734
 30
0.0
  0
VERTEX
  5
1A5F
100
AcDbEntity
  8
ALPHA
 62
     7
100
AcDbVertex
100
AcDb2dVertex
 10
141.694324
 20
39.801226
 30
0.0
  0
SEQEND
  5
1A60
100
AcDbEntity
  8
ALPHA
 62
     7
  0
POLYLINE
  5
1A61
100
AcDbEntity
  8
ALPHA
 62
     7
100
AcDb2dPolyline
 66
     1
 10
0.0
 20
0.0
 30
0.0
  0
VERTEX
  5
1A62
100
AcDbEntity
  8
ALPHA
 62
     7
100
AcDbVertex
100
AcDb2dVertex
 10
141.694324
 20
39.801226
 30
0.0
  0
VERTEX
  5
1A63
100
AcDbEntity
  8
ALPHA
 62
     7
100
AcDbVertex
100
AcDb2dVertex
 10
141.699837
 20
39.945231
 30
0.0
  0
VERTEX
  5
1A64
100
AcDbEntity
  8
ALPHA
 62
     7
100
AcDbVertex
100
AcDb2dVertex
 10
141.703971
 20
40.090959
 30
0.0
  0
VERTEX
  5
1A65
100
AcDbEntity
  8
ALPHA
 62
     7
100
AcDbVertex
100
AcDb2dVertex
 10
141.706727
 20
40.237031
 30
0.0
  0
VERTEX
  5
1A66
100
AcDbEntity
  8
ALPHA
 62
     7
100
AcDbVertex
100
AcDb2dVertex
 10
141.708794
 20
40.381036
 30
0.0
  0
VERTEX
  5
1A67
100
AcDbEntity
  8
ALPHA
 62
     7
100
AcDbVertex
100
AcDb2dVertex
 10
141.709483
 20
40.522974
 30
0.0
  0
VERTEX
  5
1A68
100
AcDbEntity
  8
ALPHA
 62
     7
100
AcDbVertex
100
AcDb2dVertex
 10
141.709483
 20
40.664223
 30
0.0
  0
VERTEX
  5
1A69
100
AcDbEntity
  8
ALPHA
 62
     7
100
AcDbVertex
100
AcDb2dVertex
 10
141.709483
 20
40.805472
 30
0.0
  0
VERTEX
  5
1A6A
100
AcDbEntity
  8
ALPHA
 62
     7
100
AcDbVertex
100
AcDb2dVertex
 10
141.708105
 20
40.948099
 30
0.0
  0
VERTEX
  5
1A6B
100
AcDbEntity
  8
ALPHA
 62
     7
100
AcDbVertex
100
AcDb2dVertex
 10
141.705349
 20
41.092448
 30
0.0
  0
VERTEX
  5
1A6C
100
AcDbEntity
  8
ALPHA
 62
     7
100
AcDbVertex
100
AcDb2dVertex
 10
141.701904
 20
41.239898
 30
0.0
  0
VERTEX
  5
1A6D
100
AcDbEntity
  8
ALPHA
 62
     7
100
AcDbVertex
100
AcDb2dVertex
 10
141.69708
 20
41.386659
 30
0.0
  0
VERTEX
  5
1A6E
100
AcDbEntity
  8
ALPHA
 62
     7
100
AcDbVertex
100
AcDb2dVertex
 10
141.691224
 20
41.529975
 30
0.0
  0
SEQEND
  5
1A6F
100
AcDbEntity
  8
ALPHA
 62
     7
  0
POLYLINE
  5
1A70
100
AcDbEntity
  8
ALPHA
 62
     7
100
AcDb2dPolyline
 66
     1
 10
0.0
 20
0.0
 30
0.0
  0
VERTEX
  5
1A71
100
AcDbEntity
  8
ALPHA
 62
     7
100
AcDbVertex
100
AcDb2dVertex
 10
141.491408
 20
39.54939
 30
0.0
  0
VERTEX
  5
1A72
100
AcDbEntity
  8
ALPHA
 62
     7
100
AcDbVertex
100
AcDb2dVertex
 10
141.47246
 20
39.718889
 30
0.0
  0
VERTEX
  5
1A73
100
AcDbEntity
  8
ALPHA
 62
     7
100
AcDbVertex
100
AcDb2dVertex
 10
141.455579
 20
39.934896
 30
0.0
  0
VERTEX
  5
1A74
100
AcDbEntity
  8
ALPHA
 62
     7
100
AcDbVertex
100
AcDb2dVertex
 10
141.442488
 20
40.190867
 30
0.0
  0
VERTEX
  5
1A75
100
AcDbEntity
  8
ALPHA
 62
     7
100
AcDbVertex
100
AcDb2dVertex
 10
141.435942
 20
40.467163
 30
0.0
  0
VERTEX
  5
1A76
100
AcDbEntity
  8
ALPHA
 62
     7
100
AcDbVertex
100
AcDb2dVertex
 10
141.435942
 20
40.759996
 30
0.0
  0
VERTEX
  5
1A77
100
AcDbEntity
  8
ALPHA
 62
     7
100
AcDbVertex
100
AcDb2dVertex
 10
141.442488
 20
41.061442
 30
0.0
  0
VERTEX
  5
1A78
100
AcDbEntity
  8
ALPHA
 62
     7
100
AcDbVertex
100
AcDb2dVertex
 10
141.455579
 20
41.326026
 30
0.0
  0
SEQEND
  5
1A79
100
AcDbEntity
  8
ALPHA
 62
     7
  0
LINE
  5
1A7A
100
AcDbEntity
  8
ALPHA
 62
     7
100
AcDbLine
 10
141.475905
 20
39.664801
 30
0.0
 11
141.49003
 21
39.534231
 31
0.0
  0
LINE
  5
1A7B
100
AcDbEntity
  8
ALPHA
 62
     7
100
AcDbLine
 10
141.5076
 20
39.416754
 30
0.0
 11
141.491408
 21
39.54939
 31
0.0
  0
POLYLINE
  5
1A7C
100
AcDbEntity
  8
ALPHA
 62
     7
100
AcDb2dPolyline
 66
     1
 10
0.0
 20
0.0
 30
0.0
  0
VERTEX
  5
1A7D
100
AcDbEntity
  8
ALPHA
 62
     7
100
AcDbVertex
100
AcDb2dVertex
 10
141.534816
 20
39.692706
 30
0.0
  0
VERTEX
  5
1A7E
100
AcDbEntity
  8
ALPHA
 62
     7
100
AcDbVertex
100
AcDb2dVertex
 10
141.521381
 20
39.766431
 30
0.0
  0
VERTEX
  5
1A7F
100
AcDbEntity
  8
ALPHA
 62
     7
100
AcDbVertex
100
AcDb2dVertex
 10
141.508978
 20
39.849458
 30
0.0
  0
VERTEX
  5
1A80
100
AcDbEntity
  8
ALPHA
 62
     7
100
AcDbVertex
100
AcDb2dVertex
 10
141.498298
 20
39.939719
 30
0.0
  0
VERTEX
  5
1A81
100
AcDbEntity
  8
ALPHA
 62
     7
100
AcDbVertex
100
AcDb2dVertex
 10
141.489341
 20
40.034804
 30
0.0
  0
VERTEX
  5
1A82
100
AcDbEntity
  8
ALPHA
 62
     7
100
AcDbVertex
100
AcDb2dVertex
 10
141.482107
 20
40.134712
 30
0.0
  0
VERTEX
  5
1A83
100
AcDbEntity
  8
ALPHA
 62
     7
100
AcDbVertex
100
AcDb2dVertex
 10
141.475905
 20
40.236342
 30
0.0
  0
VERTEX
  5
1A84
100
AcDbEntity
  8
ALPHA
 62
     7
100
AcDbVertex
100
AcDb2dVertex
 10
141.471082
 20
40.338317
 30
0.0
  0
VERTEX
  5
1A85
100
AcDbEntity
  8
ALPHA
 62
     7
100
AcDbVertex
100
AcDb2dVertex
 10
141.467637
 20
40.438914
 30
0.0
  0
VERTEX
  5
1A86
100
AcDbEntity
  8
ALPHA
 62
     7
100
AcDbVertex
100
AcDb2dVertex
 10
141.466259
 20
40.53641
 30
0.0
  0
VERTEX
  5
1A87
100
AcDbEntity
  8
ALPHA
 62
     7
100
AcDbVertex
100
AcDb2dVertex
 10
141.46557
 20
40.631494
 30
0.0
  0
SEQEND
  5
1A88
100
AcDbEntity
  8
ALPHA
 62
     7
  0
POLYLINE
  5
1A89
100
AcDbEntity
  8
ALPHA
 62
     7
100
AcDb2dPolyline
 66
     1
 10
0.0
 20
0.0
 30
0.0
  0
VERTEX
  5
1A8A
100
AcDbEntity
  8
ALPHA
 62
     7
100
AcDbVertex
100
AcDb2dVertex
 10
140.416538
 20
42.700963
 30
0.0
  0
VERTEX
  5
1A8B
100
AcDbEntity
  8
ALPHA
 62
     7
100
AcDbVertex
100
AcDb2dVertex
 10
140.426874
 20
42.369201
 30
0.0
  0
VERTEX
  5
1A8C
100
AcDbEntity
  8
ALPHA
 62
     7
100
AcDbVertex
100
AcDb2dVertex
 10
140.452023
 20
42.107718
 30
0.0
  0
VERTEX
  5
1A8D
100
AcDbEntity
  8
ALPHA
 62
     7
100
AcDbVertex
100
AcDb2dVertex
 10
140.490608
 20
41.893777
 30
0.0
  0
VERTEX
  5
1A8E
100
AcDbEntity
  8
ALPHA
 62
     7
100
AcDbVertex
100
AcDb2dVertex
 10
140.535394
 20
41.76562
 30
0.0
  0
VERTEX
  5
1A8F
100
AcDbEntity
  8
ALPHA
 62
     7
100
AcDbVertex
100
AcDb2dVertex
 10
140.590516
 20
41.715321
 30
0.0
  0
SEQEND
  5
1A90
100
AcDbEntity
  8
ALPHA
 62
     7
  0
LINE
  5
1A91
100
AcDbEntity
  8
ALPHA
 62
     7
100
AcDbLine
 10
140.416538
 20
42.996552
 30
0.0
 11
140.022764
 21
42.996552
 31
0.0
  0
LINE
  5
1A92
100
AcDbEntity
  8
ALPHA
 62
     7
100
AcDbLine
 10
131.814135
 20
83.644201
 30
0.0
 11
140.248418
 21
83.644201
 31
0.0
  0
LINE
  5
1A93
100
AcDbEntity
  8
ALPHA
 62
     7
100
AcDbLine
 10
116.520323
 20
61.818143
 30
0.0
 11
116.520323
 21
61.22662
 31
0.0
  0
LINE
  5
1A94
100
AcDbEntity
  8
ALPHA
 62
     7
100
AcDbLine
 10
131.814135
 20
83.69381
 30
0.0
 11
123.536949
 21
83.69381
 31
0.0
  0
LINE
  5
1A95
100
AcDbEntity
  8
ALPHA
 62
     7
100
AcDbLine
 10
122.482405
 20
83.3493
 30
0.0
 11
122.482405
 21
83.644201
 31
0.0
  0
LINE
  5
1A96
100
AcDbEntity
  8
ALPHA
 62
     7
100
AcDbLine
 10
139.981423
 20
83.3493
 30
0.0
 11
139.981423
 21
45.952789
 31
0.0
  0
LINE
  5
1A97
100
AcDbEntity
  8
ALPHA
 62
     7
100
AcDbLine
 10
139.981423
 20
45.952789
 30
0.0
 11
140.416538
 21
45.952789
 31
0.0
  0
LINE
  5
1A98
100
AcDbEntity
  8
ALPHA
 62
     7
100
AcDbLine
 10
139.937326
 20
83.3493
 30
0.0
 11
139.937326
 21
83.644201
 31
0.0
  0
LINE
  5
1A99
100
AcDbEntity
  8
ALPHA
 62
     7
100
AcDbLine
 10
140.248418
 20
84.236068
 30
0.0
 11
140.416538
 21
84.236068
 31
0.0
  0
LINE
  5
1A9A
100
AcDbEntity
  8
ALPHA
 62
     7
100
AcDbLine
 10
163.445968
 20
51.818064
 30
0.0
 11
163.445968
 21
42.208315
 31
0.0
  0
LINE
  5
1A9B
100
AcDbEntity
  8
ALPHA
 62
     7
100
AcDbLine
 10
162.121329
 20
42.208315
 30
0.0
 11
162.121329
 21
61.12809
 31
0.0
  0
LINE
  5
1A9C
100
AcDbEntity
  8
ALPHA
 62
     7
100
AcDbLine
 10
162.003162
 20
61.12809
 30
0.0
 11
162.003162
 21
42.208315
 31
0.0
  0
LINE
  5
1A9D
100
AcDbEntity
  8
ALPHA
 62
     7
100
AcDbLine
 10
160.659231
 20
61.149794
 30
0.0
 11
160.659231
 21
42.700963
 31
0.0
  0
SPLINE
  5
1A9E
100
AcDbEntity
  8
ALPHA
 62
     7
100
AcDbSpline
210
0.0
220
0.0
230
1.0
 70
     8
 71
     3
 72
     8
 73
     4
 74
     0
 42
0.0000001
 43
0.0000001
 40
0.0
 40
0.0
 40
0.0
 40
0.0
 40
1.0
 40
1.0
 40
1.0
 40
1.0
 10
162.952975126966
 20
41.7153214107341
 30
0.0
 10
163.2251376703688
 20
41.7153214107341
 30
0.0
 10
163.4459682910285
 20
41.93580752184522
 30
0.0
 10
163.4459682910285
 20
42.2083145747966
 30
0.0
  0
LINE
  5
1A9F
100
AcDbEntity
  8
ALPHA
 62
     7
100
AcDbLine
 10
162.121329
 20
42.208315
 30
0.0
 11
163.445968
 21
42.208315
 31
0.0
  0
LINE
  5
1AA0
100
AcDbEntity
  8
ALPHA
 62
     7
100
AcDbLine
 10
160.773952
 20
42.208315
 30
0.0
 11
162.003162
 21
42.208315
 31
0.0
  0
POLYLINE
  5
1AA1
100
AcDbEntity
  8
ALPHA
 62
     7
100
AcDb2dPolyline
 66
     1
 10
0.0
 20
0.0
 30
0.0
  0
VERTEX
  5
1AA2
100
AcDbEntity
  8
ALPHA
 62
     7
100
AcDbVertex
100
AcDb2dVertex
 10
160.773952
 20
42.208315
 30
0.0
  0
VERTEX
  5
1AA3
100
AcDbEntity
  8
ALPHA
 62
     7
100
AcDbVertex
100
AcDb2dVertex
 10
160.740879
 20
42.240698
 30
0.0
  0
VERTEX
  5
1AA4
100
AcDbEntity
  8
ALPHA
 62
     7
100
AcDbVertex
100
AcDb2dVertex
 10
160.707462
 20
42.341295
 30
0.0
  0
VERTEX
  5
1AA5
100
AcDbEntity
  8
ALPHA
 62
     7
100
AcDbVertex
100
AcDb2dVertex
 10
160.678868
 20
42.499425
 30
0.0
  0
VERTEX
  5
1AA6
100
AcDbEntity
  8
ALPHA
 62
     7
100
AcDbVertex
100
AcDb2dVertex
 10
160.659231
 20
42.700963
 30
0.0
  0
SEQEND
  5
1AA7
100
AcDbEntity
  8
ALPHA
 62
     7
  0
LINE
  5
1AA8
100
AcDbEntity
  8
ALPHA
 62
     7
100
AcDbLine
 10
181.353575
 20
82.073582
 30
0.0
 11
177.192244
 21
82.074271
 31
0.0
  0
LINE
  5
1AA9
100
AcDbEntity
  8
ALPHA
 62
     7
100
AcDbLine
 10
181.384236
 20
84.525456
 30
0.0
 11
177.192244
 21
84.525456
 31
0.0
  0
LINE
  5
1AAA
100
AcDbEntity
  8
ALPHA
 62
     7
100
AcDbLine
 10
177.438568
 20
84.402466
 30
0.0
 11
180.690049
 21
84.402466
 31
0.0
  0
LINE
  5
1AAB
100
AcDbEntity
  8
ALPHA
 62
     7
100
AcDbLine
 10
180.690049
 20
82.196571
 30
0.0
 11
177.438568
 21
82.196571
 31
0.0
  0
LINE
  5
1AAC
100
AcDbEntity
  8
ALPHA
 62
     7
100
AcDbLine
 10
170.509792
 20
79.629975
 30
0.0
 11
181.743215
 21
79.629975
 31
0.0
  0
LINE
  5
1AAD
100
AcDbEntity
  8
ALPHA
 62
     7
100
AcDbLine
 10
181.740459
 20
79.628597
 30
0.0
 11
170.509792
 21
79.628597
 31
0.0
  0
LINE
  5
1AAE
100
AcDbEntity
  8
ALPHA
 62
     7
100
AcDbLine
 10
167.868093
 20
65.516453
 30
0.0
 11
167.820551
 21
63.057688
 31
0.0
  0
LINE
  5
1AAF
100
AcDbEntity
  8
ALPHA
 62
     7
100
AcDbLine
 10
164.823317
 20
62.583298
 30
0.0
 11
165.124763
 21
83.007202
 31
0.0
  0
LINE
  5
1AB0
100
AcDbEntity
  8
ALPHA
 62
     7
100
AcDbLine
 10
164.749592
 20
80.835759
 30
0.0
 11
164.749592
 21
61.620394
 31
0.0
  0
LINE
  5
1AB1
100
AcDbEntity
  8
ALPHA
 62
     7
100
AcDbLine
 10
163.122474
 20
61.12809
 30
0.0
 11
163.122474
 21
52.998354
 31
0.0
  0
LINE
  5
1AB2
100
AcDbEntity
  8
ALPHA
 62
     7
100
AcDbLine
 10
163.421508
 20
52.998354
 30
0.0
 11
163.421508
 21
51.840113
 31
0.0
  0
LINE
  5
1AB3
100
AcDbEntity
  8
ALPHA
 62
     7
100
AcDbLine
 10
163.421508
 20
52.998354
 30
0.0
 11
163.122474
 21
52.998354
 31
0.0
  0
LINE
  5
1AB4
100
AcDbEntity
  8
ALPHA
 62
     7
100
AcDbLine
 10
160.703328
 20
61.12809
 30
0.0
 11
166.856268
 21
61.12809
 31
0.0
  0
POLYLINE
  5
1AB5
100
AcDbEntity
  8
ALPHA
 62
     7
100
AcDb2dPolyline
 66
     1
 10
0.0
 20
0.0
 30
0.0
  0
VERTEX
  5
1AB6
100
AcDbEntity
  8
ALPHA
 62
     7
100
AcDbVertex
100
AcDb2dVertex
 10
165.993272
 20
62.567795
 30
0.0
  0
VERTEX
  5
1AB7
100
AcDbEntity
  8
ALPHA
 62
     7
100
AcDbVertex
100
AcDb2dVertex
 10
165.868904
 20
62.472711
 30
0.0
  0
VERTEX
  5
1AB8
100
AcDbEntity
  8
ALPHA
 62
     7
100
AcDbVertex
100
AcDb2dVertex
 10
165.488221
 20
62.314925
 30
0.0
  0
SEQEND
  5
1AB9
100
AcDbEntity
  8
ALPHA
 62
     7
  0
LINE
  5
1ABA
100
AcDbEntity
  8
ALPHA
 62
     7
100
AcDbLine
 10
165.723176
 20
62.56814
 30
0.0
 11
164.749592
 21
62.574341
 31
0.0
  0
LINE
  5
1ABB
100
AcDbEntity
  8
ALPHA
 62
     7
100
AcDbLine
 10
164.245575
 20
61.12809
 30
0.0
 11
164.441256
 21
61.16702
 31
0.0
  0
LINE
  5
1ABC
100
AcDbEntity
  8
ALPHA
 62
     7
100
AcDbLine
 10
164.418174
 20
61.165642
 30
0.0
 11
164.233517
 21
61.12809
 31
0.0
  0
LINE
  5
1ABD
100
AcDbEntity
  8
ALPHA
 62
     7
100
AcDbLine
 10
164.711352
 20
61.434359
 30
0.0
 11
164.749592
 21
61.620394
 31
0.0
  0
POLYLINE
  5
1ABE
100
AcDbEntity
  8
ALPHA
 62
     7
100
AcDb2dPolyline
 66
     1
 10
0.0
 20
0.0
 30
0.0
  0
VERTEX
  5
1ABF
100
AcDbEntity
  8
ALPHA
 62
     7
100
AcDbVertex
100
AcDb2dVertex
 10
164.441256
 20
61.16702
 30
0.0
  0
VERTEX
  5
1AC0
100
AcDbEntity
  8
ALPHA
 62
     7
100
AcDbVertex
100
AcDb2dVertex
 10
164.604209
 20
61.274162
 30
0.0
  0
VERTEX
  5
1AC1
100
AcDbEntity
  8
ALPHA
 62
     7
100
AcDbVertex
100
AcDb2dVertex
 10
164.711352
 20
61.434359
 30
0.0
  0
SEQEND
  5
1AC2
100
AcDbEntity
  8
ALPHA
 62
     7
  0
LINE
  5
1AC3
100
AcDbEntity
  8
ALPHA
 62
     7
100
AcDbLine
 10
164.749592
 20
62.261526
 30
0.0
 11
165.078599
 21
62.261526
 31
0.0
  0
POLYLINE
  5
1AC4
100
AcDbEntity
  8
ALPHA
 62
     7
100
AcDb2dPolyline
 66
     1
 10
0.0
 20
0.0
 30
0.0
  0
VERTEX
  5
1AC5
100
AcDbEntity
  8
ALPHA
 62
     7
100
AcDbVertex
100
AcDb2dVertex
 10
164.749592
 20
62.57503
 30
0.0
  0
VERTEX
  5
1AC6
100
AcDbEntity
  8
ALPHA
 62
     7
100
AcDbVertex
100
AcDb2dVertex
 10
164.755449
 20
62.57503
 30
0.0
  0
VERTEX
  5
1AC7
100
AcDbEntity
  8
ALPHA
 62
     7
100
AcDbVertex
100
AcDb2dVertex
 10
164.789556
 20
62.577786
 30
0.0
  0
VERTEX
  5
1AC8
100
AcDbEntity
  8
ALPHA
 62
     7
100
AcDbVertex
100
AcDb2dVertex
 10
164.823317
 20
62.583298
 30
0.0
  0
SEQEND
  5
1AC9
100
AcDbEntity
  8
ALPHA
 62
     7
  0
LINE
  5
1ACA
100
AcDbEntity
  8
ALPHA
 62
     7
100
AcDbLine
 10
165.488221
 20
62.314925
 30
0.0
 11
165.077221
 21
62.261526
 31
0.0
  0
LINE
  5
1ACB
100
AcDbEntity
  8
ALPHA
 62
     7
100
AcDbLine
 10
167.387158
 20
62.572963
 30
0.0
 11
167.387158
 21
61.620394
 31
0.0
  0
SPLINE
  5
1ACC
100
AcDbEntity
  8
ALPHA
 62
     7
100
AcDbSpline
210
0.0
220
0.0
230
-1.0
 70
     8
 71
     3
 72
     8
 73
     4
 74
     0
 42
0.0000001
 43
0.0000001
 40
0.0
 40
0.0
 40
0.0
 40
0.0
 40
1.0
 40
1.0
 40
1.0
 40
1.0
 10
166.8941643630772
 20
61.12808996542161
 30
0.0
 10
167.1666714160285
 20
61.12808996542161
 30
0.0
 10
167.3871575271396
 20
61.34823156698409
 30
0.0
 10
167.3871575271396
 20
61.62039411038688
 30
0.0
  0
POLYLINE
  5
1ACD
100
AcDbEntity
  8
ALPHA
 62
     7
100
AcDb2dPolyline
 66
     1
 10
0.0
 20
0.0
 30
0.0
  0
VERTEX
  5
1ACE
100
AcDbEntity
  8
ALPHA
 62
     7
100
AcDbVertex
100
AcDb2dVertex
 10
167.361319
 20
62.572963
 30
0.0
  0
VERTEX
  5
1ACF
100
AcDbEntity
  8
ALPHA
 62
     7
100
AcDbVertex
100
AcDb2dVertex
 10
167.034724
 20
62.567795
 30
0.0
  0
VERTEX
  5
1AD0
100
AcDbEntity
  8
ALPHA
 62
     7
100
AcDbVertex
100
AcDb2dVertex
 10
166.492466
 20
62.566417
 30
0.0
  0
VERTEX
  5
1AD1
100
AcDbEntity
  8
ALPHA
 62
     7
100
AcDbVertex
100
AcDb2dVertex
 10
165.723176
 20
62.56814
 30
0.0
  0
SEQEND
  5
1AD2
100
AcDbEntity
  8
ALPHA
 62
     7
  0
POLYLINE
  5
1AD3
100
AcDbEntity
  8
ALPHA
 62
     7
100
AcDb2dPolyline
 66
     1
 10
0.0
 20
0.0
 30
0.0
  0
VERTEX
  5
1AD4
100
AcDbEntity
  8
ALPHA
 62
     7
100
AcDbVertex
100
AcDb2dVertex
 10
167.819862
 20
63.03874
 30
0.0
  0
VERTEX
  5
1AD5
100
AcDbEntity
  8
ALPHA
 62
     7
100
AcDbVertex
100
AcDb2dVertex
 10
167.79988
 20
62.911271
 30
0.0
  0
VERTEX
  5
1AD6
100
AcDbEntity
  8
ALPHA
 62
     7
100
AcDbVertex
100
AcDb2dVertex
 10
167.742347
 20
62.786903
 30
0.0
  0
VERTEX
  5
1AD7
100
AcDbEntity
  8
ALPHA
 62
     7
100
AcDbVertex
100
AcDb2dVertex
 10
167.658976
 20
62.690441
 30
0.0
  0
VERTEX
  5
1AD8
100
AcDbEntity
  8
ALPHA
 62
     7
100
AcDbVertex
100
AcDb2dVertex
 10
167.558379
 20
62.623261
 30
0.0
  0
VERTEX
  5
1AD9
100
AcDbEntity
  8
ALPHA
 62
     7
100
AcDbVertex
100
AcDb2dVertex
 10
167.44848
 20
62.584676
 30
0.0
  0
VERTEX
  5
1ADA
100
AcDbEntity
  8
ALPHA
 62
     7
100
AcDbVertex
100
AcDb2dVertex
 10
167.361319
 20
62.572963
 30
0.0
  0
SEQEND
  5
1ADB
100
AcDbEntity
  8
ALPHA
 62
     7
  0
SPLINE
  5
1ADC
100
AcDbEntity
  8
ALPHA
 62
     7
100
AcDbSpline
210
0.0
220
0.0
230
1.0
 70
     8
 71
     3
 72
    11
 73
     7
 74
     0
 42
0.0000001
 43
0.0000001
 40
0.0
 40
0.0
 40
0.0
 40
0.0
 40
1.0
 40
1.0
 40
1.0
 40
2.0
 40
2.0
 40
2.0
 40
2.0
 10
166.3980706130772
 20
76.89456945760909
 30
0.0
 10
167.4863762771396
 20
76.89456945760909
 30
0.0
 10
168.3683207215841
 20
77.77651390205355
 30
0.0
 10
168.3683207215841
 20
78.86550858521326
 30
0.0
 10
168.3683207215841
 20
79.95381424927578
 30
0.0
 10
167.4863762771396
 20
80.83575869372021
 30
0.0
 10
166.3980706130772
 20
80.83575869372021
 30
0.0
  0
LINE
  5
1ADD
100
AcDbEntity
  8
ALPHA
 62
     7
100
AcDbLine
 10
168.935383
 20
69.897581
 30
0.0
 11
167.861203
 21
69.897581
 31
0.0
  0
POLYLINE
  5
1ADE
100
AcDbEntity
  8
ALPHA
 62
     7
100
AcDb2dPolyline
 66
     1
 10
0.0
 20
0.0
 30
0.0
  0
VERTEX
  5
1ADF
100
AcDbEntity
  8
ALPHA
 62
     7
100
AcDbVertex
100
AcDb2dVertex
 10
167.925626
 20
69.223375
 30
0.0
  0
VERTEX
  5
1AE0
100
AcDbEntity
  8
ALPHA
 62
     7
100
AcDbVertex
100
AcDb2dVertex
 10
167.897721
 20
69.488992
 30
0.0
  0
VERTEX
  5
1AE1
100
AcDbEntity
  8
ALPHA
 62
     7
100
AcDbVertex
100
AcDb2dVertex
 10
167.866026
 20
69.808008
 30
0.0
  0
VERTEX
  5
1AE2
100
AcDbEntity
  8
ALPHA
 62
     7
100
AcDbVertex
100
AcDb2dVertex
 10
167.829163
 20
70.180078
 30
0.0
  0
VERTEX
  5
1AE3
100
AcDbEntity
  8
ALPHA
 62
     7
100
AcDbVertex
100
AcDb2dVertex
 10
167.789889
 20
70.603136
 30
0.0
  0
VERTEX
  5
1AE4
100
AcDbEntity
  8
ALPHA
 62
     7
100
AcDbVertex
100
AcDb2dVertex
 10
167.74717
 20
71.07787
 30
0.0
  0
VERTEX
  5
1AE5
100
AcDbEntity
  8
ALPHA
 62
     7
100
AcDbVertex
100
AcDb2dVertex
 10
167.703073
 20
71.600491
 30
0.0
  0
VERTEX
  5
1AE6
100
AcDbEntity
  8
ALPHA
 62
     7
100
AcDbVertex
100
AcDb2dVertex
 10
167.657598
 20
72.169621
 30
0.0
  0
VERTEX
  5
1AE7
100
AcDbEntity
  8
ALPHA
 62
     7
100
AcDbVertex
100
AcDb2dVertex
 10
167.611433
 20
72.783193
 30
0.0
  0
VERTEX
  5
1AE8
100
AcDbEntity
  8
ALPHA
 62
     7
100
AcDbVertex
100
AcDb2dVertex
 10
167.565958
 20
73.43845
 30
0.0
  0
VERTEX
  5
1AE9
100
AcDbEntity
  8
ALPHA
 62
     7
100
AcDbVertex
100
AcDb2dVertex
 10
167.521516
 20
74.132292
 30
0.0
  0
VERTEX
  5
1AEA
100
AcDbEntity
  8
ALPHA
 62
     7
100
AcDbVertex
100
AcDb2dVertex
 10
167.479486
 20
74.861619
 30
0.0
  0
VERTEX
  5
1AEB
100
AcDbEntity
  8
ALPHA
 62
     7
100
AcDbVertex
100
AcDb2dVertex
 10
167.440212
 20
75.623329
 30
0.0
  0
VERTEX
  5
1AEC
100
AcDbEntity
  8
ALPHA
 62
     7
100
AcDbVertex
100
AcDb2dVertex
 10
167.404728
 20
76.415012
 30
0.0
  0
VERTEX
  5
1AED
100
AcDbEntity
  8
ALPHA
 62
     7
100
AcDbVertex
100
AcDb2dVertex
 10
167.376478
 20
77.157086
 30
0.0
  0
SEQEND
  5
1AEE
100
AcDbEntity
  8
ALPHA
 62
     7
  0
POLYLINE
  5
1AEF
100
AcDbEntity
  8
ALPHA
 62
     7
100
AcDb2dPolyline
 66
     1
 10
0.0
 20
0.0
 30
0.0
  0
VERTEX
  5
1AF0
100
AcDbEntity
  8
ALPHA
 62
     7
100
AcDbVertex
100
AcDb2dVertex
 10
165.331469
 20
65.522654
 30
0.0
  0
VERTEX
  5
1AF1
100
AcDbEntity
  8
ALPHA
 62
     7
100
AcDbVertex
100
AcDb2dVertex
 10
166.30712
 20
65.517142
 30
0.0
  0
VERTEX
  5
1AF2
100
AcDbEntity
  8
ALPHA
 62
     7
100
AcDbVertex
100
AcDb2dVertex
 10
167.05505
 20
65.515075
 30
0.0
  0
VERTEX
  5
1AF3
100
AcDbEntity
  8
ALPHA
 62
     7
100
AcDbVertex
100
AcDb2dVertex
 10
167.574571
 20
65.516453
 30
0.0
  0
VERTEX
  5
1AF4
100
AcDbEntity
  8
ALPHA
 62
     7
100
AcDbVertex
100
AcDb2dVertex
 10
167.865337
 20
65.521276
 30
0.0
  0
SEQEND
  5
1AF5
100
AcDbEntity
  8
ALPHA
 62
     7
  0
LINE
  5
1AF6
100
AcDbEntity
  8
ALPHA
 62
     7
100
AcDbLine
 10
167.883596
 20
66.338452
 30
0.0
 11
167.926315
 21
69.235778
 31
0.0
  0
LINE
  5
1AF7
100
AcDbEntity
  8
ALPHA
 62
     7
100
AcDbLine
 10
167.883596
 20
66.33983
 30
0.0
 11
167.868093
 21
65.526443
 31
0.0
  0
SPLINE
  5
1AF8
100
AcDbEntity
  8
ALPHA
 62
     7
100
AcDbSpline
210
0.0
220
0.0
230
1.0
 70
     8
 71
     3
 72
    11
 73
     7
 74
     0
 42
0.0000001
 43
0.0000001
 40
0.0
 40
0.0
 40
0.0
 40
0.0
 40
1.0
 40
1.0
 40
1.0
 40
2.0
 40
2.0
 40
2.0
 40
2.0
 10
166.3980706130772
 20
77.87952225708827
 30
0.0
 10
166.9417066807855
 20
77.87952225708827
 30
0.0
 10
167.3830234125563
 20
78.32083898885909
 30
0.0
 10
167.3830234125563
 20
78.86550858521326
 30
0.0
 10
167.3830234125563
 20
79.40948916247021
 30
0.0
 10
166.9417066807855
 20
79.85080589424104
 30
0.0
 10
166.3980706130772
 20
79.85080589424104
 30
0.0
  0
LINE
  5
1AF9
100
AcDbEntity
  8
ALPHA
 62
     7
100
AcDbLine
 10
166.007052
 20
81.03833
 30
0.0
 11
165.941595
 21
76.604492
 31
0.0
  0
LINE
  5
1AFA
100
AcDbEntity
  8
ALPHA
 62
     7
100
AcDbLine
 10
166.379123
 20
76.601736
 30
0.0
 11
166.383601
 21
76.895258
 31
0.0
  0
LINE
  5
1AFB
100
AcDbEntity
  8
ALPHA
 62
     7
100
AcDbLine
 10
166.379123
 20
76.601736
 30
0.0
 11
165.941595
 21
76.608627
 31
0.0
  0
LINE
  5
1AFC
100
AcDbEntity
  8
ALPHA
 62
     7
100
AcDbLine
 10
166.379123
 20
76.601736
 30
0.0
 11
165.941595
 21
76.604492
 31
0.0
  0
LINE
  5
1AFD
100
AcDbEntity
  8
ALPHA
 62
     7
100
AcDbLine
 10
165.94573
 20
76.894569
 30
0.0
 11
166.398071
 21
76.894569
 31
0.0
  0
LINE
  5
1AFE
100
AcDbEntity
  8
ALPHA
 62
     7
100
AcDbLine
 10
167.46605
 20
77.221165
 30
0.0
 11
167.46605
 21
75.214052
 31
0.0
  0
LINE
  5
1AFF
100
AcDbEntity
  8
ALPHA
 62
     7
100
AcDbLine
 10
166.398071
 20
77.879522
 30
0.0
 11
166.42632
 21
79.803953
 31
0.0
  0
LINE
  5
1B00
100
AcDbEntity
  8
ALPHA
 62
     7
100
AcDbLine
 10
166.384979
 20
79.804642
 30
0.0
 11
165.988449
 21
79.810498
 31
0.0
  0
LINE
  5
1B01
100
AcDbEntity
  8
ALPHA
 62
     7
100
AcDbLine
 10
166.398071
 20
77.879522
 30
0.0
 11
165.960199
 21
77.879522
 31
0.0
  0
LINE
  5
1B02
100
AcDbEntity
  8
ALPHA
 62
     7
100
AcDbLine
 10
165.023822
 20
83.019605
 30
0.0
 11
166.107994
 21
83.013404
 31
0.0
  0
LINE
  5
1B03
100
AcDbEntity
  8
ALPHA
 62
     7
100
AcDbLine
 10
165.34835
 20
83.299346
 30
0.0
 11
167.387158
 21
83.299346
 31
0.0
  0
LINE
  5
1B04
100
AcDbEntity
  8
ALPHA
 62
     7
100
AcDbLine
 10
165.34835
 20
83.017538
 30
0.0
 11
165.34835
 21
83.299346
 31
0.0
  0
LINE
  5
1B05
100
AcDbEntity
  8
ALPHA
 62
     7
100
AcDbLine
 10
164.86018
 20
84.284988
 30
0.0
 11
164.86018
 21
82.863886
 31
0.0
  0
LINE
  5
1B06
100
AcDbEntity
  8
ALPHA
 62
     7
100
AcDbLine
 10
165.023822
 20
83.019605
 30
0.0
 11
164.749592
 21
82.758811
 31
0.0
  0
POLYLINE
  5
1B07
100
AcDbEntity
  8
ALPHA
 62
     7
100
AcDb2dPolyline
 66
     1
 10
0.0
 20
0.0
 30
0.0
  0
VERTEX
  5
1B08
100
AcDbEntity
  8
ALPHA
 62
     7
100
AcDbVertex
100
AcDb2dVertex
 10
165.023822
 20
83.019605
 30
0.0
  0
VERTEX
  5
1B09
100
AcDbEntity
  8
ALPHA
 62
     7
100
AcDbVertex
100
AcDb2dVertex
 10
165.057584
 20
83.018227
 30
0.0
  0
VERTEX
  5
1B0A
100
AcDbEntity
  8
ALPHA
 62
     7
100
AcDbVertex
100
AcDb2dVertex
 10
165.09169
 20
83.014093
 30
0.0
  0
VERTEX
  5
1B0B
100
AcDbEntity
  8
ALPHA
 62
     7
100
AcDbVertex
100
AcDb2dVertex
 10
165.124763
 20
83.007202
 30
0.0
  0
SEQEND
  5
1B0C
100
AcDbEntity
  8
ALPHA
 62
     7
  0
LINE
  5
1B0D
100
AcDbEntity
  8
ALPHA
 62
     7
100
AcDbLine
 10
164.749592
 20
84.284988
 30
0.0
 11
164.938728
 21
84.284988
 31
0.0
  0
POLYLINE
  5
1B0E
100
AcDbEntity
  8
ALPHA
 62
     7
100
AcDb2dPolyline
 66
     1
 10
0.0
 20
0.0
 30
0.0
  0
VERTEX
  5
1B0F
100
AcDbEntity
  8
ALPHA
 62
     7
100
AcDbVertex
100
AcDb2dVertex
 10
167.302408
 20
80.604937
 30
0.0
  0
VERTEX
  5
1B10
100
AcDbEntity
  8
ALPHA
 62
     7
100
AcDbVertex
100
AcDb2dVertex
 10
167.301719
 20
80.702089
 30
0.0
  0
VERTEX
  5
1B11
100
AcDbEntity
  8
ALPHA
 62
     7
100
AcDbVertex
100
AcDb2dVertex
 10
167.299652
 20
81.60367
 30
0.0
  0
VERTEX
  5
1B12
100
AcDbEntity
  8
ALPHA
 62
     7
100
AcDbVertex
100
AcDb2dVertex
 10
167.303786
 20
82.511453
 30
0.0
  0
SEQEND
  5
1B13
100
AcDbEntity
  8
ALPHA
 62
     7
  0
LINE
  5
1B14
100
AcDbEntity
  8
ALPHA
 62
     7
100
AcDbLine
 10
166.400138
 20
80.835759
 30
0.0
 11
166.403238
 21
81.036263
 31
0.0
  0
LINE
  5
1B15
100
AcDbEntity
  8
ALPHA
 62
     7
100
AcDbLine
 10
166.007052
 20
81.03833
 30
0.0
 11
166.403238
 21
81.036263
 31
0.0
  0
LINE
  5
1B16
100
AcDbEntity
  8
ALPHA
 62
     7
100
AcDbLine
 10
166.398071
 20
80.835759
 30
0.0
 11
166.004296
 21
80.835759
 31
0.0
  0
LINE
  5
1B17
100
AcDbEntity
  8
ALPHA
 62
     7
100
AcDbLine
 10
165.989138
 20
79.850806
 30
0.0
 11
166.398071
 21
79.850806
 31
0.0
  0
POLYLINE
  5
1B18
100
AcDbEntity
  8
ALPHA
 62
     7
100
AcDb2dPolyline
 66
     1
 10
0.0
 20
0.0
 30
0.0
  0
VERTEX
  5
1B19
100
AcDbEntity
  8
ALPHA
 62
     7
100
AcDbVertex
100
AcDb2dVertex
 10
167.30792
 20
82.57002
 30
0.0
  0
VERTEX
  5
1B1A
100
AcDbEntity
  8
ALPHA
 62
     7
100
AcDbVertex
100
AcDb2dVertex
 10
167.300341
 20
82.658214
 30
0.0
  0
VERTEX
  5
1B1B
100
AcDbEntity
  8
ALPHA
 62
     7
100
AcDbVertex
100
AcDb2dVertex
 10
167.257622
 20
82.78396
 30
0.0
  0
VERTEX
  5
1B1C
100
AcDbEntity
  8
ALPHA
 62
     7
100
AcDbVertex
100
AcDb2dVertex
 10
167.186308
 20
82.882145
 30
0.0
  0
VERTEX
  5
1B1D
100
AcDbEntity
  8
ALPHA
 62
     7
100
AcDbVertex
100
AcDb2dVertex
 10
167.094669
 20
82.953459
 30
0.0
  0
VERTEX
  5
1B1E
100
AcDbEntity
  8
ALPHA
 62
     7
100
AcDbVertex
100
AcDb2dVertex
 10
166.989249
 20
82.996523
 30
0.0
  0
VERTEX
  5
1B1F
100
AcDbEntity
  8
ALPHA
 62
     7
100
AcDbVertex
100
AcDb2dVertex
 10
166.877283
 20
83.011336
 30
0.0
  0
SEQEND
  5
1B20
100
AcDbEntity
  8
ALPHA
 62
     7
  0
LINE
  5
1B21
100
AcDbEntity
  8
ALPHA
 62
     7
100
AcDbLine
 10
166.143478
 20
83.299346
 30
0.0
 11
166.146234
 21
83.019605
 31
0.0
  0
POLYLINE
  5
1B22
100
AcDbEntity
  8
ALPHA
 62
     7
100
AcDb2dPolyline
 66
     1
 10
0.0
 20
0.0
 30
0.0
  0
VERTEX
  5
1B23
100
AcDbEntity
  8
ALPHA
 62
     7
100
AcDbVertex
100
AcDb2dVertex
 10
166.877283
 20
83.011336
 30
0.0
  0
VERTEX
  5
1B24
100
AcDbEntity
  8
ALPHA
 62
     7
100
AcDbVertex
100
AcDb2dVertex
 10
166.391869
 20
83.012715
 30
0.0
  0
VERTEX
  5
1B25
100
AcDbEntity
  8
ALPHA
 62
     7
100
AcDbVertex
100
AcDb2dVertex
 10
166.107305
 20
83.013404
 30
0.0
  0
SEQEND
  5
1B26
100
AcDbEntity
  8
ALPHA
 62
     7
  0
SPLINE
  5
1B27
100
AcDbEntity
  8
ALPHA
 62
     7
100
AcDbSpline
210
0.0
220
0.0
230
1.0
 70
     8
 71
     3
 72
     8
 73
     4
 74
     0
 42
0.0000001
 43
0.0000001
 40
0.0
 40
0.0
 40
0.0
 40
0.0
 40
1.0
 40
1.0
 40
1.0
 40
1.0
 10
169.1272752571744
 20
70.05123178399799
 30
0.0
 10
169.8517788379035
 20
73.20142709649798
 30
0.0
 10
170.3161777094313
 20
76.40639942722714
 30
0.0
 10
170.5173712858202
 20
79.63273134997021
 30
0.0
  0
SPLINE
  5
1B28
100
AcDbEntity
  8
ALPHA
 62
     7
100
AcDbSpline
210
0.0
220
0.0
230
1.0
 70
     8
 71
     3
 72
     8
 73
     4
 74
     0
 42
0.0000001
 43
0.0000001
 40
0.0
 40
0.0
 40
0.0
 40
0.0
 40
1.0
 40
1.0
 40
1.0
 40
1.0
 10
168.935383438598
 20
69.89758052531744
 30
0.0
 10
169.0270229785285
 20
69.89758052531744
 30
0.0
 10
169.1069491938063
 20
69.9616593013591
 30
0.0
 10
169.1272752571744
 20
70.05123178399799
 30
0.0
  0
POLYLINE
  5
1B29
100
AcDbEntity
  8
ALPHA
 62
     7
100
AcDb2dPolyline
 66
     1
 10
0.0
 20
0.0
 30
0.0
  0
VERTEX
  5
1B2A
100
AcDbEntity
  8
ALPHA
 62
     7
100
AcDbVertex
100
AcDb2dVertex
 10
169.267146
 20
79.450141
 30
0.0
  0
VERTEX
  5
1B2B
100
AcDbEntity
  8
ALPHA
 62
     7
100
AcDbVertex
100
AcDb2dVertex
 10
169.225805
 20
79.465644
 30
0.0
  0
VERTEX
  5
1B2C
100
AcDbEntity
  8
ALPHA
 62
     7
100
AcDbVertex
100
AcDb2dVertex
 10
169.190665
 20
79.539714
 30
0.0
  0
VERTEX
  5
1B2D
100
AcDbEntity
  8
ALPHA
 62
     7
100
AcDbVertex
100
AcDb2dVertex
 10
169.164827
 20
79.66546
 30
0.0
  0
VERTEX
  5
1B2E
100
AcDbEntity
  8
ALPHA
 62
     7
100
AcDbVertex
100
AcDb2dVertex
 10
169.148979
 20
79.829791
 30
0.0
  0
VERTEX
  5
1B2F
100
AcDbEntity
  8
ALPHA
 62
     7
100
AcDbVertex
100
AcDb2dVertex
 10
169.147257
 20
80.016515
 30
0.0
  0
SEQEND
  5
1B30
100
AcDbEntity
  8
ALPHA
 62
     7
  0
POLYLINE
  5
1B31
100
AcDbEntity
  8
ALPHA
 62
     7
100
AcDb2dPolyline
 66
     1
 10
0.0
 20
0.0
 30
0.0
  0
VERTEX
  5
1B32
100
AcDbEntity
  8
ALPHA
 62
     7
100
AcDbVertex
100
AcDb2dVertex
 10
169.267146
 20
79.450141
 30
0.0
  0
VERTEX
  5
1B33
100
AcDbEntity
  8
ALPHA
 62
     7
100
AcDbVertex
100
AcDb2dVertex
 10
169.421486
 20
79.499751
 30
0.0
  0
VERTEX
  5
1B34
100
AcDbEntity
  8
ALPHA
 62
     7
100
AcDbVertex
100
AcDb2dVertex
 10
169.56618
 20
79.547293
 30
0.0
  0
VERTEX
  5
1B35
100
AcDbEntity
  8
ALPHA
 62
     7
100
AcDbVertex
100
AcDb2dVertex
 10
169.686759
 20
79.585189
 30
0.0
  0
VERTEX
  5
1B36
100
AcDbEntity
  8
ALPHA
 62
     7
100
AcDbVertex
100
AcDb2dVertex
 10
169.800102
 20
79.624463
 30
0.0
  0
VERTEX
  5
1B37
100
AcDbEntity
  8
ALPHA
 62
     7
100
AcDbVertex
100
AcDb2dVertex
 10
169.82663
 20
79.632731
 30
0.0
  0
SEQEND
  5
1B38
100
AcDbEntity
  8
ALPHA
 62
     7
  0
LINE
  5
1B39
100
AcDbEntity
  8
ALPHA
 62
     7
100
AcDbLine
 10
169.82663
 20
79.632731
 30
0.0
 11
170.517371
 21
79.632731
 31
0.0
  0
SPLINE
  5
1B3A
100
AcDbEntity
  8
ALPHA
 62
     7
100
AcDbSpline
210
0.0
220
0.0
230
1.0
 70
     8
 71
     3
 72
     8
 73
     4
 74
     0
 42
0.0000001
 43
0.0000001
 40
0.0
 40
0.0
 40
0.0
 40
0.0
 40
1.0
 40
1.0
 40
1.0
 40
1.0
 10
176.9455749533549
 20
82.6895645747966
 30
0.0
 10
176.9455749533549
 20
82.41774654094243
 30
0.0
 10
177.1664055740147
 20
82.1965714107341
 30
0.0
 10
177.4385681174174
 20
82.1965714107341
 30
0.0
  0
POLYLINE
  5
1B3B
100
AcDbEntity
  8
ALPHA
 62
     7
100
AcDb2dPolyline
 66
     1
 10
0.0
 20
0.0
 30
0.0
  0
VERTEX
  5
1B3C
100
AcDbEntity
  8
ALPHA
 62
     7
100
AcDbVertex
100
AcDb2dVertex
 10
177.192244
 20
82.074271
 30
0.0
  0
VERTEX
  5
1B3D
100
AcDbEntity
  8
ALPHA
 62
     7
100
AcDbVertex
100
AcDb2dVertex
 10
177.04066
 20
82.098042
 30
0.0
  0
VERTEX
  5
1B3E
100
AcDbEntity
  8
ALPHA
 62
     7
100
AcDbVertex
100
AcDb2dVertex
 10
176.903545
 20
82.167288
 30
0.0
  0
VERTEX
  5
1B3F
100
AcDbEntity
  8
ALPHA
 62
     7
100
AcDbVertex
100
AcDb2dVertex
 10
176.794335
 20
82.276153
 30
0.0
  0
VERTEX
  5
1B40
100
AcDbEntity
  8
ALPHA
 62
     7
100
AcDbVertex
100
AcDb2dVertex
 10
176.723711
 20
82.413957
 30
0.0
  0
SEQEND
  5
1B41
100
AcDbEntity
  8
ALPHA
 62
     7
  0
SPLINE
  5
1B42
100
AcDbEntity
  8
ALPHA
 62
     7
100
AcDbSpline
210
0.0
220
0.0
230
-1.0
 70
     8
 71
     3
 72
     8
 73
     4
 74
     0
 42
0.0000001
 43
0.0000001
 40
0.0
 40
0.0
 40
0.0
 40
0.0
 40
1.0
 40
1.0
 40
1.0
 40
1.0
 10
177.4385681174174
 20
84.40246605049106
 30
0.0
 10
177.1664055740147
 20
84.40246605049106
 30
0.0
 10
176.9455749533549
 20
84.18197993937994
 30
0.0
 10
176.9455749533549
 20
83.90947288642854
 30
0.0
  0
LINE
  5
1B43
100
AcDbEntity
  8
ALPHA
 62
     7
100
AcDbLine
 10
176.723711
 20
82.413957
 30
0.0
 11
176.699251
 21
82.567264
 31
0.0
  0
POLYLINE
  5
1B44
100
AcDbEntity
  8
ALPHA
 62
     7
100
AcDb2dPolyline
 66
     1
 10
0.0
 20
0.0
 30
0.0
  0
VERTEX
  5
1B45
100
AcDbEntity
  8
ALPHA
 62
     7
100
AcDbVertex
100
AcDb2dVertex
 10
176.699251
 20
84.031774
 30
0.0
  0
VERTEX
  5
1B46
100
AcDbEntity
  8
ALPHA
 62
     7
100
AcDbVertex
100
AcDb2dVertex
 10
176.723711
 20
84.184392
 30
0.0
  0
VERTEX
  5
1B47
100
AcDbEntity
  8
ALPHA
 62
     7
100
AcDbVertex
100
AcDb2dVertex
 10
176.793646
 20
84.321851
 30
0.0
  0
VERTEX
  5
1B48
100
AcDbEntity
  8
ALPHA
 62
     7
100
AcDbVertex
100
AcDb2dVertex
 10
176.902856
 20
84.431749
 30
0.0
  0
VERTEX
  5
1B49
100
AcDbEntity
  8
ALPHA
 62
     7
100
AcDbVertex
100
AcDb2dVertex
 10
177.04066
 20
84.500996
 30
0.0
  0
VERTEX
  5
1B4A
100
AcDbEntity
  8
ALPHA
 62
     7
100
AcDbVertex
100
AcDb2dVertex
 10
177.192244
 20
84.525456
 30
0.0
  0
SEQEND
  5
1B4B
100
AcDbEntity
  8
ALPHA
 62
     7
  0
LINE
  5
1B4C
100
AcDbEntity
  8
ALPHA
 62
     7
100
AcDbLine
 10
176.945575
 20
83.921186
 30
0.0
 11
176.945575
 21
82.67854
 31
0.0
  0
LINE
  5
1B4D
100
AcDbEntity
  8
ALPHA
 62
     7
100
AcDbLine
 10
176.699251
 20
84.031774
 30
0.0
 11
176.699251
 21
82.567264
 31
0.0
  0
LINE
  5
1B4E
100
AcDbEntity
  8
ALPHA
 62
     7
100
AcDbLine
 10
182.755728
 20
80.147429
 30
0.0
 11
181.834165
 21
79.651679
 31
0.0
  0
LINE
  5
1B4F
100
AcDbEntity
  8
ALPHA
 62
     7
100
AcDbLine
 10
181.820041
 20
79.645134
 30
0.0
 11
181.743215
 21
79.629975
 31
0.0
  0
SPLINE
  5
1B50
100
AcDbEntity
  8
ALPHA
 62
     7
100
AcDbSpline
210
0.0
220
0.0
230
1.0
 70
     8
 71
     3
 72
    11
 73
     7
 74
     0
 42
0.0000001
 43
0.0000001
 40
0.0
 40
0.0
 40
0.0
 40
0.0
 40
1.0
 40
1.0
 40
1.0
 40
2.0
 40
2.0
 40
2.0
 40
2.0
 10
180.6900492372091
 20
82.1965714107341
 30
0.0
 10
180.9625562901605
 20
82.1965714107341
 30
0.0
 10
181.1830424012716
 20
82.41774654094243
 30
0.0
 10
181.1830424012716
 20
82.6895645747966
 30
0.0
 10
181.1830424012716
 20
82.6895645747966
 30
0.0
 10
181.1830424012716
 20
82.6895645747966
 30
0.0
 10
181.1830424012716
 20
82.6895645747966
 30
0.0
  0
LINE
  5
1B51
100
AcDbEntity
  8
ALPHA
 62
     7
100
AcDbLine
 10
181.183042
 20
82.074271
 30
0.0
 11
181.183042
 21
84.525456
 31
0.0
  0
POLYLINE
  5
1B52
100
AcDbEntity
  8
ALPHA
 62
     7
100
AcDb2dPolyline
 66
     1
 10
0.0
 20
0.0
 30
0.0
  0
VERTEX
  5
1B53
100
AcDbEntity
  8
ALPHA
 62
     7
100
AcDbVertex
100
AcDb2dVertex
 10
180.690049
 20
82.196571
 30
0.0
  0
VERTEX
  5
1B54
100
AcDbEntity
  8
ALPHA
 62
     7
100
AcDbVertex
100
AcDb2dVertex
 10
180.744482
 20
82.170733
 30
0.0
  0
VERTEX
  5
1B55
100
AcDbEntity
  8
ALPHA
 62
     7
100
AcDbVertex
100
AcDb2dVertex
 10
180.909502
 20
82.143517
 30
0.0
  0
VERTEX
  5
1B56
100
AcDbEntity
  8
ALPHA
 62
     7
100
AcDbVertex
100
AcDb2dVertex
 10
181.183042
 20
82.11699
 30
0.0
  0
SEQEND
  5
1B57
100
AcDbEntity
  8
ALPHA
 62
     7
  0
POLYLINE
  5
1B58
100
AcDbEntity
  8
ALPHA
 62
     7
100
AcDb2dPolyline
 66
     1
 10
0.0
 20
0.0
 30
0.0
  0
VERTEX
  5
1B59
100
AcDbEntity
  8
ALPHA
 62
     7
100
AcDbVertex
100
AcDb2dVertex
 10
181.183042
 20
83.909473
 30
0.0
  0
VERTEX
  5
1B5A
100
AcDbEntity
  8
ALPHA
 62
     7
100
AcDbVertex
100
AcDb2dVertex
 10
181.166161
 20
84.037286
 30
0.0
  0
VERTEX
  5
1B5B
100
AcDbEntity
  8
ALPHA
 62
     7
100
AcDbVertex
100
AcDb2dVertex
 10
181.116552
 20
84.156142
 30
0.0
  0
VERTEX
  5
1B5C
100
AcDbEntity
  8
ALPHA
 62
     7
100
AcDbVertex
100
AcDb2dVertex
 10
181.038348
 20
84.257772
 30
0.0
  0
VERTEX
  5
1B5D
100
AcDbEntity
  8
ALPHA
 62
     7
100
AcDbVertex
100
AcDb2dVertex
 10
180.936718
 20
84.336665
 30
0.0
  0
VERTEX
  5
1B5E
100
AcDbEntity
  8
ALPHA
 62
     7
100
AcDbVertex
100
AcDb2dVertex
 10
180.817862
 20
84.385585
 30
0.0
  0
VERTEX
  5
1B5F
100
AcDbEntity
  8
ALPHA
 62
     7
100
AcDbVertex
100
AcDb2dVertex
 10
180.690049
 20
84.402466
 30
0.0
  0
SEQEND
  5
1B60
100
AcDbEntity
  8
ALPHA
 62
     7
  0
POLYLINE
  5
1B61
100
AcDbEntity
  8
ALPHA
 62
     7
100
AcDb2dPolyline
 66
     1
 10
0.0
 20
0.0
 30
0.0
  0
VERTEX
  5
1B62
100
AcDbEntity
  8
ALPHA
 62
     7
100
AcDbVertex
100
AcDb2dVertex
 10
181.183042
 20
84.482048
 30
0.0
  0
VERTEX
  5
1B63
100
AcDbEntity
  8
ALPHA
 62
     7
100
AcDbVertex
100
AcDb2dVertex
 10
180.915703
 20
84.45621
 30
0.0
  0
VERTEX
  5
1B64
100
AcDbEntity
  8
ALPHA
 62
     7
100
AcDbVertex
100
AcDb2dVertex
 10
180.74586
 20
84.428993
 30
0.0
  0
VERTEX
  5
1B65
100
AcDbEntity
  8
ALPHA
 62
     7
100
AcDbVertex
100
AcDb2dVertex
 10
180.690049
 20
84.402466
 30
0.0
  0
SEQEND
  5
1B66
100
AcDbEntity
  8
ALPHA
 62
     7
  0
POLYLINE
  5
1B67
100
AcDbEntity
  8
ALPHA
 62
     7
100
AcDb2dPolyline
 66
     1
 10
0.0
 20
0.0
 30
0.0
  0
VERTEX
  5
1B68
100
AcDbEntity
  8
ALPHA
 62
     7
100
AcDbVertex
100
AcDb2dVertex
 10
182.810506
 20
80.547404
 30
0.0
  0
VERTEX
  5
1B69
100
AcDbEntity
  8
ALPHA
 62
     7
100
AcDbVertex
100
AcDb2dVertex
 10
182.579684
 20
81.309115
 30
0.0
  0
VERTEX
  5
1B6A
100
AcDbEntity
  8
ALPHA
 62
     7
100
AcDbVertex
100
AcDb2dVertex
 10
182.111151
 20
81.827257
 30
0.0
  0
VERTEX
  5
1B6B
100
AcDbEntity
  8
ALPHA
 62
     7
100
AcDbVertex
100
AcDb2dVertex
 10
181.723578
 20
82.00778
 30
0.0
  0
SEQEND
  5
1B6C
100
AcDbEntity
  8
ALPHA
 62
     7
  0
LINE
  5
1B6D
100
AcDbEntity
  8
ALPHA
 62
     7
100
AcDbLine
 10
181.723578
 20
82.00778
 30
0.0
 11
181.425577
 21
82.068758
 31
0.0
  0
LINE
  5
1B6E
100
AcDbEntity
  8
ALPHA
 62
     7
100
AcDbLine
 10
181.35013
 20
82.073582
 30
0.0
 11
181.425577
 21
82.068758
 31
0.0
  0
LINE
  5
1B6F
100
AcDbEntity
  8
ALPHA
 62
     7
100
AcDbLine
 10
182.810506
 20
80.547404
 30
0.0
 11
182.818774
 21
80.383762
 31
0.0
  0
POLYLINE
  5
1B70
100
AcDbEntity
  8
ALPHA
 62
     7
100
AcDb2dPolyline
 66
     1
 10
0.0
 20
0.0
 30
0.0
  0
VERTEX
  5
1B71
100
AcDbEntity
  8
ALPHA
 62
     7
100
AcDbVertex
100
AcDb2dVertex
 10
182.755728
 20
80.147429
 30
0.0
  0
VERTEX
  5
1B72
100
AcDbEntity
  8
ALPHA
 62
     7
100
AcDbVertex
100
AcDb2dVertex
 10
182.773298
 20
80.164999
 30
0.0
  0
VERTEX
  5
1B73
100
AcDbEntity
  8
ALPHA
 62
     7
100
AcDbVertex
100
AcDb2dVertex
 10
182.799137
 20
80.203928
 30
0.0
  0
VERTEX
  5
1B74
100
AcDbEntity
  8
ALPHA
 62
     7
100
AcDbVertex
100
AcDb2dVertex
 10
182.819463
 20
80.26973
 30
0.0
  0
VERTEX
  5
1B75
100
AcDbEntity
  8
ALPHA
 62
     7
100
AcDbVertex
100
AcDb2dVertex
 10
182.82153
 20
80.29419
 30
0.0
  0
SEQEND
  5
1B76
100
AcDbEntity
  8
ALPHA
 62
     7
  0
LINE
  5
1B77
100
AcDbEntity
  8
ALPHA
 62
     7
100
AcDbLine
 10
182.82153
 20
80.29419
 30
0.0
 11
182.708875
 21
80.239757
 31
0.0
  0
POLYLINE
  5
1B78
100
AcDbEntity
  8
ALPHA
 62
     7
100
AcDb2dPolyline
 66
     1
 10
0.0
 20
0.0
 30
0.0
  0
VERTEX
  5
1B79
100
AcDbEntity
  8
ALPHA
 62
     7
100
AcDbVertex
100
AcDb2dVertex
 10
181.387337
 20
84.525456
 30
0.0
  0
VERTEX
  5
1B7A
100
AcDbEntity
  8
ALPHA
 62
     7
100
AcDbVertex
100
AcDb2dVertex
 10
181.422132
 20
84.525456
 30
0.0
  0
VERTEX
  5
1B7B
100
AcDbEntity
  8
ALPHA
 62
     7
100
AcDbVertex
100
AcDb2dVertex
 10
181.547189
 20
84.526834
 30
0.0
  0
SEQEND
  5
1B7C
100
AcDbEntity
  8
ALPHA
 62
     7
  0
POLYLINE
  5
1B7D
100
AcDbEntity
  8
ALPHA
 62
     7
100
AcDb2dPolyline
 66
     1
 10
0.0
 20
0.0
 30
0.0
  0
VERTEX
  5
1B7E
100
AcDbEntity
  8
ALPHA
 62
     7
100
AcDbVertex
100
AcDb2dVertex
 10
181.58853
 20
84.526834
 30
0.0
  0
VERTEX
  5
1B7F
100
AcDbEntity
  8
ALPHA
 62
     7
100
AcDbVertex
100
AcDb2dVertex
 10
181.604033
 20
84.527523
 30
0.0
  0
VERTEX
  5
1B80
100
AcDbEntity
  8
ALPHA
 62
     7
100
AcDbVertex
100
AcDb2dVertex
 10
181.617813
 20
84.528212
 30
0.0
  0
VERTEX
  5
1B81
100
AcDbEntity
  8
ALPHA
 62
     7
100
AcDbVertex
100
AcDb2dVertex
 10
181.631249
 20
84.528212
 30
0.0
  0
VERTEX
  5
1B82
100
AcDbEntity
  8
ALPHA
 62
     7
100
AcDbVertex
100
AcDb2dVertex
 10
181.653642
 20
84.530968
 30
0.0
  0
VERTEX
  5
1B83
100
AcDbEntity
  8
ALPHA
 62
     7
100
AcDbVertex
100
AcDb2dVertex
 10
181.658466
 20
84.531657
 30
0.0
  0
SEQEND
  5
1B84
100
AcDbEntity
  8
ALPHA
 62
     7
  0
LINE
  5
1B85
100
AcDbEntity
  8
ALPHA
 62
     7
100
AcDbLine
 10
140.590516
 20
120.745123
 30
0.0
 11
160.95792
 21
120.745123
 31
0.0
  0
LINE
  5
1B86
100
AcDbEntity
  8
ALPHA
 62
     7
100
AcDbLine
 10
144.032855
 20
133.013797
 30
0.0
 11
144.032855
 21
124.489769
 31
0.0
  0
LINE
  5
1B87
100
AcDbEntity
  8
ALPHA
 62
     7
100
AcDbLine
 10
141.144487
 20
121.096523
 30
0.0
 11
141.144487
 21
133.013797
 31
0.0
  0
LINE
  5
1B88
100
AcDbEntity
  8
ALPHA
 62
     7
100
AcDbLine
 10
132.671619
 20
93.498552
 30
0.0
 11
139.431586
 21
93.498552
 31
0.0
  0
LINE
  5
1B89
100
AcDbEntity
  8
ALPHA
 62
     7
100
AcDbLine
 10
139.431586
 20
90.542315
 30
0.0
 11
132.671619
 21
90.542315
 31
0.0
  0
LINE
  5
1B8A
100
AcDbEntity
  8
ALPHA
 62
     7
100
AcDbLine
 10
123.536949
 20
87.19196
 30
0.0
 11
131.814135
 21
87.19196
 31
0.0
  0
LINE
  5
1B8B
100
AcDbEntity
  8
ALPHA
 62
     7
100
AcDbLine
 10
128.394878
 20
92.118963
 30
0.0
 11
128.394878
 21
87.98037
 31
0.0
  0
LINE
  5
1B8C
100
AcDbEntity
  8
ALPHA
 62
     7
100
AcDbLine
 10
132.671619
 20
90.542315
 30
0.0
 11
132.671619
 21
93.498552
 31
0.0
  0
LINE
  5
1B8D
100
AcDbEntity
  8
ALPHA
 62
     7
100
AcDbLine
 10
140.416538
 20
119.759653
 30
0.0
 11
140.416538
 21
104.338372
 31
0.0
  0
LINE
  5
1B8E
100
AcDbEntity
  8
ALPHA
 62
     7
100
AcDbLine
 10
140.248418
 20
121.08102
 30
0.0
 11
140.248418
 21
104.338372
 31
0.0
  0
LINE
  5
1B8F
100
AcDbEntity
  8
ALPHA
 62
     7
100
AcDbLine
 10
140.022764
 20
121.076886
 30
0.0
 11
140.022764
 21
104.338372
 31
0.0
  0
LINE
  5
1B90
100
AcDbEntity
  8
ALPHA
 62
     7
100
AcDbLine
 10
140.213622
 20
86.131215
 30
0.0
 11
140.213622
 21
87.19196
 31
0.0
  0
LINE
  5
1B91
100
AcDbEntity
  8
ALPHA
 62
     7
100
AcDbLine
 10
140.416538
 20
86.13087
 30
0.0
 11
140.213622
 21
86.131215
 31
0.0
  0
LINE
  5
1B92
100
AcDbEntity
  8
ALPHA
 62
     7
100
AcDbLine
 10
140.213622
 20
87.19196
 30
0.0
 11
140.416538
 21
87.19196
 31
0.0
  0
LINE
  5
1B93
100
AcDbEntity
  8
ALPHA
 62
     7
100
AcDbLine
 10
139.431586
 20
93.498552
 30
0.0
 11
139.431586
 21
90.542315
 31
0.0
  0
LINE
  5
1B94
100
AcDbEntity
  8
ALPHA
 62
     7
100
AcDbLine
 10
140.416538
 20
94.484193
 30
0.0
 11
140.248418
 21
94.484193
 31
0.0
  0
LINE
  5
1B95
100
AcDbEntity
  8
ALPHA
 62
     7
100
AcDbLine
 10
141.204776
 20
104.338372
 30
0.0
 11
141.204776
 21
98.425899
 31
0.0
  0
LINE
  5
1B96
100
AcDbEntity
  8
ALPHA
 62
     7
100
AcDbLine
 10
139.388522
 20
98.425899
 30
0.0
 11
139.388522
 21
104.338372
 31
0.0
  0
LINE
  5
1B97
100
AcDbEntity
  8
ALPHA
 62
     7
100
AcDbLine
 10
137.558832
 20
104.338372
 30
0.0
 11
137.558832
 21
98.425899
 31
0.0
  0
LINE
  5
1B98
100
AcDbEntity
  8
ALPHA
 62
     7
100
AcDbLine
 10
140.248418
 20
98.425899
 30
0.0
 11
137.558832
 21
98.425899
 31
0.0
  0
LINE
  5
1B99
100
AcDbEntity
  8
ALPHA
 62
     7
100
AcDbLine
 10
140.416538
 20
95.929583
 30
0.0
 11
140.248418
 21
95.928722
 31
0.0
  0
LINE
  5
1B9A
100
AcDbEntity
  8
ALPHA
 62
     7
100
AcDbLine
 10
141.204776
 20
98.425899
 30
0.0
 11
140.416538
 21
98.425899
 31
0.0
  0
LINE
  5
1B9B
100
AcDbEntity
  8
ALPHA
 62
     7
100
AcDbLine
 10
137.558832
 20
104.338372
 30
0.0
 11
140.248418
 21
104.338372
 31
0.0
  0
LINE
  5
1B9C
100
AcDbEntity
  8
ALPHA
 62
     7
100
AcDbLine
 10
141.204776
 20
104.338372
 30
0.0
 11
140.416538
 21
104.338372
 31
0.0
  0
LINE
  5
1B9D
100
AcDbEntity
  8
ALPHA
 62
     7
100
AcDbLine
 10
147.019064
 20
104.348191
 30
0.0
 11
147.019064
 21
98.435373
 31
0.0
  0
LINE
  5
1B9E
100
AcDbEntity
  8
ALPHA
 62
     7
100
AcDbLine
 10
146.723475
 20
98.918548
 30
0.0
 11
146.723475
 21
103.845379
 31
0.0
  0
LINE
  5
1B9F
100
AcDbEntity
  8
ALPHA
 62
     7
100
AcDbLine
 10
145.442244
 20
103.845379
 30
0.0
 11
145.442244
 21
98.918548
 31
0.0
  0
LINE
  5
1BA0
100
AcDbEntity
  8
ALPHA
 62
     7
100
AcDbLine
 10
145.245529
 20
98.435373
 30
0.0
 11
145.245529
 21
104.348191
 31
0.0
  0
LINE
  5
1BA1
100
AcDbEntity
  8
ALPHA
 62
     7
100
AcDbLine
 10
144.949251
 20
103.845379
 30
0.0
 11
144.949251
 21
98.918548
 31
0.0
  0
LINE
  5
1BA2
100
AcDbEntity
  8
ALPHA
 62
     7
100
AcDbLine
 10
144.949251
 20
98.918548
 30
0.0
 11
146.723475
 21
98.918548
 31
0.0
  0
LINE
  5
1BA3
100
AcDbEntity
  8
ALPHA
 62
     7
100
AcDbLine
 10
147.019064
 20
98.435373
 30
0.0
 11
145.245529
 21
98.435373
 31
0.0
  0
LINE
  5
1BA4
100
AcDbEntity
  8
ALPHA
 62
     7
100
AcDbLine
 10
145.245529
 20
104.348191
 30
0.0
 11
147.019064
 21
104.348191
 31
0.0
  0
LINE
  5
1BA5
100
AcDbEntity
  8
ALPHA
 62
     7
100
AcDbLine
 10
146.723475
 20
103.845379
 30
0.0
 11
144.949251
 21
103.845379
 31
0.0
  0
LINE
  5
1BA6
100
AcDbEntity
  8
ALPHA
 62
     7
100
AcDbLine
 10
147.314309
 20
123.504472
 30
0.0
 11
145.607953
 21
124.489769
 31
0.0
  0
LINE
  5
1BA7
100
AcDbEntity
  8
ALPHA
 62
     7
100
AcDbLine
 10
147.314309
 20
121.697175
 30
0.0
 11
146.434431
 21
121.188851
 31
0.0
  0
LINE
  5
1BA8
100
AcDbEntity
  8
ALPHA
 62
     7
100
AcDbLine
 10
140.022764
 20
121.076886
 30
0.0
 11
146.434431
 21
121.188851
 31
0.0
  0
POLYLINE
  5
1BA9
100
AcDbEntity
  8
ALPHA
 62
     7
100
AcDb2dPolyline
 66
     1
 10
0.0
 20
0.0
 30
0.0
  0
VERTEX
  5
1BAA
100
AcDbEntity
  8
ALPHA
 62
     7
100
AcDbVertex
100
AcDb2dVertex
 10
140.590516
 20
120.745123
 30
0.0
  0
VERTEX
  5
1BAB
100
AcDbEntity
  8
ALPHA
 62
     7
100
AcDbVertex
100
AcDb2dVertex
 10
140.53126
 20
120.687073
 30
0.0
  0
VERTEX
  5
1BAC
100
AcDbEntity
  8
ALPHA
 62
     7
100
AcDbVertex
100
AcDb2dVertex
 10
140.485096
 20
120.543585
 30
0.0
  0
VERTEX
  5
1BAD
100
AcDbEntity
  8
ALPHA
 62
     7
100
AcDbVertex
100
AcDb2dVertex
 10
140.447889
 20
120.321204
 30
0.0
  0
VERTEX
  5
1BAE
100
AcDbEntity
  8
ALPHA
 62
     7
100
AcDbVertex
100
AcDb2dVertex
 10
140.425496
 20
120.068678
 30
0.0
  0
VERTEX
  5
1BAF
100
AcDbEntity
  8
ALPHA
 62
     7
100
AcDbVertex
100
AcDb2dVertex
 10
140.416538
 20
119.759653
 30
0.0
  0
SEQEND
  5
1BB0
100
AcDbEntity
  8
ALPHA
 62
     7
  0
LINE
  5
1BB1
100
AcDbEntity
  8
ALPHA
 62
     7
100
AcDbLine
 10
145.607953
 20
124.489769
 30
0.0
 11
143.918823
 21
124.489769
 31
0.0
  0
LINE
  5
1BB2
100
AcDbEntity
  8
ALPHA
 62
     7
100
AcDbLine
 10
143.918823
 20
124.489769
 30
0.0
 11
143.918823
 21
121.145098
 31
0.0
  0
LINE
  5
1BB3
100
AcDbEntity
  8
ALPHA
 62
     7
100
AcDbLine
 10
147.314309
 20
123.504472
 30
0.0
 11
147.314309
 21
121.697175
 31
0.0
  0
LINE
  5
1BB4
100
AcDbEntity
  8
ALPHA
 62
     7
100
AcDbLine
 10
117.50562
 20
127.889562
 30
0.0
 11
119.969552
 21
127.889562
 31
0.0
  0
LINE
  5
1BB5
100
AcDbEntity
  8
ALPHA
 62
     7
100
AcDbLine
 10
119.969552
 20
126.312742
 30
0.0
 11
117.50562
 21
126.312742
 31
0.0
  0
LINE
  5
1BB6
100
AcDbEntity
  8
ALPHA
 62
     7
100
AcDbLine
 10
117.50562
 20
126.312742
 30
0.0
 11
117.50562
 21
127.889562
 31
0.0
  0
LINE
  5
1BB7
100
AcDbEntity
  8
ALPHA
 62
     7
100
AcDbLine
 10
119.969552
 20
126.312742
 30
0.0
 11
119.969552
 21
127.889562
 31
0.0
  0
LINE
  5
1BB8
100
AcDbEntity
  8
ALPHA
 62
     7
100
AcDbLine
 10
134.600528
 20
132.756448
 30
0.0
 11
136.111892
 21
132.756448
 31
0.0
  0
LINE
  5
1BB9
100
AcDbEntity
  8
ALPHA
 62
     7
100
AcDbLine
 10
136.37682
 20
133.210684
 30
0.0
 11
136.37682
 21
132.756448
 31
0.0
  0
LINE
  5
1BBA
100
AcDbEntity
  8
ALPHA
 62
     7
100
AcDbLine
 10
136.111892
 20
133.210684
 30
0.0
 11
136.111892
 21
132.756448
 31
0.0
  0
LINE
  5
1BBB
100
AcDbEntity
  8
ALPHA
 62
     7
100
AcDbLine
 10
136.111892
 20
132.756448
 30
0.0
 11
135.520024
 21
131.732566
 31
0.0
  0
LINE
  5
1BBC
100
AcDbEntity
  8
ALPHA
 62
     7
100
AcDbLine
 10
135.785297
 20
131.732566
 30
0.0
 11
136.37682
 21
132.756448
 31
0.0
  0
POLYLINE
  5
1BBD
100
AcDbEntity
  8
ALPHA
 62
     7
100
AcDb2dPolyline
 66
     1
 10
0.0
 20
0.0
 30
0.0
  0
VERTEX
  5
1BBE
100
AcDbEntity
  8
ALPHA
 62
     7
100
AcDbVertex
100
AcDb2dVertex
 10
143.647005
 20
145.959604
 30
0.0
  0
VERTEX
  5
1BBF
100
AcDbEntity
  8
ALPHA
 62
     7
100
AcDbVertex
100
AcDb2dVertex
 10
143.669053
 20
145.811293
 30
0.0
  0
VERTEX
  5
1BC0
100
AcDbEntity
  8
ALPHA
 62
     7
100
AcDbVertex
100
AcDb2dVertex
 10
143.693169
 20
145.68503
 30
0.0
  0
VERTEX
  5
1BC1
100
AcDbEntity
  8
ALPHA
 62
     7
100
AcDbVertex
100
AcDb2dVertex
 10
143.720385
 20
145.588568
 30
0.0
  0
VERTEX
  5
1BC2
100
AcDbEntity
  8
ALPHA
 62
     7
100
AcDbVertex
100
AcDb2dVertex
 10
143.749668
 20
145.534996
 30
0.0
  0
VERTEX
  5
1BC3
100
AcDbEntity
  8
ALPHA
 62
     7
100
AcDbVertex
100
AcDb2dVertex
 10
143.777574
 20
145.536374
 30
0.0
  0
VERTEX
  5
1BC4
100
AcDbEntity
  8
ALPHA
 62
     7
100
AcDbVertex
100
AcDb2dVertex
 10
143.802723
 20
145.592357
 30
0.0
  0
VERTEX
  5
1BC5
100
AcDbEntity
  8
ALPHA
 62
     7
100
AcDbVertex
100
AcDb2dVertex
 10
143.823049
 20
145.689337
 30
0.0
  0
VERTEX
  5
1BC6
100
AcDbEntity
  8
ALPHA
 62
     7
100
AcDbVertex
100
AcDb2dVertex
 10
143.839241
 20
145.815427
 30
0.0
  0
VERTEX
  5
1BC7
100
AcDbEntity
  8
ALPHA
 62
     7
100
AcDbVertex
100
AcDb2dVertex
 10
143.853021
 20
145.96305
 30
0.0
  0
VERTEX
  5
1BC8
100
AcDbEntity
  8
ALPHA
 62
     7
100
AcDbVertex
100
AcDb2dVertex
 10
143.863012
 20
146.126692
 30
0.0
  0
VERTEX
  5
1BC9
100
AcDbEntity
  8
ALPHA
 62
     7
100
AcDbVertex
100
AcDb2dVertex
 10
143.871969
 20
146.300152
 30
0.0
  0
VERTEX
  5
1BCA
100
AcDbEntity
  8
ALPHA
 62
     7
100
AcDbVertex
100
AcDb2dVertex
 10
143.87817
 20
146.47878
 30
0.0
  0
VERTEX
  5
1BCB
100
AcDbEntity
  8
ALPHA
 62
     7
100
AcDbVertex
100
AcDb2dVertex
 10
143.882649
 20
146.659992
 30
0.0
  0
VERTEX
  5
1BCC
100
AcDbEntity
  8
ALPHA
 62
     7
100
AcDbVertex
100
AcDb2dVertex
 10
143.886783
 20
146.842238
 30
0.0
  0
VERTEX
  5
1BCD
100
AcDbEntity
  8
ALPHA
 62
     7
100
AcDbVertex
100
AcDb2dVertex
 10
143.88885
 20
147.023622
 30
0.0
  0
VERTEX
  5
1BCE
100
AcDbEntity
  8
ALPHA
 62
     7
100
AcDbVertex
100
AcDb2dVertex
 10
143.890917
 20
147.201734
 30
0.0
  0
VERTEX
  5
1BCF
100
AcDbEntity
  8
ALPHA
 62
     7
100
AcDbVertex
100
AcDb2dVertex
 10
143.891606
 20
147.37795
 30
0.0
  0
SEQEND
  5
1BD0
100
AcDbEntity
  8
ALPHA
 62
     7
  0
LINE
  5
1BD1
100
AcDbEntity
  8
ALPHA
 62
     7
100
AcDbLine
 10
143.964298
 20
147.991694
 30
0.0
 11
143.964298
 21
145.207368
 31
0.0
  0
POLYLINE
  5
1BD2
100
AcDbEntity
  8
ALPHA
 62
     7
100
AcDb2dPolyline
 66
     1
 10
0.0
 20
0.0
 30
0.0
  0
VERTEX
  5
1BD3
100
AcDbEntity
  8
ALPHA
 62
     7
100
AcDbVertex
100
AcDb2dVertex
 10
143.570523
 20
147.37795
 30
0.0
  0
VERTEX
  5
1BD4
100
AcDbEntity
  8
ALPHA
 62
     7
100
AcDbVertex
100
AcDb2dVertex
 10
143.57259
 20
147.201734
 30
0.0
  0
VERTEX
  5
1BD5
100
AcDbEntity
  8
ALPHA
 62
     7
100
AcDbVertex
100
AcDb2dVertex
 10
143.576036
 20
147.023278
 30
0.0
  0
VERTEX
  5
1BD6
100
AcDbEntity
  8
ALPHA
 62
     7
100
AcDbVertex
100
AcDb2dVertex
 10
143.581892
 20
146.842238
 30
0.0
  0
VERTEX
  5
1BD7
100
AcDbEntity
  8
ALPHA
 62
     7
100
AcDbVertex
100
AcDb2dVertex
 10
143.589471
 20
146.660337
 30
0.0
  0
VERTEX
  5
1BD8
100
AcDbEntity
  8
ALPHA
 62
     7
100
AcDbVertex
100
AcDb2dVertex
 10
143.599807
 20
146.47878
 30
0.0
  0
VERTEX
  5
1BD9
100
AcDbEntity
  8
ALPHA
 62
     7
100
AcDbVertex
100
AcDb2dVertex
 10
143.612554
 20
146.298774
 30
0.0
  0
VERTEX
  5
1BDA
100
AcDbEntity
  8
ALPHA
 62
     7
100
AcDbVertex
100
AcDb2dVertex
 10
143.628746
 20
146.123936
 30
0.0
  0
VERTEX
  5
1BDB
100
AcDbEntity
  8
ALPHA
 62
     7
100
AcDbVertex
100
AcDb2dVertex
 10
143.647005
 20
145.959604
 30
0.0
  0
SEQEND
  5
1BDC
100
AcDbEntity
  8
ALPHA
 62
     7
  0
LINE
  5
1BDD
100
AcDbEntity
  8
ALPHA
 62
     7
100
AcDbLine
 10
141.139664
 20
133.210684
 30
0.0
 11
141.139664
 21
148.484687
 31
0.0
  0
POLYLINE
  5
1BDE
100
AcDbEntity
  8
ALPHA
 62
     7
100
AcDb2dPolyline
 66
     1
 10
0.0
 20
0.0
 30
0.0
  0
VERTEX
  5
1BDF
100
AcDbEntity
  8
ALPHA
 62
     7
100
AcDbVertex
100
AcDb2dVertex
 10
143.964298
 20
133.210684
 30
0.0
  0
VERTEX
  5
1BE0
100
AcDbEntity
  8
ALPHA
 62
     7
100
AcDbVertex
100
AcDb2dVertex
 10
143.933636
 20
143.800563
 30
0.0
  0
VERTEX
  5
1BE1
100
AcDbEntity
  8
ALPHA
 62
     7
100
AcDbVertex
100
AcDb2dVertex
 10
143.94535
 20
144.398287
 30
0.0
  0
VERTEX
  5
1BE2
100
AcDbEntity
  8
ALPHA
 62
     7
100
AcDbVertex
100
AcDb2dVertex
 10
143.954652
 20
144.844083
 30
0.0
  0
SEQEND
  5
1BE3
100
AcDbEntity
  8
ALPHA
 62
     7
  0
LINE
  5
1BE4
100
AcDbEntity
  8
ALPHA
 62
     7
100
AcDbLine
 10
143.737611
 20
133.013797
 30
0.0
 11
139.037122
 21
133.013797
 31
0.0
  0
LINE
  5
1BE5
100
AcDbEntity
  8
ALPHA
 62
     7
100
AcDbLine
 10
139.037122
 20
133.013797
 30
0.0
 11
139.037122
 21
131.634036
 31
0.0
  0
LINE
  5
1BE6
100
AcDbEntity
  8
ALPHA
 62
     7
100
AcDbLine
 10
143.898497
 20
133.013452
 30
0.0
 11
143.898497
 21
130.524371
 31
0.0
  0
LINE
  5
1BE7
100
AcDbEntity
  8
ALPHA
 62
     7
100
AcDbLine
 10
143.737611
 20
133.013797
 30
0.0
 11
143.737611
 21
130.524371
 31
0.0
  0
POLYLINE
  5
1BE8
100
AcDbEntity
  8
ALPHA
 62
     7
100
AcDb2dPolyline
 66
     1
 10
0.0
 20
0.0
 30
0.0
  0
VERTEX
  5
1BE9
100
AcDbEntity
  8
ALPHA
 62
     7
100
AcDbVertex
100
AcDb2dVertex
 10
143.711083
 20
128.233899
 30
0.0
  0
VERTEX
  5
1BEA
100
AcDbEntity
  8
ALPHA
 62
     7
100
AcDbVertex
100
AcDb2dVertex
 10
143.726586
 20
128.091272
 30
0.0
  0
VERTEX
  5
1BEB
100
AcDbEntity
  8
ALPHA
 62
     7
100
AcDbVertex
100
AcDb2dVertex
 10
143.744845
 20
127.962942
 30
0.0
  0
SEQEND
  5
1BEC
100
AcDbEntity
  8
ALPHA
 62
     7
  0
POLYLINE
  5
1BED
100
AcDbEntity
  8
ALPHA
 62
     7
100
AcDb2dPolyline
 66
     1
 10
0.0
 20
0.0
 30
0.0
  0
VERTEX
  5
1BEE
100
AcDbEntity
  8
ALPHA
 62
     7
100
AcDbVertex
100
AcDb2dVertex
 10
143.893673
 20
127.967077
 30
0.0
  0
VERTEX
  5
1BEF
100
AcDbEntity
  8
ALPHA
 62
     7
100
AcDbVertex
100
AcDb2dVertex
 10
143.905731
 20
128.095062
 30
0.0
  0
VERTEX
  5
1BF0
100
AcDbEntity
  8
ALPHA
 62
     7
100
AcDbVertex
100
AcDb2dVertex
 10
143.915377
 20
128.237172
 30
0.0
  0
VERTEX
  5
1BF1
100
AcDbEntity
  8
ALPHA
 62
     7
100
AcDbVertex
100
AcDb2dVertex
 10
143.922957
 20
128.388928
 30
0.0
  0
VERTEX
  5
1BF2
100
AcDbEntity
  8
ALPHA
 62
     7
100
AcDbVertex
100
AcDb2dVertex
 10
143.928124
 20
128.545508
 30
0.0
  0
VERTEX
  5
1BF3
100
AcDbEntity
  8
ALPHA
 62
     7
100
AcDbVertex
100
AcDb2dVertex
 10
143.932947
 20
128.702604
 30
0.0
  0
VERTEX
  5
1BF4
100
AcDbEntity
  8
ALPHA
 62
     7
100
AcDbVertex
100
AcDb2dVertex
 10
143.935704
 20
128.858495
 30
0.0
  0
VERTEX
  5
1BF5
100
AcDbEntity
  8
ALPHA
 62
     7
100
AcDbVertex
100
AcDb2dVertex
 10
143.937771
 20
129.012318
 30
0.0
  0
VERTEX
  5
1BF6
100
AcDbEntity
  8
ALPHA
 62
     7
100
AcDbVertex
100
AcDb2dVertex
 10
143.93846
 20
129.164075
 30
0.0
  0
VERTEX
  5
1BF7
100
AcDbEntity
  8
ALPHA
 62
     7
100
AcDbVertex
100
AcDb2dVertex
 10
143.93846
 20
129.315487
 30
0.0
  0
VERTEX
  5
1BF8
100
AcDbEntity
  8
ALPHA
 62
     7
100
AcDbVertex
100
AcDb2dVertex
 10
143.93846
 20
129.466899
 30
0.0
  0
VERTEX
  5
1BF9
100
AcDbEntity
  8
ALPHA
 62
     7
100
AcDbVertex
100
AcDb2dVertex
 10
143.936393
 20
129.620033
 30
0.0
  0
VERTEX
  5
1BFA
100
AcDbEntity
  8
ALPHA
 62
     7
100
AcDbVertex
100
AcDb2dVertex
 10
143.933636
 20
129.775063
 30
0.0
  0
VERTEX
  5
1BFB
100
AcDbEntity
  8
ALPHA
 62
     7
100
AcDbVertex
100
AcDb2dVertex
 10
143.930191
 20
129.931987
 30
0.0
  0
VERTEX
  5
1BFC
100
AcDbEntity
  8
ALPHA
 62
     7
100
AcDbVertex
100
AcDb2dVertex
 10
143.925024
 20
130.089083
 30
0.0
  0
SEQEND
  5
1BFD
100
AcDbEntity
  8
ALPHA
 62
     7
  0
POLYLINE
  5
1BFE
100
AcDbEntity
  8
ALPHA
 62
     7
100
AcDb2dPolyline
 66
     1
 10
0.0
 20
0.0
 30
0.0
  0
VERTEX
  5
1BFF
100
AcDbEntity
  8
ALPHA
 62
     7
100
AcDbVertex
100
AcDb2dVertex
 10
143.744845
 20
127.962942
 30
0.0
  0
VERTEX
  5
1C00
100
AcDbEntity
  8
ALPHA
 62
     7
100
AcDbVertex
100
AcDb2dVertex
 10
143.765171
 20
127.853905
 30
0.0
  0
VERTEX
  5
1C01
100
AcDbEntity
  8
ALPHA
 62
     7
100
AcDbVertex
100
AcDb2dVertex
 10
143.788253
 20
127.770534
 30
0.0
  0
VERTEX
  5
1C02
100
AcDbEntity
  8
ALPHA
 62
     7
100
AcDbVertex
100
AcDb2dVertex
 10
143.813403
 20
127.722647
 30
0.0
  0
VERTEX
  5
1C03
100
AcDbEntity
  8
ALPHA
 62
     7
100
AcDbVertex
100
AcDb2dVertex
 10
143.838552
 20
127.72437
 30
0.0
  0
VERTEX
  5
1C04
100
AcDbEntity
  8
ALPHA
 62
     7
100
AcDbVertex
100
AcDb2dVertex
 10
143.860945
 20
127.773807
 30
0.0
  0
VERTEX
  5
1C05
100
AcDbEntity
  8
ALPHA
 62
     7
100
AcDbVertex
100
AcDb2dVertex
 10
143.878859
 20
127.857695
 30
0.0
  0
VERTEX
  5
1C06
100
AcDbEntity
  8
ALPHA
 62
     7
100
AcDbVertex
100
AcDb2dVertex
 10
143.893673
 20
127.967077
 30
0.0
  0
SEQEND
  5
1C07
100
AcDbEntity
  8
ALPHA
 62
     7
  0
POLYLINE
  5
1C08
100
AcDbEntity
  8
ALPHA
 62
     7
100
AcDb2dPolyline
 66
     1
 10
0.0
 20
0.0
 30
0.0
  0
VERTEX
  5
1C09
100
AcDbEntity
  8
ALPHA
 62
     7
100
AcDbVertex
100
AcDb2dVertex
 10
143.925024
 20
130.089083
 30
0.0
  0
VERTEX
  5
1C0A
100
AcDbEntity
  8
ALPHA
 62
     7
100
AcDbVertex
100
AcDb2dVertex
 10
143.918134
 20
130.243596
 30
0.0
  0
VERTEX
  5
1C0B
100
AcDbEntity
  8
ALPHA
 62
     7
100
AcDbVertex
100
AcDb2dVertex
 10
143.909176
 20
130.390184
 30
0.0
  0
SEQEND
  5
1C0C
100
AcDbEntity
  8
ALPHA
 62
     7
  0
LINE
  5
1C0D
100
AcDbEntity
  8
ALPHA
 62
     7
100
AcDbLine
 10
143.909176
 20
130.390184
 30
0.0
 11
143.898497
 21
130.524371
 31
0.0
  0
LINE
  5
1C0E
100
AcDbEntity
  8
ALPHA
 62
     7
100
AcDbLine
 10
143.697992
 20
128.386345
 30
0.0
 11
143.711083
 21
128.233899
 31
0.0
  0
LINE
  5
1C0F
100
AcDbEntity
  8
ALPHA
 62
     7
100
AcDbLine
 10
143.736922
 20
130.524371
 30
0.0
 11
143.719696
 21
130.390184
 31
0.0
  0
POLYLINE
  5
1C10
100
AcDbEntity
  8
ALPHA
 62
     7
100
AcDb2dPolyline
 66
     1
 10
0.0
 20
0.0
 30
0.0
  0
VERTEX
  5
1C11
100
AcDbEntity
  8
ALPHA
 62
     7
100
AcDbVertex
100
AcDb2dVertex
 10
143.719696
 20
130.390184
 30
0.0
  0
VERTEX
  5
1C12
100
AcDbEntity
  8
ALPHA
 62
     7
100
AcDbVertex
100
AcDb2dVertex
 10
143.705571
 20
130.242907
 30
0.0
  0
VERTEX
  5
1C13
100
AcDbEntity
  8
ALPHA
 62
     7
100
AcDbVertex
100
AcDb2dVertex
 10
143.693858
 20
130.08805
 30
0.0
  0
SEQEND
  5
1C14
100
AcDbEntity
  8
ALPHA
 62
     7
  0
POLYLINE
  5
1C15
100
AcDbEntity
  8
ALPHA
 62
     7
100
AcDb2dPolyline
 66
     1
 10
0.0
 20
0.0
 30
0.0
  0
VERTEX
  5
1C16
100
AcDbEntity
  8
ALPHA
 62
     7
100
AcDbVertex
100
AcDb2dVertex
 10
143.693858
 20
130.08805
 30
0.0
  0
VERTEX
  5
1C17
100
AcDbEntity
  8
ALPHA
 62
     7
100
AcDbVertex
100
AcDb2dVertex
 10
143.684556
 20
129.930264
 30
0.0
  0
VERTEX
  5
1C18
100
AcDbEntity
  8
ALPHA
 62
     7
100
AcDbVertex
100
AcDb2dVertex
 10
143.677666
 20
129.772996
 30
0.0
  0
VERTEX
  5
1C19
100
AcDbEntity
  8
ALPHA
 62
     7
100
AcDbVertex
100
AcDb2dVertex
 10
143.672154
 20
129.618311
 30
0.0
  0
VERTEX
  5
1C1A
100
AcDbEntity
  8
ALPHA
 62
     7
100
AcDbVertex
100
AcDb2dVertex
 10
143.669742
 20
129.465521
 30
0.0
  0
VERTEX
  5
1C1B
100
AcDbEntity
  8
ALPHA
 62
     7
100
AcDbVertex
100
AcDb2dVertex
 10
143.668364
 20
129.314109
 30
0.0
  0
VERTEX
  5
1C1C
100
AcDbEntity
  8
ALPHA
 62
     7
100
AcDbVertex
100
AcDb2dVertex
 10
143.669053
 20
129.163041
 30
0.0
  0
VERTEX
  5
1C1D
100
AcDbEntity
  8
ALPHA
 62
     7
100
AcDbVertex
100
AcDb2dVertex
 10
143.670776
 20
129.011285
 30
0.0
  0
VERTEX
  5
1C1E
100
AcDbEntity
  8
ALPHA
 62
     7
100
AcDbVertex
100
AcDb2dVertex
 10
143.674221
 20
128.857461
 30
0.0
  0
VERTEX
  5
1C1F
100
AcDbEntity
  8
ALPHA
 62
     7
100
AcDbVertex
100
AcDb2dVertex
 10
143.679733
 20
128.701399
 30
0.0
  0
VERTEX
  5
1C20
100
AcDbEntity
  8
ALPHA
 62
     7
100
AcDbVertex
100
AcDb2dVertex
 10
143.688001
 20
128.543441
 30
0.0
  0
VERTEX
  5
1C21
100
AcDbEntity
  8
ALPHA
 62
     7
100
AcDbVertex
100
AcDb2dVertex
 10
143.697992
 20
128.386345
 30
0.0
  0
SEQEND
  5
1C22
100
AcDbEntity
  8
ALPHA
 62
     7
  0
LINE
  5
1C23
100
AcDbEntity
  8
ALPHA
 62
     7
100
AcDbLine
 10
143.835796
 20
133.210684
 30
0.0
 11
143.964298
 21
133.210684
 31
0.0
  0
LINE
  5
1C24
100
AcDbEntity
  8
ALPHA
 62
     7
100
AcDbLine
 10
143.820982
 20
133.013797
 30
0.0
 11
144.032855
 21
133.013797
 31
0.0
  0
POLYLINE
  5
1C25
100
AcDbEntity
  8
ALPHA
 62
     7
100
AcDb2dPolyline
 66
     1
 10
0.0
 20
0.0
 30
0.0
  0
VERTEX
  5
1C26
100
AcDbEntity
  8
ALPHA
 62
     7
100
AcDbVertex
100
AcDb2dVertex
 10
143.697303
 20
133.011385
 30
0.0
  0
VERTEX
  5
1C27
100
AcDbEntity
  8
ALPHA
 62
     7
100
AcDbVertex
100
AcDb2dVertex
 10
143.692135
 20
133.116633
 30
0.0
  0
VERTEX
  5
1C28
100
AcDbEntity
  8
ALPHA
 62
     7
100
AcDbVertex
100
AcDb2dVertex
 10
143.684556
 20
133.186568
 30
0.0
  0
VERTEX
  5
1C29
100
AcDbEntity
  8
ALPHA
 62
     7
100
AcDbVertex
100
AcDb2dVertex
 10
143.676288
 20
133.210684
 30
0.0
  0
SEQEND
  5
1C2A
100
AcDbEntity
  8
ALPHA
 62
     7
  0
POLYLINE
  5
1C2B
100
AcDbEntity
  8
ALPHA
 62
     7
100
AcDb2dPolyline
 66
     1
 10
0.0
 20
0.0
 30
0.0
  0
VERTEX
  5
1C2C
100
AcDbEntity
  8
ALPHA
 62
     7
100
AcDbVertex
100
AcDb2dVertex
 10
143.835796
 20
133.210684
 30
0.0
  0
VERTEX
  5
1C2D
100
AcDbEntity
  8
ALPHA
 62
     7
100
AcDbVertex
100
AcDb2dVertex
 10
143.830628
 20
133.186568
 30
0.0
  0
VERTEX
  5
1C2E
100
AcDbEntity
  8
ALPHA
 62
     7
100
AcDbVertex
100
AcDb2dVertex
 10
143.825116
 20
133.116288
 30
0.0
  0
VERTEX
  5
1C2F
100
AcDbEntity
  8
ALPHA
 62
     7
100
AcDbVertex
100
AcDb2dVertex
 10
143.820982
 20
133.007596
 30
0.0
  0
SEQEND
  5
1C30
100
AcDbEntity
  8
ALPHA
 62
     7
  0
POLYLINE
  5
1C31
100
AcDbEntity
  8
ALPHA
 62
     7
100
AcDb2dPolyline
 66
     1
 10
0.0
 20
0.0
 30
0.0
  0
VERTEX
  5
1C32
100
AcDbEntity
  8
ALPHA
 62
     7
100
AcDbVertex
100
AcDb2dVertex
 10
143.532283
 20
140.601275
 30
0.0
  0
VERTEX
  5
1C33
100
AcDbEntity
  8
ALPHA
 62
     7
100
AcDbVertex
100
AcDb2dVertex
 10
143.525048
 20
141.567108
 30
0.0
  0
VERTEX
  5
1C34
100
AcDbEntity
  8
ALPHA
 62
     7
100
AcDbVertex
100
AcDb2dVertex
 10
143.504033
 20
142.489015
 30
0.0
  0
VERTEX
  5
1C35
100
AcDbEntity
  8
ALPHA
 62
     7
100
AcDbVertex
100
AcDb2dVertex
 10
143.469238
 20
143.325312
 30
0.0
  0
VERTEX
  5
1C36
100
AcDbEntity
  8
ALPHA
 62
     7
100
AcDbVertex
100
AcDb2dVertex
 10
143.421006
 20
144.038791
 30
0.0
  0
VERTEX
  5
1C37
100
AcDbEntity
  8
ALPHA
 62
     7
100
AcDbVertex
100
AcDb2dVertex
 10
143.359339
 20
144.606026
 30
0.0
  0
VERTEX
  5
1C38
100
AcDbEntity
  8
ALPHA
 62
     7
100
AcDbVertex
100
AcDb2dVertex
 10
143.285959
 20
145.001868
 30
0.0
  0
VERTEX
  5
1C39
100
AcDbEntity
  8
ALPHA
 62
     7
100
AcDbVertex
100
AcDb2dVertex
 10
143.201898
 20
145.20599
 30
0.0
  0
VERTEX
  5
1C3A
100
AcDbEntity
  8
ALPHA
 62
     7
100
AcDbVertex
100
AcDb2dVertex
 10
143.110948
 20
145.208746
 30
0.0
  0
VERTEX
  5
1C3B
100
AcDbEntity
  8
ALPHA
 62
     7
100
AcDbVertex
100
AcDb2dVertex
 10
143.017241
 20
145.009103
 30
0.0
  0
SEQEND
  5
1C3C
100
AcDbEntity
  8
ALPHA
 62
     7
  0
POLYLINE
  5
1C3D
100
AcDbEntity
  8
ALPHA
 62
     7
100
AcDb2dPolyline
 66
     1
 10
0.0
 20
0.0
 30
0.0
  0
VERTEX
  5
1C3E
100
AcDbEntity
  8
ALPHA
 62
     7
100
AcDbVertex
100
AcDb2dVertex
 10
142.924223
 20
144.616017
 30
0.0
  0
VERTEX
  5
1C3F
100
AcDbEntity
  8
ALPHA
 62
     7
100
AcDbVertex
100
AcDb2dVertex
 10
142.83913
 20
144.04861
 30
0.0
  0
VERTEX
  5
1C40
100
AcDbEntity
  8
ALPHA
 62
     7
100
AcDbVertex
100
AcDb2dVertex
 10
142.765749
 20
143.333064
 30
0.0
  0
VERTEX
  5
1C41
100
AcDbEntity
  8
ALPHA
 62
     7
100
AcDbVertex
100
AcDb2dVertex
 10
142.709594
 20
142.492116
 30
0.0
  0
VERTEX
  5
1C42
100
AcDbEntity
  8
ALPHA
 62
     7
100
AcDbVertex
100
AcDb2dVertex
 10
142.673421
 20
141.566074
 30
0.0
  0
VERTEX
  5
1C43
100
AcDbEntity
  8
ALPHA
 62
     7
100
AcDbVertex
100
AcDb2dVertex
 10
142.662052
 20
140.601275
 30
0.0
  0
SEQEND
  5
1C44
100
AcDbEntity
  8
ALPHA
 62
     7
  0
POLYLINE
  5
1C45
100
AcDbEntity
  8
ALPHA
 62
     7
100
AcDb2dPolyline
 66
     1
 10
0.0
 20
0.0
 30
0.0
  0
VERTEX
  5
1C46
100
AcDbEntity
  8
ALPHA
 62
     7
100
AcDbVertex
100
AcDb2dVertex
 10
142.921467
 20
136.601692
 30
0.0
  0
VERTEX
  5
1C47
100
AcDbEntity
  8
ALPHA
 62
     7
100
AcDbVertex
100
AcDb2dVertex
 10
143.013796
 20
136.203266
 30
0.0
  0
VERTEX
  5
1C48
100
AcDbEntity
  8
ALPHA
 62
     7
100
AcDbVertex
100
AcDb2dVertex
 10
143.108192
 20
135.997077
 30
0.0
  0
VERTEX
  5
1C49
100
AcDbEntity
  8
ALPHA
 62
     7
100
AcDbVertex
100
AcDb2dVertex
 10
143.199142
 20
135.99346
 30
0.0
  0
VERTEX
  5
1C4A
100
AcDbEntity
  8
ALPHA
 62
     7
100
AcDbVertex
100
AcDb2dVertex
 10
143.283202
 20
136.19207
 30
0.0
  0
VERTEX
  5
1C4B
100
AcDbEntity
  8
ALPHA
 62
     7
100
AcDbVertex
100
AcDb2dVertex
 10
143.357961
 20
136.584811
 30
0.0
  0
VERTEX
  5
1C4C
100
AcDbEntity
  8
ALPHA
 62
     7
100
AcDbVertex
100
AcDb2dVertex
 10
143.419628
 20
137.151357
 30
0.0
  0
VERTEX
  5
1C4D
100
AcDbEntity
  8
ALPHA
 62
     7
100
AcDbVertex
100
AcDb2dVertex
 10
143.468549
 20
137.866042
 30
0.0
  0
VERTEX
  5
1C4E
100
AcDbEntity
  8
ALPHA
 62
     7
100
AcDbVertex
100
AcDb2dVertex
 10
143.504033
 20
138.705611
 30
0.0
  0
VERTEX
  5
1C4F
100
AcDbEntity
  8
ALPHA
 62
     7
100
AcDbVertex
100
AcDb2dVertex
 10
143.525048
 20
139.631653
 30
0.0
  0
VERTEX
  5
1C50
100
AcDbEntity
  8
ALPHA
 62
     7
100
AcDbVertex
100
AcDb2dVertex
 10
143.532283
 20
140.601275
 30
0.0
  0
SEQEND
  5
1C51
100
AcDbEntity
  8
ALPHA
 62
     7
  0
POLYLINE
  5
1C52
100
AcDbEntity
  8
ALPHA
 62
     7
100
AcDb2dPolyline
 66
     1
 10
0.0
 20
0.0
 30
0.0
  0
VERTEX
  5
1C53
100
AcDbEntity
  8
ALPHA
 62
     7
100
AcDbVertex
100
AcDb2dVertex
 10
142.662052
 20
140.601275
 30
0.0
  0
VERTEX
  5
1C54
100
AcDbEntity
  8
ALPHA
 62
     7
100
AcDbVertex
100
AcDb2dVertex
 10
142.673421
 20
139.639749
 30
0.0
  0
VERTEX
  5
1C55
100
AcDbEntity
  8
ALPHA
 62
     7
100
AcDbVertex
100
AcDb2dVertex
 10
142.708905
 20
138.720081
 30
0.0
  0
VERTEX
  5
1C56
100
AcDbEntity
  8
ALPHA
 62
     7
100
AcDbVertex
100
AcDb2dVertex
 10
142.764371
 20
137.883956
 30
0.0
  0
VERTEX
  5
1C57
100
AcDbEntity
  8
ALPHA
 62
     7
100
AcDbVertex
100
AcDb2dVertex
 10
142.837063
 20
137.170821
 30
0.0
  0
VERTEX
  5
1C58
100
AcDbEntity
  8
ALPHA
 62
     7
100
AcDbVertex
100
AcDb2dVertex
 10
142.921467
 20
136.601692
 30
0.0
  0
SEQEND
  5
1C59
100
AcDbEntity
  8
ALPHA
 62
     7
  0
LINE
  5
1C5A
100
AcDbEntity
  8
ALPHA
 62
     7
100
AcDbLine
 10
143.017241
 20
145.009103
 30
0.0
 11
142.924223
 21
144.616017
 31
0.0
  0
LINE
  5
1C5B
100
AcDbEntity
  8
ALPHA
 62
     7
100
AcDbLine
 10
143.954652
 20
144.844083
 30
0.0
 11
143.964298
 21
145.213052
 31
0.0
  0
POLYLINE
  5
1C5C
100
AcDbEntity
  8
ALPHA
 62
     7
100
AcDb2dPolyline
 66
     1
 10
0.0
 20
0.0
 30
0.0
  0
VERTEX
  5
1C5D
100
AcDbEntity
  8
ALPHA
 62
     7
100
AcDbVertex
100
AcDb2dVertex
 10
139.199386
 20
149.962805
 30
0.0
  0
VERTEX
  5
1C5E
100
AcDbEntity
  8
ALPHA
 62
     7
100
AcDbVertex
100
AcDb2dVertex
 10
139.54424
 20
149.572476
 30
0.0
  0
VERTEX
  5
1C5F
100
AcDbEntity
  8
ALPHA
 62
     7
100
AcDbVertex
100
AcDb2dVertex
 10
139.698236
 20
149.523556
 30
0.0
  0
SEQEND
  5
1C60
100
AcDbEntity
  8
ALPHA
 62
     7
  0
POLYLINE
  5
1C61
100
AcDbEntity
  8
ALPHA
 62
     7
100
AcDb2dPolyline
 66
     1
 10
0.0
 20
0.0
 30
0.0
  0
VERTEX
  5
1C62
100
AcDbEntity
  8
ALPHA
 62
     7
100
AcDbVertex
100
AcDb2dVertex
 10
138.343625
 20
149.012648
 30
0.0
  0
VERTEX
  5
1C63
100
AcDbEntity
  8
ALPHA
 62
     7
100
AcDbVertex
100
AcDb2dVertex
 10
138.303661
 20
148.799741
 30
0.0
  0
VERTEX
  5
1C64
100
AcDbEntity
  8
ALPHA
 62
     7
100
AcDbVertex
100
AcDb2dVertex
 10
138.24854
 20
148.619735
 30
0.0
  0
VERTEX
  5
1C65
100
AcDbEntity
  8
ALPHA
 62
     7
100
AcDbVertex
100
AcDb2dVertex
 10
138.191696
 20
148.518277
 30
0.0
  0
VERTEX
  5
1C66
100
AcDbEntity
  8
ALPHA
 62
     7
100
AcDbVertex
100
AcDb2dVertex
 10
138.131407
 20
148.484687
 30
0.0
  0
SEQEND
  5
1C67
100
AcDbEntity
  8
ALPHA
 62
     7
  0
LINE
  5
1C68
100
AcDbEntity
  8
ALPHA
 62
     7
100
AcDbLine
 10
140.515068
 20
148.484687
 30
0.0
 11
140.515068
 21
149.523556
 31
0.0
  0
POLYLINE
  5
1C69
100
AcDbEntity
  8
ALPHA
 62
     7
100
AcDb2dPolyline
 66
     1
 10
0.0
 20
0.0
 30
0.0
  0
VERTEX
  5
1C6A
100
AcDbEntity
  8
ALPHA
 62
     7
100
AcDbVertex
100
AcDb2dVertex
 10
140.131629
 20
149.962805
 30
0.0
  0
VERTEX
  5
1C6B
100
AcDbEntity
  8
ALPHA
 62
     7
100
AcDbVertex
100
AcDb2dVertex
 10
140.137486
 20
149.321845
 30
0.0
  0
VERTEX
  5
1C6C
100
AcDbEntity
  8
ALPHA
 62
     7
100
AcDbVertex
100
AcDb2dVertex
 10
140.137486
 20
148.680885
 30
0.0
  0
VERTEX
  5
1C6D
100
AcDbEntity
  8
ALPHA
 62
     7
100
AcDbVertex
100
AcDb2dVertex
 10
140.139553
 20
148.484687
 30
0.0
  0
SEQEND
  5
1C6E
100
AcDbEntity
  8
ALPHA
 62
     7
  0
LINE
  5
1C6F
100
AcDbEntity
  8
ALPHA
 62
     7
100
AcDbLine
 10
140.456846
 20
149.962805
 30
0.0
 11
140.515068
 21
149.523556
 31
0.0
  0
POLYLINE
  5
1C70
100
AcDbEntity
  8
ALPHA
 62
     7
100
AcDb2dPolyline
 66
     1
 10
0.0
 20
0.0
 30
0.0
  0
VERTEX
  5
1C71
100
AcDbEntity
  8
ALPHA
 62
     7
100
AcDbVertex
100
AcDb2dVertex
 10
139.698236
 20
149.523556
 30
0.0
  0
VERTEX
  5
1C72
100
AcDbEntity
  8
ALPHA
 62
     7
100
AcDbVertex
100
AcDb2dVertex
 10
139.838796
 20
149.572476
 30
0.0
  0
VERTEX
  5
1C73
100
AcDbEntity
  8
ALPHA
 62
     7
100
AcDbVertex
100
AcDb2dVertex
 10
140.079264
 20
149.962805
 30
0.0
  0
SEQEND
  5
1C74
100
AcDbEntity
  8
ALPHA
 62
     7
  0
POLYLINE
  5
1C75
100
AcDbEntity
  8
ALPHA
 62
     7
100
AcDb2dPolyline
 66
     1
 10
0.0
 20
0.0
 30
0.0
  0
VERTEX
  5
1C76
100
AcDbEntity
  8
ALPHA
 62
     7
100
AcDbVertex
100
AcDb2dVertex
 10
143.566389
 20
147.991694
 30
0.0
  0
VERTEX
  5
1C77
100
AcDbEntity
  8
ALPHA
 62
     7
100
AcDbVertex
100
AcDb2dVertex
 10
143.530216
 20
148.176523
 30
0.0
  0
VERTEX
  5
1C78
100
AcDbEntity
  8
ALPHA
 62
     7
100
AcDbVertex
100
AcDb2dVertex
 10
143.427896
 20
148.334309
 30
0.0
  0
VERTEX
  5
1C79
100
AcDbEntity
  8
ALPHA
 62
     7
100
AcDbVertex
100
AcDb2dVertex
 10
143.273901
 20
148.442313
 30
0.0
  0
VERTEX
  5
1C7A
100
AcDbEntity
  8
ALPHA
 62
     7
100
AcDbVertex
100
AcDb2dVertex
 10
143.090966
 20
148.484343
 30
0.0
  0
SEQEND
  5
1C7B
100
AcDbEntity
  8
ALPHA
 62
     7
  0
SPLINE
  5
1C7C
100
AcDbEntity
  8
ALPHA
 62
     7
100
AcDbSpline
210
0.0
220
0.0
230
-1.0
 70
     8
 71
     3
 72
     8
 73
     4
 74
     0
 42
0.0000001
 43
0.0000001
 40
0.0
 40
0.0
 40
0.0
 40
0.0
 40
1.0
 40
1.0
 40
1.0
 40
1.0
 10
143.9642978266188
 20
147.9916940235813
 30
0.0
 10
143.9642978266188
 20
148.2640288217583
 30
0.0
 10
143.7434672059591
 20
148.4846871876438
 30
0.0
 10
143.4713046625563
 20
148.4846871876438
 30
0.0
  0
LINE
  5
1C7D
100
AcDbEntity
  8
ALPHA
 62
     7
100
AcDbLine
 10
143.964298
 20
147.991694
 30
0.0
 11
143.893673
 21
147.991694
 31
0.0
  0
LINE
  5
1C7E
100
AcDbEntity
  8
ALPHA
 62
     7
100
AcDbLine
 10
143.891606
 20
147.37795
 30
0.0
 11
143.893673
 21
147.991694
 31
0.0
  0
LINE
  5
1C7F
100
AcDbEntity
  8
ALPHA
 62
     7
100
AcDbLine
 10
143.566389
 20
147.991694
 30
0.0
 11
143.570523
 21
147.37795
 31
0.0
  0
LINE
  5
1C80
100
AcDbEntity
  8
ALPHA
 62
     7
100
AcDbLine
 10
143.571212
 20
147.381395
 30
0.0
 11
143.567078
 21
147.995139
 31
0.0
  0
LINE
  5
1C81
100
AcDbEntity
  8
ALPHA
 62
     7
100
AcDbLine
 10
181.708764
 20
86.966306
 30
0.0
 11
169.825252
 21
86.966306
 31
0.0
  0
SPLINE
  5
1C82
100
AcDbEntity
  8
ALPHA
 62
     7
100
AcDbSpline
210
0.0
220
0.0
230
-1.0
 70
     8
 71
     3
 72
     8
 73
     4
 74
     0
 42
0.0000001
 43
0.0000001
 40
0.0
 40
0.0
 40
0.0
 40
0.0
 40
1.0
 40
1.0
 40
1.0
 40
1.0
 10
167.3871575271396
 20
104.9786433508382
 30
0.0
 10
167.3871575271396
 20
105.250805894241
 30
0.0
 10
167.1666714160285
 20
105.4714642601264
 30
0.0
 10
166.8941643630772
 20
105.4714642601264
 30
0.0
  0
POLYLINE
  5
1C83
100
AcDbEntity
  8
ALPHA
 62
     7
100
AcDb2dPolyline
 66
     1
 10
0.0
 20
0.0
 30
0.0
  0
VERTEX
  5
1C84
100
AcDbEntity
  8
ALPHA
 62
     7
100
AcDbVertex
100
AcDb2dVertex
 10
164.716175
 20
104.978643
 30
0.0
  0
VERTEX
  5
1C85
100
AcDbEntity
  8
ALPHA
 62
     7
100
AcDbVertex
100
AcDb2dVertex
 10
164.679657
 20
105.167262
 30
0.0
  0
VERTEX
  5
1C86
100
AcDbEntity
  8
ALPHA
 62
     7
100
AcDbVertex
100
AcDb2dVertex
 10
164.574926
 20
105.327287
 30
0.0
  0
VERTEX
  5
1C87
100
AcDbEntity
  8
ALPHA
 62
     7
100
AcDbVertex
100
AcDb2dVertex
 10
164.418174
 20
105.43374
 30
0.0
  0
VERTEX
  5
1C88
100
AcDbEntity
  8
ALPHA
 62
     7
100
AcDbVertex
100
AcDb2dVertex
 10
164.233517
 20
105.471464
 30
0.0
  0
SEQEND
  5
1C89
100
AcDbEntity
  8
ALPHA
 62
     7
  0
POLYLINE
  5
1C8A
100
AcDbEntity
  8
ALPHA
 62
     7
100
AcDb2dPolyline
 66
     1
 10
0.0
 20
0.0
 30
0.0
  0
VERTEX
  5
1C8B
100
AcDbEntity
  8
ALPHA
 62
     7
100
AcDbVertex
100
AcDb2dVertex
 10
165.565047
 20
105.471464
 30
0.0
  0
VERTEX
  5
1C8C
100
AcDbEntity
  8
ALPHA
 62
     7
100
AcDbVertex
100
AcDb2dVertex
 10
165.756938
 20
105.433224
 30
0.0
  0
VERTEX
  5
1C8D
100
AcDbEntity
  8
ALPHA
 62
     7
100
AcDbVertex
100
AcDb2dVertex
 10
165.917824
 20
105.325909
 30
0.0
  0
VERTEX
  5
1C8E
100
AcDbEntity
  8
ALPHA
 62
     7
100
AcDbVertex
100
AcDb2dVertex
 10
166.025311
 20
105.166573
 30
0.0
  0
SEQEND
  5
1C8F
100
AcDbEntity
  8
ALPHA
 62
     7
  0
LINE
  5
1C90
100
AcDbEntity
  8
ALPHA
 62
     7
100
AcDbLine
 10
168.935383
 20
96.701285
 30
0.0
 11
167.46605
 21
96.701285
 31
0.0
  0
LINE
  5
1C91
100
AcDbEntity
  8
ALPHA
 62
     7
100
AcDbLine
 10
164.749592
 20
85.171756
 30
0.0
 11
165.83652
 21
85.171756
 31
0.0
  0
POLYLINE
  5
1C92
100
AcDbEntity
  8
ALPHA
 62
     7
100
AcDb2dPolyline
 66
     1
 10
0.0
 20
0.0
 30
0.0
  0
VERTEX
  5
1C93
100
AcDbEntity
  8
ALPHA
 62
     7
100
AcDbVertex
100
AcDb2dVertex
 10
167.387158
 20
100.347057
 30
0.0
  0
VERTEX
  5
1C94
100
AcDbEntity
  8
ALPHA
 62
     7
100
AcDbVertex
100
AcDb2dVertex
 10
167.362008
 20
100.249561
 30
0.0
  0
VERTEX
  5
1C95
100
AcDbEntity
  8
ALPHA
 62
     7
100
AcDbVertex
100
AcDb2dVertex
 10
167.291384
 20
99.79033
 30
0.0
  0
VERTEX
  5
1C96
100
AcDbEntity
  8
ALPHA
 62
     7
100
AcDbVertex
100
AcDb2dVertex
 10
167.190443
 20
99.028791
 30
0.0
  0
SEQEND
  5
1C97
100
AcDbEntity
  8
ALPHA
 62
     7
  0
LINE
  5
1C98
100
AcDbEntity
  8
ALPHA
 62
     7
100
AcDbLine
 10
167.46605
 20
95.888242
 30
0.0
 11
167.387158
 21
95.888242
 31
0.0
  0
POLYLINE
  5
1C99
100
AcDbEntity
  8
ALPHA
 62
     7
100
AcDb2dPolyline
 66
     1
 10
0.0
 20
0.0
 30
0.0
  0
VERTEX
  5
1C9A
100
AcDbEntity
  8
ALPHA
 62
     7
100
AcDbVertex
100
AcDb2dVertex
 10
164.600764
 20
104.485995
 30
0.0
  0
VERTEX
  5
1C9B
100
AcDbEntity
  8
ALPHA
 62
     7
100
AcDbVertex
100
AcDb2dVertex
 10
164.620401
 20
104.687705
 30
0.0
  0
VERTEX
  5
1C9C
100
AcDbEntity
  8
ALPHA
 62
     7
100
AcDbVertex
100
AcDb2dVertex
 10
164.649685
 20
104.845835
 30
0.0
  0
VERTEX
  5
1C9D
100
AcDbEntity
  8
ALPHA
 62
     7
100
AcDbVertex
100
AcDb2dVertex
 10
164.682758
 20
104.94557
 30
0.0
  0
VERTEX
  5
1C9E
100
AcDbEntity
  8
ALPHA
 62
     7
100
AcDbVertex
100
AcDb2dVertex
 10
164.716175
 20
104.978643
 30
0.0
  0
SEQEND
  5
1C9F
100
AcDbEntity
  8
ALPHA
 62
     7
  0
LINE
  5
1CA0
100
AcDbEntity
  8
ALPHA
 62
     7
100
AcDbLine
 10
166.025311
 20
105.166573
 30
0.0
 11
166.062518
 21
104.978643
 31
0.0
  0
SPLINE
  5
1CA1
100
AcDbEntity
  8
ALPHA
 62
     7
100
AcDbSpline
210
0.0
220
0.0
230
1.0
 70
     8
 71
     3
 72
     8
 73
     4
 74
     0
 42
0.0000001
 43
0.0000001
 40
0.0
 40
0.0
 40
0.0
 40
0.0
 40
1.0
 40
1.0
 40
1.0
 40
1.0
 10
170.5173712858202
 20
86.96699513035216
 30
0.0
 10
170.3161777094313
 20
90.19332705309521
 30
0.0
 10
169.8517788379035
 20
93.39778261950147
 30
0.0
 10
169.1272752571744
 20
96.54815018677576
 30
0.0
  0
POLYLINE
  5
1CA2
100
AcDbEntity
  8
ALPHA
 62
     7
100
AcDb2dPolyline
 66
     1
 10
0.0
 20
0.0
 30
0.0
  0
VERTEX
  5
1CA3
100
AcDbEntity
  8
ALPHA
 62
     7
100
AcDbVertex
100
AcDb2dVertex
 10
169.825252
 20
86.966306
 30
0.0
  0
VERTEX
  5
1CA4
100
AcDbEntity
  8
ALPHA
 62
     7
100
AcDbVertex
100
AcDb2dVertex
 10
169.800791
 20
86.973713
 30
0.0
  0
VERTEX
  5
1CA5
100
AcDbEntity
  8
ALPHA
 62
     7
100
AcDbVertex
100
AcDb2dVertex
 10
169.687448
 20
87.013504
 30
0.0
  0
VERTEX
  5
1CA6
100
AcDbEntity
  8
ALPHA
 62
     7
100
AcDbVertex
100
AcDb2dVertex
 10
169.56618
 20
87.051572
 30
0.0
  0
VERTEX
  5
1CA7
100
AcDbEntity
  8
ALPHA
 62
     7
100
AcDbVertex
100
AcDb2dVertex
 10
169.421486
 20
87.098942
 30
0.0
  0
VERTEX
  5
1CA8
100
AcDbEntity
  8
ALPHA
 62
     7
100
AcDbVertex
100
AcDb2dVertex
 10
169.266457
 20
87.148896
 30
0.0
  0
SEQEND
  5
1CA9
100
AcDbEntity
  8
ALPHA
 62
     7
  0
POLYLINE
  5
1CAA
100
AcDbEntity
  8
ALPHA
 62
     7
100
AcDb2dPolyline
 66
     1
 10
0.0
 20
0.0
 30
0.0
  0
VERTEX
  5
1CAB
100
AcDbEntity
  8
ALPHA
 62
     7
100
AcDbVertex
100
AcDb2dVertex
 10
169.147257
 20
86.583039
 30
0.0
  0
VERTEX
  5
1CAC
100
AcDbEntity
  8
ALPHA
 62
     7
100
AcDbVertex
100
AcDb2dVertex
 10
169.149668
 20
86.770797
 30
0.0
  0
VERTEX
  5
1CAD
100
AcDbEntity
  8
ALPHA
 62
     7
100
AcDbVertex
100
AcDb2dVertex
 10
169.164827
 20
86.935128
 30
0.0
  0
VERTEX
  5
1CAE
100
AcDbEntity
  8
ALPHA
 62
     7
100
AcDbVertex
100
AcDb2dVertex
 10
169.190665
 20
87.059324
 30
0.0
  0
VERTEX
  5
1CAF
100
AcDbEntity
  8
ALPHA
 62
     7
100
AcDbVertex
100
AcDb2dVertex
 10
169.225805
 20
87.133049
 30
0.0
  0
VERTEX
  5
1CB0
100
AcDbEntity
  8
ALPHA
 62
     7
100
AcDbVertex
100
AcDb2dVertex
 10
169.266457
 20
87.148896
 30
0.0
  0
SEQEND
  5
1CB1
100
AcDbEntity
  8
ALPHA
 62
     7
  0
SPLINE
  5
1CB2
100
AcDbEntity
  8
ALPHA
 62
     7
100
AcDbSpline
210
0.0
220
0.0
230
-1.0
 70
     8
 71
     3
 72
     8
 73
     4
 74
     0
 42
0.0000001
 43
0.0000001
 40
0.0
 40
0.0
 40
0.0
 40
0.0
 40
1.0
 40
1.0
 40
1.0
 40
1.0
 10
169.1272752571744
 20
96.54815018677576
 30
0.0
 10
169.1069491938063
 20
96.63789492418898
 30
0.0
 10
169.0270229785285
 20
96.70128468113341
 30
0.0
 10
168.935383438598
 20
96.70128468113341
 30
0.0
  0
LINE
  5
1CB3
100
AcDbEntity
  8
ALPHA
 62
     7
100
AcDbLine
 10
163.371899
 20
112.91132
 30
0.0
 11
163.371899
 21
120.00615
 31
0.0
  0
LINE
  5
1CB4
100
AcDbEntity
  8
ALPHA
 62
     7
100
AcDbLine
 10
161.385801
 20
112.91132
 30
0.0
 11
161.385801
 21
120.00615
 31
0.0
  0
LINE
  5
1CB5
100
AcDbEntity
  8
ALPHA
 62
     7
100
AcDbLine
 10
161.361341
 20
120.340841
 30
0.0
 11
161.361341
 21
112.999687
 31
0.0
  0
LINE
  5
1CB6
100
AcDbEntity
  8
ALPHA
 62
     7
100
AcDbLine
 10
161.353417
 20
112.91132
 30
0.0
 11
161.353417
 21
120.252646
 31
0.0
  0
LINE
  5
1CB7
100
AcDbEntity
  8
ALPHA
 62
     7
100
AcDbLine
 10
160.659231
 20
120.24145
 30
0.0
 11
160.659231
 21
105.449416
 31
0.0
  0
SPLINE
  5
1CB8
100
AcDbEntity
  8
ALPHA
 62
     7
100
AcDbSpline
210
0.0
220
0.0
230
-1.0
 70
     8
 71
     3
 72
     8
 73
     4
 74
     0
 42
0.0000001
 43
0.0000001
 40
0.0
 40
0.0
 40
0.0
 40
0.0
 40
1.0
 40
1.0
 40
1.0
 40
1.0
 10
163.4459682910285
 20
112.4186715626438
 30
0.0
 10
163.4459682910285
 20
112.6906618512723
 30
0.0
 10
163.2251376703688
 20
112.9113202171577
 30
0.0
 10
162.952975126966
 20
112.9113202171577
 30
0.0
  0
LINE
  5
1CB9
100
AcDbEntity
  8
ALPHA
 62
     7
100
AcDbLine
 10
161.361341
 20
112.91132
 30
0.0
 11
163.371899
 21
112.91132
 31
0.0
  0
LINE
  5
1CBA
100
AcDbEntity
  8
ALPHA
 62
     7
100
AcDbLine
 10
160.703328
 20
105.471464
 30
0.0
 11
166.894164
 21
105.471464
 31
0.0
  0
LINE
  5
1CBB
100
AcDbEntity
  8
ALPHA
 62
     7
100
AcDbLine
 10
162.121329
 20
105.471464
 30
0.0
 11
162.121329
 21
112.418672
 31
0.0
  0
LINE
  5
1CBC
100
AcDbEntity
  8
ALPHA
 62
     7
100
AcDbLine
 10
161.361341
 20
113.002615
 30
0.0
 11
161.353417
 21
112.91132
 31
0.0
  0
LINE
  5
1CBD
100
AcDbEntity
  8
ALPHA
 62
     7
100
AcDbLine
 10
161.626958
 20
112.910631
 30
0.0
 11
161.814371
 21
112.873252
 31
0.0
  0
LINE
  5
1CBE
100
AcDbEntity
  8
ALPHA
 62
     7
100
AcDbLine
 10
162.083089
 20
112.607118
 30
0.0
 11
162.121329
 21
112.418672
 31
0.0
  0
POLYLINE
  5
1CBF
100
AcDbEntity
  8
ALPHA
 62
     7
100
AcDb2dPolyline
 66
     1
 10
0.0
 20
0.0
 30
0.0
  0
VERTEX
  5
1CC0
100
AcDbEntity
  8
ALPHA
 62
     7
100
AcDbVertex
100
AcDb2dVertex
 10
161.814371
 20
112.873252
 30
0.0
  0
VERTEX
  5
1CC1
100
AcDbEntity
  8
ALPHA
 62
     7
100
AcDbVertex
100
AcDb2dVertex
 10
161.975946
 20
112.766626
 30
0.0
  0
VERTEX
  5
1CC2
100
AcDbEntity
  8
ALPHA
 62
     7
100
AcDbVertex
100
AcDb2dVertex
 10
162.083089
 20
112.607118
 30
0.0
  0
SEQEND
  5
1CC3
100
AcDbEntity
  8
ALPHA
 62
     7
  0
LINE
  5
1CC4
100
AcDbEntity
  8
ALPHA
 62
     7
100
AcDbLine
 10
163.445968
 20
105.471464
 30
0.0
 11
163.445968
 21
112.418672
 31
0.0
  0
SPLINE
  5
1CC5
100
AcDbEntity
  8
ALPHA
 62
     7
100
AcDbSpline
210
0.0
220
0.0
230
-1.0
 70
     8
 71
     3
 72
     8
 73
     4
 74
     0
 42
0.0000001
 43
0.0000001
 40
0.0
 40
0.0
 40
0.0
 40
0.0
 40
1.0
 40
1.0
 40
1.0
 40
1.0
 10
163.3718987380771
 20
120.0061498612549
 30
0.0
 10
163.3718987380771
 20
120.278484659432
 30
0.0
 10
163.1510681174174
 20
120.4987985157688
 30
0.0
 10
162.8789055740147
 20
120.4987985157688
 30
0.0
  0
POLYLINE
  5
1CC6
100
AcDbEntity
  8
ALPHA
 62
     7
100
AcDb2dPolyline
 66
     1
 10
0.0
 20
0.0
 30
0.0
  0
VERTEX
  5
1CC7
100
AcDbEntity
  8
ALPHA
 62
     7
100
AcDbVertex
100
AcDb2dVertex
 10
160.177262
 20
120.721696
 30
0.0
  0
VERTEX
  5
1CC8
100
AcDbEntity
  8
ALPHA
 62
     7
100
AcDbVertex
100
AcDb2dVertex
 10
160.357096
 20
120.679322
 30
0.0
  0
VERTEX
  5
1CC9
100
AcDbEntity
  8
ALPHA
 62
     7
100
AcDbVertex
100
AcDb2dVertex
 10
160.510747
 20
120.574074
 30
0.0
  0
VERTEX
  5
1CCA
100
AcDbEntity
  8
ALPHA
 62
     7
100
AcDbVertex
100
AcDb2dVertex
 10
160.616511
 20
120.420939
 30
0.0
  0
VERTEX
  5
1CCB
100
AcDbEntity
  8
ALPHA
 62
     7
100
AcDbVertex
100
AcDb2dVertex
 10
160.659231
 20
120.24145
 30
0.0
  0
SEQEND
  5
1CCC
100
AcDbEntity
  8
ALPHA
 62
     7
  0
POLYLINE
  5
1CCD
100
AcDbEntity
  8
ALPHA
 62
     7
100
AcDb2dPolyline
 66
     1
 10
0.0
 20
0.0
 30
0.0
  0
VERTEX
  5
1CCE
100
AcDbEntity
  8
ALPHA
 62
     7
100
AcDbVertex
100
AcDb2dVertex
 10
161.361341
 20
120.343941
 30
0.0
  0
VERTEX
  5
1CCF
100
AcDbEntity
  8
ALPHA
 62
     7
100
AcDbVertex
100
AcDb2dVertex
 10
161.355829
 20
120.414221
 30
0.0
  0
VERTEX
  5
1CD0
100
AcDbEntity
  8
ALPHA
 62
     7
100
AcDbVertex
100
AcDb2dVertex
 10
161.307598
 20
120.55237
 30
0.0
  0
VERTEX
  5
1CD1
100
AcDbEntity
  8
ALPHA
 62
     7
100
AcDbVertex
100
AcDb2dVertex
 10
161.218714
 20
120.656584
 30
0.0
  0
VERTEX
  5
1CD2
100
AcDbEntity
  8
ALPHA
 62
     7
100
AcDbVertex
100
AcDb2dVertex
 10
161.099169
 20
120.722385
 30
0.0
  0
VERTEX
  5
1CD3
100
AcDbEntity
  8
ALPHA
 62
     7
100
AcDbVertex
100
AcDb2dVertex
 10
160.95792
 20
120.745123
 30
0.0
  0
SEQEND
  5
1CD4
100
AcDbEntity
  8
ALPHA
 62
     7
  0
POLYLINE
  5
1CD5
100
AcDbEntity
  8
ALPHA
 62
     7
100
AcDb2dPolyline
 66
     1
 10
0.0
 20
0.0
 30
0.0
  0
VERTEX
  5
1CD6
100
AcDbEntity
  8
ALPHA
 62
     7
100
AcDbVertex
100
AcDb2dVertex
 10
160.199655
 20
120.745123
 30
0.0
  0
VERTEX
  5
1CD7
100
AcDbEntity
  8
ALPHA
 62
     7
100
AcDbVertex
100
AcDb2dVertex
 10
160.381556
 20
120.708949
 30
0.0
  0
VERTEX
  5
1CD8
100
AcDbEntity
  8
ALPHA
 62
     7
100
AcDbVertex
100
AcDb2dVertex
 10
160.535207
 20
120.606285
 30
0.0
  0
VERTEX
  5
1CD9
100
AcDbEntity
  8
ALPHA
 62
     7
100
AcDbVertex
100
AcDb2dVertex
 10
160.64235
 20
120.446433
 30
0.0
  0
VERTEX
  5
1CDA
100
AcDbEntity
  8
ALPHA
 62
     7
100
AcDbVertex
100
AcDb2dVertex
 10
160.681624
 20
120.252646
 30
0.0
  0
SEQEND
  5
1CDB
100
AcDbEntity
  8
ALPHA
 62
     7
  0
LINE
  5
1CDC
100
AcDbEntity
  8
ALPHA
 62
     7
100
AcDbLine
 10
162.878906
 20
120.498799
 30
0.0
 11
161.326201
 21
120.498799
 31
0.0
  0
POLYLINE
  5
1CDD
100
AcDbEntity
  8
ALPHA
 62
     7
100
AcDb2dPolyline
 66
     1
 10
0.0
 20
0.0
 30
0.0
  0
VERTEX
  5
1CDE
100
AcDbEntity
  8
ALPHA
 62
     7
100
AcDbVertex
100
AcDb2dVertex
 10
161.361341
 20
120.157562
 30
0.0
  0
VERTEX
  5
1CDF
100
AcDbEntity
  8
ALPHA
 62
     7
100
AcDbVertex
100
AcDb2dVertex
 10
161.36203
 20
120.156184
 30
0.0
  0
VERTEX
  5
1CE0
100
AcDbEntity
  8
ALPHA
 62
     7
100
AcDbVertex
100
AcDb2dVertex
 10
161.385801
 20
120.00615
 30
0.0
  0
SEQEND
  5
1CE1
100
AcDbEntity
  8
ALPHA
 62
     7
  0
LINE
  5
1CE2
100
AcDbEntity
  8
ALPHA
 62
     7
100
AcDbLine
 10
161.353417
 20
120.252646
 30
0.0
 11
161.361341
 21
120.343941
 31
0.0
  0
LINE
  5
1CE3
100
AcDbEntity
  8
ALPHA
 62
     7
100
AcDbLine
 10
182.722311
 20
86.476758
 30
0.0
 11
181.834165
 21
86.947875
 31
0.0
  0
LINE
  5
1CE4
100
AcDbEntity
  8
ALPHA
 62
     7
100
AcDbLine
 10
181.820041
 20
86.954421
 30
0.0
 11
181.708764
 21
86.966306
 31
0.0
  0
LINE
  5
1CE5
100
AcDbEntity
  8
ALPHA
 62
     7
100
AcDbLine
 10
181.815906
 20
86.956488
 30
0.0
 11
181.740459
 21
86.970612
 31
0.0
  0
LINE
  5
1CE6
100
AcDbEntity
  8
ALPHA
 62
     7
100
AcDbLine
 10
182.811884
 20
85.833042
 30
0.0
 11
182.818774
 21
85.96964
 31
0.0
  0
POLYLINE
  5
1CE7
100
AcDbEntity
  8
ALPHA
 62
     7
100
AcDb2dPolyline
 66
     1
 10
0.0
 20
0.0
 30
0.0
  0
VERTEX
  5
1CE8
100
AcDbEntity
  8
ALPHA
 62
     7
100
AcDbVertex
100
AcDb2dVertex
 10
182.82153
 20
86.30502
 30
0.0
  0
VERTEX
  5
1CE9
100
AcDbEntity
  8
ALPHA
 62
     7
100
AcDbVertex
100
AcDb2dVertex
 10
182.819463
 20
86.32948
 30
0.0
  0
VERTEX
  5
1CEA
100
AcDbEntity
  8
ALPHA
 62
     7
100
AcDbVertex
100
AcDb2dVertex
 10
182.799137
 20
86.395282
 30
0.0
  0
VERTEX
  5
1CEB
100
AcDbEntity
  8
ALPHA
 62
     7
100
AcDbVertex
100
AcDb2dVertex
 10
182.773298
 20
86.434383
 30
0.0
  0
VERTEX
  5
1CEC
100
AcDbEntity
  8
ALPHA
 62
     7
100
AcDbVertex
100
AcDb2dVertex
 10
182.755728
 20
86.451953
 30
0.0
  0
VERTEX
  5
1CED
100
AcDbEntity
  8
ALPHA
 62
     7
100
AcDbVertex
100
AcDb2dVertex
 10
182.745393
 20
86.460738
 30
0.0
  0
VERTEX
  5
1CEE
100
AcDbEntity
  8
ALPHA
 62
     7
100
AcDbVertex
100
AcDb2dVertex
 10
182.738503
 20
86.465906
 30
0.0
  0
VERTEX
  5
1CEF
100
AcDbEntity
  8
ALPHA
 62
     7
100
AcDbVertex
100
AcDb2dVertex
 10
182.734024
 20
86.469351
 30
0.0
  0
VERTEX
  5
1CF0
100
AcDbEntity
  8
ALPHA
 62
     7
100
AcDbVertex
100
AcDb2dVertex
 10
182.72989
 20
86.47159
 30
0.0
  0
VERTEX
  5
1CF1
100
AcDbEntity
  8
ALPHA
 62
     7
100
AcDbVertex
100
AcDb2dVertex
 10
182.727134
 20
86.473657
 30
0.0
  0
VERTEX
  5
1CF2
100
AcDbEntity
  8
ALPHA
 62
     7
100
AcDbVertex
100
AcDb2dVertex
 10
182.724378
 20
86.475035
 30
0.0
  0
VERTEX
  5
1CF3
100
AcDbEntity
  8
ALPHA
 62
     7
100
AcDbVertex
100
AcDb2dVertex
 10
182.722311
 20
86.476758
 30
0.0
  0
VERTEX
  5
1CF4
100
AcDbEntity
  8
ALPHA
 62
     7
100
AcDbVertex
100
AcDb2dVertex
 10
182.720244
 20
86.477792
 30
0.0
  0
VERTEX
  5
1CF5
100
AcDbEntity
  8
ALPHA
 62
     7
100
AcDbVertex
100
AcDb2dVertex
 10
182.717488
 20
86.47917
 30
0.0
  0
VERTEX
  5
1CF6
100
AcDbEntity
  8
ALPHA
 62
     7
100
AcDbVertex
100
AcDb2dVertex
 10
182.715421
 20
86.480548
 30
0.0
  0
VERTEX
  5
1CF7
100
AcDbEntity
  8
ALPHA
 62
     7
100
AcDbVertex
100
AcDb2dVertex
 10
182.711631
 20
86.482787
 30
0.0
  0
SEQEND
  5
1CF8
100
AcDbEntity
  8
ALPHA
 62
     7
  0
DIMENSION
  5
1D05
100
AcDbEntity
  8
COTATION1
100
AcDbDimension
  2
*D9
 10
182.82153
 20
9.662225
 30
0.0
 11
115.846893
 21
11.912225
 31
0.0
 70
    32
  1
134
  3
SC_STAND
100
AcDbAlignedDimension
 13
48.872255
 23
21.348171
 33
0.0
 14
182.82153
 24
79.628597
 34
0.0
100
AcDbRotatedDimension
  0
ENDSEC
  0
SECTION
  2
OBJECTS
  0
DICTIONARY
  5
F8
100
AcDbDictionary
  3
ACAD_GROUP
350
F9
  3
ACAD_MLINESTYLE
350
106
  3
ACDBVARIABLEDICTIONARY
350
143
  0
DICTIONARY
  5
F9
102
{ACAD_REACTORS
330
F8
102
}
100
AcDbDictionary
  0
DICTIONARY
  5
106
102
{ACAD_REACTORS
330
F8
102
}
100
AcDbDictionary
  3
STANDARD
350
107
  0
DICTIONARY
  5
143
102
{ACAD_REACTORS
330
F8
102
}
100
AcDbDictionary
  3
DIMADEC
350
144
  0
MLINESTYLE
  5
107
102
{ACAD_REACTORS
330
106
102
}
100
AcDbMlineStyle
  2
STANDARD
 70
     0
  3

 62
   256
 51
90.0
 52
90.0
 71
     2
 49
0.5
 62
   256
  6
BYLAYER
 49
-0.5
 62
   256
  6
BYLAYER
  0
DICTIONARYVAR
  5
144
102
{ACAD_REACTORS
330
143
102
}
100
DictionaryVariables
280
     0
  1
0
  0
ENDSEC
  0
EOF
