  0
SECTION
  2
HEADER
  9
$ACADVER
  1
AC1014
  9
$ACADMAINTVER
 70
     0
  9
$DWGCODEPAGE
  3
ANSI_1252
  9
$INSBASE
 10
93.894301
 20
236.06014
 30
0.0
  9
$EXTMIN
 10
0.292918
 20
-8.986805
 30
0.0
  9
$EXTMAX
 10
44.05912
 20
44.960373
 30
0.0
  9
$LIMMIN
 10
0.0
 20
0.0
  9
$LIMMAX
 10
210.0
 20
297.0
  9
$ORTHOMODE
 70
     0
  9
$REGENMODE
 70
     1
  9
$FILLMODE
 70
     1
  9
$QTEXTMODE
 70
     0
  9
$MIRRTEXT
 70
     0
  9
$DRAGMODE
 70
     1
  9
$LTSCALE
 40
7.0
  9
$OSMODE
 70
  4095
  9
$ATTMODE
 70
     1
  9
$TEXTSIZE
 40
2.5
  9
$TRACEWID
 40
0.05
  9
$TEXTSTYLE
  7
STANDARD
  9
$CLAYER
  8
COTATION1
  9
$CELTYPE
  6
BYLAYER
  9
$CECOLOR
 62
   256
  9
$CELTSCALE
 40
1.0
  9
$DELOBJ
 70
     1
  9
$DISPSILH
 70
     0
  9
$DIMSCALE
 40
1.0
  9
$DIMASZ
 40
3.0
  9
$DIMEXO
 40
0.0625
  9
$DIMDLI
 40
0.38
  9
$DIMRND
 40
0.01
  9
$DIMDLE
 40
0.0
  9
$DIMEXE
 40
0.18
  9
$DIMTP
 40
0.0
  9
$DIMTM
 40
0.0
  9
$DIMTXT
 40
2.5
  9
$DIMCEN
 40
0.09
  9
$DIMTSZ
 40
0.0
  9
$DIMTOL
 70
     0
  9
$DIMLIM
 70
     0
  9
$DIMTIH
 70
     0
  9
$DIMTOH
 70
     0
  9
$DIMSE1
 70
     0
  9
$DIMSE2
 70
     0
  9
$DIMTAD
 70
     1
  9
$DIMZIN
 70
    12
  9
$DIMBLK
  1

  9
$DIMASO
 70
     1
  9
$DIMSHO
 70
     0
  9
$DIMPOST
  1

  9
$DIMAPOST
  1

  9
$DIMALT
 70
     0
  9
$DIMALTD
 70
     2
  9
$DIMALTF
 40
25.4
  9
$DIMLFAC
 40
1.0
  9
$DIMTOFL
 70
     1
  9
$DIMTVP
 40
0.0
  9
$DIMTIX
 70
     0
  9
$DIMSOXD
 70
     0
  9
$DIMSAH
 70
     0
  9
$DIMBLK1
  1

  9
$DIMBLK2
  1

  9
$DIMSTYLE
  2
SC_STAND
  9
$DIMCLRD
 70
     0
  9
$DIMCLRE
 70
     0
  9
$DIMCLRT
 70
     0
  9
$DIMTFAC
 40
1.0
  9
$DIMGAP
 40
1.0
  9
$DIMJUST
 70
     0
  9
$DIMSD1
 70
     0
  9
$DIMSD2
 70
     0
  9
$DIMTOLJ
 70
     1
  9
$DIMTZIN
 70
    12
  9
$DIMALTZ
 70
    12
  9
$DIMALTTZ
 70
    12
  9
$DIMFIT
 70
     5
  9
$DIMUPT
 70
     0
  9
$DIMUNIT
 70
     2
  9
$DIMDEC
 70
     3
  9
$DIMTDEC
 70
     3
  9
$DIMALTU
 70
     2
  9
$DIMALTTD
 70
     2
  9
$DIMTXSTY
  7
STANDARD
  9
$DIMAUNIT
 70
     0
  9
$LUNITS
 70
     2
  9
$LUPREC
 70
     3
  9
$SKETCHINC
 40
0.1
  9
$FILLETRAD
 40
0.0625
  9
$AUNITS
 70
     0
  9
$AUPREC
 70
     0
  9
$MENU
  1
ACAD
  9
$ELEVATION
 40
0.0
  9
$PELEVATION
 40
0.0
  9
$THICKNESS
 40
0.0
  9
$LIMCHECK
 70
     0
  9
$BLIPMODE
 70
     1
  9
$CHAMFERA
 40
0.0
  9
$CHAMFERB
 40
0.0
  9
$CHAMFERC
 40
0.0
  9
$CHAMFERD
 40
0.0
  9
$SKPOLY
 70
     0
  9
$TDCREATE
 40
2450953.590960648
  9
$TDUPDATE
 40
2453664.508196609
  9
$TDINDWG
 40
0.0460428472
  9
$TDUSRTIMER
 40
0.0460428472
  9
$USRTIMER
 70
     1
  9
$ANGBASE
 50
0.0
  9
$ANGDIR
 70
     0
  9
$PDMODE
 70
     0
  9
$PDSIZE
 40
0.0
  9
$PLINEWID
 40
0.0
  9
$COORDS
 70
     0
  9
$SPLFRAME
 70
     0
  9
$SPLINETYPE
 70
     6
  9
$SPLINESEGS
 70
     8
  9
$ATTDIA
 70
     0
  9
$ATTREQ
 70
     1
  9
$HANDLING
 70
     1
  9
$HANDSEED
  5
9C78
  9
$SURFTAB1
 70
     6
  9
$SURFTAB2
 70
     6
  9
$SURFTYPE
 70
     6
  9
$SURFU
 70
     6
  9
$SURFV
 70
     6
  9
$UCSNAME
  2

  9
$UCSORG
 10
0.0
 20
0.0
 30
0.0
  9
$UCSXDIR
 10
1.0
 20
0.0
 30
0.0
  9
$UCSYDIR
 10
0.0
 20
1.0
 30
0.0
  9
$PUCSNAME
  2

  9
$PUCSORG
 10
0.0
 20
0.0
 30
0.0
  9
$PUCSXDIR
 10
1.0
 20
0.0
 30
0.0
  9
$PUCSYDIR
 10
0.0
 20
1.0
 30
0.0
  9
$USERI1
 70
     0
  9
$USERI2
 70
     0
  9
$USERI3
 70
     0
  9
$USERI4
 70
     0
  9
$USERI5
 70
     0
  9
$USERR1
 40
0.0
  9
$USERR2
 40
0.0
  9
$USERR3
 40
0.0
  9
$USERR4
 40
0.0
  9
$USERR5
 40
0.0
  9
$WORLDVIEW
 70
     1
  9
$SHADEDGE
 70
     3
  9
$SHADEDIF
 70
    70
  9
$TILEMODE
 70
     1
  9
$MAXACTVP
 70
    32
  9
$PINSBASE
 10
0.0
 20
0.0
 30
0.0
  9
$PLIMCHECK
 70
     0
  9
$PEXTMIN
 10
-3.174999
 20
-3.175
 30
0.0
  9
$PEXTMAX
 10
203.812116
 20
370.276807
 30
0.0
  9
$PLIMMIN
 10
-3.175
 20
-3.175
  9
$PLIMMAX
 10
203.812115
 20
370.276807
  9
$UNITMODE
 70
     0
  9
$VISRETAIN
 70
     0
  9
$PLINEGEN
 70
     0
  9
$PSLTSCALE
 70
     1
  9
$TREEDEPTH
 70
  3020
  9
$PICKSTYLE
 70
     1
  9
$CMLSTYLE
  2
STANDARD
  9
$CMLJUST
 70
     0
  9
$CMLSCALE
 40
1.0
  9
$PROXYGRAPHICS
 70
     1
  9
$MEASUREMENT
 70
     0
  0
ENDSEC
  0
SECTION
  2
CLASSES
  0
CLASS
  1
DICTIONARYVAR
  2
AcDbDictionaryVar
  3
"AutoCAD"
 90
        0
280
     0
281
     0
  0
CLASS
  1
HATCH
  2
AcDbHatch
  3
"ACAD_SEDONA"
 90
        0
280
     0
281
     1
  0
CLASS
  1
LWPOLYLINE
  2
AcDbPolyline
  3
"AutoCAD"
 90
        0
280
     0
281
     1
  0
ENDSEC
  0
SECTION
  2
TABLES
  0
TABLE
  2
VPORT
  5
F4
100
AcDbSymbolTable
 70
     2
  0
VPORT
  5
9C77
100
AcDbSymbolTableRecord
100
AcDbViewportTableRecord
  2
*ACTIVE
 70
     0
 10
0.0
 20
0.0
 11
1.0
 21
1.0
 12
22.175675
 22
17.981441
 13
0.0
 23
0.0
 14
1.0
 24
1.0
 15
10.0
 25
10.0
 16
0.0
 26
0.0
 36
1.0
 17
0.0
 27
0.0
 37
0.0
 40
54.402688
 41
1.643603
 42
50.0
 43
0.0
 44
0.0
 50
0.0
 51
0.0
 71
     0
 72
   100
 73
     1
 74
     1
 75
     0
 76
     1
 77
     0
 78
     0
  0
ENDTAB
  0
TABLE
  2
LTYPE
  5
F1
100
AcDbSymbolTable
 70
     5
  0
LTYPE
  5
FD
100
AcDbSymbolTableRecord
100
AcDbLinetypeTableRecord
  2
BYBLOCK
 70
     0
  3

 72
    65
 73
     0
 40
0.0
  0
LTYPE
  5
FE
100
AcDbSymbolTableRecord
100
AcDbLinetypeTableRecord
  2
BYLAYER
 70
     0
  3

 72
    65
 73
     0
 40
0.0
  0
LTYPE
  5
FF
100
AcDbSymbolTableRecord
100
AcDbLinetypeTableRecord
  2
CONTINUOUS
 70
     0
  3
Solid line
 72
    65
 73
     0
 40
0.0
  0
LTYPE
  5
112
100
AcDbSymbolTableRecord
100
AcDbLinetypeTableRecord
  2
AXES2
 70
     0
  3
___ _ ___ _ ___ _ ___ _ ___ _ ___ _ ___ _ ___ _
 72
    65
 73
     4
 40
1.125
 49
0.75
 74
     0
 49
-0.125
 74
     0
 49
0.125
 74
     0
 49
-0.125
 74
     0
  0
ENDTAB
  0
TABLE
  2
LAYER
  5
EE
100
AcDbSymbolTable
 70
     7
  0
LAYER
  5
FA
100
AcDbSymbolTableRecord
100
AcDbLayerTableRecord
  2
0
 70
     0
 62
     7
  6
CONTINUOUS
  0
LAYER
  5
12C
100
AcDbSymbolTableRecord
100
AcDbLayerTableRecord
  2
ALPHA
 70
     0
 62
   255
  6
CONTINUOUS
  0
LAYER
  5
12F
100
AcDbSymbolTableRecord
100
AcDbLayerTableRecord
  2
COTATION1
 70
     0
 62
     2
  6
CONTINUOUS
  0
LAYER
  5
13B
100
AcDbSymbolTableRecord
100
AcDbLayerTableRecord
  2
ASHADE
 70
     0
 62
     7
  6
CONTINUOUS
  0
LAYER
  5
13E
100
AcDbSymbolTableRecord
100
AcDbLayerTableRecord
  2
DEFPOINTS
 70
     0
 62
     7
  6
CONTINUOUS
  0
ENDTAB
  0
TABLE
  2
STYLE
  5
EF
100
AcDbSymbolTable
 70
     2
  0
STYLE
  5
FB
100
AcDbSymbolTableRecord
100
AcDbTextStyleTableRecord
  2
STANDARD
 70
     0
 40
0.0
 41
1.0
 50
0.0
 71
     0
 42
2.5
  3
txt
  4

  0
ENDTAB
  0
TABLE
  2
VIEW
  5
F2
100
AcDbSymbolTable
 70
     0
  0
ENDTAB
  0
TABLE
  2
UCS
  5
F3
100
AcDbSymbolTable
 70
     0
  0
ENDTAB
  0
TABLE
  2
APPID
  5
F5
100
AcDbSymbolTable
 70
     3
  0
APPID
  5
FC
100
AcDbSymbolTableRecord
100
AcDbRegAppTableRecord
  2
ACAD
 70
     0
  0
APPID
  5
127
100
AcDbSymbolTableRecord
100
AcDbRegAppTableRecord
  2
AVE_RENDER
 70
     0
  0
APPID
  5
128
100
AcDbSymbolTableRecord
100
AcDbRegAppTableRecord
  2
AVE_MATERIAL
 70
     0
  0
ENDTAB
  0
TABLE
  2
DIMSTYLE
  5
F6
100
AcDbSymbolTable
 70
     2
  0
DIMSTYLE
105
129
100
AcDbSymbolTableRecord
100
AcDbDimStyleTableRecord
  2
STANDARD
 70
     0
  3

  4

  5

  6

  7

 40
1.0
 41
0.18
 42
0.0625
 43
0.38
 44
0.18
 45
0.0
 46
0.0
 47
0.0
 48
0.0
140
0.18
141
0.09
142
0.0
143
25.4
144
1.0
145
0.0
146
1.0
147
0.09
 71
     0
 72
     0
 73
     1
 74
     1
 75
     0
 76
     0
 77
     0
 78
     0
170
     0
171
     2
172
     0
173
     0
174
     0
175
     0
176
     0
177
     0
178
     0
270
     2
271
     3
272
     3
273
     2
274
     2
340
FB
275
     0
280
     0
281
     0
282
     0
283
     1
284
    12
285
    12
286
    12
287
     5
288
     0
  0
DIMSTYLE
105
12A
102
{ACAD_REACTORS
330
9C1C
330
9C60
102
}
100
AcDbSymbolTableRecord
100
AcDbDimStyleTableRecord
  2
SC_STAND
 70
     0
  3

  4

  5

  6

  7

 40
1.0
 41
3.0
 42
0.0625
 43
0.38
 44
0.18
 45
0.01
 46
0.0
 47
0.0
 48
0.0
140
2.5
141
0.09
142
0.0
143
25.4
144
1.0
145
0.0
146
1.0
147
1.0
 71
     0
 72
     0
 73
     0
 74
     0
 75
     0
 76
     0
 77
     1
 78
    12
170
     0
171
     2
172
     1
173
     0
174
     0
175
     0
176
     0
177
     0
178
     0
270
     2
271
     3
272
     3
273
     2
274
     2
340
FB
275
     0
280
     0
281
     0
282
     0
283
     1
284
    12
285
    12
286
    12
287
     5
288
     0
  0
ENDTAB
  0
TABLE
  2
BLOCK_RECORD
  5
ED
100
AcDbSymbolTable
 70
     9
  0
BLOCK_RECORD
  5
103
100
AcDbSymbolTableRecord
100
AcDbBlockTableRecord
  2
*MODEL_SPACE
  0
BLOCK_RECORD
  5
100
100
AcDbSymbolTableRecord
100
AcDbBlockTableRecord
  2
*PAPER_SPACE
  0
BLOCK_RECORD
  5
108
100
AcDbSymbolTableRecord
100
AcDbBlockTableRecord
  2
AVE_RENDER
  0
BLOCK_RECORD
  5
109
100
AcDbSymbolTableRecord
100
AcDbBlockTableRecord
  2
AVE_GLOBAL
  0
BLOCK_RECORD
  5
10A
100
AcDbSymbolTableRecord
100
AcDbBlockTableRecord
  2
SCH_IS
  0
BLOCK_RECORD
  5
9C10
100
AcDbSymbolTableRecord
100
AcDbBlockTableRecord
  2
*D7
  0
BLOCK_RECORD
  5
9C54
100
AcDbSymbolTableRecord
100
AcDbBlockTableRecord
  2
*D8
  0
ENDTAB
  0
ENDSEC
  0
SECTION
  2
BLOCKS
  0
BLOCK
  5
141
100
AcDbEntity
  8
0
100
AcDbBlockBegin
  2
*MODEL_SPACE
 70
     0
 10
0.0
 20
0.0
 30
0.0
  3
*MODEL_SPACE
  1

  0
ENDBLK
  5
142
100
AcDbEntity
  8
0
100
AcDbBlockEnd
  0
BLOCK
  5
13F
100
AcDbEntity
 67
     1
  8
0
100
AcDbBlockBegin
  2
*PAPER_SPACE
 70
     0
 10
0.0
 20
0.0
 30
0.0
  3
*PAPER_SPACE
  1

  0
ENDBLK
  5
140
100
AcDbEntity
 67
     1
  8
0
100
AcDbBlockEnd
  0
BLOCK
  5
8D
100
AcDbEntity
  8
0
100
AcDbBlockBegin
  2
AVE_RENDER
 70
     0
 10
0.0
 20
0.0
 30
0.0
  3
AVE_RENDER
  1
AVE_RENDER
  0
ENDBLK
  5
8E
100
AcDbEntity
  8
0
100
AcDbBlockEnd
  0
BLOCK
  5
90
100
AcDbEntity
  8
0
100
AcDbBlockBegin
  2
AVE_GLOBAL
 70
     0
 10
0.0
 20
0.0
 30
0.0
  3
AVE_GLOBAL
  1
AVE_GLOBAL
  0
ENDBLK
  5
91
100
AcDbEntity
  8
0
100
AcDbBlockEnd
  0
BLOCK
  5
C9
100
AcDbEntity
  8
0
100
AcDbBlockBegin
  2
SCH_IS
 70
     0
 10
0.0
 20
0.0
 30
0.0
  3
SCH_IS
  1

  0
INSERT
  5
C0
100
AcDbEntity
  8
ASHADE
 62
     1
100
AcDbBlockReference
  2
AVE_RENDER
 10
0.0
 20
0.0
 30
0.0
1001
AVE_RENDER
1002
{
1070
     6
1000
Pref
1070
    50
1070
    20
1070
     1
1070
     0
1000

1070
    10
1070
     1
1070
    30
1040
25.4
1070
     1
1040
0.3
1040
0.7
1040
0.0
1040
10.0
1010
-1.0
1020
-1.0
1030
-1.0
1040
0.3
1070
    49
1070
     0
1070
     0
1010
1.0
1020
1.0
1030
1.0
1040
45.0
1070
     1
1070
     0
1000
WCS
1040
0.0
1002
}
  0
INSERT
  5
C1
100
AcDbEntity
  8
ASHADE
 62
     3
100
AcDbBlockReference
  2
AVE_RENDER
 10
0.0
 20
0.0
 30
0.0
1001
AVE_RENDER
1002
{
1070
     0
1000
Full Opt
1070
     0
1070
     1
1070
     1
1070
     1
1070
     0
1070
     0
1070
     0
1070
     1
1070
     1
1040
0.0001
1040
0.0001
1002
}
  0
INSERT
  5
C2
100
AcDbEntity
  8
ASHADE
 62
     4
100
AcDbBlockReference
  2
AVE_RENDER
 10
0.0
 20
0.0
 30
0.0
1001
AVE_RENDER
1002
{
1070
     0
1000
Quick Opt
1070
     0
1070
     1
1070
     1
1070
     1
1070
     0
1070
     0
1070
     1
1002
}
  0
INSERT
  5
C3
100
AcDbEntity
  8
ASHADE
 62
     5
100
AcDbBlockReference
  2
AVE_RENDER
 10
0.0
 20
0.0
 30
0.0
1001
AVE_RENDER
1002
{
1070
     1
1000
Scanl Opt
1070
     2
1070
     0
1070
     2
1040
2.0
1040
4.0
1070
     0
1070
     1
1070
     0
1040
0.03
1002
}
  0
INSERT
  5
C4
100
AcDbEntity
  8
ASHADE
 62
     6
100
AcDbBlockReference
  2
AVE_RENDER
 10
0.0
 20
0.0
 30
0.0
1001
AVE_RENDER
1002
{
1070
     2
1000
Raytr Opt
1070
     2
1070
     0
1070
     2
1040
2.0
1040
4.0
1070
     0
1070
     1
1070
     1
1040
0.03
1070
     3
1040
0.03
1002
}
  0
INSERT
  5
C5
100
AcDbEntity
  8
ASHADE
 62
     7
100
AcDbBlockReference
  2
AVE_RENDER
 10
0.0
 20
0.0
 30
0.0
1001
AVE_RENDER
1002
{
1070
     0
1000
RFile Opt
1070
     5
1070
   640
1070
   480
1070
 10000
1070
     3
1070
    32
1070
    24
1070
     0
1070
     0
1070
     0
1070
     1
1070
     0
1070
     0
1070
     0
1002
}
  0
INSERT
  5
C6
100
AcDbEntity
  8
ASHADE
 62
     8
100
AcDbBlockReference
  2
AVE_RENDER
 10
0.0
 20
0.0
 30
0.0
1001
AVE_RENDER
1002
{
1070
     0
1000
Fog Opt
1070
     0
1070
     0
1040
0.0
1040
1.0
1040
0.0
1040
1.0
1010
0.5
1020
0.5
1030
0.5
1002
}
  0
INSERT
  5
C7
100
AcDbEntity
  8
ASHADE
 62
     9
100
AcDbBlockReference
  2
AVE_RENDER
 10
0.0
 20
0.0
 30
0.0
1001
AVE_RENDER
1002
{
1070
     0
1000
BG Opt
1070
     0
1070
     1
1010
0.0
1020
0.0
1030
0.0
1010
1.0
1020
0.0
1030
0.0
1010
0.0
1020
1.0
1030
0.0
1010
0.0
1020
0.0
1030
1.0
1040
0.5
1040
0.33
1040
0.0
1000

1070
     1
1000

1070
     1
1070
     1
1040
1.0
1040
1.0
1040
0.0
1040
0.0
1070
     0
1002
}
  0
INSERT
  5
C8
100
AcDbEntity
  8
ASHADE
 62
     1
100
AcDbBlockReference
  2
AVE_GLOBAL
 10
0.0
 20
0.0
 30
0.0
1001
AVE_MATERIAL
1002
{
1000
*GLOBAL*
1000
1
1000
Finition globale.
1002
{
1002
}
1002
{
1070
    63
1002
{
1002
{
1010
-1.0
1020
-1.0
1030
-1.0
1002
}
1040
0.1
1000

1040
0.0
1002
{
1002
}
1040
0.0
1002
{
1002
}
1040
0.0
1002
}
1002
{
1002
{
1010
-1.0
1020
-1.0
1030
-1.0
1002
}
1040
0.7
1000

1040
0.0
1002
{
1002
}
1040
0.0
1002
{
1002
}
1040
0.0
1002
}
1002
{
1002
{
1010
-1.0
1020
-1.0
1030
-1.0
1002
}
1040
0.2
1000

1040
0.0
1002
{
1002
}
1040
0.0
1002
{
1002
}
1040
0.0
1002
}
1002
{
1070
     0
1002
{
1070
     1
1002
{
1040
1.0
1040
1.0
1000

1040
0.0
1002
{
1002
}
1040
0.0
1002
{
1002
}
1040
0.0
1002
}
1002
}
1040
1.0
1040
0.0
1040
0.0
1002
}
1002
{
1040
1.0
1040
1.0
1000

1040
0.0
1002
{
1002
}
1040
0.0
1002
{
1002
}
1040
0.0
1002
}
1002
{
1040
0.5
1040
1.0
1000

1040
0.0
1002
{
1002
}
1040
0.0
1002
{
1002
}
1040
0.0
1002
}
1002
{
1070
     0
1040
0.0
1002
{
1002
}
1040
1.0
1002
{
1002
}
1040
0.0
1002
}
1002
{
1040
0.0
1002
{
1002
{
1010
0.0
1020
0.0
1030
0.0
1002
}
1040
1.0
1000

1040
0.0
1002
{
1002
}
1040
0.0
1002
{
1002
}
1040
0.0
1002
}
1002
}
1002
{
1002
{
1070
     1
1002
{
1040
0.0
1040
1.0
1000

1040
0.0
1002
{
1002
}
1040
0.0
1002
{
1002
}
1040
0.0
1002
}
1002
}
1040
0.0
1002
{
1002
}
1010
1.0
1020
0.0
1030
0.0
1010
0.0
1020
1.0
1030
0.0
1010
0.0
1020
0.0
1030
1.0
1070
     0
1002
}
1002
{
1002
{
1040
1.0
1040
1.0
1002
{
1070
     1
1002
{
1040
1.0
1040
1.0
1000

1040
0.0
1002
{
1002
}
1040
0.0
1002
{
1002
}
1040
0.0
1002
}
1002
}
1002
}
1070
     0
1040
0.0
1002
{
1002
}
1002
}
1002
{
1002
}
1002
}
1002
{
1071
        3
1070
     3
1070
     0
1002
{
1070
     2
1070
     0
1070
     0
1040
0.0
1002
}
1070
     0
1070
     2
1002
{
1002
}
1002
}
1002
{
1040
8030.0
1040
190.300003
1040
0.305
1040
228.0
1040
545.0
1040
14.0
1040
17.4
1040
0.456
1002
}
1002
}
  0
ENDBLK
  5
CA
100
AcDbEntity
  8
0
100
AcDbBlockEnd
  0
BLOCK
  5
9C49
100
AcDbEntity
  8
0
100
AcDbBlockBegin
  2
*D7
 70
     1
 10
0.0
 20
0.0
 30
0.0
  3
*D7
  1

  0
LINE
  5
9C4A
100
AcDbEntity
  8
0
  6
BYBLOCK
 62
     0
100
AcDbLine
 10
0.292918
 20
17.378795
 30
0.0
 11
0.292918
 21
-8.666805
 31
0.0
  0
LINE
  5
9C4B
100
AcDbEntity
  8
0
  6
BYBLOCK
 62
     0
100
AcDbLine
 10
33.336896
 20
17.378795
 30
0.0
 11
33.336896
 21
-8.666805
 31
0.0
  0
LINE
  5
9C4C
100
AcDbEntity
  8
0
  6
BYBLOCK
 62
     0
100
AcDbLine
 10
3.292918
 20
-8.486805
 30
0.0
 11
30.336896
 21
-8.486805
 31
0.0
  0
SOLID
  5
9C4D
100
AcDbEntity
  8
0
  6
BYBLOCK
 62
     0
100
AcDbTrace
 10
3.292918
 20
-7.986805
 30
0.0
 11
3.292918
 21
-8.986805
 31
0.0
 12
0.292918
 22
-8.486805
 32
0.0
 13
0.292918
 23
-8.486805
 33
0.0
  0
SOLID
  5
9C4E
100
AcDbEntity
  8
0
  6
BYBLOCK
 62
     0
100
AcDbTrace
 10
30.336896
 20
-7.986805
 30
0.0
 11
30.336896
 21
-8.986805
 31
0.0
 12
33.336896
 22
-8.486805
 32
0.0
 13
33.336896
 23
-8.486805
 33
0.0
  0
MTEXT
  5
9C4F
100
AcDbEntity
  8
0
  6
BYBLOCK
 62
     0
100
AcDbMText
 10
16.814907
 20
-6.236805
 30
0.0
 40
2.5
 41
0.0
 71
     5
 72
     1
  1
\A1;33
  0
POINT
  5
9C50
100
AcDbEntity
  8
DEFPOINTS
  6
BYBLOCK
 62
     0
100
AcDbPoint
 10
0.292918
 20
17.441295
 30
0.0
  0
POINT
  5
9C51
100
AcDbEntity
  8
DEFPOINTS
  6
BYBLOCK
 62
     0
100
AcDbPoint
 10
33.336896
 20
17.441295
 30
0.0
  0
POINT
  5
9C52
100
AcDbEntity
  8
DEFPOINTS
  6
BYBLOCK
 62
     0
100
AcDbPoint
 10
33.336896
 20
-8.486805
 30
0.0
  0
ENDBLK
  5
9C53
100
AcDbEntity
  8
0
100
AcDbBlockEnd
  0
BLOCK
  5
9C61
100
AcDbEntity
  8
0
100
AcDbBlockBegin
  2
*D8
 70
     1
 10
0.0
 20
0.0
 30
0.0
  3
*D8
  1

  0
LINE
  5
9C62
100
AcDbEntity
  8
0
  6
BYBLOCK
 62
     0
100
AcDbLine
 10
19.868903
 20
-0.110777
 30
0.0
 11
43.73912
 21
-0.110777
 31
0.0
  0
LINE
  5
9C63
100
AcDbEntity
  8
0
  6
BYBLOCK
 62
     0
100
AcDbLine
 10
26.246861
 20
44.950383
 30
0.0
 11
43.73912
 21
44.950383
 31
0.0
  0
LINE
  5
9C64
100
AcDbEntity
  8
0
  6
BYBLOCK
 62
     0
100
AcDbLine
 10
43.55912
 20
2.889223
 30
0.0
 11
43.55912
 21
41.950383
 31
0.0
  0
SOLID
  5
9C65
100
AcDbEntity
  8
0
  6
BYBLOCK
 62
     0
100
AcDbTrace
 10
43.05912
 20
2.889223
 30
0.0
 11
44.05912
 21
2.889223
 31
0.0
 12
43.55912
 22
-0.110777
 32
0.0
 13
43.55912
 23
-0.110777
 33
0.0
  0
SOLID
  5
9C66
100
AcDbEntity
  8
0
  6
BYBLOCK
 62
     0
100
AcDbTrace
 10
43.05912
 20
41.950383
 30
0.0
 11
44.05912
 21
41.950383
 31
0.0
 12
43.55912
 22
44.950383
 32
0.0
 13
43.55912
 23
44.950383
 33
0.0
  0
MTEXT
  5
9C67
100
AcDbEntity
  8
0
  6
BYBLOCK
 62
     0
100
AcDbMText
 10
41.30912
 20
22.419803
 30
0.0
 40
2.5
 41
0.0
 71
     5
 72
     1
  1
\A1;45
 11
0.0
 21
1.0
 31
0.0
  0
POINT
  5
9C68
100
AcDbEntity
  8
DEFPOINTS
  6
BYBLOCK
 62
     0
100
AcDbPoint
 10
19.806403
 20
-0.110777
 30
0.0
  0
POINT
  5
9C69
100
AcDbEntity
  8
DEFPOINTS
  6
BYBLOCK
 62
     0
100
AcDbPoint
 10
26.184361
 20
44.950383
 30
0.0
  0
POINT
  5
9C6A
100
AcDbEntity
  8
DEFPOINTS
  6
BYBLOCK
 62
     0
100
AcDbPoint
 10
43.55912
 20
44.950383
 30
0.0
  0
ENDBLK
  5
9C6B
100
AcDbEntity
  8
0
100
AcDbBlockEnd
  0
ENDSEC
  0
SECTION
  2
ENTITIES
  0
INSERT
  5
CC
100
AcDbEntity
  8
0
100
AcDbBlockReference
  2
SCH_IS
 10
-68.718396
 20
-140.042541
 30
0.0
  0
INSERT
  5
EC
100
AcDbEntity
  8
COTATION1
100
AcDbBlockReference
  2
SCH_IS
 10
0.0
 20
0.0
 30
0.0
  0
POLYLINE
  5
99B8
100
AcDbEntity
  8
ALPHA
100
AcDb2dPolyline
 66
     1
 10
0.0
 20
0.0
 30
0.0
  0
VERTEX
  5
99B9
100
AcDbEntity
  8
ALPHA
100
AcDbVertex
100
AcDb2dVertex
 10
0.292918
 20
17.441295
 30
0.0
  0
VERTEX
  5
99BA
100
AcDbEntity
  8
ALPHA
100
AcDbVertex
100
AcDb2dVertex
 10
0.292918
 20
31.489705
 30
0.0
  0
SEQEND
  5
99BB
100
AcDbEntity
  8
ALPHA
  0
POLYLINE
  5
99BC
100
AcDbEntity
  8
ALPHA
100
AcDb2dPolyline
 66
     1
 10
0.0
 20
0.0
 30
0.0
  0
VERTEX
  5
99BD
100
AcDbEntity
  8
ALPHA
100
AcDbVertex
100
AcDb2dVertex
 10
33.336896
 20
31.489705
 30
0.0
  0
VERTEX
  5
99BE
100
AcDbEntity
  8
ALPHA
100
AcDbVertex
100
AcDb2dVertex
 10
33.336896
 20
17.441295
 30
0.0
  0
SEQEND
  5
99BF
100
AcDbEntity
  8
ALPHA
  0
POLYLINE
  5
99C0
100
AcDbEntity
  8
ALPHA
100
AcDb2dPolyline
 66
     1
 10
0.0
 20
0.0
 30
0.0
  0
VERTEX
  5
99C1
100
AcDbEntity
  8
ALPHA
100
AcDbVertex
100
AcDb2dVertex
 10
10.680398
 20
2.694219
 30
0.0
  0
VERTEX
  5
99C2
100
AcDbEntity
  8
ALPHA
100
AcDbVertex
100
AcDb2dVertex
 10
22.587165
 20
2.694219
 30
0.0
  0
SEQEND
  5
99C3
100
AcDbEntity
  8
ALPHA
  0
POLYLINE
  5
99C4
100
AcDbEntity
  8
ALPHA
100
AcDb2dPolyline
 66
     1
 10
0.0
 20
0.0
 30
0.0
  0
VERTEX
  5
99C5
100
AcDbEntity
  8
ALPHA
100
AcDbVertex
100
AcDb2dVertex
 10
15.637201
 20
13.791905
 30
0.0
  0
VERTEX
  5
99C6
100
AcDbEntity
  8
ALPHA
100
AcDbVertex
100
AcDb2dVertex
 10
19.092804
 20
17.247681
 30
0.0
  0
SEQEND
  5
99C7
100
AcDbEntity
  8
ALPHA
  0
POLYLINE
  5
99C8
100
AcDbEntity
  8
ALPHA
100
AcDb2dPolyline
 66
     1
 10
0.0
 20
0.0
 30
0.0
  0
VERTEX
  5
99C9
100
AcDbEntity
  8
ALPHA
100
AcDbVertex
100
AcDb2dVertex
 10
17.326848
 20
13.791905
 30
0.0
  0
VERTEX
  5
99CA
100
AcDbEntity
  8
ALPHA
100
AcDbVertex
100
AcDb2dVertex
 10
20.782107
 20
17.247681
 30
0.0
  0
SEQEND
  5
99CB
100
AcDbEntity
  8
ALPHA
  0
POLYLINE
  5
99CC
100
AcDbEntity
  8
ALPHA
100
AcDb2dPolyline
 66
     1
 10
0.0
 20
0.0
 30
0.0
  0
VERTEX
  5
99CD
100
AcDbEntity
  8
ALPHA
100
AcDbVertex
100
AcDb2dVertex
 10
20.397634
 20
13.791905
 30
0.0
  0
VERTEX
  5
99CE
100
AcDbEntity
  8
ALPHA
100
AcDbVertex
100
AcDb2dVertex
 10
16.941859
 20
17.247681
 30
0.0
  0
SEQEND
  5
99CF
100
AcDbEntity
  8
ALPHA
  0
POLYLINE
  5
99D0
100
AcDbEntity
  8
ALPHA
100
AcDb2dPolyline
 66
     1
 10
0.0
 20
0.0
 30
0.0
  0
VERTEX
  5
99D1
100
AcDbEntity
  8
ALPHA
100
AcDbVertex
100
AcDb2dVertex
 10
18.709193
 20
13.791905
 30
0.0
  0
VERTEX
  5
99D2
100
AcDbEntity
  8
ALPHA
100
AcDbVertex
100
AcDb2dVertex
 10
15.25359
 20
17.247681
 30
0.0
  0
SEQEND
  5
99D3
100
AcDbEntity
  8
ALPHA
  0
POLYLINE
  5
99D4
100
AcDbEntity
  8
ALPHA
100
AcDb2dPolyline
 66
     1
 10
0.0
 20
0.0
 30
0.0
  0
VERTEX
  5
99D5
100
AcDbEntity
  8
ALPHA
100
AcDbVertex
100
AcDb2dVertex
 10
9.993446
 20
13.674428
 30
0.0
  0
VERTEX
  5
99D6
100
AcDbEntity
  8
ALPHA
100
AcDbVertex
100
AcDb2dVertex
 10
23.703548
 20
13.674428
 30
0.0
  0
SEQEND
  5
99D7
100
AcDbEntity
  8
ALPHA
  0
POLYLINE
  5
99D8
100
AcDbEntity
  8
ALPHA
100
AcDb2dPolyline
 66
     1
 10
0.0
 20
0.0
 30
0.0
  0
VERTEX
  5
99D9
100
AcDbEntity
  8
ALPHA
100
AcDbVertex
100
AcDb2dVertex
 10
11.75544
 20
-0.110777
 30
0.0
  0
VERTEX
  5
99DA
100
AcDbEntity
  8
ALPHA
100
AcDbVertex
100
AcDb2dVertex
 10
21.476466
 20
-0.110777
 30
0.0
  0
SEQEND
  5
99DB
100
AcDbEntity
  8
ALPHA
  0
POLYLINE
  5
99DC
100
AcDbEntity
  8
ALPHA
100
AcDb2dPolyline
 66
     1
 10
0.0
 20
0.0
 30
0.0
  0
VERTEX
  5
99DD
100
AcDbEntity
  8
ALPHA
100
AcDbVertex
100
AcDb2dVertex
 10
10.680398
 20
1.500149
 30
0.0
  0
VERTEX
  5
99DE
100
AcDbEntity
  8
ALPHA
100
AcDbVertex
100
AcDb2dVertex
 10
22.590093
 20
1.500149
 30
0.0
  0
SEQEND
  5
99DF
100
AcDbEntity
  8
ALPHA
  0
POLYLINE
  5
99E0
100
AcDbEntity
  8
ALPHA
100
AcDb2dPolyline
 66
     1
 10
0.0
 20
0.0
 30
0.0
  0
VERTEX
  5
99E1
100
AcDbEntity
  8
ALPHA
100
AcDbVertex
100
AcDb2dVertex
 10
33.336896
 20
17.441295
 30
0.0
  0
VERTEX
  5
99E2
100
AcDbEntity
  8
ALPHA
100
AcDbVertex
100
AcDb2dVertex
 10
0.292918
 20
17.441295
 30
0.0
  0
SEQEND
  5
99E3
100
AcDbEntity
  8
ALPHA
  0
POLYLINE
  5
99E4
100
AcDbEntity
  8
ALPHA
100
AcDb2dPolyline
 66
     1
 10
0.0
 20
0.0
 30
0.0
  0
VERTEX
  5
99E5
100
AcDbEntity
  8
ALPHA
100
AcDbVertex
100
AcDb2dVertex
 10
11.180281
 20
13.669605
 30
0.0
  0
VERTEX
  5
99E6
100
AcDbEntity
  8
ALPHA
100
AcDbVertex
100
AcDb2dVertex
 10
11.180281
 20
1.500149
 30
0.0
  0
SEQEND
  5
99E7
100
AcDbEntity
  8
ALPHA
  0
POLYLINE
  5
99E8
100
AcDbEntity
  8
ALPHA
100
AcDb2dPolyline
 66
     1
 10
0.0
 20
0.0
 30
0.0
  0
VERTEX
  5
99E9
100
AcDbEntity
  8
ALPHA
100
AcDbVertex
100
AcDb2dVertex
 10
10.680398
 20
13.669605
 30
0.0
  0
VERTEX
  5
99EA
100
AcDbEntity
  8
ALPHA
100
AcDbVertex
100
AcDb2dVertex
 10
10.680398
 20
1.500149
 30
0.0
  0
SEQEND
  5
99EB
100
AcDbEntity
  8
ALPHA
  0
POLYLINE
  5
99EC
100
AcDbEntity
  8
ALPHA
100
AcDb2dPolyline
 66
     1
 10
0.0
 20
0.0
 30
0.0
  0
VERTEX
  5
99ED
100
AcDbEntity
  8
ALPHA
100
AcDbVertex
100
AcDb2dVertex
 10
11.75544
 20
1.500149
 30
0.0
  0
VERTEX
  5
99EE
100
AcDbEntity
  8
ALPHA
100
AcDbVertex
100
AcDb2dVertex
 10
11.75544
 20
-0.110777
 30
0.0
  0
SEQEND
  5
99EF
100
AcDbEntity
  8
ALPHA
  0
POLYLINE
  5
99F0
100
AcDbEntity
  8
ALPHA
100
AcDb2dPolyline
 66
     1
 10
0.0
 20
0.0
 30
0.0
  0
VERTEX
  5
99F1
100
AcDbEntity
  8
ALPHA
100
AcDbVertex
100
AcDb2dVertex
 10
9.345596
 20
14.257338
 30
0.0
  0
VERTEX
  5
99F2
100
AcDbEntity
  8
ALPHA
100
AcDbVertex
100
AcDb2dVertex
 10
12.334561
 20
17.247681
 30
0.0
  0
SEQEND
  5
99F3
100
AcDbEntity
  8
ALPHA
  0
POLYLINE
  5
99F4
100
AcDbEntity
  8
ALPHA
100
AcDb2dPolyline
 66
     1
 10
0.0
 20
0.0
 30
0.0
  0
VERTEX
  5
99F5
100
AcDbEntity
  8
ALPHA
100
AcDbVertex
100
AcDb2dVertex
 10
10.569294
 20
13.791905
 30
0.0
  0
VERTEX
  5
99F6
100
AcDbEntity
  8
ALPHA
100
AcDbVertex
100
AcDb2dVertex
 10
14.024897
 20
17.247681
 30
0.0
  0
SEQEND
  5
99F7
100
AcDbEntity
  8
ALPHA
  0
POLYLINE
  5
99F8
100
AcDbEntity
  8
ALPHA
100
AcDb2dPolyline
 66
     1
 10
0.0
 20
0.0
 30
0.0
  0
VERTEX
  5
99F9
100
AcDbEntity
  8
ALPHA
100
AcDbVertex
100
AcDb2dVertex
 10
12.258596
 20
13.791905
 30
0.0
  0
VERTEX
  5
99FA
100
AcDbEntity
  8
ALPHA
100
AcDbVertex
100
AcDb2dVertex
 10
15.714199
 20
17.247681
 30
0.0
  0
SEQEND
  5
99FB
100
AcDbEntity
  8
ALPHA
  0
POLYLINE
  5
99FC
100
AcDbEntity
  8
ALPHA
100
AcDb2dPolyline
 66
     1
 10
0.0
 20
0.0
 30
0.0
  0
VERTEX
  5
99FD
100
AcDbEntity
  8
ALPHA
100
AcDbVertex
100
AcDb2dVertex
 10
13.947899
 20
13.791905
 30
0.0
  0
VERTEX
  5
99FE
100
AcDbEntity
  8
ALPHA
100
AcDbVertex
100
AcDb2dVertex
 10
17.403502
 20
17.247681
 30
0.0
  0
SEQEND
  5
99FF
100
AcDbEntity
  8
ALPHA
  0
POLYLINE
  5
9A00
100
AcDbEntity
  8
ALPHA
100
AcDb2dPolyline
 66
     1
 10
0.0
 20
0.0
 30
0.0
  0
VERTEX
  5
9A01
100
AcDbEntity
  8
ALPHA
100
AcDbVertex
100
AcDb2dVertex
 10
17.019029
 20
13.791905
 30
0.0
  0
VERTEX
  5
9A02
100
AcDbEntity
  8
ALPHA
100
AcDbVertex
100
AcDb2dVertex
 10
13.563254
 20
17.247681
 30
0.0
  0
SEQEND
  5
9A03
100
AcDbEntity
  8
ALPHA
  0
POLYLINE
  5
9A04
100
AcDbEntity
  8
ALPHA
100
AcDb2dPolyline
 66
     1
 10
0.0
 20
0.0
 30
0.0
  0
VERTEX
  5
9A05
100
AcDbEntity
  8
ALPHA
100
AcDbVertex
100
AcDb2dVertex
 10
15.330588
 20
13.791905
 30
0.0
  0
VERTEX
  5
9A06
100
AcDbEntity
  8
ALPHA
100
AcDbVertex
100
AcDb2dVertex
 10
11.873951
 20
17.247681
 30
0.0
  0
SEQEND
  5
9A07
100
AcDbEntity
  8
ALPHA
  0
POLYLINE
  5
9A08
100
AcDbEntity
  8
ALPHA
100
AcDb2dPolyline
 66
     1
 10
0.0
 20
0.0
 30
0.0
  0
VERTEX
  5
9A09
100
AcDbEntity
  8
ALPHA
100
AcDbVertex
100
AcDb2dVertex
 10
13.640252
 20
13.791905
 30
0.0
  0
VERTEX
  5
9A0A
100
AcDbEntity
  8
ALPHA
100
AcDbVertex
100
AcDb2dVertex
 10
10.184821
 20
17.247681
 30
0.0
  0
SEQEND
  5
9A0B
100
AcDbEntity
  8
ALPHA
  0
POLYLINE
  5
9A0C
100
AcDbEntity
  8
ALPHA
100
AcDb2dPolyline
 66
     1
 10
0.0
 20
0.0
 30
0.0
  0
VERTEX
  5
9A0D
100
AcDbEntity
  8
ALPHA
100
AcDbVertex
100
AcDb2dVertex
 10
11.951121
 20
13.791905
 30
0.0
  0
VERTEX
  5
9A0E
100
AcDbEntity
  8
ALPHA
100
AcDbVertex
100
AcDb2dVertex
 10
9.29702
 20
16.446696
 30
0.0
  0
SEQEND
  5
9A0F
100
AcDbEntity
  8
ALPHA
  0
POLYLINE
  5
9A10
100
AcDbEntity
  8
ALPHA
100
AcDb2dPolyline
 66
     1
 10
0.0
 20
0.0
 30
0.0
  0
VERTEX
  5
9A11
100
AcDbEntity
  8
ALPHA
100
AcDbVertex
100
AcDb2dVertex
 10
9.182298
 20
17.417524
 30
0.0
  0
VERTEX
  5
9A12
100
AcDbEntity
  8
ALPHA
100
AcDbVertex
100
AcDb2dVertex
 10
9.182298
 20
13.674428
 30
0.0
  0
SEQEND
  5
9A13
100
AcDbEntity
  8
ALPHA
  0
POLYLINE
  5
9A14
100
AcDbEntity
  8
ALPHA
100
AcDb2dPolyline
 66
     1
 10
0.0
 20
0.0
 30
0.0
  0
VERTEX
  5
9A15
100
AcDbEntity
  8
ALPHA
100
AcDbVertex
100
AcDb2dVertex
 10
10.261819
 20
13.791905
 30
0.0
  0
VERTEX
  5
9A16
100
AcDbEntity
  8
ALPHA
100
AcDbVertex
100
AcDb2dVertex
 10
9.23518
 20
14.819922
 30
0.0
  0
SEQEND
  5
9A17
100
AcDbEntity
  8
ALPHA
  0
POLYLINE
  5
9A18
100
AcDbEntity
  8
ALPHA
100
AcDb2dPolyline
 66
     1
 10
0.0
 20
0.0
 30
0.0
  0
VERTEX
  5
9A19
100
AcDbEntity
  8
ALPHA
100
AcDbVertex
100
AcDb2dVertex
 10
9.182298
 20
13.674428
 30
0.0
  0
VERTEX
  5
9A1A
100
AcDbEntity
  8
ALPHA
100
AcDbVertex
100
AcDb2dVertex
 10
9.993446
 20
13.674428
 30
0.0
  0
SEQEND
  5
9A1B
100
AcDbEntity
  8
ALPHA
  0
POLYLINE
  5
9A1C
100
AcDbEntity
  8
ALPHA
100
AcDb2dPolyline
 66
     1
 10
0.0
 20
0.0
 30
0.0
  0
VERTEX
  5
9A1D
100
AcDbEntity
  8
ALPHA
100
AcDbVertex
100
AcDb2dVertex
 10
9.384008
 20
15.985053
 30
0.0
  0
VERTEX
  5
9A1E
100
AcDbEntity
  8
ALPHA
100
AcDbVertex
100
AcDb2dVertex
 10
10.645258
 20
17.247681
 30
0.0
  0
SEQEND
  5
9A1F
100
AcDbEntity
  8
ALPHA
  0
POLYLINE
  5
9A20
100
AcDbEntity
  8
ALPHA
100
AcDb2dPolyline
 66
     1
 10
0.0
 20
0.0
 30
0.0
  0
VERTEX
  5
9A21
100
AcDbEntity
  8
ALPHA
100
AcDbVertex
100
AcDb2dVertex
 10
22.09021
 20
13.669605
 30
0.0
  0
VERTEX
  5
9A22
100
AcDbEntity
  8
ALPHA
100
AcDbVertex
100
AcDb2dVertex
 10
22.09021
 20
1.500149
 30
0.0
  0
SEQEND
  5
9A23
100
AcDbEntity
  8
ALPHA
  0
POLYLINE
  5
9A24
100
AcDbEntity
  8
ALPHA
100
AcDb2dPolyline
 66
     1
 10
0.0
 20
0.0
 30
0.0
  0
VERTEX
  5
9A25
100
AcDbEntity
  8
ALPHA
100
AcDbVertex
100
AcDb2dVertex
 10
22.590093
 20
1.500149
 30
0.0
  0
VERTEX
  5
9A26
100
AcDbEntity
  8
ALPHA
100
AcDbVertex
100
AcDb2dVertex
 10
22.590093
 20
13.669605
 30
0.0
  0
SEQEND
  5
9A27
100
AcDbEntity
  8
ALPHA
  0
POLYLINE
  5
9A28
100
AcDbEntity
  8
ALPHA
100
AcDb2dPolyline
 66
     1
 10
0.0
 20
0.0
 30
0.0
  0
VERTEX
  5
9A29
100
AcDbEntity
  8
ALPHA
100
AcDbVertex
100
AcDb2dVertex
 10
21.476466
 20
-0.110777
 30
0.0
  0
VERTEX
  5
9A2A
100
AcDbEntity
  8
ALPHA
100
AcDbVertex
100
AcDb2dVertex
 10
21.476466
 20
1.500149
 30
0.0
  0
SEQEND
  5
9A2B
100
AcDbEntity
  8
ALPHA
  0
POLYLINE
  5
9A2C
100
AcDbEntity
  8
ALPHA
100
AcDb2dPolyline
 66
     1
 10
0.0
 20
0.0
 30
0.0
  0
VERTEX
  5
9A2D
100
AcDbEntity
  8
ALPHA
100
AcDbVertex
100
AcDb2dVertex
 10
19.016151
 20
13.791905
 30
0.0
  0
VERTEX
  5
9A2E
100
AcDbEntity
  8
ALPHA
100
AcDbVertex
100
AcDb2dVertex
 10
22.471926
 20
17.247681
 30
0.0
  0
SEQEND
  5
9A2F
100
AcDbEntity
  8
ALPHA
  0
POLYLINE
  5
9A30
100
AcDbEntity
  8
ALPHA
100
AcDb2dPolyline
 66
     1
 10
0.0
 20
0.0
 30
0.0
  0
VERTEX
  5
9A31
100
AcDbEntity
  8
ALPHA
100
AcDbVertex
100
AcDb2dVertex
 10
20.705454
 20
13.791905
 30
0.0
  0
VERTEX
  5
9A32
100
AcDbEntity
  8
ALPHA
100
AcDbVertex
100
AcDb2dVertex
 10
23.546796
 20
16.633765
 30
0.0
  0
SEQEND
  5
9A33
100
AcDbEntity
  8
ALPHA
  0
POLYLINE
  5
9A34
100
AcDbEntity
  8
ALPHA
100
AcDb2dPolyline
 66
     1
 10
0.0
 20
0.0
 30
0.0
  0
VERTEX
  5
9A35
100
AcDbEntity
  8
ALPHA
100
AcDbVertex
100
AcDb2dVertex
 10
23.469626
 20
14.100241
 30
0.0
  0
VERTEX
  5
9A36
100
AcDbEntity
  8
ALPHA
100
AcDbVertex
100
AcDb2dVertex
 10
20.322014
 20
17.247681
 30
0.0
  0
SEQEND
  5
9A37
100
AcDbEntity
  8
ALPHA
  0
POLYLINE
  5
9A38
100
AcDbEntity
  8
ALPHA
100
AcDb2dPolyline
 66
     1
 10
0.0
 20
0.0
 30
0.0
  0
VERTEX
  5
9A39
100
AcDbEntity
  8
ALPHA
100
AcDbVertex
100
AcDb2dVertex
 10
22.08797
 20
13.791905
 30
0.0
  0
VERTEX
  5
9A3A
100
AcDbEntity
  8
ALPHA
100
AcDbVertex
100
AcDb2dVertex
 10
18.632712
 20
17.247681
 30
0.0
  0
SEQEND
  5
9A3B
100
AcDbEntity
  8
ALPHA
  0
POLYLINE
  5
9A3C
100
AcDbEntity
  8
ALPHA
100
AcDb2dPolyline
 66
     1
 10
0.0
 20
0.0
 30
0.0
  0
VERTEX
  5
9A3D
100
AcDbEntity
  8
ALPHA
100
AcDbVertex
100
AcDb2dVertex
 10
23.703548
 20
13.674428
 30
0.0
  0
VERTEX
  5
9A3E
100
AcDbEntity
  8
ALPHA
100
AcDbVertex
100
AcDb2dVertex
 10
23.703548
 20
17.417524
 30
0.0
  0
SEQEND
  5
9A3F
100
AcDbEntity
  8
ALPHA
  0
POLYLINE
  5
9A40
100
AcDbEntity
  8
ALPHA
100
AcDb2dPolyline
 66
     1
 10
0.0
 20
0.0
 30
0.0
  0
VERTEX
  5
9A41
100
AcDbEntity
  8
ALPHA
100
AcDbVertex
100
AcDb2dVertex
 10
22.394756
 20
13.791905
 30
0.0
  0
VERTEX
  5
9A42
100
AcDbEntity
  8
ALPHA
100
AcDbVertex
100
AcDb2dVertex
 10
23.623449
 20
15.02146
 30
0.0
  0
SEQEND
  5
9A43
100
AcDbEntity
  8
ALPHA
  0
POLYLINE
  5
9A44
100
AcDbEntity
  8
ALPHA
100
AcDb2dPolyline
 66
     1
 10
0.0
 20
0.0
 30
0.0
  0
VERTEX
  5
9A45
100
AcDbEntity
  8
ALPHA
100
AcDbVertex
100
AcDb2dVertex
 10
23.546796
 20
15.712546
 30
0.0
  0
VERTEX
  5
9A46
100
AcDbEntity
  8
ALPHA
100
AcDbVertex
100
AcDb2dVertex
 10
22.011317
 20
17.247681
 30
0.0
  0
SEQEND
  5
9A47
100
AcDbEntity
  8
ALPHA
  0
POLYLINE
  5
9A48
100
AcDbEntity
  8
ALPHA
100
AcDb2dPolyline
 66
     1
 10
0.0
 20
0.0
 30
0.0
  0
VERTEX
  5
9A49
100
AcDbEntity
  8
ALPHA
100
AcDbVertex
100
AcDb2dVertex
 10
14.287068
 20
35.462934
 30
0.0
  0
VERTEX
  5
9A4A
100
AcDbEntity
  8
ALPHA
100
AcDbVertex
100
AcDb2dVertex
 10
18.837006
 20
35.462934
 30
0.0
  0
SEQEND
  5
9A4B
100
AcDbEntity
  8
ALPHA
  0
POLYLINE
  5
9A4C
100
AcDbEntity
  8
ALPHA
100
AcDb2dPolyline
 66
     1
 10
0.0
 20
0.0
 30
0.0
  0
VERTEX
  5
9A4D
100
AcDbEntity
  8
ALPHA
100
AcDbVertex
100
AcDb2dVertex
 10
3.378518
 20
36.482338
 30
0.0
  0
VERTEX
  5
9A4E
100
AcDbEntity
  8
ALPHA
100
AcDbVertex
100
AcDb2dVertex
 10
5.871389
 20
39.263908
 30
0.0
  0
SEQEND
  5
9A4F
100
AcDbEntity
  8
ALPHA
  0
POLYLINE
  5
9A50
100
AcDbEntity
  8
ALPHA
100
AcDb2dPolyline
 66
     1
 10
0.0
 20
0.0
 30
0.0
  0
VERTEX
  5
9A51
100
AcDbEntity
  8
ALPHA
100
AcDbVertex
100
AcDb2dVertex
 10
4.596704
 20
36.482338
 30
0.0
  0
VERTEX
  5
9A52
100
AcDbEntity
  8
ALPHA
100
AcDbVertex
100
AcDb2dVertex
 10
7.08923
 20
39.263908
 30
0.0
  0
SEQEND
  5
9A53
100
AcDbEntity
  8
ALPHA
  0
POLYLINE
  5
9A54
100
AcDbEntity
  8
ALPHA
100
AcDb2dPolyline
 66
     1
 10
0.0
 20
0.0
 30
0.0
  0
VERTEX
  5
9A55
100
AcDbEntity
  8
ALPHA
100
AcDbVertex
100
AcDb2dVertex
 10
5.815579
 20
36.482338
 30
0.0
  0
VERTEX
  5
9A56
100
AcDbEntity
  8
ALPHA
100
AcDbVertex
100
AcDb2dVertex
 10
8.307416
 20
39.263908
 30
0.0
  0
SEQEND
  5
9A57
100
AcDbEntity
  8
ALPHA
  0
POLYLINE
  5
9A58
100
AcDbEntity
  8
ALPHA
100
AcDb2dPolyline
 66
     1
 10
0.0
 20
0.0
 30
0.0
  0
VERTEX
  5
9A59
100
AcDbEntity
  8
ALPHA
100
AcDbVertex
100
AcDb2dVertex
 10
7.034281
 20
36.482338
 30
0.0
  0
VERTEX
  5
9A5A
100
AcDbEntity
  8
ALPHA
100
AcDbVertex
100
AcDb2dVertex
 10
9.526291
 20
39.263908
 30
0.0
  0
SEQEND
  5
9A5B
100
AcDbEntity
  8
ALPHA
  0
POLYLINE
  5
9A5C
100
AcDbEntity
  8
ALPHA
100
AcDb2dPolyline
 66
     1
 10
0.0
 20
0.0
 30
0.0
  0
VERTEX
  5
9A5D
100
AcDbEntity
  8
ALPHA
100
AcDbVertex
100
AcDb2dVertex
 10
8.253156
 20
36.482338
 30
0.0
  0
VERTEX
  5
9A5E
100
AcDbEntity
  8
ALPHA
100
AcDbVertex
100
AcDb2dVertex
 10
10.744993
 20
39.263908
 30
0.0
  0
SEQEND
  5
9A5F
100
AcDbEntity
  8
ALPHA
  0
POLYLINE
  5
9A60
100
AcDbEntity
  8
ALPHA
100
AcDb2dPolyline
 66
     1
 10
0.0
 20
0.0
 30
0.0
  0
VERTEX
  5
9A61
100
AcDbEntity
  8
ALPHA
100
AcDbVertex
100
AcDb2dVertex
 10
9.47048
 20
36.482338
 30
0.0
  0
VERTEX
  5
9A62
100
AcDbEntity
  8
ALPHA
100
AcDbVertex
100
AcDb2dVertex
 10
11.962835
 20
39.263908
 30
0.0
  0
SEQEND
  5
9A63
100
AcDbEntity
  8
ALPHA
  0
POLYLINE
  5
9A64
100
AcDbEntity
  8
ALPHA
100
AcDb2dPolyline
 66
     1
 10
0.0
 20
0.0
 30
0.0
  0
VERTEX
  5
9A65
100
AcDbEntity
  8
ALPHA
100
AcDbVertex
100
AcDb2dVertex
 10
10.689183
 20
36.482338
 30
0.0
  0
VERTEX
  5
9A66
100
AcDbEntity
  8
ALPHA
100
AcDbVertex
100
AcDb2dVertex
 10
12.739187
 20
38.77057
 30
0.0
  0
SEQEND
  5
9A67
100
AcDbEntity
  8
ALPHA
  0
POLYLINE
  5
9A68
100
AcDbEntity
  8
ALPHA
100
AcDb2dPolyline
 66
     1
 10
0.0
 20
0.0
 30
0.0
  0
VERTEX
  5
9A69
100
AcDbEntity
  8
ALPHA
100
AcDbVertex
100
AcDb2dVertex
 10
11.907024
 20
36.482338
 30
0.0
  0
VERTEX
  5
9A6A
100
AcDbEntity
  8
ALPHA
100
AcDbVertex
100
AcDb2dVertex
 10
12.793619
 20
37.471769
 30
0.0
  0
SEQEND
  5
9A6B
100
AcDbEntity
  8
ALPHA
  0
POLYLINE
  5
9A6C
100
AcDbEntity
  8
ALPHA
100
AcDb2dPolyline
 66
     1
 10
0.0
 20
0.0
 30
0.0
  0
VERTEX
  5
9A6D
100
AcDbEntity
  8
ALPHA
100
AcDbVertex
100
AcDb2dVertex
 10
11.686538
 20
36.482338
 30
0.0
  0
VERTEX
  5
9A6E
100
AcDbEntity
  8
ALPHA
100
AcDbVertex
100
AcDb2dVertex
 10
9.194184
 20
39.263908
 30
0.0
  0
SEQEND
  5
9A6F
100
AcDbEntity
  8
ALPHA
  0
POLYLINE
  5
9A70
100
AcDbEntity
  8
ALPHA
100
AcDb2dPolyline
 66
     1
 10
0.0
 20
0.0
 30
0.0
  0
VERTEX
  5
9A71
100
AcDbEntity
  8
ALPHA
100
AcDbVertex
100
AcDb2dVertex
 10
10.467836
 20
36.482338
 30
0.0
  0
VERTEX
  5
9A72
100
AcDbEntity
  8
ALPHA
100
AcDbVertex
100
AcDb2dVertex
 10
7.975826
 20
39.263908
 30
0.0
  0
SEQEND
  5
9A73
100
AcDbEntity
  8
ALPHA
  0
POLYLINE
  5
9A74
100
AcDbEntity
  8
ALPHA
100
AcDb2dPolyline
 66
     1
 10
0.0
 20
0.0
 30
0.0
  0
VERTEX
  5
9A75
100
AcDbEntity
  8
ALPHA
100
AcDbVertex
100
AcDb2dVertex
 10
9.248961
 20
36.482338
 30
0.0
  0
VERTEX
  5
9A76
100
AcDbEntity
  8
ALPHA
100
AcDbVertex
100
AcDb2dVertex
 10
6.757123
 20
39.263908
 30
0.0
  0
SEQEND
  5
9A77
100
AcDbEntity
  8
ALPHA
  0
POLYLINE
  5
9A78
100
AcDbEntity
  8
ALPHA
100
AcDb2dPolyline
 66
     1
 10
0.0
 20
0.0
 30
0.0
  0
VERTEX
  5
9A79
100
AcDbEntity
  8
ALPHA
100
AcDbVertex
100
AcDb2dVertex
 10
8.031119
 20
36.482338
 30
0.0
  0
VERTEX
  5
9A7A
100
AcDbEntity
  8
ALPHA
100
AcDbVertex
100
AcDb2dVertex
 10
5.538248
 20
39.263908
 30
0.0
  0
SEQEND
  5
9A7B
100
AcDbEntity
  8
ALPHA
  0
POLYLINE
  5
9A7C
100
AcDbEntity
  8
ALPHA
100
AcDb2dPolyline
 66
     1
 10
0.0
 20
0.0
 30
0.0
  0
VERTEX
  5
9A7D
100
AcDbEntity
  8
ALPHA
100
AcDbVertex
100
AcDb2dVertex
 10
6.812417
 20
36.482338
 30
0.0
  0
VERTEX
  5
9A7E
100
AcDbEntity
  8
ALPHA
100
AcDbVertex
100
AcDb2dVertex
 10
4.320407
 20
39.263908
 30
0.0
  0
SEQEND
  5
9A7F
100
AcDbEntity
  8
ALPHA
  0
POLYLINE
  5
9A80
100
AcDbEntity
  8
ALPHA
100
AcDb2dPolyline
 66
     1
 10
0.0
 20
0.0
 30
0.0
  0
VERTEX
  5
9A81
100
AcDbEntity
  8
ALPHA
100
AcDbVertex
100
AcDb2dVertex
 10
5.594059
 20
36.482338
 30
0.0
  0
VERTEX
  5
9A82
100
AcDbEntity
  8
ALPHA
100
AcDbVertex
100
AcDb2dVertex
 10
3.101705
 20
39.263908
 30
0.0
  0
SEQEND
  5
9A83
100
AcDbEntity
  8
ALPHA
  0
POLYLINE
  5
9A84
100
AcDbEntity
  8
ALPHA
100
AcDb2dPolyline
 66
     1
 10
0.0
 20
0.0
 30
0.0
  0
VERTEX
  5
9A85
100
AcDbEntity
  8
ALPHA
100
AcDbVertex
100
AcDb2dVertex
 10
4.376218
 20
36.482338
 30
0.0
  0
VERTEX
  5
9A86
100
AcDbEntity
  8
ALPHA
100
AcDbVertex
100
AcDb2dVertex
 10
2.461089
 20
38.619331
 30
0.0
  0
SEQEND
  5
9A87
100
AcDbEntity
  8
ALPHA
  0
POLYLINE
  5
9A88
100
AcDbEntity
  8
ALPHA
100
AcDb2dPolyline
 66
     1
 10
0.0
 20
0.0
 30
0.0
  0
VERTEX
  5
9A89
100
AcDbEntity
  8
ALPHA
100
AcDbVertex
100
AcDb2dVertex
 10
3.157515
 20
36.482338
 30
0.0
  0
VERTEX
  5
9A8A
100
AcDbEntity
  8
ALPHA
100
AcDbVertex
100
AcDb2dVertex
 10
2.41682
 20
37.30985
 30
0.0
  0
SEQEND
  5
9A8B
100
AcDbEntity
  8
ALPHA
  0
POLYLINE
  5
9A8C
100
AcDbEntity
  8
ALPHA
100
AcDb2dPolyline
 66
     1
 10
0.0
 20
0.0
 30
0.0
  0
VERTEX
  5
9A8D
100
AcDbEntity
  8
ALPHA
100
AcDbVertex
100
AcDb2dVertex
 10
12.851497
 20
31.489705
 30
0.0
  0
VERTEX
  5
9A8E
100
AcDbEntity
  8
ALPHA
100
AcDbVertex
100
AcDb2dVertex
 10
12.851497
 20
43.223356
 30
0.0
  0
SEQEND
  5
9A8F
100
AcDbEntity
  8
ALPHA
  0
POLYLINE
  5
9A90
100
AcDbEntity
  8
ALPHA
100
AcDb2dPolyline
 66
     1
 10
0.0
 20
0.0
 30
0.0
  0
VERTEX
  5
9A91
100
AcDbEntity
  8
ALPHA
100
AcDbVertex
100
AcDb2dVertex
 10
2.379096
 20
43.223356
 30
0.0
  0
VERTEX
  5
9A92
100
AcDbEntity
  8
ALPHA
100
AcDbVertex
100
AcDb2dVertex
 10
2.379096
 20
31.489705
 30
0.0
  0
SEQEND
  5
9A93
100
AcDbEntity
  8
ALPHA
  0
POLYLINE
  5
9A94
100
AcDbEntity
  8
ALPHA
100
AcDb2dPolyline
 66
     1
 10
0.0
 20
0.0
 30
0.0
  0
VERTEX
  5
9A95
100
AcDbEntity
  8
ALPHA
100
AcDbVertex
100
AcDb2dVertex
 10
2.40235
 20
32.895993
 30
0.0
  0
VERTEX
  5
9A96
100
AcDbEntity
  8
ALPHA
100
AcDbVertex
100
AcDb2dVertex
 10
12.766403
 20
32.895993
 30
0.0
  0
SEQEND
  5
9A97
100
AcDbEntity
  8
ALPHA
  0
POLYLINE
  5
9A98
100
AcDbEntity
  8
ALPHA
100
AcDb2dPolyline
 66
     1
 10
0.0
 20
0.0
 30
0.0
  0
VERTEX
  5
9A99
100
AcDbEntity
  8
ALPHA
100
AcDbVertex
100
AcDb2dVertex
 10
2.495885
 20
33.394154
 30
0.0
  0
VERTEX
  5
9A9A
100
AcDbEntity
  8
ALPHA
100
AcDbVertex
100
AcDb2dVertex
 10
4.652514
 20
35.801931
 30
0.0
  0
SEQEND
  5
9A9B
100
AcDbEntity
  8
ALPHA
  0
POLYLINE
  5
9A9C
100
AcDbEntity
  8
ALPHA
100
AcDb2dPolyline
 66
     1
 10
0.0
 20
0.0
 30
0.0
  0
VERTEX
  5
9A9D
100
AcDbEntity
  8
ALPHA
100
AcDbVertex
100
AcDb2dVertex
 10
3.378518
 20
33.019328
 30
0.0
  0
VERTEX
  5
9A9E
100
AcDbEntity
  8
ALPHA
100
AcDbVertex
100
AcDb2dVertex
 10
5.871389
 20
35.801931
 30
0.0
  0
SEQEND
  5
9A9F
100
AcDbEntity
  8
ALPHA
  0
POLYLINE
  5
9AA0
100
AcDbEntity
  8
ALPHA
100
AcDb2dPolyline
 66
     1
 10
0.0
 20
0.0
 30
0.0
  0
VERTEX
  5
9AA1
100
AcDbEntity
  8
ALPHA
100
AcDbVertex
100
AcDb2dVertex
 10
6.812417
 20
33.019328
 30
0.0
  0
VERTEX
  5
9AA2
100
AcDbEntity
  8
ALPHA
100
AcDbVertex
100
AcDb2dVertex
 10
4.320407
 20
35.801931
 30
0.0
  0
SEQEND
  5
9AA3
100
AcDbEntity
  8
ALPHA
  0
POLYLINE
  5
9AA4
100
AcDbEntity
  8
ALPHA
100
AcDb2dPolyline
 66
     1
 10
0.0
 20
0.0
 30
0.0
  0
VERTEX
  5
9AA5
100
AcDbEntity
  8
ALPHA
100
AcDbVertex
100
AcDb2dVertex
 10
5.594059
 20
33.019328
 30
0.0
  0
VERTEX
  5
9AA6
100
AcDbEntity
  8
ALPHA
100
AcDbVertex
100
AcDb2dVertex
 10
3.101705
 20
35.801931
 30
0.0
  0
SEQEND
  5
9AA7
100
AcDbEntity
  8
ALPHA
  0
POLYLINE
  5
9AA8
100
AcDbEntity
  8
ALPHA
100
AcDb2dPolyline
 66
     1
 10
0.0
 20
0.0
 30
0.0
  0
VERTEX
  5
9AA9
100
AcDbEntity
  8
ALPHA
100
AcDbVertex
100
AcDb2dVertex
 10
2.436973
 20
35.807788
 30
0.0
  0
VERTEX
  5
9AAA
100
AcDbEntity
  8
ALPHA
100
AcDbVertex
100
AcDb2dVertex
 10
12.849602
 20
35.807788
 30
0.0
  0
SEQEND
  5
9AAB
100
AcDbEntity
  8
ALPHA
  0
POLYLINE
  5
9AAC
100
AcDbEntity
  8
ALPHA
100
AcDb2dPolyline
 66
     1
 10
0.0
 20
0.0
 30
0.0
  0
VERTEX
  5
9AAD
100
AcDbEntity
  8
ALPHA
100
AcDbVertex
100
AcDb2dVertex
 10
2.436973
 20
36.48785
 30
0.0
  0
VERTEX
  5
9AAE
100
AcDbEntity
  8
ALPHA
100
AcDbVertex
100
AcDb2dVertex
 10
12.849602
 20
36.48785
 30
0.0
  0
SEQEND
  5
9AAF
100
AcDbEntity
  8
ALPHA
  0
POLYLINE
  5
9AB0
100
AcDbEntity
  8
ALPHA
100
AcDb2dPolyline
 66
     1
 10
0.0
 20
0.0
 30
0.0
  0
VERTEX
  5
9AB1
100
AcDbEntity
  8
ALPHA
100
AcDbVertex
100
AcDb2dVertex
 10
0.292918
 20
31.489705
 30
0.0
  0
VERTEX
  5
9AB2
100
AcDbEntity
  8
ALPHA
100
AcDbVertex
100
AcDb2dVertex
 10
14.287068
 20
31.489705
 30
0.0
  0
SEQEND
  5
9AB3
100
AcDbEntity
  8
ALPHA
  0
POLYLINE
  5
9AB4
100
AcDbEntity
  8
ALPHA
100
AcDb2dPolyline
 66
     1
 10
0.0
 20
0.0
 30
0.0
  0
VERTEX
  5
9AB5
100
AcDbEntity
  8
ALPHA
100
AcDbVertex
100
AcDb2dVertex
 10
4.376218
 20
33.019328
 30
0.0
  0
VERTEX
  5
9AB6
100
AcDbEntity
  8
ALPHA
100
AcDbVertex
100
AcDb2dVertex
 10
2.461089
 20
35.156665
 30
0.0
  0
SEQEND
  5
9AB7
100
AcDbEntity
  8
ALPHA
  0
POLYLINE
  5
9AB8
100
AcDbEntity
  8
ALPHA
100
AcDb2dPolyline
 66
     1
 10
0.0
 20
0.0
 30
0.0
  0
VERTEX
  5
9AB9
100
AcDbEntity
  8
ALPHA
100
AcDbVertex
100
AcDb2dVertex
 10
3.157515
 20
33.019328
 30
0.0
  0
VERTEX
  5
9ABA
100
AcDbEntity
  8
ALPHA
100
AcDbVertex
100
AcDb2dVertex
 10
2.41682
 20
33.84684
 30
0.0
  0
SEQEND
  5
9ABB
100
AcDbEntity
  8
ALPHA
  0
POLYLINE
  5
9ABC
100
AcDbEntity
  8
ALPHA
100
AcDb2dPolyline
 66
     1
 10
0.0
 20
0.0
 30
0.0
  0
VERTEX
  5
9ABD
100
AcDbEntity
  8
ALPHA
100
AcDbVertex
100
AcDb2dVertex
 10
2.523962
 20
34.785973
 30
0.0
  0
VERTEX
  5
9ABE
100
AcDbEntity
  8
ALPHA
100
AcDbVertex
100
AcDb2dVertex
 10
3.433812
 20
35.801931
 30
0.0
  0
SEQEND
  5
9ABF
100
AcDbEntity
  8
ALPHA
  0
POLYLINE
  5
9AC0
100
AcDbEntity
  8
ALPHA
100
AcDb2dPolyline
 66
     1
 10
0.0
 20
0.0
 30
0.0
  0
VERTEX
  5
9AC1
100
AcDbEntity
  8
ALPHA
100
AcDbVertex
100
AcDb2dVertex
 10
9.47048
 20
33.019328
 30
0.0
  0
VERTEX
  5
9AC2
100
AcDbEntity
  8
ALPHA
100
AcDbVertex
100
AcDb2dVertex
 10
11.962835
 20
35.801931
 30
0.0
  0
SEQEND
  5
9AC3
100
AcDbEntity
  8
ALPHA
  0
POLYLINE
  5
9AC4
100
AcDbEntity
  8
ALPHA
100
AcDb2dPolyline
 66
     1
 10
0.0
 20
0.0
 30
0.0
  0
VERTEX
  5
9AC5
100
AcDbEntity
  8
ALPHA
100
AcDbVertex
100
AcDb2dVertex
 10
10.689183
 20
33.019328
 30
0.0
  0
VERTEX
  5
9AC6
100
AcDbEntity
  8
ALPHA
100
AcDbVertex
100
AcDb2dVertex
 10
12.739187
 20
35.307905
 30
0.0
  0
SEQEND
  5
9AC7
100
AcDbEntity
  8
ALPHA
  0
POLYLINE
  5
9AC8
100
AcDbEntity
  8
ALPHA
100
AcDb2dPolyline
 66
     1
 10
0.0
 20
0.0
 30
0.0
  0
VERTEX
  5
9AC9
100
AcDbEntity
  8
ALPHA
100
AcDbVertex
100
AcDb2dVertex
 10
12.682515
 20
33.267719
 30
0.0
  0
VERTEX
  5
9ACA
100
AcDbEntity
  8
ALPHA
100
AcDbVertex
100
AcDb2dVertex
 10
10.412025
 20
35.801931
 30
0.0
  0
SEQEND
  5
9ACB
100
AcDbEntity
  8
ALPHA
  0
POLYLINE
  5
9ACC
100
AcDbEntity
  8
ALPHA
100
AcDb2dPolyline
 66
     1
 10
0.0
 20
0.0
 30
0.0
  0
VERTEX
  5
9ACD
100
AcDbEntity
  8
ALPHA
100
AcDbVertex
100
AcDb2dVertex
 10
11.686538
 20
33.019328
 30
0.0
  0
VERTEX
  5
9ACE
100
AcDbEntity
  8
ALPHA
100
AcDbVertex
100
AcDb2dVertex
 10
9.194184
 20
35.801931
 30
0.0
  0
SEQEND
  5
9ACF
100
AcDbEntity
  8
ALPHA
  0
POLYLINE
  5
9AD0
100
AcDbEntity
  8
ALPHA
100
AcDb2dPolyline
 66
     1
 10
0.0
 20
0.0
 30
0.0
  0
VERTEX
  5
9AD1
100
AcDbEntity
  8
ALPHA
100
AcDbVertex
100
AcDb2dVertex
 10
5.815579
 20
33.019328
 30
0.0
  0
VERTEX
  5
9AD2
100
AcDbEntity
  8
ALPHA
100
AcDbVertex
100
AcDb2dVertex
 10
8.307416
 20
35.801931
 30
0.0
  0
SEQEND
  5
9AD3
100
AcDbEntity
  8
ALPHA
  0
POLYLINE
  5
9AD4
100
AcDbEntity
  8
ALPHA
100
AcDb2dPolyline
 66
     1
 10
0.0
 20
0.0
 30
0.0
  0
VERTEX
  5
9AD5
100
AcDbEntity
  8
ALPHA
100
AcDbVertex
100
AcDb2dVertex
 10
7.034281
 20
33.019328
 30
0.0
  0
VERTEX
  5
9AD6
100
AcDbEntity
  8
ALPHA
100
AcDbVertex
100
AcDb2dVertex
 10
9.526291
 20
35.801931
 30
0.0
  0
SEQEND
  5
9AD7
100
AcDbEntity
  8
ALPHA
  0
POLYLINE
  5
9AD8
100
AcDbEntity
  8
ALPHA
100
AcDb2dPolyline
 66
     1
 10
0.0
 20
0.0
 30
0.0
  0
VERTEX
  5
9AD9
100
AcDbEntity
  8
ALPHA
100
AcDbVertex
100
AcDb2dVertex
 10
9.248961
 20
33.019328
 30
0.0
  0
VERTEX
  5
9ADA
100
AcDbEntity
  8
ALPHA
100
AcDbVertex
100
AcDb2dVertex
 10
6.757123
 20
35.801931
 30
0.0
  0
SEQEND
  5
9ADB
100
AcDbEntity
  8
ALPHA
  0
POLYLINE
  5
9ADC
100
AcDbEntity
  8
ALPHA
100
AcDb2dPolyline
 66
     1
 10
0.0
 20
0.0
 30
0.0
  0
VERTEX
  5
9ADD
100
AcDbEntity
  8
ALPHA
100
AcDbVertex
100
AcDb2dVertex
 10
8.031119
 20
33.019328
 30
0.0
  0
VERTEX
  5
9ADE
100
AcDbEntity
  8
ALPHA
100
AcDbVertex
100
AcDb2dVertex
 10
5.538248
 20
35.801931
 30
0.0
  0
SEQEND
  5
9ADF
100
AcDbEntity
  8
ALPHA
  0
POLYLINE
  5
9AE0
100
AcDbEntity
  8
ALPHA
100
AcDb2dPolyline
 66
     1
 10
0.0
 20
0.0
 30
0.0
  0
VERTEX
  5
9AE1
100
AcDbEntity
  8
ALPHA
100
AcDbVertex
100
AcDb2dVertex
 10
4.596704
 20
33.019328
 30
0.0
  0
VERTEX
  5
9AE2
100
AcDbEntity
  8
ALPHA
100
AcDbVertex
100
AcDb2dVertex
 10
7.08923
 20
35.801931
 30
0.0
  0
SEQEND
  5
9AE3
100
AcDbEntity
  8
ALPHA
  0
POLYLINE
  5
9AE4
100
AcDbEntity
  8
ALPHA
100
AcDb2dPolyline
 66
     1
 10
0.0
 20
0.0
 30
0.0
  0
VERTEX
  5
9AE5
100
AcDbEntity
  8
ALPHA
100
AcDbVertex
100
AcDb2dVertex
 10
8.253156
 20
33.019328
 30
0.0
  0
VERTEX
  5
9AE6
100
AcDbEntity
  8
ALPHA
100
AcDbVertex
100
AcDb2dVertex
 10
10.744993
 20
35.801931
 30
0.0
  0
SEQEND
  5
9AE7
100
AcDbEntity
  8
ALPHA
  0
POLYLINE
  5
9AE8
100
AcDbEntity
  8
ALPHA
100
AcDb2dPolyline
 66
     1
 10
0.0
 20
0.0
 30
0.0
  0
VERTEX
  5
9AE9
100
AcDbEntity
  8
ALPHA
100
AcDbVertex
100
AcDb2dVertex
 10
10.467836
 20
33.019328
 30
0.0
  0
VERTEX
  5
9AEA
100
AcDbEntity
  8
ALPHA
100
AcDbVertex
100
AcDb2dVertex
 10
7.975826
 20
35.801931
 30
0.0
  0
SEQEND
  5
9AEB
100
AcDbEntity
  8
ALPHA
  0
POLYLINE
  5
9AEC
100
AcDbEntity
  8
ALPHA
100
AcDb2dPolyline
 66
     1
 10
0.0
 20
0.0
 30
0.0
  0
VERTEX
  5
9AED
100
AcDbEntity
  8
ALPHA
100
AcDbVertex
100
AcDb2dVertex
 10
14.287068
 20
31.489705
 30
0.0
  0
VERTEX
  5
9AEE
100
AcDbEntity
  8
ALPHA
100
AcDbVertex
100
AcDb2dVertex
 10
14.287068
 20
35.462934
 30
0.0
  0
SEQEND
  5
9AEF
100
AcDbEntity
  8
ALPHA
  0
POLYLINE
  5
9AF0
100
AcDbEntity
  8
ALPHA
100
AcDb2dPolyline
 66
     1
 10
0.0
 20
0.0
 30
0.0
  0
VERTEX
  5
9AF1
100
AcDbEntity
  8
ALPHA
100
AcDbVertex
100
AcDb2dVertex
 10
12.739187
 20
34.565487
 30
0.0
  0
VERTEX
  5
9AF2
100
AcDbEntity
  8
ALPHA
100
AcDbVertex
100
AcDb2dVertex
 10
11.630728
 20
35.801931
 30
0.0
  0
SEQEND
  5
9AF3
100
AcDbEntity
  8
ALPHA
  0
POLYLINE
  5
9AF4
100
AcDbEntity
  8
ALPHA
100
AcDb2dPolyline
 66
     1
 10
0.0
 20
0.0
 30
0.0
  0
VERTEX
  5
9AF5
100
AcDbEntity
  8
ALPHA
100
AcDbVertex
100
AcDb2dVertex
 10
11.907024
 20
33.019328
 30
0.0
  0
VERTEX
  5
9AF6
100
AcDbEntity
  8
ALPHA
100
AcDbVertex
100
AcDb2dVertex
 10
12.793619
 20
34.009104
 30
0.0
  0
SEQEND
  5
9AF7
100
AcDbEntity
  8
ALPHA
  0
POLYLINE
  5
9AF8
100
AcDbEntity
  8
ALPHA
100
AcDb2dPolyline
 66
     1
 10
0.0
 20
0.0
 30
0.0
  0
VERTEX
  5
9AF9
100
AcDbEntity
  8
ALPHA
100
AcDbVertex
100
AcDb2dVertex
 10
2.495885
 20
36.85682
 30
0.0
  0
VERTEX
  5
9AFA
100
AcDbEntity
  8
ALPHA
100
AcDbVertex
100
AcDb2dVertex
 10
4.652514
 20
39.263908
 30
0.0
  0
SEQEND
  5
9AFB
100
AcDbEntity
  8
ALPHA
  0
POLYLINE
  5
9AFC
100
AcDbEntity
  8
ALPHA
100
AcDb2dPolyline
 66
     1
 10
0.0
 20
0.0
 30
0.0
  0
VERTEX
  5
9AFD
100
AcDbEntity
  8
ALPHA
100
AcDbVertex
100
AcDb2dVertex
 10
2.495885
 20
40.627821
 30
0.0
  0
VERTEX
  5
9AFE
100
AcDbEntity
  8
ALPHA
100
AcDbVertex
100
AcDb2dVertex
 10
4.652514
 20
43.035943
 30
0.0
  0
SEQEND
  5
9AFF
100
AcDbEntity
  8
ALPHA
  0
POLYLINE
  5
9B00
100
AcDbEntity
  8
ALPHA
100
AcDb2dPolyline
 66
     1
 10
0.0
 20
0.0
 30
0.0
  0
VERTEX
  5
9B01
100
AcDbEntity
  8
ALPHA
100
AcDbVertex
100
AcDb2dVertex
 10
3.378518
 20
40.253339
 30
0.0
  0
VERTEX
  5
9B02
100
AcDbEntity
  8
ALPHA
100
AcDbVertex
100
AcDb2dVertex
 10
5.871389
 20
43.035943
 30
0.0
  0
SEQEND
  5
9B03
100
AcDbEntity
  8
ALPHA
  0
POLYLINE
  5
9B04
100
AcDbEntity
  8
ALPHA
100
AcDb2dPolyline
 66
     1
 10
0.0
 20
0.0
 30
0.0
  0
VERTEX
  5
9B05
100
AcDbEntity
  8
ALPHA
100
AcDbVertex
100
AcDb2dVertex
 10
6.812417
 20
40.12966
 30
0.0
  0
VERTEX
  5
9B06
100
AcDbEntity
  8
ALPHA
100
AcDbVertex
100
AcDb2dVertex
 10
4.320407
 20
42.912264
 30
0.0
  0
SEQEND
  5
9B07
100
AcDbEntity
  8
ALPHA
  0
POLYLINE
  5
9B08
100
AcDbEntity
  8
ALPHA
100
AcDb2dPolyline
 66
     1
 10
0.0
 20
0.0
 30
0.0
  0
VERTEX
  5
9B09
100
AcDbEntity
  8
ALPHA
100
AcDbVertex
100
AcDb2dVertex
 10
5.594059
 20
40.12966
 30
0.0
  0
VERTEX
  5
9B0A
100
AcDbEntity
  8
ALPHA
100
AcDbVertex
100
AcDb2dVertex
 10
3.101705
 20
42.912264
 30
0.0
  0
SEQEND
  5
9B0B
100
AcDbEntity
  8
ALPHA
  0
POLYLINE
  5
9B0C
100
AcDbEntity
  8
ALPHA
100
AcDb2dPolyline
 66
     1
 10
0.0
 20
0.0
 30
0.0
  0
VERTEX
  5
9B0D
100
AcDbEntity
  8
ALPHA
100
AcDbVertex
100
AcDb2dVertex
 10
2.436973
 20
39.481293
 30
0.0
  0
VERTEX
  5
9B0E
100
AcDbEntity
  8
ALPHA
100
AcDbVertex
100
AcDb2dVertex
 10
12.849602
 20
39.481293
 30
0.0
  0
SEQEND
  5
9B0F
100
AcDbEntity
  8
ALPHA
  0
POLYLINE
  5
9B10
100
AcDbEntity
  8
ALPHA
100
AcDb2dPolyline
 66
     1
 10
0.0
 20
0.0
 30
0.0
  0
VERTEX
  5
9B11
100
AcDbEntity
  8
ALPHA
100
AcDbVertex
100
AcDb2dVertex
 10
2.436973
 20
40.161355
 30
0.0
  0
VERTEX
  5
9B12
100
AcDbEntity
  8
ALPHA
100
AcDbVertex
100
AcDb2dVertex
 10
12.849602
 20
40.161355
 30
0.0
  0
SEQEND
  5
9B13
100
AcDbEntity
  8
ALPHA
  0
POLYLINE
  5
9B14
100
AcDbEntity
  8
ALPHA
100
AcDb2dPolyline
 66
     1
 10
0.0
 20
0.0
 30
0.0
  0
VERTEX
  5
9B15
100
AcDbEntity
  8
ALPHA
100
AcDbVertex
100
AcDb2dVertex
 10
10.938263
 20
44.960373
 30
0.0
  0
VERTEX
  5
9B16
100
AcDbEntity
  8
ALPHA
100
AcDbVertex
100
AcDb2dVertex
 10
4.09906
 20
44.960373
 30
0.0
  0
SEQEND
  5
9B17
100
AcDbEntity
  8
ALPHA
  0
POLYLINE
  5
9B18
100
AcDbEntity
  8
ALPHA
100
AcDb2dPolyline
 66
     1
 10
0.0
 20
0.0
 30
0.0
  0
VERTEX
  5
9B19
100
AcDbEntity
  8
ALPHA
100
AcDbVertex
100
AcDb2dVertex
 10
12.851497
 20
43.223356
 30
0.0
  0
VERTEX
  5
9B1A
100
AcDbEntity
  8
ALPHA
100
AcDbVertex
100
AcDb2dVertex
 10
2.379096
 20
43.223356
 30
0.0
  0
SEQEND
  5
9B1B
100
AcDbEntity
  8
ALPHA
  0
POLYLINE
  5
9B1C
100
AcDbEntity
  8
ALPHA
100
AcDb2dPolyline
 66
     1
 10
0.0
 20
0.0
 30
0.0
  0
VERTEX
  5
9B1D
100
AcDbEntity
  8
ALPHA
100
AcDbVertex
100
AcDb2dVertex
 10
4.09906
 20
44.960373
 30
0.0
  0
VERTEX
  5
9B1E
100
AcDbEntity
  8
ALPHA
100
AcDbVertex
100
AcDb2dVertex
 10
4.09906
 20
43.22749
 30
0.0
  0
SEQEND
  5
9B1F
100
AcDbEntity
  8
ALPHA
  0
POLYLINE
  5
9B20
100
AcDbEntity
  8
ALPHA
100
AcDb2dPolyline
 66
     1
 10
0.0
 20
0.0
 30
0.0
  0
VERTEX
  5
9B21
100
AcDbEntity
  8
ALPHA
100
AcDbVertex
100
AcDb2dVertex
 10
2.523962
 20
38.247605
 30
0.0
  0
VERTEX
  5
9B22
100
AcDbEntity
  8
ALPHA
100
AcDbVertex
100
AcDb2dVertex
 10
3.433812
 20
39.263908
 30
0.0
  0
SEQEND
  5
9B23
100
AcDbEntity
  8
ALPHA
  0
POLYLINE
  5
9B24
100
AcDbEntity
  8
ALPHA
100
AcDb2dPolyline
 66
     1
 10
0.0
 20
0.0
 30
0.0
  0
VERTEX
  5
9B25
100
AcDbEntity
  8
ALPHA
100
AcDbVertex
100
AcDb2dVertex
 10
4.376218
 20
40.12966
 30
0.0
  0
VERTEX
  5
9B26
100
AcDbEntity
  8
ALPHA
100
AcDbVertex
100
AcDb2dVertex
 10
2.461089
 20
42.266653
 30
0.0
  0
SEQEND
  5
9B27
100
AcDbEntity
  8
ALPHA
  0
POLYLINE
  5
9B28
100
AcDbEntity
  8
ALPHA
100
AcDb2dPolyline
 66
     1
 10
0.0
 20
0.0
 30
0.0
  0
VERTEX
  5
9B29
100
AcDbEntity
  8
ALPHA
100
AcDbVertex
100
AcDb2dVertex
 10
3.157515
 20
40.12966
 30
0.0
  0
VERTEX
  5
9B2A
100
AcDbEntity
  8
ALPHA
100
AcDbVertex
100
AcDb2dVertex
 10
2.41682
 20
40.957172
 30
0.0
  0
SEQEND
  5
9B2B
100
AcDbEntity
  8
ALPHA
  0
POLYLINE
  5
9B2C
100
AcDbEntity
  8
ALPHA
100
AcDb2dPolyline
 66
     1
 10
0.0
 20
0.0
 30
0.0
  0
VERTEX
  5
9B2D
100
AcDbEntity
  8
ALPHA
100
AcDbVertex
100
AcDb2dVertex
 10
2.523962
 20
42.01964
 30
0.0
  0
VERTEX
  5
9B2E
100
AcDbEntity
  8
ALPHA
100
AcDbVertex
100
AcDb2dVertex
 10
3.433812
 20
43.035943
 30
0.0
  0
SEQEND
  5
9B2F
100
AcDbEntity
  8
ALPHA
  0
POLYLINE
  5
9B30
100
AcDbEntity
  8
ALPHA
100
AcDb2dPolyline
 66
     1
 10
0.0
 20
0.0
 30
0.0
  0
VERTEX
  5
9B31
100
AcDbEntity
  8
ALPHA
100
AcDbVertex
100
AcDb2dVertex
 10
10.938263
 20
43.22749
 30
0.0
  0
VERTEX
  5
9B32
100
AcDbEntity
  8
ALPHA
100
AcDbVertex
100
AcDb2dVertex
 10
10.938263
 20
44.960373
 30
0.0
  0
SEQEND
  5
9B33
100
AcDbEntity
  8
ALPHA
  0
POLYLINE
  5
9B34
100
AcDbEntity
  8
ALPHA
100
AcDb2dPolyline
 66
     1
 10
0.0
 20
0.0
 30
0.0
  0
VERTEX
  5
9B35
100
AcDbEntity
  8
ALPHA
100
AcDbVertex
100
AcDb2dVertex
 10
12.682515
 20
36.729351
 30
0.0
  0
VERTEX
  5
9B36
100
AcDbEntity
  8
ALPHA
100
AcDbVertex
100
AcDb2dVertex
 10
10.412025
 20
39.263908
 30
0.0
  0
SEQEND
  5
9B37
100
AcDbEntity
  8
ALPHA
  0
POLYLINE
  5
9B38
100
AcDbEntity
  8
ALPHA
100
AcDb2dPolyline
 66
     1
 10
0.0
 20
0.0
 30
0.0
  0
VERTEX
  5
9B39
100
AcDbEntity
  8
ALPHA
100
AcDbVertex
100
AcDb2dVertex
 10
9.47048
 20
40.253339
 30
0.0
  0
VERTEX
  5
9B3A
100
AcDbEntity
  8
ALPHA
100
AcDbVertex
100
AcDb2dVertex
 10
11.962835
 20
43.035943
 30
0.0
  0
SEQEND
  5
9B3B
100
AcDbEntity
  8
ALPHA
  0
POLYLINE
  5
9B3C
100
AcDbEntity
  8
ALPHA
100
AcDb2dPolyline
 66
     1
 10
0.0
 20
0.0
 30
0.0
  0
VERTEX
  5
9B3D
100
AcDbEntity
  8
ALPHA
100
AcDbVertex
100
AcDb2dVertex
 10
10.689183
 20
40.253339
 30
0.0
  0
VERTEX
  5
9B3E
100
AcDbEntity
  8
ALPHA
100
AcDbVertex
100
AcDb2dVertex
 10
12.739187
 20
42.540538
 30
0.0
  0
SEQEND
  5
9B3F
100
AcDbEntity
  8
ALPHA
  0
POLYLINE
  5
9B40
100
AcDbEntity
  8
ALPHA
100
AcDb2dPolyline
 66
     1
 10
0.0
 20
0.0
 30
0.0
  0
VERTEX
  5
9B41
100
AcDbEntity
  8
ALPHA
100
AcDbVertex
100
AcDb2dVertex
 10
12.682515
 20
40.376674
 30
0.0
  0
VERTEX
  5
9B42
100
AcDbEntity
  8
ALPHA
100
AcDbVertex
100
AcDb2dVertex
 10
10.412025
 20
42.912264
 30
0.0
  0
SEQEND
  5
9B43
100
AcDbEntity
  8
ALPHA
  0
POLYLINE
  5
9B44
100
AcDbEntity
  8
ALPHA
100
AcDb2dPolyline
 66
     1
 10
0.0
 20
0.0
 30
0.0
  0
VERTEX
  5
9B45
100
AcDbEntity
  8
ALPHA
100
AcDbVertex
100
AcDb2dVertex
 10
11.686538
 20
40.12966
 30
0.0
  0
VERTEX
  5
9B46
100
AcDbEntity
  8
ALPHA
100
AcDbVertex
100
AcDb2dVertex
 10
9.194184
 20
42.912264
 30
0.0
  0
SEQEND
  5
9B47
100
AcDbEntity
  8
ALPHA
  0
POLYLINE
  5
9B48
100
AcDbEntity
  8
ALPHA
100
AcDb2dPolyline
 66
     1
 10
0.0
 20
0.0
 30
0.0
  0
VERTEX
  5
9B49
100
AcDbEntity
  8
ALPHA
100
AcDbVertex
100
AcDb2dVertex
 10
5.815579
 20
40.253339
 30
0.0
  0
VERTEX
  5
9B4A
100
AcDbEntity
  8
ALPHA
100
AcDbVertex
100
AcDb2dVertex
 10
8.307416
 20
43.035943
 30
0.0
  0
SEQEND
  5
9B4B
100
AcDbEntity
  8
ALPHA
  0
POLYLINE
  5
9B4C
100
AcDbEntity
  8
ALPHA
100
AcDb2dPolyline
 66
     1
 10
0.0
 20
0.0
 30
0.0
  0
VERTEX
  5
9B4D
100
AcDbEntity
  8
ALPHA
100
AcDbVertex
100
AcDb2dVertex
 10
7.034281
 20
40.253339
 30
0.0
  0
VERTEX
  5
9B4E
100
AcDbEntity
  8
ALPHA
100
AcDbVertex
100
AcDb2dVertex
 10
9.526291
 20
43.035943
 30
0.0
  0
SEQEND
  5
9B4F
100
AcDbEntity
  8
ALPHA
  0
POLYLINE
  5
9B50
100
AcDbEntity
  8
ALPHA
100
AcDb2dPolyline
 66
     1
 10
0.0
 20
0.0
 30
0.0
  0
VERTEX
  5
9B51
100
AcDbEntity
  8
ALPHA
100
AcDbVertex
100
AcDb2dVertex
 10
9.248961
 20
40.12966
 30
0.0
  0
VERTEX
  5
9B52
100
AcDbEntity
  8
ALPHA
100
AcDbVertex
100
AcDb2dVertex
 10
6.757123
 20
42.912264
 30
0.0
  0
SEQEND
  5
9B53
100
AcDbEntity
  8
ALPHA
  0
POLYLINE
  5
9B54
100
AcDbEntity
  8
ALPHA
100
AcDb2dPolyline
 66
     1
 10
0.0
 20
0.0
 30
0.0
  0
VERTEX
  5
9B55
100
AcDbEntity
  8
ALPHA
100
AcDbVertex
100
AcDb2dVertex
 10
8.031119
 20
40.12966
 30
0.0
  0
VERTEX
  5
9B56
100
AcDbEntity
  8
ALPHA
100
AcDbVertex
100
AcDb2dVertex
 10
5.538248
 20
42.912264
 30
0.0
  0
SEQEND
  5
9B57
100
AcDbEntity
  8
ALPHA
  0
POLYLINE
  5
9B58
100
AcDbEntity
  8
ALPHA
100
AcDb2dPolyline
 66
     1
 10
0.0
 20
0.0
 30
0.0
  0
VERTEX
  5
9B59
100
AcDbEntity
  8
ALPHA
100
AcDbVertex
100
AcDb2dVertex
 10
4.596704
 20
40.253339
 30
0.0
  0
VERTEX
  5
9B5A
100
AcDbEntity
  8
ALPHA
100
AcDbVertex
100
AcDb2dVertex
 10
7.08923
 20
43.035943
 30
0.0
  0
SEQEND
  5
9B5B
100
AcDbEntity
  8
ALPHA
  0
POLYLINE
  5
9B5C
100
AcDbEntity
  8
ALPHA
100
AcDb2dPolyline
 66
     1
 10
0.0
 20
0.0
 30
0.0
  0
VERTEX
  5
9B5D
100
AcDbEntity
  8
ALPHA
100
AcDbVertex
100
AcDb2dVertex
 10
8.253156
 20
40.253339
 30
0.0
  0
VERTEX
  5
9B5E
100
AcDbEntity
  8
ALPHA
100
AcDbVertex
100
AcDb2dVertex
 10
10.744993
 20
43.035943
 30
0.0
  0
SEQEND
  5
9B5F
100
AcDbEntity
  8
ALPHA
  0
POLYLINE
  5
9B60
100
AcDbEntity
  8
ALPHA
100
AcDb2dPolyline
 66
     1
 10
0.0
 20
0.0
 30
0.0
  0
VERTEX
  5
9B61
100
AcDbEntity
  8
ALPHA
100
AcDbVertex
100
AcDb2dVertex
 10
10.467836
 20
40.12966
 30
0.0
  0
VERTEX
  5
9B62
100
AcDbEntity
  8
ALPHA
100
AcDbVertex
100
AcDb2dVertex
 10
7.975826
 20
42.912264
 30
0.0
  0
SEQEND
  5
9B63
100
AcDbEntity
  8
ALPHA
  0
POLYLINE
  5
9B64
100
AcDbEntity
  8
ALPHA
100
AcDb2dPolyline
 66
     1
 10
0.0
 20
0.0
 30
0.0
  0
VERTEX
  5
9B65
100
AcDbEntity
  8
ALPHA
100
AcDbVertex
100
AcDb2dVertex
 10
12.739187
 20
38.028152
 30
0.0
  0
VERTEX
  5
9B66
100
AcDbEntity
  8
ALPHA
100
AcDbVertex
100
AcDb2dVertex
 10
11.630728
 20
39.263908
 30
0.0
  0
SEQEND
  5
9B67
100
AcDbEntity
  8
ALPHA
  0
POLYLINE
  5
9B68
100
AcDbEntity
  8
ALPHA
100
AcDb2dPolyline
 66
     1
 10
0.0
 20
0.0
 30
0.0
  0
VERTEX
  5
9B69
100
AcDbEntity
  8
ALPHA
100
AcDbVertex
100
AcDb2dVertex
 10
12.739187
 20
41.675475
 30
0.0
  0
VERTEX
  5
9B6A
100
AcDbEntity
  8
ALPHA
100
AcDbVertex
100
AcDb2dVertex
 10
11.630728
 20
42.912264
 30
0.0
  0
SEQEND
  5
9B6B
100
AcDbEntity
  8
ALPHA
  0
POLYLINE
  5
9B6C
100
AcDbEntity
  8
ALPHA
100
AcDb2dPolyline
 66
     1
 10
0.0
 20
0.0
 30
0.0
  0
VERTEX
  5
9B6D
100
AcDbEntity
  8
ALPHA
100
AcDbVertex
100
AcDb2dVertex
 10
11.907024
 20
40.253339
 30
0.0
  0
VERTEX
  5
9B6E
100
AcDbEntity
  8
ALPHA
100
AcDbVertex
100
AcDb2dVertex
 10
12.793619
 20
41.241737
 30
0.0
  0
SEQEND
  5
9B6F
100
AcDbEntity
  8
ALPHA
  0
POLYLINE
  5
9B70
100
AcDbEntity
  8
ALPHA
100
AcDb2dPolyline
 66
     1
 10
0.0
 20
0.0
 30
0.0
  0
VERTEX
  5
9B71
100
AcDbEntity
  8
ALPHA
100
AcDbVertex
100
AcDb2dVertex
 10
21.144014
 20
35.176647
 30
0.0
  0
VERTEX
  5
9B72
100
AcDbEntity
  8
ALPHA
100
AcDbVertex
100
AcDb2dVertex
 10
28.315497
 20
43.182015
 30
0.0
  0
SEQEND
  5
9B73
100
AcDbEntity
  8
ALPHA
  0
POLYLINE
  5
9B74
100
AcDbEntity
  8
ALPHA
100
AcDb2dPolyline
 66
     1
 10
0.0
 20
0.0
 30
0.0
  0
VERTEX
  5
9B75
100
AcDbEntity
  8
ALPHA
100
AcDbVertex
100
AcDb2dVertex
 10
21.17123
 20
33.847873
 30
0.0
  0
VERTEX
  5
9B76
100
AcDbEntity
  8
ALPHA
100
AcDbVertex
100
AcDb2dVertex
 10
29.5342
 20
43.182015
 30
0.0
  0
SEQEND
  5
9B77
100
AcDbEntity
  8
ALPHA
  0
POLYLINE
  5
9B78
100
AcDbEntity
  8
ALPHA
100
AcDb2dPolyline
 66
     1
 10
0.0
 20
0.0
 30
0.0
  0
VERTEX
  5
9B79
100
AcDbEntity
  8
ALPHA
100
AcDbVertex
100
AcDb2dVertex
 10
21.531587
 20
32.889103
 30
0.0
  0
VERTEX
  5
9B7A
100
AcDbEntity
  8
ALPHA
100
AcDbVertex
100
AcDb2dVertex
 10
30.753075
 20
43.182015
 30
0.0
  0
SEQEND
  5
9B7B
100
AcDbEntity
  8
ALPHA
  0
POLYLINE
  5
9B7C
100
AcDbEntity
  8
ALPHA
100
AcDb2dPolyline
 66
     1
 10
0.0
 20
0.0
 30
0.0
  0
VERTEX
  5
9B7D
100
AcDbEntity
  8
ALPHA
100
AcDbVertex
100
AcDb2dVertex
 10
22.81902
 20
32.966273
 30
0.0
  0
VERTEX
  5
9B7E
100
AcDbEntity
  8
ALPHA
100
AcDbVertex
100
AcDb2dVertex
 10
31.320482
 20
42.455444
 30
0.0
  0
SEQEND
  5
9B7F
100
AcDbEntity
  8
ALPHA
  0
POLYLINE
  5
9B80
100
AcDbEntity
  8
ALPHA
100
AcDb2dPolyline
 66
     1
 10
0.0
 20
0.0
 30
0.0
  0
VERTEX
  5
9B81
100
AcDbEntity
  8
ALPHA
100
AcDbVertex
100
AcDb2dVertex
 10
24.023597
 20
32.951459
 30
0.0
  0
VERTEX
  5
9B82
100
AcDbEntity
  8
ALPHA
100
AcDbVertex
100
AcDb2dVertex
 10
31.320482
 20
41.096699
 30
0.0
  0
SEQEND
  5
9B83
100
AcDbEntity
  8
ALPHA
  0
POLYLINE
  5
9B84
100
AcDbEntity
  8
ALPHA
100
AcDb2dPolyline
 66
     1
 10
0.0
 20
0.0
 30
0.0
  0
VERTEX
  5
9B85
100
AcDbEntity
  8
ALPHA
100
AcDbVertex
100
AcDb2dVertex
 10
25.172709
 20
32.873256
 30
0.0
  0
VERTEX
  5
9B86
100
AcDbEntity
  8
ALPHA
100
AcDbVertex
100
AcDb2dVertex
 10
31.320482
 20
39.73623
 30
0.0
  0
SEQEND
  5
9B87
100
AcDbEntity
  8
ALPHA
  0
POLYLINE
  5
9B88
100
AcDbEntity
  8
ALPHA
100
AcDb2dPolyline
 66
     1
 10
0.0
 20
0.0
 30
0.0
  0
VERTEX
  5
9B89
100
AcDbEntity
  8
ALPHA
100
AcDbVertex
100
AcDb2dVertex
 10
26.474438
 20
32.966273
 30
0.0
  0
VERTEX
  5
9B8A
100
AcDbEntity
  8
ALPHA
100
AcDbVertex
100
AcDb2dVertex
 10
31.320482
 20
38.375073
 30
0.0
  0
SEQEND
  5
9B8B
100
AcDbEntity
  8
ALPHA
  0
POLYLINE
  5
9B8C
100
AcDbEntity
  8
ALPHA
100
AcDb2dPolyline
 66
     1
 10
0.0
 20
0.0
 30
0.0
  0
VERTEX
  5
9B8D
100
AcDbEntity
  8
ALPHA
100
AcDbVertex
100
AcDb2dVertex
 10
27.664546
 20
32.934578
 30
0.0
  0
VERTEX
  5
9B8E
100
AcDbEntity
  8
ALPHA
100
AcDbVertex
100
AcDb2dVertex
 10
31.320482
 20
37.015983
 30
0.0
  0
SEQEND
  5
9B8F
100
AcDbEntity
  8
ALPHA
  0
POLYLINE
  5
9B90
100
AcDbEntity
  8
ALPHA
100
AcDb2dPolyline
 66
     1
 10
0.0
 20
0.0
 30
0.0
  0
VERTEX
  5
9B91
100
AcDbEntity
  8
ALPHA
100
AcDbVertex
100
AcDb2dVertex
 10
31.126178
 20
35.593503
 30
0.0
  0
VERTEX
  5
9B92
100
AcDbEntity
  8
ALPHA
100
AcDbVertex
100
AcDb2dVertex
 10
24.328488
 20
43.182015
 30
0.0
  0
SEQEND
  5
9B93
100
AcDbEntity
  8
ALPHA
  0
POLYLINE
  5
9B94
100
AcDbEntity
  8
ALPHA
100
AcDb2dPolyline
 66
     1
 10
0.0
 20
0.0
 30
0.0
  0
VERTEX
  5
9B95
100
AcDbEntity
  8
ALPHA
100
AcDbVertex
100
AcDb2dVertex
 10
31.167692
 20
34.187215
 30
0.0
  0
VERTEX
  5
9B96
100
AcDbEntity
  8
ALPHA
100
AcDbVertex
100
AcDb2dVertex
 10
23.109613
 20
43.182015
 30
0.0
  0
SEQEND
  5
9B97
100
AcDbEntity
  8
ALPHA
  0
POLYLINE
  5
9B98
100
AcDbEntity
  8
ALPHA
100
AcDb2dPolyline
 66
     1
 10
0.0
 20
0.0
 30
0.0
  0
VERTEX
  5
9B99
100
AcDbEntity
  8
ALPHA
100
AcDbVertex
100
AcDb2dVertex
 10
30.890534
 20
32.919765
 30
0.0
  0
VERTEX
  5
9B9A
100
AcDbEntity
  8
ALPHA
100
AcDbVertex
100
AcDb2dVertex
 10
21.890911
 20
43.182015
 30
0.0
  0
SEQEND
  5
9B9B
100
AcDbEntity
  8
ALPHA
  0
POLYLINE
  5
9B9C
100
AcDbEntity
  8
ALPHA
100
AcDb2dPolyline
 66
     1
 10
0.0
 20
0.0
 30
0.0
  0
VERTEX
  5
9B9D
100
AcDbEntity
  8
ALPHA
100
AcDbVertex
100
AcDb2dVertex
 10
29.824966
 20
32.966273
 30
0.0
  0
VERTEX
  5
9B9E
100
AcDbEntity
  8
ALPHA
100
AcDbVertex
100
AcDb2dVertex
 10
21.251329
 20
42.537782
 30
0.0
  0
SEQEND
  5
9B9F
100
AcDbEntity
  8
ALPHA
  0
POLYLINE
  5
9BA0
100
AcDbEntity
  8
ALPHA
100
AcDb2dPolyline
 66
     1
 10
0.0
 20
0.0
 30
0.0
  0
VERTEX
  5
9BA1
100
AcDbEntity
  8
ALPHA
100
AcDbVertex
100
AcDb2dVertex
 10
28.619871
 20
32.982121
 30
0.0
  0
VERTEX
  5
9BA2
100
AcDbEntity
  8
ALPHA
100
AcDbVertex
100
AcDb2dVertex
 10
21.167269
 20
41.300993
 30
0.0
  0
SEQEND
  5
9BA3
100
AcDbEntity
  8
ALPHA
  0
POLYLINE
  5
9BA4
100
AcDbEntity
  8
ALPHA
100
AcDb2dPolyline
 66
     1
 10
0.0
 20
0.0
 30
0.0
  0
VERTEX
  5
9BA5
100
AcDbEntity
  8
ALPHA
100
AcDbVertex
100
AcDb2dVertex
 10
27.456979
 20
32.951459
 30
0.0
  0
VERTEX
  5
9BA6
100
AcDbEntity
  8
ALPHA
100
AcDbVertex
100
AcDb2dVertex
 10
21.112492
 20
40.033887
 30
0.0
  0
SEQEND
  5
9BA7
100
AcDbEntity
  8
ALPHA
  0
POLYLINE
  5
9BA8
100
AcDbEntity
  8
ALPHA
100
AcDb2dPolyline
 66
     1
 10
0.0
 20
0.0
 30
0.0
  0
VERTEX
  5
9BA9
100
AcDbEntity
  8
ALPHA
100
AcDbVertex
100
AcDb2dVertex
 10
26.294087
 20
32.919765
 30
0.0
  0
VERTEX
  5
9BAA
100
AcDbEntity
  8
ALPHA
100
AcDbVertex
100
AcDb2dVertex
 10
21.167269
 20
38.642757
 30
0.0
  0
SEQEND
  5
9BAB
100
AcDbEntity
  8
ALPHA
  0
POLYLINE
  5
9BAC
100
AcDbEntity
  8
ALPHA
100
AcDb2dPolyline
 66
     1
 10
0.0
 20
0.0
 30
0.0
  0
VERTEX
  5
9BAD
100
AcDbEntity
  8
ALPHA
100
AcDbVertex
100
AcDb2dVertex
 10
25.103807
 20
32.920798
 30
0.0
  0
VERTEX
  5
9BAE
100
AcDbEntity
  8
ALPHA
100
AcDbVertex
100
AcDb2dVertex
 10
21.209816
 20
37.267131
 30
0.0
  0
SEQEND
  5
9BAF
100
AcDbEntity
  8
ALPHA
  0
POLYLINE
  5
9BB0
100
AcDbEntity
  8
ALPHA
100
AcDb2dPolyline
 66
     1
 10
0.0
 20
0.0
 30
0.0
  0
VERTEX
  5
9BB1
100
AcDbEntity
  8
ALPHA
100
AcDbVertex
100
AcDb2dVertex
 10
31.28138
 20
31.489705
 30
0.0
  0
VERTEX
  5
9BB2
100
AcDbEntity
  8
ALPHA
100
AcDbVertex
100
AcDb2dVertex
 10
31.28138
 20
43.179948
 30
0.0
  0
SEQEND
  5
9BB3
100
AcDbEntity
  8
ALPHA
  0
POLYLINE
  5
9BB4
100
AcDbEntity
  8
ALPHA
100
AcDb2dPolyline
 66
     1
 10
0.0
 20
0.0
 30
0.0
  0
VERTEX
  5
9BB5
100
AcDbEntity
  8
ALPHA
100
AcDbVertex
100
AcDb2dVertex
 10
21.141086
 20
43.179948
 30
0.0
  0
VERTEX
  5
9BB6
100
AcDbEntity
  8
ALPHA
100
AcDbVertex
100
AcDb2dVertex
 10
21.141086
 20
31.489705
 30
0.0
  0
SEQEND
  5
9BB7
100
AcDbEntity
  8
ALPHA
  0
POLYLINE
  5
9BB8
100
AcDbEntity
  8
ALPHA
100
AcDb2dPolyline
 66
     1
 10
0.0
 20
0.0
 30
0.0
  0
VERTEX
  5
9BB9
100
AcDbEntity
  8
ALPHA
100
AcDbVertex
100
AcDb2dVertex
 10
28.868952
 20
32.920798
 30
0.0
  0
VERTEX
  5
9BBA
100
AcDbEntity
  8
ALPHA
100
AcDbVertex
100
AcDb2dVertex
 10
31.320482
 20
35.655859
 30
0.0
  0
SEQEND
  5
9BBB
100
AcDbEntity
  8
ALPHA
  0
POLYLINE
  5
9BBC
100
AcDbEntity
  8
ALPHA
100
AcDb2dPolyline
 66
     1
 10
0.0
 20
0.0
 30
0.0
  0
VERTEX
  5
9BBD
100
AcDbEntity
  8
ALPHA
100
AcDbVertex
100
AcDb2dVertex
 10
30.087654
 20
32.951459
 30
0.0
  0
VERTEX
  5
9BBE
100
AcDbEntity
  8
ALPHA
100
AcDbVertex
100
AcDb2dVertex
 10
31.237972
 20
34.233379
 30
0.0
  0
SEQEND
  5
9BBF
100
AcDbEntity
  8
ALPHA
  0
POLYLINE
  5
9BC0
100
AcDbEntity
  8
ALPHA
100
AcDb2dPolyline
 66
     1
 10
0.0
 20
0.0
 30
0.0
  0
VERTEX
  5
9BC1
100
AcDbEntity
  8
ALPHA
100
AcDbVertex
100
AcDb2dVertex
 10
21.17123
 20
32.889103
 30
0.0
  0
VERTEX
  5
9BC2
100
AcDbEntity
  8
ALPHA
100
AcDbVertex
100
AcDb2dVertex
 10
31.306529
 20
32.889103
 30
0.0
  0
SEQEND
  5
9BC3
100
AcDbEntity
  8
ALPHA
  0
POLYLINE
  5
9BC4
100
AcDbEntity
  8
ALPHA
100
AcDb2dPolyline
 66
     1
 10
0.0
 20
0.0
 30
0.0
  0
VERTEX
  5
9BC5
100
AcDbEntity
  8
ALPHA
100
AcDbVertex
100
AcDb2dVertex
 10
18.837006
 20
31.489705
 30
0.0
  0
VERTEX
  5
9BC6
100
AcDbEntity
  8
ALPHA
100
AcDbVertex
100
AcDb2dVertex
 10
33.336896
 20
31.489705
 30
0.0
  0
SEQEND
  5
9BC7
100
AcDbEntity
  8
ALPHA
  0
POLYLINE
  5
9BC8
100
AcDbEntity
  8
ALPHA
100
AcDb2dPolyline
 66
     1
 10
0.0
 20
0.0
 30
0.0
  0
VERTEX
  5
9BC9
100
AcDbEntity
  8
ALPHA
100
AcDbVertex
100
AcDb2dVertex
 10
23.899574
 20
32.934578
 30
0.0
  0
VERTEX
  5
9BCA
100
AcDbEntity
  8
ALPHA
100
AcDbVertex
100
AcDb2dVertex
 10
21.154005
 20
35.99968
 30
0.0
  0
SEQEND
  5
9BCB
100
AcDbEntity
  8
ALPHA
  0
POLYLINE
  5
9BCC
100
AcDbEntity
  8
ALPHA
100
AcDb2dPolyline
 66
     1
 10
0.0
 20
0.0
 30
0.0
  0
VERTEX
  5
9BCD
100
AcDbEntity
  8
ALPHA
100
AcDbVertex
100
AcDb2dVertex
 10
22.707915
 20
32.934578
 30
0.0
  0
VERTEX
  5
9BCE
100
AcDbEntity
  8
ALPHA
100
AcDbVertex
100
AcDb2dVertex
 10
21.195518
 20
34.624053
 30
0.0
  0
SEQEND
  5
9BCF
100
AcDbEntity
  8
ALPHA
  0
POLYLINE
  5
9BD0
100
AcDbEntity
  8
ALPHA
100
AcDb2dPolyline
 66
     1
 10
0.0
 20
0.0
 30
0.0
  0
VERTEX
  5
9BD1
100
AcDbEntity
  8
ALPHA
100
AcDbVertex
100
AcDb2dVertex
 10
21.517807
 20
32.934578
 30
0.0
  0
VERTEX
  5
9BD2
100
AcDbEntity
  8
ALPHA
100
AcDbVertex
100
AcDb2dVertex
 10
21.140225
 20
33.356603
 30
0.0
  0
SEQEND
  5
9BD3
100
AcDbEntity
  8
ALPHA
  0
POLYLINE
  5
9BD4
100
AcDbEntity
  8
ALPHA
100
AcDb2dPolyline
 66
     1
 10
0.0
 20
0.0
 30
0.0
  0
VERTEX
  5
9BD5
100
AcDbEntity
  8
ALPHA
100
AcDbVertex
100
AcDb2dVertex
 10
18.837006
 20
35.462934
 30
0.0
  0
VERTEX
  5
9BD6
100
AcDbEntity
  8
ALPHA
100
AcDbVertex
100
AcDb2dVertex
 10
18.837006
 20
31.489705
 30
0.0
  0
SEQEND
  5
9BD7
100
AcDbEntity
  8
ALPHA
  0
POLYLINE
  5
9BD8
100
AcDbEntity
  8
ALPHA
100
AcDb2dPolyline
 66
     1
 10
0.0
 20
0.0
 30
0.0
  0
VERTEX
  5
9BD9
100
AcDbEntity
  8
ALPHA
100
AcDbVertex
100
AcDb2dVertex
 10
31.306529
 20
42.193617
 30
0.0
  0
VERTEX
  5
9BDA
100
AcDbEntity
  8
ALPHA
100
AcDbVertex
100
AcDb2dVertex
 10
30.419934
 20
43.182015
 30
0.0
  0
SEQEND
  5
9BDB
100
AcDbEntity
  8
ALPHA
  0
POLYLINE
  5
9BDC
100
AcDbEntity
  8
ALPHA
100
AcDb2dPolyline
 66
     1
 10
0.0
 20
0.0
 30
0.0
  0
VERTEX
  5
9BDD
100
AcDbEntity
  8
ALPHA
100
AcDbVertex
100
AcDb2dVertex
 10
31.265188
 20
40.880002
 30
0.0
  0
VERTEX
  5
9BDE
100
AcDbEntity
  8
ALPHA
100
AcDbVertex
100
AcDb2dVertex
 10
29.201231
 20
43.182015
 30
0.0
  0
SEQEND
  5
9BDF
100
AcDbEntity
  8
ALPHA
  0
POLYLINE
  5
9BE0
100
AcDbEntity
  8
ALPHA
100
AcDb2dPolyline
 66
     1
 10
0.0
 20
0.0
 30
0.0
  0
VERTEX
  5
9BE1
100
AcDbEntity
  8
ALPHA
100
AcDbVertex
100
AcDb2dVertex
 10
31.292232
 20
39.489217
 30
0.0
  0
VERTEX
  5
9BE2
100
AcDbEntity
  8
ALPHA
100
AcDbVertex
100
AcDb2dVertex
 10
27.98339
 20
43.182015
 30
0.0
  0
SEQEND
  5
9BE3
100
AcDbEntity
  8
ALPHA
  0
POLYLINE
  5
9BE4
100
AcDbEntity
  8
ALPHA
100
AcDb2dPolyline
 66
     1
 10
0.0
 20
0.0
 30
0.0
  0
VERTEX
  5
9BE5
100
AcDbEntity
  8
ALPHA
100
AcDbVertex
100
AcDb2dVertex
 10
31.278796
 20
38.143907
 30
0.0
  0
VERTEX
  5
9BE6
100
AcDbEntity
  8
ALPHA
100
AcDbVertex
100
AcDb2dVertex
 10
26.764515
 20
43.182015
 30
0.0
  0
SEQEND
  5
9BE7
100
AcDbEntity
  8
ALPHA
  0
POLYLINE
  5
9BE8
100
AcDbEntity
  8
ALPHA
100
AcDb2dPolyline
 66
     1
 10
0.0
 20
0.0
 30
0.0
  0
VERTEX
  5
9BE9
100
AcDbEntity
  8
ALPHA
100
AcDbVertex
100
AcDb2dVertex
 10
31.278796
 20
36.784817
 30
0.0
  0
VERTEX
  5
9BEA
100
AcDbEntity
  8
ALPHA
100
AcDbVertex
100
AcDb2dVertex
 10
25.547191
 20
43.182015
 30
0.0
  0
SEQEND
  5
9BEB
100
AcDbEntity
  8
ALPHA
  0
POLYLINE
  5
9BEC
100
AcDbEntity
  8
ALPHA
100
AcDb2dPolyline
 66
     1
 10
0.0
 20
0.0
 30
0.0
  0
VERTEX
  5
9BED
100
AcDbEntity
  8
ALPHA
100
AcDbVertex
100
AcDb2dVertex
 10
31.28138
 20
43.179948
 30
0.0
  0
VERTEX
  5
9BEE
100
AcDbEntity
  8
ALPHA
100
AcDbVertex
100
AcDb2dVertex
 10
21.141086
 20
43.179948
 30
0.0
  0
SEQEND
  5
9BEF
100
AcDbEntity
  8
ALPHA
  0
POLYLINE
  5
9BF0
100
AcDbEntity
  8
ALPHA
100
AcDb2dPolyline
 66
     1
 10
0.0
 20
0.0
 30
0.0
  0
VERTEX
  5
9BF1
100
AcDbEntity
  8
ALPHA
100
AcDbVertex
100
AcDb2dVertex
 10
29.603963
 20
43.196829
 30
0.0
  0
VERTEX
  5
9BF2
100
AcDbEntity
  8
ALPHA
100
AcDbVertex
100
AcDb2dVertex
 10
29.603963
 20
44.950383
 30
0.0
  0
SEQEND
  5
9BF3
100
AcDbEntity
  8
ALPHA
  0
POLYLINE
  5
9BF4
100
AcDbEntity
  8
ALPHA
100
AcDb2dPolyline
 66
     1
 10
0.0
 20
0.0
 30
0.0
  0
VERTEX
  5
9BF5
100
AcDbEntity
  8
ALPHA
100
AcDbVertex
100
AcDb2dVertex
 10
22.764759
 20
44.950383
 30
0.0
  0
VERTEX
  5
9BF6
100
AcDbEntity
  8
ALPHA
100
AcDbVertex
100
AcDb2dVertex
 10
22.764759
 20
43.196829
 30
0.0
  0
SEQEND
  5
9BF7
100
AcDbEntity
  8
ALPHA
  0
POLYLINE
  5
9BF8
100
AcDbEntity
  8
ALPHA
100
AcDb2dPolyline
 66
     1
 10
0.0
 20
0.0
 30
0.0
  0
VERTEX
  5
9BF9
100
AcDbEntity
  8
ALPHA
100
AcDbVertex
100
AcDb2dVertex
 10
21.156933
 20
39.272865
 30
0.0
  0
VERTEX
  5
9BFA
100
AcDbEntity
  8
ALPHA
100
AcDbVertex
100
AcDb2dVertex
 10
24.660595
 20
43.182015
 30
0.0
  0
SEQEND
  5
9BFB
100
AcDbEntity
  8
ALPHA
  0
POLYLINE
  5
9BFC
100
AcDbEntity
  8
ALPHA
100
AcDb2dPolyline
 66
     1
 10
0.0
 20
0.0
 30
0.0
  0
VERTEX
  5
9BFD
100
AcDbEntity
  8
ALPHA
100
AcDbVertex
100
AcDb2dVertex
 10
21.19948
 20
37.958217
 30
0.0
  0
VERTEX
  5
9BFE
100
AcDbEntity
  8
ALPHA
100
AcDbVertex
100
AcDb2dVertex
 10
25.878781
 20
43.182015
 30
0.0
  0
SEQEND
  5
9BFF
100
AcDbEntity
  8
ALPHA
  0
POLYLINE
  5
9C00
100
AcDbEntity
  8
ALPHA
100
AcDb2dPolyline
 66
     1
 10
0.0
 20
0.0
 30
0.0
  0
VERTEX
  5
9C01
100
AcDbEntity
  8
ALPHA
100
AcDbVertex
100
AcDb2dVertex
 10
21.129889
 20
36.520923
 30
0.0
  0
VERTEX
  5
9C02
100
AcDbEntity
  8
ALPHA
100
AcDbVertex
100
AcDb2dVertex
 10
27.145026
 20
43.237481
 30
0.0
  0
SEQEND
  5
9C03
100
AcDbEntity
  8
ALPHA
  0
POLYLINE
  5
9C04
100
AcDbEntity
  8
ALPHA
100
AcDb2dPolyline
 66
     1
 10
0.0
 20
0.0
 30
0.0
  0
VERTEX
  5
9C05
100
AcDbEntity
  8
ALPHA
100
AcDbVertex
100
AcDb2dVertex
 10
21.146943
 20
40.620931
 30
0.0
  0
VERTEX
  5
9C06
100
AcDbEntity
  8
ALPHA
100
AcDbVertex
100
AcDb2dVertex
 10
23.441721
 20
43.182015
 30
0.0
  0
SEQEND
  5
9C07
100
AcDbEntity
  8
ALPHA
  0
POLYLINE
  5
9C08
100
AcDbEntity
  8
ALPHA
100
AcDb2dPolyline
 66
     1
 10
0.0
 20
0.0
 30
0.0
  0
VERTEX
  5
9C09
100
AcDbEntity
  8
ALPHA
100
AcDbVertex
100
AcDb2dVertex
 10
21.146943
 20
41.981055
 30
0.0
  0
VERTEX
  5
9C0A
100
AcDbEntity
  8
ALPHA
100
AcDbVertex
100
AcDb2dVertex
 10
22.22319
 20
43.182015
 30
0.0
  0
SEQEND
  5
9C0B
100
AcDbEntity
  8
ALPHA
  0
POLYLINE
  5
9C0C
100
AcDbEntity
  8
ALPHA
100
AcDb2dPolyline
 66
     1
 10
0.0
 20
0.0
 30
0.0
  0
VERTEX
  5
9C0D
100
AcDbEntity
  8
ALPHA
100
AcDbVertex
100
AcDb2dVertex
 10
29.603963
 20
44.950383
 30
0.0
  0
VERTEX
  5
9C0E
100
AcDbEntity
  8
ALPHA
100
AcDbVertex
100
AcDb2dVertex
 10
22.764759
 20
44.950383
 30
0.0
  0
SEQEND
  5
9C0F
100
AcDbEntity
  8
ALPHA
  0
DIMENSION
  5
9C1C
100
AcDbEntity
  8
COTATION1
100
AcDbDimension
  2
*D7
 10
33.336896
 20
-8.486805
 30
0.0
 11
16.814907
 21
-6.236805
 31
0.0
 70
    32
  1
33
  3
SC_STAND
100
AcDbAlignedDimension
 13
0.292918
 23
17.441295
 33
0.0
 14
33.336896
 24
17.441295
 34
0.0
100
AcDbRotatedDimension
  0
DIMENSION
  5
9C60
100
AcDbEntity
  8
COTATION1
100
AcDbDimension
  2
*D8
 10
43.55912
 20
44.950383
 30
0.0
 11
41.30912
 21
22.419803
 31
0.0
 70
    32
  1
45
  3
SC_STAND
100
AcDbAlignedDimension
 13
19.806403
 23
-0.110777
 33
0.0
 14
26.184361
 24
44.950383
 34
0.0
 50
90.0
100
AcDbRotatedDimension
  0
ENDSEC
  0
SECTION
  2
OBJECTS
  0
DICTIONARY
  5
F8
100
AcDbDictionary
  3
ACAD_GROUP
350
F9
  3
ACAD_MLINESTYLE
350
106
  3
ACDBVARIABLEDICTIONARY
350
143
  0
DICTIONARY
  5
F9
102
{ACAD_REACTORS
330
F8
102
}
100
AcDbDictionary
  0
DICTIONARY
  5
106
102
{ACAD_REACTORS
330
F8
102
}
100
AcDbDictionary
  3
STANDARD
350
107
  0
DICTIONARY
  5
143
102
{ACAD_REACTORS
330
F8
102
}
100
AcDbDictionary
  3
DIMADEC
350
144
  0
MLINESTYLE
  5
107
102
{ACAD_REACTORS
330
106
102
}
100
AcDbMlineStyle
  2
STANDARD
 70
     0
  3

 62
   256
 51
90.0
 52
90.0
 71
     2
 49
0.5
 62
   256
  6
BYLAYER
 49
-0.5
 62
   256
  6
BYLAYER
  0
DICTIONARYVAR
  5
144
102
{ACAD_REACTORS
330
143
102
}
100
DictionaryVariables
280
     0
  1
0
  0
ENDSEC
  0
EOF
