  0
SECTION
  2
HEADER
  9
$ACADVER
  1
AC1014
  9
$ACADMAINTVER
 70
     0
  9
$DWGCODEPAGE
  3
ANSI_1252
  9
$INSBASE
 10
0.0
 20
0.0
 30
0.0
  9
$EXTMIN
 10
64.879966
 20
80.237903
 30
0.0
  9
$EXTMAX
 10
122.747424
 20
211.30166
 30
0.0
  9
$LIMMIN
 10
0.0
 20
0.0
  9
$LIMMAX
 10
210.0
 20
297.0
  9
$ORTHOMODE
 70
     0
  9
$REGENMODE
 70
     1
  9
$FILLMODE
 70
     1
  9
$QTEXTMODE
 70
     0
  9
$MIRRTEXT
 70
     1
  9
$DRAGMODE
 70
     2
  9
$LTSCALE
 40
10.0
  9
$OSMODE
 70
     0
  9
$ATTMODE
 70
     1
  9
$TEXTSIZE
 40
3.5
  9
$TRACEWID
 40
0.05
  9
$TEXTSTYLE
  7
ROMANS
  9
$CLAYER
  8
COTATION1
  9
$CELTYPE
  6
BYLAYER
  9
$CECOLOR
 62
   256
  9
$CELTSCALE
 40
1.0
  9
$DELOBJ
 70
     1
  9
$DISPSILH
 70
     0
  9
$DIMSCALE
 40
1.0
  9
$DIMASZ
 40
3.0
  9
$DIMEXO
 40
1.0
  9
$DIMDLI
 40
0.38
  9
$DIMRND
 40
0.01
  9
$DIMDLE
 40
0.0
  9
$DIMEXE
 40
1.0
  9
$DIMTP
 40
0.0
  9
$DIMTM
 40
0.0
  9
$DIMTXT
 40
2.5
  9
$DIMCEN
 40
0.09
  9
$DIMTSZ
 40
0.0
  9
$DIMTOL
 70
     0
  9
$DIMLIM
 70
     0
  9
$DIMTIH
 70
     0
  9
$DIMTOH
 70
     0
  9
$DIMSE1
 70
     0
  9
$DIMSE2
 70
     0
  9
$DIMTAD
 70
     1
  9
$DIMZIN
 70
    12
  9
$DIMBLK
  1

  9
$DIMASO
 70
     1
  9
$DIMSHO
 70
     1
  9
$DIMPOST
  1

  9
$DIMAPOST
  1

  9
$DIMALT
 70
     0
  9
$DIMALTD
 70
     2
  9
$DIMALTF
 40
25.4
  9
$DIMLFAC
 40
1.0
  9
$DIMTOFL
 70
     0
  9
$DIMTVP
 40
0.0
  9
$DIMTIX
 70
     0
  9
$DIMSOXD
 70
     0
  9
$DIMSAH
 70
     0
  9
$DIMBLK1
  1

  9
$DIMBLK2
  1

  9
$DIMSTYLE
  2
SC_STAND
  9
$DIMCLRD
 70
     0
  9
$DIMCLRE
 70
     0
  9
$DIMCLRT
 70
     0
  9
$DIMTFAC
 40
1.0
  9
$DIMGAP
 40
1.0
  9
$DIMJUST
 70
     0
  9
$DIMSD1
 70
     0
  9
$DIMSD2
 70
     0
  9
$DIMTOLJ
 70
     1
  9
$DIMTZIN
 70
     0
  9
$DIMALTZ
 70
     0
  9
$DIMALTTZ
 70
     0
  9
$DIMFIT
 70
     3
  9
$DIMUPT
 70
     0
  9
$DIMUNIT
 70
     2
  9
$DIMDEC
 70
     4
  9
$DIMTDEC
 70
     4
  9
$DIMALTU
 70
     2
  9
$DIMALTTD
 70
     2
  9
$DIMTXSTY
  7
STANDARD
  9
$DIMAUNIT
 70
     0
  9
$LUNITS
 70
     2
  9
$LUPREC
 70
     4
  9
$SKETCHINC
 40
0.1
  9
$FILLETRAD
 40
0.5
  9
$AUNITS
 70
     0
  9
$AUPREC
 70
     0
  9
$MENU
  1
.
  9
$ELEVATION
 40
0.0
  9
$PELEVATION
 40
0.0
  9
$THICKNESS
 40
0.0
  9
$LIMCHECK
 70
     0
  9
$BLIPMODE
 70
     1
  9
$CHAMFERA
 40
0.0
  9
$CHAMFERB
 40
0.0
  9
$CHAMFERC
 40
0.0
  9
$CHAMFERD
 40
0.0
  9
$SKPOLY
 70
     0
  9
$TDCREATE
 40
2450574.669545486
  9
$TDUPDATE
 40
2451387.874759861
  9
$TDINDWG
 40
0.0616253472
  9
$TDUSRTIMER
 40
0.0616253472
  9
$USRTIMER
 70
     1
  9
$ANGBASE
 50
0.0
  9
$ANGDIR
 70
     0
  9
$PDMODE
 70
     0
  9
$PDSIZE
 40
0.0
  9
$PLINEWID
 40
0.0
  9
$COORDS
 70
     1
  9
$SPLFRAME
 70
     0
  9
$SPLINETYPE
 70
     6
  9
$SPLINESEGS
 70
     8
  9
$ATTDIA
 70
     1
  9
$ATTREQ
 70
     1
  9
$HANDLING
 70
     1
  9
$HANDSEED
  5
1955
  9
$SURFTAB1
 70
     6
  9
$SURFTAB2
 70
     6
  9
$SURFTYPE
 70
     6
  9
$SURFU
 70
     6
  9
$SURFV
 70
     6
  9
$UCSNAME
  2

  9
$UCSORG
 10
0.0
 20
0.0
 30
0.0
  9
$UCSXDIR
 10
1.0
 20
0.0
 30
0.0
  9
$UCSYDIR
 10
0.0
 20
1.0
 30
0.0
  9
$PUCSNAME
  2

  9
$PUCSORG
 10
0.0
 20
0.0
 30
0.0
  9
$PUCSXDIR
 10
1.0
 20
0.0
 30
0.0
  9
$PUCSYDIR
 10
0.0
 20
1.0
 30
0.0
  9
$USERI1
 70
     0
  9
$USERI2
 70
     0
  9
$USERI3
 70
     0
  9
$USERI4
 70
     0
  9
$USERI5
 70
     0
  9
$USERR1
 40
0.0
  9
$USERR2
 40
0.0
  9
$USERR3
 40
0.0
  9
$USERR4
 40
0.0
  9
$USERR5
 40
0.0
  9
$WORLDVIEW
 70
     1
  9
$SHADEDGE
 70
     3
  9
$SHADEDIF
 70
    70
  9
$TILEMODE
 70
     1
  9
$MAXACTVP
 70
    16
  9
$PINSBASE
 10
0.0
 20
0.0
 30
0.0
  9
$PLIMCHECK
 70
     0
  9
$PEXTMIN
 10
0.0
 20
0.0
 30
0.0
  9
$PEXTMAX
 10
420.0
 20
297.0
 30
0.0
  9
$PLIMMIN
 10
0.0
 20
0.0
  9
$PLIMMAX
 10
420.0
 20
297.0
  9
$UNITMODE
 70
     0
  9
$VISRETAIN
 70
     0
  9
$PLINEGEN
 70
     0
  9
$PSLTSCALE
 70
     1
  9
$TREEDEPTH
 70
  3020
  9
$PICKSTYLE
 70
     1
  9
$CMLSTYLE
  2
STANDARD
  9
$CMLJUST
 70
     0
  9
$CMLSCALE
 40
1.0
  9
$PROXYGRAPHICS
 70
     1
  9
$MEASUREMENT
 70
     0
  0
ENDSEC
  0
SECTION
  2
CLASSES
  0
ENDSEC
  0
SECTION
  2
TABLES
  0
TABLE
  2
VPORT
  5
18F7
100
AcDbSymbolTable
 70
     1
  0
VPORT
  5
1950
100
AcDbSymbolTableRecord
100
AcDbViewportTableRecord
  2
*ACTIVE
 70
     0
 10
0.0
 20
0.0
 11
1.0
 21
1.0
 12
248.151316
 22
148.5
 13
0.0
 23
0.0
 14
1.0
 24
1.0
 15
10.0
 25
10.0
 16
0.0
 26
0.0
 36
1.0
 17
0.0
 27
0.0
 37
0.0
 40
297.0
 41
1.671053
 42
50.0
 43
0.0
 44
0.0
 50
0.0
 51
0.0
 71
     0
 72
   100
 73
     1
 74
     1
 75
     0
 76
     1
 77
     0
 78
     0
  0
ENDTAB
  0
TABLE
  2
LTYPE
  5
18F4
100
AcDbSymbolTable
 70
    23
  0
LTYPE
  5
1901
100
AcDbSymbolTableRecord
100
AcDbLinetypeTableRecord
  2
BYBLOCK
 70
     0
  3

 72
    65
 73
     0
 40
0.0
  0
LTYPE
  5
1902
100
AcDbSymbolTableRecord
100
AcDbLinetypeTableRecord
  2
BYLAYER
 70
     0
  3

 72
    65
 73
     0
 40
0.0
  0
LTYPE
  5
1903
100
AcDbSymbolTableRecord
100
AcDbLinetypeTableRecord
  2
CONTINUOUS
 70
     0
  3
Solid line
 72
    65
 73
     0
 40
0.0
  0
LTYPE
  5
1910
100
AcDbSymbolTableRecord
100
AcDbLinetypeTableRecord
  2
AXES
 70
     0
  3
____ _ ____ _ ____ _ ____ _ ____ _ ____ _ ____ 
 72
    65
 73
     4
 40
2.0
 49
1.25
 74
     0
 49
-0.25
 74
     0
 49
0.25
 74
     0
 49
-0.25
 74
     0
  0
LTYPE
  5
1911
100
AcDbSymbolTableRecord
100
AcDbLinetypeTableRecord
  2
AXES2
 70
     0
  3
___ _ ___ _ ___ _ ___ _ ___ _ ___ _ ___ _ ___ _
 72
    65
 73
     4
 40
1.125
 49
0.75
 74
     0
 49
-0.125
 74
     0
 49
0.125
 74
     0
 49
-0.125
 74
     0
  0
LTYPE
  5
1912
100
AcDbSymbolTableRecord
100
AcDbLinetypeTableRecord
  2
AXESX2
 70
     0
  3
________  __  ________  __  ________  __  _____
 72
    65
 73
     4
 40
4.0
 49
2.5
 74
     0
 49
-0.5
 74
     0
 49
0.5
 74
     0
 49
-0.5
 74
     0
  0
LTYPE
  5
1913
100
AcDbSymbolTableRecord
100
AcDbLinetypeTableRecord
  2
TIRETPT
 70
     0
  3
__ . __ . __ . __ . __ . __ . __ . __ . __ . __
 72
    65
 73
     4
 40
1.0
 49
0.5
 74
     0
 49
-0.25
 74
     0
 49
0.0
 74
     0
 49
-0.25
 74
     0
  0
LTYPE
  5
1914
100
AcDbSymbolTableRecord
100
AcDbLinetypeTableRecord
  2
TIRETPT2
 70
     0
  3
_._._._._._._._._._._._._._._._._._._._._._._._
 72
    65
 73
     4
 40
0.5
 49
0.25
 74
     0
 49
-0.125
 74
     0
 49
0.0
 74
     0
 49
-0.125
 74
     0
  0
LTYPE
  5
1915
100
AcDbSymbolTableRecord
100
AcDbLinetypeTableRecord
  2
TIRETPTX2
 70
     0
  3
____  .  ____  .  ____  .  ____  .  ____  .  __
 72
    65
 73
     4
 40
2.0
 49
1.0
 74
     0
 49
-0.5
 74
     0
 49
0.0
 74
     0
 49
-0.5
 74
     0
  0
LTYPE
  5
1916
100
AcDbSymbolTableRecord
100
AcDbLinetypeTableRecord
  2
DISCONTINU
 70
     0
  3
__ __ __ __ __ __ __ __ __ __ __ __ __ __ __ __
 72
    65
 73
     2
 40
0.75
 49
0.5
 74
     0
 49
-0.25
 74
     0
  0
LTYPE
  5
1917
100
AcDbSymbolTableRecord
100
AcDbLinetypeTableRecord
  2
DISCONTINU2
 70
     0
  3
_ _ _ _ _ _ _ _ _ _ _ _ _ _ _ _ _ _ _ _ _ _ _ _
 72
    65
 73
     2
 40
0.375
 49
0.25
 74
     0
 49
-0.125
 74
     0
  0
LTYPE
  5
1918
100
AcDbSymbolTableRecord
100
AcDbLinetypeTableRecord
  2
DISCONTINUX2
 70
     0
  3
____  ____  ____  ____  ____  ____  ____  ____ 
 72
    65
 73
     2
 40
1.5
 49
1.0
 74
     0
 49
-0.5
 74
     0
  0
LTYPE
  5
1919
100
AcDbSymbolTableRecord
100
AcDbLinetypeTableRecord
  2
DIVISE
 70
     0
  3
____ . . ____ . . ____ . . ____ . . ____ . . __
 72
    65
 73
     6
 40
1.25
 49
0.5
 74
     0
 49
-0.25
 74
     0
 49
0.0
 74
     0
 49
-0.25
 74
     0
 49
0.0
 74
     0
 49
-0.25
 74
     0
  0
LTYPE
  5
191A
100
AcDbSymbolTableRecord
100
AcDbLinetypeTableRecord
  2
DIVISE2
 70
     0
  3
__..__..__..__..__..__..__..__..__..__..__..__.
 72
    65
 73
     6
 40
0.625
 49
0.25
 74
     0
 49
-0.125
 74
     0
 49
0.0
 74
     0
 49
-0.125
 74
     0
 49
0.0
 74
     0
 49
-0.125
 74
     0
  0
LTYPE
  5
191B
100
AcDbSymbolTableRecord
100
AcDbLinetypeTableRecord
  2
DIVISEX2
 70
     0
  3
________  .  .  ________  .  .  ________  .  . 
 72
    65
 73
     6
 40
2.5
 49
1.0
 74
     0
 49
-0.5
 74
     0
 49
0.0
 74
     0
 49
-0.5
 74
     0
 49
0.0
 74
     0
 49
-0.5
 74
     0
  0
LTYPE
  5
191C
100
AcDbSymbolTableRecord
100
AcDbLinetypeTableRecord
  2
POINTILLE
 70
     0
  3
. . . . . . . . . . . . . . . . . . . . . . . .
 72
    65
 73
     2
 40
0.25
 49
0.0
 74
     0
 49
-0.25
 74
     0
  0
LTYPE
  5
191D
100
AcDbSymbolTableRecord
100
AcDbLinetypeTableRecord
  2
POINTILLE2
 70
     0
  3
...............................................
 72
    65
 73
     2
 40
0.125
 49
0.0
 74
     0
 49
-0.125
 74
     0
  0
LTYPE
  5
191E
100
AcDbSymbolTableRecord
100
AcDbLinetypeTableRecord
  2
POINTILLEX2
 70
     0
  3
.  .  .  .  .  .  .  .  .  .  .  .  .  .  .  . 
 72
    65
 73
     2
 40
0.5
 49
0.0
 74
     0
 49
-0.5
 74
     0
  0
LTYPE
  5
191F
100
AcDbSymbolTableRecord
100
AcDbLinetypeTableRecord
  2
CACHE
 70
     0
  3
__ __ __ __ __ __ __ __ __ __ __ __ __ __ __ __
 72
    65
 73
     2
 40
0.375
 49
0.25
 74
     0
 49
-0.125
 74
     0
  0
LTYPE
  5
1920
100
AcDbSymbolTableRecord
100
AcDbLinetypeTableRecord
  2
CACHE2
 70
     0
  3
_ _ _ _ _ _ _ _ _ _ _ _ _ _ _ _ _ _ _ _ _ _ _ _
 72
    65
 73
     2
 40
0.1875
 49
0.125
 74
     0
 49
-0.0625
 74
     0
  0
LTYPE
  5
1921
100
AcDbSymbolTableRecord
100
AcDbLinetypeTableRecord
  2
CACHEX2
 70
     0
  3
____ ____ ____ ____ ____ ____ ____ ____ ____ __
 72
    65
 73
     2
 40
0.75
 49
0.5
 74
     0
 49
-0.25
 74
     0
  0
LTYPE
  5
1922
100
AcDbSymbolTableRecord
100
AcDbLinetypeTableRecord
  2
FANTOME
 70
     0
  3
______  __  __  ______  __  __  ______  __  __ 
 72
    65
 73
     6
 40
2.5
 49
1.25
 74
     0
 49
-0.25
 74
     0
 49
0.25
 74
     0
 49
-0.25
 74
     0
 49
0.25
 74
     0
 49
-0.25
 74
     0
  0
LTYPE
  5
1923
100
AcDbSymbolTableRecord
100
AcDbLinetypeTableRecord
  2
FANTOME2
 70
     0
  3
___ _ _ ___ _ _ ___ _ _ ___ _ _ ___ _ _ ___ _ _
 72
    65
 73
     6
 40
1.25
 49
0.625
 74
     0
 49
-0.125
 74
     0
 49
0.125
 74
     0
 49
-0.125
 74
     0
 49
0.125
 74
     0
 49
-0.125
 74
     0
  0
LTYPE
  5
1924
100
AcDbSymbolTableRecord
100
AcDbLinetypeTableRecord
  2
FANTOMEX2
 70
     0
  3
____________    ____    ____    ____________   
 72
    65
 73
     6
 40
5.0
 49
2.5
 74
     0
 49
-0.5
 74
     0
 49
0.5
 74
     0
 49
-0.5
 74
     0
 49
0.5
 74
     0
 49
-0.5
 74
     0
  0
LTYPE
  5
1925
100
AcDbSymbolTableRecord
100
AcDbLinetypeTableRecord
  2
0
 70
     0
  3
MEDUSA PEN 0
 72
    65
 73
     0
 40
0.0
  0
ENDTAB
  0
TABLE
  2
LAYER
  5
18F1
100
AcDbSymbolTable
 70
    21
  0
LAYER
  5
18FD
100
AcDbSymbolTableRecord
100
AcDbLayerTableRecord
  2
0
 70
     0
 62
   255
  6
CONTINUOUS
  0
LAYER
  5
190E
100
AcDbSymbolTableRecord
100
AcDbLayerTableRecord
  2
COTATION1
 70
     0
 62
     2
  6
CONTINUOUS
  0
LAYER
  5
1926
100
AcDbSymbolTableRecord
100
AcDbLayerTableRecord
  2
AXE
 70
     0
 62
    80
  6
AXES2
  0
LAYER
  5
1927
100
AcDbSymbolTableRecord
100
AcDbLayerTableRecord
  2
CONSTRUCTION
 70
     0
 62
     6
  6
CONTINUOUS
  0
LAYER
  5
1928
100
AcDbSymbolTableRecord
100
AcDbLayerTableRecord
  2
HACHURES
 70
     0
 62
     9
  6
CONTINUOUS
  0
LAYER
  5
1929
100
AcDbSymbolTableRecord
100
AcDbLayerTableRecord
  2
FMULT
 70
     0
 62
     6
  6
CONTINUOUS
  0
LAYER
  5
192A
100
AcDbSymbolTableRecord
100
AcDbLayerTableRecord
  2
TEXTE
 70
     0
 62
   131
  6
CONTINUOUS
  0
LAYER
  5
192B
100
AcDbSymbolTableRecord
100
AcDbLayerTableRecord
  2
FDP_CARTOUCHE
 70
     0
 62
     4
  6
CONTINUOUS
  0
LAYER
  5
192C
100
AcDbSymbolTableRecord
100
AcDbLayerTableRecord
  2
FDP_TEXTES
 70
     0
 62
     5
  6
CONTINUOUS
  0
LAYER
  5
192D
100
AcDbSymbolTableRecord
100
AcDbLayerTableRecord
  2
FDP_LOGO_MG
 70
     0
 62
    30
  6
CONTINUOUS
  0
LAYER
  5
192E
100
AcDbSymbolTableRecord
100
AcDbLayerTableRecord
  2
FDP_LOGO_SCH
 70
     0
 62
     3
  6
CONTINUOUS
  0
LAYER
  5
192F
100
AcDbSymbolTableRecord
100
AcDbLayerTableRecord
  2
FDP_FDP
 70
     0
 62
     5
  6
CONTINUOUS
  0
LAYER
  5
1930
100
AcDbSymbolTableRecord
100
AcDbLayerTableRecord
  2
COTATION2
 70
     0
 62
     2
  6
CONTINUOUS
  0
LAYER
  5
1931
100
AcDbSymbolTableRecord
100
AcDbLayerTableRecord
  2
COTATION3
 70
     0
 62
     2
  6
CONTINUOUS
  0
LAYER
  5
1932
100
AcDbSymbolTableRecord
100
AcDbLayerTableRecord
  2
COTATION4
 70
     0
 62
     2
  6
CONTINUOUS
  0
LAYER
  5
1933
100
AcDbSymbolTableRecord
100
AcDbLayerTableRecord
  2
ASHADE
 70
     0
 62
     7
  6
CONTINUOUS
  0
LAYER
  5
1934
100
AcDbSymbolTableRecord
100
AcDbLayerTableRecord
  2
POINTILLE_COURT
 70
     0
 62
    40
  6
CACHE2
  0
LAYER
  5
1935
100
AcDbSymbolTableRecord
100
AcDbLayerTableRecord
  2
POINTILLE_MOYEN
 70
     0
 62
   140
  6
CACHE
  0
LAYER
  5
1936
100
AcDbSymbolTableRecord
100
AcDbLayerTableRecord
  2
POINTILLE_LONG
 70
     0
 62
   240
  6
CACHEX2
  0
LAYER
  5
1937
100
AcDbSymbolTableRecord
100
AcDbLayerTableRecord
  2
ALPHA
 70
     0
 62
   255
  6
CONTINUOUS
  0
LAYER
  5
1938
100
AcDbSymbolTableRecord
100
AcDbLayerTableRecord
  2
DEFPOINTS
 70
     0
 62
     7
  6
CONTINUOUS
  0
ENDTAB
  0
TABLE
  2
STYLE
  5
18F2
100
AcDbSymbolTable
 70
     4
  0
STYLE
  5
18FE
100
AcDbSymbolTableRecord
100
AcDbTextStyleTableRecord
  2
STANDARD
 70
     0
 40
0.0
 41
1.0
 50
0.0
 71
     0
 42
0.2
  3
txt
  4

  0
STYLE
  5
190F
100
AcDbSymbolTableRecord
100
AcDbTextStyleTableRecord
  2
ROMANS
 70
     0
 40
0.0
 41
1.0
 50
0.0
 71
     0
 42
3.5
  3
romans.shx
  4

  0
STYLE
  5
1939
100
AcDbSymbolTableRecord
100
AcDbTextStyleTableRecord
  2
INFOCAR
 70
     0
 40
0.0
 41
1.34
 50
0.0
 71
     0
 42
2.0
  3
ROMANS.SHX
  4

  0
STYLE
  5
193A
100
AcDbSymbolTableRecord
100
AcDbTextStyleTableRecord
  2
CARTOUCHE
 70
     0
 40
0.0
 41
1.0
 50
0.0
 71
     0
 42
0.2
  3
ROMANS.SHX
  4

  0
ENDTAB
  0
TABLE
  2
VIEW
  5
18F5
100
AcDbSymbolTable
 70
     0
  0
ENDTAB
  0
TABLE
  2
UCS
  5
18F6
100
AcDbSymbolTable
 70
     0
  0
ENDTAB
  0
TABLE
  2
APPID
  5
18F8
100
AcDbSymbolTable
 70
     3
  0
APPID
  5
18FF
100
AcDbSymbolTableRecord
100
AcDbRegAppTableRecord
  2
ACAD
 70
     0
  0
APPID
  5
193B
100
AcDbSymbolTableRecord
100
AcDbRegAppTableRecord
  2
AVE_RENDER
 70
     0
  0
APPID
  5
193C
100
AcDbSymbolTableRecord
100
AcDbRegAppTableRecord
  2
AVE_MATERIAL
 70
     0
  0
ENDTAB
  0
TABLE
  2
DIMSTYLE
  5
18F9
100
AcDbSymbolTable
 70
     2
  0
DIMSTYLE
105
193D
100
AcDbSymbolTableRecord
100
AcDbDimStyleTableRecord
  2
STANDARD
 70
     0
  3

  4

  5

  6

  7

 40
1.0
 41
0.18
 42
0.0625
 43
0.38
 44
0.18
 45
0.0
 46
0.0
 47
0.0
 48
0.0
140
0.18
141
0.09
142
0.0
143
25.4
144
1.0
145
0.0
146
1.0
147
0.09
 71
     0
 72
     0
 73
     1
 74
     1
 75
     0
 76
     0
 77
     0
 78
     0
170
     0
171
     2
172
     0
173
     0
174
     0
175
     0
176
     0
177
     0
178
     0
270
     2
271
     4
272
     4
273
     2
274
     2
340
18FE
275
     0
280
     0
281
     0
282
     0
283
     1
284
     0
285
     0
286
     0
287
     3
288
     0
  0
DIMSTYLE
105
193E
102
{ACAD_REACTORS
330
17B8
330
17D1
330
1801
330
183D
330
1855
330
186E
102
}
100
AcDbSymbolTableRecord
100
AcDbDimStyleTableRecord
  2
SC_STAND
 70
     0
  3

  4

  5

  6

  7

 40
1.0
 41
3.0
 42
1.0
 43
0.38
 44
1.0
 45
0.01
 46
0.0
 47
0.0
 48
0.0
140
2.5
141
0.09
142
0.0
143
25.4
144
1.0
145
0.0
146
1.0
147
1.0
 71
     0
 72
     0
 73
     0
 74
     0
 75
     0
 76
     0
 77
     1
 78
    12
170
     0
171
     2
172
     0
173
     0
174
     0
175
     0
176
     0
177
     0
178
     0
270
     2
271
     4
272
     4
273
     2
274
     2
340
18FE
275
     0
280
     0
281
     0
282
     0
283
     1
284
     0
285
     0
286
     0
287
     3
288
     0
  0
ENDTAB
  0
TABLE
  2
BLOCK_RECORD
  5
18F0
100
AcDbSymbolTable
 70
    14
  0
BLOCK_RECORD
  5
1907
100
AcDbSymbolTableRecord
100
AcDbBlockTableRecord
  2
*MODEL_SPACE
  0
BLOCK_RECORD
  5
1904
100
AcDbSymbolTableRecord
100
AcDbBlockTableRecord
  2
*PAPER_SPACE
  0
BLOCK_RECORD
  5
1940
100
AcDbSymbolTableRecord
100
AcDbBlockTableRecord
  2
AVE_RENDER
  0
BLOCK_RECORD
  5
1941
100
AcDbSymbolTableRecord
100
AcDbBlockTableRecord
  2
AVE_GLOBAL
  0
BLOCK_RECORD
  5
1948
100
AcDbSymbolTableRecord
100
AcDbBlockTableRecord
  2
*D8
  0
BLOCK_RECORD
  5
1949
100
AcDbSymbolTableRecord
100
AcDbBlockTableRecord
  2
*D9
  0
BLOCK_RECORD
  5
194A
100
AcDbSymbolTableRecord
100
AcDbBlockTableRecord
  2
*D10
  0
BLOCK_RECORD
  5
194B
100
AcDbSymbolTableRecord
100
AcDbBlockTableRecord
  2
*D11
  0
BLOCK_RECORD
  5
194C
100
AcDbSymbolTableRecord
100
AcDbBlockTableRecord
  2
*D12
  0
BLOCK_RECORD
  5
194D
100
AcDbSymbolTableRecord
100
AcDbBlockTableRecord
  2
*D13
  0
ENDTAB
  0
ENDSEC
  0
SECTION
  2
BLOCKS
  0
BLOCK
  5
1908
100
AcDbEntity
  8
0
100
AcDbBlockBegin
  2
*MODEL_SPACE
 70
     0
 10
0.0
 20
0.0
 30
0.0
  3
*MODEL_SPACE
  1

  0
ENDBLK
  5
1909
100
AcDbEntity
  8
0
100
AcDbBlockEnd
  0
BLOCK
  5
1905
100
AcDbEntity
 67
     1
  8
0
100
AcDbBlockBegin
  2
*PAPER_SPACE
 70
     0
 10
0.0
 20
0.0
 30
0.0
  3
*PAPER_SPACE
  1

  0
ENDBLK
  5
1906
100
AcDbEntity
 67
     1
  8
0
100
AcDbBlockEnd
  0
BLOCK
  5
163A
100
AcDbEntity
  8
0
100
AcDbBlockBegin
  2
AVE_RENDER
 70
     0
 10
0.0
 20
0.0
 30
0.0
  3
AVE_RENDER
  1
AVE_RENDER
  0
ENDBLK
  5
163B
100
AcDbEntity
  8
0
100
AcDbBlockEnd
  0
BLOCK
  5
1648
100
AcDbEntity
  8
0
100
AcDbBlockBegin
  2
AVE_GLOBAL
 70
     0
 10
0.0
 20
0.0
 30
0.0
  3
AVE_GLOBAL
  1
AVE_GLOBAL
  0
ENDBLK
  5
1649
100
AcDbEntity
  8
0
100
AcDbBlockEnd
  0
BLOCK
  5
18AD
100
AcDbEntity
  8
0
100
AcDbBlockBegin
  2
*D8
 70
     1
 10
0.0
 20
0.0
 30
0.0
  3
*D8
  1

  0
LINE
  5
18AE
100
AcDbEntity
  8
0
  6
BYBLOCK
 62
     0
100
AcDbLine
 10
108.252424
 20
169.716495
 30
0.0
 11
108.252424
 21
208.55166
 31
0.0
  0
LINE
  5
18AF
100
AcDbEntity
  8
0
  6
BYBLOCK
 62
     0
100
AcDbLine
 10
119.252424
 20
169.716495
 30
0.0
 11
119.252424
 21
208.55166
 31
0.0
  0
LINE
  5
18B0
100
AcDbEntity
  8
0
  6
BYBLOCK
 62
     0
100
AcDbLine
 10
111.252424
 20
207.55166
 30
0.0
 11
116.252424
 21
207.55166
 31
0.0
  0
SOLID
  5
18B1
100
AcDbEntity
  8
0
  6
BYBLOCK
 62
     0
100
AcDbTrace
 10
111.252424
 20
208.05166
 30
0.0
 11
111.252424
 21
207.05166
 31
0.0
 12
108.252424
 22
207.55166
 32
0.0
 13
108.252424
 23
207.55166
 33
0.0
  0
SOLID
  5
18B2
100
AcDbEntity
  8
0
  6
BYBLOCK
 62
     0
100
AcDbTrace
 10
116.252424
 20
208.05166
 30
0.0
 11
116.252424
 21
207.05166
 31
0.0
 12
119.252424
 22
207.55166
 32
0.0
 13
119.252424
 23
207.55166
 33
0.0
  0
TEXT
  5
18B3
100
AcDbEntity
  8
0
  6
BYBLOCK
 62
     0
100
AcDbText
 10
111.550043
 20
208.80166
 30
0.0
 40
2.5
  1
11
  7
ROMANS
 72
     1
 11
113.752424
 21
210.05166
 31
0.0
100
AcDbText
 73
     2
  0
POINT
  5
18B4
100
AcDbEntity
  8
DEFPOINTS
  6
BYBLOCK
 62
     0
100
AcDbPoint
 10
108.252424
 20
168.716495
 30
0.0
  0
POINT
  5
18B5
100
AcDbEntity
  8
DEFPOINTS
  6
BYBLOCK
 62
     0
100
AcDbPoint
 10
119.252424
 20
168.716495
 30
0.0
  0
POINT
  5
18B6
100
AcDbEntity
  8
DEFPOINTS
  6
BYBLOCK
 62
     0
100
AcDbPoint
 10
119.252424
 20
207.55166
 30
0.0
  0
ENDBLK
  5
18B7
100
AcDbEntity
  8
0
100
AcDbBlockEnd
  0
BLOCK
  5
18B8
100
AcDbEntity
  8
0
100
AcDbBlockBegin
  2
*D9
 70
     1
 10
0.0
 20
0.0
 30
0.0
  3
*D9
  1

  0
LINE
  5
18B9
100
AcDbEntity
  8
0
  6
BYBLOCK
 62
     0
100
AcDbLine
 10
78.252424
 20
191.591495
 30
0.0
 11
78.252424
 21
208.55166
 31
0.0
  0
LINE
  5
18BA
100
AcDbEntity
  8
0
  6
BYBLOCK
 62
     0
100
AcDbLine
 10
108.252424
 20
169.716495
 30
0.0
 11
108.252424
 21
208.55166
 31
0.0
  0
LINE
  5
18BB
100
AcDbEntity
  8
0
  6
BYBLOCK
 62
     0
100
AcDbLine
 10
81.252424
 20
207.55166
 30
0.0
 11
105.252424
 21
207.55166
 31
0.0
  0
SOLID
  5
18BC
100
AcDbEntity
  8
0
  6
BYBLOCK
 62
     0
100
AcDbTrace
 10
81.252424
 20
208.05166
 30
0.0
 11
81.252424
 21
207.05166
 31
0.0
 12
78.252424
 22
207.55166
 32
0.0
 13
78.252424
 23
207.55166
 33
0.0
  0
SOLID
  5
18BD
100
AcDbEntity
  8
0
  6
BYBLOCK
 62
     0
100
AcDbTrace
 10
105.252424
 20
208.05166
 30
0.0
 11
105.252424
 21
207.05166
 31
0.0
 12
108.252424
 22
207.55166
 32
0.0
 13
108.252424
 23
207.55166
 33
0.0
  0
TEXT
  5
18BE
100
AcDbEntity
  8
0
  6
BYBLOCK
 62
     0
100
AcDbText
 10
90.871472
 20
208.80166
 30
0.0
 40
2.5
  1
30
  7
ROMANS
 72
     1
 11
93.252424
 21
210.05166
 31
0.0
100
AcDbText
 73
     2
  0
POINT
  5
18BF
100
AcDbEntity
  8
DEFPOINTS
  6
BYBLOCK
 62
     0
100
AcDbPoint
 10
78.252424
 20
190.591495
 30
0.0
  0
POINT
  5
18C0
100
AcDbEntity
  8
DEFPOINTS
  6
BYBLOCK
 62
     0
100
AcDbPoint
 10
108.252424
 20
168.716495
 30
0.0
  0
POINT
  5
18C1
100
AcDbEntity
  8
DEFPOINTS
  6
BYBLOCK
 62
     0
100
AcDbPoint
 10
108.252424
 20
207.55166
 30
0.0
  0
ENDBLK
  5
18C2
100
AcDbEntity
  8
0
100
AcDbBlockEnd
  0
BLOCK
  5
18C3
100
AcDbEntity
  8
0
100
AcDbBlockBegin
  2
*D10
 70
     1
 10
0.0
 20
0.0
 30
0.0
  3
*D10
  1

  0
LINE
  5
18C4
100
AcDbEntity
  8
0
  6
BYBLOCK
 62
     0
100
AcDbLine
 10
92.252424
 20
169.716495
 30
0.0
 11
92.252424
 21
202.462221
 31
0.0
  0
LINE
  5
18C5
100
AcDbEntity
  8
0
  6
BYBLOCK
 62
     0
100
AcDbLine
 10
103.247424
 20
169.716495
 30
0.0
 11
103.247424
 21
202.462221
 31
0.0
  0
LINE
  5
18C6
100
AcDbEntity
  8
0
  6
BYBLOCK
 62
     0
100
AcDbLine
 10
95.252424
 20
201.462221
 30
0.0
 11
100.247424
 21
201.462221
 31
0.0
  0
SOLID
  5
18C7
100
AcDbEntity
  8
0
  6
BYBLOCK
 62
     0
100
AcDbTrace
 10
95.252424
 20
201.962221
 30
0.0
 11
95.252424
 21
200.962221
 31
0.0
 12
92.252424
 22
201.462221
 32
0.0
 13
92.252424
 23
201.462221
 33
0.0
  0
SOLID
  5
18C8
100
AcDbEntity
  8
0
  6
BYBLOCK
 62
     0
100
AcDbTrace
 10
100.247424
 20
201.962221
 30
0.0
 11
100.247424
 21
200.962221
 31
0.0
 12
103.247424
 22
201.462221
 32
0.0
 13
103.247424
 23
201.462221
 33
0.0
  0
TEXT
  5
18C9
100
AcDbEntity
  8
0
  6
BYBLOCK
 62
     0
100
AcDbText
 10
95.547543
 20
202.712221
 30
0.0
 40
2.5
  1
11
  7
ROMANS
 72
     1
 11
97.749924
 21
203.962221
 31
0.0
100
AcDbText
 73
     2
  0
POINT
  5
18CA
100
AcDbEntity
  8
DEFPOINTS
  6
BYBLOCK
 62
     0
100
AcDbPoint
 10
92.252424
 20
168.716495
 30
0.0
  0
POINT
  5
18CB
100
AcDbEntity
  8
DEFPOINTS
  6
BYBLOCK
 62
     0
100
AcDbPoint
 10
103.247424
 20
168.716495
 30
0.0
  0
POINT
  5
18CC
100
AcDbEntity
  8
DEFPOINTS
  6
BYBLOCK
 62
     0
100
AcDbPoint
 10
103.247424
 20
201.462221
 30
0.0
  0
ENDBLK
  5
18CD
100
AcDbEntity
  8
0
100
AcDbBlockEnd
  0
BLOCK
  5
18CE
100
AcDbEntity
  8
0
100
AcDbBlockBegin
  2
*D11
 70
     1
 10
0.0
 20
0.0
 30
0.0
  3
*D11
  1

  0
LINE
  5
18CF
100
AcDbEntity
  8
0
  6
BYBLOCK
 62
     0
100
AcDbLine
 10
78.252424
 20
191.591495
 30
0.0
 11
78.252424
 21
202.462221
 31
0.0
  0
LINE
  5
18D0
100
AcDbEntity
  8
0
  6
BYBLOCK
 62
     0
100
AcDbLine
 10
92.252424
 20
169.716495
 30
0.0
 11
92.252424
 21
202.462221
 31
0.0
  0
LINE
  5
18D1
100
AcDbEntity
  8
0
  6
BYBLOCK
 62
     0
100
AcDbLine
 10
81.252424
 20
201.462221
 30
0.0
 11
89.252424
 21
201.462221
 31
0.0
  0
SOLID
  5
18D2
100
AcDbEntity
  8
0
  6
BYBLOCK
 62
     0
100
AcDbTrace
 10
81.252424
 20
201.962221
 30
0.0
 11
81.252424
 21
200.962221
 31
0.0
 12
78.252424
 22
201.462221
 32
0.0
 13
78.252424
 23
201.462221
 33
0.0
  0
SOLID
  5
18D3
100
AcDbEntity
  8
0
  6
BYBLOCK
 62
     0
100
AcDbTrace
 10
89.252424
 20
201.962221
 30
0.0
 11
89.252424
 21
200.962221
 31
0.0
 12
92.252424
 22
201.462221
 32
0.0
 13
92.252424
 23
201.462221
 33
0.0
  0
TEXT
  5
18D4
100
AcDbEntity
  8
0
  6
BYBLOCK
 62
     0
100
AcDbText
 10
82.633376
 20
202.712221
 30
0.0
 40
2.5
  1
14
  7
ROMANS
 72
     1
 11
85.252424
 21
203.962221
 31
0.0
100
AcDbText
 73
     2
  0
POINT
  5
18D5
100
AcDbEntity
  8
DEFPOINTS
  6
BYBLOCK
 62
     0
100
AcDbPoint
 10
78.252424
 20
190.591495
 30
0.0
  0
POINT
  5
18D6
100
AcDbEntity
  8
DEFPOINTS
  6
BYBLOCK
 62
     0
100
AcDbPoint
 10
92.252424
 20
168.716495
 30
0.0
  0
POINT
  5
18D7
100
AcDbEntity
  8
DEFPOINTS
  6
BYBLOCK
 62
     0
100
AcDbPoint
 10
92.252424
 20
201.462221
 30
0.0
  0
ENDBLK
  5
18D8
100
AcDbEntity
  8
0
100
AcDbBlockEnd
  0
BLOCK
  5
18D9
100
AcDbEntity
  8
0
100
AcDbBlockBegin
  2
*D12
 70
     1
 10
0.0
 20
0.0
 30
0.0
  3
*D12
  1

  0
LINE
  5
18DA
100
AcDbEntity
  8
0
  6
BYBLOCK
 62
     0
100
AcDbLine
 10
78.252424
 20
102.841495
 30
0.0
 11
78.252424
 21
93.616278
 31
0.0
  0
LINE
  5
18DB
100
AcDbEntity
  8
0
  6
BYBLOCK
 62
     0
100
AcDbLine
 10
122.747424
 20
102.841495
 30
0.0
 11
122.747424
 21
93.616278
 31
0.0
  0
LINE
  5
18DC
100
AcDbEntity
  8
0
  6
BYBLOCK
 62
     0
100
AcDbLine
 10
81.252424
 20
94.616278
 30
0.0
 11
95.6904
 21
94.616278
 31
0.0
  0
LINE
  5
18DD
100
AcDbEntity
  8
0
  6
BYBLOCK
 62
     0
100
AcDbLine
 10
119.747424
 20
94.616278
 30
0.0
 11
105.309448
 21
94.616278
 31
0.0
  0
SOLID
  5
18DE
100
AcDbEntity
  8
0
  6
BYBLOCK
 62
     0
100
AcDbTrace
 10
81.252424
 20
95.116278
 30
0.0
 11
81.252424
 21
94.116278
 31
0.0
 12
78.252424
 22
94.616278
 32
0.0
 13
78.252424
 23
94.616278
 33
0.0
  0
SOLID
  5
18DF
100
AcDbEntity
  8
0
  6
BYBLOCK
 62
     0
100
AcDbTrace
 10
119.747424
 20
95.116278
 30
0.0
 11
119.747424
 21
94.116278
 31
0.0
 12
122.747424
 22
94.616278
 32
0.0
 13
122.747424
 23
94.616278
 33
0.0
  0
TEXT
  5
18E0
100
AcDbEntity
  8
0
  6
BYBLOCK
 62
     0
100
AcDbText
 10
96.333257
 20
93.366278
 30
0.0
 40
2.5
  1
44.5
  7
ROMANS
 72
     1
 11
100.499924
 21
94.616278
 31
0.0
100
AcDbText
 73
     2
  0
POINT
  5
18E1
100
AcDbEntity
  8
DEFPOINTS
  6
BYBLOCK
 62
     0
100
AcDbPoint
 10
78.252424
 20
103.841495
 30
0.0
  0
POINT
  5
18E2
100
AcDbEntity
  8
DEFPOINTS
  6
BYBLOCK
 62
     0
100
AcDbPoint
 10
122.747424
 20
103.841495
 30
0.0
  0
POINT
  5
18E3
100
AcDbEntity
  8
DEFPOINTS
  6
BYBLOCK
 62
     0
100
AcDbPoint
 10
122.747424
 20
94.616278
 30
0.0
  0
ENDBLK
  5
18E4
100
AcDbEntity
  8
0
100
AcDbBlockEnd
  0
BLOCK
  5
18E5
100
AcDbEntity
  8
0
100
AcDbBlockBegin
  2
*D13
 70
     1
 10
0.0
 20
0.0
 30
0.0
  3
*D13
  1

  0
LINE
  5
18E6
100
AcDbEntity
  8
0
  6
BYBLOCK
 62
     0
100
AcDbLine
 10
90.237424
 20
102.591495
 30
0.0
 11
67.629966
 21
102.591495
 31
0.0
  0
LINE
  5
18E7
100
AcDbEntity
  8
0
  6
BYBLOCK
 62
     0
100
AcDbLine
 10
90.237424
 20
191.591495
 30
0.0
 11
67.629966
 21
191.591495
 31
0.0
  0
LINE
  5
18E8
100
AcDbEntity
  8
0
  6
BYBLOCK
 62
     0
100
AcDbLine
 10
68.629966
 20
105.591495
 30
0.0
 11
68.629966
 21
188.591495
 31
0.0
  0
SOLID
  5
18E9
100
AcDbEntity
  8
0
  6
BYBLOCK
 62
     0
100
AcDbTrace
 10
68.129966
 20
105.591495
 30
0.0
 11
69.129966
 21
105.591495
 31
0.0
 12
68.629966
 22
102.591495
 32
0.0
 13
68.629966
 23
102.591495
 33
0.0
  0
SOLID
  5
18EA
100
AcDbEntity
  8
0
  6
BYBLOCK
 62
     0
100
AcDbTrace
 10
68.129966
 20
188.591495
 30
0.0
 11
69.129966
 21
188.591495
 31
0.0
 12
68.629966
 22
191.591495
 32
0.0
 13
68.629966
 23
191.591495
 33
0.0
  0
TEXT
  5
18EB
100
AcDbEntity
  8
0
  6
BYBLOCK
 62
     0
100
AcDbText
 10
67.379966
 20
144.770066
 30
0.0
 40
2.5
  1
89
 50
90.0
  7
ROMANS
 72
     1
 11
66.129966
 21
147.091495
 31
0.0
100
AcDbText
 73
     2
  0
POINT
  5
18EC
100
AcDbEntity
  8
DEFPOINTS
  6
BYBLOCK
 62
     0
100
AcDbPoint
 10
91.237424
 20
102.591495
 30
0.0
  0
POINT
  5
18ED
100
AcDbEntity
  8
DEFPOINTS
  6
BYBLOCK
 62
     0
100
AcDbPoint
 10
91.237424
 20
191.591495
 30
0.0
  0
POINT
  5
18EE
100
AcDbEntity
  8
DEFPOINTS
  6
BYBLOCK
 62
     0
100
AcDbPoint
 10
68.629966
 20
191.591495
 30
0.0
  0
ENDBLK
  5
18EF
100
AcDbEntity
  8
0
100
AcDbBlockEnd
  0
ENDSEC
  0
SECTION
  2
ENTITIES
  0
INSERT
  5
163C
100
AcDbEntity
  8
ASHADE
 62
     1
100
AcDbBlockReference
  2
AVE_RENDER
 10
-260.473332
 20
-119.673021
 30
0.0
1001
AVE_RENDER
1002
{
1070
     6
1000
Pref
1070
    50
1070
    20
1070
     1
1070
     0
1000

1070
    10
1070
     1
1070
    30
1040
25.4
1070
     1
1040
0.3
1040
0.7
1040
0.0
1040
10.0
1010
-1.0
1020
-1.0
1030
-1.0
1040
0.3
1070
    49
1070
     0
1070
     0
1010
1.0
1020
1.0
1030
1.0
1040
45.0
1070
     1
1070
     0
1000
WCS
1040
0.0
1002
}
  0
INSERT
  5
163D
100
AcDbEntity
  8
ASHADE
 62
     3
100
AcDbBlockReference
  2
AVE_RENDER
 10
-260.473332
 20
-119.673021
 30
0.0
1001
AVE_RENDER
1002
{
1070
     0
1000
Full Opt
1070
     0
1070
     1
1070
     1
1070
     1
1070
     0
1070
     0
1070
     0
1070
     1
1070
     1
1040
0.0001
1040
0.0001
1002
}
  0
INSERT
  5
163E
100
AcDbEntity
  8
ASHADE
 62
     4
100
AcDbBlockReference
  2
AVE_RENDER
 10
-260.473332
 20
-119.673021
 30
0.0
1001
AVE_RENDER
1002
{
1070
     0
1000
Quick Opt
1070
     0
1070
     1
1070
     1
1070
     1
1070
     0
1070
     0
1070
     1
1002
}
  0
INSERT
  5
163F
100
AcDbEntity
  8
ASHADE
 62
     5
100
AcDbBlockReference
  2
AVE_RENDER
 10
-260.473332
 20
-119.673021
 30
0.0
1001
AVE_RENDER
1002
{
1070
     1
1000
Scanl Opt
1070
     2
1070
     0
1070
     2
1040
2.0
1040
4.0
1070
     0
1070
     1
1070
     0
1040
0.03
1002
}
  0
INSERT
  5
1640
100
AcDbEntity
  8
ASHADE
 62
     6
100
AcDbBlockReference
  2
AVE_RENDER
 10
-260.473332
 20
-119.673021
 30
0.0
1001
AVE_RENDER
1002
{
1070
     2
1000
Raytr Opt
1070
     2
1070
     0
1070
     2
1040
2.0
1040
4.0
1070
     0
1070
     1
1070
     1
1040
0.03
1070
     3
1040
0.03
1002
}
  0
INSERT
  5
1641
100
AcDbEntity
  8
ASHADE
 62
     7
100
AcDbBlockReference
  2
AVE_RENDER
 10
-260.473332
 20
-119.673021
 30
0.0
1001
AVE_RENDER
1002
{
1070
     0
1000
RFile Opt
1070
     5
1070
   640
1070
   480
1070
 10000
1070
     3
1070
    32
1070
    24
1070
     0
1070
     0
1070
     0
1070
     1
1070
     0
1070
     0
1070
     0
1002
}
  0
INSERT
  5
1642
100
AcDbEntity
  8
ASHADE
 62
     8
100
AcDbBlockReference
  2
AVE_RENDER
 10
-260.473332
 20
-119.673021
 30
0.0
1001
AVE_RENDER
1002
{
1070
     0
1000
Fog Opt
1070
     0
1070
     0
1040
0.0
1040
1.0
1040
0.0
1040
1.0
1010
0.5
1020
0.5
1030
0.5
1002
}
  0
INSERT
  5
1643
100
AcDbEntity
  8
ASHADE
 62
     9
100
AcDbBlockReference
  2
AVE_RENDER
 10
-260.473332
 20
-119.673021
 30
0.0
1001
AVE_RENDER
1002
{
1070
     0
1000
BG Opt
1070
     0
1070
     1
1010
0.0
1020
0.0
1030
0.0
1010
1.0
1020
0.0
1030
0.0
1010
0.0
1020
1.0
1030
0.0
1010
0.0
1020
0.0
1030
1.0
1040
0.5
1040
0.33
1040
0.0
1000

1070
     1
1000

1070
     1
1070
     1
1040
1.0
1040
1.0
1040
0.0
1040
0.0
1070
     0
1002
}
  0
INSERT
  5
164A
100
AcDbEntity
  8
ASHADE
 62
     1
100
AcDbBlockReference
  2
AVE_GLOBAL
 10
-260.473332
 20
-119.673021
 30
0.0
1001
AVE_MATERIAL
1002
{
1000
*GLOBAL*
1000
1
1000
Finition globale.
1002
{
1002
}
1002
{
1070
    63
1002
{
1002
{
1010
-1.0
1020
-1.0
1030
-1.0
1002
}
1040
0.1
1000

1040
0.0
1002
{
1002
}
1040
0.0
1002
{
1002
}
1040
0.0
1002
}
1002
{
1002
{
1010
-1.0
1020
-1.0
1030
-1.0
1002
}
1040
0.7
1000

1040
0.0
1002
{
1002
}
1040
0.0
1002
{
1002
}
1040
0.0
1002
}
1002
{
1002
{
1010
-1.0
1020
-1.0
1030
-1.0
1002
}
1040
0.2
1000

1040
0.0
1002
{
1002
}
1040
0.0
1002
{
1002
}
1040
0.0
1002
}
1002
{
1070
     0
1002
{
1070
     1
1002
{
1040
1.0
1040
1.0
1000

1040
0.0
1002
{
1002
}
1040
0.0
1002
{
1002
}
1040
0.0
1002
}
1002
}
1040
1.0
1040
0.0
1040
0.0
1002
}
1002
{
1040
1.0
1040
1.0
1000

1040
0.0
1002
{
1002
}
1040
0.0
1002
{
1002
}
1040
0.0
1002
}
1002
{
1040
0.5
1040
1.0
1000

1040
0.0
1002
{
1002
}
1040
0.0
1002
{
1002
}
1040
0.0
1002
}
1002
{
1070
     0
1040
0.0
1002
{
1002
}
1040
1.0
1002
{
1002
}
1040
0.0
1002
}
1002
{
1040
0.0
1002
{
1002
{
1010
0.0
1020
0.0
1030
0.0
1002
}
1040
1.0
1000

1040
0.0
1002
{
1002
}
1040
0.0
1002
{
1002
}
1040
0.0
1002
}
1002
}
1002
{
1002
{
1070
     1
1002
{
1040
0.0
1040
1.0
1000

1040
0.0
1002
{
1002
}
1040
0.0
1002
{
1002
}
1040
0.0
1002
}
1002
}
1040
0.0
1002
{
1002
}
1010
1.0
1020
0.0
1030
0.0
1010
0.0
1020
1.0
1030
0.0
1010
0.0
1020
0.0
1030
1.0
1070
     0
1002
}
1002
{
1002
{
1040
1.0
1040
1.0
1002
{
1070
     1
1002
{
1040
1.0
1040
1.0
1000

1040
0.0
1002
{
1002
}
1040
0.0
1002
{
1002
}
1040
0.0
1002
}
1002
}
1002
}
1070
     0
1040
0.0
1002
{
1002
}
1002
}
1002
{
1002
}
1002
}
1002
{
1071
        3
1070
     3
1070
     0
1002
{
1070
     2
1070
     0
1070
     0
1040
0.0
1002
}
1070
     0
1070
     2
1002
{
1002
}
1002
}
1002
{
1040
8030.0
1040
190.300003
1040
0.305
1040
228.0
1040
545.0
1040
14.0
1040
17.4
1040
0.456
1002
}
1002
}
  0
LINE
  5
16D0
100
AcDbEntity
  8
ALPHA
100
AcDbLine
 10
78.252424
 20
103.841495
 30
0.0
 11
78.252424
 21
190.591495
 31
0.0
  0
LINE
  5
16D2
100
AcDbEntity
  8
ALPHA
100
AcDbLine
 10
83.762424
 20
160.466495
 30
0.0
 11
83.762424
 21
160.966495
 31
0.0
  0
LINE
  5
16D3
100
AcDbEntity
  8
ALPHA
100
AcDbLine
 10
85.512424
 20
159.216495
 30
0.0
 11
85.512424
 21
160.466495
 31
0.0
  0
LINE
  5
16D4
100
AcDbEntity
  8
ALPHA
100
AcDbLine
 10
85.512424
 20
160.966495
 30
0.0
 11
85.512424
 21
162.216495
 31
0.0
  0
LINE
  5
16D5
100
AcDbEntity
  8
ALPHA
100
AcDbLine
 10
85.737424
 20
155.116495
 30
0.0
 11
85.737424
 21
156.166495
 31
0.0
  0
ARC
  5
16D6
100
AcDbEntity
  8
ALPHA
100
AcDbCircle
 10
85.737424
 20
160.716495
 30
0.0
 40
4.55
100
AcDbArc
 50
45.0
 51
315.0
  0
LINE
  5
16D7
100
AcDbEntity
  8
ALPHA
100
AcDbLine
 10
85.737424
 20
165.266495
 30
0.0
 11
85.737424
 21
166.316495
 31
0.0
  0
LINE
  5
16D8
100
AcDbEntity
  8
ALPHA
100
AcDbLine
 10
85.762424
 20
156.716495
 30
0.0
 11
86.262424
 21
157.716495
 31
0.0
  0
LINE
  5
16D9
100
AcDbEntity
  8
ALPHA
100
AcDbLine
 10
85.762424
 20
156.716495
 30
0.0
 11
85.262424
 21
157.716495
 31
0.0
  0
CIRCLE
  5
16DA
100
AcDbEntity
  8
ALPHA
100
AcDbCircle
 10
85.762424
 20
160.716495
 30
0.0
 40
4.0
  0
LINE
  5
16DB
100
AcDbEntity
  8
ALPHA
100
AcDbLine
 10
86.012424
 20
159.216495
 30
0.0
 11
86.012424
 21
160.466495
 31
0.0
  0
LINE
  5
16DC
100
AcDbEntity
  8
ALPHA
100
AcDbLine
 10
86.012424
 20
160.966495
 30
0.0
 11
86.012424
 21
162.216495
 31
0.0
  0
CIRCLE
  5
16E0
100
AcDbEntity
  8
ALPHA
100
AcDbCircle
 10
87.012424
 20
183.216495
 30
0.0
 40
3.75
  0
LINE
  5
16E1
100
AcDbEntity
  8
ALPHA
100
AcDbLine
 10
87.762424
 20
160.466495
 30
0.0
 11
87.762424
 21
160.966495
 31
0.0
  0
LINE
  5
16E2
100
AcDbEntity
  8
ALPHA
100
AcDbLine
 10
91.237424
 20
102.591495
 30
0.0
 11
91.237424
 21
103.591495
 31
0.0
  0
LINE
  5
16E3
100
AcDbEntity
  8
ALPHA
100
AcDbLine
 10
91.237424
 20
190.591495
 30
0.0
 11
91.237424
 21
191.591495
 31
0.0
  0
LINE
  5
16E4
100
AcDbEntity
  8
ALPHA
100
AcDbLine
 10
92.252424
 20
146.216495
 30
0.0
 11
92.252424
 21
168.716495
 31
0.0
  0
CIRCLE
  5
16E5
100
AcDbEntity
  8
ALPHA
100
AcDbCircle
 10
97.749924
 20
159.216495
 30
0.0
 40
1.5
  0
CIRCLE
  5
16E9
100
AcDbEntity
  8
ALPHA
100
AcDbCircle
 10
100.487424
 20
183.216495
 30
0.0
 40
3.75
  0
LINE
  5
16EB
100
AcDbEntity
  8
ALPHA
100
AcDbLine
 10
103.247424
 20
146.216495
 30
0.0
 11
103.247424
 21
168.716495
 31
0.0
  0
LINE
  5
16EC
100
AcDbEntity
  8
ALPHA
100
AcDbLine
 10
104.237424
 20
125.716495
 30
0.0
 11
104.237424
 21
133.716495
 31
0.0
  0
LINE
  5
16ED
100
AcDbEntity
  8
ALPHA
100
AcDbLine
 10
108.252424
 20
151.716495
 30
0.0
 11
108.252424
 21
168.716495
 31
0.0
  0
LINE
  5
16EE
100
AcDbEntity
  8
ALPHA
100
AcDbLine
 10
109.737424
 20
102.591495
 30
0.0
 11
109.737424
 21
103.591495
 31
0.0
  0
LINE
  5
16EF
100
AcDbEntity
  8
ALPHA
100
AcDbLine
 10
109.737424
 20
190.591495
 30
0.0
 11
109.737424
 21
191.591495
 31
0.0
  0
CIRCLE
  5
16F4
100
AcDbEntity
  8
ALPHA
100
AcDbCircle
 10
113.987424
 20
183.216495
 30
0.0
 40
3.75
  0
LINE
  5
16F5
100
AcDbEntity
  8
ALPHA
100
AcDbLine
 10
119.252424
 20
151.716495
 30
0.0
 11
119.252424
 21
168.716495
 31
0.0
  0
LINE
  5
16F6
100
AcDbEntity
  8
ALPHA
100
AcDbLine
 10
121.737424
 20
125.716495
 30
0.0
 11
121.737424
 21
133.716495
 31
0.0
  0
LINE
  5
16F7
100
AcDbEntity
  8
ALPHA
100
AcDbLine
 10
122.747424
 20
103.841495
 30
0.0
 11
122.747424
 21
190.591495
 31
0.0
  0
LINE
  5
16F8
100
AcDbEntity
  8
ALPHA
100
AcDbLine
 10
91.237424
 20
102.591495
 30
0.0
 11
109.737424
 21
102.591495
 31
0.0
  0
LINE
  5
16F9
100
AcDbEntity
  8
ALPHA
100
AcDbLine
 10
78.252424
 20
103.841495
 30
0.0
 11
122.747424
 21
103.841495
 31
0.0
  0
LINE
  5
16FD
100
AcDbEntity
  8
ALPHA
100
AcDbLine
 10
78.252424
 20
124.716495
 30
0.0
 11
122.747424
 21
124.716495
 31
0.0
  0
LINE
  5
16FE
100
AcDbEntity
  8
ALPHA
100
AcDbLine
 10
104.237424
 20
125.716495
 30
0.0
 11
121.737424
 21
125.716495
 31
0.0
  0
LINE
  5
1701
100
AcDbEntity
  8
ALPHA
100
AcDbLine
 10
104.237424
 20
133.716495
 30
0.0
 11
121.737424
 21
133.716495
 31
0.0
  0
LINE
  5
1703
100
AcDbEntity
  8
ALPHA
100
AcDbLine
 10
109.502424
 20
146.716495
 30
0.0
 11
118.002424
 21
146.716495
 31
0.0
  0
LINE
  5
1704
100
AcDbEntity
  8
ALPHA
100
AcDbLine
 10
81.737424
 20
156.716495
 30
0.0
 11
82.487424
 21
157.466495
 31
0.0
  0
LINE
  5
1705
100
AcDbEntity
  8
ALPHA
100
AcDbLine
 10
88.987424
 20
157.466495
 30
0.0
 11
89.737424
 21
156.716495
 31
0.0
  0
LINE
  5
1706
100
AcDbEntity
  8
ALPHA
100
AcDbLine
 10
85.262424
 20
157.716495
 30
0.0
 11
86.262424
 21
157.716495
 31
0.0
  0
LINE
  5
1707
100
AcDbEntity
  8
ALPHA
100
AcDbLine
 10
85.512424
 20
159.216495
 30
0.0
 11
86.012424
 21
159.216495
 31
0.0
  0
LINE
  5
1708
100
AcDbEntity
  8
ALPHA
100
AcDbLine
 10
83.762424
 20
160.466495
 30
0.0
 11
85.512424
 21
160.466495
 31
0.0
  0
LINE
  5
1709
100
AcDbEntity
  8
ALPHA
100
AcDbLine
 10
86.012424
 20
160.466495
 30
0.0
 11
87.762424
 21
160.466495
 31
0.0
  0
LINE
  5
170A
100
AcDbEntity
  8
ALPHA
100
AcDbLine
 10
80.137424
 20
160.716495
 30
0.0
 11
81.187424
 21
160.716495
 31
0.0
  0
LINE
  5
170B
100
AcDbEntity
  8
ALPHA
100
AcDbLine
 10
83.762424
 20
160.966495
 30
0.0
 11
85.512424
 21
160.966495
 31
0.0
  0
LINE
  5
170C
100
AcDbEntity
  8
ALPHA
100
AcDbLine
 10
86.012424
 20
160.966495
 30
0.0
 11
87.762424
 21
160.966495
 31
0.0
  0
LINE
  5
170D
100
AcDbEntity
  8
ALPHA
100
AcDbLine
 10
85.512424
 20
162.216495
 30
0.0
 11
86.012424
 21
162.216495
 31
0.0
  0
LINE
  5
170E
100
AcDbEntity
  8
ALPHA
100
AcDbLine
 10
88.987424
 20
163.966495
 30
0.0
 11
89.737424
 21
164.716495
 31
0.0
  0
LINE
  5
170F
100
AcDbEntity
  8
ALPHA
100
AcDbLine
 10
81.737424
 20
164.716495
 30
0.0
 11
82.487424
 21
163.966495
 31
0.0
  0
LINE
  5
1710
100
AcDbEntity
  8
ALPHA
100
AcDbLine
 10
92.252424
 20
165.716495
 30
0.0
 11
103.247424
 21
165.716495
 31
0.0
  0
LINE
  5
1711
100
AcDbEntity
  8
ALPHA
100
AcDbLine
 10
92.252424
 20
168.716495
 30
0.0
 11
119.252424
 21
168.716495
 31
0.0
  0
LINE
  5
1712
100
AcDbEntity
  8
ALPHA
100
AcDbLine
 10
78.252424
 20
169.716495
 30
0.0
 11
122.747424
 21
169.716495
 31
0.0
  0
LINE
  5
1713
100
AcDbEntity
  8
ALPHA
100
AcDbLine
 10
78.252424
 20
178.716495
 30
0.0
 11
122.747424
 21
178.716495
 31
0.0
  0
LINE
  5
1717
100
AcDbEntity
  8
ALPHA
100
AcDbLine
 10
78.252424
 20
190.591495
 30
0.0
 11
122.747424
 21
190.591495
 31
0.0
  0
LINE
  5
1718
100
AcDbEntity
  8
ALPHA
100
AcDbLine
 10
91.237424
 20
191.591495
 30
0.0
 11
109.737424
 21
191.591495
 31
0.0
  0
LINE
  5
174A
100
AcDbEntity
  8
ALPHA
100
AcDbLine
 10
88.571003
 20
180.95081
 30
0.0
 11
87.012424
 21
182.509388
 31
0.0
  0
LINE
  5
174B
100
AcDbEntity
  8
ALPHA
100
AcDbLine
 10
89.278109
 20
181.657916
 30
0.0
 11
87.71953
 21
183.216495
 31
0.0
  0
LINE
  5
174C
100
AcDbEntity
  8
ALPHA
100
AcDbLine
 10
84.714327
 20
180.211291
 30
0.0
 11
87.012424
 21
182.509388
 31
0.0
  0
LINE
  5
174D
100
AcDbEntity
  8
ALPHA
100
AcDbLine
 10
84.00722
 20
180.918398
 30
0.0
 11
86.305317
 21
183.216495
 31
0.0
  0
ARC
  5
174E
100
AcDbEntity
  8
ALPHA
100
AcDbCircle
 10
87.012424
 20
183.216495
 30
0.0
 40
2.75
100
AcDbArc
 50
304.524318
 51
325.475682
  0
ARC
  5
174F
100
AcDbEntity
  8
ALPHA
100
AcDbCircle
 10
87.012424
 20
183.216495
 30
0.0
 40
2.75
100
AcDbArc
 50
124.524318
 51
145.475682
  0
LINE
  5
1750
100
AcDbEntity
  8
ALPHA
100
AcDbLine
 10
87.012424
 20
183.923602
 30
0.0
 11
85.453845
 21
185.482181
 31
0.0
  0
LINE
  5
1751
100
AcDbEntity
  8
ALPHA
100
AcDbLine
 10
86.305317
 20
183.216495
 30
0.0
 11
84.746738
 21
184.775074
 31
0.0
  0
LINE
  5
1752
100
AcDbEntity
  8
ALPHA
100
AcDbLine
 10
87.012424
 20
183.923602
 30
0.0
 11
89.310521
 21
186.221699
 31
0.0
  0
LINE
  5
1753
100
AcDbEntity
  8
ALPHA
100
AcDbLine
 10
87.71953
 20
183.216495
 30
0.0
 11
90.017628
 21
185.514592
 31
0.0
  0
LINE
  5
1754
100
AcDbEntity
  8
ALPHA
100
AcDbLine
 10
101.19453
 20
183.216495
 30
0.0
 11
103.492628
 21
185.514592
 31
0.0
  0
LINE
  5
1755
100
AcDbEntity
  8
ALPHA
100
AcDbLine
 10
98.189327
 20
180.211291
 30
0.0
 11
100.487424
 21
182.509388
 31
0.0
  0
LINE
  5
1756
100
AcDbEntity
  8
ALPHA
100
AcDbLine
 10
97.48222
 20
180.918398
 30
0.0
 11
99.780317
 21
183.216495
 31
0.0
  0
LINE
  5
1757
100
AcDbEntity
  8
ALPHA
100
AcDbLine
 10
99.780317
 20
183.216495
 30
0.0
 11
98.221738
 21
184.775074
 31
0.0
  0
LINE
  5
1758
100
AcDbEntity
  8
ALPHA
100
AcDbLine
 10
102.046003
 20
180.95081
 30
0.0
 11
100.487424
 21
182.509388
 31
0.0
  0
LINE
  5
1759
100
AcDbEntity
  8
ALPHA
100
AcDbLine
 10
102.753109
 20
181.657916
 30
0.0
 11
101.19453
 21
183.216495
 31
0.0
  0
ARC
  5
175A
100
AcDbEntity
  8
ALPHA
100
AcDbCircle
 10
100.487424
 20
183.216495
 30
0.0
 40
2.75
100
AcDbArc
 50
304.524318
 51
325.475682
  0
LINE
  5
175B
100
AcDbEntity
  8
ALPHA
100
AcDbLine
 10
100.487424
 20
183.923602
 30
0.0
 11
102.785521
 21
186.221699
 31
0.0
  0
LINE
  5
175C
100
AcDbEntity
  8
ALPHA
100
AcDbLine
 10
100.487424
 20
183.923602
 30
0.0
 11
98.928845
 21
185.482181
 31
0.0
  0
ARC
  5
175D
100
AcDbEntity
  8
ALPHA
100
AcDbCircle
 10
100.487424
 20
183.216495
 30
0.0
 40
2.75
100
AcDbArc
 50
124.524318
 51
145.475682
  0
LINE
  5
175E
100
AcDbEntity
  8
ALPHA
100
AcDbLine
 10
114.69453
 20
183.216495
 30
0.0
 11
116.992628
 21
185.514592
 31
0.0
  0
LINE
  5
175F
100
AcDbEntity
  8
ALPHA
100
AcDbLine
 10
111.689327
 20
180.211291
 30
0.0
 11
113.987424
 21
182.509388
 31
0.0
  0
LINE
  5
1760
100
AcDbEntity
  8
ALPHA
100
AcDbLine
 10
110.98222
 20
180.918398
 30
0.0
 11
113.280317
 21
183.216495
 31
0.0
  0
LINE
  5
1761
100
AcDbEntity
  8
ALPHA
100
AcDbLine
 10
113.280317
 20
183.216495
 30
0.0
 11
111.721738
 21
184.775074
 31
0.0
  0
LINE
  5
1762
100
AcDbEntity
  8
ALPHA
100
AcDbLine
 10
115.546003
 20
180.95081
 30
0.0
 11
113.987424
 21
182.509388
 31
0.0
  0
LINE
  5
1763
100
AcDbEntity
  8
ALPHA
100
AcDbLine
 10
116.253109
 20
181.657916
 30
0.0
 11
114.69453
 21
183.216495
 31
0.0
  0
ARC
  5
1764
100
AcDbEntity
  8
ALPHA
100
AcDbCircle
 10
113.987424
 20
183.216495
 30
0.0
 40
2.75
100
AcDbArc
 50
304.524318
 51
325.475682
  0
LINE
  5
1765
100
AcDbEntity
  8
ALPHA
100
AcDbLine
 10
113.987424
 20
183.923602
 30
0.0
 11
116.285521
 21
186.221699
 31
0.0
  0
LINE
  5
1766
100
AcDbEntity
  8
ALPHA
100
AcDbLine
 10
113.987424
 20
183.923602
 30
0.0
 11
112.428845
 21
185.482181
 31
0.0
  0
ARC
  5
1767
100
AcDbEntity
  8
ALPHA
100
AcDbCircle
 10
113.987424
 20
183.216495
 30
0.0
 40
2.75
100
AcDbArc
 50
124.524318
 51
145.475682
  0
CIRCLE
  5
1768
100
AcDbEntity
  8
ALPHA
100
AcDbCircle
 10
113.987424
 20
111.216495
 30
0.0
 40
3.75
  0
LINE
  5
1769
100
AcDbEntity
  8
ALPHA
100
AcDbLine
 10
111.689327
 20
114.221699
 30
0.0
 11
113.987424
 21
111.923602
 31
0.0
  0
LINE
  5
176A
100
AcDbEntity
  8
ALPHA
100
AcDbLine
 10
110.98222
 20
113.514592
 30
0.0
 11
113.280317
 21
111.216495
 31
0.0
  0
LINE
  5
176B
100
AcDbEntity
  8
ALPHA
100
AcDbLine
 10
113.280317
 20
111.216495
 30
0.0
 11
111.721738
 21
109.657916
 31
0.0
  0
ARC
  5
176C
100
AcDbEntity
  8
ALPHA
100
AcDbCircle
 10
113.987424
 20
111.216495
 30
0.0
 40
2.75
100
AcDbArc
 50
214.524318
 51
235.475682
  0
CIRCLE
  5
176D
100
AcDbEntity
  8
ALPHA
100
AcDbCircle
 10
100.487424
 20
111.216495
 30
0.0
 40
3.75
  0
CIRCLE
  5
176E
100
AcDbEntity
  8
ALPHA
100
AcDbCircle
 10
87.012424
 20
111.216495
 30
0.0
 40
3.75
  0
LINE
  5
176F
100
AcDbEntity
  8
ALPHA
100
AcDbLine
 10
87.71953
 20
111.216495
 30
0.0
 11
90.017628
 21
108.918398
 31
0.0
  0
ARC
  5
1770
100
AcDbEntity
  8
ALPHA
100
AcDbCircle
 10
87.012424
 20
111.216495
 30
0.0
 40
2.75
100
AcDbArc
 50
214.524318
 51
235.475682
  0
ARC
  5
1771
100
AcDbEntity
  8
ALPHA
100
AcDbCircle
 10
87.012424
 20
111.216495
 30
0.0
 40
2.75
100
AcDbArc
 50
34.524318
 51
55.475682
  0
LINE
  5
1772
100
AcDbEntity
  8
ALPHA
100
AcDbLine
 10
89.278109
 20
112.775074
 30
0.0
 11
87.71953
 21
111.216495
 31
0.0
  0
LINE
  5
1773
100
AcDbEntity
  8
ALPHA
100
AcDbLine
 10
87.012424
 20
110.509388
 30
0.0
 11
85.453845
 21
108.95081
 31
0.0
  0
LINE
  5
1774
100
AcDbEntity
  8
ALPHA
100
AcDbLine
 10
88.571003
 20
113.482181
 30
0.0
 11
87.012424
 21
111.923602
 31
0.0
  0
LINE
  5
1775
100
AcDbEntity
  8
ALPHA
100
AcDbLine
 10
86.305317
 20
111.216495
 30
0.0
 11
84.746738
 21
109.657916
 31
0.0
  0
LINE
  5
1776
100
AcDbEntity
  8
ALPHA
100
AcDbLine
 10
84.00722
 20
113.514592
 30
0.0
 11
86.305317
 21
111.216495
 31
0.0
  0
LINE
  5
1777
100
AcDbEntity
  8
ALPHA
100
AcDbLine
 10
87.012424
 20
110.509388
 30
0.0
 11
89.310521
 21
108.211291
 31
0.0
  0
LINE
  5
1778
100
AcDbEntity
  8
ALPHA
100
AcDbLine
 10
84.714327
 20
114.221699
 30
0.0
 11
87.012424
 21
111.923602
 31
0.0
  0
LINE
  5
1779
100
AcDbEntity
  8
ALPHA
100
AcDbLine
 10
101.19453
 20
111.216495
 30
0.0
 11
103.492628
 21
108.918398
 31
0.0
  0
LINE
  5
177A
100
AcDbEntity
  8
ALPHA
100
AcDbLine
 10
98.189327
 20
114.221699
 30
0.0
 11
100.487424
 21
111.923602
 31
0.0
  0
LINE
  5
177B
100
AcDbEntity
  8
ALPHA
100
AcDbLine
 10
97.48222
 20
113.514592
 30
0.0
 11
99.780317
 21
111.216495
 31
0.0
  0
LINE
  5
177C
100
AcDbEntity
  8
ALPHA
100
AcDbLine
 10
99.780317
 20
111.216495
 30
0.0
 11
98.221738
 21
109.657916
 31
0.0
  0
LINE
  5
177D
100
AcDbEntity
  8
ALPHA
100
AcDbLine
 10
102.046003
 20
113.482181
 30
0.0
 11
100.487424
 21
111.923602
 31
0.0
  0
LINE
  5
177E
100
AcDbEntity
  8
ALPHA
100
AcDbLine
 10
102.753109
 20
112.775074
 30
0.0
 11
101.19453
 21
111.216495
 31
0.0
  0
ARC
  5
177F
100
AcDbEntity
  8
ALPHA
100
AcDbCircle
 10
100.487424
 20
111.216495
 30
0.0
 40
2.75
100
AcDbArc
 50
34.524318
 51
55.475682
  0
LINE
  5
1780
100
AcDbEntity
  8
ALPHA
100
AcDbLine
 10
100.487424
 20
110.509388
 30
0.0
 11
102.785521
 21
108.211291
 31
0.0
  0
LINE
  5
1781
100
AcDbEntity
  8
ALPHA
100
AcDbLine
 10
100.487424
 20
110.509388
 30
0.0
 11
98.928845
 21
108.95081
 31
0.0
  0
ARC
  5
1782
100
AcDbEntity
  8
ALPHA
100
AcDbCircle
 10
100.487424
 20
111.216495
 30
0.0
 40
2.75
100
AcDbArc
 50
214.524318
 51
235.475682
  0
LINE
  5
1783
100
AcDbEntity
  8
ALPHA
100
AcDbLine
 10
114.69453
 20
111.216495
 30
0.0
 11
116.992628
 21
108.918398
 31
0.0
  0
LINE
  5
1784
100
AcDbEntity
  8
ALPHA
100
AcDbLine
 10
115.546003
 20
113.482181
 30
0.0
 11
113.987424
 21
111.923602
 31
0.0
  0
LINE
  5
1785
100
AcDbEntity
  8
ALPHA
100
AcDbLine
 10
116.253109
 20
112.775074
 30
0.0
 11
114.69453
 21
111.216495
 31
0.0
  0
ARC
  5
1786
100
AcDbEntity
  8
ALPHA
100
AcDbCircle
 10
113.987424
 20
111.216495
 30
0.0
 40
2.75
100
AcDbArc
 50
34.524318
 51
55.475682
  0
LINE
  5
1787
100
AcDbEntity
  8
ALPHA
100
AcDbLine
 10
113.987424
 20
110.509388
 30
0.0
 11
116.285521
 21
108.211291
 31
0.0
  0
LINE
  5
1788
100
AcDbEntity
  8
ALPHA
100
AcDbLine
 10
113.987424
 20
110.509388
 30
0.0
 11
112.428845
 21
108.95081
 31
0.0
  0
LINE
  5
178B
100
AcDbEntity
  8
ALPHA
100
AcDbLine
 10
92.752424
 20
145.716495
 30
0.0
 11
102.747424
 21
145.716495
 31
0.0
  0
CIRCLE
  5
178E
100
AcDbEntity
  8
ALPHA
100
AcDbCircle
 10
97.749924
 20
159.216495
 30
0.0
 40
1.25
  0
LINE
  5
178F
100
AcDbEntity
  8
ALPHA
100
AcDbLine
 10
114.012424
 20
162.216495
 30
0.0
 11
114.012424
 21
166.216495
 31
0.0
  0
LINE
  5
1790
100
AcDbEntity
  8
ALPHA
100
AcDbLine
 10
113.512424
 20
162.216495
 30
0.0
 11
113.512424
 21
166.216495
 31
0.0
  0
LINE
  5
1791
100
AcDbEntity
  8
ALPHA
100
AcDbLine
 10
113.512424
 20
166.216495
 30
0.0
 11
114.012424
 21
166.216495
 31
0.0
  0
LINE
  5
1792
100
AcDbEntity
  8
ALPHA
100
AcDbLine
 10
113.512424
 20
162.216495
 30
0.0
 11
114.012424
 21
162.216495
 31
0.0
  0
LINE
  5
1793
100
AcDbEntity
  8
ALPHA
100
AcDbLine
 10
92.252424
 20
155.716495
 30
0.0
 11
103.247424
 21
155.716495
 31
0.0
  0
ARC
  5
1795
100
AcDbEntity
  8
ALPHA
100
AcDbCircle
 10
92.752424
 20
146.216495
 30
0.0
 40
0.5
100
AcDbArc
 50
180.0
 51
270.0
  0
ARC
  5
1796
100
AcDbEntity
  8
ALPHA
100
AcDbCircle
 10
102.747424
 20
146.216495
 30
0.0
 40
0.5
100
AcDbArc
 50
270.0
 51
0.0
  0
LINE
  5
1798
100
AcDbEntity
  8
ALPHA
100
AcDbLine
 10
118.502424
 20
151.216495
 30
0.0
 11
118.752424
 21
151.216495
 31
0.0
  0
LINE
  5
179A
100
AcDbEntity
  8
ALPHA
100
AcDbLine
 10
109.502424
 20
146.716495
 30
0.0
 11
109.502424
 21
150.748249
 31
0.0
  0
LINE
  5
179B
100
AcDbEntity
  8
ALPHA
100
AcDbLine
 10
118.002424
 20
146.716495
 30
0.0
 11
118.002424
 21
150.716495
 31
0.0
  0
ARC
  5
179C
100
AcDbEntity
  8
ALPHA
100
AcDbCircle
 10
108.752424
 20
151.716495
 30
0.0
 40
0.5
100
AcDbArc
 50
180.0
 51
284.477512
  0
ARC
  5
179D
100
AcDbEntity
  8
ALPHA
100
AcDbCircle
 10
118.752424
 20
151.716495
 30
0.0
 40
0.5
100
AcDbArc
 50
270.0
 51
0.0
  0
ARC
  5
179E
100
AcDbEntity
  8
ALPHA
100
AcDbCircle
 10
118.502424
 20
150.716495
 30
0.0
 40
0.5
100
AcDbArc
 50
90.0
 51
180.0
  0
ARC
  5
179F
100
AcDbEntity
  8
ALPHA
100
AcDbCircle
 10
109.002424
 20
150.748249
 30
0.0
 40
0.5
100
AcDbArc
 50
0.0
 51
104.477512
  0
LINE
  5
17A0
100
AcDbEntity
  8
ALPHA
100
AcDbLine
 10
108.877424
 20
151.232372
 30
0.0
 11
118.502424
 21
151.216495
 31
0.0
  0
LINE
  5
17A3
100
AcDbEntity
  8
ALPHA
100
AcDbLine
 10
108.252424
 20
160.216495
 30
0.0
 11
119.252424
 21
160.216495
 31
0.0
  0
LINE
  5
17A4
100
AcDbEntity
  8
ALPHA
100
AcDbLine
 10
91.262424
 20
133.216495
 30
0.0
 11
95.762424
 21
133.216495
 31
0.0
  0
LINE
  5
17A5
100
AcDbEntity
  8
ALPHA
100
AcDbLine
 10
91.262424
 20
136.216495
 30
0.0
 11
95.762424
 21
136.216495
 31
0.0
  0
LINE
  5
17A6
100
AcDbEntity
  8
ALPHA
100
AcDbLine
 10
90.762424
 20
133.716495
 30
0.0
 11
90.762424
 21
135.716495
 31
0.0
  0
LINE
  5
17A7
100
AcDbEntity
  8
ALPHA
100
AcDbLine
 10
96.262424
 20
133.716495
 30
0.0
 11
96.262424
 21
135.716495
 31
0.0
  0
ARC
  5
17A8
100
AcDbEntity
  8
ALPHA
100
AcDbCircle
 10
91.262424
 20
135.716495
 30
0.0
 40
0.5
100
AcDbArc
 50
90.0
 51
180.0
  0
ARC
  5
17A9
100
AcDbEntity
  8
ALPHA
100
AcDbCircle
 10
95.762424
 20
135.716495
 30
0.0
 40
0.5
100
AcDbArc
 50
0.0
 51
90.0
  0
ARC
  5
17AA
100
AcDbEntity
  8
ALPHA
100
AcDbCircle
 10
95.762424
 20
133.716495
 30
0.0
 40
0.5
100
AcDbArc
 50
270.0
 51
0.0
  0
ARC
  5
17AB
100
AcDbEntity
  8
ALPHA
100
AcDbCircle
 10
91.262424
 20
133.716495
 30
0.0
 40
0.5
100
AcDbArc
 50
180.0
 51
270.0
  0
DIMENSION
  5
17B8
100
AcDbEntity
  8
COTATION1
100
AcDbDimension
  2
*D13
 10
68.629966
 20
191.591495
 30
0.0
 11
66.129966
 21
147.091495
 31
0.0
  3
SC_STAND
100
AcDbAlignedDimension
 13
91.237424
 23
102.591495
 33
0.0
 14
91.237424
 24
191.591495
 34
0.0
 50
90.0
100
AcDbRotatedDimension
  0
DIMENSION
  5
17D1
100
AcDbEntity
  8
COTATION1
100
AcDbDimension
  2
*D12
 10
122.747424
 20
94.616278
 30
0.0
 11
100.499924
 21
94.616278
 31
0.0
 70
   128
  3
SC_STAND
100
AcDbAlignedDimension
 13
78.252424
 23
103.841495
 33
0.0
 14
122.747424
 24
103.841495
 34
0.0
100
AcDbRotatedDimension
  0
DIMENSION
  5
1801
100
AcDbEntity
  8
COTATION1
100
AcDbDimension
  2
*D11
 10
92.252424
 20
201.462221
 30
0.0
 11
85.252424
 21
203.962221
 31
0.0
  3
SC_STAND
100
AcDbAlignedDimension
 13
78.252424
 23
190.591495
 33
0.0
 14
92.252424
 24
168.716495
 34
0.0
100
AcDbRotatedDimension
  0
DIMENSION
  5
183D
100
AcDbEntity
  8
COTATION1
100
AcDbDimension
  2
*D10
 10
103.247424
 20
201.462221
 30
0.0
 11
97.749924
 21
203.962221
 31
0.0
  3
SC_STAND
100
AcDbAlignedDimension
 13
92.252424
 23
168.716495
 33
0.0
 14
103.247424
 24
168.716495
 34
0.0
100
AcDbRotatedDimension
  0
DIMENSION
  5
1855
100
AcDbEntity
  8
COTATION1
100
AcDbDimension
  2
*D9
 10
108.252424
 20
207.55166
 30
0.0
 11
93.252424
 21
210.05166
 31
0.0
  3
SC_STAND
100
AcDbAlignedDimension
 13
78.252424
 23
190.591495
 33
0.0
 14
108.252424
 24
168.716495
 34
0.0
100
AcDbRotatedDimension
  0
DIMENSION
  5
186E
100
AcDbEntity
  8
COTATION1
100
AcDbDimension
  2
*D8
 10
119.252424
 20
207.55166
 30
0.0
 11
113.752424
 21
210.05166
 31
0.0
  3
SC_STAND
100
AcDbAlignedDimension
 13
108.252424
 23
168.716495
 33
0.0
 14
119.252424
 24
168.716495
 34
0.0
100
AcDbRotatedDimension
  0
TEXT
  5
18AC
100
AcDbEntity
  8
TEXTE
100
AcDbText
 10
91.499924
 20
80.237903
 30
0.0
 40
3.5
  1
GV2-M
  7
ROMANS
 72
     1
 11
100.499924
 21
80.237903
 31
0.0
100
AcDbText
  0
VIEWPORT
  5
1FE
100
AcDbEntity
 67
     1
  8
0
100
AcDbViewport
 10
251.108558
 20
148.5
 30
0.0
 40
8035.473851
 41
4752.0
 68
    -1
 69
     1
1001
ACAD
1000
MVIEW
1002
{
1070
    16
1010
0.0
1020
0.0
1030
0.0
1010
0.0
1020
0.0
1030
1.0
1040
0.0
1040
4752.0
1040
251.108558
1040
148.5
1040
50.0
1040
0.0
1040
0.0
1070
     0
1070
   100
1070
     1
1070
     1
1070
     0
1070
     0
1070
     0
1070
     0
1040
0.0
1040
0.0
1040
0.0
1040
1.0
1040
1.0
1040
0.0
1040
0.0
1070
     0
1002
{
1002
}
1002
}
  0
ENDSEC
  0
SECTION
  2
OBJECTS
  0
DICTIONARY
  5
18FB
100
AcDbDictionary
  3
ACAD_GROUP
350
18FC
  3
ACAD_MLINESTYLE
350
190A
  0
DICTIONARY
  5
18FC
102
{ACAD_REACTORS
330
18FB
102
}
100
AcDbDictionary
  0
DICTIONARY
  5
190A
102
{ACAD_REACTORS
330
18FB
102
}
100
AcDbDictionary
  3
STANDARD
350
190B
  0
MLINESTYLE
  5
190B
102
{ACAD_REACTORS
330
190A
102
}
100
AcDbMlineStyle
  2
STANDARD
 70
     0
  3

 62
   256
 51
90.0
 52
90.0
 71
     2
 49
0.5
 62
   256
  6
BYLAYER
 49
-0.5
 62
   256
  6
BYLAYER
  0
ENDSEC
  0
EOF
