  0
SECTION
  2
HEADER
  9
$ACADVER
  1
AC1009
  9
$INSBASE
 10
402.590624
 20
-1.041018
 30
0.0
  9
$EXTMIN
 10
40.592473
 20
35.228457
 30
0.0
  9
$EXTMAX
 10
131.321342
 20
182.209258
 30
0.0
  9
$LIMMIN
 10
-407.970438
 20
-367.832444
  9
$LIMMAX
 10
429.804077
 20
234.370848
  9
$ORTHOMODE
 70
     0
  9
$REGENMODE
 70
     1
  9
$FILLMODE
 70
     1
  9
$QTEXTMODE
 70
     0
  9
$MIRRTEXT
 70
     1
  9
$DRAGMODE
 70
     2
  9
$LTSCALE
 40
10.0
  9
$OSMODE
 70
   161
  9
$ATTMODE
 70
     1
  9
$TEXTSIZE
 40
6.0
  9
$TRACEWID
 40
1.0
  9
$TEXTSTYLE
  7
ROMANS
  9
$CLAYER
  8
ALPHA
  9
$CELTYPE
  6
BYLAYER
  9
$CECOLOR
 62
   256
  9
$DIMSCALE
 40
1.0
  9
$DIMASZ
 40
5.0
  9
$DIMEXO
 40
2.0
  9
$DIMDLI
 40
0.38
  9
$DIMRND
 40
0.0
  9
$DIMDLE
 40
0.0
  9
$DIMEXE
 40
2.5
  9
$DIMTP
 40
0.0
  9
$DIMTM
 40
0.0
  9
$DIMTXT
 40
2.5
  9
$DIMCEN
 40
0.0
  9
$DIMTSZ
 40
0.0
  9
$DIMTOL
 70
     0
  9
$DIMLIM
 70
     0
  9
$DIMTIH
 70
     1
  9
$DIMTOH
 70
     1
  9
$DIMSE1
 70
     0
  9
$DIMSE2
 70
     0
  9
$DIMTAD
 70
     1
  9
$DIMZIN
 70
    12
  9
$DIMBLK
  1
OPEN30
  9
$DIMASO
 70
     1
  9
$DIMSHO
 70
     1
  9
$DIMPOST
  1

  9
$DIMAPOST
  1

  9
$DIMALT
 70
     0
  9
$DIMALTD
 70
     2
  9
$DIMALTF
 40
25.4
  9
$DIMLFAC
 40
1.0
  9
$DIMTOFL
 70
     0
  9
$DIMTVP
 40
0.0
  9
$DIMTIX
 70
     0
  9
$DIMSOXD
 70
     0
  9
$DIMSAH
 70
     0
  9
$DIMBLK1
  1

  9
$DIMBLK2
  1

  9
$DIMSTYLE
  2
SC_DEFAUT
  9
$DIMCLRD
 70
     0
  9
$DIMCLRE
 70
     0
  9
$DIMCLRT
 70
     0
  9
$DIMTFAC
 40
1.0
  9
$DIMGAP
 40
2.0
  9
$LUNITS
 70
     2
  9
$LUPREC
 70
     1
  9
$SKETCHINC
 40
0.1
  9
$FILLETRAD
 40
5.0
  9
$AUNITS
 70
     0
  9
$AUPREC
 70
     0
  9
$MENU
  1
acad
  9
$ELEVATION
 40
0.0
  9
$PELEVATION
 40
0.0
  9
$THICKNESS
 40
0.0
  9
$LIMCHECK
 70
     0
  9
$BLIPMODE
 70
     0
  9
$CHAMFERA
 40
0.0
  9
$CHAMFERB
 40
0.0
  9
$SKPOLY
 70
     0
  9
$TDCREATE
 40
2450373.687919
  9
$TDUPDATE
 40
2452832.663258
  9
$TDINDWG
 40
1.587905
  9
$TDUSRTIMER
 40
1.587905
  9
$USRTIMER
 70
     1
  9
$ANGBASE
 50
0.0
  9
$ANGDIR
 70
     0
  9
$PDMODE
 70
    32
  9
$PDSIZE
 40
0.0
  9
$PLINEWID
 40
0.0
  9
$COORDS
 70
     1
  9
$SPLFRAME
 70
     0
  9
$SPLINETYPE
 70
     6
  9
$SPLINESEGS
 70
     8
  9
$ATTDIA
 70
     0
  9
$ATTREQ
 70
     1
  9
$HANDLING
 70
     1
  9
$HANDSEED
  5
10A69
  9
$SURFTAB1
 70
     6
  9
$SURFTAB2
 70
     6
  9
$SURFTYPE
 70
     6
  9
$SURFU
 70
     6
  9
$SURFV
 70
     6
  9
$UCSNAME
  2

  9
$UCSORG
 10
0.0
 20
0.0
 30
0.0
  9
$UCSXDIR
 10
1.0
 20
0.0
 30
0.0
  9
$UCSYDIR
 10
0.0
 20
1.0
 30
0.0
  9
$PUCSNAME
  2

  9
$PUCSORG
 10
0.0
 20
0.0
 30
0.0
  9
$PUCSXDIR
 10
1.0
 20
0.0
 30
0.0
  9
$PUCSYDIR
 10
0.0
 20
1.0
 30
0.0
  9
$USERI1
 70
     0
  9
$USERI2
 70
     0
  9
$USERI3
 70
     0
  9
$USERI4
 70
     0
  9
$USERI5
 70
     0
  9
$USERR1
 40
0.0
  9
$USERR2
 40
0.0
  9
$USERR3
 40
0.0
  9
$USERR4
 40
0.0
  9
$USERR5
 40
0.0
  9
$WORLDVIEW
 70
     1
  9
$SHADEDGE
 70
     3
  9
$SHADEDIF
 70
    70
  9
$TILEMODE
 70
     1
  9
$MAXACTVP
 70
    16
  9
$PLIMCHECK
 70
     0
  9
$PEXTMIN
 10
-1.452248
 20
-0.437698
 30
0.0
  9
$PEXTMAX
 10
12.749749
 20
8.310198
 30
0.0
  9
$PLIMMIN
 10
0.0
 20
0.0
  9
$PLIMMAX
 10
12.0
 20
9.0
  9
$UNITMODE
 70
     0
  9
$VISRETAIN
 70
     0
  9
$PLINEGEN
 70
     0
  9
$PSLTSCALE
 70
     0
  0
ENDSEC
  0
SECTION
  2
TABLES
  0
TABLE
  2
VPORT
 70
     2
  0
VPORT
  2
*ACTIVE
 70
     0
 10
0.0
 20
0.0
 11
1.0
 21
1.0
 12
85.955524
 22
108.731116
 13
0.0
 23
0.0
 14
1.0
 24
1.0
 15
10.0
 25
10.0
 16
0.0
 26
0.0
 36
1.0
 17
0.0
 27
0.0
 37
0.0
 40
148.280681
 41
1.56
 42
50.0
 43
0.0
 44
0.0
 50
0.0
 51
0.0
 71
     0
 72
   100
 73
     1
 74
     0
 75
     0
 76
     0
 77
     0
 78
     0
  0
ENDTAB
  0
TABLE
  2
LTYPE
 70
     2
  0
LTYPE
  2
CONTINUOUS
 70
     0
  3
Solid line
 72
    65
 73
     0
 40
0.0
  0
LTYPE
  2
AXES2
 70
     0
  3
___ _ ___ _ ___ _ ___ _ ___ _ ___ _ ___ _ ___ _
 72
    65
 73
     4
 40
1.125
 49
0.75
 49
-0.125
 49
0.125
 49
-0.125
  0
ENDTAB
  0
TABLE
  2
LAYER
 70
     5
  0
LAYER
  2
0
 70
     0
 62
   255
  6
CONTINUOUS
  0
LAYER
  2
COTATION1
 70
     0
 62
     2
  6
CONTINUOUS
  0
LAYER
  2
AXE
 70
     0
 62
    80
  6
AXES2
  0
LAYER
  2
DEFPOINTS
 70
     0
 62
     7
  6
CONTINUOUS
  0
LAYER
  2
ALPHA
 70
     0
 62
   254
  6
CONTINUOUS
  0
ENDTAB
  0
TABLE
  2
STYLE
 70
     2
  0
STYLE
  2
ROMANS
 70
     0
 40
0.0
 41
1.0
 50
0.0
 71
     0
 42
6.0
  3
romans
  4

  0
STYLE
  2
STANDARD
 70
     0
 40
0.2
 41
1.0
 50
0.0
 71
     0
 42
0.2
  3
txt
  4

  0
ENDTAB
  0
TABLE
  2
VIEW
 70
     0
  0
ENDTAB
  0
TABLE
  2
UCS
 70
     0
  0
ENDTAB
  0
TABLE
  2
APPID
 70
     1
  0
APPID
  2
ACAD
 70
     0
  0
ENDTAB
  0
TABLE
  2
DIMSTYLE
 70
     1
  0
DIMSTYLE
  2
SC_DEFAUT
 70
     0
  3

  4

  5
OPEN30
  6

  7

 40
1.0
 41
5.0
 42
2.0
 43
0.38
 44
2.5
 45
0.0
 46
0.0
 47
0.0
 48
0.0
140
2.5
141
0.0
142
0.0
143
25.4
144
1.0
145
0.0
146
1.0
147
2.0
 71
     0
 72
     0
 73
     1
 74
     1
 75
     0
 76
     0
 77
     1
 78
    12
170
     0
171
     2
172
     0
173
     0
174
     0
175
     0
176
     0
177
     0
178
     0
  0
ENDTAB
  0
ENDSEC
  0
SECTION
  2
BLOCKS
  0
BLOCK
  8
0
  2
$MODEL_SPACE
 70
     0
 10
0.0
 20
0.0
 30
0.0
  3
$MODEL_SPACE
  1

  0
ENDBLK
  5
10A26
  8
0
  0
BLOCK
 67
     1
  8
0
  2
$PAPER_SPACE
 70
     0
 10
0.0
 20
0.0
 30
0.0
  3
$PAPER_SPACE
  1

  0
ENDBLK
  5
10A24
 67
     1
  8
0
  0
BLOCK
  8
0
  2
COTE
 70
     0
 10
0.0
 20
0.0
 30
0.0
  3
COTE
  1

  0
ENDBLK
  5
F
  8
0
  0
BLOCK
  8
0
  2
FOND
 70
     0
 10
0.0
 20
0.0
 30
0.0
  3
FOND
  1

  0
ENDBLK
  5
75
  8
0
  0
BLOCK
  8
0
  2
_OPEN30
 70
     0
 10
0.0
 20
0.0
 30
0.0
  3
_OPEN30
  1

  0
LINE
  5
4B05
  8
COTATION1
 62
     0
 10
-1.0
 20
0.267949
 30
0.0
 11
0.0
 21
0.0
 31
0.0
1001
ACAD
1000
RTLwPs
1070
   158
  0
LINE
  5
4B06
  8
COTATION1
 62
     0
 10
0.0
 20
0.0
 30
0.0
 11
-1.0
 21
-0.267949
 31
0.0
1001
ACAD
1000
RTLwPs
1070
   158
  0
LINE
  5
4B07
  8
COTATION1
 62
     0
 10
0.0
 20
0.0
 30
0.0
 11
-1.0
 21
0.0
 31
0.0
1001
ACAD
1000
RTLwPs
1070
   158
  0
ENDBLK
  5
4B09
  8
0
  0
BLOCK
  8
0
  2
*D3
 70
     1
 10
0.0
 20
0.0
 30
0.0
  3
*D3
  1

  0
LINE
  5
FD09
  8
COTATION1
 62
     0
 10
76.310962
 20
143.528457
 30
0.0
 11
76.310962
 21
160.209258
 31
0.0
1001
ACAD
1000
RTLwPs
1070
   158
  0
LINE
  5
FD0A
  8
COTATION1
 62
     0
 10
84.310962
 20
143.528457
 30
0.0
 11
84.310962
 21
160.209258
 31
0.0
1001
ACAD
1000
RTLwPs
1070
   158
  0
LINE
  5
FD0B
  8
COTATION1
 62
     0
 10
71.310962
 20
157.709258
 30
0.0
 11
66.310962
 21
157.709258
 31
0.0
1001
ACAD
1000
RTLwPs
1070
   158
  0
LINE
  5
FD0C
  8
COTATION1
 62
     0
 10
89.310962
 20
157.709258
 30
0.0
 11
94.310962
 21
157.709258
 31
0.0
1001
ACAD
1000
RTLwPs
1070
   158
  0
INSERT
  5
FD0D
  8
COTATION1
 62
     0
  2
_OPEN30
 10
76.310962
 20
157.709258
 30
0.0
 41
5.0
 42
5.0
 43
5.0
1001
ACAD
1000
RTLwPs
1070
   158
  0
INSERT
  5
FD0E
  8
COTATION1
 62
     0
  2
_OPEN30
 10
84.310962
 20
157.709258
 30
0.0
 41
5.0
 42
5.0
 43
5.0
 50
180.0
1001
ACAD
1000
RTLwPs
1070
   158
  0
TEXT
  5
FD0F
  8
COTATION1
 62
     0
 10
78.108581
 20
159.709258
 30
0.0
 40
2.5
  1
%%c
1001
ACAD
1000
MTEXTBEGIN
1070
    73
1070
     1
1070
    44
1040
1.0
1070
    74
1070
     0
1000
MTEXTEND
1000
MTEXTBEGIN
1070
    73
1070
     1
1070
    44
1040
1.0
1070
    74
1070
     0
1000
MTEXTEND
1000
MTEXTBEGIN
1070
    73
1070
     1
1070
    44
1040
1.0
1070
    74
1070
     0
1000
MTEXTEND
  0
TEXT
  5
109F1
  8
COTATION1
 62
     0
 10
80.370486
 20
159.709258
 30
0.0
 40
2.5
  1
8
1001
ACAD
1000
R13OBJECT
1002
{
1005
FD0F
1002
}
  0
POINT
  5
FD10
  8
DEFPOINTS
 62
     0
 10
76.310962
 20
141.528457
 30
0.0
  0
POINT
  5
FD11
  8
DEFPOINTS
 62
     0
 10
84.310962
 20
141.528457
 30
0.0
  0
POINT
  5
FD12
  8
DEFPOINTS
 62
     0
 10
84.310962
 20
157.709258
 30
0.0
  0
ENDBLK
  5
FD08
  8
0
  0
BLOCK
  8
0
  2
*D4
 70
     1
 10
0.0
 20
0.0
 30
0.0
  3
*D4
  1

  0
LINE
  5
FFBD
  8
COTATION1
 62
     0
 10
69.310962
 20
130.378457
 30
0.0
 11
69.310962
 21
180.209258
 31
0.0
1001
ACAD
1000
RTLwPs
1070
   158
  0
LINE
  5
FFBE
  8
COTATION1
 62
     0
 10
91.310962
 20
130.378457
 30
0.0
 11
91.310962
 21
180.209258
 31
0.0
1001
ACAD
1000
RTLwPs
1070
   158
  0
LINE
  5
FFBF
  8
COTATION1
 62
     0
 10
74.310962
 20
177.709258
 30
0.0
 11
86.310962
 21
177.709258
 31
0.0
1001
ACAD
1000
RTLwPs
1070
   158
  0
INSERT
  5
FFC0
  8
COTATION1
 62
     0
  2
_OPEN30
 10
69.310962
 20
177.709258
 30
0.0
 41
5.0
 42
5.0
 43
5.0
 50
180.0
1001
ACAD
1000
RTLwPs
1070
   158
  0
INSERT
  5
FFC1
  8
COTATION1
 62
     0
  2
_OPEN30
 10
91.310962
 20
177.709258
 30
0.0
 41
5.0
 42
5.0
 43
5.0
1001
ACAD
1000
RTLwPs
1070
   158
  0
TEXT
  5
FFC2
  8
COTATION1
 62
     0
 10
77.93001
 20
179.709258
 30
0.0
 40
2.5
  1
22
1001
ACAD
1000
MTEXTBEGIN
1070
    73
1070
     1
1070
    44
1040
1.0
1070
    74
1070
     0
1000
MTEXTEND
1000
MTEXTBEGIN
1070
    73
1070
     1
1070
    44
1040
1.0
1070
    74
1070
     0
1000
MTEXTEND
1000
MTEXTBEGIN
1070
    73
1070
     1
1070
    44
1040
1.0
1070
    74
1070
     0
1000
MTEXTEND
  0
POINT
  5
FFC3
  8
DEFPOINTS
 62
     0
 10
69.310962
 20
128.378457
 30
0.0
  0
POINT
  5
FFC4
  8
DEFPOINTS
 62
     0
 10
91.310962
 20
128.378457
 30
0.0
  0
POINT
  5
FFC5
  8
DEFPOINTS
 62
     0
 10
91.310962
 20
177.709258
 30
0.0
  0
ENDBLK
  5
FF39
  8
0
  0
BLOCK
  8
0
  2
*D5
 70
     1
 10
0.0
 20
0.0
 30
0.0
  3
*D5
  1

  0
LINE
  5
FFB4
  8
COTATION1
 62
     0
 10
70.310962
 20
128.378457
 30
0.0
 11
70.310962
 21
170.209258
 31
0.0
1001
ACAD
1000
RTLwPs
1070
   158
  0
LINE
  5
FFB5
  8
COTATION1
 62
     0
 10
90.310962
 20
128.378457
 30
0.0
 11
90.310962
 21
170.209258
 31
0.0
1001
ACAD
1000
RTLwPs
1070
   158
  0
LINE
  5
FFB6
  8
COTATION1
 62
     0
 10
75.310962
 20
167.709258
 30
0.0
 11
85.310962
 21
167.709258
 31
0.0
1001
ACAD
1000
RTLwPs
1070
   158
  0
INSERT
  5
FFB7
  8
COTATION1
 62
     0
  2
_OPEN30
 10
70.310962
 20
167.709258
 30
0.0
 41
5.0
 42
5.0
 43
5.0
 50
180.0
1001
ACAD
1000
RTLwPs
1070
   158
  0
INSERT
  5
FFB8
  8
COTATION1
 62
     0
  2
_OPEN30
 10
90.310962
 20
167.709258
 30
0.0
 41
5.0
 42
5.0
 43
5.0
1001
ACAD
1000
RTLwPs
1070
   158
  0
TEXT
  5
FFB9
  8
COTATION1
 62
     0
 10
77.93001
 20
169.709258
 30
0.0
 40
2.5
  1
20
1001
ACAD
1000
MTEXTBEGIN
1070
    73
1070
     1
1070
    44
1040
1.0
1070
    74
1070
     0
1000
MTEXTEND
1000
MTEXTBEGIN
1070
    73
1070
     1
1070
    44
1040
1.0
1070
    74
1070
     0
1000
MTEXTEND
1000
MTEXTBEGIN
1070
    73
1070
     1
1070
    44
1040
1.0
1070
    74
1070
     0
1000
MTEXTEND
  0
POINT
  5
FFBA
  8
DEFPOINTS
 62
     0
 10
70.310962
 20
126.378457
 30
0.0
  0
POINT
  5
FFBB
  8
DEFPOINTS
 62
     0
 10
90.310962
 20
126.378457
 30
0.0
  0
POINT
  5
FFBC
  8
DEFPOINTS
 62
     0
 10
90.310962
 20
167.709258
 30
0.0
  0
ENDBLK
  5
FF45
  8
0
  0
BLOCK
  8
0
  2
*D6
 70
     1
 10
0.0
 20
0.0
 30
0.0
  3
*D6
  1

  0
LINE
  5
10510
  8
COTATION1
 62
     0
 10
78.310962
 20
142.728457
 30
0.0
 11
41.901997
 21
142.728457
 31
0.0
1001
ACAD
1000
RTLwPs
1070
   158
  0
LINE
  5
10511
  8
COTATION1
 62
     0
 10
64.160962
 20
122.228457
 30
0.0
 11
41.901997
 21
122.228457
 31
0.0
1001
ACAD
1000
RTLwPs
1070
   158
  0
LINE
  5
10512
  8
COTATION1
 62
     0
 10
44.401997
 20
137.728457
 30
0.0
 11
44.401997
 21
135.728457
 31
0.0
1001
ACAD
1000
RTLwPs
1070
   158
  0
LINE
  5
10513
  8
COTATION1
 62
     0
 10
44.401997
 20
127.228457
 30
0.0
 11
44.401997
 21
129.228457
 31
0.0
1001
ACAD
1000
RTLwPs
1070
   158
  0
INSERT
  5
10514
  8
COTATION1
 62
     0
  2
_OPEN30
 10
44.401997
 20
142.728457
 30
0.0
 41
5.0
 42
5.0
 43
5.0
 50
90.0
1001
ACAD
1000
RTLwPs
1070
   158
  0
INSERT
  5
10515
  8
COTATION1
 62
     0
  2
_OPEN30
 10
44.401997
 20
122.228457
 30
0.0
 41
5.0
 42
5.0
 43
5.0
 50
270.0
1001
ACAD
1000
RTLwPs
1070
   158
  0
TEXT
  5
10516
  8
COTATION1
 62
     0
 10
40.23533
 20
131.228457
 30
0.0
 40
2.5
  1
20.5
1001
ACAD
1000
MTEXTBEGIN
1070
    73
1070
     1
1070
    44
1040
1.0
1070
    74
1070
     0
1000
MTEXTEND
1000
MTEXTBEGIN
1070
    73
1070
     1
1070
    44
1040
1.0
1070
    74
1070
     0
1000
MTEXTEND
  0
POINT
  5
10517
  8
DEFPOINTS
 62
     0
 10
80.310962
 20
142.728457
 30
0.0
  0
POINT
  5
10518
  8
DEFPOINTS
 62
     0
 10
66.160962
 20
122.228457
 30
0.0
  0
POINT
  5
10519
  8
DEFPOINTS
 62
     0
 10
44.401997
 20
122.228457
 30
0.0
  0
ENDBLK
  5
10363
  8
0
  0
BLOCK
  8
0
  2
*D7
 70
     1
 10
0.0
 20
0.0
 30
0.0
  3
*D7
  1

  0
LINE
  5
10592
  8
COTATION1
 62
     0
 10
82.310962
 20
142.728457
 30
0.0
 11
131.321342
 21
142.728457
 31
0.0
1001
ACAD
1000
RTLwPs
1070
   158
  0
LINE
  5
10593
  8
COTATION1
 62
     0
 10
97.310962
 20
67.728457
 30
0.0
 11
131.321342
 21
67.728457
 31
0.0
1001
ACAD
1000
RTLwPs
1070
   158
  0
LINE
  5
10594
  8
COTATION1
 62
     0
 10
128.821342
 20
137.728457
 30
0.0
 11
128.821342
 21
108.478457
 31
0.0
1001
ACAD
1000
RTLwPs
1070
   158
  0
LINE
  5
10595
  8
COTATION1
 62
     0
 10
128.821342
 20
72.728457
 30
0.0
 11
128.821342
 21
101.978457
 31
0.0
1001
ACAD
1000
RTLwPs
1070
   158
  0
INSERT
  5
10596
  8
COTATION1
 62
     0
  2
_OPEN30
 10
128.821342
 20
142.728457
 30
0.0
 41
5.0
 42
5.0
 43
5.0
 50
90.0
1001
ACAD
1000
RTLwPs
1070
   158
  0
INSERT
  5
10597
  8
COTATION1
 62
     0
  2
_OPEN30
 10
128.821342
 20
67.728457
 30
0.0
 41
5.0
 42
5.0
 43
5.0
 50
270.0
1001
ACAD
1000
RTLwPs
1070
   158
  0
TEXT
  5
10598
  8
COTATION1
 62
     0
 10
126.44039
 20
103.978457
 30
0.0
 40
2.5
  1
75
1001
ACAD
1000
MTEXTBEGIN
1070
    73
1070
     1
1070
    44
1040
1.0
1070
    74
1070
     0
1000
MTEXTEND
1000
MTEXTBEGIN
1070
    73
1070
     1
1070
    44
1040
1.0
1070
    74
1070
     0
1000
MTEXTEND
  0
POINT
  5
10599
  8
DEFPOINTS
 62
     0
 10
80.310962
 20
142.728457
 30
0.0
  0
POINT
  5
1059A
  8
DEFPOINTS
 62
     0
 10
95.310962
 20
67.728457
 30
0.0
  0
POINT
  5
1059B
  8
DEFPOINTS
 62
     0
 10
128.821342
 20
67.728457
 30
0.0
  0
ENDBLK
  5
10370
  8
0
  0
BLOCK
  8
0
  2
*D8
 70
     1
 10
0.0
 20
0.0
 30
0.0
  3
*D8
  1

  0
LINE
  5
103F0
  8
COTATION1
 62
     0
 10
65.310962
 20
65.728457
 30
0.0
 11
65.310962
 21
35.228457
 31
0.0
1001
ACAD
1000
RTLwPs
1070
   158
  0
LINE
  5
103F1
  8
COTATION1
 62
     0
 10
95.310962
 20
65.728457
 30
0.0
 11
95.310962
 21
35.228457
 31
0.0
1001
ACAD
1000
RTLwPs
1070
   158
  0
LINE
  5
103F2
  8
COTATION1
 62
     0
 10
70.310962
 20
37.728457
 30
0.0
 11
90.310962
 21
37.728457
 31
0.0
1001
ACAD
1000
RTLwPs
1070
   158
  0
INSERT
  5
103F3
  8
COTATION1
 62
     0
  2
_OPEN30
 10
65.310962
 20
37.728457
 30
0.0
 41
5.0
 42
5.0
 43
5.0
 50
180.0
1001
ACAD
1000
RTLwPs
1070
   158
  0
INSERT
  5
103F4
  8
COTATION1
 62
     0
  2
_OPEN30
 10
95.310962
 20
37.728457
 30
0.0
 41
5.0
 42
5.0
 43
5.0
1001
ACAD
1000
RTLwPs
1070
   158
  0
TEXT
  5
103F5
  8
COTATION1
 62
     0
 10
77.93001
 20
39.728457
 30
0.0
 40
2.5
  1
30
1001
ACAD
1000
MTEXTBEGIN
1070
    73
1070
     1
1070
    44
1040
1.0
1070
    74
1070
     0
1000
MTEXTEND
1000
MTEXTBEGIN
1070
    73
1070
     1
1070
    44
1040
1.0
1070
    74
1070
     0
1000
MTEXTEND
  0
POINT
  5
103F6
  8
DEFPOINTS
 62
     0
 10
65.310962
 20
67.728457
 30
0.0
  0
POINT
  5
103F7
  8
DEFPOINTS
 62
     0
 10
95.310962
 20
67.728457
 30
0.0
  0
POINT
  5
103F8
  8
DEFPOINTS
 62
     0
 10
95.310962
 20
37.728457
 30
0.0
  0
ENDBLK
  5
1037C
  8
0
  0
BLOCK
  8
0
  2
*D9
 70
     1
 10
0.0
 20
0.0
 30
0.0
  3
*D9
  1

  0
LINE
  5
109A8
  8
COTATION1
 62
     0
 10
97.460962
 20
124.228457
 30
0.0
 11
121.321342
 21
124.228457
 31
0.0
  0
LINE
  5
109A9
  8
COTATION1
 62
     0
 10
96.460962
 20
122.228457
 30
0.0
 11
121.321342
 21
122.228457
 31
0.0
  0
LINE
  5
109AA
  8
COTATION1
 62
     0
 10
118.821342
 20
129.228457
 30
0.0
 11
118.821342
 21
134.228457
 31
0.0
  0
LINE
  5
109AB
  8
COTATION1
 62
     0
 10
118.821342
 20
117.228457
 30
0.0
 11
118.821342
 21
112.228457
 31
0.0
  0
TEXT
  5
109AC
  8
COTATION1
 62
     0
 10
114.797533
 20
112.926735
 30
0.0
 40
2.5
  1
2
  0
INSERT
  5
109AD
  8
COTATION1
 62
     0
  2
_OPEN30
 10
118.821342
 20
124.228457
 30
0.0
 41
5.0
 42
5.0
 43
5.0
 50
270.0
  0
INSERT
  5
109AE
  8
COTATION1
 62
     0
  2
_OPEN30
 10
118.821342
 20
122.228457
 30
0.0
 41
5.0
 42
5.0
 43
5.0
 50
90.0
  0
POINT
  5
109AF
  8
DEFPOINTS
 62
     0
 10
95.460962
 20
124.228457
 30
0.0
  0
POINT
  5
109B0
  8
DEFPOINTS
 62
     0
 10
94.460962
 20
122.228457
 30
0.0
  0
POINT
  5
109B1
  8
DEFPOINTS
 62
     0
 10
118.821342
 20
122.228457
 30
0.0
  0
ENDBLK
  5
103A2
  8
0
  0
BLOCK
  8
0
  2
*D10
 70
     1
 10
0.0
 20
0.0
 30
0.0
  3
*D10
  1

  0
LINE
  5
1048B
  8
COTATION1
 62
     0
 10
121.337939
 20
145.261246
 30
0.0
 11
99.456986
 21
145.261246
 31
0.0
1001
ACAD
1000
RTLwPs
1070
   158
  0
LINE
  5
1048C
  8
COTATION1
 62
     0
 10
99.456986
 20
145.261246
 30
0.0
 11
93.893255
 21
130.89586
 31
0.0
1001
ACAD
1000
RTLwPs
1070
   158
  0
TEXT
  5
1048D
  8
COTATION1
 62
     0
 10
101.099844
 20
147.261246
 30
0.0
 40
2.5
  1
2x%%c4.3x6.3
1001
ACAD
1000
MTEXTBEGIN
1070
    73
1070
     1
1070
    44
1040
1.0
1070
    74
1070
     0
1000
MTEXTEND
1000
MTEXTBEGIN
1070
    73
1070
     1
1070
    44
1040
1.0
1070
    74
1070
     0
1000
MTEXTEND
  0
INSERT
  5
1048E
  8
COTATION1
 62
     0
  2
_OPEN30
 10
92.087456
 20
126.233341
 30
0.0
 41
5.0
 42
5.0
 43
5.0
 50
248.828555
1001
ACAD
1000
RTLwPs
1070
   158
  0
POINT
  5
1048F
  8
DEFPOINTS
 62
     0
 10
92.087456
 20
126.233341
 30
0.0
  0
POINT
  5
10490
  8
DEFPOINTS
 62
     0
 10
90.534469
 20
122.223574
 30
0.0
  0
ENDBLK
  5
10481
  8
0
  0
BLOCK
  8
0
  2
*D11
 70
     1
 10
0.0
 20
0.0
 30
0.0
  3
*D11
  1

  0
LINE
  5
10491
  8
COTATION1
 62
     0
 10
113.034813
 20
85.42229
 30
0.0
 11
99.130051
 21
85.42229
 31
0.0
1001
ACAD
1000
RTLwPs
1070
   158
  0
LINE
  5
10492
  8
COTATION1
 62
     0
 10
99.130051
 20
85.42229
 30
0.0
 11
74.718919
 21
116.598855
 31
0.0
1001
ACAD
1000
RTLwPs
1070
   158
  0
TEXT
  5
10493
  8
COTATION1
 62
     0
 10
100.772908
 20
87.42229
 30
0.0
 40
2.5
  1
2x%%c4.3
1001
ACAD
1000
MTEXTBEGIN
1070
    73
1070
     1
1070
    44
1040
1.0
1070
    74
1070
     0
1000
MTEXTEND
1000
MTEXTBEGIN
1070
    73
1070
     1
1070
    44
1040
1.0
1070
    74
1070
     0
1000
MTEXTEND
  0
INSERT
  5
10494
  8
COTATION1
 62
     0
  2
_OPEN30
 10
71.636432
 20
120.53564
 30
0.0
 41
5.0
 42
5.0
 43
5.0
 50
128.060809
1001
ACAD
1000
RTLwPs
1070
   158
  0
POINT
  5
10495
  8
DEFPOINTS
 62
     0
 10
71.636432
 20
120.53564
 30
0.0
  0
POINT
  5
10496
  8
DEFPOINTS
 62
     0
 10
68.985493
 20
123.921274
 30
0.0
  0
ENDBLK
  5
1048A
  8
0
  0
ENDSEC
  0
SECTION
  2
ENTITIES
  0
INSERT
  5
A
  8
0
  2
COTE
 10
0.0
 20
0.0
 30
0.0
  0
INSERT
  5
17
  8
0
  2
COTE
 10
284.010391
 20
6.373258
 30
0.0
  0
INSERT
  5
72
  8
0
  2
FOND
 10
0.0
 20
0.0
 30
0.0
  0
LINE
  5
FCF2
  8
ALPHA
 10
65.310962
 20
67.728457
 30
0.0
 11
95.310962
 21
67.728457
 31
0.0
  0
LINE
  5
FCF4
  8
ALPHA
 10
65.310962
 20
67.728457
 30
0.0
 11
65.310962
 21
128.228457
 31
0.0
  0
LINE
  5
FCF5
  8
AXE
 10
80.310962
 20
147.728457
 30
0.0
 11
80.310962
 21
51.728457
 31
0.0
  0
TEXT
  5
FCF6
  8
AXE
 10
72.834772
 20
51.728457
 30
0.0
 40
8.0
  1
Y
 72
     2
 11
79.310962
 21
51.728457
 31
0.0
  0
DIMENSION
  5
FCF7
  8
COTATION1
  2
*D3
 10
84.310962
 20
157.709258
 30
0.0
 11
80.310962
 21
157.709258
 31
0.0
 70
   128
  1
%%c<>
 13
76.310962
 23
141.528457
 33
0.0
 14
84.310962
 24
141.528457
 34
0.0
  0
ARC
  5
FCF8
  8
ALPHA
 10
80.310962
 20
135.46179
 30
0.0
 40
7.266667
 50
56.601512
 51
123.398488
  0
LINE
  5
FCF9
  8
ALPHA
 10
76.310962
 20
141.528457
 30
0.0
 11
84.310962
 21
141.528457
 31
0.0
  0
LINE
  5
FCFA
  8
ALPHA
 10
84.310962
 20
141.528457
 30
0.0
 11
84.310962
 21
136.728457
 31
0.0
  0
LINE
  5
FCFB
  8
ALPHA
 10
76.310962
 20
141.528457
 30
0.0
 11
76.310962
 21
136.728457
 31
0.0
  0
LINE
  5
FD13
  8
ALPHA
 10
74.810962
 20
128.228457
 30
0.0
 11
80.310962
 21
128.228457
 31
0.0
  0
LINE
  5
FD14
  8
ALPHA
 10
74.810962
 20
132.228457
 30
0.0
 11
74.810962
 21
128.228457
 31
0.0
  0
LINE
  5
FD15
  8
ALPHA
 10
67.810962
 20
132.228457
 30
0.0
 11
74.810962
 21
132.228457
 31
0.0
  0
LINE
  5
FD19
  8
ALPHA
 10
67.810962
 20
135.228457
 30
0.0
 11
80.310962
 21
135.228457
 31
0.0
  0
LINE
  5
FD1A
  8
ALPHA
 10
67.810962
 20
136.728457
 30
0.0
 11
80.310962
 21
136.728457
 31
0.0
  0
LINE
  5
FD1D
  8
ALPHA
 10
67.810962
 20
136.728457
 30
0.0
 11
67.810962
 21
128.228457
 31
0.0
  0
LINE
  5
FD1F
  8
ALPHA
 10
65.310962
 20
128.228457
 30
0.0
 11
67.810962
 21
128.228457
 31
0.0
  0
LINE
  5
FD20
  8
ALPHA
 10
92.810962
 20
136.728457
 30
0.0
 11
80.310962
 21
136.728457
 31
0.0
  0
LINE
  5
FD21
  8
ALPHA
 10
92.810962
 20
135.228457
 30
0.0
 11
80.310962
 21
135.228457
 31
0.0
  0
LINE
  5
FD22
  8
ALPHA
 10
92.810962
 20
132.228457
 30
0.0
 11
85.810962
 21
132.228457
 31
0.0
  0
LINE
  5
FD23
  8
ALPHA
 10
92.810962
 20
136.728457
 30
0.0
 11
92.810962
 21
128.228457
 31
0.0
  0
LINE
  5
FD24
  8
ALPHA
 10
95.310962
 20
128.228457
 30
0.0
 11
92.810962
 21
128.228457
 31
0.0
  0
LINE
  5
FD25
  8
ALPHA
 10
85.810962
 20
132.228457
 30
0.0
 11
85.810962
 21
128.228457
 31
0.0
  0
LINE
  5
FD26
  8
ALPHA
 10
85.810962
 20
128.228457
 30
0.0
 11
80.310962
 21
128.228457
 31
0.0
  0
LINE
  5
FD27
  8
ALPHA
 10
95.310962
 20
128.228457
 30
0.0
 11
95.310962
 21
67.728457
 31
0.0
  0
DIMENSION
  5
FF01
  8
COTATION1
  2
*D4
 10
91.310962
 20
177.709258
 30
0.0
 11
80.310962
 21
180.959258
 31
0.0
 13
69.310962
 23
128.378457
 33
0.0
 14
91.310962
 24
128.378457
 34
0.0
  0
DIMENSION
  5
FF02
  8
COTATION1
  2
*D5
 10
90.310962
 20
167.709258
 30
0.0
 11
80.310962
 21
170.959258
 31
0.0
 13
70.310962
 23
126.378457
 33
0.0
 14
90.310962
 24
126.378457
 34
0.0
  0
ARC
  5
FF0C
  8
ALPHA
 10
70.310962
 20
122.228457
 30
0.0
 40
2.15
 50
270.0
 51
57.663974
  0
LINE
  5
FF0D
  8
ALPHA
 10
67.160962
 20
124.228457
 30
0.0
 11
67.160962
 21
122.228457
 31
0.0
  0
LINE
  5
FF0E
  8
AXE
 10
69.310962
 20
120.078457
 30
0.0
 11
69.310962
 21
128.378457
 31
0.0
  0
LINE
  5
FF0F
  8
AXE
 10
70.310962
 20
118.078457
 30
0.0
 11
70.310962
 21
126.378457
 31
0.0
  0
ARC
  5
FF10
  8
ALPHA
 10
69.310962
 20
122.228457
 30
0.0
 40
2.15
 50
180.0
 51
270.0
  0
LINE
  5
FF11
  8
ALPHA
 10
69.310962
 20
120.078457
 30
0.0
 11
70.310962
 21
120.078457
 31
0.0
  0
ARC
  5
FF12
  8
ALPHA
 10
69.310962
 20
124.228457
 30
0.0
 40
2.15
 50
0.0
 51
180.0
  0
LINE
  5
FF16
  8
ALPHA
 10
71.460962
 20
124.228457
 30
0.0
 11
71.460962
 21
124.045047
 31
0.0
  0
ARC
  5
FF17
  8
ALPHA
 10
91.310962
 20
122.228457
 30
0.0
 40
2.15
 50
270.0
 51
0.0
  0
ARC
  5
FF18
  8
ALPHA
 10
91.310962
 20
124.228457
 30
0.0
 40
2.15
 50
0.0
 51
180.0
  0
ARC
  5
FF1A
  8
ALPHA
 10
90.310962
 20
122.228457
 30
0.0
 40
2.15
 50
122.336026
 51
270.0
  0
LINE
  5
FF1C
  8
AXE
 10
91.310962
 20
120.078457
 30
0.0
 11
91.310962
 21
128.378457
 31
0.0
  0
LINE
  5
FF1D
  8
AXE
 10
90.310962
 20
118.078457
 30
0.0
 11
90.310962
 21
126.378457
 31
0.0
  0
LINE
  5
FF27
  8
ALPHA
 10
91.310962
 20
120.078457
 30
0.0
 11
90.310962
 21
120.078457
 31
0.0
  0
LINE
  5
FF2C
  8
ALPHA
 10
89.160962
 20
124.228457
 30
0.0
 11
89.160962
 21
124.045047
 31
0.0
  0
LINE
  5
FF2D
  8
ALPHA
 10
93.460962
 20
124.228457
 30
0.0
 11
93.460962
 21
122.228457
 31
0.0
  0
DIMENSION
  5
10344
  8
COTATION1
  2
*D7
 10
128.821342
 20
67.728457
 30
0.0
 11
128.821342
 21
105.228457
 31
0.0
 13
80.310962
 23
142.728457
 33
0.0
 14
95.310962
 24
67.728457
 34
0.0
 50
90.0
  0
DIMENSION
  5
10346
  8
COTATION1
  2
*D9
 10
118.821342
 20
122.228457
 30
0.0
 11
115.988009
 21
114.176735
 31
0.0
 70
   128
 13
95.460962
 23
124.228457
 33
0.0
 14
94.460962
 24
122.228457
 34
0.0
 50
90.0
1001
ACAD
1000
DSTYLE
1002
{
1070
   287
1070
     5
1070
   287
1070
     5
1070
   279
1070
     2
1070
   289
1070
     3
1002
}
  0
DIMENSION
  5
10348
  8
COTATION1
  2
*D8
 10
95.310962
 20
37.728457
 30
0.0
 11
80.310962
 21
40.978457
 31
0.0
 13
65.310962
 23
67.728457
 33
0.0
 14
95.310962
 24
67.728457
 34
0.0
  0
DIMENSION
  5
10349
  8
COTATION1
  2
*D6
 10
44.401997
 20
122.228457
 30
0.0
 11
44.401997
 21
132.478457
 31
0.0
 70
   128
 13
80.310962
 23
142.728457
 33
0.0
 14
66.160962
 24
122.228457
 34
0.0
 50
90.0
  0
DIMENSION
  5
10471
  8
COTATION1
  2
*D11
 10
68.985493
 20
123.921274
 30
0.0
 11
107.082432
 21
85.42229
 31
0.0
 70
   131
  1
2x<>
 15
71.636432
 25
120.53564
 35
0.0
 40
0.0
1001
ACAD
1000
DSTYLE
1002
{
1070
   288
1070
     1
1002
}
  0
DIMENSION
  5
10472
  8
COTATION1
  2
*D10
 10
90.534469
 20
122.223574
 30
0.0
 11
111.397463
 21
145.261246
 31
0.0
 70
   131
  1
2x<>x6.3
 15
92.087456
 25
126.233341
 35
0.0
 40
0.0
1001
ACAD
1000
DSTYLE
1002
{
1070
   288
1070
     1
1002
}
  0
LINE
  5
10473
  8
AXE
 10
60.810962
 20
99.728457
 30
0.0
 11
110.810962
 21
99.728457
 31
0.0
  0
TEXT
  5
10474
  8
AXE
 10
104.334772
 20
100.728457
 30
0.0
 40
8.0
  1
X
 72
     2
 11
110.810962
 21
100.728457
 31
0.0
  0
LINE
  5
10475
  8
AXE
 10
94.460962
 20
122.228457
 30
0.0
 11
86.160962
 21
122.228457
 31
0.0
  0
LINE
  5
10476
  8
AXE
 10
95.460962
 20
124.228457
 30
0.0
 11
87.160962
 21
124.228457
 31
0.0
  0
LINE
  5
10477
  8
AXE
 10
66.160962
 20
122.228457
 30
0.0
 11
74.460962
 21
122.228457
 31
0.0
  0
LINE
  5
10478
  8
AXE
 10
65.160962
 20
124.228457
 30
0.0
 11
73.460962
 21
124.228457
 31
0.0
  0
CIRCLE
  5
105B1
  8
ALPHA
 10
80.310962
 20
122.728457
 30
0.0
 40
2.492187
  0
LINE
  5
105B4
  8
ALPHA
 10
77.892079
 20
123.328457
 30
0.0
 11
82.729846
 21
123.328457
 31
0.0
  0
LINE
  5
105B5
  8
ALPHA
 10
77.892079
 20
122.128457
 30
0.0
 11
82.729846
 21
122.128457
 31
0.0
  0
POLYLINE
  5
10805
  8
ALPHA
 66
     1
 10
0.0
 20
0.0
 30
0.0
 70
   128
  0
VERTEX
  5
10A2C
  8
ALPHA
 10
89.827334
 20
115.800008
 30
0.0
  0
VERTEX
  5
10A2D
  8
ALPHA
 10
85.186134
 20
116.526971
 30
0.0
  0
VERTEX
  5
10A2E
  8
ALPHA
 10
80.400908
 20
116.774605
 30
0.0
  0
VERTEX
  5
10A2F
  8
ALPHA
 10
75.591109
 20
116.524314
 30
0.0
  0
VERTEX
  5
10A30
  8
ALPHA
 10
70.923628
 20
115.787863
 30
0.0
  0
SEQEND
  5
10A31
  8
ALPHA
  0
POLYLINE
  5
10897
  8
ALPHA
 66
     1
 10
0.0
 20
0.0
 30
0.0
 70
   128
210
0.0
220
0.0
230
-1.0
  0
VERTEX
  5
10A32
  8
ALPHA
 10
-74.534346
 20
118.948475
 30
0.0
  0
VERTEX
  5
10A33
  8
ALPHA
 10
-73.96417
 20
117.833219
 30
0.0
  0
VERTEX
  5
10A34
  8
ALPHA
 10
-73.143229
 20
116.9044
 30
0.0
  0
VERTEX
  5
10A35
  8
ALPHA
 10
-72.114787
 20
116.20443
 30
0.0
  0
VERTEX
  5
10A36
  8
ALPHA
 10
-70.92211
 20
115.775719
 30
0.0
  0
SEQEND
  5
10A37
  8
ALPHA
  0
POLYLINE
  5
10898
  8
ALPHA
 66
     1
 10
0.0
 20
0.0
 30
0.0
 70
   128
  0
VERTEX
  5
10A38
  8
ALPHA
 10
76.21788
 20
123.830572
 30
0.0
  0
VERTEX
  5
10A39
  8
ALPHA
 10
76.14554
 20
123.620795
 30
0.0
  0
VERTEX
  5
10A3A
  8
ALPHA
 10
75.954828
 20
123.067744
 30
0.0
  0
VERTEX
  5
10A3B
  8
ALPHA
 10
75.376113
 20
121.389523
 30
0.0
  0
VERTEX
  5
10A3C
  8
ALPHA
 10
74.797398
 20
119.711302
 30
0.0
  0
VERTEX
  5
10A3D
  8
ALPHA
 10
74.606685
 20
119.158252
 30
0.0
  0
VERTEX
  5
10A3E
  8
ALPHA
 10
74.534346
 20
118.948475
 30
0.0
  0
SEQEND
  5
10A3F
  8
ALPHA
  0
LINE
  5
10899
  8
ALPHA
 10
70.92211
 20
115.775719
 30
0.0
 11
65.310962
 21
114.217502
 31
0.0
  0
POLYLINE
  5
1089A
  8
ALPHA
 66
     1
 10
0.0
 20
0.0
 30
0.0
 70
   128
  0
VERTEX
  5
10A40
  8
ALPHA
 10
77.324549
 20
125.582419
 30
0.0
  0
VERTEX
  5
10A41
  8
ALPHA
 10
76.682123
 20
124.769116
 30
0.0
  0
VERTEX
  5
10A42
  8
ALPHA
 10
76.21788
 20
123.830572
 30
0.0
  0
SEQEND
  5
10A43
  8
ALPHA
  0
POLYLINE
  5
1089B
  8
ALPHA
 66
     1
 10
0.0
 20
0.0
 30
0.0
 70
   128
  0
VERTEX
  5
10A44
  8
ALPHA
 10
78.785687
 20
127.183978
 30
0.0
  0
VERTEX
  5
10A45
  8
ALPHA
 10
78.557384
 20
126.933734
 30
0.0
  0
VERTEX
  5
10A46
  8
ALPHA
 10
78.055118
 20
126.383199
 30
0.0
  0
VERTEX
  5
10A47
  8
ALPHA
 10
77.552852
 20
125.832663
 30
0.0
  0
VERTEX
  5
10A48
  8
ALPHA
 10
77.324549
 20
125.582419
 30
0.0
  0
SEQEND
  5
10A49
  8
ALPHA
  0
POLYLINE
  5
1089C
  8
ALPHA
 66
     1
 10
0.0
 20
0.0
 30
0.0
 70
   128
  0
VERTEX
  5
10A4A
  8
ALPHA
 10
83.395292
 20
125.582419
 30
0.0
  0
VERTEX
  5
10A4B
  8
ALPHA
 10
83.167226
 20
125.832663
 30
0.0
  0
VERTEX
  5
10A4C
  8
ALPHA
 10
82.665482
 20
126.383199
 30
0.0
  0
VERTEX
  5
10A4D
  8
ALPHA
 10
82.163738
 20
126.933734
 30
0.0
  0
VERTEX
  5
10A4E
  8
ALPHA
 10
81.935672
 20
127.183978
 30
0.0
  0
SEQEND
  5
10A4F
  8
ALPHA
  0
POLYLINE
  5
1089D
  8
ALPHA
 66
     1
 10
0.0
 20
0.0
 30
0.0
 70
   128
  0
VERTEX
  5
10A50
  8
ALPHA
 10
84.503479
 20
123.830572
 30
0.0
  0
VERTEX
  5
10A51
  8
ALPHA
 10
84.037338
 20
124.769116
 30
0.0
  0
VERTEX
  5
10A52
  8
ALPHA
 10
83.395292
 20
125.582419
 30
0.0
  0
SEQEND
  5
10A53
  8
ALPHA
  0
POLYLINE
  5
1089E
  8
ALPHA
 66
     1
 10
0.0
 20
0.0
 30
0.0
 70
   128
  0
VERTEX
  5
10A54
  8
ALPHA
 10
81.935672
 20
127.183978
 30
0.0
  0
VERTEX
  5
10A55
  8
ALPHA
 10
81.226925
 20
127.64566
 30
0.0
  0
VERTEX
  5
10A56
  8
ALPHA
 10
80.362198
 20
127.812457
 30
0.0
  0
VERTEX
  5
10A57
  8
ALPHA
 10
79.493675
 20
127.64566
 30
0.0
  0
VERTEX
  5
10A58
  8
ALPHA
 10
78.785687
 20
127.183978
 30
0.0
  0
SEQEND
  5
10A59
  8
ALPHA
  0
POLYLINE
  5
1089F
  8
ALPHA
 66
     1
 10
0.0
 20
0.0
 30
0.0
 70
   128
  0
VERTEX
  5
10A5A
  8
ALPHA
 10
86.185495
 20
118.948475
 30
0.0
  0
VERTEX
  5
10A5B
  8
ALPHA
 10
86.113221
 20
119.158252
 30
0.0
  0
VERTEX
  5
10A5C
  8
ALPHA
 10
85.92268
 20
119.711302
 30
0.0
  0
VERTEX
  5
10A5D
  8
ALPHA
 10
85.344487
 20
121.389523
 30
0.0
  0
VERTEX
  5
10A5E
  8
ALPHA
 10
84.766294
 20
123.067744
 30
0.0
  0
VERTEX
  5
10A5F
  8
ALPHA
 10
84.575753
 20
123.620795
 30
0.0
  0
VERTEX
  5
10A60
  8
ALPHA
 10
84.503479
 20
123.830572
 30
0.0
  0
SEQEND
  5
10A61
  8
ALPHA
  0
POLYLINE
  5
108A0
  8
ALPHA
 66
     1
 10
0.0
 20
0.0
 30
0.0
 70
   128
210
0.0
220
0.0
230
-1.0
  0
VERTEX
  5
10A62
  8
ALPHA
 10
-89.812153
 20
115.780273
 30
0.0
  0
VERTEX
  5
10A63
  8
ALPHA
 10
-88.618076
 20
116.208913
 30
0.0
  0
VERTEX
  5
10A64
  8
ALPHA
 10
-87.584962
 20
116.907246
 30
0.0
  0
VERTEX
  5
10A65
  8
ALPHA
 10
-86.758779
 20
117.834144
 30
0.0
  0
VERTEX
  5
10A66
  8
ALPHA
 10
-86.185495
 20
118.948475
 30
0.0
  0
SEQEND
  5
10A67
  8
ALPHA
  0
LINE
  5
108A1
  8
ALPHA
 10
95.310962
 20
114.284942
 30
0.0
 11
89.812153
 21
115.780273
 31
0.0
  0
VIEWPORT
  5
494D
 67
     1
  8
0
 10
4.995325
 20
6.556512
 30
0.0
 40
22.70986
 41
13.988421
 68
    -1
 69
     1
1001
ACAD
1000
MVIEW
1002
{
1070
    16
1010
0.0
1020
0.0
1030
0.0
1010
0.0
1020
0.0
1030
1.0
1040
0.0
1040
13.988421
1040
4.995325
1040
6.556512
1040
50.0
1040
0.0
1040
0.0
1070
     0
1070
   100
1070
     1
1070
     1
1070
     0
1070
     0
1070
     0
1070
     0
1040
0.0
1040
0.0
1040
0.0
1040
10.0
1040
10.0
1040
10.0
1040
10.0
1070
     0
1002
{
1002
}
1002
}
  0
ENDSEC
  0
EOF
