  0
SECTION
  2
HEADER
  9
$ACADVER
  1
AC1012
  9
$DWGCODEPAGE
  3
ANSI_1252
  9
$INSBASE
 10
0.0
 20
0.0
 30
0.0
  9
$EXTMIN
 10
2.578128
 20
3.9961
 30
-0.001526
  9
$EXTMAX
 10
118.467346
 20
185.007148
 30
0.0
  9
$LIMMIN
 10
19.077216
 20
43.616976
  9
$LIMMAX
 10
194.084622
 20
146.65737
  9
$ORTHOMODE
 70
     0
  9
$REGENMODE
 70
     1
  9
$FILLMODE
 70
     1
  9
$QTEXTMODE
 70
     0
  9
$MIRRTEXT
 70
     1
  9
$DRAGMODE
 70
     2
  9
$LTSCALE
 40
10.0
  9
$OSMODE
 70
    37
  9
$ATTMODE
 70
     1
  9
$TEXTSIZE
 40
0.2
  9
$TRACEWID
 40
0.05
  9
$TEXTSTYLE
  7
STANDARD
  9
$CLAYER
  8
ALPHA
  9
$CELTYPE
  6
CONTINUOUS
  9
$CECOLOR
 62
   256
  9
$CELTSCALE
 40
1.0
  9
$DELOBJ
 70
     1
  9
$DISPSILH
 70
     0
  9
$DIMSCALE
 40
1.0
  9
$DIMASZ
 40
0.18
  9
$DIMEXO
 40
0.0625
  9
$DIMDLI
 40
0.38
  9
$DIMRND
 40
0.0
  9
$DIMDLE
 40
0.0
  9
$DIMEXE
 40
0.18
  9
$DIMTP
 40
0.0
  9
$DIMTM
 40
0.0
  9
$DIMTXT
 40
0.18
  9
$DIMCEN
 40
0.09
  9
$DIMTSZ
 40
0.0
  9
$DIMTOL
 70
     0
  9
$DIMLIM
 70
     0
  9
$DIMTIH
 70
     1
  9
$DIMTOH
 70
     1
  9
$DIMSE1
 70
     0
  9
$DIMSE2
 70
     0
  9
$DIMTAD
 70
     0
  9
$DIMZIN
 70
     0
  9
$DIMBLK
  1

  9
$DIMASO
 70
     1
  9
$DIMSHO
 70
     1
  9
$DIMPOST
  1

  9
$DIMAPOST
  1

  9
$DIMALT
 70
     0
  9
$DIMALTD
 70
     2
  9
$DIMALTF
 40
25.4
  9
$DIMLFAC
 40
1.0
  9
$DIMTOFL
 70
     0
  9
$DIMTVP
 40
0.0
  9
$DIMTIX
 70
     0
  9
$DIMSOXD
 70
     0
  9
$DIMSAH
 70
     0
  9
$DIMBLK1
  1

  9
$DIMBLK2
  1

  9
$DIMSTYLE
  2
STANDARD
  9
$DIMCLRD
 70
     0
  9
$DIMCLRE
 70
     0
  9
$DIMCLRT
 70
     0
  9
$DIMTFAC
 40
1.0
  9
$DIMGAP
 40
0.09
  9
$DIMJUST
 70
     0
  9
$DIMSD1
 70
     0
  9
$DIMSD2
 70
     0
  9
$DIMTOLJ
 70
     1
  9
$DIMTZIN
 70
     0
  9
$DIMALTZ
 70
     0
  9
$DIMALTTZ
 70
     0
  9
$DIMFIT
 70
     3
  9
$DIMUPT
 70
     0
  9
$DIMUNIT
 70
     2
  9
$DIMDEC
 70
     4
  9
$DIMTDEC
 70
     4
  9
$DIMALTU
 70
     2
  9
$DIMALTTD
 70
     2
  9
$DIMTXSTY
  7
STANDARD
  9
$DIMAUNIT
 70
     0
  9
$LUNITS
 70
     2
  9
$LUPREC
 70
     4
  9
$SKETCHINC
 40
0.1
  9
$FILLETRAD
 40
0.0
  9
$AUNITS
 70
     0
  9
$AUPREC
 70
     0
  9
$MENU
  1
acad
  9
$ELEVATION
 40
0.0
  9
$PELEVATION
 40
0.0
  9
$THICKNESS
 40
0.0
  9
$LIMCHECK
 70
     0
  9
$BLIPMODE
 70
     0
  9
$CHAMFERA
 40
0.0
  9
$CHAMFERB
 40
0.0
  9
$CHAMFERC
 40
0.0
  9
$CHAMFERD
 40
0.0
  9
$SKPOLY
 70
     0
  9
$TDCREATE
 40
2453634.413430799
  9
$TDUPDATE
 40
2453893.724823345
  9
$TDINDWG
 40
1.8131520370
  9
$TDUSRTIMER
 40
1.8131509491
  9
$USRTIMER
 70
     1
  9
$ANGBASE
 50
0.0
  9
$ANGDIR
 70
     0
  9
$PDMODE
 70
     0
  9
$PDSIZE
 40
0.0
  9
$PLINEWID
 40
0.0
  9
$COORDS
 70
     1
  9
$SPLFRAME
 70
     0
  9
$SPLINETYPE
 70
     6
  9
$SPLINESEGS
 70
     8
  9
$ATTDIA
 70
     0
  9
$ATTREQ
 70
     1
  9
$HANDLING
 70
     1
  9
$HANDSEED
  5
12690
  9
$SURFTAB1
 70
     6
  9
$SURFTAB2
 70
     6
  9
$SURFTYPE
 70
     6
  9
$SURFU
 70
     6
  9
$SURFV
 70
     6
  9
$UCSNAME
  2

  9
$UCSORG
 10
0.0
 20
0.0
 30
0.0
  9
$UCSXDIR
 10
1.0
 20
0.0
 30
0.0
  9
$UCSYDIR
 10
0.0
 20
1.0
 30
0.0
  9
$PUCSNAME
  2

  9
$PUCSORG
 10
0.0
 20
0.0
 30
0.0
  9
$PUCSXDIR
 10
1.0
 20
0.0
 30
0.0
  9
$PUCSYDIR
 10
0.0
 20
1.0
 30
0.0
  9
$USERI1
 70
     0
  9
$USERI2
 70
     0
  9
$USERI3
 70
     0
  9
$USERI4
 70
     0
  9
$USERI5
 70
     0
  9
$USERR1
 40
0.0
  9
$USERR2
 40
0.0
  9
$USERR3
 40
0.0
  9
$USERR4
 40
0.0
  9
$USERR5
 40
0.0
  9
$WORLDVIEW
 70
     1
  9
$SHADEDGE
 70
     3
  9
$SHADEDIF
 70
    70
  9
$TILEMODE
 70
     1
  9
$MAXACTVP
 70
    16
  9
$PINSBASE
 10
0.0
 20
0.0
 30
0.0
  9
$PLIMCHECK
 70
     0
  9
$PEXTMIN
 10
1.000000E+20
 20
1.000000E+20
 30
1.000000E+20
  9
$PEXTMAX
 10
-1.000000E+20
 20
-1.000000E+20
 30
-1.000000E+20
  9
$PLIMMIN
 10
0.0
 20
0.0
  9
$PLIMMAX
 10
12.0
 20
9.0
  9
$UNITMODE
 70
     0
  9
$VISRETAIN
 70
     0
  9
$PLINEGEN
 70
     1
  9
$PSLTSCALE
 70
     0
  9
$TREEDEPTH
 70
  3020
  9
$PICKSTYLE
 70
     0
  9
$CMLSTYLE
  2
STANDARD
  9
$CMLJUST
 70
     0
  9
$CMLSCALE
 40
1.0
  9
$SAVEIMAGES
 70
     0
  0
ENDSEC
  0
SECTION
  2
CLASSES
  0
CLASS
  1
LWPOLYLINE
  2
AcDbPolyline
  3
"AutoCAD"
 90
    32768
280
     0
281
     1
  0
CLASS
  1
IMAGE
  2
AcDbRasterImage
  3
ISM
 90
    32895
280
     0
281
     1
  0
CLASS
  1
OLE2FRAME
  2
AcDbOle2Frame
  3
""
 90
    32768
280
     0
281
     1
  0
CLASS
  1
HATCH
  2
AcDbHatch
  3
"ACAD_SEDONA"
 90
    32768
280
     0
281
     1
  0
CLASS
  1
DICTIONARYVAR
  2
AcDbDictionaryVar
  3
"AutoCAD"
 90
    32768
280
     0
281
     0
  0
CLASS
  1
RASTERVARIABLES
  2
AcDbRasterVariables
  3
ISM
 90
    32768
280
     0
281
     0
  0
CLASS
  1
IMAGEDEF
  2
AcDbRasterImageDef
  3
ISM
 90
    32768
280
     0
281
     0
  0
CLASS
  1
IMAGEDEF_REACTOR
  2
AcDbRasterImageDefReactor
  3
ISM
 90
    32769
280
     0
281
     0
  0
CLASS
  1
SPATIAL_FILTER
  2
AcDbSpatialFilter
  3
"Acad"
 90
    32768
280
     0
281
     0
  0
CLASS
  1
XRECORD
  2
AcDbXrecord
  3
"<Built In>"
 90
    32768
280
     0
281
     0
  0
CLASS
  1
SORTENTSTABLE
  2
AcDbSortentsTable
  3
"AutoCAD"
 90
    32768
280
     0
281
     0
  0
CLASS
  1
LAYER_INDEX
  2
AcDbLayerIndex
  3
"Acad"
 90
    32768
280
     0
281
     0
  0
CLASS
  1
SPATIAL_INDEX
  2
AcDbSpatialIndex
  3
"Acad"
 90
    32768
280
     0
281
     0
  0
CLASS
  1
OBJECT_PTR
  2
CAseDLPNTableRecord
  3
ASE-LPNTableRecord
 90
    32769
280
     0
281
     0
  0
CLASS
  1
LAYOUT
  2
AcDbLayout
  3
AutoCAD 2000
 90
    32768
280
     0
281
     0
  0
CLASS
  1
PLOTSETTINGS
  2
AcDbPlotSettings
  3
AutoCAD 2000
 90
    32768
280
     0
281
     0
  0
CLASS
  1
ACDBDICTIONARYWDFLT
  2
AcDbDictionaryWithDefault
  3
AutoCAD 2000
 90
    32768
280
     0
281
     0
  0
CLASS
  1
ACDBPLACEHOLDER
  2
AcDbPlaceHolder
  3
AutoCAD 2000
 90
    32768
280
     0
281
     0
  0
CLASS
  1
VBA_PROJECT
  2
AcDbVbaProject
  3
acad
 90
    32768
280
     0
281
     0
  0
CLASS
  1
WIPEOUT
  2
AcDbWipeout
  3
WipeOut|AutoCAD Express Tool|expresstools@autodesk.com
 90
    32895
280
     0
281
     1
  0
CLASS
  1
WIPEOUTVARIABLES
  2
AcDbWipeoutVariables
  3
WipeOut|AutoCAD Express Tool|expresstools@autodesk.com
 90
    32768
280
     0
281
     0
  0
CLASS
  1
RTEXT
  2
RText
  3
RText|AutoCAD Express Tool|expresstools@autodesk.com
 90
    32768
280
     0
281
     1
  0
CLASS
  1
ARCALIGNEDTEXT
  2
AcDbArcAlignedText
  3
ATEXT|AutoCAD Express Tool|expresstools@autodesk.com
 90
    32768
280
     0
281
     1
  0
CLASS
  1
TABLESTYLE
  2
AcDbTableStyle
  3
ObjectDBX Classes
 90
    34815
280
     0
281
     0
  0
CLASS
  1
ACAD_PROXY_OBJECT_WRAPPER
  2
AcDbProxyObjectWrapper
  3
AutoCAD 2000
 90
    32768
280
     0
281
     0
  0
CLASS
  1
LONG_TRANSACTION
  2
AcDbLongTransaction
  3
AutoCAD 2000
 90
    32768
280
     0
281
     0
  0
CLASS
  1
LWPOLYLINE
  2
AcDbPolyline
  3
"AutoCAD"
 90
    32768
280
     0
281
     1
  0
CLASS
  1
HATCH
  2
AcDbHatch
  3
"ACAD_SEDONA"
 90
    32768
280
     0
281
     1
  0
CLASS
  1
XRECORD
  2
AcDbXrecord
  3
"<Built In>"
 90
    32768
280
     0
281
     0
  0
ENDSEC
  0
SECTION
  2
TABLES
  0
TABLE
  2
VPORT
  5
7
100
AcDbSymbolTable
 70
     2
  0
VPORT
  5
1268F
100
AcDbSymbolTableRecord
100
AcDbViewportTableRecord
  2
*ACTIVE
 70
     0
 10
0.0
 20
0.0
 11
1.0
 21
1.0
 12
60.522737
 22
94.501624
 13
0.0
 23
0.0
 14
1.0
 24
1.0
 15
0.0
 25
0.0
 16
0.0
 26
0.0
 36
1.0
 17
0.0
 27
0.0
 37
0.0
 40
182.893311
 41
1.673611
 42
50.0
 43
0.0
 44
0.0
 50
0.0
 51
0.0
 71
     0
 72
   100
 73
     1
 74
     2
 75
     0
 76
     0
 77
     0
 78
     0
  0
ENDTAB
  0
TABLE
  2
LTYPE
  5
4
100
AcDbSymbolTable
 70
     3
  0
LTYPE
  5
11
102
{ACAD_XDICTIONARY
360
1264C
102
}
100
AcDbSymbolTableRecord
100
AcDbLinetypeTableRecord
  2
BYBLOCK
 70
     0
  3

 72
    65
 73
     0
 40
0.0
  0
LTYPE
  5
12
102
{ACAD_XDICTIONARY
360
1264E
102
}
100
AcDbSymbolTableRecord
100
AcDbLinetypeTableRecord
  2
BYLAYER
 70
     0
  3

 72
    65
 73
     0
 40
0.0
  0
LTYPE
  5
13
102
{ACAD_XDICTIONARY
360
12650
102
}
100
AcDbSymbolTableRecord
100
AcDbLinetypeTableRecord
  2
CONTINUOUS
 70
     0
  3
Solid line
 72
    65
 73
     0
 40
0.0
  0
LTYPE
  5
725
100
AcDbSymbolTableRecord
100
AcDbLinetypeTableRecord
  2
AXES2
 70
     0
  3
___ _ ___ _ ___ _ ___ _ ___ _ ___ _ ___ _ ___ _
 72
    65
 73
     4
 40
1.125
 49
0.75
 74
     0
 49
-0.125
 74
     0
 49
0.125
 74
     0
 49
-0.125
 74
     0
  0
LTYPE
  5
FF12
100
AcDbSymbolTableRecord
100
AcDbLinetypeTableRecord
  2
CACHE2
 70
     0
  3
Caché (x.5) _ _ _ _ _ _ _ _ _ _ _ _ _ _ _ _ _
 72
    65
 73
     2
 40
0.1875
 49
0.125
 74
     0
 49
-0.0625
 74
     0
  0
ENDTAB
  0
TABLE
  2
LAYER
  5
2
102
{ACAD_XDICTIONARY
360
26F0
102
}
100
AcDbSymbolTable
 70
     6
  0
LAYER
  5
14
100
AcDbSymbolTableRecord
100
AcDbLayerTableRecord
  2
0
 70
     0
 62
     7
  6
CONTINUOUS
  0
LAYER
  5
6EC
102
{ACAD_XDICTIONARY
360
1264A
102
}
100
AcDbSymbolTableRecord
100
AcDbLayerTableRecord
  2
DEFPOINTS
 70
     0
 62
     7
  6
CONTINUOUS
  0
LAYER
  5
727
100
AcDbSymbolTableRecord
100
AcDbLayerTableRecord
  2
COTATION1
 70
     0
 62
     2
  6
CONTINUOUS
  0
LAYER
  5
728
100
AcDbSymbolTableRecord
100
AcDbLayerTableRecord
  2
AXE
 70
     0
 62
    80
  6
AXES2
  0
LAYER
  5
729
100
AcDbSymbolTableRecord
100
AcDbLayerTableRecord
  2
ALPHA
 70
     0
 62
   254
  6
CONTINUOUS
  0
LAYER
  5
FF13
100
AcDbSymbolTableRecord
100
AcDbLayerTableRecord
  2
POINTILLE_COURT
 70
     0
 62
    41
  6
CACHE2
  0
ENDTAB
  0
TABLE
  2
STYLE
  5
3
100
AcDbSymbolTable
 70
     2
  0
STYLE
  5
17
102
{ACAD_XDICTIONARY
360
12656
102
}
100
AcDbSymbolTableRecord
100
AcDbTextStyleTableRecord
  2
STANDARD
 70
     0
 40
0.0
 41
1.0
 50
0.0
 71
     0
 42
0.0
  3
txt
  4

  0
STYLE
  5
72B
100
AcDbSymbolTableRecord
100
AcDbTextStyleTableRecord
  2
ROMANS
 70
     0
 40
0.0
 41
1.0
 50
0.0
 71
     0
 42
6.0
  3
romans
  4

  0
ENDTAB
  0
TABLE
  2
VIEW
  5
5
100
AcDbSymbolTable
 70
     0
  0
ENDTAB
  0
TABLE
  2
UCS
  5
6
100
AcDbSymbolTable
 70
     0
  0
ENDTAB
  0
TABLE
  2
APPID
  5
8
100
AcDbSymbolTable
 70
     4
  0
APPID
  5
16
100
AcDbSymbolTableRecord
100
AcDbRegAppTableRecord
  2
ACAD
 70
     0
  0
APPID
  5
26EF
102
{ACAD_XDICTIONARY
360
12652
102
}
100
AcDbSymbolTableRecord
100
AcDbRegAppTableRecord
  2
ACAECLAYERSTANDARD
 70
     0
  0
APPID
  5
320E
100
AcDbSymbolTableRecord
100
AcDbRegAppTableRecord
  2
DCO15
 70
     0
  0
APPID
  5
3569
102
{ACAD_XDICTIONARY
360
12654
102
}
100
AcDbSymbolTableRecord
100
AcDbRegAppTableRecord
  2
ACAD_EXEMPT_FROM_CAD_STAND
 70
     0
  0
ENDTAB
  0
TABLE
  2
DIMSTYLE
  5
9
100
AcDbSymbolTable
 70
     2
  0
DIMSTYLE
105
18
102
{ACAD_XDICTIONARY
360
12648
102
}
100
AcDbSymbolTableRecord
100
AcDbDimStyleTableRecord
  2
STANDARD
 70
     0
  3

  4

  5

  6

  7

 40
1.0
 41
0.18
 42
0.0625
 43
0.38
 44
0.18
 45
0.0
 46
0.0
 47
0.0
 48
0.0
140
0.18
141
0.09
142
0.0
143
25.4
144
1.0
145
0.0
146
1.0
147
0.09
 71
     0
 72
     0
 73
     1
 74
     1
 75
     0
 76
     0
 77
     0
 78
     0
170
     0
171
     2
172
     0
173
     0
174
     0
175
     0
176
     0
177
     0
178
     0
270
     2
271
     4
272
     4
273
     2
274
     2
340
17
275
     0
280
     0
281
     0
282
     0
283
     1
284
     0
285
     0
286
     0
287
     3
288
     0
  0
DIMSTYLE
105
72C
102
{ACAD_XDICTIONARY
360
12686
102
}
102
{ACAD_REACTORS
330
11AE7
330
11AE8
330
11AEA
330
11AED
330
11AEE
330
11AEF
330
11AF0
102
}
100
AcDbSymbolTableRecord
100
AcDbDimStyleTableRecord
  2
SC_DEFAUT
 70
     0
  3

  4

  5
OPEN30
  6

  7

 40
1.0
 41
5.0
 42
2.0
 43
0.38
 44
2.5
 45
0.0
 46
0.0
 47
0.0
 48
0.0
140
2.5
141
0.0
142
0.0
143
25.4
144
1.0
145
0.0
146
1.0
147
2.0
 71
     0
 72
     0
 73
     1
 74
     1
 75
     0
 76
     0
 77
     1
 78
    12
170
     0
171
     2
172
     0
173
     0
174
     0
175
     0
176
     0
177
     0
178
     0
270
     2
271
     1
272
     1
273
     2
274
     2
340
72B
275
     0
280
     0
281
     0
282
     0
283
     1
284
    12
285
    12
286
    12
287
     5
288
     0
  0
ENDTAB
  0
TABLE
  2
BLOCK_RECORD
  5
1
100
AcDbSymbolTable
 70
     8
  0
BLOCK_RECORD
  5
A
102
{ACAD_XDICTIONARY
360
7D7
102
}
100
AcDbSymbolTableRecord
100
AcDbBlockTableRecord
  2
*MODEL_SPACE
  0
BLOCK_RECORD
  5
B
102
{ACAD_XDICTIONARY
360
1267C
102
}
100
AcDbSymbolTableRecord
100
AcDbBlockTableRecord
  2
*PAPER_SPACE
  0
BLOCK_RECORD
  5
6FA
100
AcDbSymbolTableRecord
100
AcDbBlockTableRecord
  2
_OPEN30
  0
BLOCK_RECORD
  5
11B24
100
AcDbSymbolTableRecord
100
AcDbBlockTableRecord
  2
*D1
  0
BLOCK_RECORD
  5
11B31
100
AcDbSymbolTableRecord
100
AcDbBlockTableRecord
  2
*D2
  0
BLOCK_RECORD
  5
11B3E
100
AcDbSymbolTableRecord
100
AcDbBlockTableRecord
  2
*D3
  0
BLOCK_RECORD
  5
11B4B
100
AcDbSymbolTableRecord
100
AcDbBlockTableRecord
  2
*D4
  0
BLOCK_RECORD
  5
11B57
100
AcDbSymbolTableRecord
100
AcDbBlockTableRecord
  2
*D5
  0
BLOCK_RECORD
  5
11B63
100
AcDbSymbolTableRecord
100
AcDbBlockTableRecord
  2
*D6
  0
BLOCK_RECORD
  5
11B70
100
AcDbSymbolTableRecord
100
AcDbBlockTableRecord
  2
*D7
  0
ENDTAB
  0
ENDSEC
  0
SECTION
  2
BLOCKS
  0
BLOCK
  5
D
100
AcDbEntity
  8
0
100
AcDbBlockBegin
  2
*MODEL_SPACE
 70
     0
 10
0.0
 20
0.0
 30
0.0
  3
*MODEL_SPACE
  1

  0
ENDBLK
  5
E
100
AcDbEntity
  8
0
100
AcDbBlockEnd
  0
BLOCK
  5
F
100
AcDbEntity
 67
     1
  8
0
100
AcDbBlockBegin
  2
*PAPER_SPACE
 70
     0
 10
0.0
 20
0.0
 30
0.0
  3
*PAPER_SPACE
  1

  0
ENDBLK
  5
10
100
AcDbEntity
 67
     1
  8
0
100
AcDbBlockEnd
  0
BLOCK
  5
6FB
100
AcDbEntity
  8
0
100
AcDbBlockBegin
  2
_OPEN30
 70
     0
 10
0.0
 20
0.0
 30
0.0
  3
_OPEN30
  1

  0
LINE
  5
6FC
100
AcDbEntity
  8
COTATION1
 62
     0
100
AcDbLine
 10
-1.0
 20
0.267949
 30
0.0
 11
0.0
 21
0.0
 31
0.0
1001
ACAD
1000
RTLwPs
1070
   158
  0
LINE
  5
6FD
100
AcDbEntity
  8
COTATION1
 62
     0
100
AcDbLine
 10
0.0
 20
0.0
 30
0.0
 11
-1.0
 21
-0.267949
 31
0.0
1001
ACAD
1000
RTLwPs
1070
   158
  0
LINE
  5
6FE
100
AcDbEntity
  8
COTATION1
 62
     0
100
AcDbLine
 10
0.0
 20
0.0
 30
0.0
 11
-1.0
 21
0.0
 31
0.0
1001
ACAD
1000
RTLwPs
1070
   158
  0
ENDBLK
  5
6FF
100
AcDbEntity
  8
0
100
AcDbBlockEnd
  0
BLOCK
  5
11B2F
100
AcDbEntity
  8
0
100
AcDbBlockBegin
  2
*D1
 70
     1
 10
0.0
 20
0.0
 30
0.0
  3
*D1
  1

1001
ACAD
1000
RTLwPs
1070
   128
  0
LINE
  5
125FA
100
AcDbEntity
  8
COTATION1
 62
     0
100
AcDbLine
 10
89.783972
 20
145.001623
 30
0.0
 11
118.283972
 21
145.001623
 31
0.0
1001
ACAD
1000
RTLwPs
1070
   158
  0
LINE
  5
125FB
100
AcDbEntity
  8
COTATION1
 62
     0
100
AcDbLine
 10
92.783972
 20
44.001623
 30
0.0
 11
118.283972
 21
44.001623
 31
0.0
1001
ACAD
1000
RTLwPs
1070
   158
  0
LINE
  5
125FC
100
AcDbEntity
  8
COTATION1
 62
     0
100
AcDbLine
 10
115.783972
 20
140.001623
 30
0.0
 11
115.783972
 21
97.751623
 31
0.0
1001
ACAD
1000
RTLwPs
1070
   158
  0
LINE
  5
125FD
100
AcDbEntity
  8
COTATION1
 62
     0
100
AcDbLine
 10
115.783972
 20
49.001623
 30
0.0
 11
115.783972
 21
91.251623
 31
0.0
1001
ACAD
1000
RTLwPs
1070
   158
  0
INSERT
  5
125FE
100
AcDbEntity
  8
COTATION1
 62
     0
100
AcDbBlockReference
  2
_OPEN30
 10
115.783972
 20
145.001623
 30
0.0
 41
5.0
 42
5.0
 43
5.0
 50
90.0
1001
ACAD
1000
RTLwPs
1070
   158
  0
INSERT
  5
125FF
100
AcDbEntity
  8
COTATION1
 62
     0
100
AcDbBlockReference
  2
_OPEN30
 10
115.783972
 20
44.001623
 30
0.0
 41
5.0
 42
5.0
 43
5.0
 50
270.0
1001
ACAD
1000
RTLwPs
1070
   158
  0
MTEXT
  5
12600
100
AcDbEntity
  8
COTATION1
 62
     0
100
AcDbMText
 10
115.783972
 20
94.501623
 30
0.0
 40
2.5
 41
0.0
 71
     5
 72
     1
  1
\A1;101
  7
ROMANS
1001
ACAD
1000
MTEXTBEGIN
1070
    73
1070
     1
1070
    44
1040
1.0
1070
    74
1070
     0
1000
MTEXTEND
1000
MTEXTBEGIN
1070
    73
1070
     1
1070
    44
1040
1.0
1070
    74
1070
     0
1000
MTEXTEND
  0
POINT
  5
12601
100
AcDbEntity
  8
DEFPOINTS
 62
     0
100
AcDbPoint
 10
87.783972
 20
145.001623
 30
0.0
1001
ACAD
1000
RTLwPs
1070
   128
  0
POINT
  5
12602
100
AcDbEntity
  8
DEFPOINTS
 62
     0
100
AcDbPoint
 10
90.783972
 20
44.001623
 30
0.0
1001
ACAD
1000
RTLwPs
1070
   128
  0
POINT
  5
12603
100
AcDbEntity
  8
DEFPOINTS
 62
     0
100
AcDbPoint
 10
115.783972
 20
44.001623
 30
0.0
1001
ACAD
1000
RTLwPs
1070
   128
  0
ENDBLK
  5
11B30
100
AcDbEntity
  8
0
100
AcDbBlockEnd
1001
ACAD
1000
RTLwPs
1070
   128
  0
BLOCK
  5
11B3C
100
AcDbEntity
  8
0
100
AcDbBlockBegin
  2
*D2
 70
     1
 10
0.0
 20
0.0
 30
0.0
  3
*D2
  1

1001
ACAD
1000
RTLwPs
1070
   128
  0
LINE
  5
12604
100
AcDbEntity
  8
COTATION1
 62
     0
100
AcDbLine
 10
107.783972
 20
185.001623
 30
0.0
 11
118.283972
 21
185.001623
 31
0.0
1001
ACAD
1000
RTLwPs
1070
   158
  0
LINE
  5
12605
100
AcDbEntity
  8
COTATION1
 62
     0
100
AcDbLine
 10
89.783972
 20
145.001623
 30
0.0
 11
118.283972
 21
145.001623
 31
0.0
1001
ACAD
1000
RTLwPs
1070
   158
  0
LINE
  5
12606
100
AcDbEntity
  8
COTATION1
 62
     0
100
AcDbLine
 10
115.783972
 20
180.001623
 30
0.0
 11
115.783972
 21
168.251623
 31
0.0
1001
ACAD
1000
RTLwPs
1070
   158
  0
LINE
  5
12607
100
AcDbEntity
  8
COTATION1
 62
     0
100
AcDbLine
 10
115.783972
 20
150.001623
 30
0.0
 11
115.783972
 21
161.751623
 31
0.0
1001
ACAD
1000
RTLwPs
1070
   158
  0
INSERT
  5
12608
100
AcDbEntity
  8
COTATION1
 62
     0
100
AcDbBlockReference
  2
_OPEN30
 10
115.783972
 20
185.001623
 30
0.0
 41
5.0
 42
5.0
 43
5.0
 50
90.0
1001
ACAD
1000
RTLwPs
1070
   158
  0
INSERT
  5
12609
100
AcDbEntity
  8
COTATION1
 62
     0
100
AcDbBlockReference
  2
_OPEN30
 10
115.783972
 20
145.001623
 30
0.0
 41
5.0
 42
5.0
 43
5.0
 50
270.0
1001
ACAD
1000
RTLwPs
1070
   158
  0
MTEXT
  5
1260A
100
AcDbEntity
  8
COTATION1
 62
     0
100
AcDbMText
 10
115.783972
 20
165.001623
 30
0.0
 40
2.5
 41
0.0
 71
     5
 72
     1
  1
\A1;40
  7
ROMANS
1001
ACAD
1000
MTEXTBEGIN
1070
    73
1070
     1
1070
    44
1040
1.0
1070
    74
1070
     0
1000
MTEXTEND
1000
MTEXTBEGIN
1070
    73
1070
     1
1070
    44
1040
1.0
1070
    74
1070
     0
1000
MTEXTEND
  0
POINT
  5
1260B
100
AcDbEntity
  8
DEFPOINTS
 62
     0
100
AcDbPoint
 10
105.783972
 20
185.001623
 30
0.0
1001
ACAD
1000
RTLwPs
1070
   128
  0
POINT
  5
1260C
100
AcDbEntity
  8
DEFPOINTS
 62
     0
100
AcDbPoint
 10
87.783972
 20
145.001623
 30
0.0
1001
ACAD
1000
RTLwPs
1070
   128
  0
POINT
  5
1260D
100
AcDbEntity
  8
DEFPOINTS
 62
     0
100
AcDbPoint
 10
115.783972
 20
145.001623
 30
0.0
1001
ACAD
1000
RTLwPs
1070
   128
  0
ENDBLK
  5
11B3D
100
AcDbEntity
  8
0
100
AcDbBlockEnd
1001
ACAD
1000
RTLwPs
1070
   128
  0
BLOCK
  5
11B49
100
AcDbEntity
  8
0
100
AcDbBlockBegin
  2
*D3
 70
     1
 10
0.0
 20
0.0
 30
0.0
  3
*D3
  1

1001
ACAD
1000
RTLwPs
1070
   128
  0
LINE
  5
1260E
100
AcDbEntity
  8
COTATION1
 62
     0
100
AcDbLine
 10
92.783972
 20
44.001623
 30
0.0
 11
118.283972
 21
44.001623
 31
0.0
1001
ACAD
1000
RTLwPs
1070
   158
  0
LINE
  5
1260F
100
AcDbEntity
  8
COTATION1
 62
     0
100
AcDbLine
 10
107.783972
 20
4.001623
 30
0.0
 11
118.283972
 21
4.001623
 31
0.0
1001
ACAD
1000
RTLwPs
1070
   158
  0
LINE
  5
12610
100
AcDbEntity
  8
COTATION1
 62
     0
100
AcDbLine
 10
115.783972
 20
39.001623
 30
0.0
 11
115.783972
 21
27.251623
 31
0.0
1001
ACAD
1000
RTLwPs
1070
   158
  0
LINE
  5
12611
100
AcDbEntity
  8
COTATION1
 62
     0
100
AcDbLine
 10
115.783972
 20
9.001623
 30
0.0
 11
115.783972
 21
20.751623
 31
0.0
1001
ACAD
1000
RTLwPs
1070
   158
  0
INSERT
  5
12612
100
AcDbEntity
  8
COTATION1
 62
     0
100
AcDbBlockReference
  2
_OPEN30
 10
115.783972
 20
44.001623
 30
0.0
 41
5.0
 42
5.0
 43
5.0
 50
90.0
1001
ACAD
1000
RTLwPs
1070
   158
  0
INSERT
  5
12613
100
AcDbEntity
  8
COTATION1
 62
     0
100
AcDbBlockReference
  2
_OPEN30
 10
115.783972
 20
4.001623
 30
0.0
 41
5.0
 42
5.0
 43
5.0
 50
270.0
1001
ACAD
1000
RTLwPs
1070
   158
  0
MTEXT
  5
12614
100
AcDbEntity
  8
COTATION1
 62
     0
100
AcDbMText
 10
115.783972
 20
24.001623
 30
0.0
 40
2.5
 41
0.0
 71
     5
 72
     1
  1
\A1;40
  7
ROMANS
1001
ACAD
1000
MTEXTBEGIN
1070
    73
1070
     1
1070
    44
1040
1.0
1070
    74
1070
     0
1000
MTEXTEND
1000
MTEXTBEGIN
1070
    73
1070
     1
1070
    44
1040
1.0
1070
    74
1070
     0
1000
MTEXTEND
  0
POINT
  5
12615
100
AcDbEntity
  8
DEFPOINTS
 62
     0
100
AcDbPoint
 10
90.783972
 20
44.001623
 30
0.0
1001
ACAD
1000
RTLwPs
1070
   128
  0
POINT
  5
12616
100
AcDbEntity
  8
DEFPOINTS
 62
     0
100
AcDbPoint
 10
105.783972
 20
4.001623
 30
0.0
1001
ACAD
1000
RTLwPs
1070
   128
  0
POINT
  5
12617
100
AcDbEntity
  8
DEFPOINTS
 62
     0
100
AcDbPoint
 10
115.783972
 20
4.001623
 30
0.0
1001
ACAD
1000
RTLwPs
1070
   128
  0
ENDBLK
  5
11B4A
100
AcDbEntity
  8
0
100
AcDbBlockEnd
1001
ACAD
1000
RTLwPs
1070
   128
  0
BLOCK
  5
11B55
100
AcDbEntity
  8
0
100
AcDbBlockBegin
  2
*D4
 70
     1
 10
0.0
 20
0.0
 30
0.0
  3
*D4
  1

1001
ACAD
1000
RTLwPs
1070
   128
  0
LINE
  5
12618
100
AcDbEntity
  8
COTATION1
 62
     0
100
AcDbLine
 10
85.283972
 20
74.001623
 30
0.0
 11
85.283972
 21
16.501623
 31
0.0
1001
ACAD
1000
RTLwPs
1070
   158
  0
LINE
  5
12619
100
AcDbEntity
  8
COTATION1
 62
     0
100
AcDbLine
 10
39.283972
 20
42.001623
 30
0.0
 11
39.283972
 21
16.501623
 31
0.0
1001
ACAD
1000
RTLwPs
1070
   158
  0
LINE
  5
1261A
100
AcDbEntity
  8
COTATION1
 62
     0
100
AcDbLine
 10
80.283972
 20
19.001623
 30
0.0
 11
44.283972
 21
19.001623
 31
0.0
1001
ACAD
1000
RTLwPs
1070
   158
  0
INSERT
  5
1261B
100
AcDbEntity
  8
COTATION1
 62
     0
100
AcDbBlockReference
  2
_OPEN30
 10
85.283972
 20
19.001623
 30
0.0
 41
5.0
 42
5.0
 43
5.0
1001
ACAD
1000
RTLwPs
1070
   158
  0
INSERT
  5
1261C
100
AcDbEntity
  8
COTATION1
 62
     0
100
AcDbBlockReference
  2
_OPEN30
 10
39.283972
 20
19.001623
 30
0.0
 41
5.0
 42
5.0
 43
5.0
 50
180.0
1001
ACAD
1000
RTLwPs
1070
   158
  0
MTEXT
  5
1261D
100
AcDbEntity
  8
COTATION1
 62
     0
100
AcDbMText
 10
62.283972
 20
22.251623
 30
0.0
 40
2.5
 41
0.0
 71
     5
 72
     1
  1
\A1;46
  7
ROMANS
1001
ACAD
1000
MTEXTBEGIN
1070
    73
1070
     1
1070
    44
1040
1.0
1070
    74
1070
     0
1000
MTEXTEND
1000
MTEXTBEGIN
1070
    73
1070
     1
1070
    44
1040
1.0
1070
    74
1070
     0
1000
MTEXTEND
  0
POINT
  5
1261E
100
AcDbEntity
  8
DEFPOINTS
 62
     0
100
AcDbPoint
 10
85.283972
 20
76.001623
 30
0.0
1001
ACAD
1000
RTLwPs
1070
   128
  0
POINT
  5
1261F
100
AcDbEntity
  8
DEFPOINTS
 62
     0
100
AcDbPoint
 10
39.283972
 20
44.001623
 30
0.0
1001
ACAD
1000
RTLwPs
1070
   128
  0
POINT
  5
12620
100
AcDbEntity
  8
DEFPOINTS
 62
     0
100
AcDbPoint
 10
39.283972
 20
19.001623
 30
0.0
1001
ACAD
1000
RTLwPs
1070
   128
  0
ENDBLK
  5
11B56
100
AcDbEntity
  8
0
100
AcDbBlockEnd
1001
ACAD
1000
RTLwPs
1070
   128
  0
BLOCK
  5
11B61
100
AcDbEntity
  8
0
100
AcDbBlockBegin
  2
*D5
 70
     1
 10
0.0
 20
0.0
 30
0.0
  3
*D5
  1

1001
ACAD
1000
RTLwPs
1070
   128
  0
LINE
  5
12621
100
AcDbEntity
  8
COTATION1
 62
     0
100
AcDbLine
 10
90.783972
 20
130.001623
 30
0.0
 11
90.783972
 21
162.501623
 31
0.0
1001
ACAD
1000
RTLwPs
1070
   158
  0
LINE
  5
12622
100
AcDbEntity
  8
COTATION1
 62
     0
100
AcDbLine
 10
23.583972
 20
119.001623
 30
0.0
 11
23.583972
 21
162.501623
 31
0.0
1001
ACAD
1000
RTLwPs
1070
   158
  0
LINE
  5
12623
100
AcDbEntity
  8
COTATION1
 62
     0
100
AcDbLine
 10
85.783972
 20
160.001623
 30
0.0
 11
28.583972
 21
160.001623
 31
0.0
1001
ACAD
1000
RTLwPs
1070
   158
  0
INSERT
  5
12624
100
AcDbEntity
  8
COTATION1
 62
     0
100
AcDbBlockReference
  2
_OPEN30
 10
90.783972
 20
160.001623
 30
0.0
 41
5.0
 42
5.0
 43
5.0
1001
ACAD
1000
RTLwPs
1070
   158
  0
INSERT
  5
12625
100
AcDbEntity
  8
COTATION1
 62
     0
100
AcDbBlockReference
  2
_OPEN30
 10
23.583972
 20
160.001623
 30
0.0
 41
5.0
 42
5.0
 43
5.0
 50
180.0
1001
ACAD
1000
RTLwPs
1070
   158
  0
MTEXT
  5
12626
100
AcDbEntity
  8
COTATION1
 62
     0
100
AcDbMText
 10
57.183972
 20
163.251623
 30
0.0
 40
2.5
 41
0.0
 71
     5
 72
     1
  1
\A1;67.2
  7
ROMANS
1001
ACAD
1000
MTEXTBEGIN
1070
    73
1070
     1
1070
    44
1040
1.0
1070
    74
1070
     0
1000
MTEXTEND
1000
MTEXTBEGIN
1070
    73
1070
     1
1070
    44
1040
1.0
1070
    74
1070
     0
1000
MTEXTEND
  0
POINT
  5
12627
100
AcDbEntity
  8
DEFPOINTS
 62
     0
100
AcDbPoint
 10
90.783972
 20
128.001623
 30
0.0
1001
ACAD
1000
RTLwPs
1070
   128
  0
POINT
  5
12628
100
AcDbEntity
  8
DEFPOINTS
 62
     0
100
AcDbPoint
 10
23.583972
 20
117.001623
 30
0.0
1001
ACAD
1000
RTLwPs
1070
   128
  0
POINT
  5
12629
100
AcDbEntity
  8
DEFPOINTS
 62
     0
100
AcDbPoint
 10
23.583972
 20
160.001623
 30
0.0
1001
ACAD
1000
RTLwPs
1070
   128
  0
ENDBLK
  5
11B62
100
AcDbEntity
  8
0
100
AcDbBlockEnd
1001
ACAD
1000
RTLwPs
1070
   128
  0
BLOCK
  5
11B6E
100
AcDbEntity
  8
0
100
AcDbBlockBegin
  2
*D6
 70
     1
 10
0.0
 20
0.0
 30
0.0
  3
*D6
  1

1001
ACAD
1000
RTLwPs
1070
   128
  0
LINE
  5
1262A
100
AcDbEntity
  8
COTATION1
 62
     0
100
AcDbLine
 10
23.583972
 20
119.001623
 30
0.0
 11
23.583972
 21
162.501623
 31
0.0
1001
ACAD
1000
RTLwPs
1070
   158
  0
LINE
  5
1262B
100
AcDbEntity
  8
COTATION1
 62
     0
100
AcDbLine
 10
12.583972
 20
103.308804
 30
0.0
 11
12.583972
 21
162.501623
 31
0.0
1001
ACAD
1000
RTLwPs
1070
   158
  0
LINE
  5
1262C
100
AcDbEntity
  8
COTATION1
 62
     0
100
AcDbLine
 10
28.583972
 20
160.001623
 30
0.0
 11
33.583972
 21
160.001623
 31
0.0
1001
ACAD
1000
RTLwPs
1070
   158
  0
LINE
  5
1262D
100
AcDbEntity
  8
COTATION1
 62
     0
100
AcDbLine
 10
7.583972
 20
160.001623
 30
0.0
 11
2.583972
 21
160.001623
 31
0.0
1001
ACAD
1000
RTLwPs
1070
   158
  0
INSERT
  5
1262E
100
AcDbEntity
  8
COTATION1
 62
     0
100
AcDbBlockReference
  2
_OPEN30
 10
23.583972
 20
160.001623
 30
0.0
 41
5.0
 42
5.0
 43
5.0
 50
180.0
1001
ACAD
1000
RTLwPs
1070
   158
  0
INSERT
  5
1262F
100
AcDbEntity
  8
COTATION1
 62
     0
100
AcDbBlockReference
  2
_OPEN30
 10
12.583972
 20
160.001623
 30
0.0
 41
5.0
 42
5.0
 43
5.0
1001
ACAD
1000
RTLwPs
1070
   158
  0
MTEXT
  5
12630
100
AcDbEntity
  8
COTATION1
 62
     0
100
AcDbMText
 10
18.083972
 20
163.251623
 30
0.0
 40
2.5
 41
0.0
 71
     5
 72
     1
  1
\A1;11
  7
ROMANS
1001
ACAD
1000
MTEXTBEGIN
1070
    73
1070
     1
1070
    44
1040
1.0
1070
    74
1070
     0
1000
MTEXTEND
1000
MTEXTBEGIN
1070
    73
1070
     1
1070
    44
1040
1.0
1070
    74
1070
     0
1000
MTEXTEND
  0
POINT
  5
12631
100
AcDbEntity
  8
DEFPOINTS
 62
     0
100
AcDbPoint
 10
23.583972
 20
117.001623
 30
0.0
1001
ACAD
1000
RTLwPs
1070
   128
  0
POINT
  5
12632
100
AcDbEntity
  8
DEFPOINTS
 62
     0
100
AcDbPoint
 10
12.583972
 20
101.308804
 30
0.0
1001
ACAD
1000
RTLwPs
1070
   128
  0
POINT
  5
12633
100
AcDbEntity
  8
DEFPOINTS
 62
     0
100
AcDbPoint
 10
12.583972
 20
160.001623
 30
0.0
1001
ACAD
1000
RTLwPs
1070
   128
  0
ENDBLK
  5
11B6F
100
AcDbEntity
  8
0
100
AcDbBlockEnd
1001
ACAD
1000
RTLwPs
1070
   128
  0
BLOCK
  5
11B7A
100
AcDbEntity
  8
0
100
AcDbBlockBegin
  2
*D7
 70
     1
 10
0.0
 20
0.0
 30
0.0
  3
*D7
  1

1001
ACAD
1000
RTLwPs
1070
   128
  0
LINE
  5
12634
100
AcDbEntity
  8
COTATION1
 62
     0
100
AcDbLine
 10
39.283972
 20
42.001623
 30
0.0
 11
39.283972
 21
16.501623
 31
0.0
1001
ACAD
1000
RTLwPs
1070
   158
  0
LINE
  5
12635
100
AcDbEntity
  8
COTATION1
 62
     0
100
AcDbLine
 10
23.583972
 20
70.001623
 30
0.0
 11
23.583972
 21
16.501623
 31
0.0
1001
ACAD
1000
RTLwPs
1070
   158
  0
LINE
  5
12636
100
AcDbEntity
  8
COTATION1
 62
     0
100
AcDbLine
 10
34.283972
 20
19.001623
 30
0.0
 11
28.583972
 21
19.001623
 31
0.0
1001
ACAD
1000
RTLwPs
1070
   158
  0
INSERT
  5
12637
100
AcDbEntity
  8
COTATION1
 62
     0
100
AcDbBlockReference
  2
_OPEN30
 10
39.283972
 20
19.001623
 30
0.0
 41
5.0
 42
5.0
 43
5.0
1001
ACAD
1000
RTLwPs
1070
   158
  0
INSERT
  5
12638
100
AcDbEntity
  8
COTATION1
 62
     0
100
AcDbBlockReference
  2
_OPEN30
 10
23.583972
 20
19.001623
 30
0.0
 41
5.0
 42
5.0
 43
5.0
 50
180.0
1001
ACAD
1000
RTLwPs
1070
   158
  0
MTEXT
  5
12639
100
AcDbEntity
  8
COTATION1
 62
     0
100
AcDbMText
 10
31.433972
 20
22.251623
 30
0.0
 40
2.5
 41
0.0
 71
     5
 72
     1
  1
\A1;15.7
  7
ROMANS
1001
ACAD
1000
MTEXTBEGIN
1070
    73
1070
     1
1070
    44
1040
1.0
1070
    74
1070
     0
1000
MTEXTEND
1000
MTEXTBEGIN
1070
    73
1070
     1
1070
    44
1040
1.0
1070
    74
1070
     0
1000
MTEXTEND
  0
POINT
  5
1263A
100
AcDbEntity
  8
DEFPOINTS
 62
     0
100
AcDbPoint
 10
39.283972
 20
44.001623
 30
0.0
1001
ACAD
1000
RTLwPs
1070
   128
  0
POINT
  5
1263B
100
AcDbEntity
  8
DEFPOINTS
 62
     0
100
AcDbPoint
 10
23.583972
 20
72.001623
 30
0.0
1001
ACAD
1000
RTLwPs
1070
   128
  0
POINT
  5
1263C
100
AcDbEntity
  8
DEFPOINTS
 62
     0
100
AcDbPoint
 10
23.583972
 20
19.001623
 30
0.0
1001
ACAD
1000
RTLwPs
1070
   128
  0
ENDBLK
  5
11B7B
100
AcDbEntity
  8
0
100
AcDbBlockEnd
1001
ACAD
1000
RTLwPs
1070
   128
  0
ENDSEC
  0
SECTION
  2
ENTITIES
  0
LINE
  5
11AC3
100
AcDbEntity
  8
ALPHA
  6
CONTINUOUS
100
AcDbLine
 10
87.783972
 20
145.001623
 30
0.0
 11
39.283972
 21
145.001623
 31
0.0
1001
ACAD
1000
RTLwPs
1070
   128
  0
LINE
  5
11AC4
100
AcDbEntity
  8
POINTILLE_COURT
100
AcDbLine
 10
105.783972
 20
185.001623
 30
0.0
 11
7.583972
 21
185.001623
 31
0.0
  0
LINE
  5
11AC5
100
AcDbEntity
  8
ALPHA
  6
CONTINUOUS
100
AcDbLine
 10
90.783972
 20
44.001623
 30
0.0
 11
39.283972
 21
44.001623
 31
0.0
1001
ACAD
1000
RTLwPs
1070
   128
  0
LINE
  5
11AC6
100
AcDbEntity
  8
ALPHA
  6
CONTINUOUS
100
AcDbLine
 10
23.583972
 20
117.001623
 30
0.0
 11
23.583972
 21
72.001623
 31
0.0
1001
ACAD
1000
RTLwPs
1070
   128
  0
LINE
  5
11AC7
100
AcDbEntity
  8
ALPHA
  6
CONTINUOUS
100
AcDbLine
 10
90.783972
 20
128.001623
 30
0.0
 11
90.783972
 21
110.001623
 31
0.0
1001
ACAD
1000
RTLwPs
1070
   128
  0
LINE
  5
11AC8
100
AcDbEntity
  8
ALPHA
  6
CONTINUOUS
100
AcDbLine
 10
87.783972
 20
145.001623
 30
0.0
 11
90.783972
 21
128.001623
 31
0.0
1001
ACAD
1000
RTLwPs
1070
   128
  0
LINE
  5
11AC9
100
AcDbEntity
  8
ALPHA
  6
CONTINUOUS
100
AcDbLine
 10
86.051921
 20
113.001623
 30
0.0
 11
87.783972
 21
110.001623
 31
0.0
1001
ACAD
1000
RTLwPs
1070
   128
  0
LINE
  5
11ACA
100
AcDbEntity
  8
ALPHA
  6
CONTINUOUS
100
AcDbLine
 10
90.783972
 20
75.751623
 30
0.0
 11
90.783972
 21
44.001623
 31
0.0
1001
ACAD
1000
RTLwPs
1070
   128
  0
LINE
  5
11ACB
100
AcDbEntity
  8
ALPHA
  6
CONTINUOUS
100
AcDbLine
 10
39.283972
 20
145.001623
 30
0.0
 11
39.283972
 21
117.001623
 31
0.0
1001
ACAD
1000
RTLwPs
1070
   128
  0
LINE
  5
11ACC
100
AcDbEntity
  8
ALPHA
  6
CONTINUOUS
100
AcDbLine
 10
55.283972
 20
145.001623
 30
0.0
 11
55.283972
 21
44.001623
 31
0.0
1001
ACAD
1000
RTLwPs
1070
   128
  0
LINE
  5
11ACD
100
AcDbEntity
  8
ALPHA
  6
CONTINUOUS
100
AcDbLine
 10
39.283972
 20
117.001623
 30
0.0
 11
23.583972
 21
117.001623
 31
0.0
1001
ACAD
1000
RTLwPs
1070
   128
  0
LINE
  5
11ACE
100
AcDbEntity
  8
ALPHA
  6
CONTINUOUS
100
AcDbLine
 10
39.283972
 20
72.001623
 30
0.0
 11
23.583972
 21
72.001623
 31
0.0
1001
ACAD
1000
RTLwPs
1070
   128
  0
LINE
  5
11ACF
100
AcDbEntity
  8
ALPHA
  6
CONTINUOUS
100
AcDbLine
 10
39.283972
 20
44.001623
 30
0.0
 11
39.283972
 21
72.001623
 31
0.0
1001
ACAD
1000
RTLwPs
1070
   128
  0
LINE
  5
11AD0
100
AcDbEntity
  8
ALPHA
  6
CONTINUOUS
100
AcDbLine
 10
85.283972
 20
107.001623
 30
0.0
 11
85.283972
 21
113.001623
 31
0.0
1001
ACAD
1000
RTLwPs
1070
   128
  0
LINE
  5
11AD1
100
AcDbEntity
  8
ALPHA
  6
CONTINUOUS
100
AcDbLine
 10
85.283972
 20
107.001623
 30
0.0
 11
90.783972
 21
101.501623
 31
0.0
1001
ACAD
1000
RTLwPs
1070
   128
  0
LINE
  5
11AD2
100
AcDbEntity
  8
ALPHA
  6
CONTINUOUS
100
AcDbLine
 10
85.283972
 20
113.001623
 30
0.0
 11
90.783972
 21
113.001623
 31
0.0
1001
ACAD
1000
RTLwPs
1070
   128
  0
LINE
  5
11AD3
100
AcDbEntity
  8
ALPHA
  6
CONTINUOUS
100
AcDbLine
 10
87.783972
 20
110.001623
 30
0.0
 11
90.783972
 21
110.001623
 31
0.0
1001
ACAD
1000
RTLwPs
1070
   128
  0
LINE
  5
11AD4
100
AcDbEntity
  8
ALPHA
  6
CONTINUOUS
100
AcDbLine
 10
85.283972
 20
82.001623
 30
0.0
 11
85.283972
 21
76.001623
 31
0.0
1001
ACAD
1000
RTLwPs
1070
   128
  0
LINE
  5
11AD5
100
AcDbEntity
  8
ALPHA
  6
CONTINUOUS
100
AcDbLine
 10
85.283972
 20
82.001623
 30
0.0
 11
90.783972
 21
87.501623
 31
0.0
1001
ACAD
1000
RTLwPs
1070
   128
  0
LINE
  5
11AD6
100
AcDbEntity
  8
ALPHA
  6
CONTINUOUS
100
AcDbLine
 10
85.283972
 20
76.001623
 30
0.0
 11
90.783972
 21
76.001623
 31
0.0
1001
ACAD
1000
RTLwPs
1070
   128
  0
LINE
  5
11AD7
100
AcDbEntity
  8
ALPHA
  6
CONTINUOUS
100
AcDbLine
 10
90.783972
 20
101.501623
 30
0.0
 11
90.783972
 21
87.501623
 31
0.0
1001
ACAD
1000
RTLwPs
1070
   128
  0
LINE
  5
11AD8
100
AcDbEntity
  8
ALPHA
  6
CONTINUOUS
100
AcDbLine
 10
23.583972
 20
115.001623
 30
0.0
 11
19.021475
 21
115.001623
 31
0.0
1001
ACAD
1000
RTLwPs
1070
   128
  0
ARC
  5
11AD9
100
AcDbEntity
  8
ALPHA
  6
CONTINUOUS
100
AcDbCircle
 10
-6.030339
 20
118.078424
 30
0.0
 40
24.805866
100
AcDbArc
 50
319.487102
 51
351.874447
1001
ACAD
1000
RTLwPs
1070
   128
  0
ARC
  5
11ADA
100
AcDbEntity
  8
ALPHA
  6
CONTINUOUS
100
AcDbCircle
 10
19.021475
 20
114.501623
 30
0.0
 40
0.5
100
AcDbArc
 50
90.0
 51
171.874447
1001
ACAD
1000
RTLwPs
1070
   128
  0
ARC
  5
11ADB
100
AcDbEntity
  8
ALPHA
  6
CONTINUOUS
100
AcDbCircle
 10
13.583972
 20
101.308804
 30
0.0
 40
1.0
100
AcDbArc
 50
139.061146
 51
204.631047
1001
ACAD
1000
RTLwPs
1070
   128
  0
ARC
  5
11ADC
100
AcDbEntity
  8
ALPHA
  6
CONTINUOUS
100
AcDbCircle
 10
23.438685
 20
106.760149
 30
0.0
 40
12.259387
100
AcDbArc
 50
208.598139
 51
270.679032
1001
ACAD
1000
RTLwPs
1070
   128
  0
LINE
  5
11ADD
100
AcDbEntity
  8
AXE
100
AcDbLine
 10
105.783972
 20
94.501623
 30
0.0
 11
7.583972
 21
94.501623
 31
0.0
  0
TEXT
  5
11ADE
100
AcDbEntity
  8
AXE
100
AcDbText
 10
99.268099
 20
95.505893
 30
0.0
 40
8.0
  1
Z
  7
ROMANS
 72
     2
 11
105.74429
 21
95.505893
 31
0.0
100
AcDbText
  0
DIMENSION
  5
11AE7
100
AcDbEntity
  8
COTATION1
100
AcDbDimension
  2
*D1
 10
115.783972
 20
44.001623
 30
0.0
 11
115.783972
 21
94.501623
 31
0.0
 70
    32
  3
SC_DEFAUT
100
AcDbAlignedDimension
 13
87.783972
 23
145.001623
 33
0.0
 14
90.783972
 24
44.001623
 34
0.0
 50
90.0
100
AcDbRotatedDimension
  0
DIMENSION
  5
11AE8
100
AcDbEntity
  8
COTATION1
100
AcDbDimension
  2
*D2
 10
115.783972
 20
145.001623
 30
0.0
 11
115.783972
 21
165.001623
 31
0.0
 70
    32
  3
SC_DEFAUT
100
AcDbAlignedDimension
 13
105.783972
 23
185.001623
 33
0.0
 14
87.783972
 24
145.001623
 34
0.0
 50
90.0
100
AcDbRotatedDimension
  0
LINE
  5
11AE9
100
AcDbEntity
  8
POINTILLE_COURT
100
AcDbLine
 10
105.783972
 20
4.001623
 30
0.0
 11
7.583972
 21
4.001623
 31
0.0
  0
DIMENSION
  5
11AEA
100
AcDbEntity
  8
COTATION1
100
AcDbDimension
  2
*D3
 10
115.783972
 20
4.001623
 30
0.0
 11
115.783972
 21
24.001623
 31
0.0
 70
    32
  3
SC_DEFAUT
100
AcDbAlignedDimension
 13
90.783972
 23
44.001623
 33
0.0
 14
105.783972
 24
4.001623
 34
0.0
 50
90.0
100
AcDbRotatedDimension
  0
LINE
  5
11AEB
100
AcDbEntity
  8
AXE
100
AcDbLine
 10
65.033972
 20
150.001623
 30
0.0
 11
65.033972
 21
29.001623
 31
0.0
  0
TEXT
  5
11AEC
100
AcDbEntity
  8
AXE
100
AcDbText
 10
57.557781
 20
29.001623
 30
0.0
 40
8.0
  1
Y
  7
ROMANS
 72
     2
 11
64.033972
 21
29.001623
 31
0.0
100
AcDbText
  0
DIMENSION
  5
11AED
100
AcDbEntity
  8
COTATION1
100
AcDbDimension
  2
*D4
 10
39.283972
 20
19.001623
 30
0.0
 11
62.283972
 21
22.251623
 31
0.0
 70
    32
  3
SC_DEFAUT
100
AcDbAlignedDimension
 13
85.283972
 23
76.001623
 33
0.0
 14
39.283972
 24
44.001623
 34
0.0
100
AcDbRotatedDimension
  0
DIMENSION
  5
11AEE
100
AcDbEntity
  8
COTATION1
100
AcDbDimension
  2
*D5
 10
23.583972
 20
160.001623
 30
0.0
 11
57.183972
 21
163.251623
 31
0.0
 70
    32
  3
SC_DEFAUT
100
AcDbAlignedDimension
 13
90.783972
 23
128.001623
 33
0.0
 14
23.583972
 24
117.001623
 34
0.0
100
AcDbRotatedDimension
  0
DIMENSION
  5
11AEF
100
AcDbEntity
  8
COTATION1
100
AcDbDimension
  2
*D6
 10
12.583972
 20
160.001623
 30
0.0
 11
18.083972
 21
163.251623
 31
0.0
 70
    32
  3
SC_DEFAUT
100
AcDbAlignedDimension
 13
23.583972
 23
117.001623
 33
0.0
 14
12.583972
 24
101.308804
 34
0.0
100
AcDbRotatedDimension
  0
DIMENSION
  5
11AF0
100
AcDbEntity
  8
COTATION1
100
AcDbDimension
  2
*D7
 10
23.583972
 20
19.001623
 30
0.0
 11
31.433972
 21
22.251623
 31
0.0
 70
    32
  3
SC_DEFAUT
100
AcDbAlignedDimension
 13
39.283972
 23
44.001623
 33
0.0
 14
23.583972
 24
72.001623
 34
0.0
100
AcDbRotatedDimension
  0
ENDSEC
  0
SECTION
  2
OBJECTS
  0
DICTIONARY
  5
19
102
{ACAD_XDICTIONARY
360
1267E
102
}
100
AcDbDictionary
  3
ACAD_COLOR
350
6DB
  3
ACAD_GROUP
350
1A
  3
ACAD_LAYOUT
350
1E
  3
ACAD_MATERIAL
350
6DA
  3
ACAD_MLINESTYLE
350
1B
  3
ACAD_PLOTSETTINGS
350
22
  3
ACAD_PLOTSTYLENAME
350
1F
  3
ACAD_TABLESTYLE
350
6DC
  3
ACAD_WIPEOUT_VARS
350
23
  3
ACDBHEADERROUNDTRIPXREC
350
1265A
  3
ACDBVARIABLEDICTIONARY
350
7DA
  3
ASE_INDEX_DICTIONARY
350
3571
  0
DICTIONARY
  5
1264C
100
AcDbDictionary
  3
ACAD_XREC_ROUNDTRIP
360
1264D
  0
DICTIONARY
  5
1264E
100
AcDbDictionary
  3
ACAD_XREC_ROUNDTRIP
360
1264F
  0
DICTIONARY
  5
12650
100
AcDbDictionary
  3
ACAD_XREC_ROUNDTRIP
360
12651
  0
DICTIONARY
  5
26F0
100
AcDbDictionary
  3
ACAD_LAYERFILTERS
360
26F2
  3
ACAD_LAYERSTATES
360
3474
  3
ACLYDICTIONARY
360
26F1
  0
DICTIONARY
  5
1264A
100
AcDbDictionary
  3
ACAD_XREC_ROUNDTRIP
360
1264B
  0
DICTIONARY
  5
12656
100
AcDbDictionary
  3
ACAD_XREC_ROUNDTRIP
360
12657
  0
DICTIONARY
  5
12652
100
AcDbDictionary
  3
ACAD_XREC_ROUNDTRIP
360
12653
  0
DICTIONARY
  5
12654
100
AcDbDictionary
  3
ACAD_XREC_ROUNDTRIP
360
12655
  0
DICTIONARY
  5
12648
100
AcDbDictionary
  3
ACAD_XREC_ROUNDTRIP
360
12649
  0
DICTIONARY
  5
12686
100
AcDbDictionary
  3
ACAD_XREC_ROUNDTRIP
360
12687
  0
DICTIONARY
  5
7D7
100
AcDbDictionary
  3
ACAD_LAYOUTSELFREF
360
1267B
  3
ACAD_SORTENTS
360
7D8
  0
DICTIONARY
  5
1267C
100
AcDbDictionary
  3
ACAD_LAYOUTSELFREF
360
1267D
  0
DICTIONARY
  5
1267E
100
AcDbDictionary
  3
ACAD_XREC_ROUNDTRIP
360
1267F
  0
DICTIONARY
  5
6DB
102
{ACAD_REACTORS
330
19
102
}
100
AcDbDictionary
  0
DICTIONARY
  5
1A
102
{ACAD_REACTORS
330
19
102
}
100
AcDbDictionary
  0
DICTIONARY
  5
1E
102
{ACAD_XDICTIONARY
360
12682
102
}
102
{ACAD_REACTORS
330
19
102
}
100
AcDbDictionary
  3
LAYOUT1
350
21
  3
MODEL
350
20
  0
DICTIONARY
  5
6DA
102
{ACAD_REACTORS
330
19
102
}
100
AcDbDictionary
  0
DICTIONARY
  5
1B
102
{ACAD_XDICTIONARY
360
12680
102
}
102
{ACAD_REACTORS
330
19
102
}
100
AcDbDictionary
  3
STANDARD
350
1C
  0
DICTIONARY
  5
22
102
{ACAD_REACTORS
330
19
102
}
100
AcDbDictionary
  0
ACAD_ZOMBIE_OBJECT
  5
1F
102
{ACAD_REACTORS
330
19
102
}
100
AcDbZombieObject
 90
      499
 91
      517
 93
       86
310
405010041939BDC9B585B0
350
1D
340
1D
 94
        0
  0
DICTIONARY
  5
6DC
102
{ACAD_XDICTIONARY
360
12684
102
}
102
{ACAD_REACTORS
330
19
102
}
100
AcDbDictionary
  3
STANDARD
350
6DD
  0
ACAD_ZOMBIE_OBJECT
  5
23
102
{ACAD_REACTORS
330
19
102
}
100
AcDbZombieObject
 90
      499
 91
      521
 93
       10
310
4048
 94
        0
  0
DICTIONARY
  5
1265A
102
{ACAD_REACTORS
330
19
102
}
100
AcDbDictionary
  3
CEPSNTYPE
350
12664
  3
DIMSTYLEDATA
350
12668
  3
FINGERPRINTGUID
350
12665
  3
HYPERLINKBASE
350
1265D
  3
INSUNITS
350
12663
  3
LAYOUTDICT
350
1265F
  3
LWETCUNION
350
12662
  3
PLOTSETDICT
350
12660
  3
PLOTSTYLNAMDICT
350
12661
  3
PSVPSCALE
350
12667
  3
PUCSBASE
350
1266B
  3
PUCSORGBACK
350
12671
  3
PUCSORGBOTTOM
350
1266D
  3
PUCSORGFRONT
350
12670
  3
PUCSORGLEFT
350
1266E
  3
PUCSORGRIGHT
350
1266F
  3
PUCSORGTOP
350
1266C
  3
PUCSORTHOREF
350
12669
  3
PUCSORTHOVIEW
350
1266A
  3
STYLESHEET
350
1265E
  3
TSTACKALIGN
350
1265B
  3
TSTACKSIZE
350
1265C
  3
UCSBASE
350
12674
  3
UCSORGBACK
350
1267A
  3
UCSORGBOTTOM
350
12676
  3
UCSORGFRONT
350
12679
  3
UCSORGLEFT
350
12677
  3
UCSORGRIGHT
350
12678
  3
UCSORGTOP
350
12675
  3
UCSORTHOREF
350
12672
  3
UCSORTHOVIEW
350
12673
  3
VERSIONGUID
350
12666
  0
DICTIONARY
  5
7DA
102
{ACAD_REACTORS
330
19
102
}
100
AcDbDictionary
  3
CTABLESTYLE
350
7DB
  3
DIMASSOC
350
1A71
  3
PROJECTNAME
350
1A72
  0
DICTIONARY
  5
3571
102
{ACAD_XDICTIONARY
360
12688
102
}
102
{ACAD_REACTORS
330
19
102
}
100
AcDbDictionary
  3
ASEBLOCKHIERARCHYINDEXRECORD
350
3572
1001
DCO15
1040
1558939622.437
  0
XRECORD
  5
1264D
102
{ACAD_REACTORS
330
1264C
102
}
100
AcDbXrecord
102
EXTNAMES
  1
BYBLOCK
  2
ByBlock
  0
XRECORD
  5
1264F
102
{ACAD_REACTORS
330
1264E
102
}
100
AcDbXrecord
102
EXTNAMES
  1
BYLAYER
  2
ByLayer
  0
XRECORD
  5
12651
102
{ACAD_REACTORS
330
12650
102
}
100
AcDbXrecord
102
EXTNAMES
  1
CONTINUOUS
  2
Continuous
  0
DICTIONARY
  5
26F2
102
{ACAD_REACTORS
330
26F0
102
}
100
AcDbDictionary
  0
DICTIONARY
  5
3474
102
{ACAD_REACTORS
330
26F0
102
}
100
AcDbDictionary
  0
DICTIONARY
  5
26F1
102
{ACAD_REACTORS
330
26F0
102
}
100
AcDbDictionary
1001
ACAD
1000
<All
  0
XRECORD
  5
1264B
102
{ACAD_REACTORS
330
1264A
102
}
100
AcDbXrecord
102
EXTNAMES
  1
DEFPOINTS
  2
Defpoints
102
PLOTBIT
280
     0
  0
XRECORD
  5
12657
102
{ACAD_REACTORS
330
12656
102
}
100
AcDbXrecord
102
EXTNAMES
  1
STANDARD
  2
Standard
  0
XRECORD
  5
12653
102
{ACAD_REACTORS
330
12652
102
}
100
AcDbXrecord
102
EXTNAMES
  1
ACAECLAYERSTANDARD
  2
AcAecLayerStandard
  0
XRECORD
  5
12655
102
{ACAD_REACTORS
330
12654
102
}
100
AcDbXrecord
102
EXTNAMES
  1
ACAD_EXEMPT_FROM_CAD_STAND
  2
ACAD_EXEMPT_FROM_CAD_STANDARDS
  0
XRECORD
  5
12649
102
{ACAD_REACTORS
330
12648
102
}
100
AcDbXrecord
102
EXTNAMES
  1
STANDARD
  2
Standard
  0
XRECORD
  5
12687
102
{ACAD_REACTORS
330
12686
102
}
100
AcDbXrecord
102
ACADR14ROUNDTRIP
1000
DSTYLE
1002
{
1070
   279
 70
     2
1070
   341
340
6FA
1070
   342
340
6FA
1002
}
  0
XRECORD
  5
1267B
102
{ACAD_REACTORS
330
7D7
102
}
100
AcDbXrecord
340
A
  0
SORTENTSTABLE
  5
7D8
102
{ACAD_REACTORS
330
7D7
102
}
100
AcDbSortentsTable
330
A
331
11AD4
  5
11AE2
331
11AD2
  5
11AE0
331
11AD0
  5
11ADE
331
11ACE
  5
11ADC
331
11ACC
  5
11ADA
331
11ADE
  5
11AEC
331
11ADC
  5
11AEA
331
11AEF
  5
11CB0
331
11ACA
  5
11AD8
331
11AC8
  5
11AD6
331
11AED
  5
11CAD
331
11ADA
  5
11AE8
331
11AC6
  5
11AD4
331
11AEB
  5
11CA7
331
11AD8
  5
11AE6
331
11AE9
  5
11CA5
331
11AD7
  5
11AE5
331
11AC4
  5
11AD2
331
11AD5
  5
11AE3
331
11AE7
  5
11C83
331
11AD3
  5
11AE1
331
11AD1
  5
11ADF
331
11ACF
  5
11ADD
331
11ACD
  5
11ADB
331
11ACB
  5
11AD9
331
11AF0
  5
11CB2
331
11ADD
  5
11AEB
331
11ADB
  5
11AE9
331
11AEE
  5
11CAE
331
11AC9
  5
11AD7
331
11AC7
  5
11AD5
331
11AEC
  5
11CA9
331
11AD9
  5
11AE7
331
11AEA
  5
11CA6
331
11AC5
  5
11AD3
331
11AC3
  5
11AD1
331
11AD6
  5
11AE4
331
11AE8
  5
11CA3
  0
XRECORD
  5
1267D
102
{ACAD_REACTORS
330
1267C
102
}
100
AcDbXrecord
340
B
  0
XRECORD
  5
1267F
102
{ACAD_REACTORS
330
1267E
102
}
100
AcDbXrecord
102
EXTNAMES
  1
ACDBVARIABLEDICTIONARY
  2
AcDbVariableDictionary
  0
DICTIONARY
  5
12682
100
AcDbDictionary
  3
ACAD_XREC_ROUNDTRIP
360
12683
  0
ACAD_ZOMBIE_OBJECT
  5
21
102
{ACAD_XDICTIONARY
360
12641
102
}
102
{ACAD_REACTORS
330
1E
102
}
100
AcDbZombieObject
 90
      499
 91
      515
 93
      812
310
AAAAAAAAAA5A69074C61796F757431406A800000000000000000000000000000000000000000000A1000000000000008902A6A6A10232D5E076BC5510408CB5781DAF154410232D5E076BC5510408CB5781DAF15C410232D5E076BC5710408CB5781DAF15C42
330
B
330
0
340
0
340
0
 94
        0
  0
ACAD_ZOMBIE_OBJECT
  5
20
102
{ACAD_XDICTIONARY
360
1263F
102
}
102
{ACAD_REACTORS
330
1E
102
}
100
AcDbZombieObject
 90
      499
 91
      515
 93
      420
310
A00012AAAAAAAA5A69054D6F64656CAA80000000000000000000000000000000000000000000000000000000000000002AAAAAAAA9
330
A
330
0
340
0
340
0
 94
        0
  0
DICTIONARY
  5
12680
100
AcDbDictionary
  3
ACAD_XREC_ROUNDTRIP
360
12681
  0
MLINESTYLE
  5
1C
102
{ACAD_REACTORS
330
1B
102
}
100
AcDbMlineStyle
  2
STANDARD
 70
     0
  3

 62
     0
 51
90.0
 52
90.0
 71
     2
 49
0.5
 62
   256
  6
BYLAYER
 49
-0.5
 62
   256
  6
BYLAYER
  0
ACAD_ZOMBIE_OBJECT
  5
1D
102
{ACAD_REACTORS
330
1F
102
}
100
AcDbZombieObject
 90
      499
 91
      518
 93
        0
 94
        0
  0
DICTIONARY
  5
12684
100
AcDbDictionary
  3
ACAD_XREC_ROUNDTRIP
360
12685
  0
ACAD_ZOMBIE_OBJECT
  5
6DD
102
{ACAD_REACTORS
330
6DC
102
}
100
AcDbZombieObject
 90
      499
 91
      525
 93
     1841
310
4214DD185B99185C9928000000000000F83F0000000000003E0FC00000000000004901028000000C1008070000C3001FDFF8000000C1003FBFF000000182007F7FE00000030400FEFFC00000060801FDFF8000000C1003FBFF000000182000000000000000C2020B0000001820100E000186003FBFF000000182007F7FE000
310
00030400FEFFC00000060801FDFF8000000C1003FBFF000000182007F7FE0000003040000000000000012404160000003040201C00030C007F7FE00000030400FEFFC00000060801FDFF8000000C1003FBFF000000182007F7FE00000030400FEFFC000000608021
340
17
340
17
340
17
 94
        0
1001
ACAD
1000
AcadProxyRoundTripData
1071
      524
1071
   393239
1070
     0
  0
XRECORD
  5
12664
102
{ACAD_REACTORS
330
1265A
102
}
100
AcDbXrecord
 90
        0
  0
XRECORD
  5
12668
102
{ACAD_REACTORS
330
1265A
102
}
100
AcDbXrecord
1000
DSTYLE
1002
{
1070
   278
 70
     0
1070
   371
 70
     0
1070
   372
 70
     0
1002
}
  0
XRECORD
  5
12665
102
{ACAD_REACTORS
330
1265A
102
}
100
AcDbXrecord
  1

  0
XRECORD
  5
1265D
102
{ACAD_REACTORS
330
1265A
102
}
100
AcDbXrecord
  1

  0
XRECORD
  5
12663
102
{ACAD_REACTORS
330
1265A
102
}
100
AcDbXrecord
 90
        0
  0
XRECORD
  5
1265F
102
{ACAD_REACTORS
330
1265A
102
}
100
AcDbXrecord
340
1E
  0
XRECORD
  5
12662
102
{ACAD_REACTORS
330
1265A
102
}
100
AcDbXrecord
 90
    10752
  0
XRECORD
  5
12660
102
{ACAD_REACTORS
330
1265A
102
}
100
AcDbXrecord
340
22
  0
XRECORD
  5
12661
102
{ACAD_REACTORS
330
1265A
102
}
100
AcDbXrecord
340
1F
  0
XRECORD
  5
12667
102
{ACAD_REACTORS
330
1265A
102
}
100
AcDbXrecord
 40
0.0
  0
XRECORD
  5
1266B
102
{ACAD_REACTORS
330
1265A
102
}
100
AcDbXrecord
340
0
  0
XRECORD
  5
12671
102
{ACAD_REACTORS
330
1265A
102
}
100
AcDbXrecord
 10
0.0
 20
0.0
 30
0.0
  0
XRECORD
  5
1266D
102
{ACAD_REACTORS
330
1265A
102
}
100
AcDbXrecord
 10
0.0
 20
0.0
 30
0.0
  0
XRECORD
  5
12670
102
{ACAD_REACTORS
330
1265A
102
}
100
AcDbXrecord
 10
0.0
 20
0.0
 30
0.0
  0
XRECORD
  5
1266E
102
{ACAD_REACTORS
330
1265A
102
}
100
AcDbXrecord
 10
0.0
 20
0.0
 30
0.0
  0
XRECORD
  5
1266F
102
{ACAD_REACTORS
330
1265A
102
}
100
AcDbXrecord
 10
0.0
 20
0.0
 30
0.0
  0
XRECORD
  5
1266C
102
{ACAD_REACTORS
330
1265A
102
}
100
AcDbXrecord
 10
0.0
 20
0.0
 30
0.0
  0
XRECORD
  5
12669
102
{ACAD_REACTORS
330
1265A
102
}
100
AcDbXrecord
340
0
  0
XRECORD
  5
1266A
102
{ACAD_REACTORS
330
1265A
102
}
100
AcDbXrecord
 70
     0
  0
XRECORD
  5
1265E
102
{ACAD_REACTORS
330
1265A
102
}
100
AcDbXrecord
  1

  0
XRECORD
  5
1265B
102
{ACAD_REACTORS
330
1265A
102
}
100
AcDbXrecord
 90
        1
  0
XRECORD
  5
1265C
102
{ACAD_REACTORS
330
1265A
102
}
100
AcDbXrecord
 90
       70
  0
XRECORD
  5
12674
102
{ACAD_REACTORS
330
1265A
102
}
100
AcDbXrecord
340
0
  0
XRECORD
  5
1267A
102
{ACAD_REACTORS
330
1265A
102
}
100
AcDbXrecord
 10
0.0
 20
0.0
 30
0.0
  0
XRECORD
  5
12676
102
{ACAD_REACTORS
330
1265A
102
}
100
AcDbXrecord
 10
0.0
 20
0.0
 30
0.0
  0
XRECORD
  5
12679
102
{ACAD_REACTORS
330
1265A
102
}
100
AcDbXrecord
 10
0.0
 20
0.0
 30
0.0
  0
XRECORD
  5
12677
102
{ACAD_REACTORS
330
1265A
102
}
100
AcDbXrecord
 10
0.0
 20
0.0
 30
0.0
  0
XRECORD
  5
12678
102
{ACAD_REACTORS
330
1265A
102
}
100
AcDbXrecord
 10
0.0
 20
0.0
 30
0.0
  0
XRECORD
  5
12675
102
{ACAD_REACTORS
330
1265A
102
}
100
AcDbXrecord
 10
0.0
 20
0.0
 30
0.0
  0
XRECORD
  5
12672
102
{ACAD_REACTORS
330
1265A
102
}
100
AcDbXrecord
340
0
  0
XRECORD
  5
12673
102
{ACAD_REACTORS
330
1265A
102
}
100
AcDbXrecord
 70
     0
  0
XRECORD
  5
12666
102
{ACAD_REACTORS
330
1265A
102
}
100
AcDbXrecord
  1
{D917C43F-1C68-43A4-9894-37E0393EF219}
  0
DICTIONARYVAR
  5
7DB
102
{ACAD_REACTORS
330
7DA
102
}
100
DictionaryVariables
280
     0
  1
STANDARD
  0
DICTIONARYVAR
  5
1A71
102
{ACAD_REACTORS
330
7DA
102
}
100
DictionaryVariables
280
     0
  1
1
  0
DICTIONARYVAR
  5
1A72
102
{ACAD_REACTORS
330
7DA
102
}
100
DictionaryVariables
280
     0
  1

  0
DICTIONARY
  5
12688
100
AcDbDictionary
  3
ACAD_XREC_ROUNDTRIP
360
12689
  0
XRECORD
  5
3572
102
{ACAD_REACTORS
330
3571
102
}
100
AcDbXrecord
330
0
330
0
330
0
330
0
330
0
330
0
330
0
330
0
330
0
330
0
330
0
330
0
330
0
330
0
330
0
330
0
330
0
330
0
330
0
330
0
330
0
330
0
330
0
330
0
330
0
330
0
330
0
330
0
330
0
330
0
330
0
  0
XRECORD
  5
12683
102
{ACAD_REACTORS
330
12682
102
}
100
AcDbXrecord
102
EXTNAMES
  1
LAYOUT1
  2
Layout1
  1
MODEL
  2
Model
  0
DICTIONARY
  5
12641
100
AcDbDictionary
  3
ACAD_XREC_ROUNDTRIP
360
12642
  0
DICTIONARY
  5
1263F
100
AcDbDictionary
  3
ACAD_XREC_ROUNDTRIP
360
12640
  0
XRECORD
  5
12681
102
{ACAD_REACTORS
330
12680
102
}
100
AcDbXrecord
102
EXTNAMES
  1
STANDARD
  2
Standard
  0
XRECORD
  5
12685
102
{ACAD_REACTORS
330
12684
102
}
100
AcDbXrecord
102
EXTNAMES
  1
STANDARD
  2
Standard
  0
XRECORD
  5
12689
102
{ACAD_REACTORS
330
12688
102
}
100
AcDbXrecord
102
EXTNAMES
  1
ASEBLOCKHIERARCHYINDEXRECORD
  2
ASEBlockHierarchyIndexRecord
  0
XRECORD
  5
12642
102
{ACAD_REACTORS
330
12641
102
}
100
AcDbXrecord
102
SHADEPLOT
 70
     0
102
SHADEPLOTRESLEVEL
 70
     2
102
SHADEPLOTCUSTOMDPI
 70
   300
  0
XRECORD
  5
12640
102
{ACAD_REACTORS
330
1263F
102
}
100
AcDbXrecord
102
SHADEPLOT
 70
     0
102
SHADEPLOTRESLEVEL
 70
     2
102
SHADEPLOTCUSTOMDPI
 70
   300
  0
ENDSEC
  0
EOF
