  0
SECTION
  2
HEADER
  9
$ACADVER
  1
AC1014
  9
$ACADMAINTVER
 70
     0
  9
$DWGCODEPAGE
  3
ANSI_1252
  9
$INSBASE
 10
56.015898
 20
99.272963
 30
0.0
  9
$EXTMIN
 10
41.333408
 20
62.191852
 30
0.0
  9
$EXTMAX
 10
83.431094
 20
121.040179
 30
0.0
  9
$LIMMIN
 10
0.0
 20
0.0
  9
$LIMMAX
 10
210.0
 20
297.0
  9
$ORTHOMODE
 70
     1
  9
$REGENMODE
 70
     1
  9
$FILLMODE
 70
     1
  9
$QTEXTMODE
 70
     0
  9
$MIRRTEXT
 70
     1
  9
$DRAGMODE
 70
     2
  9
$LTSCALE
 40
7.0
  9
$OSMODE
 70
     0
  9
$ATTMODE
 70
     1
  9
$TEXTSIZE
 40
0.2
  9
$TRACEWID
 40
0.05
  9
$TEXTSTYLE
  7
STANDARD
  9
$CLAYER
  8
COTATION1
  9
$CELTYPE
  6
BYLAYER
  9
$CECOLOR
 62
   256
  9
$CELTSCALE
 40
1.0
  9
$DELOBJ
 70
     1
  9
$DISPSILH
 70
     0
  9
$DIMSCALE
 40
1.0
  9
$DIMASZ
 40
3.0
  9
$DIMEXO
 40
0.0625
  9
$DIMDLI
 40
0.38
  9
$DIMRND
 40
0.01
  9
$DIMDLE
 40
0.0
  9
$DIMEXE
 40
0.18
  9
$DIMTP
 40
0.0
  9
$DIMTM
 40
0.0
  9
$DIMTXT
 40
2.5
  9
$DIMCEN
 40
0.09
  9
$DIMTSZ
 40
0.0
  9
$DIMTOL
 70
     0
  9
$DIMLIM
 70
     0
  9
$DIMTIH
 70
     0
  9
$DIMTOH
 70
     0
  9
$DIMSE1
 70
     0
  9
$DIMSE2
 70
     0
  9
$DIMTAD
 70
     1
  9
$DIMZIN
 70
    12
  9
$DIMBLK
  1

  9
$DIMASO
 70
     1
  9
$DIMSHO
 70
     1
  9
$DIMPOST
  1

  9
$DIMAPOST
  1

  9
$DIMALT
 70
     0
  9
$DIMALTD
 70
     2
  9
$DIMALTF
 40
25.4
  9
$DIMLFAC
 40
1.0
  9
$DIMTOFL
 70
     1
  9
$DIMTVP
 40
0.0
  9
$DIMTIX
 70
     0
  9
$DIMSOXD
 70
     0
  9
$DIMSAH
 70
     0
  9
$DIMBLK1
  1

  9
$DIMBLK2
  1

  9
$DIMSTYLE
  2
SC_STAND
  9
$DIMCLRD
 70
     0
  9
$DIMCLRE
 70
     0
  9
$DIMCLRT
 70
     0
  9
$DIMTFAC
 40
1.0
  9
$DIMGAP
 40
1.0
  9
$DIMJUST
 70
     0
  9
$DIMSD1
 70
     0
  9
$DIMSD2
 70
     0
  9
$DIMTOLJ
 70
     1
  9
$DIMTZIN
 70
    12
  9
$DIMALTZ
 70
    12
  9
$DIMALTTZ
 70
    12
  9
$DIMFIT
 70
     5
  9
$DIMUPT
 70
     0
  9
$DIMUNIT
 70
     2
  9
$DIMDEC
 70
     4
  9
$DIMTDEC
 70
     4
  9
$DIMALTU
 70
     2
  9
$DIMALTTD
 70
     2
  9
$DIMTXSTY
  7
STANDARD
  9
$DIMAUNIT
 70
     0
  9
$LUNITS
 70
     2
  9
$LUPREC
 70
     4
  9
$SKETCHINC
 40
0.1
  9
$FILLETRAD
 40
0.0
  9
$AUNITS
 70
     0
  9
$AUPREC
 70
     0
  9
$MENU
  1
acad
  9
$ELEVATION
 40
0.0
  9
$PELEVATION
 40
0.0
  9
$THICKNESS
 40
0.0
  9
$LIMCHECK
 70
     0
  9
$BLIPMODE
 70
     1
  9
$CHAMFERA
 40
0.0
  9
$CHAMFERB
 40
0.0
  9
$CHAMFERC
 40
0.0
  9
$CHAMFERD
 40
0.0
  9
$SKPOLY
 70
     0
  9
$TDCREATE
 40
2451086.429629861
  9
$TDUPDATE
 40
2451387.897398669
  9
$TDINDWG
 40
0.0000264005
  9
$TDUSRTIMER
 40
0.0000264005
  9
$USRTIMER
 70
     1
  9
$ANGBASE
 50
0.0
  9
$ANGDIR
 70
     0
  9
$PDMODE
 70
     0
  9
$PDSIZE
 40
0.0
  9
$PLINEWID
 40
0.0
  9
$COORDS
 70
     1
  9
$SPLFRAME
 70
     0
  9
$SPLINETYPE
 70
     6
  9
$SPLINESEGS
 70
     8
  9
$ATTDIA
 70
     0
  9
$ATTREQ
 70
     1
  9
$HANDLING
 70
     1
  9
$HANDSEED
  5
74E
  9
$SURFTAB1
 70
     6
  9
$SURFTAB2
 70
     6
  9
$SURFTYPE
 70
     6
  9
$SURFU
 70
     6
  9
$SURFV
 70
     6
  9
$UCSNAME
  2

  9
$UCSORG
 10
0.0
 20
0.0
 30
0.0
  9
$UCSXDIR
 10
1.0
 20
0.0
 30
0.0
  9
$UCSYDIR
 10
0.0
 20
1.0
 30
0.0
  9
$PUCSNAME
  2

  9
$PUCSORG
 10
0.0
 20
0.0
 30
0.0
  9
$PUCSXDIR
 10
1.0
 20
0.0
 30
0.0
  9
$PUCSYDIR
 10
0.0
 20
1.0
 30
0.0
  9
$USERI1
 70
     0
  9
$USERI2
 70
     0
  9
$USERI3
 70
     0
  9
$USERI4
 70
     0
  9
$USERI5
 70
     0
  9
$USERR1
 40
0.0
  9
$USERR2
 40
0.0
  9
$USERR3
 40
0.0
  9
$USERR4
 40
0.0
  9
$USERR5
 40
0.0
  9
$WORLDVIEW
 70
     1
  9
$SHADEDGE
 70
     3
  9
$SHADEDIF
 70
    70
  9
$TILEMODE
 70
     1
  9
$MAXACTVP
 70
    16
  9
$PINSBASE
 10
0.0
 20
0.0
 30
0.0
  9
$PLIMCHECK
 70
     0
  9
$PEXTMIN
 10
1.000000E+20
 20
1.000000E+20
 30
1.000000E+20
  9
$PEXTMAX
 10
-1.000000E+20
 20
-1.000000E+20
 30
-1.000000E+20
  9
$PLIMMIN
 10
0.0
 20
0.0
  9
$PLIMMAX
 10
12.0
 20
9.0
  9
$UNITMODE
 70
     0
  9
$VISRETAIN
 70
     0
  9
$PLINEGEN
 70
     0
  9
$PSLTSCALE
 70
     1
  9
$TREEDEPTH
 70
  3020
  9
$PICKSTYLE
 70
     1
  9
$CMLSTYLE
  2
STANDARD
  9
$CMLJUST
 70
     0
  9
$CMLSCALE
 40
1.0
  9
$PROXYGRAPHICS
 70
     1
  9
$MEASUREMENT
 70
     0
  0
ENDSEC
  0
SECTION
  2
CLASSES
  0
CLASS
  1
DICTIONARYVAR
  2
AcDbDictionaryVar
  3
"AutoCAD"
 90
        0
280
     0
281
     0
  0
CLASS
  1
LWPOLYLINE
  2
AcDbPolyline
  3
"AutoCAD"
 90
        0
280
     0
281
     1
  0
ENDSEC
  0
SECTION
  2
TABLES
  0
TABLE
  2
VPORT
  5
724
100
AcDbSymbolTable
 70
     1
  0
VPORT
  5
749
100
AcDbSymbolTableRecord
100
AcDbViewportTableRecord
  2
*ACTIVE
 70
     0
 10
0.0
 20
0.0
 11
1.0
 21
1.0
 12
225.654671
 22
135.037441
 13
0.0
 23
0.0
 14
1.0
 24
1.0
 15
0.0
 25
0.0
 16
0.0
 26
0.0
 36
1.0
 17
0.0
 27
0.0
 37
0.0
 40
270.074882
 41
1.671053
 42
50.0
 43
0.0
 44
0.0
 50
0.0
 51
0.0
 71
     0
 72
   100
 73
     1
 74
     1
 75
     0
 76
     0
 77
     0
 78
     0
  0
ENDTAB
  0
TABLE
  2
LTYPE
  5
721
100
AcDbSymbolTable
 70
     1
  0
LTYPE
  5
72D
100
AcDbSymbolTableRecord
100
AcDbLinetypeTableRecord
  2
BYBLOCK
 70
     0
  3

 72
    65
 73
     0
 40
0.0
  0
LTYPE
  5
72E
100
AcDbSymbolTableRecord
100
AcDbLinetypeTableRecord
  2
BYLAYER
 70
     0
  3

 72
    65
 73
     0
 40
0.0
  0
LTYPE
  5
72F
100
AcDbSymbolTableRecord
100
AcDbLinetypeTableRecord
  2
CONTINUOUS
 70
     0
  3
Solid line
 72
    65
 73
     0
 40
0.0
  0
ENDTAB
  0
TABLE
  2
LAYER
  5
71E
100
AcDbSymbolTable
 70
     4
  0
LAYER
  5
72A
100
AcDbSymbolTableRecord
100
AcDbLayerTableRecord
  2
0
 70
     0
 62
     7
  6
CONTINUOUS
  0
LAYER
  5
73D
100
AcDbSymbolTableRecord
100
AcDbLayerTableRecord
  2
COTATION1
 70
     0
 62
     2
  6
CONTINUOUS
  0
LAYER
  5
73E
100
AcDbSymbolTableRecord
100
AcDbLayerTableRecord
  2
ALPHA
 70
     0
 62
   255
  6
CONTINUOUS
  0
LAYER
  5
73F
100
AcDbSymbolTableRecord
100
AcDbLayerTableRecord
  2
DEFPOINTS
 70
     0
 62
     7
  6
CONTINUOUS
  0
ENDTAB
  0
TABLE
  2
STYLE
  5
71F
100
AcDbSymbolTable
 70
     2
  0
STYLE
  5
72B
100
AcDbSymbolTableRecord
100
AcDbTextStyleTableRecord
  2
STANDARD
 70
     0
 40
0.0
 41
1.0
 50
0.0
 71
     0
 42
0.2
  3
txt
  4

  0
STYLE
  5
73A
100
AcDbSymbolTableRecord
100
AcDbTextStyleTableRecord
  2
ROMANS
 70
     0
 40
0.0
 41
1.0
 50
0.0
 71
     0
 42
2.9
  3
romans.shx
  4

  0
ENDTAB
  0
TABLE
  2
VIEW
  5
722
100
AcDbSymbolTable
 70
     0
  0
ENDTAB
  0
TABLE
  2
UCS
  5
723
100
AcDbSymbolTable
 70
     0
  0
ENDTAB
  0
TABLE
  2
APPID
  5
725
100
AcDbSymbolTable
 70
     1
  0
APPID
  5
72C
100
AcDbSymbolTableRecord
100
AcDbRegAppTableRecord
  2
ACAD
 70
     0
  0
ENDTAB
  0
TABLE
  2
DIMSTYLE
  5
726
100
AcDbSymbolTable
 70
     1
  0
DIMSTYLE
105
73C
102
{ACAD_REACTORS
330
1F
330
2D
102
}
100
AcDbSymbolTableRecord
100
AcDbDimStyleTableRecord
  2
SC_STAND
 70
     0
  3

  4

  5

  6

  7

 40
1.0
 41
3.0
 42
0.0625
 43
0.38
 44
0.18
 45
0.01
 46
0.0
 47
0.0
 48
0.0
140
2.5
141
0.09
142
0.0
143
25.4
144
1.0
145
0.0
146
1.0
147
1.0
 71
     0
 72
     0
 73
     0
 74
     0
 75
     0
 76
     0
 77
     1
 78
    12
170
     0
171
     2
172
     1
173
     0
174
     0
175
     0
176
     0
177
     0
178
     0
270
     2
271
     4
272
     4
273
     2
274
     2
340
72B
275
     0
280
     0
281
     0
282
     0
283
     1
284
    12
285
    12
286
    12
287
     5
288
     0
  0
ENDTAB
  0
TABLE
  2
BLOCK_RECORD
  5
71D
100
AcDbSymbolTable
 70
     2
  0
BLOCK_RECORD
  5
733
100
AcDbSymbolTableRecord
100
AcDbBlockTableRecord
  2
*MODEL_SPACE
  0
BLOCK_RECORD
  5
730
100
AcDbSymbolTableRecord
100
AcDbBlockTableRecord
  2
*PAPER_SPACE
  0
BLOCK_RECORD
  5
738
100
AcDbSymbolTableRecord
100
AcDbBlockTableRecord
  2
*D0
  0
BLOCK_RECORD
  5
739
100
AcDbSymbolTableRecord
100
AcDbBlockTableRecord
  2
*D1
  0
ENDTAB
  0
ENDSEC
  0
SECTION
  2
BLOCKS
  0
BLOCK
  5
742
100
AcDbEntity
  8
0
100
AcDbBlockBegin
  2
*MODEL_SPACE
 70
     0
 10
0.0
 20
0.0
 30
0.0
  3
*MODEL_SPACE
  1

  0
ENDBLK
  5
743
100
AcDbEntity
  8
0
100
AcDbBlockEnd
  0
BLOCK
  5
740
100
AcDbEntity
 67
     1
  8
0
100
AcDbBlockBegin
  2
*PAPER_SPACE
 70
     0
 10
0.0
 20
0.0
 30
0.0
  3
*PAPER_SPACE
  1

  0
ENDBLK
  5
741
100
AcDbEntity
 67
     1
  8
0
100
AcDbBlockEnd
  0
BLOCK
  5
38
100
AcDbEntity
  8
0
100
AcDbBlockBegin
  2
*D0
 70
     1
 10
0.0
 20
0.0
 30
0.0
  3
*D0
  1
AVE_GLOBAL
  0
LINE
  5
2F
100
AcDbEntity
  8
0
  6
BYBLOCK
 62
     0
100
AcDbLine
 10
61.826398
 20
74.672351
 30
0.0
 11
83.111094
 21
74.672351
 31
0.0
  0
LINE
  5
30
100
AcDbEntity
  8
0
  6
BYBLOCK
 62
     0
100
AcDbLine
 10
69.156568
 20
120.936626
 30
0.0
 11
83.111094
 21
120.936626
 31
0.0
  0
LINE
  5
31
100
AcDbEntity
  8
0
  6
BYBLOCK
 62
     0
100
AcDbLine
 10
82.931094
 20
77.672351
 30
0.0
 11
82.931094
 21
117.936626
 31
0.0
  0
SOLID
  5
32
100
AcDbEntity
  8
0
  6
BYBLOCK
 62
     0
100
AcDbTrace
 10
82.431094
 20
77.672351
 30
0.0
 11
83.431094
 21
77.672351
 31
0.0
 12
82.931094
 22
74.672351
 32
0.0
 13
82.931094
 23
74.672351
 33
0.0
  0
SOLID
  5
33
100
AcDbEntity
  8
0
  6
BYBLOCK
 62
     0
100
AcDbTrace
 10
82.431094
 20
117.936626
 30
0.0
 11
83.431094
 21
117.936626
 31
0.0
 12
82.931094
 22
120.936626
 32
0.0
 13
82.931094
 23
120.936626
 33
0.0
  0
TEXT
  5
34
100
AcDbEntity
  8
0
  6
BYBLOCK
 62
     0
100
AcDbText
 10
81.931094
 20
92.447346
 30
0.0
 40
2.5
  1
46.26
 50
90.0
  7
ROMANS
100
AcDbText
  0
POINT
  5
35
100
AcDbEntity
  8
DEFPOINTS
  6
BYBLOCK
 62
     0
100
AcDbPoint
 10
61.763898
 20
74.672351
 30
0.0
  0
POINT
  5
36
100
AcDbEntity
  8
DEFPOINTS
  6
BYBLOCK
 62
     0
100
AcDbPoint
 10
69.094068
 20
120.936626
 30
0.0
  0
POINT
  5
37
100
AcDbEntity
  8
DEFPOINTS
  6
BYBLOCK
 62
     0
100
AcDbPoint
 10
82.931094
 20
120.936626
 30
0.0
  0
ENDBLK
  5
39
100
AcDbEntity
  8
0
100
AcDbBlockEnd
  0
BLOCK
  5
2B
100
AcDbEntity
  8
0
100
AcDbBlockBegin
  2
*D1
 70
     1
 10
0.0
 20
0.0
 30
0.0
  3
*D1
  1
AVE_GLOBAL
  0
LINE
  5
21
100
AcDbEntity
  8
0
  6
BYBLOCK
 62
     0
100
AcDbLine
 10
71.495256
 20
82.365513
 30
0.0
 11
71.495256
 21
62.511852
 31
0.0
  0
LINE
  5
22
100
AcDbEntity
  8
0
  6
BYBLOCK
 62
     0
100
AcDbLine
 10
41.644068
 20
82.674126
 30
0.0
 11
41.644068
 21
62.511852
 31
0.0
  0
LINE
  5
23
100
AcDbEntity
  8
0
  6
BYBLOCK
 62
     0
100
AcDbLine
 10
68.495256
 20
62.691852
 30
0.0
 11
44.644068
 21
62.691852
 31
0.0
  0
SOLID
  5
24
100
AcDbEntity
  8
0
  6
BYBLOCK
 62
     0
100
AcDbTrace
 10
68.495256
 20
63.191852
 30
0.0
 11
68.495256
 21
62.191852
 31
0.0
 12
71.495256
 22
62.691852
 32
0.0
 13
71.495256
 23
62.691852
 33
0.0
  0
SOLID
  5
25
100
AcDbEntity
  8
0
  6
BYBLOCK
 62
     0
100
AcDbTrace
 10
44.644068
 20
63.191852
 30
0.0
 11
44.644068
 21
62.191852
 31
0.0
 12
41.644068
 22
62.691852
 32
0.0
 13
41.644068
 23
62.691852
 33
0.0
  0
TEXT
  5
26
100
AcDbEntity
  8
0
  6
BYBLOCK
 62
     0
100
AcDbText
 10
51.212519
 20
63.691852
 30
0.0
 40
2.5
  1
29.85
  7
ROMANS
100
AcDbText
  0
POINT
  5
27
100
AcDbEntity
  8
DEFPOINTS
  6
BYBLOCK
 62
     0
100
AcDbPoint
 10
71.495256
 20
82.428013
 30
0.0
  0
POINT
  5
29
100
AcDbEntity
  8
DEFPOINTS
  6
BYBLOCK
 62
     0
100
AcDbPoint
 10
41.644068
 20
82.736626
 30
0.0
  0
POINT
  5
2A
100
AcDbEntity
  8
DEFPOINTS
  6
BYBLOCK
 62
     0
100
AcDbPoint
 10
41.644068
 20
62.691852
 30
0.0
  0
ENDBLK
  5
2C
100
AcDbEntity
  8
0
100
AcDbBlockEnd
  0
ENDSEC
  0
SECTION
  2
ENTITIES
  0
DIMENSION
  5
1F
100
AcDbEntity
  8
COTATION1
100
AcDbDimension
  2
*D1
 10
41.644068
 20
62.691852
 30
0.0
 11
56.569662
 21
64.941852
 31
0.0
  3
SC_STAND
100
AcDbAlignedDimension
 13
71.495256
 23
82.428013
 33
0.0
 14
41.644068
 24
82.736626
 34
0.0
100
AcDbRotatedDimension
  0
DIMENSION
  5
2D
100
AcDbEntity
  8
COTATION1
100
AcDbDimension
  2
*D0
 10
82.931094
 20
120.936626
 30
0.0
 11
80.681094
 21
97.804489
 31
0.0
  3
SC_STAND
100
AcDbAlignedDimension
 13
61.763898
 23
74.672351
 33
0.0
 14
69.094068
 24
120.936626
 34
0.0
 50
90.0
100
AcDbRotatedDimension
  0
LWPOLYLINE
  5
3A
100
AcDbEntity
  8
ALPHA
100
AcDbPolyline
 90
       12
 70
     0
 43
0.0
 10
53.644068
 20
74.859196
 10
53.41918
 20
74.857458
 10
53.188545
 20
74.852044
 10
52.961106
 20
74.843044
 10
52.742511
 20
74.830875
 10
52.533561
 20
74.815894
 10
52.333332
 20
74.79832
 10
52.140508
 20
74.778246
 10
51.953927
 20
74.755682
 10
51.772735
 20
74.73058
 10
51.596306
 20
74.702848
 10
51.424238
 20
74.672351
  0
LINE
  5
49
100
AcDbEntity
  8
ALPHA
100
AcDbLine
 10
53.644068
 20
74.859196
 30
0.0
 11
59.544068
 21
74.859196
 31
0.0
  0
LWPOLYLINE
  5
4A
100
AcDbEntity
  8
ALPHA
100
AcDbPolyline
 90
       12
 70
     0
 43
0.0
 10
61.763898
 20
74.672351
 10
61.59183
 20
74.702848
 10
61.415403
 20
74.73058
 10
61.234221
 20
74.75568
 10
61.047659
 20
74.778243
 10
60.854865
 20
74.798314
 10
60.65468
 20
74.815886
 10
60.445779
 20
74.830865
 10
60.227229
 20
74.843035
 10
59.99979
 20
74.852037
 10
59.769054
 20
74.857456
 10
59.544068
 20
74.859196
  0
LINE
  5
58
100
AcDbEntity
  8
ALPHA
100
AcDbLine
 10
44.294068
 20
118.820199
 30
0.0
 11
41.794068
 21
118.820199
 31
0.0
  0
LINE
  5
59
100
AcDbEntity
  8
ALPHA
100
AcDbLine
 10
71.394068
 20
118.820199
 30
0.0
 11
68.894068
 21
118.820199
 31
0.0
  0
LINE
  5
5A
100
AcDbEntity
  8
ALPHA
100
AcDbLine
 10
68.894068
 20
114.924497
 30
0.0
 11
71.394068
 21
114.924497
 31
0.0
  0
LINE
  5
5B
100
AcDbEntity
  8
ALPHA
100
AcDbLine
 10
68.894068
 20
115.431795
 30
0.0
 11
71.394068
 21
115.431795
 31
0.0
  0
LINE
  5
5C
100
AcDbEntity
  8
ALPHA
100
AcDbLine
 10
63.332208
 20
77.362053
 30
0.0
 11
63.332208
 21
77.258719
 31
0.0
  0
LINE
  5
5D
100
AcDbEntity
  8
ALPHA
100
AcDbLine
 10
53.644068
 20
74.859196
 30
0.0
 11
53.644068
 21
75.427533
 31
0.0
  0
LWPOLYLINE
  5
5E
100
AcDbEntity
  8
ALPHA
100
AcDbPolyline
 90
        9
 70
     0
 43
0.0
 10
53.085565
 20
75.468148
 10
52.436975
 20
75.617669
 10
51.817459
 20
75.879462
 10
51.255802
 20
76.24317
 10
50.76975
 20
76.697299
 10
50.374678
 20
77.227514
 10
50.083108
 20
77.817085
 10
49.904343
 20
78.447294
 10
49.844068
 20
79.098543
  0
LINE
  5
69
100
AcDbEntity
  8
ALPHA
100
AcDbLine
 10
49.855929
 20
77.362053
 30
0.0
 11
49.855929
 21
77.258719
 31
0.0
  0
LWPOLYLINE
  5
6A
100
AcDbEntity
  8
ALPHA
100
AcDbPolyline
 90
        9
 70
     0
 43
0.0
 10
63.344068
 20
79.098543
 10
63.283794
 20
78.447294
 10
63.105028
 20
77.817085
 10
62.813459
 20
77.227514
 10
62.418387
 20
76.697299
 10
61.932335
 20
76.24317
 10
61.370678
 20
75.879462
 10
60.751162
 20
75.617669
 10
60.102572
 20
75.468148
  0
LINE
  5
75
100
AcDbEntity
  8
ALPHA
100
AcDbLine
 10
59.544068
 20
74.859196
 30
0.0
 11
59.544068
 21
75.427533
 31
0.0
  0
LINE
  5
76
100
AcDbEntity
  8
ALPHA
100
AcDbLine
 10
53.094068
 20
75.505033
 30
0.0
 11
60.094068
 21
75.505033
 31
0.0
  0
LINE
  5
77
100
AcDbEntity
  8
ALPHA
100
AcDbLine
 10
68.894068
 20
114.924497
 30
0.0
 11
68.894068
 21
115.431795
 31
0.0
  0
LINE
  5
78
100
AcDbEntity
  8
ALPHA
100
AcDbLine
 10
71.394068
 20
114.924497
 30
0.0
 11
71.394068
 21
115.431795
 31
0.0
  0
LINE
  5
79
100
AcDbEntity
  8
ALPHA
100
AcDbLine
 10
59.544068
 20
75.427533
 30
0.0
 11
60.094068
 21
75.427533
 31
0.0
  0
LINE
  5
7A
100
AcDbEntity
  8
ALPHA
100
AcDbLine
 10
49.844068
 20
77.548536
 30
0.0
 11
49.844068
 21
79.098543
 31
0.0
  0
LINE
  5
7B
100
AcDbEntity
  8
ALPHA
100
AcDbLine
 10
49.847051
 20
77.403109
 30
0.0
 11
49.844068
 21
77.548536
 31
0.0
  0
LINE
  5
7C
100
AcDbEntity
  8
ALPHA
100
AcDbLine
 10
49.855929
 20
77.258719
 30
0.0
 11
49.847051
 21
77.403109
 31
0.0
  0
LWPOLYLINE
  5
7D
100
AcDbEntity
  8
ALPHA
100
AcDbPolyline
 90
        6
 70
     0
 43
0.0
 10
51.424238
 20
74.672351
 10
50.924957
 20
75.087464
 10
50.507336
 20
75.579706
 10
50.184001
 20
76.134229
 10
49.964669
 20
76.73436
 10
49.855929
 20
77.362053
  0
LINE
  5
85
100
AcDbEntity
  8
ALPHA
100
AcDbLine
 10
63.344068
 20
77.548536
 30
0.0
 11
63.341086
 21
77.403109
 31
0.0
  0
LINE
  5
86
100
AcDbEntity
  8
ALPHA
100
AcDbLine
 10
63.344068
 20
77.548536
 30
0.0
 11
63.344068
 21
79.098543
 31
0.0
  0
LWPOLYLINE
  5
87
100
AcDbEntity
  8
ALPHA
100
AcDbPolyline
 90
        6
 70
     0
 43
0.0
 10
63.332208
 20
77.362053
 10
63.223467
 20
76.73436
 10
63.004135
 20
76.134229
 10
62.680801
 20
75.579706
 10
62.26318
 20
75.087464
 10
61.763898
 20
74.672351
  0
LWPOLYLINE
  5
8F
100
AcDbEntity
  8
ALPHA
100
AcDbPolyline
 90
        5
 70
     0
 43
0.0
 10
51.571325
 20
86.317305
 10
51.703653
 20
86.161537
 10
52.054811
 20
85.526867
 10
52.271052
 20
84.838211
 10
52.314243
 20
84.414577
  0
LINE
  5
96
100
AcDbEntity
  8
ALPHA
100
AcDbLine
 10
51.558851
 20
86.331989
 30
0.0
 11
51.571325
 21
86.317305
 31
0.0
  0
LINE
  5
97
100
AcDbEntity
  8
ALPHA
100
AcDbLine
 10
48.544068
 20
87.793043
 30
0.0
 11
49.094068
 21
87.740712
 31
0.0
  0
LINE
  5
98
100
AcDbEntity
  8
ALPHA
100
AcDbLine
 10
53.094068
 20
75.427533
 30
0.0
 11
53.644068
 21
75.427533
 31
0.0
  0
LINE
  5
99
100
AcDbEntity
  8
ALPHA
100
AcDbLine
 10
53.094068
 20
77.920172
 30
0.0
 11
53.094068
 21
75.505033
 31
0.0
  0
LINE
  5
9A
100
AcDbEntity
  8
ALPHA
100
AcDbLine
 10
54.094068
 20
77.920172
 30
0.0
 11
53.094068
 21
77.920172
 31
0.0
  0
LINE
  5
9B
100
AcDbEntity
  8
ALPHA
100
AcDbLine
 10
54.094068
 20
77.340538
 30
0.0
 11
54.094068
 21
77.920172
 31
0.0
  0
LINE
  5
9C
100
AcDbEntity
  8
ALPHA
100
AcDbLine
 10
55.296176
 20
77.340538
 30
0.0
 11
54.094068
 21
77.340538
 31
0.0
  0
LINE
  5
9D
100
AcDbEntity
  8
ALPHA
100
AcDbLine
 10
59.094068
 20
77.340538
 30
0.0
 11
57.901793
 21
77.340538
 31
0.0
  0
LINE
  5
9E
100
AcDbEntity
  8
ALPHA
100
AcDbLine
 10
59.094068
 20
77.920172
 30
0.0
 11
59.094068
 21
77.340538
 31
0.0
  0
LINE
  5
9F
100
AcDbEntity
  8
ALPHA
100
AcDbLine
 10
60.094068
 20
77.920172
 30
0.0
 11
59.094068
 21
77.920172
 31
0.0
  0
LINE
  5
A0
100
AcDbEntity
  8
ALPHA
100
AcDbLine
 10
71.394068
 20
115.431795
 30
0.0
 11
71.394068
 21
118.820199
 31
0.0
  0
LINE
  5
A1
100
AcDbEntity
  8
ALPHA
100
AcDbLine
 10
60.094068
 20
75.505033
 30
0.0
 11
60.094068
 21
77.920172
 31
0.0
  0
LINE
  5
A2
100
AcDbEntity
  8
ALPHA
100
AcDbLine
 10
60.094068
 20
75.466188
 30
0.0
 11
60.094068
 21
75.505033
 31
0.0
  0
LINE
  5
A3
100
AcDbEntity
  8
ALPHA
100
AcDbLine
 10
60.094068
 20
75.427533
 30
0.0
 11
60.094068
 21
75.466188
 31
0.0
  0
LINE
  5
A4
100
AcDbEntity
  8
ALPHA
100
AcDbLine
 10
53.094068
 20
75.466188
 30
0.0
 11
53.094068
 21
75.505033
 31
0.0
  0
LINE
  5
A5
100
AcDbEntity
  8
ALPHA
100
AcDbLine
 10
53.094068
 20
75.427533
 30
0.0
 11
53.094068
 21
75.466188
 31
0.0
  0
LINE
  5
A6
100
AcDbEntity
  8
ALPHA
100
AcDbLine
 10
41.794068
 20
115.5866
 30
0.0
 11
41.794068
 21
118.820199
 31
0.0
  0
LINE
  5
A7
100
AcDbEntity
  8
ALPHA
100
AcDbLine
 10
44.294068
 20
116.436626
 30
0.0
 11
44.294068
 21
118.820199
 31
0.0
  0
LWPOLYLINE
  5
A8
100
AcDbEntity
  8
ALPHA
100
AcDbPolyline
 90
        6
 70
     0
 43
0.0
 10
60.844068
 20
78.325699
 10
60.819754
 20
78.176905
 10
60.747987
 20
78.041
 10
60.638771
 20
77.935491
 10
60.498091
 20
77.86616
 10
60.344068
 20
77.842671
  0
LINE
  5
B0
100
AcDbEntity
  8
ALPHA
100
AcDbLine
 10
58.100418
 20
77.481003
 30
0.0
 11
59.094068
 21
77.481003
 31
0.0
  0
LINE
  5
B1
100
AcDbEntity
  8
ALPHA
100
AcDbLine
 10
54.094068
 20
77.481003
 30
0.0
 11
55.085757
 21
77.481003
 31
0.0
  0
LWPOLYLINE
  5
B2
100
AcDbEntity
  8
ALPHA
100
AcDbPolyline
 90
        6
 70
     0
 43
0.0
 10
52.844068
 20
77.842671
 10
52.690046
 20
77.86616
 10
52.549366
 20
77.935491
 10
52.44015
 20
78.041
 10
52.368383
 20
78.176905
 10
52.344068
 20
78.325699
  0
LINE
  5
BA
100
AcDbEntity
  8
ALPHA
100
AcDbLine
 10
51.424238
 20
74.672351
 30
0.0
 11
61.763898
 21
74.672351
 31
0.0
  0
LINE
  5
BB
100
AcDbEntity
  8
ALPHA
100
AcDbLine
 10
68.894068
 20
115.431795
 30
0.0
 11
68.894068
 21
118.820199
 31
0.0
  0
LINE
  5
BC
100
AcDbEntity
  8
ALPHA
100
AcDbLine
 10
71.394068
 20
113.936626
 30
0.0
 11
71.394068
 21
114.924497
 31
0.0
  0
LINE
  5
BD
100
AcDbEntity
  8
ALPHA
100
AcDbLine
 10
68.894068
 20
114.924497
 30
0.0
 11
68.894068
 21
114.436626
 31
0.0
  0
LINE
  5
BE
100
AcDbEntity
  8
ALPHA
100
AcDbLine
 10
60.844068
 20
80.236626
 30
0.0
 11
60.844068
 21
78.325699
 31
0.0
  0
LINE
  5
BF
100
AcDbEntity
  8
ALPHA
100
AcDbLine
 10
60.344068
 20
77.842671
 30
0.0
 11
60.094068
 21
77.842671
 31
0.0
  0
LINE
  5
C0
100
AcDbEntity
  8
ALPHA
100
AcDbLine
 10
61.616812
 20
86.317305
 30
0.0
 11
61.629286
 21
86.331989
 31
0.0
  0
LWPOLYLINE
  5
C1
100
AcDbEntity
  8
ALPHA
100
AcDbPolyline
 90
        5
 70
     0
 43
0.0
 10
60.873894
 20
84.414577
 10
60.917084
 20
84.838211
 10
61.133326
 20
85.526867
 10
61.484484
 20
86.161537
 10
61.616812
 20
86.317305
  0
LINE
  5
C8
100
AcDbEntity
  8
ALPHA
100
AcDbLine
 10
63.344068
 20
79.098543
 30
0.0
 11
63.344068
 21
81.236626
 31
0.0
  0
LINE
  5
C9
100
AcDbEntity
  8
ALPHA
100
AcDbLine
 10
48.544068
 20
87.793043
 30
0.0
 11
45.294068
 21
87.793043
 31
0.0
  0
LINE
  5
CA
100
AcDbEntity
  8
ALPHA
100
AcDbLine
 10
44.294068
 20
88.759099
 30
0.0
 11
44.294068
 21
89.936626
 31
0.0
  0
LINE
  5
CB
100
AcDbEntity
  8
ALPHA
100
AcDbLine
 10
44.294068
 20
113.137463
 30
0.0
 11
44.294068
 21
114.735788
 31
0.0
  0
LINE
  5
CC
100
AcDbEntity
  8
ALPHA
100
AcDbLine
 10
49.844068
 20
80.236626
 30
0.0
 11
49.844068
 21
79.098543
 31
0.0
  0
LINE
  5
CD
100
AcDbEntity
  8
ALPHA
100
AcDbLine
 10
53.094068
 20
77.842671
 30
0.0
 11
52.844068
 21
77.842671
 31
0.0
  0
LINE
  5
CE
100
AcDbEntity
  8
ALPHA
100
AcDbLine
 10
52.344068
 20
78.325699
 30
0.0
 11
52.344068
 21
80.223228
 31
0.0
  0
LINE
  5
CF
100
AcDbEntity
  8
ALPHA
100
AcDbLine
 10
49.844068
 20
79.098543
 30
0.0
 11
49.844068
 21
77.548536
 31
0.0
  0
LINE
  5
D0
100
AcDbEntity
  8
ALPHA
100
AcDbLine
 10
41.794068
 20
119.054567
 30
0.0
 11
44.294068
 21
119.054567
 31
0.0
  0
LINE
  5
D1
100
AcDbEntity
  8
ALPHA
100
AcDbLine
 10
41.794068
 20
119.054559
 30
0.0
 11
41.794068
 21
118.820199
 31
0.0
  0
LINE
  5
D2
100
AcDbEntity
  8
ALPHA
100
AcDbLine
 10
44.294068
 20
119.054559
 30
0.0
 11
44.294068
 21
118.820199
 31
0.0
  0
LINE
  5
D3
100
AcDbEntity
  8
ALPHA
100
AcDbLine
 10
49.855929
 20
77.258719
 30
0.0
 11
49.87383
 21
77.258719
 31
0.0
  0
LINE
  5
D4
100
AcDbEntity
  8
ALPHA
100
AcDbLine
 10
68.894068
 20
119.054567
 30
0.0
 11
71.394068
 21
119.054567
 31
0.0
  0
LINE
  5
D5
100
AcDbEntity
  8
ALPHA
100
AcDbLine
 10
68.894068
 20
119.054559
 30
0.0
 11
68.894068
 21
118.820199
 31
0.0
  0
LINE
  5
D6
100
AcDbEntity
  8
ALPHA
100
AcDbLine
 10
71.394068
 20
119.054559
 30
0.0
 11
71.394068
 21
118.820199
 31
0.0
  0
LWPOLYLINE
  5
D7
100
AcDbEntity
  8
ALPHA
100
AcDbPolyline
 90
        7
 70
     0
 43
0.0
 10
44.294068
 20
88.759099
 10
44.328192
 20
88.508888
 10
44.427948
 20
88.276229
 10
44.586962
 20
88.075994
 10
44.794232
 20
87.922378
 10
45.035066
 20
87.826008
 10
45.294068
 20
87.793043
  0
LINE
  5
E0
100
AcDbEntity
  8
ALPHA
100
AcDbLine
 10
63.314306
 20
77.258719
 30
0.0
 11
63.332208
 21
77.258719
 31
0.0
  0
LINE
  5
E1
100
AcDbEntity
  8
ALPHA
100
AcDbLine
 10
51.687819
 20
82.065836
 30
0.0
 11
51.640944
 21
81.881575
 31
0.0
  0
LINE
  5
E2
100
AcDbEntity
  8
ALPHA
100
AcDbLine
 10
60.694068
 20
82.401689
 30
0.0
 11
60.694068
 21
82.301689
 31
0.0
  0
LINE
  5
E3
100
AcDbEntity
  8
ALPHA
100
AcDbLine
 10
51.875319
 20
82.250096
 30
0.0
 11
51.687819
 21
82.065836
 31
0.0
  0
LINE
  5
E4
100
AcDbEntity
  8
ALPHA
100
AcDbLine
 10
52.062819
 20
82.342227
 30
0.0
 11
51.875319
 21
82.250096
 31
0.0
  0
LINE
  5
E5
100
AcDbEntity
  8
ALPHA
100
AcDbLine
 10
52.390944
 20
82.388292
 30
0.0
 11
52.062819
 21
82.342227
 31
0.0
  0
LINE
  5
E6
100
AcDbEntity
  8
ALPHA
100
AcDbLine
 10
60.506568
 20
82.368522
 30
0.0
 11
60.506568
 21
82.268522
 31
0.0
  0
LINE
  5
E7
100
AcDbEntity
  8
ALPHA
100
AcDbLine
 10
41.644068
 20
110.886626
 30
0.0
 11
42.744068
 21
110.886626
 31
0.0
  0
LINE
  5
E8
100
AcDbEntity
  8
ALPHA
100
AcDbLine
 10
60.356569
 20
81.10768
 30
0.0
 11
60.319068
 21
81.207181
 31
0.0
  0
LINE
  5
E9
100
AcDbEntity
  8
ALPHA
100
AcDbLine
 10
44.769068
 20
96.436626
 30
0.0
 11
44.594068
 21
96.436626
 31
0.0
  0
LINE
  5
EA
100
AcDbEntity
  8
ALPHA
100
AcDbLine
 10
60.431569
 20
81.008179
 30
0.0
 11
60.356569
 21
81.10768
 31
0.0
  0
LINE
  5
EB
100
AcDbEntity
  8
ALPHA
100
AcDbLine
 10
59.544068
 20
89.57331
 30
0.0
 11
58.244068
 21
89.57331
 31
0.0
  0
LINE
  5
EC
100
AcDbEntity
  8
ALPHA
100
AcDbLine
 10
60.544069
 20
80.941845
 30
0.0
 11
60.431569
 21
81.008179
 31
0.0
  0
LINE
  5
ED
100
AcDbEntity
  8
ALPHA
100
AcDbLine
 10
60.319068
 20
82.269022
 30
0.0
 11
60.319068
 21
82.169022
 31
0.0
  0
LINE
  5
EE
100
AcDbEntity
  8
ALPHA
100
AcDbLine
 10
54.944068
 20
89.57331
 30
0.0
 11
53.644068
 21
89.57331
 31
0.0
  0
LINE
  5
EF
100
AcDbEntity
  8
ALPHA
100
AcDbLine
 10
60.206568
 20
82.136354
 30
0.0
 11
60.206568
 21
82.036354
 31
0.0
  0
LINE
  5
F0
100
AcDbEntity
  8
ALPHA
100
AcDbLine
 10
46.494069
 20
84.2481
 30
0.0
 11
46.494069
 21
84.1981
 31
0.0
  0
LINE
  5
F1
100
AcDbEntity
  8
ALPHA
100
AcDbLine
 10
60.656568
 20
80.908678
 30
0.0
 11
60.544069
 21
80.941845
 31
0.0
  0
LINE
  5
F2
100
AcDbEntity
  8
ALPHA
100
AcDbLine
 10
60.506568
 20
81.704685
 30
0.0
 11
60.281568
 21
81.572017
 31
0.0
  0
LINE
  5
F3
100
AcDbEntity
  8
ALPHA
100
AcDbLine
 10
44.594068
 20
99.936626
 30
0.0
 11
42.494068
 21
99.936626
 31
0.0
  0
LINE
  5
F4
100
AcDbEntity
  8
ALPHA
100
AcDbLine
 10
44.769068
 20
99.436626
 30
0.0
 11
44.594068
 21
99.436626
 31
0.0
  0
LINE
  5
F5
100
AcDbEntity
  8
ALPHA
100
AcDbLine
 10
52.484694
 20
82.388292
 30
0.0
 11
52.390944
 21
82.388292
 31
0.0
  0
LINE
  5
F6
100
AcDbEntity
  8
ALPHA
100
AcDbLine
 10
44.594068
 20
96.536626
 30
0.0
 11
42.494068
 21
96.536626
 31
0.0
  0
LINE
  5
F7
100
AcDbEntity
  8
ALPHA
100
AcDbLine
 10
52.812819
 20
82.342227
 30
0.0
 11
52.484694
 21
82.388292
 31
0.0
  0
LINE
  5
F8
100
AcDbEntity
  8
ALPHA
100
AcDbLine
 10
53.000319
 20
82.250096
 30
0.0
 11
52.812819
 21
82.342227
 31
0.0
  0
LINE
  5
F9
100
AcDbEntity
  8
ALPHA
100
AcDbLine
 10
53.187819
 20
82.065836
 30
0.0
 11
53.000319
 21
82.250096
 31
0.0
  0
LINE
  5
FA
100
AcDbEntity
  8
ALPHA
100
AcDbLine
 10
53.234694
 20
81.881575
 30
0.0
 11
53.187819
 21
82.065836
 31
0.0
  0
LINE
  5
FB
100
AcDbEntity
  8
ALPHA
100
AcDbLine
 10
41.644068
 20
100.186626
 30
0.0
 11
42.494068
 21
100.186626
 31
0.0
  0
LINE
  5
FC
100
AcDbEntity
  8
ALPHA
100
AcDbLine
 10
60.694068
 20
81.737852
 30
0.0
 11
60.506568
 21
81.704685
 31
0.0
  0
LINE
  5
FD
100
AcDbEntity
  8
ALPHA
100
AcDbLine
 10
60.919069
 20
80.908678
 30
0.0
 11
60.656568
 21
80.908678
 31
0.0
  0
LINE
  5
FE
100
AcDbEntity
  8
ALPHA
100
AcDbLine
 10
60.131568
 20
81.970519
 30
0.0
 11
60.131568
 21
81.870519
 31
0.0
  0
LINE
  5
FF
100
AcDbEntity
  8
ALPHA
100
AcDbLine
 10
71.494068
 20
100.186626
 30
0.0
 11
71.544068
 21
100.186626
 31
0.0
  0
LINE
  5
100
100
AcDbEntity
  8
ALPHA
100
AcDbLine
 10
53.140944
 20
81.236662
 30
0.0
 11
52.906569
 21
81.328793
 31
0.0
  0
LINE
  5
101
100
AcDbEntity
  8
ALPHA
100
AcDbLine
 10
53.234694
 20
81.098467
 30
0.0
 11
53.140944
 21
81.236662
 31
0.0
  0
LINE
  5
102
100
AcDbEntity
  8
ALPHA
100
AcDbLine
 10
53.281569
 20
80.914206
 30
0.0
 11
53.234694
 21
81.098467
 31
0.0
  0
ARC
  5
103
100
AcDbEntity
  8
ALPHA
100
AcDbCircle
 10
53.169068
 20
88.136626
 30
0.0
 40
0.2
100
AcDbArc
 50
180.0
 51
270.0
  0
LINE
  5
104
100
AcDbEntity
  8
ALPHA
100
AcDbLine
 10
52.969068
 20
89.372201
 30
0.0
 11
52.969068
 21
88.136626
 31
0.0
  0
LINE
  5
105
100
AcDbEntity
  8
ALPHA
100
AcDbLine
 10
42.144068
 20
84.436626
 30
0.0
 11
47.944068
 21
84.436626
 31
0.0
  0
LINE
  5
106
100
AcDbEntity
  8
ALPHA
100
AcDbLine
 10
55.199293
 20
82.536626
 30
0.0
 11
47.944068
 21
82.536626
 31
0.0
  0
LINE
  5
107
100
AcDbEntity
  8
ALPHA
100
AcDbLine
 10
61.694068
 20
82.536626
 30
0.0
 11
57.988844
 21
82.536626
 31
0.0
  0
LINE
  5
108
100
AcDbEntity
  8
ALPHA
100
AcDbLine
 10
61.031568
 20
80.941845
 30
0.0
 11
60.919069
 21
80.908678
 31
0.0
  0
LINE
  5
109
100
AcDbEntity
  8
ALPHA
100
AcDbLine
 10
60.881568
 20
81.737852
 30
0.0
 11
60.694068
 21
81.737852
 31
0.0
  0
LINE
  5
10A
100
AcDbEntity
  8
ALPHA
100
AcDbLine
 10
53.234694
 20
81.198467
 30
0.0
 11
53.234694
 21
81.098467
 31
0.0
  0
LINE
  5
10B
100
AcDbEntity
  8
ALPHA
100
AcDbLine
 10
53.140944
 20
81.336662
 30
0.0
 11
53.140944
 21
81.236662
 31
0.0
  0
LINE
  5
10C
100
AcDbEntity
  8
ALPHA
100
AcDbLine
 10
42.574068
 20
84.636626
 30
0.0
 11
48.699068
 21
84.636626
 31
0.0
  0
LINE
  5
10D
100
AcDbEntity
  8
ALPHA
100
AcDbLine
 10
52.969068
 20
88.136626
 30
0.0
 11
52.669068
 21
88.136626
 31
0.0
  0
LINE
  5
10E
100
AcDbEntity
  8
ALPHA
100
AcDbLine
 10
42.574068
 20
85.836626
 30
0.0
 11
44.044068
 21
85.836626
 31
0.0
  0
LINE
  5
10F
100
AcDbEntity
  8
ALPHA
100
AcDbLine
 10
53.169068
 20
87.936626
 30
0.0
 11
53.644068
 21
87.936626
 31
0.0
  0
LINE
  5
110
100
AcDbEntity
  8
ALPHA
100
AcDbLine
 10
42.574068
 20
93.036626
 30
0.0
 11
44.594068
 21
93.036626
 31
0.0
  0
LINE
  5
111
100
AcDbEntity
  8
ALPHA
100
AcDbLine
 10
53.169068
 20
87.936626
 30
0.0
 11
53.169068
 21
87.636626
 31
0.0
  0
LINE
  5
112
100
AcDbEntity
  8
ALPHA
100
AcDbLine
 10
61.219068
 20
81.20768
 30
0.0
 11
61.219068
 21
81.10768
 31
0.0
  0
LINE
  5
113
100
AcDbEntity
  8
ALPHA
100
AcDbLine
 10
53.944068
 20
87.636626
 30
0.0
 11
53.644068
 21
87.936626
 31
0.0
  0
LINE
  5
114
100
AcDbEntity
  8
ALPHA
100
AcDbLine
 10
53.644068
 20
87.936626
 30
0.0
 11
53.644068
 21
89.57331
 31
0.0
  0
LINE
  5
115
100
AcDbEntity
  8
ALPHA
100
AcDbLine
 10
53.944068
 20
89.433417
 30
0.0
 11
53.644068
 21
89.57331
 31
0.0
  0
LINE
  5
116
100
AcDbEntity
  8
ALPHA
100
AcDbLine
 10
53.187819
 20
82.165836
 30
0.0
 11
53.187819
 21
82.065836
 31
0.0
  0
LINE
  5
117
100
AcDbEntity
  8
ALPHA
100
AcDbLine
 10
59.244068
 20
89.433417
 30
0.0
 11
59.544068
 21
89.57331
 31
0.0
  0
LINE
  5
118
100
AcDbEntity
  8
ALPHA
100
AcDbLine
 10
59.544068
 20
89.57331
 30
0.0
 11
59.544068
 21
87.936626
 31
0.0
  0
LINE
  5
119
100
AcDbEntity
  8
ALPHA
100
AcDbLine
 10
59.544068
 20
87.936626
 30
0.0
 11
60.019068
 21
87.936626
 31
0.0
  0
LINE
  5
11A
100
AcDbEntity
  8
ALPHA
100
AcDbLine
 10
53.000319
 20
82.350096
 30
0.0
 11
53.000319
 21
82.250096
 31
0.0
  0
LINE
  5
11B
100
AcDbEntity
  8
ALPHA
100
AcDbLine
 10
59.544068
 20
87.936626
 30
0.0
 11
59.244068
 21
87.636626
 31
0.0
  0
LINE
  5
11C
100
AcDbEntity
  8
ALPHA
100
AcDbLine
 10
52.812819
 20
82.442227
 30
0.0
 11
52.812819
 21
82.342227
 31
0.0
  0
LINE
  5
11D
100
AcDbEntity
  8
ALPHA
100
AcDbLine
 10
60.019068
 20
87.636626
 30
0.0
 11
60.019068
 21
87.936626
 31
0.0
  0
ARC
  5
11E
100
AcDbEntity
  8
ALPHA
100
AcDbCircle
 10
60.019068
 20
88.136626
 30
0.0
 40
0.2
100
AcDbArc
 50
270.0
 51
0.0
  0
LINE
  5
11F
100
AcDbEntity
  8
ALPHA
100
AcDbLine
 10
52.484694
 20
82.488292
 30
0.0
 11
52.484694
 21
82.388292
 31
0.0
  0
LINE
  5
120
100
AcDbEntity
  8
ALPHA
100
AcDbLine
 10
52.390944
 20
82.488292
 30
0.0
 11
52.390944
 21
82.388292
 31
0.0
  0
LINE
  5
121
100
AcDbEntity
  8
ALPHA
100
AcDbLine
 10
60.219068
 20
88.136626
 30
0.0
 11
60.519068
 21
88.136626
 31
0.0
  0
LINE
  5
122
100
AcDbEntity
  8
ALPHA
100
AcDbLine
 10
60.219068
 20
88.136626
 30
0.0
 11
60.219068
 21
89.372201
 31
0.0
  0
LINE
  5
123
100
AcDbEntity
  8
ALPHA
100
AcDbLine
 10
58.55366
 20
114.436626
 30
0.0
 11
58.55366
 21
114.236626
 31
0.0
  0
LINE
  5
124
100
AcDbEntity
  8
ALPHA
100
AcDbLine
 10
52.062819
 20
82.442227
 30
0.0
 11
52.062819
 21
82.342227
 31
0.0
  0
LINE
  5
125
100
AcDbEntity
  8
ALPHA
100
AcDbLine
 10
54.634477
 20
114.436626
 30
0.0
 11
54.634477
 21
114.236626
 31
0.0
  0
LINE
  5
126
100
AcDbEntity
  8
ALPHA
100
AcDbLine
 10
51.875319
 20
82.350096
 30
0.0
 11
51.875319
 21
82.250096
 31
0.0
  0
LINE
  5
127
100
AcDbEntity
  8
ALPHA
100
AcDbLine
 10
51.687819
 20
82.165836
 30
0.0
 11
51.687819
 21
82.065836
 31
0.0
  0
LINE
  5
128
100
AcDbEntity
  8
ALPHA
100
AcDbLine
 10
61.069068
 20
81.704685
 30
0.0
 11
60.881568
 21
81.737852
 31
0.0
  0
LINE
  5
129
100
AcDbEntity
  8
ALPHA
100
AcDbLine
 10
53.281569
 20
81.014206
 30
0.0
 11
53.234694
 21
81.198467
 31
0.0
  0
LINE
  5
12A
100
AcDbEntity
  8
ALPHA
100
AcDbLine
 10
52.906569
 20
81.705184
 30
0.0
 11
52.906569
 21
81.605184
 31
0.0
  0
LINE
  5
12B
100
AcDbEntity
  8
ALPHA
100
AcDbLine
 10
52.812819
 20
81.613053
 30
0.0
 11
52.812819
 21
81.513053
 31
0.0
  0
LINE
  5
12C
100
AcDbEntity
  8
ALPHA
100
AcDbLine
 10
52.531569
 20
81.520923
 30
0.0
 11
52.531569
 21
81.420923
 31
0.0
  0
LINE
  5
12D
100
AcDbEntity
  8
ALPHA
100
AcDbLine
 10
61.144068
 20
81.008179
 30
0.0
 11
61.031568
 21
80.941845
 31
0.0
  0
LINE
  5
12E
100
AcDbEntity
  8
ALPHA
100
AcDbLine
 10
53.000319
 20
80.737815
 30
0.0
 11
53.000319
 21
80.637815
 31
0.0
  0
LINE
  5
12F
100
AcDbEntity
  8
ALPHA
100
AcDbLine
 10
52.906569
 20
80.645685
 30
0.0
 11
52.906569
 21
80.545685
 31
0.0
  0
LINE
  5
130
100
AcDbEntity
  8
ALPHA
100
AcDbLine
 10
53.234694
 20
81.198467
 30
0.0
 11
53.140944
 21
81.336662
 31
0.0
  0
LINE
  5
131
100
AcDbEntity
  8
ALPHA
100
AcDbLine
 10
53.140944
 20
81.336662
 30
0.0
 11
52.995054
 21
81.39401
 31
0.0
  0
LINE
  5
132
100
AcDbEntity
  8
ALPHA
100
AcDbLine
 10
42.494068
 20
103.836626
 30
0.0
 11
44.769068
 21
103.836626
 31
0.0
  0
LINE
  5
133
100
AcDbEntity
  8
ALPHA
100
AcDbLine
 10
53.234694
 20
81.981575
 30
0.0
 11
53.187819
 21
82.165836
 31
0.0
  0
LINE
  5
134
100
AcDbEntity
  8
ALPHA
100
AcDbLine
 10
53.187819
 20
82.165836
 30
0.0
 11
53.000319
 21
82.350096
 31
0.0
  0
LINE
  5
135
100
AcDbEntity
  8
ALPHA
100
AcDbLine
 10
53.000319
 20
82.350096
 30
0.0
 11
52.812819
 21
82.442227
 31
0.0
  0
LINE
  5
136
100
AcDbEntity
  8
ALPHA
100
AcDbLine
 10
52.812819
 20
82.442227
 30
0.0
 11
52.484694
 21
82.488292
 31
0.0
  0
LINE
  5
137
100
AcDbEntity
  8
ALPHA
100
AcDbLine
 10
52.484694
 20
82.488292
 30
0.0
 11
52.390944
 21
82.488292
 31
0.0
  0
LINE
  5
138
100
AcDbEntity
  8
ALPHA
100
AcDbLine
 10
52.390944
 20
82.488292
 30
0.0
 11
52.062819
 21
82.442227
 31
0.0
  0
LINE
  5
139
100
AcDbEntity
  8
ALPHA
100
AcDbLine
 10
52.062819
 20
82.442227
 30
0.0
 11
51.875319
 21
82.350096
 31
0.0
  0
LINE
  5
13A
100
AcDbEntity
  8
ALPHA
100
AcDbLine
 10
51.875319
 20
82.350096
 30
0.0
 11
51.687819
 21
82.165836
 31
0.0
  0
LINE
  5
13B
100
AcDbEntity
  8
ALPHA
100
AcDbLine
 10
51.687819
 20
82.165836
 30
0.0
 11
51.640944
 21
81.981575
 31
0.0
  0
LINE
  5
13C
100
AcDbEntity
  8
ALPHA
100
AcDbLine
 10
52.997138
 20
81.883193
 30
0.0
 11
52.906569
 21
81.705184
 31
0.0
  0
LINE
  5
13D
100
AcDbEntity
  8
ALPHA
100
AcDbLine
 10
52.998031
 20
81.884948
 30
0.0
 11
52.997138
 21
81.883193
 31
0.0
  0
LINE
  5
13E
100
AcDbEntity
  8
ALPHA
100
AcDbLine
 10
52.906569
 20
81.705184
 30
0.0
 11
52.812819
 21
81.613053
 31
0.0
  0
LINE
  5
13F
100
AcDbEntity
  8
ALPHA
100
AcDbLine
 10
52.812819
 20
81.613053
 30
0.0
 11
52.531569
 21
81.520923
 31
0.0
  0
LINE
  5
140
100
AcDbEntity
  8
ALPHA
100
AcDbLine
 10
52.531569
 20
81.520923
 30
0.0
 11
52.344069
 21
81.520923
 31
0.0
  0
LINE
  5
141
100
AcDbEntity
  8
ALPHA
100
AcDbLine
 10
53.047194
 20
80.829945
 30
0.0
 11
53.000319
 21
80.737815
 31
0.0
  0
LINE
  5
142
100
AcDbEntity
  8
ALPHA
100
AcDbLine
 10
53.000319
 20
80.737815
 30
0.0
 11
52.906569
 21
80.645685
 31
0.0
  0
LINE
  5
143
100
AcDbEntity
  8
ALPHA
100
AcDbLine
 10
52.906569
 20
80.645685
 30
0.0
 11
52.812819
 21
80.599619
 31
0.0
  0
LINE
  5
144
100
AcDbEntity
  8
ALPHA
100
AcDbLine
 10
52.812819
 20
80.599619
 30
0.0
 11
52.578444
 21
80.553554
 31
0.0
  0
LINE
  5
145
100
AcDbEntity
  8
ALPHA
100
AcDbLine
 10
52.578444
 20
80.553554
 30
0.0
 11
52.297194
 21
80.553554
 31
0.0
  0
LINE
  5
146
100
AcDbEntity
  8
ALPHA
100
AcDbLine
 10
52.297194
 20
80.553554
 30
0.0
 11
52.062819
 21
80.599619
 31
0.0
  0
LINE
  5
147
100
AcDbEntity
  8
ALPHA
100
AcDbLine
 10
52.062819
 20
80.599619
 30
0.0
 11
51.969069
 21
80.645685
 31
0.0
  0
LINE
  5
148
100
AcDbEntity
  8
ALPHA
100
AcDbLine
 10
51.969069
 20
80.645685
 30
0.0
 11
51.875319
 21
80.737815
 31
0.0
  0
LINE
  5
149
100
AcDbEntity
  8
ALPHA
100
AcDbLine
 10
51.875319
 20
80.737815
 30
0.0
 11
51.828444
 21
80.829945
 31
0.0
  0
LINE
  5
14A
100
AcDbEntity
  8
ALPHA
100
AcDbLine
 10
51.828444
 20
80.829945
 30
0.0
 11
51.594069
 21
80.829945
 31
0.0
  0
LINE
  5
14B
100
AcDbEntity
  8
ALPHA
100
AcDbLine
 10
44.594068
 20
92.036626
 30
0.0
 11
44.769068
 21
92.036626
 31
0.0
  0
LINE
  5
14C
100
AcDbEntity
  8
ALPHA
100
AcDbLine
 10
61.369069
 20
81.605683
 30
0.0
 11
61.256568
 21
81.705184
 31
0.0
  0
LINE
  5
14D
100
AcDbEntity
  8
ALPHA
100
AcDbLine
 10
61.256568
 20
81.705184
 30
0.0
 11
61.069068
 21
81.804685
 31
0.0
  0
LINE
  5
14E
100
AcDbEntity
  8
ALPHA
100
AcDbLine
 10
61.069068
 20
81.804685
 30
0.0
 11
60.881568
 21
81.837852
 31
0.0
  0
LINE
  5
14F
100
AcDbEntity
  8
ALPHA
100
AcDbLine
 10
60.881568
 20
81.837852
 30
0.0
 11
60.694068
 21
81.837852
 31
0.0
  0
LINE
  5
150
100
AcDbEntity
  8
ALPHA
100
AcDbLine
 10
60.694068
 20
81.837852
 30
0.0
 11
60.506568
 21
81.804685
 31
0.0
  0
LINE
  5
151
100
AcDbEntity
  8
ALPHA
100
AcDbLine
 10
52.812819
 20
80.599619
 30
0.0
 11
52.812819
 21
80.499619
 31
0.0
  0
LINE
  5
152
100
AcDbEntity
  8
ALPHA
100
AcDbLine
 10
60.506568
 20
81.804685
 30
0.0
 11
60.288705
 21
81.676225
 31
0.0
  0
LINE
  5
153
100
AcDbEntity
  8
ALPHA
100
AcDbLine
 10
61.369069
 20
82.036853
 30
0.0
 11
61.331568
 21
82.136354
 31
0.0
  0
LINE
  5
154
100
AcDbEntity
  8
ALPHA
100
AcDbLine
 10
61.331568
 20
82.136354
 30
0.0
 11
61.219068
 21
82.269022
 31
0.0
  0
LINE
  5
155
100
AcDbEntity
  8
ALPHA
100
AcDbLine
 10
61.219068
 20
82.269022
 30
0.0
 11
61.031568
 21
82.368522
 31
0.0
  0
LINE
  5
156
100
AcDbEntity
  8
ALPHA
100
AcDbLine
 10
61.031568
 20
82.368522
 30
0.0
 11
60.844068
 21
82.401689
 31
0.0
  0
LINE
  5
157
100
AcDbEntity
  8
ALPHA
100
AcDbLine
 10
60.844068
 20
82.401689
 30
0.0
 11
60.694068
 21
82.401689
 31
0.0
  0
LINE
  5
158
100
AcDbEntity
  8
ALPHA
100
AcDbLine
 10
60.694068
 20
82.401689
 30
0.0
 11
60.506568
 21
82.368522
 31
0.0
  0
LINE
  5
159
100
AcDbEntity
  8
ALPHA
100
AcDbLine
 10
60.506568
 20
82.368522
 30
0.0
 11
60.319068
 21
82.269022
 31
0.0
  0
LINE
  5
15A
100
AcDbEntity
  8
ALPHA
100
AcDbLine
 10
43.356568
 20
84.334702
 30
0.0
 11
43.075318
 21
84.334702
 31
0.0
  0
LINE
  5
15B
100
AcDbEntity
  8
ALPHA
100
AcDbLine
 10
43.075318
 20
84.334702
 30
0.0
 11
42.794068
 21
84.012246
 31
0.0
  0
LINE
  5
15C
100
AcDbEntity
  8
ALPHA
100
AcDbLine
 10
46.494069
 20
84.2481
 30
0.0
 11
45.594068
 21
83.352592
 31
0.0
  0
LINE
  5
15D
100
AcDbEntity
  8
ALPHA
100
AcDbLine
 10
47.094068
 20
83.352592
 30
0.0
 11
46.719068
 21
83.352592
 31
0.0
  0
LINE
  5
15E
100
AcDbEntity
  8
ALPHA
100
AcDbLine
 10
46.719068
 20
84.2481
 30
0.0
 11
46.494069
 21
84.2481
 31
0.0
  0
LINE
  5
15F
100
AcDbEntity
  8
ALPHA
100
AcDbLine
 10
46.494069
 20
83.352592
 30
0.0
 11
45.90715
 21
83.352592
 31
0.0
  0
LINE
  5
160
100
AcDbEntity
  8
ALPHA
100
AcDbLine
 10
60.319068
 20
82.269022
 30
0.0
 11
60.206568
 21
82.136354
 31
0.0
  0
LINE
  5
161
100
AcDbEntity
  8
ALPHA
100
AcDbLine
 10
60.206568
 20
82.136354
 30
0.0
 11
60.131568
 21
81.970519
 31
0.0
  0
LINE
  5
162
100
AcDbEntity
  8
ALPHA
100
AcDbLine
 10
60.131568
 20
81.970519
 30
0.0
 11
60.094068
 21
81.738351
 31
0.0
  0
LINE
  5
163
100
AcDbEntity
  8
ALPHA
100
AcDbLine
 10
61.444068
 20
81.439848
 30
0.0
 11
61.369069
 21
81.605683
 31
0.0
  0
LINE
  5
164
100
AcDbEntity
  8
ALPHA
100
AcDbLine
 10
52.578444
 20
80.553554
 30
0.0
 11
52.578444
 21
80.453554
 31
0.0
  0
LINE
  5
165
100
AcDbEntity
  8
ALPHA
100
AcDbLine
 10
52.297194
 20
80.553554
 30
0.0
 11
52.297194
 21
80.453554
 31
0.0
  0
LINE
  5
166
100
AcDbEntity
  8
ALPHA
100
AcDbLine
 10
71.044068
 20
81.8706
 30
0.0
 11
71.044068
 21
81.936626
 31
0.0
  0
LWPOLYLINE
  5
167
100
AcDbEntity
  8
ALPHA
100
AcDbPolyline
 90
        3
 70
     0
 43
0.0
 10
71.519904
 20
85.129508
 10
71.494633
 20
85.003076
 10
71.494068
 20
85.001065
  0
LINE
  5
16C
100
AcDbEntity
  8
ALPHA
100
AcDbLine
 10
71.52038
 20
85.133436
 30
0.0
 11
71.519904
 21
85.129508
 31
0.0
  0
LWPOLYLINE
  5
16D
100
AcDbEntity
  8
ALPHA
100
AcDbPolyline
 90
        3
 70
     0
 43
0.0
 10
71.544068
 20
85.436626
 10
71.537388
 20
85.273702
 10
71.52038
 20
85.133436
  0
LINE
  5
172
100
AcDbEntity
  8
ALPHA
100
AcDbLine
 10
61.256568
 20
81.307181
 30
0.0
 11
61.219068
 21
81.20768
 31
0.0
  0
LINE
  5
173
100
AcDbEntity
  8
ALPHA
100
AcDbLine
 10
42.144068
 20
84.436626
 30
0.0
 11
42.144068
 21
81.8706
 31
0.0
  0
LINE
  5
174
100
AcDbEntity
  8
ALPHA
100
AcDbLine
 10
61.219068
 20
81.20768
 30
0.0
 11
61.144068
 21
81.108179
 31
0.0
  0
LINE
  5
175
100
AcDbEntity
  8
ALPHA
100
AcDbLine
 10
61.144068
 20
81.108179
 30
0.0
 11
61.031568
 21
81.041845
 31
0.0
  0
LINE
  5
176
100
AcDbEntity
  8
ALPHA
100
AcDbLine
 10
61.031568
 20
81.041845
 30
0.0
 11
60.919069
 21
81.008678
 31
0.0
  0
LINE
  5
177
100
AcDbEntity
  8
ALPHA
100
AcDbLine
 10
60.919069
 20
81.008678
 30
0.0
 11
60.656568
 21
81.008678
 31
0.0
  0
LINE
  5
178
100
AcDbEntity
  8
ALPHA
100
AcDbLine
 10
41.644068
 20
90.243222
 30
0.0
 11
42.574068
 21
90.243222
 31
0.0
  0
LINE
  5
179
100
AcDbEntity
  8
ALPHA
100
AcDbLine
 10
60.656568
 20
81.008678
 30
0.0
 11
60.544069
 21
81.041845
 31
0.0
  0
LINE
  5
17A
100
AcDbEntity
  8
ALPHA
100
AcDbLine
 10
41.644068
 20
91.036828
 30
0.0
 11
42.574068
 21
91.036828
 31
0.0
  0
LINE
  5
17B
100
AcDbEntity
  8
ALPHA
100
AcDbLine
 10
60.544069
 20
81.041845
 30
0.0
 11
60.431569
 21
81.108179
 31
0.0
  0
LINE
  5
17C
100
AcDbEntity
  8
ALPHA
100
AcDbLine
 10
71.544068
 20
90.243222
 30
0.0
 11
71.494068
 21
90.243222
 31
0.0
  0
LINE
  5
17D
100
AcDbEntity
  8
ALPHA
100
AcDbLine
 10
60.431569
 20
81.108179
 30
0.0
 11
60.356569
 21
81.20768
 31
0.0
  0
LINE
  5
17E
100
AcDbEntity
  8
ALPHA
100
AcDbLine
 10
71.544068
 20
91.036828
 30
0.0
 11
71.494068
 21
91.036828
 31
0.0
  0
LINE
  5
17F
100
AcDbEntity
  8
ALPHA
100
AcDbLine
 10
60.356569
 20
81.20768
 30
0.0
 11
60.319068
 21
81.307181
 31
0.0
  0
LINE
  5
180
100
AcDbEntity
  8
ALPHA
100
AcDbLine
 10
41.644068
 20
101.638995
 30
0.0
 11
42.494068
 21
101.638995
 31
0.0
  0
LINE
  5
181
100
AcDbEntity
  8
ALPHA
100
AcDbLine
 10
52.062819
 20
80.599619
 30
0.0
 11
52.062819
 21
80.499619
 31
0.0
  0
LINE
  5
182
100
AcDbEntity
  8
ALPHA
100
AcDbLine
 10
41.644068
 20
102.123118
 30
0.0
 11
42.494068
 21
102.123118
 31
0.0
  0
LINE
  5
183
100
AcDbEntity
  8
ALPHA
100
AcDbLine
 10
51.969069
 20
80.645685
 30
0.0
 11
51.969069
 21
80.545685
 31
0.0
  0
LINE
  5
184
100
AcDbEntity
  8
ALPHA
100
AcDbLine
 10
71.494068
 20
101.638995
 30
0.0
 11
71.544068
 21
101.638995
 31
0.0
  0
LINE
  5
185
100
AcDbEntity
  8
ALPHA
100
AcDbLine
 10
51.875319
 20
80.737815
 30
0.0
 11
51.875319
 21
80.637815
 31
0.0
  0
LINE
  5
186
100
AcDbEntity
  8
ALPHA
100
AcDbLine
 10
71.494068
 20
102.123118
 30
0.0
 11
71.544068
 21
102.123118
 31
0.0
  0
LINE
  5
187
100
AcDbEntity
  8
ALPHA
100
AcDbLine
 10
51.828444
 20
80.829945
 30
0.0
 11
51.828444
 21
80.729945
 31
0.0
  0
LINE
  5
188
100
AcDbEntity
  8
ALPHA
100
AcDbLine
 10
71.544068
 20
94.433328
 30
0.0
 11
71.494068
 21
94.433328
 31
0.0
  0
LINE
  5
189
100
AcDbEntity
  8
ALPHA
100
AcDbLine
 10
61.256568
 20
81.605184
 30
0.0
 11
61.069068
 21
81.704685
 31
0.0
  0
LINE
  5
18A
100
AcDbEntity
  8
ALPHA
100
AcDbLine
 10
71.544068
 20
94.036525
 30
0.0
 11
71.494068
 21
94.036525
 31
0.0
  0
LINE
  5
18B
100
AcDbEntity
  8
ALPHA
100
AcDbLine
 10
61.369069
 20
81.505683
 30
0.0
 11
61.256568
 21
81.605184
 31
0.0
  0
LINE
  5
18C
100
AcDbEntity
  8
ALPHA
100
AcDbLine
 10
41.644068
 20
94.433328
 30
0.0
 11
44.594068
 21
94.433328
 31
0.0
  0
LINE
  5
18D
100
AcDbEntity
  8
ALPHA
100
AcDbLine
 10
61.444068
 20
81.339848
 30
0.0
 11
61.369069
 21
81.505683
 31
0.0
  0
LINE
  5
18E
100
AcDbEntity
  8
ALPHA
100
AcDbLine
 10
41.644068
 20
94.036525
 30
0.0
 11
44.594068
 21
94.036525
 31
0.0
  0
LINE
  5
18F
100
AcDbEntity
  8
ALPHA
100
AcDbLine
 10
61.144068
 20
81.108179
 30
0.0
 11
61.144068
 21
81.008179
 31
0.0
  0
LINE
  5
190
100
AcDbEntity
  8
ALPHA
100
AcDbLine
 10
61.031568
 20
81.041845
 30
0.0
 11
61.031568
 21
80.941845
 31
0.0
  0
LINE
  5
191
100
AcDbEntity
  8
ALPHA
100
AcDbLine
 10
54.944068
 20
88.636626
 30
0.0
 11
53.944068
 21
88.636626
 31
0.0
  0
LINE
  5
192
100
AcDbEntity
  8
ALPHA
100
AcDbLine
 10
59.244068
 20
88.636626
 30
0.0
 11
58.244068
 21
88.636626
 31
0.0
  0
LINE
  5
193
100
AcDbEntity
  8
ALPHA
100
AcDbLine
 10
61.219068
 20
81.10768
 30
0.0
 11
61.144068
 21
81.008179
 31
0.0
  0
LINE
  5
194
100
AcDbEntity
  8
ALPHA
100
AcDbLine
 10
43.075318
 20
84.234702
 30
0.0
 11
42.794068
 21
83.912246
 31
0.0
  0
LINE
  5
195
100
AcDbEntity
  8
ALPHA
100
AcDbLine
 10
43.356568
 20
84.234702
 30
0.0
 11
43.075318
 21
84.234702
 31
0.0
  0
LINE
  5
196
100
AcDbEntity
  8
ALPHA
100
AcDbLine
 10
60.919069
 20
81.008678
 30
0.0
 11
60.919069
 21
80.908678
 31
0.0
  0
LINE
  5
197
100
AcDbEntity
  8
ALPHA
100
AcDbLine
 10
61.256568
 20
81.207181
 30
0.0
 11
61.219068
 21
81.10768
 31
0.0
  0
LINE
  5
198
100
AcDbEntity
  8
ALPHA
100
AcDbLine
 10
60.656568
 20
81.008678
 30
0.0
 11
60.656568
 21
80.908678
 31
0.0
  0
LINE
  5
199
100
AcDbEntity
  8
ALPHA
100
AcDbLine
 10
51.828444
 20
80.729945
 30
0.0
 11
51.594069
 21
80.729945
 31
0.0
  0
LINE
  5
19A
100
AcDbEntity
  8
ALPHA
100
AcDbLine
 10
51.875319
 20
80.637815
 30
0.0
 11
51.828444
 21
80.729945
 31
0.0
  0
LINE
  5
19B
100
AcDbEntity
  8
ALPHA
100
AcDbLine
 10
51.969069
 20
80.545685
 30
0.0
 11
51.875319
 21
80.637815
 31
0.0
  0
LINE
  5
19C
100
AcDbEntity
  8
ALPHA
100
AcDbLine
 10
52.062819
 20
80.499619
 30
0.0
 11
51.969069
 21
80.545685
 31
0.0
  0
LINE
  5
19D
100
AcDbEntity
  8
ALPHA
100
AcDbLine
 10
52.297194
 20
80.453554
 30
0.0
 11
52.062819
 21
80.499619
 31
0.0
  0
LINE
  5
19E
100
AcDbEntity
  8
ALPHA
100
AcDbLine
 10
60.544069
 20
81.041845
 30
0.0
 11
60.544069
 21
80.941845
 31
0.0
  0
LINE
  5
19F
100
AcDbEntity
  8
ALPHA
100
AcDbLine
 10
52.578444
 20
80.453554
 30
0.0
 11
52.297194
 21
80.453554
 31
0.0
  0
LINE
  5
1A0
100
AcDbEntity
  8
ALPHA
100
AcDbLine
 10
52.812819
 20
80.499619
 30
0.0
 11
52.578444
 21
80.453554
 31
0.0
  0
LINE
  5
1A1
100
AcDbEntity
  8
ALPHA
100
AcDbLine
 10
61.369069
 20
81.605683
 30
0.0
 11
61.369069
 21
81.505683
 31
0.0
  0
LINE
  5
1A2
100
AcDbEntity
  8
ALPHA
100
AcDbLine
 10
52.906569
 20
80.545685
 30
0.0
 11
52.812819
 21
80.499619
 31
0.0
  0
LINE
  5
1A3
100
AcDbEntity
  8
ALPHA
100
AcDbLine
 10
53.000319
 20
80.637815
 30
0.0
 11
52.906569
 21
80.545685
 31
0.0
  0
LINE
  5
1A4
100
AcDbEntity
  8
ALPHA
100
AcDbLine
 10
60.431569
 20
81.108179
 30
0.0
 11
60.431569
 21
81.008179
 31
0.0
  0
LINE
  5
1A5
100
AcDbEntity
  8
ALPHA
100
AcDbLine
 10
61.256568
 20
81.705184
 30
0.0
 11
61.256568
 21
81.605184
 31
0.0
  0
LINE
  5
1A6
100
AcDbEntity
  8
ALPHA
100
AcDbLine
 10
53.047194
 20
80.729945
 30
0.0
 11
53.000319
 21
80.637815
 31
0.0
  0
LINE
  5
1A7
100
AcDbEntity
  8
ALPHA
100
AcDbLine
 10
43.075318
 20
84.334702
 30
0.0
 11
43.075318
 21
84.234702
 31
0.0
  0
LINE
  5
1A8
100
AcDbEntity
  8
ALPHA
100
AcDbLine
 10
61.069068
 20
81.804685
 30
0.0
 11
61.069068
 21
81.704685
 31
0.0
  0
LINE
  5
1A9
100
AcDbEntity
  8
ALPHA
100
AcDbLine
 10
60.356569
 20
81.20768
 30
0.0
 11
60.356569
 21
81.10768
 31
0.0
  0
LINE
  5
1AA
100
AcDbEntity
  8
ALPHA
100
AcDbLine
 10
60.131568
 20
81.870519
 30
0.0
 11
60.094068
 21
81.638351
 31
0.0
  0
LINE
  5
1AB
100
AcDbEntity
  8
ALPHA
100
AcDbLine
 10
60.206568
 20
82.036354
 30
0.0
 11
60.131568
 21
81.870519
 31
0.0
  0
LINE
  5
1AC
100
AcDbEntity
  8
ALPHA
100
AcDbLine
 10
60.319068
 20
82.169022
 30
0.0
 11
60.206568
 21
82.036354
 31
0.0
  0
LINE
  5
1AD
100
AcDbEntity
  8
ALPHA
100
AcDbLine
 10
46.494069
 20
84.1981
 30
0.0
 11
45.594068
 21
83.302592
 31
0.0
  0
LINE
  5
1AE
100
AcDbEntity
  8
ALPHA
100
AcDbLine
 10
46.719068
 20
84.1981
 30
0.0
 11
46.494069
 21
84.1981
 31
0.0
  0
LINE
  5
1AF
100
AcDbEntity
  8
ALPHA
100
AcDbLine
 10
60.506568
 20
82.268522
 30
0.0
 11
60.319068
 21
82.169022
 31
0.0
  0
LINE
  5
1B0
100
AcDbEntity
  8
ALPHA
100
AcDbLine
 10
47.094068
 20
83.302592
 30
0.0
 11
46.719068
 21
83.302592
 31
0.0
  0
LINE
  5
1B1
100
AcDbEntity
  8
ALPHA
100
AcDbLine
 10
60.694068
 20
82.301689
 30
0.0
 11
60.506568
 21
82.268522
 31
0.0
  0
LINE
  5
1B2
100
AcDbEntity
  8
ALPHA
100
AcDbLine
 10
52.531569
 20
81.420923
 30
0.0
 11
52.344069
 21
81.420923
 31
0.0
  0
LINE
  5
1B3
100
AcDbEntity
  8
ALPHA
100
AcDbLine
 10
52.812819
 20
81.513053
 30
0.0
 11
52.531569
 21
81.420923
 31
0.0
  0
LINE
  5
1B4
100
AcDbEntity
  8
ALPHA
100
AcDbLine
 10
52.906569
 20
81.605184
 30
0.0
 11
52.812819
 21
81.513053
 31
0.0
  0
LINE
  5
1B5
100
AcDbEntity
  8
ALPHA
100
AcDbLine
 10
53.000319
 20
81.789445
 30
0.0
 11
52.906569
 21
81.605184
 31
0.0
  0
LINE
  5
1B6
100
AcDbEntity
  8
ALPHA
100
AcDbLine
 10
60.844068
 20
82.301689
 30
0.0
 11
60.694068
 21
82.301689
 31
0.0
  0
LINE
  5
1B7
100
AcDbEntity
  8
ALPHA
100
AcDbLine
 10
61.031568
 20
82.268522
 30
0.0
 11
60.844068
 21
82.301689
 31
0.0
  0
LINE
  5
1B8
100
AcDbEntity
  8
ALPHA
100
AcDbLine
 10
61.219068
 20
82.169022
 30
0.0
 11
61.031568
 21
82.268522
 31
0.0
  0
LINE
  5
1B9
100
AcDbEntity
  8
ALPHA
100
AcDbLine
 10
46.494069
 20
83.302592
 30
0.0
 11
45.856568
 21
83.302592
 31
0.0
  0
LINE
  5
1BA
100
AcDbEntity
  8
ALPHA
100
AcDbLine
 10
61.331568
 20
82.036354
 30
0.0
 11
61.219068
 21
82.169022
 31
0.0
  0
LINE
  5
1BB
100
AcDbEntity
  8
ALPHA
100
AcDbLine
 10
61.369069
 20
81.936853
 30
0.0
 11
61.331568
 21
82.036354
 31
0.0
  0
LINE
  5
1BC
100
AcDbEntity
  8
ALPHA
100
AcDbLine
 10
60.881568
 20
81.837852
 30
0.0
 11
60.881568
 21
81.737852
 31
0.0
  0
LINE
  5
1BD
100
AcDbEntity
  8
ALPHA
100
AcDbLine
 10
60.694068
 20
81.837852
 30
0.0
 11
60.694068
 21
81.737852
 31
0.0
  0
LINE
  5
1BE
100
AcDbEntity
  8
ALPHA
100
AcDbLine
 10
60.506568
 20
81.804685
 30
0.0
 11
60.506568
 21
81.704685
 31
0.0
  0
LWPOLYLINE
  5
1BF
100
AcDbEntity
  8
ALPHA
100
AcDbPolyline
 90
       15
 70
     0
 43
0.0
 10
41.644068
 20
85.436626
 10
41.650749
 20
85.273702
 10
41.668233
 20
85.129508
 10
41.693504
 20
85.003076
 10
41.724567
 20
84.8925
 10
41.759857
 20
84.796684
 10
41.798328
 20
84.714231
 10
41.839729
 20
84.643209
 10
41.883102
 20
84.583639
 10
41.927413
 20
84.535382
 10
41.971994
 20
84.497711
 10
42.016492
 20
84.469725
 10
42.060132
 20
84.450817
 10
42.102896
 20
84.440022
 10
42.144068
 20
84.436626
  0
LINE
  5
1D0
100
AcDbEntity
  8
ALPHA
100
AcDbLine
 10
61.331568
 20
82.136354
 30
0.0
 11
61.331568
 21
82.036354
 31
0.0
  0
LINE
  5
1D1
100
AcDbEntity
  8
ALPHA
100
AcDbLine
 10
61.219068
 20
82.269022
 30
0.0
 11
61.219068
 21
82.169022
 31
0.0
  0
LINE
  5
1D2
100
AcDbEntity
  8
ALPHA
100
AcDbLine
 10
61.031568
 20
82.368522
 30
0.0
 11
61.031568
 21
82.268522
 31
0.0
  0
LINE
  5
1D3
100
AcDbEntity
  8
ALPHA
100
AcDbLine
 10
60.844068
 20
82.401689
 30
0.0
 11
60.844068
 21
82.301689
 31
0.0
  0
LINE
  5
1D4
100
AcDbEntity
  8
ALPHA
100
AcDbLine
 10
48.844068
 20
115.186626
 30
0.0
 11
48.844068
 21
116.436626
 31
0.0
  0
ARC
  5
1D5
100
AcDbEntity
  8
ALPHA
100
AcDbCircle
 10
48.094068
 20
115.186626
 30
0.0
 40
0.75
100
AcDbArc
 50
180.0
 51
0.0
  0
LINE
  5
1D6
100
AcDbEntity
  8
ALPHA
100
AcDbLine
 10
47.344068
 20
116.436626
 30
0.0
 11
47.344068
 21
115.186626
 31
0.0
  0
LINE
  5
1D7
100
AcDbEntity
  8
ALPHA
100
AcDbLine
 10
48.844068
 20
116.436626
 30
0.0
 11
47.344068
 21
116.436626
 31
0.0
  0
ARC
  5
1D8
100
AcDbEntity
  8
ALPHA
100
AcDbCircle
 10
56.594068
 20
80.936626
 30
0.0
 40
3.25
100
AcDbArc
 50
198.662925
 51
217.72178
  0
ARC
  5
1D9
100
AcDbEntity
  8
ALPHA
100
AcDbCircle
 10
56.594068
 20
80.936626
 30
0.0
 40
3.25
100
AcDbArc
 50
322.278217
 51
341.337075
  0
LINE
  5
1DA
100
AcDbEntity
  8
ALPHA
100
AcDbLine
 10
42.494068
 20
108.136626
 30
0.0
 11
41.644068
 21
108.136626
 31
0.0
  0
LINE
  5
1DB
100
AcDbEntity
  8
ALPHA
100
AcDbLine
 10
41.644068
 20
108.136626
 30
0.0
 11
41.644068
 21
102.123118
 31
0.0
  0
LINE
  5
1DC
100
AcDbEntity
  8
ALPHA
100
AcDbLine
 10
42.494068
 20
102.123118
 30
0.0
 11
42.494068
 21
108.136626
 31
0.0
  0
LINE
  5
1DD
100
AcDbEntity
  8
ALPHA
100
AcDbLine
 10
71.544068
 20
108.136626
 30
0.0
 11
71.494068
 21
108.136626
 31
0.0
  0
LINE
  5
1DE
100
AcDbEntity
  8
ALPHA
100
AcDbLine
 10
71.544068
 20
102.123118
 30
0.0
 11
71.544068
 21
108.136626
 31
0.0
  0
LINE
  5
1DF
100
AcDbEntity
  8
ALPHA
100
AcDbLine
 10
44.594068
 20
95.436626
 30
0.0
 11
44.594068
 21
94.433328
 31
0.0
  0
LINE
  5
1E0
100
AcDbEntity
  8
ALPHA
100
AcDbLine
 10
44.594068
 20
96.536626
 30
0.0
 11
44.594068
 21
99.936626
 31
0.0
  0
LINE
  5
1E1
100
AcDbEntity
  8
ALPHA
100
AcDbLine
 10
44.594068
 20
95.436626
 30
0.0
 11
44.594068
 21
96.536626
 31
0.0
  0
LINE
  5
1E2
100
AcDbEntity
  8
ALPHA
100
AcDbLine
 10
42.494068
 20
95.436626
 30
0.0
 11
44.594068
 21
95.436626
 31
0.0
  0
LINE
  5
1E3
100
AcDbEntity
  8
ALPHA
100
AcDbLine
 10
42.494068
 20
95.436626
 30
0.0
 11
42.494068
 21
100.186626
 31
0.0
  0
LINE
  5
1E4
100
AcDbEntity
  8
ALPHA
100
AcDbLine
 10
42.574068
 20
91.036828
 30
0.0
 11
42.574068
 21
93.036626
 31
0.0
  0
LINE
  5
1E5
100
AcDbEntity
  8
ALPHA
100
AcDbLine
 10
69.944068
 20
114.436626
 30
0.0
 11
70.078043
 21
113.936626
 31
0.0
  0
LINE
  5
1E6
100
AcDbEntity
  8
ALPHA
100
AcDbLine
 10
43.244068
 20
116.436626
 30
0.0
 11
42.744068
 21
114.5706
 31
0.0
  0
LINE
  5
1E7
100
AcDbEntity
  8
ALPHA
100
AcDbLine
 10
41.644068
 20
100.186626
 30
0.0
 11
41.644068
 21
101.638995
 31
0.0
  0
LINE
  5
1E8
100
AcDbEntity
  8
ALPHA
100
AcDbLine
 10
42.494068
 20
100.186626
 30
0.0
 11
42.494068
 21
101.638995
 31
0.0
  0
LINE
  5
1E9
100
AcDbEntity
  8
ALPHA
100
AcDbLine
 10
71.544068
 20
100.186626
 30
0.0
 11
71.544068
 21
101.638995
 31
0.0
  0
ARC
  5
1EA
100
AcDbEntity
  8
ALPHA
100
AcDbCircle
 10
53.169068
 20
88.136626
 30
0.0
 40
0.5
100
AcDbArc
 50
180.0
 51
270.0
  0
ARC
  5
1EB
100
AcDbEntity
  8
ALPHA
100
AcDbCircle
 10
56.594068
 20
97.936626
 30
0.0
 40
9.3
100
AcDbArc
 50
245.036361
 51
247.058881
  0
LINE
  5
1EC
100
AcDbEntity
  8
ALPHA
100
AcDbLine
 10
42.574068
 20
84.636626
 30
0.0
 11
42.574068
 21
90.243222
 31
0.0
  0
LINE
  5
1ED
100
AcDbEntity
  8
ALPHA
100
AcDbLine
 10
41.644068
 20
85.436626
 30
0.0
 11
41.644068
 21
90.243222
 31
0.0
  0
LINE
  5
1EE
100
AcDbEntity
  8
ALPHA
100
AcDbLine
 10
71.544068
 20
90.243222
 30
0.0
 11
71.544068
 21
85.436626
 31
0.0
  0
LINE
  5
1EF
100
AcDbEntity
  8
ALPHA
100
AcDbLine
 10
61.694068
 20
82.736626
 30
0.0
 11
59.187811
 21
82.736626
 31
0.0
  0
ARC
  5
1F0
100
AcDbEntity
  8
ALPHA
100
AcDbCircle
 10
56.594068
 20
80.386626
 30
0.0
 40
3.5
100
AcDbArc
 50
42.177419
 51
137.822581
  0
LINE
  5
1F1
100
AcDbEntity
  8
ALPHA
100
AcDbLine
 10
54.000326
 20
82.736626
 30
0.0
 11
48.699068
 21
82.736626
 31
0.0
  0
LINE
  5
1F2
100
AcDbEntity
  8
ALPHA
100
AcDbLine
 10
48.699068
 20
82.736626
 30
0.0
 11
48.699068
 21
84.636626
 31
0.0
  0
LINE
  5
1F3
100
AcDbEntity
  8
ALPHA
100
AcDbLine
 10
52.669068
 20
89.505471
 30
0.0
 11
52.669068
 21
88.136626
 31
0.0
  0
LINE
  5
1F4
100
AcDbEntity
  8
ALPHA
100
AcDbLine
 10
53.169068
 20
87.636626
 30
0.0
 11
53.944068
 21
87.636626
 31
0.0
  0
LINE
  5
1F5
100
AcDbEntity
  8
ALPHA
100
AcDbLine
 10
53.944068
 20
87.636626
 30
0.0
 11
53.944068
 21
89.433417
 31
0.0
  0
LINE
  5
1F6
100
AcDbEntity
  8
ALPHA
100
AcDbLine
 10
59.244068
 20
89.433417
 30
0.0
 11
59.244068
 21
87.636626
 31
0.0
  0
LINE
  5
1F7
100
AcDbEntity
  8
ALPHA
100
AcDbLine
 10
59.244068
 20
87.636626
 30
0.0
 11
60.019068
 21
87.636626
 31
0.0
  0
ARC
  5
1F8
100
AcDbEntity
  8
ALPHA
100
AcDbCircle
 10
60.019068
 20
88.136626
 30
0.0
 40
0.5
100
AcDbArc
 50
270.0
 51
0.0
  0
ARC
  5
1F9
100
AcDbEntity
  8
ALPHA
100
AcDbCircle
 10
56.594068
 20
97.936626
 30
0.0
 40
9.3
100
AcDbArc
 50
292.941119
 51
294.963639
  0
LINE
  5
1FA
100
AcDbEntity
  8
ALPHA
100
AcDbLine
 10
60.519068
 20
88.136626
 30
0.0
 11
60.519068
 21
89.505471
 31
0.0
  0
ARC
  5
1FB
100
AcDbEntity
  8
ALPHA
100
AcDbCircle
 10
59.894068
 20
113.936626
 30
0.0
 40
0.5
100
AcDbArc
 50
36.897158
 51
90.0
  0
ARC
  5
1FC
100
AcDbEntity
  8
ALPHA
100
AcDbCircle
 10
53.294068
 20
113.936626
 30
0.0
 40
0.5
100
AcDbArc
 50
90.0
 51
143.102842
  0
LINE
  5
1FD
100
AcDbEntity
  8
ALPHA
100
AcDbLine
 10
65.394068
 20
114.436626
 30
0.0
 11
65.394068
 21
113.958159
 31
0.0
  0
LINE
  5
1FE
100
AcDbEntity
  8
ALPHA
100
AcDbLine
 10
69.844068
 20
114.436626
 30
0.0
 11
69.944068
 21
114.436626
 31
0.0
  0
LINE
  5
1FF
100
AcDbEntity
  8
ALPHA
100
AcDbLine
 10
65.394068
 20
114.436626
 30
0.0
 11
67.094068
 21
114.436626
 31
0.0
  0
LINE
  5
200
100
AcDbEntity
  8
ALPHA
100
AcDbLine
 10
71.544068
 20
108.136626
 30
0.0
 11
71.544068
 21
108.436626
 31
0.0
  0
LINE
  5
201
100
AcDbEntity
  8
ALPHA
100
AcDbLine
 10
42.494068
 20
106.136626
 30
0.0
 11
44.644068
 21
106.136626
 31
0.0
  0
LINE
  5
202
100
AcDbEntity
  8
ALPHA
100
AcDbLine
 10
42.494068
 20
108.436626
 30
0.0
 11
42.494068
 21
108.136626
 31
0.0
  0
LINE
  5
203
100
AcDbEntity
  8
ALPHA
100
AcDbLine
 10
41.644068
 20
108.436626
 30
0.0
 11
41.644068
 21
108.136626
 31
0.0
  0
LINE
  5
204
100
AcDbEntity
  8
ALPHA
100
AcDbLine
 10
42.744068
 20
114.5706
 30
0.0
 11
42.744068
 21
110.436626
 31
0.0
  0
LINE
  5
205
100
AcDbEntity
  8
ALPHA
100
AcDbLine
 10
43.344068
 20
116.436626
 30
0.0
 11
43.244068
 21
116.436626
 31
0.0
  0
LINE
  5
206
100
AcDbEntity
  8
ALPHA
100
AcDbLine
 10
47.344068
 20
116.436626
 30
0.0
 11
47.269068
 21
116.436626
 31
0.0
  0
LINE
  5
207
100
AcDbEntity
  8
ALPHA
100
AcDbLine
 10
48.919068
 20
116.436626
 30
0.0
 11
48.844068
 21
116.436626
 31
0.0
  0
ARC
  5
208
100
AcDbEntity
  8
ALPHA
100
AcDbCircle
 10
56.594068
 20
97.936626
 30
0.0
 40
9.3
100
AcDbArc
 50
294.963639
 51
295.480823
  0
LINE
  5
209
100
AcDbEntity
  8
ALPHA
100
AcDbLine
 10
49.294068
 20
85.836626
 30
0.0
 11
49.294068
 21
86.136626
 31
0.0
  0
ARC
  5
20A
100
AcDbEntity
  8
ALPHA
100
AcDbCircle
 10
56.594068
 20
97.936626
 30
0.0
 40
11.7
100
AcDbArc
 50
223.13822
 51
230.117494
  0
LINE
  5
20B
100
AcDbEntity
  8
ALPHA
100
AcDbLine
 10
44.769068
 20
89.936626
 30
0.0
 11
44.594068
 21
89.936626
 31
0.0
  0
ARC
  5
20C
100
AcDbEntity
  8
ALPHA
100
AcDbCircle
 10
56.594068
 20
97.936626
 30
0.0
 40
9.3
100
AcDbArc
 50
244.519177
 51
245.036361
  0
LINE
  5
20D
100
AcDbEntity
  8
ALPHA
100
AcDbLine
 10
53.944068
 20
87.636626
 30
0.0
 11
53.944068
 21
87.436626
 31
0.0
  0
LINE
  5
20E
100
AcDbEntity
  8
ALPHA
100
AcDbLine
 10
59.244068
 20
87.436626
 30
0.0
 11
59.244068
 21
87.636626
 31
0.0
  0
LINE
  5
20F
100
AcDbEntity
  8
ALPHA
100
AcDbLine
 10
48.699068
 20
85.836626
 30
0.0
 11
48.699068
 21
84.636626
 31
0.0
  0
ARC
  5
210
100
AcDbEntity
  8
ALPHA
100
AcDbCircle
 10
56.594068
 20
80.166583
 30
0.0
 40
2.75
100
AcDbArc
 50
59.523092
 51
120.476908
  0
LINE
  5
211
100
AcDbEntity
  8
ALPHA
100
AcDbLine
 10
63.244068
 20
81.236626
 30
0.0
 11
63.244068
 21
80.236626
 31
0.0
  0
LINE
  5
212
100
AcDbEntity
  8
ALPHA
100
AcDbLine
 10
63.244068
 20
81.236626
 30
0.0
 11
65.244068
 21
81.236626
 31
0.0
  0
ARC
  5
213
100
AcDbEntity
  8
ALPHA
100
AcDbCircle
 10
70.544068
 20
82.736626
 30
0.0
 40
1.0
100
AcDbArc
 50
270.0
 51
300.0
  0
ARC
  5
214
100
AcDbEntity
  8
ALPHA
100
AcDbCircle
 10
42.644068
 20
82.736626
 30
0.0
 40
1.0
100
AcDbArc
 50
240.0
 51
270.0
  0
ARC
  5
215
100
AcDbEntity
  8
ALPHA
100
AcDbCircle
 10
60.146884
 20
79.736626
 30
0.0
 40
0.5
100
AcDbArc
 50
90.0
 51
161.337075
  0
ARC
  5
216
100
AcDbEntity
  8
ALPHA
100
AcDbCircle
 10
53.041253
 20
79.736626
 30
0.0
 40
0.5
100
AcDbArc
 50
18.662925
 51
90.0
  0
LINE
  5
217
100
AcDbEntity
  8
ALPHA
100
AcDbLine
 10
71.544068
 20
82.736626
 30
0.0
 11
71.544068
 21
85.436626
 31
0.0
  0
ARC
  5
218
100
AcDbEntity
  8
ALPHA
100
AcDbCircle
 10
70.544068
 20
82.736626
 30
0.0
 40
1.0
100
AcDbArc
 50
300.0
 51
306.768156
  0
ARC
  5
219
100
AcDbEntity
  8
ALPHA
100
AcDbCircle
 10
70.544068
 20
82.736626
 30
0.0
 40
1.0
100
AcDbArc
 50
342.024349
 51
0.0
  0
LINE
  5
21A
100
AcDbEntity
  8
ALPHA
100
AcDbLine
 10
41.644068
 20
85.436626
 30
0.0
 11
41.644068
 21
82.736626
 31
0.0
  0
LINE
  5
21B
100
AcDbEntity
  8
ALPHA
100
AcDbLine
 10
41.644068
 20
91.036828
 30
0.0
 11
41.644068
 21
94.036525
 31
0.0
  0
LINE
  5
21C
100
AcDbEntity
  8
ALPHA
100
AcDbLine
 10
44.594068
 20
94.036525
 30
0.0
 11
44.594068
 21
93.036626
 31
0.0
  0
LINE
  5
21D
100
AcDbEntity
  8
ALPHA
100
AcDbLine
 10
71.544068
 20
94.036525
 30
0.0
 11
71.544068
 21
91.036828
 31
0.0
  0
LINE
  5
21E
100
AcDbEntity
  8
ALPHA
100
AcDbLine
 10
41.644068
 20
90.243222
 30
0.0
 11
41.644068
 21
91.036828
 31
0.0
  0
LINE
  5
21F
100
AcDbEntity
  8
ALPHA
100
AcDbLine
 10
42.574068
 20
90.243222
 30
0.0
 11
42.574068
 21
91.036828
 31
0.0
  0
LINE
  5
220
100
AcDbEntity
  8
ALPHA
100
AcDbLine
 10
71.544068
 20
90.243222
 30
0.0
 11
71.544068
 21
91.036828
 31
0.0
  0
LINE
  5
221
100
AcDbEntity
  8
ALPHA
100
AcDbLine
 10
41.644068
 20
101.638995
 30
0.0
 11
41.644068
 21
102.123118
 31
0.0
  0
LINE
  5
222
100
AcDbEntity
  8
ALPHA
100
AcDbLine
 10
42.494068
 20
101.638995
 30
0.0
 11
42.494068
 21
102.123118
 31
0.0
  0
LINE
  5
223
100
AcDbEntity
  8
ALPHA
100
AcDbLine
 10
71.544068
 20
101.638995
 30
0.0
 11
71.544068
 21
102.123118
 31
0.0
  0
LINE
  5
224
100
AcDbEntity
  8
ALPHA
100
AcDbLine
 10
71.544068
 20
94.433328
 30
0.0
 11
71.544068
 21
94.036525
 31
0.0
  0
LINE
  5
225
100
AcDbEntity
  8
ALPHA
100
AcDbLine
 10
44.594068
 20
94.433328
 30
0.0
 11
44.594068
 21
94.036525
 31
0.0
  0
LINE
  5
226
100
AcDbEntity
  8
ALPHA
100
AcDbLine
 10
41.644068
 20
94.433328
 30
0.0
 11
41.644068
 21
94.036525
 31
0.0
  0
LINE
  5
227
100
AcDbEntity
  8
ALPHA
100
AcDbLine
 10
43.356568
 20
82.069639
 30
0.0
 11
43.356568
 21
84.234702
 31
0.0
  0
LINE
  5
228
100
AcDbEntity
  8
ALPHA
100
AcDbLine
 10
43.075318
 20
82.069639
 30
0.0
 11
43.356568
 21
82.069639
 31
0.0
  0
LINE
  5
229
100
AcDbEntity
  8
ALPHA
100
AcDbLine
 10
43.075318
 20
83.866181
 30
0.0
 11
43.075318
 21
82.069639
 31
0.0
  0
LINE
  5
22A
100
AcDbEntity
  8
ALPHA
100
AcDbLine
 10
42.794068
 20
83.543724
 30
0.0
 11
43.075318
 21
83.866181
 31
0.0
  0
LINE
  5
22B
100
AcDbEntity
  8
ALPHA
100
AcDbLine
 10
42.794068
 20
83.912246
 30
0.0
 11
42.794068
 21
83.543724
 31
0.0
  0
LINE
  5
22C
100
AcDbEntity
  8
ALPHA
100
AcDbLine
 10
43.356568
 20
84.334702
 30
0.0
 11
43.356568
 21
84.234702
 31
0.0
  0
LINE
  5
22D
100
AcDbEntity
  8
ALPHA
100
AcDbLine
 10
42.794068
 20
84.012246
 30
0.0
 11
42.794068
 21
83.912246
 31
0.0
  0
LINE
  5
22E
100
AcDbEntity
  8
ALPHA
100
AcDbLine
 10
46.719068
 20
83.302592
 30
0.0
 11
46.719068
 21
84.1981
 31
0.0
  0
LINE
  5
22F
100
AcDbEntity
  8
ALPHA
100
AcDbLine
 10
47.094068
 20
83.103591
 30
0.0
 11
47.094068
 21
83.302592
 31
0.0
  0
LINE
  5
230
100
AcDbEntity
  8
ALPHA
100
AcDbLine
 10
46.719068
 20
83.103591
 30
0.0
 11
47.094068
 21
83.103591
 31
0.0
  0
LINE
  5
231
100
AcDbEntity
  8
ALPHA
100
AcDbLine
 10
46.719068
 20
82.639254
 30
0.0
 11
46.719068
 21
83.103591
 31
0.0
  0
LINE
  5
232
100
AcDbEntity
  8
ALPHA
100
AcDbLine
 10
46.494069
 20
82.639254
 30
0.0
 11
46.719068
 21
82.639254
 31
0.0
  0
LINE
  5
233
100
AcDbEntity
  8
ALPHA
100
AcDbLine
 10
46.494069
 20
83.103591
 30
0.0
 11
46.494069
 21
82.639254
 31
0.0
  0
LINE
  5
234
100
AcDbEntity
  8
ALPHA
100
AcDbLine
 10
45.594068
 20
83.103591
 30
0.0
 11
46.494069
 21
83.103591
 31
0.0
  0
LINE
  5
235
100
AcDbEntity
  8
ALPHA
100
AcDbLine
 10
45.594068
 20
83.302592
 30
0.0
 11
45.594068
 21
83.103591
 31
0.0
  0
LINE
  5
236
100
AcDbEntity
  8
ALPHA
100
AcDbLine
 10
45.856568
 20
83.302592
 30
0.0
 11
46.494069
 21
83.932764
 31
0.0
  0
LINE
  5
237
100
AcDbEntity
  8
ALPHA
100
AcDbLine
 10
46.494069
 20
83.932764
 30
0.0
 11
46.494069
 21
83.302592
 31
0.0
  0
LINE
  5
238
100
AcDbEntity
  8
ALPHA
100
AcDbLine
 10
45.594068
 20
83.352592
 30
0.0
 11
45.594068
 21
83.302592
 31
0.0
  0
LINE
  5
239
100
AcDbEntity
  8
ALPHA
100
AcDbLine
 10
47.094068
 20
83.352592
 30
0.0
 11
47.094068
 21
83.302592
 31
0.0
  0
LINE
  5
23A
100
AcDbEntity
  8
ALPHA
100
AcDbLine
 10
46.719068
 20
84.2481
 30
0.0
 11
46.719068
 21
84.1981
 31
0.0
  0
ARC
  5
23B
100
AcDbEntity
  8
ALPHA
100
AcDbCircle
 10
43.144068
 20
114.936626
 30
0.0
 40
1.5
100
AcDbArc
 50
90.0
 51
180.0
  0
ARC
  5
23C
100
AcDbEntity
  8
ALPHA
100
AcDbCircle
 10
70.044068
 20
112.936626
 30
0.0
 40
1.5
100
AcDbArc
 50
41.819545
 51
90.0
  0
LINE
  5
23D
100
AcDbEntity
  8
ALPHA
100
AcDbLine
 10
48.699068
 20
85.836626
 30
0.0
 11
49.294068
 21
85.836626
 31
0.0
  0
LINE
  5
23E
100
AcDbEntity
  8
ALPHA
100
AcDbLine
 10
44.594068
 20
93.036626
 30
0.0
 11
44.594068
 21
89.936626
 31
0.0
  0
LINE
  5
23F
100
AcDbEntity
  8
ALPHA
100
AcDbLine
 10
44.594068
 20
89.936626
 30
0.0
 11
44.044068
 21
89.936626
 31
0.0
  0
LINE
  5
240
100
AcDbEntity
  8
ALPHA
100
AcDbLine
 10
44.044068
 20
89.936626
 30
0.0
 11
44.044068
 21
85.836626
 31
0.0
  0
LINE
  5
241
100
AcDbEntity
  8
ALPHA
100
AcDbLine
 10
44.044068
 20
85.836626
 30
0.0
 11
48.699068
 21
85.836626
 31
0.0
  0
LINE
  5
242
100
AcDbEntity
  8
ALPHA
100
AcDbLine
 10
49.294068
 20
82.736626
 30
0.0
 11
49.294068
 21
85.836626
 31
0.0
  0
ARC
  5
243
100
AcDbEntity
  8
ALPHA
100
AcDbCircle
 10
56.594068
 20
80.166583
 30
0.0
 40
2.75
100
AcDbArc
 50
120.476908
 51
178.540518
  0
ARC
  5
244
100
AcDbEntity
  8
ALPHA
100
AcDbCircle
 10
56.594068
 20
80.166583
 30
0.0
 40
2.75
100
AcDbArc
 50
1.459482
 51
59.523092
  0
LINE
  5
245
100
AcDbEntity
  8
ALPHA
100
AcDbLine
 10
53.294068
 20
114.436626
 30
0.0
 11
50.444068
 21
114.436626
 31
0.0
  0
LINE
  5
246
100
AcDbEntity
  8
ALPHA
100
AcDbLine
 10
54.634477
 20
114.436626
 30
0.0
 11
53.294068
 21
114.436626
 31
0.0
  0
LINE
  5
247
100
AcDbEntity
  8
ALPHA
100
AcDbLine
 10
58.55366
 20
114.436626
 30
0.0
 11
54.634477
 21
114.436626
 31
0.0
  0
LINE
  5
248
100
AcDbEntity
  8
ALPHA
100
AcDbLine
 10
59.894068
 20
114.436626
 30
0.0
 11
58.55366
 21
114.436626
 31
0.0
  0
LINE
  5
249
100
AcDbEntity
  8
ALPHA
100
AcDbLine
 10
62.142551
 20
114.436626
 30
0.0
 11
59.894068
 21
114.436626
 31
0.0
  0
LINE
  5
24A
100
AcDbEntity
  8
ALPHA
100
AcDbLine
 10
65.394068
 20
114.436626
 30
0.0
 11
65.194068
 21
114.436626
 31
0.0
  0
LINE
  5
24B
100
AcDbEntity
  8
ALPHA
100
AcDbLine
 10
69.944068
 20
114.436626
 30
0.0
 11
70.044068
 21
114.436626
 31
0.0
  0
LINE
  5
24C
100
AcDbEntity
  8
ALPHA
100
AcDbLine
 10
53.140944
 20
80.453554
 30
0.0
 11
53.234694
 21
80.59175
 31
0.0
  0
LINE
  5
24D
100
AcDbEntity
  8
ALPHA
100
AcDbLine
 10
53.000319
 20
80.361424
 30
0.0
 11
53.140944
 21
80.453554
 31
0.0
  0
LINE
  5
24E
100
AcDbEntity
  8
ALPHA
100
AcDbLine
 10
52.812819
 20
80.269294
 30
0.0
 11
53.000319
 21
80.361424
 31
0.0
  0
LINE
  5
24F
100
AcDbEntity
  8
ALPHA
100
AcDbLine
 10
52.625319
 20
80.223228
 30
0.0
 11
52.812819
 21
80.269294
 31
0.0
  0
LINE
  5
250
100
AcDbEntity
  8
ALPHA
100
AcDbLine
 10
52.250319
 20
80.223228
 30
0.0
 11
52.625319
 21
80.223228
 31
0.0
  0
LINE
  5
251
100
AcDbEntity
  8
ALPHA
100
AcDbLine
 10
52.062819
 20
80.269294
 30
0.0
 11
52.250319
 21
80.223228
 31
0.0
  0
LINE
  5
252
100
AcDbEntity
  8
ALPHA
100
AcDbLine
 10
51.875319
 20
80.361424
 30
0.0
 11
52.062819
 21
80.269294
 31
0.0
  0
LINE
  5
253
100
AcDbEntity
  8
ALPHA
100
AcDbLine
 10
51.734694
 20
80.453554
 30
0.0
 11
51.875319
 21
80.361424
 31
0.0
  0
LINE
  5
254
100
AcDbEntity
  8
ALPHA
100
AcDbLine
 10
51.640944
 20
80.59175
 30
0.0
 11
51.734694
 21
80.453554
 31
0.0
  0
LINE
  5
255
100
AcDbEntity
  8
ALPHA
100
AcDbLine
 10
51.594069
 20
80.729945
 30
0.0
 11
51.640944
 21
80.59175
 31
0.0
  0
ARC
  5
256
100
AcDbEntity
  8
ALPHA
100
AcDbCircle
 10
56.594068
 20
90.436626
 30
0.0
 40
1.9
100
AcDbArc
 50
290.870835
 51
330.275671
  0
ARC
  5
257
100
AcDbEntity
  8
ALPHA
100
AcDbCircle
 10
56.594068
 20
97.936626
 30
0.0
 40
9.3
100
AcDbArc
 50
265.826047
 51
274.173953
  0
ARC
  5
258
100
AcDbEntity
  8
ALPHA
100
AcDbCircle
 10
56.594068
 20
90.436626
 30
0.0
 40
1.9
100
AcDbArc
 50
209.724329
 51
249.129165
  0
LINE
  5
259
100
AcDbEntity
  8
ALPHA
100
AcDbLine
 10
65.244068
 20
81.236626
 30
0.0
 11
65.244068
 21
81.936626
 31
0.0
  0
LINE
  5
25A
100
AcDbEntity
  8
ALPHA
100
AcDbLine
 10
63.244068
 20
80.236626
 30
0.0
 11
59.343176
 21
80.236626
 31
0.0
  0
LINE
  5
25B
100
AcDbEntity
  8
ALPHA
100
AcDbLine
 10
52.195787
 20
80.236626
 30
0.0
 11
47.944068
 21
80.236626
 31
0.0
  0
LINE
  5
25C
100
AcDbEntity
  8
ALPHA
100
AcDbLine
 10
53.844961
 20
80.236626
 30
0.0
 11
52.67985
 21
80.236626
 31
0.0
  0
LINE
  5
25D
100
AcDbEntity
  8
ALPHA
100
AcDbLine
 10
47.944068
 20
84.436626
 30
0.0
 11
47.944068
 21
82.536626
 31
0.0
  0
LINE
  5
25E
100
AcDbEntity
  8
ALPHA
100
AcDbLine
 10
53.047194
 20
80.914206
 30
0.0
 11
53.047194
 21
80.729945
 31
0.0
  0
LINE
  5
25F
100
AcDbEntity
  8
ALPHA
100
AcDbLine
 10
52.953444
 20
81.098467
 30
0.0
 11
53.047194
 21
80.914206
 31
0.0
  0
LINE
  5
260
100
AcDbEntity
  8
ALPHA
100
AcDbLine
 10
47.944068
 20
82.536626
 30
0.0
 11
47.944068
 21
80.236626
 31
0.0
  0
LINE
  5
261
100
AcDbEntity
  8
ALPHA
100
AcDbLine
 10
52.812819
 20
81.190597
 30
0.0
 11
52.953444
 21
81.098467
 31
0.0
  0
LINE
  5
262
100
AcDbEntity
  8
ALPHA
100
AcDbLine
 10
52.531569
 20
81.236662
 30
0.0
 11
52.812819
 21
81.190597
 31
0.0
  0
LINE
  5
263
100
AcDbEntity
  8
ALPHA
100
AcDbLine
 10
52.344069
 20
81.236662
 30
0.0
 11
52.531569
 21
81.236662
 31
0.0
  0
LINE
  5
264
100
AcDbEntity
  8
ALPHA
100
AcDbLine
 10
52.344069
 20
81.420923
 30
0.0
 11
52.344069
 21
81.236662
 31
0.0
  0
LINE
  5
265
100
AcDbEntity
  8
ALPHA
100
AcDbLine
 10
53.000319
 20
81.881575
 30
0.0
 11
53.000319
 21
81.789445
 31
0.0
  0
LINE
  5
266
100
AcDbEntity
  8
ALPHA
100
AcDbLine
 10
52.906569
 20
82.01977
 30
0.0
 11
53.000319
 21
81.881575
 31
0.0
  0
LINE
  5
267
100
AcDbEntity
  8
ALPHA
100
AcDbLine
 10
52.765944
 20
82.111901
 30
0.0
 11
52.906569
 21
82.01977
 31
0.0
  0
LINE
  5
268
100
AcDbEntity
  8
ALPHA
100
AcDbLine
 10
52.531569
 20
82.157966
 30
0.0
 11
52.765944
 21
82.111901
 31
0.0
  0
LINE
  5
269
100
AcDbEntity
  8
ALPHA
100
AcDbLine
 10
53.944068
 20
89.252909
 30
0.0
 11
54.944068
 21
89.252909
 31
0.0
  0
LINE
  5
26A
100
AcDbEntity
  8
ALPHA
100
AcDbLine
 10
58.244068
 20
89.252909
 30
0.0
 11
59.244068
 21
89.252909
 31
0.0
  0
LINE
  5
26B
100
AcDbEntity
  8
ALPHA
100
AcDbLine
 10
52.344069
 20
82.157966
 30
0.0
 11
52.531569
 21
82.157966
 31
0.0
  0
LINE
  5
26C
100
AcDbEntity
  8
ALPHA
100
AcDbLine
 10
52.109694
 20
82.111901
 30
0.0
 11
52.344069
 21
82.157966
 31
0.0
  0
LINE
  5
26D
100
AcDbEntity
  8
ALPHA
100
AcDbLine
 10
51.969069
 20
82.01977
 30
0.0
 11
52.109694
 21
82.111901
 31
0.0
  0
LINE
  5
26E
100
AcDbEntity
  8
ALPHA
100
AcDbLine
 10
54.944068
 20
89.57331
 30
0.0
 11
54.944068
 21
89.252909
 31
0.0
  0
LINE
  5
26F
100
AcDbEntity
  8
ALPHA
100
AcDbLine
 10
51.875319
 20
81.881575
 30
0.0
 11
51.969069
 21
82.01977
 31
0.0
  0
LINE
  5
270
100
AcDbEntity
  8
ALPHA
100
AcDbLine
 10
54.944068
 20
89.252909
 30
0.0
 11
54.944068
 21
88.636626
 31
0.0
  0
LINE
  5
271
100
AcDbEntity
  8
ALPHA
100
AcDbLine
 10
51.640944
 20
81.881575
 30
0.0
 11
51.875319
 21
81.881575
 31
0.0
  0
LINE
  5
272
100
AcDbEntity
  8
ALPHA
100
AcDbLine
 10
58.244068
 20
89.252909
 30
0.0
 11
58.244068
 21
88.636626
 31
0.0
  0
LINE
  5
273
100
AcDbEntity
  8
ALPHA
100
AcDbLine
 10
58.244068
 20
89.57331
 30
0.0
 11
58.244068
 21
89.252909
 31
0.0
  0
LINE
  5
274
100
AcDbEntity
  8
ALPHA
100
AcDbLine
 10
59.844068
 20
89.911665
 30
0.0
 11
59.844068
 21
89.515967
 31
0.0
  0
ARC
  5
275
100
AcDbEntity
  8
ALPHA
100
AcDbCircle
 10
56.594068
 20
97.936626
 30
0.0
 40
8.25
100
AcDbArc
 50
281.536959
 51
290.183581
  0
LINE
  5
276
100
AcDbEntity
  8
ALPHA
100
AcDbLine
 10
58.244068
 20
89.85331
 30
0.0
 11
58.244068
 21
89.57331
 31
0.0
  0
ARC
  5
277
100
AcDbEntity
  8
ALPHA
100
AcDbCircle
 10
56.594068
 20
97.936626
 30
0.0
 40
9.3
100
AcDbArc
 50
292.279239
 51
292.941119
  0
ARC
  5
278
100
AcDbEntity
  8
ALPHA
100
AcDbCircle
 10
56.594068
 20
97.936626
 30
0.0
 40
9.3
100
AcDbArc
 50
247.058881
 51
247.720761
  0
LINE
  5
279
100
AcDbEntity
  8
ALPHA
100
AcDbLine
 10
54.944068
 20
89.57331
 30
0.0
 11
54.944068
 21
89.85331
 31
0.0
  0
ARC
  5
27A
100
AcDbEntity
  8
ALPHA
100
AcDbCircle
 10
56.594068
 20
97.936626
 30
0.0
 40
8.25
100
AcDbArc
 50
249.816419
 51
258.463041
  0
LINE
  5
27B
100
AcDbEntity
  8
ALPHA
100
AcDbLine
 10
53.344068
 20
89.515967
 30
0.0
 11
53.344068
 21
89.911665
 31
0.0
  0
LINE
  5
27C
100
AcDbEntity
  8
ALPHA
100
AcDbLine
 10
53.234694
 20
81.789445
 30
0.0
 11
53.234694
 21
81.881575
 31
0.0
  0
LINE
  5
27D
100
AcDbEntity
  8
ALPHA
100
AcDbLine
 10
53.187819
 20
81.605184
 30
0.0
 11
53.234694
 21
81.789445
 31
0.0
  0
LINE
  5
27E
100
AcDbEntity
  8
ALPHA
100
AcDbLine
 10
53.094069
 20
81.466988
 30
0.0
 11
53.187819
 21
81.605184
 31
0.0
  0
LINE
  5
27F
100
AcDbEntity
  8
ALPHA
100
AcDbLine
 10
52.906569
 20
81.328793
 30
0.0
 11
53.094069
 21
81.466988
 31
0.0
  0
LINE
  5
280
100
AcDbEntity
  8
ALPHA
100
AcDbLine
 10
53.281569
 20
80.729945
 30
0.0
 11
53.281569
 21
80.914206
 31
0.0
  0
LINE
  5
281
100
AcDbEntity
  8
ALPHA
100
AcDbLine
 10
53.234694
 20
80.59175
 30
0.0
 11
53.281569
 21
80.729945
 31
0.0
  0
LINE
  5
282
100
AcDbEntity
  8
ALPHA
100
AcDbLine
 10
53.281569
 20
81.014206
 30
0.0
 11
53.281569
 21
80.914206
 31
0.0
  0
LINE
  5
283
100
AcDbEntity
  8
ALPHA
100
AcDbLine
 10
53.234694
 20
81.981575
 30
0.0
 11
53.234694
 21
81.881575
 31
0.0
  0
LINE
  5
284
100
AcDbEntity
  8
ALPHA
100
AcDbLine
 10
51.640944
 20
81.981575
 30
0.0
 11
51.640944
 21
81.881575
 31
0.0
  0
LINE
  5
285
100
AcDbEntity
  8
ALPHA
100
AcDbLine
 10
52.344069
 20
81.520923
 30
0.0
 11
52.344069
 21
81.420923
 31
0.0
  0
LINE
  5
286
100
AcDbEntity
  8
ALPHA
100
AcDbLine
 10
51.594069
 20
80.829945
 30
0.0
 11
51.594069
 21
80.729945
 31
0.0
  0
LINE
  5
287
100
AcDbEntity
  8
ALPHA
100
AcDbLine
 10
61.444068
 20
81.174014
 30
0.0
 11
61.444068
 21
81.339848
 31
0.0
  0
LINE
  5
288
100
AcDbEntity
  8
ALPHA
100
AcDbLine
 10
61.369069
 20
81.008179
 30
0.0
 11
61.444068
 21
81.174014
 31
0.0
  0
LINE
  5
289
100
AcDbEntity
  8
ALPHA
100
AcDbLine
 10
61.256568
 20
80.875511
 30
0.0
 11
61.369069
 21
81.008179
 31
0.0
  0
LINE
  5
28A
100
AcDbEntity
  8
ALPHA
100
AcDbLine
 10
61.069068
 20
80.776011
 30
0.0
 11
61.256568
 21
80.875511
 31
0.0
  0
LINE
  5
28B
100
AcDbEntity
  8
ALPHA
100
AcDbLine
 10
60.881568
 20
80.742844
 30
0.0
 11
61.069068
 21
80.776011
 31
0.0
  0
LINE
  5
28C
100
AcDbEntity
  8
ALPHA
100
AcDbLine
 10
60.694068
 20
80.742844
 30
0.0
 11
60.881568
 21
80.742844
 31
0.0
  0
LINE
  5
28D
100
AcDbEntity
  8
ALPHA
100
AcDbLine
 10
60.506568
 20
80.776011
 30
0.0
 11
60.694068
 21
80.742844
 31
0.0
  0
LINE
  5
28E
100
AcDbEntity
  8
ALPHA
100
AcDbLine
 10
60.319068
 20
80.875511
 30
0.0
 11
60.506568
 21
80.776011
 31
0.0
  0
LINE
  5
28F
100
AcDbEntity
  8
ALPHA
100
AcDbLine
 10
60.206568
 20
81.008179
 30
0.0
 11
60.319068
 21
80.875511
 31
0.0
  0
LINE
  5
290
100
AcDbEntity
  8
ALPHA
100
AcDbLine
 10
60.131568
 20
81.174014
 30
0.0
 11
60.206568
 21
81.008179
 31
0.0
  0
LINE
  5
291
100
AcDbEntity
  8
ALPHA
100
AcDbLine
 10
60.094068
 20
81.406182
 30
0.0
 11
60.131568
 21
81.174014
 31
0.0
  0
LINE
  5
292
100
AcDbEntity
  8
ALPHA
100
AcDbLine
 10
60.094068
 20
81.638351
 30
0.0
 11
60.094068
 21
81.406182
 31
0.0
  0
LINE
  5
293
100
AcDbEntity
  8
ALPHA
100
AcDbLine
 10
61.181569
 20
81.936853
 30
0.0
 11
61.369069
 21
81.936853
 31
0.0
  0
LINE
  5
294
100
AcDbEntity
  8
ALPHA
100
AcDbLine
 10
61.106569
 20
82.036354
 30
0.0
 11
61.181569
 21
81.936853
 31
0.0
  0
LINE
  5
295
100
AcDbEntity
  8
ALPHA
100
AcDbLine
 10
60.994069
 20
82.102688
 30
0.0
 11
61.106569
 21
82.036354
 31
0.0
  0
LINE
  5
296
100
AcDbEntity
  8
ALPHA
100
AcDbLine
 10
60.881568
 20
82.135855
 30
0.0
 11
60.994069
 21
82.102688
 31
0.0
  0
LINE
  5
297
100
AcDbEntity
  8
ALPHA
100
AcDbLine
 10
60.656568
 20
82.135855
 30
0.0
 11
60.881568
 21
82.135855
 31
0.0
  0
LINE
  5
298
100
AcDbEntity
  8
ALPHA
100
AcDbLine
 10
60.544069
 20
82.102688
 30
0.0
 11
60.656568
 21
82.135855
 31
0.0
  0
LINE
  5
299
100
AcDbEntity
  8
ALPHA
100
AcDbLine
 10
60.431569
 20
82.036354
 30
0.0
 11
60.544069
 21
82.102688
 31
0.0
  0
LINE
  5
29A
100
AcDbEntity
  8
ALPHA
100
AcDbLine
 10
60.356569
 20
81.936853
 30
0.0
 11
60.431569
 21
82.036354
 31
0.0
  0
LINE
  5
29B
100
AcDbEntity
  8
ALPHA
100
AcDbLine
 10
60.319068
 20
81.837352
 30
0.0
 11
60.356569
 21
81.936853
 31
0.0
  0
LINE
  5
29C
100
AcDbEntity
  8
ALPHA
100
AcDbLine
 10
60.281568
 20
81.638351
 30
0.0
 11
60.319068
 21
81.837352
 31
0.0
  0
LINE
  5
29D
100
AcDbEntity
  8
ALPHA
100
AcDbLine
 10
60.281568
 20
81.572017
 30
0.0
 11
60.281568
 21
81.638351
 31
0.0
  0
LINE
  5
29E
100
AcDbEntity
  8
ALPHA
100
AcDbLine
 10
52.794068
 20
113.836626
 30
0.0
 11
50.444068
 21
113.836626
 31
0.0
  0
LINE
  5
29F
100
AcDbEntity
  8
ALPHA
100
AcDbLine
 10
49.344068
 20
105.636626
 30
0.0
 11
49.344068
 21
105.806029
 31
0.0
  0
LINE
  5
2A0
100
AcDbEntity
  8
ALPHA
100
AcDbLine
 10
49.344068
 20
103.761358
 30
0.0
 11
49.344068
 21
104.236626
 31
0.0
  0
ARC
  5
2A1
100
AcDbEntity
  8
ALPHA
100
AcDbCircle
 10
56.594068
 20
97.936626
 30
0.0
 40
10.7
100
AcDbArc
 50
105.715856
 51
112.531614
  0
ARC
  5
2A2
100
AcDbEntity
  8
ALPHA
100
AcDbCircle
 10
56.594068
 20
97.936626
 30
0.0
 40
10.7
100
AcDbArc
 50
124.124206
 51
132.654052
  0
LINE
  5
2A3
100
AcDbEntity
  8
ALPHA
100
AcDbLine
 10
58.569068
 20
108.236626
 30
0.0
 11
59.492344
 21
108.236626
 31
0.0
  0
LINE
  5
2A4
100
AcDbEntity
  8
ALPHA
100
AcDbLine
 10
53.695793
 20
108.236626
 30
0.0
 11
54.619068
 21
108.236626
 31
0.0
  0
ARC
  5
2A5
100
AcDbEntity
  8
ALPHA
100
AcDbCircle
 10
56.594068
 20
97.936626
 30
0.0
 40
10.7
100
AcDbArc
 50
67.468386
 51
74.284144
  0
LINE
  5
2A6
100
AcDbEntity
  8
ALPHA
100
AcDbLine
 10
61.219068
 20
81.406182
 30
0.0
 11
61.256568
 21
81.306681
 31
0.0
  0
LINE
  5
2A7
100
AcDbEntity
  8
ALPHA
100
AcDbLine
 10
61.144068
 20
81.472516
 30
0.0
 11
61.219068
 21
81.406182
 31
0.0
  0
LINE
  5
2A8
100
AcDbEntity
  8
ALPHA
100
AcDbLine
 10
61.031568
 20
81.53885
 30
0.0
 11
61.144068
 21
81.472516
 31
0.0
  0
LINE
  5
2A9
100
AcDbEntity
  8
ALPHA
100
AcDbLine
 10
60.919069
 20
81.572017
 30
0.0
 11
61.031568
 21
81.53885
 31
0.0
  0
LINE
  5
2AA
100
AcDbEntity
  8
ALPHA
100
AcDbLine
 10
60.656568
 20
81.572017
 30
0.0
 11
60.919069
 21
81.572017
 31
0.0
  0
LINE
  5
2AB
100
AcDbEntity
  8
ALPHA
100
AcDbLine
 10
60.544069
 20
81.53885
 30
0.0
 11
60.656568
 21
81.572017
 31
0.0
  0
LINE
  5
2AC
100
AcDbEntity
  8
ALPHA
100
AcDbLine
 10
60.431569
 20
81.472516
 30
0.0
 11
60.544069
 21
81.53885
 31
0.0
  0
LINE
  5
2AD
100
AcDbEntity
  8
ALPHA
100
AcDbLine
 10
60.356569
 20
81.406182
 30
0.0
 11
60.431569
 21
81.472516
 31
0.0
  0
LINE
  5
2AE
100
AcDbEntity
  8
ALPHA
100
AcDbLine
 10
60.319068
 20
81.306681
 30
0.0
 11
60.356569
 21
81.406182
 31
0.0
  0
LINE
  5
2AF
100
AcDbEntity
  8
ALPHA
100
AcDbLine
 10
60.319068
 20
81.207181
 30
0.0
 11
60.319068
 21
81.306681
 31
0.0
  0
ARC
  5
2B0
100
AcDbEntity
  8
ALPHA
100
AcDbCircle
 10
56.594068
 20
97.936626
 30
0.0
 40
9.3
100
AcDbArc
 50
141.221212
 51
162.635512
  0
LINE
  5
2B1
100
AcDbEntity
  8
ALPHA
100
AcDbLine
 10
42.644068
 20
81.736626
 30
0.0
 11
47.944068
 21
81.736626
 31
0.0
  0
LINE
  5
2B2
100
AcDbEntity
  8
ALPHA
100
AcDbLine
 10
70.544068
 20
81.736626
 30
0.0
 11
65.244068
 21
81.736626
 31
0.0
  0
LINE
  5
2B3
100
AcDbEntity
  8
ALPHA
100
AcDbLine
 10
71.544068
 20
100.186626
 30
0.0
 11
71.544068
 21
94.433328
 31
0.0
  0
LINE
  5
2B4
100
AcDbEntity
  8
ALPHA
100
AcDbLine
 10
43.144068
 20
116.436626
 30
0.0
 11
43.244068
 21
116.436626
 31
0.0
  0
LINE
  5
2B5
100
AcDbEntity
  8
ALPHA
100
AcDbLine
 10
61.256568
 20
81.306681
 30
0.0
 11
61.256568
 21
81.207181
 31
0.0
  0
LINE
  5
2B6
100
AcDbEntity
  8
ALPHA
100
AcDbLine
 10
41.644068
 20
100.186626
 30
0.0
 11
41.644068
 21
94.433328
 31
0.0
  0
LINE
  5
2B7
100
AcDbEntity
  8
ALPHA
100
AcDbLine
 10
41.644068
 20
110.436626
 30
0.0
 11
41.644068
 21
110.886626
 31
0.0
  0
LINE
  5
2B8
100
AcDbEntity
  8
ALPHA
100
AcDbLine
 10
41.644068
 20
114.936626
 30
0.0
 11
41.644068
 21
110.886626
 31
0.0
  0
LINE
  5
2B9
100
AcDbEntity
  8
ALPHA
100
AcDbLine
 10
61.369069
 20
82.036853
 30
0.0
 11
61.369069
 21
81.936853
 31
0.0
  0
LINE
  5
2BA
100
AcDbEntity
  8
ALPHA
100
AcDbLine
 10
60.094068
 20
81.738351
 30
0.0
 11
60.094068
 21
81.638351
 31
0.0
  0
LINE
  5
2BB
100
AcDbEntity
  8
ALPHA
100
AcDbLine
 10
61.444068
 20
81.439848
 30
0.0
 11
61.444068
 21
81.339848
 31
0.0
  0
ARC
  5
2BC
100
AcDbEntity
  8
ALPHA
100
AcDbCircle
 10
53.644068
 20
89.911665
 30
0.0
 40
0.3
100
AcDbArc
 50
69.816419
 51
180.0
  0
ARC
  5
2BD
100
AcDbEntity
  8
ALPHA
100
AcDbCircle
 10
59.544068
 20
89.911665
 30
0.0
 40
0.3
100
AcDbArc
 50
0.0
 51
110.183581
  0
ARC
  5
2BE
100
AcDbEntity
  8
ALPHA
100
AcDbCircle
 10
60.044068
 20
89.515967
 30
0.0
 40
0.2
100
AcDbArc
 50
180.0
 51
292.279239
  0
ARC
  5
2BF
100
AcDbEntity
  8
ALPHA
100
AcDbCircle
 10
53.144068
 20
89.515967
 30
0.0
 40
0.2
100
AcDbArc
 50
247.720761
 51
0.0
  0
LINE
  5
2C0
100
AcDbEntity
  8
ALPHA
100
AcDbLine
 10
41.644068
 20
82.736626
 30
0.0
 11
41.644068
 21
85.436626
 31
0.0
  0
ARC
  5
2C1
100
AcDbEntity
  8
ALPHA
100
AcDbCircle
 10
42.644068
 20
82.736626
 30
0.0
 40
1.0
100
AcDbArc
 50
180.0
 51
240.0
  0
LINE
  5
2C2
100
AcDbEntity
  8
ALPHA
100
AcDbLine
 10
44.769068
 20
97.364839
 30
0.0
 11
47.544068
 21
97.364839
 31
0.0
  0
LINE
  5
2C3
100
AcDbEntity
  8
ALPHA
100
AcDbLine
 10
44.769068
 20
96.657733
 30
0.0
 11
47.544068
 21
96.657733
 31
0.0
  0
LINE
  5
2C4
100
AcDbEntity
  8
ALPHA
100
AcDbLine
 10
54.094068
 20
112.736626
 30
0.0
 11
52.794068
 21
112.736626
 31
0.0
  0
ARC
  5
2C5
100
AcDbEntity
  8
ALPHA
100
AcDbCircle
 10
45.044068
 20
113.936626
 30
0.0
 40
1.6
100
AcDbArc
 50
90.0
 51
270.0
  0
ARC
  5
2C6
100
AcDbEntity
  8
ALPHA
100
AcDbCircle
 10
45.044068
 20
113.936626
 30
0.0
 40
1.6
100
AcDbArc
 50
270.0
 51
90.0
  0
ARC
  5
2C7
100
AcDbEntity
  8
ALPHA
100
AcDbCircle
 10
51.594068
 20
85.236626
 30
0.0
 40
1.6
100
AcDbArc
 50
270.0
 51
90.0
  0
ARC
  5
2C8
100
AcDbEntity
  8
ALPHA
100
AcDbCircle
 10
51.594068
 20
85.236626
 30
0.0
 40
1.6
100
AcDbArc
 50
90.0
 51
270.0
  0
LINE
  5
2C9
100
AcDbEntity
  8
ALPHA
100
AcDbLine
 10
58.094068
 20
113.236626
 30
0.0
 11
58.094068
 21
114.236626
 31
0.0
  0
ARC
  5
2CA
100
AcDbEntity
  8
ALPHA
100
AcDbCircle
 10
61.594068
 20
85.236626
 30
0.0
 40
1.6
100
AcDbArc
 50
90.0
 51
270.0
  0
LINE
  5
2CB
100
AcDbEntity
  8
ALPHA
100
AcDbLine
 10
47.544068
 20
103.350626
 30
0.0
 11
44.769068
 21
103.350626
 31
0.0
  0
ARC
  5
2CC
100
AcDbEntity
  8
ALPHA
100
AcDbCircle
 10
61.594068
 20
85.236626
 30
0.0
 40
1.6
100
AcDbArc
 50
86.351698
 51
90.0
  0
ARC
  5
2CD
100
AcDbEntity
  8
ALPHA
100
AcDbCircle
 10
61.594068
 20
85.236626
 30
0.0
 40
1.6
100
AcDbArc
 50
270.0
 51
273.648302
  0
LINE
  5
2CE
100
AcDbEntity
  8
ALPHA
100
AcDbLine
 10
55.094068
 20
113.236626
 30
0.0
 11
55.094068
 21
114.236626
 31
0.0
  0
LINE
  5
2CF
100
AcDbEntity
  8
ALPHA
100
AcDbLine
 10
47.544068
 20
101.936412
 30
0.0
 11
44.769068
 21
101.936412
 31
0.0
  0
LINE
  5
2D0
100
AcDbEntity
  8
ALPHA
100
AcDbLine
 10
57.094068
 20
114.236626
 30
0.0
 11
57.094068
 21
113.236626
 31
0.0
  0
LINE
  5
2D1
100
AcDbEntity
  8
ALPHA
100
AcDbLine
 10
47.544068
 20
92.522199
 30
0.0
 11
44.769068
 21
92.522199
 31
0.0
  0
LINE
  5
2D2
100
AcDbEntity
  8
ALPHA
100
AcDbLine
 10
56.094068
 20
114.236626
 30
0.0
 11
56.094068
 21
113.236626
 31
0.0
  0
LINE
  5
2D3
100
AcDbEntity
  8
ALPHA
100
AcDbLine
 10
44.769068
 20
99.215092
 30
0.0
 11
47.544068
 21
99.215092
 31
0.0
  0
LINE
  5
2D4
100
AcDbEntity
  8
ALPHA
100
AcDbLine
 10
47.544068
 20
93.936412
 30
0.0
 11
44.769068
 21
93.936412
 31
0.0
  0
LINE
  5
2D5
100
AcDbEntity
  8
ALPHA
100
AcDbLine
 10
44.769068
 20
98.507985
 30
0.0
 11
47.544068
 21
98.507985
 31
0.0
  0
LINE
  5
2D6
100
AcDbEntity
  8
ALPHA
100
AcDbLine
 10
60.394068
 20
112.736626
 30
0.0
 11
59.094068
 21
112.736626
 31
0.0
  0
ARC
  5
2D7
100
AcDbEntity
  8
ALPHA
100
AcDbCircle
 10
45.044068
 20
113.936626
 30
0.0
 40
1.1
100
AcDbArc
 50
90.0
 51
270.0
  0
ARC
  5
2D8
100
AcDbEntity
  8
ALPHA
100
AcDbCircle
 10
45.044068
 20
113.936626
 30
0.0
 40
1.1
100
AcDbArc
 50
270.0
 51
90.0
  0
ARC
  5
2D9
100
AcDbEntity
  8
ALPHA
100
AcDbCircle
 10
51.594068
 20
85.236626
 30
0.0
 40
1.1
100
AcDbArc
 50
270.0
 51
90.0
  0
ARC
  5
2DA
100
AcDbEntity
  8
ALPHA
100
AcDbCircle
 10
51.594068
 20
85.236626
 30
0.0
 40
1.1
100
AcDbArc
 50
90.0
 51
270.0
  0
ARC
  5
2DB
100
AcDbEntity
  8
ALPHA
100
AcDbCircle
 10
61.594068
 20
85.236626
 30
0.0
 40
1.1
100
AcDbArc
 50
90.0
 51
270.0
  0
ARC
  5
2DC
100
AcDbEntity
  8
ALPHA
100
AcDbCircle
 10
61.594068
 20
85.236626
 30
0.0
 40
1.1
100
AcDbArc
 50
84.731314
 51
90.0
  0
ARC
  5
2DD
100
AcDbEntity
  8
ALPHA
100
AcDbCircle
 10
61.594068
 20
85.236626
 30
0.0
 40
1.1
100
AcDbArc
 50
270.0
 51
275.268686
  0
LINE
  5
2DE
100
AcDbEntity
  8
ALPHA
100
AcDbLine
 10
47.544068
 20
96.657733
 30
0.0
 11
47.544068
 21
93.936412
 31
0.0
  0
LINE
  5
2DF
100
AcDbEntity
  8
ALPHA
100
AcDbLine
 10
44.769068
 20
93.936412
 30
0.0
 11
44.769068
 21
96.657733
 31
0.0
  0
LINE
  5
2E0
100
AcDbEntity
  8
ALPHA
100
AcDbLine
 10
44.769068
 20
97.364839
 30
0.0
 11
44.769068
 21
98.507985
 31
0.0
  0
LINE
  5
2E1
100
AcDbEntity
  8
ALPHA
100
AcDbLine
 10
47.544068
 20
97.364839
 30
0.0
 11
47.544068
 21
98.507985
 31
0.0
  0
LINE
  5
2E2
100
AcDbEntity
  8
ALPHA
100
AcDbLine
 10
54.094068
 20
110.436626
 30
0.0
 11
54.094068
 21
112.736626
 31
0.0
  0
LINE
  5
2E3
100
AcDbEntity
  8
ALPHA
100
AcDbLine
 10
44.769068
 20
99.215092
 30
0.0
 11
44.769068
 21
101.936412
 31
0.0
  0
LINE
  5
2E4
100
AcDbEntity
  8
ALPHA
100
AcDbLine
 10
47.544068
 20
101.936412
 30
0.0
 11
47.544068
 21
99.215092
 31
0.0
  0
LINE
  5
2E5
100
AcDbEntity
  8
ALPHA
100
AcDbLine
 10
44.769068
 20
92.522199
 30
0.0
 11
44.769068
 21
89.936626
 31
0.0
  0
LINE
  5
2E6
100
AcDbEntity
  8
ALPHA
100
AcDbLine
 10
59.094068
 20
112.736626
 30
0.0
 11
59.094068
 21
110.436626
 31
0.0
  0
LINE
  5
2E7
100
AcDbEntity
  8
ALPHA
100
AcDbLine
 10
47.544068
 20
99.215092
 30
0.0
 11
47.544068
 21
98.507985
 31
0.0
  0
LINE
  5
2E8
100
AcDbEntity
  8
ALPHA
100
AcDbLine
 10
44.769068
 20
99.215092
 30
0.0
 11
44.769068
 21
98.507985
 31
0.0
  0
LINE
  5
2E9
100
AcDbEntity
  8
ALPHA
100
AcDbLine
 10
47.544068
 20
97.364839
 30
0.0
 11
47.544068
 21
96.657733
 31
0.0
  0
LINE
  5
2EA
100
AcDbEntity
  8
ALPHA
100
AcDbLine
 10
44.769068
 20
97.364839
 30
0.0
 11
44.769068
 21
96.657733
 31
0.0
  0
LINE
  5
2EB
100
AcDbEntity
  8
ALPHA
100
AcDbLine
 10
47.544068
 20
103.350626
 30
0.0
 11
47.544068
 21
101.936412
 31
0.0
  0
LINE
  5
2EC
100
AcDbEntity
  8
ALPHA
100
AcDbLine
 10
44.769068
 20
103.350626
 30
0.0
 11
44.769068
 21
101.936412
 31
0.0
  0
LINE
  5
2ED
100
AcDbEntity
  8
ALPHA
100
AcDbLine
 10
44.769068
 20
92.522199
 30
0.0
 11
44.769068
 21
93.936412
 31
0.0
  0
LINE
  5
2EE
100
AcDbEntity
  8
ALPHA
100
AcDbLine
 10
47.544068
 20
92.522199
 30
0.0
 11
47.544068
 21
93.936412
 31
0.0
  0
LINE
  5
2EF
100
AcDbEntity
  8
ALPHA
100
AcDbLine
 10
55.094068
 20
113.236626
 30
0.0
 11
54.094068
 21
113.236626
 31
0.0
  0
LINE
  5
2F0
100
AcDbEntity
  8
ALPHA
100
AcDbLine
 10
56.094068
 20
113.236626
 30
0.0
 11
55.094068
 21
113.236626
 31
0.0
  0
LINE
  5
2F1
100
AcDbEntity
  8
ALPHA
100
AcDbLine
 10
57.094068
 20
113.236626
 30
0.0
 11
56.094068
 21
113.236626
 31
0.0
  0
LINE
  5
2F2
100
AcDbEntity
  8
ALPHA
100
AcDbLine
 10
58.094068
 20
113.236626
 30
0.0
 11
57.094068
 21
113.236626
 31
0.0
  0
LINE
  5
2F3
100
AcDbEntity
  8
ALPHA
100
AcDbLine
 10
59.094068
 20
113.236626
 30
0.0
 11
58.094068
 21
113.236626
 31
0.0
  0
LINE
  5
2F4
100
AcDbEntity
  8
ALPHA
100
AcDbLine
 10
59.094068
 20
114.236626
 30
0.0
 11
58.094068
 21
114.236626
 31
0.0
  0
LINE
  5
2F5
100
AcDbEntity
  8
ALPHA
100
AcDbLine
 10
58.094068
 20
114.236626
 30
0.0
 11
57.094068
 21
114.236626
 31
0.0
  0
LINE
  5
2F6
100
AcDbEntity
  8
ALPHA
100
AcDbLine
 10
57.094068
 20
114.236626
 30
0.0
 11
56.094068
 21
114.236626
 31
0.0
  0
LINE
  5
2F7
100
AcDbEntity
  8
ALPHA
100
AcDbLine
 10
56.094068
 20
114.236626
 30
0.0
 11
55.094068
 21
114.236626
 31
0.0
  0
LINE
  5
2F8
100
AcDbEntity
  8
ALPHA
100
AcDbLine
 10
60.394068
 20
110.436626
 30
0.0
 11
60.394068
 21
112.736626
 31
0.0
  0
LINE
  5
2F9
100
AcDbEntity
  8
ALPHA
100
AcDbLine
 10
55.094068
 20
114.236626
 30
0.0
 11
54.094068
 21
114.236626
 31
0.0
  0
LINE
  5
2FA
100
AcDbEntity
  8
ALPHA
100
AcDbLine
 10
41.644068
 20
108.436626
 30
0.0
 11
44.644068
 21
108.436626
 31
0.0
  0
LINE
  5
2FB
100
AcDbEntity
  8
ALPHA
100
AcDbLine
 10
71.494068
 20
108.436626
 30
0.0
 11
71.544068
 21
108.436626
 31
0.0
  0
ARC
  5
2FC
100
AcDbEntity
  8
ALPHA
100
AcDbCircle
 10
48.694068
 20
89.536626
 30
0.0
 40
0.4
100
AcDbArc
 50
0.0
 51
90.0
  0
ARC
  5
2FD
100
AcDbEntity
  8
ALPHA
100
AcDbCircle
 10
47.944068
 20
92.036626
 30
0.0
 40
0.4
100
AcDbArc
 50
180.0
 51
270.0
  0
ARC
  5
2FE
100
AcDbEntity
  8
ALPHA
100
AcDbCircle
 10
47.944068
 20
103.836626
 30
0.0
 40
0.4
100
AcDbArc
 50
90.0
 51
180.0
  0
LINE
  5
2FF
100
AcDbEntity
  8
ALPHA
100
AcDbLine
 10
49.494068
 20
86.136626
 30
0.0
 11
49.494068
 21
82.936626
 31
0.0
  0
LINE
  5
300
100
AcDbEntity
  8
ALPHA
100
AcDbLine
 10
59.094068
 20
113.236626
 30
0.0
 11
59.094068
 21
114.236626
 31
0.0
  0
LINE
  5
301
100
AcDbEntity
  8
ALPHA
100
AcDbLine
 10
59.094068
 20
112.736626
 30
0.0
 11
59.094068
 21
113.236626
 31
0.0
  0
LINE
  5
302
100
AcDbEntity
  8
ALPHA
100
AcDbLine
 10
60.394068
 20
114.236626
 30
0.0
 11
59.094068
 21
114.236626
 31
0.0
  0
LINE
  5
303
100
AcDbEntity
  8
ALPHA
100
AcDbLine
 10
60.394068
 20
113.236626
 30
0.0
 11
60.394068
 21
112.736626
 31
0.0
  0
LINE
  5
304
100
AcDbEntity
  8
ALPHA
100
AcDbLine
 10
60.394068
 20
114.236626
 30
0.0
 11
60.394068
 21
113.236626
 31
0.0
  0
LINE
  5
305
100
AcDbEntity
  8
ALPHA
100
AcDbLine
 10
52.794068
 20
113.236626
 30
0.0
 11
52.794068
 21
114.236626
 31
0.0
  0
LINE
  5
306
100
AcDbEntity
  8
ALPHA
100
AcDbLine
 10
52.794068
 20
112.736626
 30
0.0
 11
52.794068
 21
113.236626
 31
0.0
  0
LINE
  5
307
100
AcDbEntity
  8
ALPHA
100
AcDbLine
 10
54.094068
 20
114.236626
 30
0.0
 11
52.794068
 21
114.236626
 31
0.0
  0
LINE
  5
308
100
AcDbEntity
  8
ALPHA
100
AcDbLine
 10
54.094068
 20
113.236626
 30
0.0
 11
54.094068
 21
112.736626
 31
0.0
  0
LINE
  5
309
100
AcDbEntity
  8
ALPHA
100
AcDbLine
 10
54.094068
 20
114.236626
 30
0.0
 11
54.094068
 21
113.236626
 31
0.0
  0
ARC
  5
30A
100
AcDbEntity
  8
ALPHA
100
AcDbCircle
 10
61.594068
 20
85.236626
 30
0.0
 40
1.1
100
AcDbArc
 50
270.0
 51
275.268686
  0
ARC
  5
30B
100
AcDbEntity
  8
ALPHA
100
AcDbCircle
 10
61.594068
 20
85.236626
 30
0.0
 40
1.1
100
AcDbArc
 50
84.731314
 51
90.0
  0
ARC
  5
30C
100
AcDbEntity
  8
ALPHA
100
AcDbCircle
 10
61.594068
 20
85.236626
 30
0.0
 40
1.1
100
AcDbArc
 50
90.0
 51
270.0
  0
ARC
  5
30D
100
AcDbEntity
  8
ALPHA
100
AcDbCircle
 10
51.594068
 20
85.236626
 30
0.0
 40
1.1
100
AcDbArc
 50
90.0
 51
270.0
  0
ARC
  5
30E
100
AcDbEntity
  8
ALPHA
100
AcDbCircle
 10
51.594068
 20
85.236626
 30
0.0
 40
1.1
100
AcDbArc
 50
270.0
 51
90.0
  0
ARC
  5
30F
100
AcDbEntity
  8
ALPHA
100
AcDbCircle
 10
45.044068
 20
113.936626
 30
0.0
 40
1.1
100
AcDbArc
 50
270.0
 51
90.0
  0
ARC
  5
310
100
AcDbEntity
  8
ALPHA
100
AcDbCircle
 10
45.044068
 20
113.936626
 30
0.0
 40
1.1
100
AcDbArc
 50
90.0
 51
270.0
  0
LINE
  5
311
100
AcDbEntity
  8
ALPHA
100
AcDbLine
 10
59.094068
 20
110.436626
 30
0.0
 11
54.094068
 21
110.436626
 31
0.0
  0
LINE
  5
312
100
AcDbEntity
  8
ALPHA
100
AcDbLine
 10
52.794068
 20
110.436626
 30
0.0
 11
52.794068
 21
112.736626
 31
0.0
  0
LINE
  5
313
100
AcDbEntity
  8
ALPHA
100
AcDbLine
 10
52.794068
 20
110.436626
 30
0.0
 11
50.444068
 21
110.436626
 31
0.0
  0
LINE
  5
314
100
AcDbEntity
  8
ALPHA
100
AcDbLine
 10
50.444068
 20
114.704575
 30
0.0
 11
50.444068
 21
110.436626
 31
0.0
  0
LINE
  5
315
100
AcDbEntity
  8
ALPHA
100
AcDbLine
 10
50.444068
 20
114.704575
 30
0.0
 11
49.444068
 21
116.436626
 31
0.0
  0
LINE
  5
316
100
AcDbEntity
  8
ALPHA
100
AcDbLine
 10
48.919068
 20
116.436626
 30
0.0
 11
49.444068
 21
116.436626
 31
0.0
  0
LINE
  5
317
100
AcDbEntity
  8
ALPHA
100
AcDbLine
 10
48.919068
 20
116.436626
 30
0.0
 11
48.919068
 21
114.686626
 31
0.0
  0
ARC
  5
318
100
AcDbEntity
  8
ALPHA
100
AcDbCircle
 10
48.094068
 20
114.686626
 30
0.0
 40
0.825
100
AcDbArc
 50
180.0
 51
0.0
  0
LINE
  5
319
100
AcDbEntity
  8
ALPHA
100
AcDbLine
 10
47.269068
 20
116.436626
 30
0.0
 11
47.269068
 21
114.686626
 31
0.0
  0
LINE
  5
31A
100
AcDbEntity
  8
ALPHA
100
AcDbLine
 10
43.344068
 20
116.436626
 30
0.0
 11
47.269068
 21
116.436626
 31
0.0
  0
LINE
  5
31B
100
AcDbEntity
  8
ALPHA
100
AcDbLine
 10
43.344068
 20
116.436626
 30
0.0
 11
42.844068
 21
114.5706
 31
0.0
  0
LINE
  5
31C
100
AcDbEntity
  8
ALPHA
100
AcDbLine
 10
42.844068
 20
114.5706
 30
0.0
 11
42.844068
 21
110.436626
 31
0.0
  0
LINE
  5
31D
100
AcDbEntity
  8
ALPHA
100
AcDbLine
 10
42.844068
 20
110.436626
 30
0.0
 11
41.644068
 21
110.436626
 31
0.0
  0
LINE
  5
31E
100
AcDbEntity
  8
ALPHA
100
AcDbLine
 10
41.644068
 20
108.436626
 30
0.0
 11
41.644068
 21
110.436626
 31
0.0
  0
LINE
  5
31F
100
AcDbEntity
  8
ALPHA
100
AcDbLine
 10
44.644068
 20
105.636626
 30
0.0
 11
44.644068
 21
108.436626
 31
0.0
  0
LINE
  5
320
100
AcDbEntity
  8
ALPHA
100
AcDbLine
 10
42.794068
 20
105.636626
 30
0.0
 11
44.644068
 21
105.636626
 31
0.0
  0
LINE
  5
321
100
AcDbEntity
  8
ALPHA
100
AcDbLine
 10
42.794068
 20
104.236626
 30
0.0
 11
42.794068
 21
105.636626
 31
0.0
  0
LINE
  5
322
100
AcDbEntity
  8
ALPHA
100
AcDbLine
 10
44.769068
 20
104.236626
 30
0.0
 11
42.794068
 21
104.236626
 31
0.0
  0
LINE
  5
323
100
AcDbEntity
  8
ALPHA
100
AcDbLine
 10
44.769068
 20
103.350626
 30
0.0
 11
44.769068
 21
104.236626
 31
0.0
  0
LINE
  5
324
100
AcDbEntity
  8
ALPHA
100
AcDbLine
 10
47.544068
 20
103.836626
 30
0.0
 11
47.544068
 21
103.350626
 31
0.0
  0
LINE
  5
325
100
AcDbEntity
  8
ALPHA
100
AcDbLine
 10
51.194068
 20
104.236626
 30
0.0
 11
47.944068
 21
104.236626
 31
0.0
  0
LINE
  5
326
100
AcDbEntity
  8
ALPHA
100
AcDbLine
 10
51.194068
 20
104.236626
 30
0.0
 11
52.494068
 21
105.136626
 31
0.0
  0
LINE
  5
327
100
AcDbEntity
  8
ALPHA
100
AcDbLine
 10
52.494068
 20
105.136626
 30
0.0
 11
52.494068
 21
108.436626
 31
0.0
  0
LINE
  5
328
100
AcDbEntity
  8
ALPHA
100
AcDbLine
 10
52.494068
 20
108.436626
 30
0.0
 11
54.619068
 21
108.436626
 31
0.0
  0
LINE
  5
329
100
AcDbEntity
  8
ALPHA
100
AcDbLine
 10
54.619068
 20
108.436626
 30
0.0
 11
54.619068
 21
106.436626
 31
0.0
  0
LINE
  5
32A
100
AcDbEntity
  8
ALPHA
100
AcDbLine
 10
54.619068
 20
106.436626
 30
0.0
 11
58.569068
 21
106.436626
 31
0.0
  0
LINE
  5
32B
100
AcDbEntity
  8
ALPHA
100
AcDbLine
 10
58.569068
 20
106.436626
 30
0.0
 11
58.569068
 21
108.436626
 31
0.0
  0
LINE
  5
32C
100
AcDbEntity
  8
ALPHA
100
AcDbLine
 10
58.569068
 20
108.436626
 30
0.0
 11
60.694068
 21
108.436626
 31
0.0
  0
LINE
  5
32D
100
AcDbEntity
  8
ALPHA
100
AcDbLine
 10
60.694068
 20
108.436626
 30
0.0
 11
60.694068
 21
105.136626
 31
0.0
  0
LINE
  5
32E
100
AcDbEntity
  8
ALPHA
100
AcDbLine
 10
60.694068
 20
105.136626
 30
0.0
 11
61.694068
 21
104.444318
 31
0.0
  0
LINE
  5
32F
100
AcDbEntity
  8
ALPHA
100
AcDbLine
 10
71.544068
 20
110.436626
 30
0.0
 11
71.544068
 21
108.436626
 31
0.0
  0
LINE
  5
330
100
AcDbEntity
  8
ALPHA
100
AcDbLine
 10
71.544068
 20
110.436626
 30
0.0
 11
71.494068
 21
110.436626
 31
0.0
  0
LINE
  5
331
100
AcDbEntity
  8
ALPHA
100
AcDbLine
 10
69.844068
 20
114.436626
 30
0.0
 11
69.978043
 21
113.936626
 31
0.0
  0
LINE
  5
332
100
AcDbEntity
  8
ALPHA
100
AcDbLine
 10
67.094068
 20
114.436626
 30
0.0
 11
69.844068
 21
114.436626
 31
0.0
  0
ARC
  5
333
100
AcDbEntity
  8
ALPHA
100
AcDbCircle
 10
65.594068
 20
116.436626
 30
0.0
 40
2.5
100
AcDbArc
 50
233.130102
 51
306.869898
  0
LINE
  5
334
100
AcDbEntity
  8
ALPHA
100
AcDbLine
 10
63.744068
 20
114.436626
 30
0.0
 11
64.094068
 21
114.436626
 31
0.0
  0
LINE
  5
335
100
AcDbEntity
  8
ALPHA
100
AcDbLine
 10
63.455393
 20
113.936626
 30
0.0
 11
63.744068
 21
114.436626
 31
0.0
  0
LINE
  5
336
100
AcDbEntity
  8
ALPHA
100
AcDbLine
 10
61.694068
 20
110.436626
 30
0.0
 11
60.394068
 21
110.436626
 31
0.0
  0
LINE
  5
337
100
AcDbEntity
  8
ALPHA
100
AcDbLine
 10
61.694068
 20
91.400912
 30
0.0
 11
60.594068
 21
90.536626
 31
0.0
  0
LINE
  5
338
100
AcDbEntity
  8
ALPHA
100
AcDbLine
 10
60.594068
 20
87.436626
 30
0.0
 11
60.594068
 21
90.536626
 31
0.0
  0
LINE
  5
339
100
AcDbEntity
  8
ALPHA
100
AcDbLine
 10
59.094068
 20
87.436626
 30
0.0
 11
60.594068
 21
87.436626
 31
0.0
  0
LINE
  5
33A
100
AcDbEntity
  8
ALPHA
100
AcDbLine
 10
59.094068
 20
85.836626
 30
0.0
 11
59.094068
 21
87.436626
 31
0.0
  0
LINE
  5
33B
100
AcDbEntity
  8
ALPHA
100
AcDbLine
 10
54.094068
 20
85.836626
 30
0.0
 11
59.094068
 21
85.836626
 31
0.0
  0
LINE
  5
33C
100
AcDbEntity
  8
ALPHA
100
AcDbLine
 10
54.094068
 20
87.436626
 30
0.0
 11
54.094068
 21
85.836626
 31
0.0
  0
LINE
  5
33D
100
AcDbEntity
  8
ALPHA
100
AcDbLine
 10
52.594068
 20
87.436626
 30
0.0
 11
54.094068
 21
87.436626
 31
0.0
  0
LINE
  5
33E
100
AcDbEntity
  8
ALPHA
100
AcDbLine
 10
52.594068
 20
90.536626
 30
0.0
 11
52.594068
 21
87.436626
 31
0.0
  0
LINE
  5
33F
100
AcDbEntity
  8
ALPHA
100
AcDbLine
 10
52.594068
 20
90.536626
 30
0.0
 11
51.194068
 21
91.636626
 31
0.0
  0
LINE
  5
340
100
AcDbEntity
  8
ALPHA
100
AcDbLine
 10
47.944068
 20
91.636626
 30
0.0
 11
51.194068
 21
91.636626
 31
0.0
  0
LINE
  5
341
100
AcDbEntity
  8
ALPHA
100
AcDbLine
 10
47.544068
 20
92.522199
 30
0.0
 11
47.544068
 21
92.036626
 31
0.0
  0
LINE
  5
342
100
AcDbEntity
  8
ALPHA
100
AcDbLine
 10
48.694068
 20
89.936626
 30
0.0
 11
44.769068
 21
89.936626
 31
0.0
  0
LINE
  5
343
100
AcDbEntity
  8
ALPHA
100
AcDbLine
 10
49.094068
 20
86.136626
 30
0.0
 11
49.094068
 21
89.536626
 31
0.0
  0
LINE
  5
344
100
AcDbEntity
  8
ALPHA
100
AcDbLine
 10
49.494068
 20
86.136626
 30
0.0
 11
49.094068
 21
86.136626
 31
0.0
  0
LINE
  5
345
100
AcDbEntity
  8
ALPHA
100
AcDbLine
 10
52.674885
 20
82.936626
 30
0.0
 11
49.494068
 21
82.936626
 31
0.0
  0
ARC
  5
346
100
AcDbEntity
  8
ALPHA
100
AcDbCircle
 10
56.594068
 20
77.136626
 30
0.0
 40
7.0
100
AcDbArc
 50
55.952268
 51
124.047732
  0
LINE
  5
347
100
AcDbEntity
  8
ALPHA
100
AcDbLine
 10
61.694068
 20
82.936626
 30
0.0
 11
60.513252
 21
82.936626
 31
0.0
  0
LINE
  5
348
100
AcDbEntity
  8
ALPHA
100
AcDbLine
 10
50.594068
 20
108.436626
 30
0.0
 11
48.594068
 21
108.436626
 31
0.0
  0
LINE
  5
349
100
AcDbEntity
  8
ALPHA
100
AcDbLine
 10
50.594068
 20
105.636626
 30
0.0
 11
50.594068
 21
108.436626
 31
0.0
  0
LINE
  5
34A
100
AcDbEntity
  8
ALPHA
100
AcDbLine
 10
48.594068
 20
105.636626
 30
0.0
 11
50.594068
 21
105.636626
 31
0.0
  0
LINE
  5
34B
100
AcDbEntity
  8
ALPHA
100
AcDbLine
 10
48.594068
 20
108.436626
 30
0.0
 11
48.594068
 21
105.636626
 31
0.0
  0
LINE
  5
34C
100
AcDbEntity
  8
ALPHA
100
AcDbLine
 10
50.494068
 20
111.036626
 30
0.0
 11
50.444068
 21
111.036626
 31
0.0
  0
LINE
  5
34D
100
AcDbEntity
  8
ALPHA
100
AcDbLine
 10
63.594068
 20
120.436626
 30
0.0
 11
63.594068
 21
118.595653
 31
0.0
  0
LINE
  5
34E
100
AcDbEntity
  8
ALPHA
100
AcDbLine
 10
69.594068
 20
120.436626
 30
0.0
 11
69.594068
 21
119.736626
 31
0.0
  0
LINE
  5
34F
100
AcDbEntity
  8
ALPHA
100
AcDbLine
 10
54.694068
 20
113.236626
 30
0.0
 11
54.444068
 21
112.986626
 31
0.0
  0
LINE
  5
350
100
AcDbEntity
  8
ALPHA
100
AcDbLine
 10
58.494068
 20
113.236626
 30
0.0
 11
58.744068
 21
112.986626
 31
0.0
  0
LINE
  5
351
100
AcDbEntity
  8
ALPHA
100
AcDbLine
 10
50.494068
 20
111.836626
 30
0.0
 11
50.494068
 21
113.336626
 31
0.0
  0
LINE
  5
352
100
AcDbEntity
  8
ALPHA
100
AcDbLine
 10
50.494068
 20
111.036626
 30
0.0
 11
50.494068
 21
111.836626
 31
0.0
  0
ARC
  5
353
100
AcDbEntity
  8
ALPHA
100
AcDbCircle
 10
64.094068
 20
120.436626
 30
0.0
 40
0.5
100
AcDbArc
 50
90.0
 51
180.0
  0
ARC
  5
354
100
AcDbEntity
  8
ALPHA
100
AcDbCircle
 10
69.094068
 20
120.436626
 30
0.0
 40
0.5
100
AcDbArc
 50
0.0
 51
90.0
  0
ARC
  5
355
100
AcDbEntity
  8
ALPHA
100
AcDbCircle
 10
69.094068
 20
119.736626
 30
0.0
 40
0.5
100
AcDbArc
 50
270.0
 51
0.0
  0
ARC
  5
356
100
AcDbEntity
  8
ALPHA
100
AcDbCircle
 10
65.958903
 20
118.936626
 30
0.0
 40
0.3
100
AcDbArc
 50
90.0
 51
172.874984
  0
LINE
  5
357
100
AcDbEntity
  8
ALPHA
100
AcDbLine
 10
47.719068
 20
95.736626
 30
0.0
 11
47.544068
 21
95.561626
 31
0.0
  0
ARC
  5
358
100
AcDbEntity
  8
ALPHA
100
AcDbCircle
 10
64.094068
 20
118.595653
 30
0.0
 40
0.5
100
AcDbArc
 50
180.0
 51
240.279376
  0
ARC
  5
359
100
AcDbEntity
  8
ALPHA
100
AcDbCircle
 10
63.921489
 20
116.517836
 30
0.0
 40
0.5
100
AcDbArc
 50
110.224667
 51
150.0
  0
LINE
  5
35A
100
AcDbEntity
  8
ALPHA
100
AcDbLine
 10
50.494068
 20
113.336626
 30
0.0
 11
50.494068
 21
111.836626
 31
0.0
  0
LINE
  5
35B
100
AcDbEntity
  8
ALPHA
100
AcDbLine
 10
50.494068
 20
113.336626
 30
0.0
 11
50.444068
 21
113.336626
 31
0.0
  0
LINE
  5
35C
100
AcDbEntity
  8
ALPHA
100
AcDbLine
 10
50.494068
 20
111.836626
 30
0.0
 11
50.444068
 21
111.836626
 31
0.0
  0
LINE
  5
35D
100
AcDbEntity
  8
ALPHA
100
AcDbLine
 10
61.852052
 20
113.933466
 30
0.0
 11
63.488476
 21
116.767836
 31
0.0
  0
LINE
  5
35E
100
AcDbEntity
  8
ALPHA
100
AcDbLine
 10
61.594068
 20
113.486626
 30
0.0
 11
61.694068
 21
113.659831
 31
0.0
  0
LINE
  5
35F
100
AcDbEntity
  8
ALPHA
100
AcDbLine
 10
61.594068
 20
113.486626
 30
0.0
 11
61.594068
 21
112.036626
 31
0.0
  0
LINE
  5
360
100
AcDbEntity
  8
ALPHA
100
AcDbLine
 10
61.594068
 20
112.036626
 30
0.0
 11
60.394068
 21
112.036626
 31
0.0
  0
LINE
  5
361
100
AcDbEntity
  8
ALPHA
100
AcDbLine
 10
58.744068
 20
112.611626
 30
0.0
 11
58.744068
 21
112.236626
 31
0.0
  0
LINE
  5
362
100
AcDbEntity
  8
ALPHA
100
AcDbLine
 10
58.744068
 20
112.986626
 30
0.0
 11
58.744068
 21
112.911626
 31
0.0
  0
LINE
  5
363
100
AcDbEntity
  8
ALPHA
100
AcDbLine
 10
54.444068
 20
112.611626
 30
0.0
 11
54.444068
 21
112.236626
 31
0.0
  0
LINE
  5
364
100
AcDbEntity
  8
ALPHA
100
AcDbLine
 10
54.444068
 20
112.986626
 30
0.0
 11
54.444068
 21
112.911626
 31
0.0
  0
LINE
  5
365
100
AcDbEntity
  8
ALPHA
100
AcDbLine
 10
51.994068
 20
112.036626
 30
0.0
 11
52.794068
 21
112.036626
 31
0.0
  0
LINE
  5
366
100
AcDbEntity
  8
ALPHA
100
AcDbLine
 10
51.994068
 20
112.036626
 30
0.0
 11
50.994068
 21
111.036626
 31
0.0
  0
LINE
  5
367
100
AcDbEntity
  8
ALPHA
100
AcDbLine
 10
50.994068
 20
111.036626
 30
0.0
 11
50.494068
 21
111.036626
 31
0.0
  0
LINE
  5
368
100
AcDbEntity
  8
ALPHA
100
AcDbLine
 10
47.719068
 20
95.736626
 30
0.0
 11
47.719068
 21
103.543708
 31
0.0
  0
ARC
  5
369
100
AcDbEntity
  8
ALPHA
100
AcDbCircle
 10
56.594068
 20
100.936626
 30
0.0
 40
9.25
100
AcDbArc
 50
130.528249
 51
149.419104
  0
ARC
  5
36A
100
AcDbEntity
  8
ALPHA
100
AcDbCircle
 10
56.594068
 20
100.936626
 30
0.0
 40
9.25
100
AcDbArc
 50
159.108836
 51
163.629549
  0
LINE
  5
36B
100
AcDbEntity
  8
ALPHA
100
AcDbLine
 10
65.194068
 20
113.979691
 30
0.0
 11
65.194068
 21
115.236626
 31
0.0
  0
LINE
  5
36C
100
AcDbEntity
  8
ALPHA
100
AcDbLine
 10
65.194068
 20
115.236626
 30
0.0
 11
65.66122
 21
118.973836
 31
0.0
  0
LINE
  5
36D
100
AcDbEntity
  8
ALPHA
100
AcDbLine
 10
69.094068
 20
119.236626
 30
0.0
 11
65.958903
 21
119.236626
 31
0.0
  0
LINE
  5
36E
100
AcDbEntity
  8
ALPHA
100
AcDbLine
 10
64.094068
 20
120.936626
 30
0.0
 11
69.094068
 21
120.936626
 31
0.0
  0
ARC
  5
36F
100
AcDbEntity
  8
ALPHA
100
AcDbCircle
 10
63.523931
 20
117.596932
 30
0.0
 40
0.65
100
AcDbArc
 50
290.224667
 51
60.279376
  0
LINE
  5
370
100
AcDbEntity
  8
ALPHA
100
AcDbLine
 10
71.494068
 20
84.636626
 30
0.0
 11
68.894068
 21
84.636626
 31
0.0
  0
ARC
  5
371
100
AcDbEntity
  8
ALPHA
100
AcDbCircle
 10
68.894068
 20
88.136626
 30
0.0
 40
3.5
100
AcDbArc
 50
228.918916
 51
270.0
  0
LINE
  5
372
100
AcDbEntity
  8
ALPHA
100
AcDbLine
 10
68.894068
 20
84.636626
 30
0.0
 11
68.894068
 21
85.136626
 31
0.0
  0
ARC
  5
373
100
AcDbEntity
  8
ALPHA
100
AcDbCircle
 10
64.294068
 20
88.136626
 30
0.0
 40
3.5
100
AcDbArc
 50
270.0
 51
311.091503
  0
LINE
  5
374
100
AcDbEntity
  8
ALPHA
100
AcDbLine
 10
62.694068
 20
95.136626
 30
0.0
 11
66.994068
 21
95.136626
 31
0.0
  0
LWPOLYLINE
  5
375
100
AcDbEntity
  8
ALPHA
100
AcDbPolyline
 90
        4
 70
     0
 43
0.0
 10
66.594491
 20
85.498813
 10
66.594068
 20
85.634954
 10
66.594068
 20
85.780494
 10
66.594068
 20
85.936626
  0
LINE
  5
37B
100
AcDbEntity
  8
ALPHA
100
AcDbLine
 10
64.294068
 20
84.636626
 30
0.0
 11
61.694068
 21
84.636626
 31
0.0
  0
LINE
  5
37C
100
AcDbEntity
  8
ALPHA
100
AcDbLine
 10
71.494068
 20
91.536626
 30
0.0
 11
62.694068
 21
91.536626
 31
0.0
  0
LINE
  5
37D
100
AcDbEntity
  8
ALPHA
100
AcDbLine
 10
64.294068
 20
84.636626
 30
0.0
 11
64.294068
 21
85.136626
 31
0.0
  0
LINE
  5
37E
100
AcDbEntity
  8
ALPHA
100
AcDbLine
 10
71.494068
 20
112.436626
 30
0.0
 11
62.694068
 21
112.436626
 31
0.0
  0
LINE
  5
37F
100
AcDbEntity
  8
ALPHA
100
AcDbLine
 10
71.494068
 20
83.436626
 30
0.0
 11
61.694068
 21
83.436626
 31
0.0
  0
LINE
  5
380
100
AcDbEntity
  8
ALPHA
100
AcDbLine
 10
62.694068
 20
91.786626
 30
0.0
 11
66.994068
 21
91.786626
 31
0.0
  0
LINE
  5
381
100
AcDbEntity
  8
ALPHA
100
AcDbLine
 10
70.494068
 20
87.486626
 30
0.0
 11
63.094068
 21
87.486626
 31
0.0
  0
LINE
  5
382
100
AcDbEntity
  8
ALPHA
100
AcDbLine
 10
63.494068
 20
88.636626
 30
0.0
 11
63.094068
 21
88.636626
 31
0.0
  0
LINE
  5
383
100
AcDbEntity
  8
ALPHA
100
AcDbLine
 10
68.524068
 20
88.636626
 30
0.0
 11
64.634068
 21
88.636626
 31
0.0
  0
LINE
  5
384
100
AcDbEntity
  8
ALPHA
100
AcDbLine
 10
70.494068
 20
88.636626
 30
0.0
 11
69.664068
 21
88.636626
 31
0.0
  0
LINE
  5
385
100
AcDbEntity
  8
ALPHA
100
AcDbLine
 10
64.294068
 20
85.136626
 30
0.0
 11
61.694068
 21
85.136626
 31
0.0
  0
LINE
  5
386
100
AcDbEntity
  8
ALPHA
100
AcDbLine
 10
62.694068
 20
92.786626
 30
0.0
 11
66.994068
 21
92.786626
 31
0.0
  0
LINE
  5
387
100
AcDbEntity
  8
ALPHA
100
AcDbLine
 10
62.694068
 20
94.736626
 30
0.0
 11
66.994068
 21
94.736626
 31
0.0
  0
LINE
  5
388
100
AcDbEntity
  8
ALPHA
100
AcDbLine
 10
71.494068
 20
91.536626
 30
0.0
 11
71.494068
 21
91.136626
 31
0.0
  0
LINE
  5
389
100
AcDbEntity
  8
ALPHA
100
AcDbLine
 10
71.494068
 20
91.136626
 30
0.0
 11
62.694068
 21
91.136626
 31
0.0
  0
LINE
  5
38A
100
AcDbEntity
  8
ALPHA
100
AcDbLine
 10
62.694068
 20
91.536626
 30
0.0
 11
62.694068
 21
91.136626
 31
0.0
  0
LINE
  5
38B
100
AcDbEntity
  8
ALPHA
100
AcDbLine
 10
71.494068
 20
85.136626
 30
0.0
 11
68.894068
 21
85.136626
 31
0.0
  0
LINE
  5
38C
100
AcDbEntity
  8
ALPHA
100
AcDbLine
 10
71.494068
 20
84.636626
 30
0.0
 11
71.494068
 21
85.136626
 31
0.0
  0
LINE
  5
38D
100
AcDbEntity
  8
ALPHA
100
AcDbLine
 10
66.594068
 20
85.936626
 30
0.0
 11
66.854461
 21
85.936626
 31
0.0
  0
ARC
  5
38E
100
AcDbEntity
  8
ALPHA
100
AcDbCircle
 10
68.894068
 20
88.136626
 30
0.0
 40
3.0
100
AcDbArc
 50
227.166572
 51
270.0
  0
ARC
  5
38F
100
AcDbEntity
  8
ALPHA
100
AcDbCircle
 10
64.294068
 20
88.136626
 30
0.0
 40
3.0
100
AcDbArc
 50
270.0
 51
312.833428
  0
LINE
  5
390
100
AcDbEntity
  8
ALPHA
100
AcDbLine
 10
66.594068
 20
85.936626
 30
0.0
 11
66.333676
 21
85.936626
 31
0.0
  0
LINE
  5
391
100
AcDbEntity
  8
ALPHA
100
AcDbLine
 10
70.494068
 20
87.486626
 30
0.0
 11
70.494068
 21
88.636626
 31
0.0
  0
LINE
  5
392
100
AcDbEntity
  8
ALPHA
100
AcDbLine
 10
62.694068
 20
95.136626
 30
0.0
 11
62.694068
 21
95.436626
 31
0.0
  0
LINE
  5
393
100
AcDbEntity
  8
ALPHA
100
AcDbLine
 10
62.694068
 20
91.536626
 30
0.0
 11
62.694068
 21
91.786626
 31
0.0
  0
LINE
  5
394
100
AcDbEntity
  8
ALPHA
100
AcDbLine
 10
62.694068
 20
89.036626
 30
0.0
 11
62.694068
 21
91.136626
 31
0.0
  0
LINE
  5
395
100
AcDbEntity
  8
ALPHA
100
AcDbLine
 10
62.694068
 20
85.136626
 30
0.0
 11
62.694068
 21
87.086626
 31
0.0
  0
LINE
  5
396
100
AcDbEntity
  8
ALPHA
100
AcDbLine
 10
62.694068
 20
112.436626
 30
0.0
 11
62.694068
 21
113.936626
 31
0.0
  0
LINE
  5
397
100
AcDbEntity
  8
ALPHA
100
AcDbLine
 10
62.694068
 20
100.436626
 30
0.0
 11
62.694068
 21
112.436626
 31
0.0
  0
LINE
  5
398
100
AcDbEntity
  8
ALPHA
100
AcDbLine
 10
64.994068
 20
88.636626
 30
0.0
 11
64.994068
 21
87.486626
 31
0.0
  0
LINE
  5
399
100
AcDbEntity
  8
ALPHA
100
AcDbLine
 10
61.694068
 20
84.636626
 30
0.0
 11
61.694068
 21
85.136626
 31
0.0
  0
LINE
  5
39A
100
AcDbEntity
  8
ALPHA
100
AcDbLine
 10
61.694068
 20
83.436626
 30
0.0
 11
61.694068
 21
84.636626
 31
0.0
  0
LINE
  5
39B
100
AcDbEntity
  8
ALPHA
100
AcDbLine
 10
61.694068
 20
81.936626
 30
0.0
 11
61.694068
 21
83.436626
 31
0.0
  0
LINE
  5
39C
100
AcDbEntity
  8
ALPHA
100
AcDbLine
 10
62.694068
 20
87.086626
 30
0.0
 11
63.094068
 21
87.486626
 31
0.0
  0
LINE
  5
39D
100
AcDbEntity
  8
ALPHA
100
AcDbLine
 10
71.494068
 20
113.936626
 30
0.0
 11
62.694068
 21
113.936626
 31
0.0
  0
LINE
  5
39E
100
AcDbEntity
  8
ALPHA
100
AcDbLine
 10
66.994068
 20
91.786626
 30
0.0
 11
66.994068
 21
95.136626
 31
0.0
  0
LINE
  5
39F
100
AcDbEntity
  8
ALPHA
100
AcDbLine
 10
62.73737
 20
100.411626
 30
0.0
 11
62.694068
 21
100.436626
 31
0.0
  0
LINE
  5
3A0
100
AcDbEntity
  8
ALPHA
100
AcDbLine
 10
64.23737
 20
99.5456
 30
0.0
 11
62.73737
 21
100.411626
 31
0.0
  0
LINE
  5
3A1
100
AcDbEntity
  8
ALPHA
100
AcDbLine
 10
64.394068
 20
99.45513
 30
0.0
 11
64.23737
 21
99.5456
 31
0.0
  0
LINE
  5
3A2
100
AcDbEntity
  8
ALPHA
100
AcDbLine
 10
64.394068
 20
96.418121
 30
0.0
 11
64.394068
 21
99.45513
 31
0.0
  0
LINE
  5
3A3
100
AcDbEntity
  8
ALPHA
100
AcDbLine
 10
64.23737
 20
96.327651
 30
0.0
 11
64.394068
 21
96.418121
 31
0.0
  0
LINE
  5
3A4
100
AcDbEntity
  8
ALPHA
100
AcDbLine
 10
62.73737
 20
95.461626
 30
0.0
 11
64.23737
 21
96.327651
 31
0.0
  0
LINE
  5
3A5
100
AcDbEntity
  8
ALPHA
100
AcDbLine
 10
62.694068
 20
95.436626
 30
0.0
 11
62.73737
 21
95.461626
 31
0.0
  0
LINE
  5
3A6
100
AcDbEntity
  8
ALPHA
100
AcDbLine
 10
71.494068
 20
81.936626
 30
0.0
 11
61.694068
 21
81.936626
 31
0.0
  0
LINE
  5
3A7
100
AcDbEntity
  8
ALPHA
100
AcDbLine
 10
62.694068
 20
89.036626
 30
0.0
 11
63.094068
 21
88.636626
 31
0.0
  0
LINE
  5
3A8
100
AcDbEntity
  8
ALPHA
100
AcDbLine
 10
71.494068
 20
83.436626
 30
0.0
 11
71.494068
 21
84.636626
 31
0.0
  0
LINE
  5
3A9
100
AcDbEntity
  8
ALPHA
100
AcDbLine
 10
71.494068
 20
81.936626
 30
0.0
 11
71.494068
 21
83.436626
 31
0.0
  0
LINE
  5
3AA
100
AcDbEntity
  8
ALPHA
100
AcDbLine
 10
71.494068
 20
112.436626
 30
0.0
 11
71.494068
 21
113.936626
 31
0.0
  0
LINE
  5
3AB
100
AcDbEntity
  8
ALPHA
100
AcDbLine
 10
71.494068
 20
91.536626
 30
0.0
 11
71.494068
 21
112.436626
 31
0.0
  0
LINE
  5
3AC
100
AcDbEntity
  8
ALPHA
100
AcDbLine
 10
71.494068
 20
85.136626
 30
0.0
 11
71.494068
 21
91.136626
 31
0.0
  0
LINE
  5
3AD
100
AcDbEntity
  8
ALPHA
100
AcDbLine
 10
62.694068
 20
91.536626
 30
0.0
 11
61.694068
 21
91.536626
 31
0.0
  0
LINE
  5
3AE
100
AcDbEntity
  8
ALPHA
100
AcDbLine
 10
62.694068
 20
112.433466
 30
0.0
 11
61.694068
 21
112.433466
 31
0.0
  0
LINE
  5
3AF
100
AcDbEntity
  8
ALPHA
100
AcDbLine
 10
62.694068
 20
91.536626
 30
0.0
 11
62.694068
 21
91.136626
 31
0.0
  0
LINE
  5
3B0
100
AcDbEntity
  8
ALPHA
100
AcDbLine
 10
62.694068
 20
91.136626
 30
0.0
 11
61.694068
 21
91.136626
 31
0.0
  0
LINE
  5
3B1
100
AcDbEntity
  8
ALPHA
100
AcDbLine
 10
61.694068
 20
91.536626
 30
0.0
 11
61.694068
 21
91.136626
 31
0.0
  0
LINE
  5
3B2
100
AcDbEntity
  8
ALPHA
100
AcDbLine
 10
62.694068
 20
113.933466
 30
0.0
 11
61.694068
 21
113.933466
 31
0.0
  0
LINE
  5
3B3
100
AcDbEntity
  8
ALPHA
100
AcDbLine
 10
64.194068
 20
96.402651
 30
0.0
 11
62.694068
 21
95.536626
 31
0.0
  0
LINE
  5
3B4
100
AcDbEntity
  8
ALPHA
100
AcDbLine
 10
64.194068
 20
99.4706
 30
0.0
 11
64.194068
 21
96.402651
 31
0.0
  0
LINE
  5
3B5
100
AcDbEntity
  8
ALPHA
100
AcDbLine
 10
62.694068
 20
100.336626
 30
0.0
 11
64.194068
 21
99.4706
 31
0.0
  0
LINE
  5
3B6
100
AcDbEntity
  8
ALPHA
100
AcDbLine
 10
62.694068
 20
81.933466
 30
0.0
 11
61.694068
 21
81.933466
 31
0.0
  0
LINE
  5
3B7
100
AcDbEntity
  8
ALPHA
100
AcDbLine
 10
61.694068
 20
91.536626
 30
0.0
 11
61.694068
 21
112.433466
 31
0.0
  0
LINE
  5
3B8
100
AcDbEntity
  8
ALPHA
100
AcDbLine
 10
61.694068
 20
113.933466
 30
0.0
 11
61.694068
 21
112.433466
 31
0.0
  0
LINE
  5
3B9
100
AcDbEntity
  8
ALPHA
100
AcDbLine
 10
61.694068
 20
91.136626
 30
0.0
 11
61.694068
 21
85.136626
 31
0.0
  0
LINE
  5
3BA
100
AcDbEntity
  8
ALPHA
100
AcDbLine
 10
62.694068
 20
113.933466
 30
0.0
 11
62.694068
 21
112.433466
 31
0.0
  0
LINE
  5
3BB
100
AcDbEntity
  8
ALPHA
100
AcDbLine
 10
62.694068
 20
100.436626
 30
0.0
 11
62.694068
 21
112.433466
 31
0.0
  0
LINE
  5
3BC
100
AcDbEntity
  8
ALPHA
100
AcDbLine
 10
62.694068
 20
100.336626
 30
0.0
 11
62.694068
 21
100.436626
 31
0.0
  0
LINE
  5
3BD
100
AcDbEntity
  8
ALPHA
100
AcDbLine
 10
62.694068
 20
95.436626
 30
0.0
 11
62.694068
 21
95.536626
 31
0.0
  0
LINE
  5
3BE
100
AcDbEntity
  8
ALPHA
100
AcDbLine
 10
62.694068
 20
95.136626
 30
0.0
 11
62.694068
 21
95.436626
 31
0.0
  0
LINE
  5
3BF
100
AcDbEntity
  8
ALPHA
100
AcDbLine
 10
62.694068
 20
94.736626
 30
0.0
 11
62.694068
 21
95.136626
 31
0.0
  0
LINE
  5
3C0
100
AcDbEntity
  8
ALPHA
100
AcDbLine
 10
62.694068
 20
92.786626
 30
0.0
 11
62.694068
 21
94.736626
 31
0.0
  0
LINE
  5
3C1
100
AcDbEntity
  8
ALPHA
100
AcDbLine
 10
62.694068
 20
91.786626
 30
0.0
 11
62.694068
 21
92.786626
 31
0.0
  0
LINE
  5
3C2
100
AcDbEntity
  8
ALPHA
100
AcDbLine
 10
62.694068
 20
91.536626
 30
0.0
 11
62.694068
 21
91.786626
 31
0.0
  0
LINE
  5
3C3
100
AcDbEntity
  8
ALPHA
100
AcDbLine
 10
62.694068
 20
87.086626
 30
0.0
 11
62.694068
 21
85.136626
 31
0.0
  0
LINE
  5
3C4
100
AcDbEntity
  8
ALPHA
100
AcDbLine
 10
62.694068
 20
89.036626
 30
0.0
 11
62.694068
 21
87.086626
 31
0.0
  0
LINE
  5
3C5
100
AcDbEntity
  8
ALPHA
100
AcDbLine
 10
62.694068
 20
91.136626
 30
0.0
 11
62.694068
 21
89.036626
 31
0.0
  0
LINE
  5
3C6
100
AcDbEntity
  8
ALPHA
100
AcDbLine
 10
64.334068
 20
87.936626
 30
0.0
 11
64.334068
 21
88.336626
 31
0.0
  0
LINE
  5
3C7
100
AcDbEntity
  8
ALPHA
100
AcDbLine
 10
64.334068
 20
87.936626
 30
0.0
 11
63.794068
 21
87.936626
 31
0.0
  0
LINE
  5
3C8
100
AcDbEntity
  8
ALPHA
100
AcDbLine
 10
64.334068
 20
87.936626
 30
0.0
 11
64.634068
 21
87.636626
 31
0.0
  0
LINE
  5
3C9
100
AcDbEntity
  8
ALPHA
100
AcDbLine
 10
63.794068
 20
87.936626
 30
0.0
 11
63.794068
 21
88.336626
 31
0.0
  0
LINE
  5
3CA
100
AcDbEntity
  8
ALPHA
100
AcDbLine
 10
63.494068
 20
87.636626
 30
0.0
 11
63.794068
 21
87.936626
 31
0.0
  0
LINE
  5
3CB
100
AcDbEntity
  8
ALPHA
100
AcDbLine
 10
64.634068
 20
88.636626
 30
0.0
 11
64.334068
 21
88.336626
 31
0.0
  0
LINE
  5
3CC
100
AcDbEntity
  8
ALPHA
100
AcDbLine
 10
64.334068
 20
88.336626
 30
0.0
 11
63.794068
 21
88.336626
 31
0.0
  0
LINE
  5
3CD
100
AcDbEntity
  8
ALPHA
100
AcDbLine
 10
63.494068
 20
88.636626
 30
0.0
 11
63.794068
 21
88.336626
 31
0.0
  0
LINE
  5
3CE
100
AcDbEntity
  8
ALPHA
100
AcDbLine
 10
64.634068
 20
87.636626
 30
0.0
 11
64.634068
 21
88.636626
 31
0.0
  0
LINE
  5
3CF
100
AcDbEntity
  8
ALPHA
100
AcDbLine
 10
64.634068
 20
87.636626
 30
0.0
 11
63.494068
 21
87.636626
 31
0.0
  0
LINE
  5
3D0
100
AcDbEntity
  8
ALPHA
100
AcDbLine
 10
63.494068
 20
87.636626
 30
0.0
 11
63.494068
 21
88.636626
 31
0.0
  0
LINE
  5
3D1
100
AcDbEntity
  8
ALPHA
100
AcDbLine
 10
64.994068
 20
87.636626
 30
0.0
 11
64.634068
 21
87.636626
 31
0.0
  0
LINE
  5
3D2
100
AcDbEntity
  8
ALPHA
100
AcDbLine
 10
64.634068
 20
88.636626
 30
0.0
 11
63.494068
 21
88.636626
 31
0.0
  0
LINE
  5
3D3
100
AcDbEntity
  8
ALPHA
100
AcDbLine
 10
71.544068
 20
110.736626
 30
0.0
 11
71.544068
 21
110.436626
 31
0.0
  0
LINE
  5
3D4
100
AcDbEntity
  8
ALPHA
100
AcDbLine
 10
71.544068
 20
110.736626
 30
0.0
 11
71.544068
 21
113.536626
 31
0.0
  0
LINE
  5
3D5
100
AcDbEntity
  8
ALPHA
100
AcDbLine
 10
71.544068
 20
113.536626
 30
0.0
 11
71.544068
 21
110.736626
 31
0.0
  0
LINE
  5
3D6
100
AcDbEntity
  8
ALPHA
100
AcDbLine
 10
71.544068
 20
113.536626
 30
0.0
 11
71.494068
 21
113.536626
 31
0.0
  0
LINE
  5
3D7
100
AcDbEntity
  8
ALPHA
100
AcDbLine
 10
71.544068
 20
110.736626
 30
0.0
 11
71.494068
 21
110.736626
 31
0.0
  0
LINE
  5
3D8
100
AcDbEntity
  8
ALPHA
100
AcDbLine
 10
68.824068
 20
87.936626
 30
0.0
 11
68.824068
 21
88.336626
 31
0.0
  0
LINE
  5
3D9
100
AcDbEntity
  8
ALPHA
100
AcDbLine
 10
69.364068
 20
87.936626
 30
0.0
 11
68.824068
 21
87.936626
 31
0.0
  0
LINE
  5
3DA
100
AcDbEntity
  8
ALPHA
100
AcDbLine
 10
69.364068
 20
87.936626
 30
0.0
 11
69.664068
 21
87.636626
 31
0.0
  0
LINE
  5
3DB
100
AcDbEntity
  8
ALPHA
100
AcDbLine
 10
69.364068
 20
88.336626
 30
0.0
 11
68.824068
 21
88.336626
 31
0.0
  0
LINE
  5
3DC
100
AcDbEntity
  8
ALPHA
100
AcDbLine
 10
68.524068
 20
88.636626
 30
0.0
 11
68.824068
 21
88.336626
 31
0.0
  0
LINE
  5
3DD
100
AcDbEntity
  8
ALPHA
100
AcDbLine
 10
68.824068
 20
87.936626
 30
0.0
 11
68.524068
 21
87.636626
 31
0.0
  0
LINE
  5
3DE
100
AcDbEntity
  8
ALPHA
100
AcDbLine
 10
69.364068
 20
87.936626
 30
0.0
 11
69.364068
 21
88.336626
 31
0.0
  0
LINE
  5
3DF
100
AcDbEntity
  8
ALPHA
100
AcDbLine
 10
69.364068
 20
88.336626
 30
0.0
 11
69.664068
 21
88.636626
 31
0.0
  0
LINE
  5
3E0
100
AcDbEntity
  8
ALPHA
100
AcDbLine
 10
68.524068
 20
87.636626
 30
0.0
 11
68.524068
 21
88.636626
 31
0.0
  0
LINE
  5
3E1
100
AcDbEntity
  8
ALPHA
100
AcDbLine
 10
69.664068
 20
88.636626
 30
0.0
 11
68.524068
 21
88.636626
 31
0.0
  0
LINE
  5
3E2
100
AcDbEntity
  8
ALPHA
100
AcDbLine
 10
69.664068
 20
87.636626
 30
0.0
 11
69.664068
 21
88.636626
 31
0.0
  0
LINE
  5
3E3
100
AcDbEntity
  8
ALPHA
100
AcDbLine
 10
70.494068
 20
87.636626
 30
0.0
 11
69.664068
 21
87.636626
 31
0.0
  0
LINE
  5
3E4
100
AcDbEntity
  8
ALPHA
100
AcDbLine
 10
69.664068
 20
87.636626
 30
0.0
 11
68.524068
 21
87.636626
 31
0.0
  0
LINE
  5
3E5
100
AcDbEntity
  8
ALPHA
100
AcDbLine
 10
53.378516
 20
77.920172
 30
0.0
 11
53.020292
 21
78.243437
 31
0.0
  0
LINE
  5
3E6
100
AcDbEntity
  8
ALPHA
100
AcDbLine
 10
52.344068
 20
80.085808
 30
0.0
 11
52.868922
 21
79.94731
 31
0.0
  0
LINE
  5
3E7
100
AcDbEntity
  8
ALPHA
100
AcDbLine
 10
60.319214
 20
79.94731
 30
0.0
 11
60.844068
 21
80.085808
 31
0.0
  0
LINE
  5
3E8
100
AcDbEntity
  8
ALPHA
100
AcDbLine
 10
53.020292
 20
78.243437
 30
0.0
 11
52.868922
 21
79.94731
 31
0.0
  0
LINE
  5
3E9
100
AcDbEntity
  8
ALPHA
100
AcDbLine
 10
60.138774
 20
77.9162
 30
0.0
 11
60.132242
 21
77.842671
 31
0.0
  0
LINE
  5
3EA
100
AcDbEntity
  8
ALPHA
100
AcDbLine
 10
60.319214
 20
79.94731
 30
0.0
 11
60.138774
 21
77.9162
 31
0.0
  0
LWPOLYLINE
  5
3EB
100
AcDbEntity
  8
ALPHA
100
AcDbPolyline
 90
        3
 70
     0
 43
0.0
 10
57.140603
 20
79.378937
 10
57.123568
 20
79.380152
 10
57.106729
 20
79.381341
  0
LINE
  5
3F0
100
AcDbEntity
  8
ALPHA
100
AcDbLine
 10
57.254068
 20
79.381341
 30
0.0
 11
57.106729
 21
79.381341
 31
0.0
  0
LINE
  5
3F1
100
AcDbEntity
  8
ALPHA
100
AcDbLine
 10
56.224068
 20
79.2277
 30
0.0
 11
55.492934
 21
79.2277
 31
0.0
  0
LINE
  5
3F2
100
AcDbEntity
  8
ALPHA
100
AcDbLine
 10
55.492934
 20
79.2277
 30
0.0
 11
55.492934
 21
79.956458
 31
0.0
  0
LINE
  5
3F3
100
AcDbEntity
  8
ALPHA
100
AcDbLine
 10
57.695203
 20
79.2277
 30
0.0
 11
57.254068
 21
79.381341
 31
0.0
  0
LINE
  5
3F4
100
AcDbEntity
  8
ALPHA
100
AcDbLine
 10
55.934068
 20
79.381341
 30
0.0
 11
55.492934
 21
79.2277
 31
0.0
  0
LINE
  5
3F5
100
AcDbEntity
  8
ALPHA
100
AcDbLine
 10
56.081408
 20
79.381341
 30
0.0
 11
55.934068
 21
79.381341
 31
0.0
  0
LWPOLYLINE
  5
3F6
100
AcDbEntity
  8
ALPHA
100
AcDbPolyline
 90
        3
 70
     0
 43
0.0
 10
56.081408
 20
79.381341
 10
56.064571
 20
79.380152
 10
56.047534
 20
79.378937
  0
LINE
  5
3FB
100
AcDbEntity
  8
ALPHA
100
AcDbLine
 10
56.003007
 20
81.472017
 30
0.0
 11
56.003007
 21
80.133724
 31
0.0
  0
LWPOLYLINE
  5
3FC
100
AcDbEntity
  8
ALPHA
100
AcDbPolyline
 90
       15
 70
     0
 43
0.0
 10
58.742016
 20
80.133724
 10
58.584383
 20
80.499977
 10
58.36177
 20
80.834168
 10
58.082178
 20
81.123499
 10
57.754373
 20
81.358946
 10
57.389098
 20
81.532755
 10
56.998113
 20
81.639344
 10
56.594068
 20
81.67526
 10
56.190024
 20
81.639344
 10
55.799038
 20
81.532755
 10
55.433764
 20
81.358946
 10
55.105959
 20
81.123499
 10
54.826367
 20
80.834168
 10
54.603754
 20
80.499977
 10
54.446121
 20
80.133724
  0
LINE
  5
40D
100
AcDbEntity
  8
ALPHA
100
AcDbLine
 10
57.113684
 20
79.393874
 30
0.0
 11
57.106729
 21
79.381341
 31
0.0
  0
LWPOLYLINE
  5
40E
100
AcDbEntity
  8
ALPHA
100
AcDbPolyline
 90
        5
 70
     0
 43
0.0
 10
57.18685
 20
79.956458
 10
57.221368
 20
79.823364
 10
57.221368
 20
79.668075
 10
57.182346
 20
79.517614
 10
57.113684
 20
79.393874
  0
LINE
  5
415
100
AcDbEntity
  8
ALPHA
100
AcDbLine
 10
57.254068
 20
79.956458
 30
0.0
 11
57.254068
 21
79.381341
 31
0.0
  0
LWPOLYLINE
  5
416
100
AcDbEntity
  8
ALPHA
100
AcDbPolyline
 90
        5
 70
     0
 43
0.0
 10
56.074453
 20
79.393874
 10
56.00579
 20
79.517614
 10
55.966769
 20
79.668075
 10
55.966769
 20
79.823364
 10
56.001286
 20
79.956458
  0
LINE
  5
41D
100
AcDbEntity
  8
ALPHA
100
AcDbLine
 10
56.081408
 20
79.381341
 30
0.0
 11
56.074453
 21
79.393874
 31
0.0
  0
LINE
  5
41E
100
AcDbEntity
  8
ALPHA
100
AcDbLine
 10
55.934068
 20
79.956458
 30
0.0
 11
55.934068
 21
79.381341
 31
0.0
  0
LINE
  5
41F
100
AcDbEntity
  8
ALPHA
100
AcDbLine
 10
56.224068
 20
79.095746
 30
0.0
 11
56.964068
 21
79.095746
 31
0.0
  0
LINE
  5
420
100
AcDbEntity
  8
ALPHA
100
AcDbLine
 10
56.964068
 20
78.507673
 30
0.0
 11
56.224068
 21
78.507673
 31
0.0
  0
LWPOLYLINE
  5
421
100
AcDbEntity
  8
ALPHA
100
AcDbPolyline
 90
        4
 70
     0
 43
0.0
 10
56.594068
 20
79.12309
 10
56.462878
 20
79.136642
 10
56.337994
 20
79.176447
 10
56.229701
 20
79.237664
  0
LWPOLYLINE
  5
427
100
AcDbEntity
  8
ALPHA
100
AcDbPolyline
 90
        4
 70
     0
 43
0.0
 10
56.958436
 20
79.237664
 10
56.850143
 20
79.176447
 10
56.725259
 20
79.136642
 10
56.594068
 20
79.12309
  0
LINE
  5
42D
100
AcDbEntity
  8
ALPHA
100
AcDbLine
 10
56.964068
 20
79.240848
 30
0.0
 11
56.958436
 21
79.237664
 31
0.0
  0
LINE
  5
42E
100
AcDbEntity
  8
ALPHA
100
AcDbLine
 10
56.224068
 20
80.395693
 30
0.0
 11
56.964068
 21
80.395693
 31
0.0
  0
LWPOLYLINE
  5
42F
100
AcDbEntity
  8
ALPHA
100
AcDbPolyline
 90
        4
 70
     0
 43
0.0
 10
56.224068
 20
80.250592
 10
56.337994
 20
80.314992
 10
56.462878
 20
80.354798
 10
56.594068
 20
80.368349
  0
LWPOLYLINE
  5
435
100
AcDbEntity
  8
ALPHA
100
AcDbPolyline
 90
        4
 70
     0
 43
0.0
 10
56.594068
 20
80.368349
 10
56.725259
 20
80.354798
 10
56.850143
 20
80.314992
 10
56.964068
 20
80.250592
  0
LINE
  5
43B
100
AcDbEntity
  8
ALPHA
100
AcDbLine
 10
56.964068
 20
80.676485
 30
0.0
 11
56.224068
 21
80.676485
 31
0.0
  0
LINE
  5
43C
100
AcDbEntity
  8
ALPHA
100
AcDbLine
 10
56.003007
 20
78.772598
 30
0.0
 11
56.003007
 21
77.434305
 31
0.0
  0
LINE
  5
43D
100
AcDbEntity
  8
ALPHA
100
AcDbLine
 10
57.695203
 20
79.2277
 30
0.0
 11
57.695203
 21
79.956458
 31
0.0
  0
LINE
  5
43E
100
AcDbEntity
  8
ALPHA
100
AcDbLine
 10
57.044068
 20
77.573223
 30
0.0
 11
57.18513
 21
77.434305
 31
0.0
  0
LINE
  5
43F
100
AcDbEntity
  8
ALPHA
100
AcDbLine
 10
57.18513
 20
77.434305
 30
0.0
 11
56.003007
 21
77.434305
 31
0.0
  0
LINE
  5
440
100
AcDbEntity
  8
ALPHA
100
AcDbLine
 10
56.003007
 20
77.434305
 30
0.0
 11
56.144068
 21
77.573223
 31
0.0
  0
LINE
  5
441
100
AcDbEntity
  8
ALPHA
100
AcDbLine
 10
57.695203
 20
79.2277
 30
0.0
 11
56.964068
 21
79.2277
 31
0.0
  0
LINE
  5
442
100
AcDbEntity
  8
ALPHA
100
AcDbLine
 10
54.446121
 20
78.772598
 30
0.0
 11
56.003007
 21
78.772598
 31
0.0
  0
LWPOLYLINE
  5
443
100
AcDbEntity
  8
ALPHA
100
AcDbPolyline
 90
        3
 70
     0
 43
0.0
 10
54.375551
 20
78.252137
 10
54.25971
 20
78.477269
 10
54.120997
 20
78.867706
  0
LWPOLYLINE
  5
448
100
AcDbEntity
  8
ALPHA
100
AcDbPolyline
 90
        7
 70
     0
 43
0.0
 10
59.067139
 20
78.867706
 10
59.04791
 20
78.842707
 10
59.010458
 20
78.819432
 10
58.958438
 20
78.800085
 10
58.894366
 20
78.785315
 10
58.820001
 20
78.775806
 10
58.742016
 20
78.772598
  0
LWPOLYLINE
  5
451
100
AcDbEntity
  8
ALPHA
100
AcDbPolyline
 90
       15
 70
     0
 43
0.0
 10
54.446121
 20
78.772598
 10
54.603754
 20
78.406345
 10
54.826367
 20
78.072153
 10
55.105959
 20
77.782822
 10
55.433764
 20
77.547376
 10
55.799038
 20
77.373566
 10
56.190024
 20
77.266977
 10
56.594068
 20
77.231061
 10
56.998113
 20
77.266977
 10
57.389098
 20
77.373566
 10
57.754373
 20
77.547376
 10
58.082178
 20
77.782822
 10
58.36177
 20
78.072153
 10
58.584383
 20
78.406345
 10
58.742016
 20
78.772598
  0
LWPOLYLINE
  5
462
100
AcDbEntity
  8
ALPHA
100
AcDbPolyline
 90
        7
 70
     0
 43
0.0
 10
54.446121
 20
78.772598
 10
54.368136
 20
78.775806
 10
54.29377
 20
78.785315
 10
54.229698
 20
78.800085
 10
54.177679
 20
78.819432
 10
54.140227
 20
78.842707
 10
54.120997
 20
78.867706
  0
LINE
  5
46B
100
AcDbEntity
  8
ALPHA
100
AcDbLine
 10
57.18513
 20
81.472017
 30
0.0
 11
57.18513
 21
80.133724
 31
0.0
  0
LWPOLYLINE
  5
46C
100
AcDbEntity
  8
ALPHA
100
AcDbPolyline
 90
        3
 70
     0
 43
0.0
 10
58.812586
 20
78.252137
 10
58.928427
 20
78.477269
 10
59.067139
 20
78.867706
  0
LINE
  5
471
100
AcDbEntity
  8
ALPHA
100
AcDbLine
 10
57.18513
 20
78.772598
 30
0.0
 11
58.742016
 21
78.772598
 31
0.0
  0
LWPOLYLINE
  5
472
100
AcDbEntity
  8
ALPHA
100
AcDbPolyline
 90
        3
 70
     0
 43
0.0
 10
59.136528
 20
79.050435
 10
59.102186
 20
78.958515
 10
59.067139
 20
78.867706
  0
LINE
  5
477
100
AcDbEntity
  8
ALPHA
100
AcDbLine
 10
57.044068
 20
79.050435
 30
0.0
 11
59.136528
 21
79.050435
 31
0.0
  0
LINE
  5
478
100
AcDbEntity
  8
ALPHA
100
AcDbLine
 10
57.044068
 20
79.050435
 30
0.0
 11
57.18513
 21
78.772598
 31
0.0
  0
LINE
  5
479
100
AcDbEntity
  8
ALPHA
100
AcDbLine
 10
54.051609
 20
79.050435
 30
0.0
 11
56.144068
 21
79.050435
 31
0.0
  0
LWPOLYLINE
  5
47A
100
AcDbEntity
  8
ALPHA
100
AcDbPolyline
 90
        3
 70
     0
 43
0.0
 10
54.120997
 20
78.867706
 10
54.085952
 20
78.958512
 10
54.051609
 20
79.050435
  0
LINE
  5
47F
100
AcDbEntity
  8
ALPHA
100
AcDbLine
 10
56.144068
 20
79.050435
 30
0.0
 11
56.003007
 21
78.772598
 31
0.0
  0
LINE
  5
480
100
AcDbEntity
  8
ALPHA
100
AcDbLine
 10
56.144068
 20
81.472017
 30
0.0
 11
56.144068
 21
80.133724
 31
0.0
  0
LINE
  5
481
100
AcDbEntity
  8
ALPHA
100
AcDbLine
 10
57.18513
 20
78.772598
 30
0.0
 11
57.18513
 21
77.434305
 31
0.0
  0
LWPOLYLINE
  5
482
100
AcDbEntity
  8
ALPHA
100
AcDbPolyline
 90
        4
 70
     0
 43
0.0
 10
54.051609
 20
79.050435
 10
53.999363
 20
79.410208
 10
53.999363
 20
79.773951
 10
54.051609
 20
80.133724
  0
LINE
  5
488
100
AcDbEntity
  8
ALPHA
100
AcDbLine
 10
56.144068
 20
79.050435
 30
0.0
 11
56.144068
 21
77.573223
 31
0.0
  0
LINE
  5
489
100
AcDbEntity
  8
ALPHA
100
AcDbLine
 10
56.144068
 20
77.573223
 30
0.0
 11
57.044068
 21
77.573223
 31
0.0
  0
LINE
  5
48A
100
AcDbEntity
  8
ALPHA
100
AcDbLine
 10
57.044068
 20
79.050435
 30
0.0
 11
57.044068
 21
77.573223
 31
0.0
  0
LWPOLYLINE
  5
48B
100
AcDbEntity
  8
ALPHA
100
AcDbPolyline
 90
        4
 70
     0
 43
0.0
 10
59.136528
 20
80.133724
 10
59.188774
 20
79.773951
 10
59.188774
 20
79.410208
 10
59.136528
 20
79.050435
  0
LWPOLYLINE
  5
491
100
AcDbEntity
  8
ALPHA
100
AcDbPolyline
 90
        9
 70
     0
 43
0.0
 10
59.067139
 20
80.133724
 10
58.928427
 20
80.524161
 10
58.72664
 20
80.886944
 10
58.46723
 20
81.212272
 10
58.157206
 20
81.491352
 10
57.804946
 20
81.716645
 10
57.419968
 20
81.882062
 10
57.012674
 20
81.983135
 10
56.594068
 20
82.017132
  0
LINE
  5
49C
100
AcDbEntity
  8
ALPHA
100
AcDbLine
 10
57.044068
 20
81.472017
 30
0.0
 11
57.044068
 21
80.133724
 31
0.0
  0
LWPOLYLINE
  5
49D
100
AcDbEntity
  8
ALPHA
100
AcDbPolyline
 90
        9
 70
     0
 43
0.0
 10
54.120997
 20
80.133724
 10
54.25971
 20
80.524161
 10
54.461497
 20
80.886944
 10
54.720907
 20
81.212272
 10
55.030931
 20
81.491352
 10
55.383191
 20
81.716645
 10
55.768169
 20
81.882062
 10
56.175463
 20
81.983135
 10
56.594068
 20
82.017132
  0
LINE
  5
4A8
100
AcDbEntity
  8
ALPHA
100
AcDbLine
 10
57.106729
 20
79.378937
 30
0.0
 11
57.140603
 21
79.378937
 31
0.0
  0
LINE
  5
4A9
100
AcDbEntity
  8
ALPHA
100
AcDbLine
 10
56.964068
 20
79.378937
 30
0.0
 11
57.106729
 21
79.378937
 31
0.0
  0
LINE
  5
4AA
100
AcDbEntity
  8
ALPHA
100
AcDbLine
 10
56.081408
 20
79.378937
 30
0.0
 11
56.224068
 21
79.378937
 31
0.0
  0
LINE
  5
4AB
100
AcDbEntity
  8
ALPHA
100
AcDbLine
 10
56.047534
 20
79.378937
 30
0.0
 11
56.081408
 21
79.378937
 31
0.0
  0
LINE
  5
4AC
100
AcDbEntity
  8
ALPHA
100
AcDbLine
 10
56.964068
 20
79.240848
 30
0.0
 11
56.964068
 21
79.2277
 31
0.0
  0
LINE
  5
4AD
100
AcDbEntity
  8
ALPHA
100
AcDbLine
 10
56.964068
 20
79.378937
 30
0.0
 11
56.964068
 21
79.240848
 31
0.0
  0
LINE
  5
4AE
100
AcDbEntity
  8
ALPHA
100
AcDbLine
 10
56.003007
 20
81.472017
 30
0.0
 11
57.18513
 21
81.472017
 31
0.0
  0
LINE
  5
4AF
100
AcDbEntity
  8
ALPHA
100
AcDbLine
 10
54.375551
 20
78.252137
 30
0.0
 11
54.206453
 21
78.543535
 31
0.0
  0
LWPOLYLINE
  5
4B0
100
AcDbEntity
  8
ALPHA
100
AcDbPolyline
 90
        9
 70
     0
 43
0.0
 10
53.878669
 20
80.233255
 10
53.896909
 20
80.415629
 10
54.0534
 20
80.923673
 10
54.307527
 20
81.391888
 10
54.649525
 20
81.802283
 10
55.06625
 20
82.139085
 10
55.541689
 20
82.389351
 10
56.05757
 20
82.543465
 10
56.594068
 20
82.595502
  0
LWPOLYLINE
  5
4BB
100
AcDbEntity
  8
ALPHA
100
AcDbPolyline
 90
        5
 70
     0
 43
0.0
 10
54.206637
 20
78.543378
 10
54.0534
 20
78.85089
 10
53.896909
 20
79.358933
 10
53.844068
 20
79.887281
 10
53.878669
 20
80.233255
  0
LINE
  5
4C2
100
AcDbEntity
  8
ALPHA
100
AcDbLine
 10
56.224068
 20
79.240848
 30
0.0
 11
56.224068
 21
79.2277
 31
0.0
  0
LINE
  5
4C3
100
AcDbEntity
  8
ALPHA
100
AcDbLine
 10
56.224068
 20
79.378937
 30
0.0
 11
56.224068
 21
79.240848
 31
0.0
  0
LINE
  5
4C4
100
AcDbEntity
  8
ALPHA
100
AcDbLine
 10
58.812586
 20
78.252137
 30
0.0
 11
58.981684
 21
78.543535
 31
0.0
  0
LWPOLYLINE
  5
4C5
100
AcDbEntity
  8
ALPHA
100
AcDbPolyline
 90
        9
 70
     0
 43
0.0
 10
59.309467
 20
80.233255
 10
59.291228
 20
80.415629
 10
59.134737
 20
80.923673
 10
58.88061
 20
81.391888
 10
58.538612
 20
81.802283
 10
58.121887
 20
82.139085
 10
57.646448
 20
82.389351
 10
57.130567
 20
82.543465
 10
56.594068
 20
82.595502
  0
LWPOLYLINE
  5
4D0
100
AcDbEntity
  8
ALPHA
100
AcDbPolyline
 90
        5
 70
     0
 43
0.0
 10
58.9815
 20
78.543378
 10
59.134737
 20
78.85089
 10
59.291228
 20
79.358933
 10
59.344068
 20
79.887281
 10
59.309467
 20
80.233255
  0
LWPOLYLINE
  5
4D7
100
AcDbEntity
  8
ALPHA
100
AcDbPolyline
 90
       13
 70
     0
 43
0.0
 10
58.81245
 20
78.251902
 10
58.626918
 20
77.975998
 10
58.304645
 20
77.630982
 10
57.923096
 20
77.350782
 10
57.495367
 20
77.145106
 10
57.036426
 20
77.021201
 10
56.562112
 20
76.983353
 10
56.088981
 20
77.032873
 10
55.633469
 20
77.167984
 10
55.21128
 20
77.38397
 10
54.837152
 20
77.67318
 10
54.523763
 20
78.025716
 10
54.375625
 20
78.252008
  0
LINE
  5
4E6
100
AcDbEntity
  8
ALPHA
100
AcDbLine
 10
56.224068
 20
79.956458
 30
0.0
 11
55.492934
 21
79.956458
 31
0.0
  0
LINE
  5
4E7
100
AcDbEntity
  8
ALPHA
100
AcDbLine
 10
56.224068
 20
80.676485
 30
0.0
 11
56.224068
 21
79.956458
 31
0.0
  0
LINE
  5
4E8
100
AcDbEntity
  8
ALPHA
100
AcDbLine
 10
56.964068
 20
79.956458
 30
0.0
 11
56.964068
 21
80.676485
 31
0.0
  0
LINE
  5
4E9
100
AcDbEntity
  8
ALPHA
100
AcDbLine
 10
57.695203
 20
79.956458
 30
0.0
 11
56.964068
 21
79.956458
 31
0.0
  0
LINE
  5
4EA
100
AcDbEntity
  8
ALPHA
100
AcDbLine
 10
56.964068
 20
78.507673
 30
0.0
 11
56.964068
 21
79.2277
 31
0.0
  0
LINE
  5
4EB
100
AcDbEntity
  8
ALPHA
100
AcDbLine
 10
56.224068
 20
79.2277
 30
0.0
 11
56.224068
 21
78.507673
 31
0.0
  0
LINE
  5
4EC
100
AcDbEntity
  8
ALPHA
100
AcDbLine
 10
59.067139
 20
80.133724
 30
0.0
 11
59.136528
 21
80.133724
 31
0.0
  0
LINE
  5
4ED
100
AcDbEntity
  8
ALPHA
100
AcDbLine
 10
57.18513
 20
80.133724
 30
0.0
 11
57.044068
 21
80.133724
 31
0.0
  0
LINE
  5
4EE
100
AcDbEntity
  8
ALPHA
100
AcDbLine
 10
54.051609
 20
80.133724
 30
0.0
 11
54.120997
 21
80.133724
 31
0.0
  0
LINE
  5
4EF
100
AcDbEntity
  8
ALPHA
100
AcDbLine
 10
56.003007
 20
80.133724
 30
0.0
 11
56.144068
 21
80.133724
 31
0.0
  0
LINE
  5
4F0
100
AcDbEntity
  8
ALPHA
100
AcDbLine
 10
58.742016
 20
80.133724
 30
0.0
 11
59.067139
 21
80.133724
 31
0.0
  0
LINE
  5
4F1
100
AcDbEntity
  8
ALPHA
100
AcDbLine
 10
54.120997
 20
80.133724
 30
0.0
 11
54.446121
 21
80.133724
 31
0.0
  0
LINE
  5
4F2
100
AcDbEntity
  8
ALPHA
100
AcDbLine
 10
57.18513
 20
80.133724
 30
0.0
 11
58.742016
 21
80.133724
 31
0.0
  0
LINE
  5
4F3
100
AcDbEntity
  8
ALPHA
100
AcDbLine
 10
54.446121
 20
80.133724
 30
0.0
 11
56.003007
 21
80.133724
 31
0.0
  0
LINE
  5
4F4
100
AcDbEntity
  8
ALPHA
100
AcDbLine
 10
63.844068
 20
99.672673
 30
0.0
 11
63.844068
 21
99.772673
 31
0.0
  0
LINE
  5
4F5
100
AcDbEntity
  8
ALPHA
100
AcDbLine
 10
63.844068
 20
96.100579
 30
0.0
 11
63.844068
 21
96.200579
 31
0.0
  0
LINE
  5
4F6
100
AcDbEntity
  8
ALPHA
100
AcDbLine
 10
62.953876
 20
95.586626
 30
0.0
 11
62.844068
 21
95.586626
 31
0.0
  0
LINE
  5
4F7
100
AcDbEntity
  8
ALPHA
100
AcDbLine
 10
62.953876
 20
100.286626
 30
0.0
 11
62.844068
 21
100.286626
 31
0.0
  0
LINE
  5
4F8
100
AcDbEntity
  8
ALPHA
100
AcDbLine
 10
62.844068
 20
100.250023
 30
0.0
 11
62.844068
 21
100.286626
 31
0.0
  0
LINE
  5
4F9
100
AcDbEntity
  8
ALPHA
100
AcDbLine
 10
62.844068
 20
95.586626
 30
0.0
 11
62.844068
 21
95.623228
 31
0.0
  0
LINE
  5
4FA
100
AcDbEntity
  8
ALPHA
100
AcDbLine
 10
64.359296
 20
98.141086
 30
0.0
 11
64.346894
 21
97.956607
 31
0.0
  0
LWPOLYLINE
  5
4FB
100
AcDbEntity
  8
ALPHA
100
AcDbPolyline
 90
        3
 70
     0
 43
0.0
 10
64.367269
 20
98.258665
 10
64.367171
 20
98.258225
 10
64.359296
 20
98.141086
  0
LWPOLYLINE
  5
500
100
AcDbEntity
  8
ALPHA
100
AcDbPolyline
 90
        5
 70
     0
 43
0.0
 10
64.394068
 20
98.389255
 10
64.378414
 20
98.328259
 10
64.344633
 20
97.987043
 10
64.363092
 20
97.644661
 10
64.394068
 20
97.496716
  0
LINE
  5
507
100
AcDbEntity
  8
ALPHA
100
AcDbLine
 10
64.389104
 20
97.519796
 30
0.0
 11
64.394068
 21
97.493923
 31
0.0
  0
LWPOLYLINE
  5
508
100
AcDbEntity
  8
ALPHA
100
AcDbPolyline
 90
        5
 70
     0
 43
0.0
 10
64.394068
 20
98.390267
 10
64.378576
 20
98.329174
 10
64.34504
 20
98.002737
 10
64.359343
 20
97.674893
 10
64.389104
 20
97.519796
  0
LINE
  5
50F
100
AcDbEntity
  8
ALPHA
100
AcDbLine
 10
64.389133
 20
97.519639
 30
0.0
 11
64.394068
 21
97.493938
 31
0.0
  0
LINE
  5
510
100
AcDbEntity
  8
ALPHA
100
AcDbLine
 10
64.362419
 20
98.171915
 30
0.0
 11
64.345678
 21
98.008727
 31
0.0
  0
LWPOLYLINE
  5
511
100
AcDbEntity
  8
ALPHA
100
AcDbPolyline
 90
        3
 70
     0
 43
0.0
 10
64.380079
 20
98.335008
 10
64.37852
 20
98.328859
 10
64.362419
 20
98.171915
  0
LINE
  5
516
100
AcDbEntity
  8
ALPHA
100
AcDbLine
 10
64.387999
 20
97.525726
 30
0.0
 11
64.394068
 21
97.493133
 31
0.0
  0
LWPOLYLINE
  5
517
100
AcDbEntity
  8
ALPHA
100
AcDbPolyline
 90
        5
 70
     0
 43
0.0
 10
64.394068
 20
98.392607
 10
64.380762
 20
98.341315
 10
64.345436
 20
98.015066
 10
64.357942
 20
97.687149
 10
64.387999
 20
97.525726
  0
LINE
  5
51E
100
AcDbEntity
  8
ALPHA
100
AcDbLine
 10
64.387999
 20
97.525726
 30
0.0
 11
64.394068
 21
97.493159
 31
0.0
  0
LWPOLYLINE
  5
51F
100
AcDbEntity
  8
ALPHA
100
AcDbPolyline
 90
        5
 70
     0
 43
0.0
 10
64.394068
 20
98.392544
 10
64.380704
 20
98.341
 10
64.345425
 20
98.014746
 10
64.357978
 20
97.68683
 10
64.387999
 20
97.525726
  0
LINE
  5
526
100
AcDbEntity
  8
ALPHA
100
AcDbLine
 10
64.357581
 20
98.120212
 30
0.0
 11
64.344182
 21
97.956789
 31
0.0
  0
LINE
  5
527
100
AcDbEntity
  8
ALPHA
100
AcDbLine
 10
64.34603
 20
97.979576
 30
0.0
 11
64.34543
 21
97.972267
 31
0.0
  0
LINE
  5
528
100
AcDbEntity
  8
ALPHA
100
AcDbLine
 10
64.346536
 20
97.98573
 30
0.0
 11
64.34603
 21
97.979576
 31
0.0
  0
LINE
  5
529
100
AcDbEntity
  8
ALPHA
100
AcDbLine
 10
64.357581
 20
98.120212
 30
0.0
 11
64.346536
 21
97.98573
 31
0.0
  0
LINE
  5
52A
100
AcDbEntity
  8
ALPHA
100
AcDbLine
 10
64.359453
 20
98.142999
 30
0.0
 11
64.357581
 21
98.120212
 31
0.0
  0
LINE
  5
52B
100
AcDbEntity
  8
ALPHA
100
AcDbLine
 10
64.361082
 20
98.162828
 30
0.0
 11
64.359453
 21
98.142999
 31
0.0
  0
LINE
  5
52C
100
AcDbEntity
  8
ALPHA
100
AcDbLine
 10
64.357073
 20
98.114029
 30
0.0
 11
64.345043
 21
97.956723
 31
0.0
  0
LWPOLYLINE
  5
52D
100
AcDbEntity
  8
ALPHA
100
AcDbPolyline
 90
        3
 70
     0
 43
0.0
 10
64.370502
 20
98.277524
 10
64.369104
 20
98.271338
 10
64.357073
 20
98.114029
  0
LINE
  5
532
100
AcDbEntity
  8
ALPHA
100
AcDbLine
 10
64.357087
 20
98.114188
 30
0.0
 11
64.345022
 21
97.956724
 31
0.0
  0
LINE
  5
533
100
AcDbEntity
  8
ALPHA
100
AcDbLine
 10
64.356135
 20
98.101765
 30
0.0
 11
64.347025
 21
97.973398
 31
0.0
  0
LINE
  5
534
100
AcDbEntity
  8
ALPHA
100
AcDbLine
 10
64.35657
 20
98.107899
 30
0.0
 11
64.356135
 21
98.101765
 31
0.0
  0
LINE
  5
535
100
AcDbEntity
  8
ALPHA
100
AcDbLine
 10
64.358628
 20
98.136899
 30
0.0
 11
64.35657
 21
98.107899
 31
0.0
  0
LWPOLYLINE
  5
536
100
AcDbEntity
  8
ALPHA
100
AcDbPolyline
 90
        3
 70
     0
 43
0.0
 10
64.368667
 20
98.265331
 10
64.367302
 20
98.259136
 10
64.358628
 20
98.136899
  0
LINE
  5
53B
100
AcDbEntity
  8
ALPHA
100
AcDbLine
 10
64.356583
 20
98.108059
 30
0.0
 11
64.345818
 21
97.956673
 31
0.0
  0
LWPOLYLINE
  5
53C
100
AcDbEntity
  8
ALPHA
100
AcDbPolyline
 90
        3
 70
     0
 43
0.0
 10
64.394068
 20
98.380669
 10
64.367348
 20
98.259454
 10
64.356583
 20
98.108059
  0
LINE
  5
541
100
AcDbEntity
  8
ALPHA
100
AcDbLine
 10
64.389104
 20
97.519796
 30
0.0
 11
64.394068
 21
97.493923
 31
0.0
  0
LWPOLYLINE
  5
542
100
AcDbEntity
  8
ALPHA
100
AcDbPolyline
 90
        5
 70
     0
 43
0.0
 10
64.394068
 20
98.390267
 10
64.378576
 20
98.329174
 10
64.34504
 20
98.002737
 10
64.359343
 20
97.674893
 10
64.389104
 20
97.519796
  0
LINE
  5
549
100
AcDbEntity
  8
ALPHA
100
AcDbLine
 10
64.389133
 20
97.519639
 30
0.0
 11
64.394068
 21
97.493938
 31
0.0
  0
LINE
  5
54A
100
AcDbEntity
  8
ALPHA
100
AcDbLine
 10
64.362419
 20
98.171915
 30
0.0
 11
64.345678
 21
98.008727
 31
0.0
  0
LWPOLYLINE
  5
54B
100
AcDbEntity
  8
ALPHA
100
AcDbPolyline
 90
        3
 70
     0
 43
0.0
 10
64.380079
 20
98.335008
 10
64.37852
 20
98.328859
 10
64.362419
 20
98.171915
  0
LINE
  5
550
100
AcDbEntity
  8
ALPHA
100
AcDbLine
 10
64.357581
 20
98.120212
 30
0.0
 11
64.344182
 21
97.956789
 31
0.0
  0
LINE
  5
551
100
AcDbEntity
  8
ALPHA
100
AcDbLine
 10
64.34603
 20
97.979576
 30
0.0
 11
64.34543
 21
97.972267
 31
0.0
  0
LINE
  5
552
100
AcDbEntity
  8
ALPHA
100
AcDbLine
 10
64.346536
 20
97.98573
 30
0.0
 11
64.34603
 21
97.979576
 31
0.0
  0
LINE
  5
553
100
AcDbEntity
  8
ALPHA
100
AcDbLine
 10
64.357581
 20
98.120212
 30
0.0
 11
64.346536
 21
97.98573
 31
0.0
  0
LINE
  5
554
100
AcDbEntity
  8
ALPHA
100
AcDbLine
 10
64.359453
 20
98.142999
 30
0.0
 11
64.357581
 21
98.120212
 31
0.0
  0
LINE
  5
555
100
AcDbEntity
  8
ALPHA
100
AcDbLine
 10
64.361082
 20
98.162828
 30
0.0
 11
64.359453
 21
98.142999
 31
0.0
  0
LINE
  5
556
100
AcDbEntity
  8
ALPHA
100
AcDbLine
 10
64.357073
 20
98.114029
 30
0.0
 11
64.345043
 21
97.956723
 31
0.0
  0
LWPOLYLINE
  5
557
100
AcDbEntity
  8
ALPHA
100
AcDbPolyline
 90
        3
 70
     0
 43
0.0
 10
64.370502
 20
98.277524
 10
64.369104
 20
98.271338
 10
64.357073
 20
98.114029
  0
LINE
  5
55C
100
AcDbEntity
  8
ALPHA
100
AcDbLine
 10
64.357087
 20
98.114188
 30
0.0
 11
64.345022
 21
97.956724
 31
0.0
  0
LINE
  5
55D
100
AcDbEntity
  8
ALPHA
100
AcDbLine
 10
64.356135
 20
98.101765
 30
0.0
 11
64.347025
 21
97.973398
 31
0.0
  0
LINE
  5
55E
100
AcDbEntity
  8
ALPHA
100
AcDbLine
 10
64.35657
 20
98.107899
 30
0.0
 11
64.356135
 21
98.101765
 31
0.0
  0
LINE
  5
55F
100
AcDbEntity
  8
ALPHA
100
AcDbLine
 10
64.358628
 20
98.136899
 30
0.0
 11
64.35657
 21
98.107899
 31
0.0
  0
LWPOLYLINE
  5
560
100
AcDbEntity
  8
ALPHA
100
AcDbPolyline
 90
        3
 70
     0
 43
0.0
 10
64.368667
 20
98.265331
 10
64.367302
 20
98.259136
 10
64.358628
 20
98.136899
  0
LINE
  5
565
100
AcDbEntity
  8
ALPHA
100
AcDbLine
 10
64.387999
 20
97.525726
 30
0.0
 11
64.394068
 21
97.493133
 31
0.0
  0
LWPOLYLINE
  5
566
100
AcDbEntity
  8
ALPHA
100
AcDbPolyline
 90
        5
 70
     0
 43
0.0
 10
64.394068
 20
98.392607
 10
64.380762
 20
98.341315
 10
64.345436
 20
98.015066
 10
64.357942
 20
97.687149
 10
64.387999
 20
97.525726
  0
LINE
  5
56D
100
AcDbEntity
  8
ALPHA
100
AcDbLine
 10
64.356583
 20
98.108059
 30
0.0
 11
64.345818
 21
97.956673
 31
0.0
  0
LWPOLYLINE
  5
56E
100
AcDbEntity
  8
ALPHA
100
AcDbPolyline
 90
        3
 70
     0
 43
0.0
 10
64.394068
 20
98.380669
 10
64.367348
 20
98.259454
 10
64.356583
 20
98.108059
  0
LINE
  5
573
100
AcDbEntity
  8
ALPHA
100
AcDbLine
 10
64.387999
 20
97.525726
 30
0.0
 11
64.394068
 21
97.493159
 31
0.0
  0
LWPOLYLINE
  5
574
100
AcDbEntity
  8
ALPHA
100
AcDbPolyline
 90
        5
 70
     0
 43
0.0
 10
64.394068
 20
98.392544
 10
64.380704
 20
98.341
 10
64.345425
 20
98.014746
 10
64.357978
 20
97.68683
 10
64.387999
 20
97.525726
  0
LWPOLYLINE
  5
57B
100
AcDbEntity
  8
ALPHA
100
AcDbPolyline
 90
        5
 70
     0
 43
0.0
 10
64.394068
 20
98.379736
 10
64.36865
 20
98.26831
 10
64.344093
 20
97.926071
 10
64.371859
 20
97.584085
 10
64.394068
 20
97.490768
  0
ARC
  5
582
100
AcDbEntity
  8
ALPHA
100
AcDbCircle
 10
58.994068
 20
112.086626
 30
0.0
 40
0.15
100
AcDbArc
 50
48.054453
 51
90.0
  0
ARC
  5
583
100
AcDbEntity
  8
ALPHA
100
AcDbCircle
 10
54.194068
 20
112.086626
 30
0.0
 40
0.15
100
AcDbArc
 50
90.0
 51
131.945547
  0
ARC
  5
584
100
AcDbEntity
  8
ALPHA
100
AcDbCircle
 10
54.194068
 20
112.086626
 30
0.0
 40
0.15
100
AcDbArc
 50
90.0
 51
131.945547
  0
LINE
  5
585
100
AcDbEntity
  8
ALPHA
100
AcDbLine
 10
54.194068
 20
112.236626
 30
0.0
 11
58.994068
 21
112.236626
 31
0.0
  0
ARC
  5
586
100
AcDbEntity
  8
ALPHA
100
AcDbCircle
 10
58.994068
 20
112.086626
 30
0.0
 40
0.15
100
AcDbArc
 50
48.054453
 51
90.0
  0
LINE
  5
587
100
AcDbEntity
  8
ALPHA
100
AcDbLine
 10
54.194068
 20
111.261626
 30
0.0
 11
58.994068
 21
111.261626
 31
0.0
  0
LINE
  5
588
100
AcDbEntity
  8
ALPHA
100
AcDbLine
 10
54.194068
 20
111.936626
 30
0.0
 11
58.994068
 21
111.936626
 31
0.0
  0
ARC
  5
589
100
AcDbEntity
  8
ALPHA
100
AcDbCircle
 10
58.994068
 20
112.761626
 30
0.0
 40
0.15
100
AcDbArc
 50
48.054453
 51
90.0
  0
ARC
  5
58A
100
AcDbEntity
  8
ALPHA
100
AcDbCircle
 10
54.194068
 20
112.761626
 30
0.0
 40
0.15
100
AcDbArc
 50
90.0
 51
131.945547
  0
LINE
  5
58B
100
AcDbEntity
  8
ALPHA
100
AcDbLine
 10
54.194068
 20
111.561626
 30
0.0
 11
58.994068
 21
111.561626
 31
0.0
  0
ARC
  5
58C
100
AcDbEntity
  8
ALPHA
100
AcDbCircle
 10
58.994068
 20
112.761626
 30
0.0
 40
0.15
100
AcDbArc
 50
270.0
 51
311.945547
  0
ARC
  5
58D
100
AcDbEntity
  8
ALPHA
100
AcDbCircle
 10
54.194068
 20
112.761626
 30
0.0
 40
0.15
100
AcDbArc
 50
228.054453
 51
270.0
  0
ARC
  5
58E
100
AcDbEntity
  8
ALPHA
100
AcDbCircle
 10
58.994068
 20
112.761626
 30
0.0
 40
0.15
100
AcDbArc
 50
48.054453
 51
90.0
  0
ARC
  5
58F
100
AcDbEntity
  8
ALPHA
100
AcDbCircle
 10
54.194068
 20
112.761626
 30
0.0
 40
0.15
100
AcDbArc
 50
90.0
 51
131.945547
  0
LINE
  5
590
100
AcDbEntity
  8
ALPHA
100
AcDbLine
 10
54.194068
 20
112.911626
 30
0.0
 11
58.994068
 21
112.911626
 31
0.0
  0
ARC
  5
591
100
AcDbEntity
  8
ALPHA
100
AcDbCircle
 10
58.994068
 20
112.761626
 30
0.0
 40
0.15
100
AcDbArc
 50
270.0
 51
311.945547
  0
LINE
  5
592
100
AcDbEntity
  8
ALPHA
100
AcDbLine
 10
54.194068
 20
110.586626
 30
0.0
 11
58.994068
 21
110.586626
 31
0.0
  0
ARC
  5
593
100
AcDbEntity
  8
ALPHA
100
AcDbCircle
 10
54.194068
 20
112.761626
 30
0.0
 40
0.15
100
AcDbArc
 50
228.054453
 51
270.0
  0
LINE
  5
594
100
AcDbEntity
  8
ALPHA
100
AcDbLine
 10
54.194068
 20
112.611626
 30
0.0
 11
58.994068
 21
112.611626
 31
0.0
  0
LINE
  5
595
100
AcDbEntity
  8
ALPHA
100
AcDbLine
 10
54.194068
 20
110.886626
 30
0.0
 11
58.994068
 21
110.886626
 31
0.0
  0
ENDSEC
  0
SECTION
  2
OBJECTS
  0
DICTIONARY
  5
728
100
AcDbDictionary
  3
ACAD_GROUP
350
729
  3
ACAD_MLINESTYLE
350
736
  3
ACDBVARIABLEDICTIONARY
350
744
  0
DICTIONARY
  5
729
102
{ACAD_REACTORS
330
728
102
}
100
AcDbDictionary
  0
DICTIONARY
  5
736
102
{ACAD_REACTORS
330
728
102
}
100
AcDbDictionary
  3
STANDARD
350
737
  0
DICTIONARY
  5
744
102
{ACAD_REACTORS
330
728
102
}
100
AcDbDictionary
  3
DIMADEC
350
745
  0
MLINESTYLE
  5
737
102
{ACAD_REACTORS
330
736
102
}
100
AcDbMlineStyle
  2
STANDARD
 70
     0
  3

 62
   256
 51
90.0
 52
90.0
 71
     2
 49
0.5
 62
   256
  6
BYLAYER
 49
-0.5
 62
   256
  6
BYLAYER
  0
DICTIONARYVAR
  5
745
102
{ACAD_REACTORS
330
744
102
}
100
DictionaryVariables
280
     0
  1
0
  0
ENDSEC
  0
EOF
