  0
SECTION
  2
HEADER
  9
$ACADVER
  1
AC1009
  9
$INSBASE
 10
0.0
 20
0.0
 30
0.0
  9
$EXTMIN
 10
67.801667
 20
70.155431
 30
-0.001526
  9
$EXTMAX
 10
127.345276
 20
206.849318
 30
0.0
  9
$LIMMIN
 10
0.0
 20
0.0
  9
$LIMMAX
 10
150.0
 20
150.0
  9
$ORTHOMODE
 70
     0
  9
$REGENMODE
 70
     1
  9
$FILLMODE
 70
     1
  9
$QTEXTMODE
 70
     0
  9
$MIRRTEXT
 70
     1
  9
$DRAGMODE
 70
     2
  9
$LTSCALE
 40
9.777778
  9
$OSMODE
 70
   167
  9
$ATTMODE
 70
     1
  9
$TEXTSIZE
 40
0.2
  9
$TRACEWID
 40
0.05
  9
$TEXTSTYLE
  7
STANDARD
  9
$CLAYER
  8
0
  9
$CELTYPE
  6
BYLAYER
  9
$CECOLOR
 62
   256
  9
$DIMSCALE
 40
1.0
  9
$DIMASZ
 40
2.5
  9
$DIMEXO
 40
1.111111
  9
$DIMDLI
 40
2.0
  9
$DIMRND
 40
0.0
  9
$DIMDLE
 40
0.0
  9
$DIMEXE
 40
3.2
  9
$DIMTP
 40
0.0
  9
$DIMTM
 40
0.0
  9
$DIMTXT
 40
2.008929
  9
$DIMCEN
 40
1.6
  9
$DIMTSZ
 40
0.0
  9
$DIMTOL
 70
     0
  9
$DIMLIM
 70
     0
  9
$DIMTIH
 70
     0
  9
$DIMTOH
 70
     0
  9
$DIMSE1
 70
     0
  9
$DIMSE2
 70
     0
  9
$DIMTAD
 70
     1
  9
$DIMZIN
 70
     8
  9
$DIMBLK
  1

  9
$DIMASO
 70
     1
  9
$DIMSHO
 70
     1
  9
$DIMPOST
  1

  9
$DIMAPOST
  1

  9
$DIMALT
 70
     0
  9
$DIMALTD
 70
     2
  9
$DIMALTF
 40
25.4
  9
$DIMLFAC
 40
1.0
  9
$DIMTOFL
 70
     0
  9
$DIMTVP
 40
0.0
  9
$DIMTIX
 70
     0
  9
$DIMSOXD
 70
     0
  9
$DIMSAH
 70
     0
  9
$DIMBLK1
  1

  9
$DIMBLK2
  1

  9
$DIMSTYLE
  2
STANDARD
  9
$DIMCLRD
 70
     0
  9
$DIMCLRE
 70
     0
  9
$DIMCLRT
 70
     0
  9
$DIMTFAC
 40
1.0
  9
$DIMGAP
 40
1.0
  9
$LUNITS
 70
     2
  9
$LUPREC
 70
     4
  9
$SKETCHINC
 40
0.1
  9
$FILLETRAD
 40
0.0
  9
$AUNITS
 70
     0
  9
$AUPREC
 70
     0
  9
$MENU
  1
.
  9
$ELEVATION
 40
0.0
  9
$PELEVATION
 40
0.0
  9
$THICKNESS
 40
0.0
  9
$LIMCHECK
 70
     0
  9
$BLIPMODE
 70
     0
  9
$CHAMFERA
 40
0.0
  9
$CHAMFERB
 40
0.0
  9
$SKPOLY
 70
     0
  9
$TDCREATE
 40
2452282.428316
  9
$TDUPDATE
 40
2452292.36427
  9
$TDINDWG
 40
0.013506
  9
$TDUSRTIMER
 40
0.013506
  9
$USRTIMER
 70
     1
  9
$ANGBASE
 50
0.0
  9
$ANGDIR
 70
     0
  9
$PDMODE
 70
     0
  9
$PDSIZE
 40
0.0
  9
$PLINEWID
 40
0.0
  9
$COORDS
 70
     2
  9
$SPLFRAME
 70
     0
  9
$SPLINETYPE
 70
     6
  9
$SPLINESEGS
 70
     8
  9
$ATTDIA
 70
     0
  9
$ATTREQ
 70
     1
  9
$HANDLING
 70
     1
  9
$HANDSEED
  5
3E83
  9
$SURFTAB1
 70
     6
  9
$SURFTAB2
 70
     6
  9
$SURFTYPE
 70
     6
  9
$SURFU
 70
     6
  9
$SURFV
 70
     6
  9
$UCSNAME
  2

  9
$UCSORG
 10
0.0
 20
0.0
 30
0.0
  9
$UCSXDIR
 10
1.0
 20
0.0
 30
0.0
  9
$UCSYDIR
 10
0.0
 20
1.0
 30
0.0
  9
$PUCSNAME
  2

  9
$PUCSORG
 10
0.0
 20
0.0
 30
0.0
  9
$PUCSXDIR
 10
1.0
 20
0.0
 30
0.0
  9
$PUCSYDIR
 10
0.0
 20
1.0
 30
0.0
  9
$USERI1
 70
     0
  9
$USERI2
 70
     0
  9
$USERI3
 70
     0
  9
$USERI4
 70
     0
  9
$USERI5
 70
     0
  9
$USERR1
 40
0.0
  9
$USERR2
 40
0.0
  9
$USERR3
 40
0.0
  9
$USERR4
 40
0.0
  9
$USERR5
 40
0.0
  9
$WORLDVIEW
 70
     1
  9
$SHADEDGE
 70
     3
  9
$SHADEDIF
 70
    70
  9
$TILEMODE
 70
     1
  9
$MAXACTVP
 70
    48
  9
$PLIMCHECK
 70
     0
  9
$PEXTMIN
 10
1.000000E+020
 20
1.000000E+020
 30
1.000000E+020
  9
$PEXTMAX
 10
-1.000000E+020
 20
-1.000000E+020
 30
-1.000000E+020
  9
$PLIMMIN
 10
0.0
 20
0.0
  9
$PLIMMAX
 10
12.0
 20
9.0
  9
$UNITMODE
 70
     0
  9
$VISRETAIN
 70
     1
  9
$PLINEGEN
 70
     0
  9
$PSLTSCALE
 70
     1
  0
ENDSEC
  0
SECTION
  2
TABLES
  0
TABLE
  2
VPORT
 70
     2
  0
VPORT
  2
*ACTIVE
 70
     0
 10
0.0
 20
0.0
 11
1.0
 21
1.0
 12
97.573471
 22
138.502375
 13
0.0
 23
0.0
 14
1.0
 24
1.0
 15
0.0
 25
0.0
 16
0.0
 26
0.0
 36
1.0
 17
0.0
 27
0.0
 37
0.0
 40
138.198773
 41
1.700368
 42
50.0
 43
0.0
 44
0.0
 50
0.0
 51
0.0
 71
     0
 72
   100
 73
     1
 74
     1
 75
     0
 76
     0
 77
     0
 78
     0
  0
ENDTAB
  0
TABLE
  2
LTYPE
 70
     6
  0
LTYPE
  2
CONTINUOUS
 70
     0
  3
Solid line
 72
    65
 73
     0
 40
0.0
  0
LTYPE
  2
CENTER
 70
     0
  3
____ _ ____ _ ____ _ ____ _ ____ _ ____ _ ____
 72
    65
 73
     4
 40
0.6
 49
0.375
 49
-0.075
 49
0.075
 49
-0.075
  0
LTYPE
  2
HIDDEN
 70
     0
  3
- - - - - - - - - - - - - - - - - - - -
 72
    65
 73
     2
 40
0.2
 49
0.1
 49
-0.1
  0
LTYPE
  2
PHANTOM
 70
     0
  3
_____ _ _ _____ _ _ _____ _ _ _____
 72
    65
 73
     6
 40
0.8
 49
0.45
 49
-0.05
 49
0.1
 49
-0.05
 49
0.1
 49
-0.05
  0
ENDTAB
  0
TABLE
  2
LAYER
 70
     5
  0
LAYER
  2
0
 70
     0
 62
     7
  6
CONTINUOUS
  0
LAYER
  2
DEFPOINTS
 70
     0
 62
     7
  6
CONTINUOUS
  0
ENDTAB
  0
TABLE
  2
STYLE
 70
     1
  0
STYLE
  2
STANDARD
 70
     0
 40
0.0
 41
1.0
 50
0.0
 71
     0
 42
0.2
  3
txt
  4

  0
ENDTAB
  0
TABLE
  2
VIEW
 70
     0
  0
ENDTAB
  0
TABLE
  2
UCS
 70
     0
  0
ENDTAB
  0
TABLE
  2
APPID
 70
     1
  0
APPID
  2
ACAD
 70
     0
  0
ENDTAB
  0
TABLE
  2
DIMSTYLE
 70
     1
  0
DIMSTYLE
  2
STANDARD
 70
     0
  3

  4

  5

  6

  7

 40
1.0
 41
0.18
 42
0.0625
 43
0.02
 44
0.1
 45
0.0
 46
0.0
 47
0.0
 48
0.0
140
0.18
141
0.0
142
0.0
143
25.4
144
1.0
145
0.0
146
1.0
147
1.0
 71
     0
 72
     0
 73
     0
 74
     0
 75
     0
 76
     0
 77
     1
 78
     8
170
     0
171
     2
172
     0
173
     0
174
     0
175
     0
176
     0
177
     0
178
     0
  0
ENDTAB
  0
ENDSEC
  0
SECTION
  2
BLOCKS
  0
BLOCK
  8
0
  2
$MODEL_SPACE
 70
     0
 10
0.0
 20
0.0
 30
0.0
  3
$MODEL_SPACE
  1

  0
ENDBLK
  5
20
  8
0
  0
BLOCK
 67
     1
  8
0
  2
$PAPER_SPACE
 70
     0
 10
0.0
 20
0.0
 30
0.0
  3
$PAPER_SPACE
  1

  0
ENDBLK
  5
1C
 67
     1
  8
0
  0
BLOCK
  8
0
  2
*D0
 70
     1
 10
0.0
 20
0.0
 30
0.0
  3
*D0
  1

  0
LINE
  5
3B91
  8
0
 62
     0
 10
82.293029
 20
198.56542
 30
0.0
 11
82.293029
 21
204.343005
 31
0.0
1001
ACAD
1000
RTLwPs
1070
   158
  0
LINE
  5
3B92
  8
0
 62
     0
 10
127.093029
 20
198.56542
 30
0.0
 11
127.093029
 21
204.343005
 31
0.0
1001
ACAD
1000
RTLwPs
1070
   158
  0
LINE
  5
3B93
  8
0
 62
     0
 10
84.793029
 20
203.343005
 30
0.0
 11
124.593029
 21
203.343005
 31
0.0
1001
ACAD
1000
RTLwPs
1070
   158
  0
SOLID
  5
3B94
  8
0
 62
     0
 10
84.793029
 20
203.759672
 30
0.0
 11
84.793029
 21
202.926339
 31
0.0
 12
82.293029
 22
203.343005
 32
0.0
 13
82.293029
 23
203.343005
 33
0.0
  0
SOLID
  5
3B95
  8
0
 62
     0
 10
124.593029
 20
203.759672
 30
0.0
 11
124.593029
 21
202.926339
 31
0.0
 12
127.093029
 22
203.343005
 32
0.0
 13
127.093029
 23
203.343005
 33
0.0
  0
TEXT
  8
0
  40
2.5
  5
3E81
  62
0
  72
0
  71
0
 10
99.6930
 20
201.168
 30
0.000000
  1
44.8
  0
POINT
  5
3B97
  8
DEFPOINTS
 62
     0
 10
82.293029
 20
197.56542
 30
0.0
  0
POINT
  5
3B98
  8
DEFPOINTS
 62
     0
 10
127.093029
 20
197.56542
 30
0.0
  0
POINT
  5
3B99
  8
DEFPOINTS
 62
     0
 10
127.093029
 20
203.343005
 30
0.0
  0
ENDBLK
  5
3A7F
  8
0
  0
BLOCK
  8
0
  2
*D1
 70
     1
 10
0.0
 20
0.0
 30
0.0
  3
*D1
  1

  0
LINE
  5
3B9A
  8
0
 62
     0
 10
80.593029
 20
196.86542
 30
0.0
 11
70.310055
 21
196.86542
 31
0.0
1001
ACAD
1000
RTLwPs
1070
   158
  0
LINE
  5
3B9B
  8
0
 62
     0
 10
92.419381
 20
70.16542
 30
0.0
 11
70.310055
 21
70.16542
 31
0.0
1001
ACAD
1000
RTLwPs
1070
   158
  0
LINE
  5
3B9C
  8
0
 62
     0
 10
71.310055
 20
194.36542
 30
0.0
 11
71.310055
 21
72.66542
 31
0.0
1001
ACAD
1000
RTLwPs
1070
   158
  0
SOLID
  5
3B9D
  8
0
 62
     0
 10
70.893389
 20
194.36542
 30
0.0
 11
71.726722
 21
194.36542
 31
0.0
 12
71.310055
 22
196.86542
 32
0.0
 13
71.310055
 23
196.86542
 33
0.0
  0
SOLID
  5
3B9E
  8
0
 62
     0
 10
70.893389
 20
72.66542
 30
0.0
 11
71.726722
 21
72.66542
 31
0.0
 12
71.310055
 22
70.16542
 32
0.0
 13
71.310055
 23
70.16542
 33
0.0
  0
TEXT
  8
0
  40
2.5
  5
3E82
  62
0
  72
0
  71
0
 10
64.0601
 20
129.090
 30
0.000000
  1
126.7
  0
POINT
  5
3BA0
  8
DEFPOINTS
 62
     0
 10
81.593029
 20
196.86542
 30
0.0
  0
POINT
  5
3BA1
  8
DEFPOINTS
 62
     0
 10
93.419381
 20
70.16542
 30
0.0
  0
POINT
  5
3BA2
  8
DEFPOINTS
 62
     0
 10
71.310055
 20
70.16542
 30
0.0
  0
ENDBLK
  5
3A8B
  8
0
  0
ENDSEC
  0
SECTION
  2
ENTITIES
  0
ARC
  5
3801
  8
0
 62
     7
 10
104.693029
 20
215.66542
 30
0.0
 40
129.5
 50
260.450974
 51
271.725771
  0
ARC
  5
3802
  8
0
 62
     7
 10
104.693029
 20
215.66542
 30
0.0
 40
130.0
 50
260.450974
 51
271.719131
  0
ARC
  5
3803
  8
0
 62
     7
 10
104.693029
 20
248.96542
 30
0.0
 40
106.0
 50
258.705216
 51
281.019833
  0
ARC
  5
3804
  8
0
 62
     7
 10
104.693029
 20
252.508497
 30
0.0
 40
109.343077
 50
258.894324
 51
280.839284
  0
ARC
  5
3805
  8
0
 62
     7
 10
104.693029
 20
276.70542
 30
0.0
 40
125.94
 50
259.954003
 51
280.045997
  0
ARC
  5
3806
  8
0
 62
     7
 10
104.693029
 20
276.70542
 30
0.0
 40
126.44
 50
260.177324
 51
279.822676
  0
ARC
  5
3807
  8
0
 62
     7
 10
104.693029
 20
276.70542
 30
0.0
 40
125.24
 50
267.80352
 51
272.19648
  0
LINE
  5
3808
  8
0
 62
     7
 10
115.943029
 20
196.86542
 30
0.0
 11
82.593029
 21
196.86542
 31
0.0
  0
LINE
  5
3809
  8
0
 62
     7
 10
115.843029
 20
196.56542
 30
0.0
 11
82.293029
 21
196.56542
 31
0.0
  0
LINE
  5
380A
  8
0
 62
     7
 10
109.443029
 20
193.834166
 30
0.0
 11
99.943029
 21
193.834166
 31
0.0
  0
POLYLINE
  5
380B
  8
0
 62
     7
 66
     1
 10
0.0
 20
0.0
 30
0.0
  0
VERTEX
  5
3C15
  8
0
 62
     7
 10
109.443029
 20
192.86542
 30
0.0
  0
VERTEX
  5
3C16
  8
0
 62
     7
 10
106.300999
 20
192.713084
 30
0.0
  0
VERTEX
  5
3C17
  8
0
 62
     7
 10
103.085058
 20
192.713084
 30
0.0
  0
VERTEX
  5
3C18
  8
0
 62
     7
 10
99.943029
 20
192.86542
 30
0.0
  0
SEQEND
  5
3C19
  8
0
 62
     7
  0
LINE
  5
380C
  8
0
 62
     7
 10
109.443029
 20
188.86542
 30
0.0
 11
99.943029
 21
188.86542
 31
0.0
  0
LINE
  5
380D
  8
0
 62
     7
 10
99.943029
 20
187.36542
 30
0.0
 11
109.443029
 21
187.36542
 31
0.0
  0
LINE
  5
380E
  8
0
 62
     7
 10
109.443029
 20
185.86542
 30
0.0
 11
99.943029
 21
185.86542
 31
0.0
  0
LINE
  5
380F
  8
0
 62
     7
 10
99.943029
 20
184.36542
 30
0.0
 11
109.443029
 21
184.36542
 31
0.0
  0
LINE
  5
3810
  8
0
 62
     7
 10
109.443029
 20
182.86542
 30
0.0
 11
99.943029
 21
182.86542
 31
0.0
  0
LINE
  5
3811
  8
0
 62
     7
 10
99.943029
 20
181.36542
 30
0.0
 11
109.443029
 21
181.36542
 31
0.0
  0
LINE
  5
3812
  8
0
 62
     7
 10
109.443029
 20
179.86542
 30
0.0
 11
99.943029
 21
179.86542
 31
0.0
  0
LINE
  5
3813
  8
0
 62
     7
 10
99.943029
 20
178.36542
 30
0.0
 11
109.443029
 21
178.36542
 31
0.0
  0
LINE
  5
3814
  8
0
 62
     7
 10
109.443029
 20
172.86542
 30
0.0
 11
99.943029
 21
172.86542
 31
0.0
  0
LINE
  5
3815
  8
0
 62
     7
 10
99.543029
 20
168.66542
 30
0.0
 11
110.693029
 21
168.66542
 31
0.0
  0
LINE
  5
3816
  8
0
 62
     7
 10
99.543029
 20
167.66542
 30
0.0
 11
109.843029
 21
167.66542
 31
0.0
  0
LINE
  5
3817
  8
0
 62
     7
 10
101.693029
 20
167.36542
 30
0.0
 11
107.693029
 21
167.36542
 31
0.0
  0
LINE
  5
3818
  8
0
 62
     7
 10
99.543029
 20
166.06542
 30
0.0
 11
109.843029
 21
166.06542
 31
0.0
  0
LINE
  5
3819
  8
0
 62
     7
 10
99.893029
 20
162.96542
 30
0.0
 11
109.493029
 21
162.96542
 31
0.0
  0
POLYLINE
  5
381A
  8
0
 62
     7
 66
     1
 10
0.0
 20
0.0
 30
0.0
  0
VERTEX
  5
3C1A
  8
0
 62
     7
 10
99.893029
 20
162.36542
 30
0.0
  0
VERTEX
  5
3C1B
  8
0
 62
     7
 10
101.815549
 20
162.68698
 30
0.0
  0
VERTEX
  5
3C1C
  8
0
 62
     7
 10
103.734384
 20
162.845682
 30
0.0
  0
VERTEX
  5
3C1D
  8
0
 62
     7
 10
105.651763
 20
162.845678
 30
0.0
  0
VERTEX
  5
3C1E
  8
0
 62
     7
 10
107.570545
 20
162.686975
 30
0.0
  0
VERTEX
  5
3C1F
  8
0
 62
     7
 10
109.493029
 20
162.36542
 30
0.0
  0
SEQEND
  5
3C20
  8
0
 62
     7
  0
POLYLINE
  5
381B
  8
0
 62
     7
 66
     1
 10
0.0
 20
0.0
 30
0.0
  0
VERTEX
  5
3C21
  8
0
 62
     7
 10
104.02309
 20
79.43726
 30
0.0
  0
VERTEX
  5
3C22
  8
0
 62
     7
 10
104.212994
 20
80.084101
 30
0.0
  0
VERTEX
  5
3C23
  8
0
 62
     7
 10
104.521641
 20
80.681896
 30
0.0
  0
VERTEX
  5
3C24
  8
0
 62
     7
 10
104.937547
 20
81.208412
 30
0.0
  0
VERTEX
  5
3C25
  8
0
 62
     7
 10
105.445243
 20
81.64407
 30
0.0
  0
VERTEX
  5
3C26
  8
0
 62
     7
 10
106.025845
 20
81.972671
 30
0.0
  0
VERTEX
  5
3C27
  8
0
 62
     7
 10
106.657762
 20
82.181998
 30
0.0
  0
SEQEND
  5
3C28
  8
0
 62
     7
  0
POLYLINE
  5
381C
  8
0
 62
     7
 66
     1
 10
0.0
 20
0.0
 30
0.0
  0
VERTEX
  5
3C29
  8
0
 62
     7
 10
110.620914
 20
78.761929
 30
0.0
  0
VERTEX
  5
3C2A
  8
0
 62
     7
 10
110.557437
 20
79.444483
 30
0.0
  0
VERTEX
  5
3C2B
  8
0
 62
     7
 10
110.373848
 20
80.102163
 30
0.0
  0
VERTEX
  5
3C2C
  8
0
 62
     7
 10
110.077487
 20
80.712146
 30
0.0
  0
VERTEX
  5
3C2D
  8
0
 62
     7
 10
109.678593
 20
81.255098
 30
0.0
  0
VERTEX
  5
3C2E
  8
0
 62
     7
 10
109.189986
 20
81.713783
 30
0.0
  0
VERTEX
  5
3C2F
  8
0
 62
     7
 10
108.627375
 20
82.072918
 30
0.0
  0
VERTEX
  5
3C30
  8
0
 62
     7
 10
108.009703
 20
82.319846
 30
0.0
  0
VERTEX
  5
3C31
  8
0
 62
     7
 10
107.357903
 20
82.445851
 30
0.0
  0
VERTEX
  5
3C32
  8
0
 62
     7
 10
106.694568
 20
82.446457
 30
0.0
  0
VERTEX
  5
3C33
  8
0
 62
     7
 10
106.042293
 20
82.321703
 30
0.0
  0
VERTEX
  5
3C34
  8
0
 62
     7
 10
105.423608
 20
82.076041
 30
0.0
  0
VERTEX
  5
3C35
  8
0
 62
     7
 10
104.859521
 20
81.718014
 30
0.0
  0
VERTEX
  5
3C36
  8
0
 62
     7
 10
104.369227
 20
81.259969
 30
0.0
  0
VERTEX
  5
3C37
  8
0
 62
     7
 10
103.968945
 20
80.7169
 30
0.0
  0
VERTEX
  5
3C38
  8
0
 62
     7
 10
103.672164
 20
80.105952
 30
0.0
  0
VERTEX
  5
3C39
  8
0
 62
     7
 10
103.489739
 20
79.446562
 30
0.0
  0
VERTEX
  5
3C3A
  8
0
 62
     7
 10
103.429414
 20
78.761929
 30
0.0
  0
SEQEND
  5
3C3B
  8
0
 62
     7
  0
POLYLINE
  5
381D
  8
0
 62
     7
 66
     1
 10
0.0
 20
0.0
 30
0.0
  0
VERTEX
  5
3C3C
  8
0
 62
     7
 10
103.429414
 20
78.761929
 30
0.0
  0
VERTEX
  5
3C3D
  8
0
 62
     7
 10
103.493879
 20
78.077378
 30
0.0
  0
VERTEX
  5
3C3E
  8
0
 62
     7
 10
103.680187
 20
77.418255
 30
0.0
  0
VERTEX
  5
3C3F
  8
0
 62
     7
 10
103.980383
 20
76.807658
 30
0.0
  0
VERTEX
  5
3C40
  8
0
 62
     7
 10
104.383424
 20
76.264969
 30
0.0
  0
VERTEX
  5
3C41
  8
0
 62
     7
 10
104.875679
 20
75.807224
 30
0.0
  0
VERTEX
  5
3C42
  8
0
 62
     7
 10
105.440904
 20
75.44926
 30
0.0
  0
VERTEX
  5
3C43
  8
0
 62
     7
 10
106.059968
 20
75.203308
 30
0.0
  0
VERTEX
  5
3C44
  8
0
 62
     7
 10
106.712058
 20
75.077867
 30
0.0
  0
VERTEX
  5
3C45
  8
0
 62
     7
 10
107.374875
 20
75.077489
 30
0.0
  0
VERTEX
  5
3C46
  8
0
 62
     7
 10
108.026
 20
75.202443
 30
0.0
  0
VERTEX
  5
3C47
  8
0
 62
     7
 10
108.642899
 20
75.448563
 30
0.0
  0
VERTEX
  5
3C48
  8
0
 62
     7
 10
109.204513
 20
75.807388
 30
0.0
  0
VERTEX
  5
3C49
  8
0
 62
     7
 10
109.691647
 20
76.266344
 30
0.0
  0
VERTEX
  5
3C4A
  8
0
 62
     7
 10
110.088354
 20
76.810017
 30
0.0
  0
VERTEX
  5
3C4B
  8
0
 62
     7
 10
110.381713
 20
77.420887
 30
0.0
  0
VERTEX
  5
3C4C
  8
0
 62
     7
 10
110.561578
 20
78.079271
 30
0.0
  0
VERTEX
  5
3C4D
  8
0
 62
     7
 10
110.620914
 20
78.761929
 30
0.0
  0
SEQEND
  5
3C4E
  8
0
 62
     7
  0
POLYLINE
  5
381E
  8
0
 62
     7
 66
     1
 10
0.0
 20
0.0
 30
0.0
  0
VERTEX
  5
3C4F
  8
0
 62
     7
 10
103.668483
 20
78.76542
 30
0.0
  0
VERTEX
  5
3C50
  8
0
 62
     7
 10
103.729795
 20
78.117072
 30
0.0
  0
VERTEX
  5
3C51
  8
0
 62
     7
 10
103.906437
 20
77.49372
 30
0.0
  0
VERTEX
  5
3C52
  8
0
 62
     7
 10
104.19088
 20
76.916281
 30
0.0
  0
VERTEX
  5
3C53
  8
0
 62
     7
 10
104.57265
 20
76.403074
 30
0.0
  0
VERTEX
  5
3C54
  8
0
 62
     7
 10
105.038833
 20
75.970205
 30
0.0
  0
VERTEX
  5
3C55
  8
0
 62
     7
 10
105.574039
 20
75.631699
 30
0.0
  0
VERTEX
  5
3C56
  8
0
 62
     7
 10
106.160152
 20
75.399118
 30
0.0
  0
VERTEX
  5
3C57
  8
0
 62
     7
 10
106.777466
 20
75.280494
 30
0.0
  0
VERTEX
  5
3C58
  8
0
 62
     7
 10
107.093159
 20
75.26542
 30
0.0
  0
SEQEND
  5
3C59
  8
0
 62
     7
  0
LINE
  5
381F
  8
0
 62
     7
 10
105.943029
 20
103.76542
 30
0.0
 11
102.843029
 21
103.76542
 31
0.0
  0
LINE
  5
3820
  8
0
 62
     7
 10
105.943029
 20
102.46542
 30
0.0
 11
102.843029
 21
102.46542
 31
0.0
  0
POLYLINE
  5
3821
  8
0
 62
     7
 66
     1
 10
0.0
 20
0.0
 30
0.0
  0
VERTEX
  5
3C5A
  8
0
 62
     7
 10
103.171382
 20
84.86542
 30
0.0
  0
VERTEX
  5
3C5B
  8
0
 62
     7
 10
106.54615
 20
84.318431
 30
0.0
  0
VERTEX
  5
3C5C
  8
0
 62
     7
 10
109.958323
 20
83.976822
 30
0.0
  0
SEQEND
  5
3C5D
  8
0
 62
     7
  0
LINE
  5
3822
  8
0
 62
     7
 10
106.300767
 20
84.266467
 30
0.0
 11
104.199685
 21
84.576014
 31
0.0
  0
POLYLINE
  5
3823
  8
0
 62
     7
 66
     1
 10
0.0
 20
0.0
 30
0.0
  0
VERTEX
  5
3C5E
  8
0
 62
     7
 10
110.562778
 20
83.915092
 30
0.0
  0
VERTEX
  5
3C5F
  8
0
 62
     7
 10
107.973715
 20
84.111744
 30
0.0
  0
VERTEX
  5
3C60
  8
0
 62
     7
 10
105.396502
 20
84.428659
 30
0.0
  0
VERTEX
  5
3C61
  8
0
 62
     7
 10
102.835095
 20
84.86542
 30
0.0
  0
SEQEND
  5
3C62
  8
0
 62
     7
  0
POLYLINE
  5
3824
  8
0
 62
     7
 66
     1
 10
0.0
 20
0.0
 30
0.0
  0
VERTEX
  5
3C63
  8
0
 62
     7
 10
110.189435
 20
83.915092
 30
0.0
  0
VERTEX
  5
3C64
  8
0
 62
     7
 10
107.600372
 20
84.111744
 30
0.0
  0
VERTEX
  5
3C65
  8
0
 62
     7
 10
105.023158
 20
84.428659
 30
0.0
  0
VERTEX
  5
3C66
  8
0
 62
     7
 10
102.461752
 20
84.86542
 30
0.0
  0
SEQEND
  5
3C67
  8
0
 62
     7
  0
POLYLINE
  5
3825
  8
0
 62
     7
 66
     1
 10
0.0
 20
0.0
 30
0.0
  0
VERTEX
  5
3C68
  8
0
 62
     7
 10
112.120199
 20
83.840817
 30
0.0
  0
VERTEX
  5
3C69
  8
0
 62
     7
 10
108.789954
 20
83.976822
 30
0.0
  0
VERTEX
  5
3C6A
  8
0
 62
     7
 10
105.455465
 20
84.318431
 30
0.0
  0
VERTEX
  5
3C6B
  8
0
 62
     7
 10
102.125466
 20
84.86542
 30
0.0
  0
SEQEND
  5
3C6C
  8
0
 62
     7
  0
POLYLINE
  5
3826
  8
0
 62
     7
 66
     1
 10
0.0
 20
0.0
 30
0.0
  0
VERTEX
  5
3C6D
  8
0
 62
     7
 10
107.070723
 20
82.26542
 30
0.0
  0
VERTEX
  5
3C6E
  8
0
 62
     7
 10
106.759806
 20
82.250793
 30
0.0
  0
VERTEX
  5
3C6F
  8
0
 62
     7
 10
106.142352
 20
82.132833
 30
0.0
  0
VERTEX
  5
3C70
  8
0
 62
     7
 10
105.556669
 20
81.900539
 30
0.0
  0
VERTEX
  5
3C71
  8
0
 62
     7
 10
105.022644
 20
81.561985
 30
0.0
  0
VERTEX
  5
3C72
  8
0
 62
     7
 10
104.558452
 20
81.12884
 30
0.0
  0
VERTEX
  5
3C73
  8
0
 62
     7
 10
104.179456
 20
80.61528
 30
0.0
  0
VERTEX
  5
3C74
  8
0
 62
     7
 10
103.898429
 20
80.037513
 30
0.0
  0
VERTEX
  5
3C75
  8
0
 62
     7
 10
103.725663
 20
79.41391
 30
0.0
  0
VERTEX
  5
3C76
  8
0
 62
     7
 10
103.668483
 20
78.76542
 30
0.0
  0
SEQEND
  5
3C77
  8
0
 62
     7
  0
POLYLINE
  5
3827
  8
0
 62
     7
 66
     1
 10
0.0
 20
0.0
 30
0.0
  0
VERTEX
  5
3C78
  8
0
 62
     7
 10
116.409872
 20
85.71542
 30
0.0
  0
VERTEX
  5
3C79
  8
0
 62
     7
 10
112.240933
 20
85.307243
 30
0.0
  0
VERTEX
  5
3C7A
  8
0
 62
     7
 10
104.692826
 20
85.061758
 30
0.0
  0
VERTEX
  5
3C7B
  8
0
 62
     7
 10
102.843029
 20
85.121925
 30
0.0
  0
SEQEND
  5
3C7C
  8
0
 62
     7
  0
POLYLINE
  5
3828
  8
0
 62
     7
 66
     1
 10
0.0
 20
0.0
 30
0.0
  0
VERTEX
  5
3C7D
  8
0
 62
     7
 10
107.221911
 20
75.278488
 30
0.0
  0
VERTEX
  5
3C7E
  8
0
 62
     7
 10
106.657762
 20
75.348841
 30
0.0
  0
VERTEX
  5
3C7F
  8
0
 62
     7
 10
106.025845
 20
75.558168
 30
0.0
  0
VERTEX
  5
3C80
  8
0
 62
     7
 10
105.445243
 20
75.886769
 30
0.0
  0
VERTEX
  5
3C81
  8
0
 62
     7
 10
104.937547
 20
76.322427
 30
0.0
  0
VERTEX
  5
3C82
  8
0
 62
     7
 10
104.521641
 20
76.848943
 30
0.0
  0
VERTEX
  5
3C83
  8
0
 62
     7
 10
104.212994
 20
77.446738
 30
0.0
  0
SEQEND
  5
3C84
  8
0
 62
     7
  0
LINE
  5
3829
  8
0
 62
     7
 10
105.34912
 20
70.928436
 30
0.0
 11
101.398177
 21
70.456214
 31
0.0
  0
POLYLINE
  5
382A
  8
0
 62
     7
 66
     1
 10
0.0
 20
0.0
 30
0.0
  0
VERTEX
  5
3C85
  8
0
 62
     7
 10
84.634842
 20
70.995739
 30
0.0
  0
VERTEX
  5
3C86
  8
0
 62
     7
 10
88.61687
 20
70.575682
 30
0.0
  0
VERTEX
  5
3C87
  8
0
 62
     7
 10
92.588292
 20
70.378488
 30
0.0
  0
VERTEX
  5
3C88
  8
0
 62
     7
 10
96.540224
 20
70.403907
 30
0.0
  0
VERTEX
  5
3C89
  8
0
 62
     7
 10
100.465274
 20
70.651916
 30
0.0
  0
VERTEX
  5
3C8A
  8
0
 62
     7
 10
104.355896
 20
71.122843
 30
0.0
  0
VERTEX
  5
3C8B
  8
0
 62
     7
 10
108.203954
 20
71.817233
 30
0.0
  0
VERTEX
  5
3C8C
  8
0
 62
     7
 10
112.001466
 20
72.735924
 30
0.0
  0
SEQEND
  5
3C8D
  8
0
 62
     7
  0
POLYLINE
  5
382B
  8
0
 62
     7
 66
     1
 10
0.0
 20
0.0
 30
0.0
  0
VERTEX
  5
3C8E
  8
0
 62
     7
 10
94.143354
 20
70.16542
 30
0.0
  0
VERTEX
  5
3C8F
  8
0
 62
     7
 10
96.578535
 20
70.207518
 30
0.0
  0
VERTEX
  5
3C90
  8
0
 62
     7
 10
100.52046
 20
70.456213
 30
0.0
  0
VERTEX
  5
3C91
  8
0
 62
     7
 10
104.427871
 20
70.928436
 30
0.0
  0
VERTEX
  5
3C92
  8
0
 62
     7
 10
108.292596
 20
71.624733
 30
0.0
  0
SEQEND
  5
3C93
  8
0
 62
     7
  0
POLYLINE
  5
382C
  8
0
 62
     7
 66
     1
 10
0.0
 20
0.0
 30
0.0
  0
VERTEX
  5
3C94
  8
0
 62
     7
 10
95.146914
 20
70.168727
 30
0.0
  0
VERTEX
  5
3C95
  8
0
 62
     7
 10
99.426188
 20
70.303982
 30
0.0
  0
VERTEX
  5
3C96
  8
0
 62
     7
 10
104.044107
 20
70.747723
 30
0.0
  0
VERTEX
  5
3C97
  8
0
 62
     7
 10
108.665964
 20
71.497615
 30
0.0
  0
VERTEX
  5
3C98
  8
0
 62
     7
 10
109.352991
 20
71.654927
 30
0.0
  0
SEQEND
  5
3C99
  8
0
 62
     7
  0
DIMENSION
  5
382F
  8
0
 62
     7
  2
*D0
 10
127.093029
 20
203.343005
 30
0.0
 11
104.693029
 21
205.593005
 31
0.0
 70
     0
 13
82.293029
 23
197.56542
 33
0.0
 14
127.093029
 24
197.56542
 34
0.0
1001
ACAD
1000
DSTYLE
1002
{
1070
    41
1040
2.5
1070
    42
1040
1.0
1070
    43
1040
2.0
1070
    44
1040
1.0
1070
   140
1040
2.5
1070
   141
1040
1.6
1002
}
  0
LINE
  5
3830
  8
0
 62
     7
 10
83.693029
 20
134.36542
 30
0.0
 11
83.693029
 21
144.822249
 31
0.0
  0
LINE
  5
3831
  8
0
 62
     7
 10
83.393029
 20
134.16542
 30
0.0
 11
83.393029
 21
145.016749
 31
0.0
  0
LINE
  5
3832
  8
0
 62
     7
 10
82.693029
 20
130.66542
 30
0.0
 11
82.693029
 21
152.306701
 31
0.0
  0
LINE
  5
3833
  8
0
 62
     7
 10
82.193029
 20
130.66542
 30
0.0
 11
82.193029
 21
182.316294
 31
0.0
  0
DIMENSION
  5
3835
  8
0
 62
     7
  2
*D1
 10
71.310055
 20
70.16542
 30
0.0
 11
69.060055
 21
133.51542
 31
0.0
 70
     0
 13
81.593029
 23
196.86542
 33
0.0
 14
93.419381
 24
70.16542
 34
0.0
 50
270.0
1001
ACAD
1000
DSTYLE
1002
{
1070
    41
1040
2.5
1070
    42
1040
1.0
1070
    43
1040
2.0
1070
    44
1040
1.0
1070
   140
1040
2.5
1070
   141
1040
1.6
1002
}
  0
POLYLINE
  5
3836
  8
0
 62
     7
 66
     1
 10
0.0
 20
0.0
 30
0.0
  0
VERTEX
  5
3C9A
  8
0
 62
     7
 10
104.208632
 20
77.461596
 30
0.0
  0
VERTEX
  5
3C9B
  8
0
 62
     7
 10
104.249597
 20
77.549125
 30
0.0
  0
VERTEX
  5
3C9C
  8
0
 62
     7
 10
104.410285
 20
78.147549
 30
0.0
  0
VERTEX
  5
3C9D
  8
0
 62
     7
 10
104.46442
 20
78.76542
 30
0.0
  0
SEQEND
  5
3C9E
  8
0
 62
     7
  0
POLYLINE
  5
3837
  8
0
 62
     7
 66
     1
 10
0.0
 20
0.0
 30
0.0
  0
VERTEX
  5
3C9F
  8
0
 62
     7
 10
104.212994
 20
77.446738
 30
0.0
  0
VERTEX
  5
3CA0
  8
0
 62
     7
 10
104.02309
 20
78.093579
 30
0.0
  0
VERTEX
  5
3CA1
  8
0
 62
     7
 10
103.958992
 20
78.76542
 30
0.0
  0
SEQEND
  5
3CA2
  8
0
 62
     7
  0
POLYLINE
  5
3838
  8
0
 62
     7
 66
     1
 10
0.0
 20
0.0
 30
0.0
  0
VERTEX
  5
3CA3
  8
0
 62
     7
 10
84.450576
 20
70.995845
 30
0.0
  0
VERTEX
  5
3CA4
  8
0
 62
     7
 10
84.381938
 20
75.584028
 30
0.0
  0
VERTEX
  5
3CA5
  8
0
 62
     7
 10
84.3132
 20
80.207172
 30
0.0
  0
VERTEX
  5
3CA6
  8
0
 62
     7
 10
84.244361
 20
84.86542
 30
0.0
  0
SEQEND
  5
3CA7
  8
0
 62
     7
  0
POLYLINE
  5
3839
  8
0
 62
     7
 66
     1
 10
0.0
 20
0.0
 30
0.0
  0
VERTEX
  5
3CA8
  8
0
 62
     7
 10
84.634842
 20
70.995739
 30
0.0
  0
VERTEX
  5
3CA9
  8
0
 62
     7
 10
84.566098
 20
75.584029
 30
0.0
  0
VERTEX
  5
3CAA
  8
0
 62
     7
 10
84.497249
 20
80.207172
 30
0.0
  0
VERTEX
  5
3CAB
  8
0
 62
     7
 10
84.428293
 20
84.86542
 30
0.0
  0
SEQEND
  5
3CAC
  8
0
 62
     7
  0
LINE
  5
383A
  8
0
 62
     7
 10
84.08081
 20
84.86542
 30
0.0
 11
84.321962
 21
71.049838
 31
0.0
  0
POLYLINE
  5
383B
  8
0
 62
     7
 66
     1
 10
0.0
 20
0.0
 30
0.0
  0
VERTEX
  5
3CAD
  8
0
 62
     7
 10
84.621656
 20
70.800969
 30
0.0
  0
VERTEX
  5
3CAE
  8
0
 62
     7
 10
89.264032
 20
70.332837
 30
0.0
  0
VERTEX
  5
3CAF
  8
0
 62
     7
 10
94.143387
 20
70.165425
 30
0.0
  0
SEQEND
  5
3CB0
  8
0
 62
     7
  0
POLYLINE
  5
383C
  8
0
 62
     7
 66
     1
 10
0.0
 20
0.0
 30
0.0
  0
VERTEX
  5
3CB1
  8
0
 62
     7
 10
84.634842
 20
70.995726
 30
0.0
  0
VERTEX
  5
3CB2
  8
0
 62
     7
 10
84.625983
 20
70.920849
 30
0.0
  0
VERTEX
  5
3CB3
  8
0
 62
     7
 10
84.62036
 20
70.857084
 30
0.0
  0
SEQEND
  5
3CB4
  8
0
 62
     7
  0
LINE
  5
383D
  8
0
 62
     7
 10
84.62036
 20
70.857084
 30
0.0
 11
84.618944
 21
70.814987
 31
0.0
  0
LINE
  5
383E
  8
0
 62
     7
 10
84.321954
 20
71.050303
 30
0.0
 11
84.323755
 21
71.02643
 31
0.0
  0
POLYLINE
  5
383F
  8
0
 62
     7
 66
     1
 10
0.0
 20
0.0
 30
0.0
  0
VERTEX
  5
3CB5
  8
0
 62
     7
 10
84.450578
 20
70.995726
 30
0.0
  0
VERTEX
  5
3CB6
  8
0
 62
     7
 10
84.46337
 20
70.927111
 30
0.0
  0
VERTEX
  5
3CB7
  8
0
 62
     7
 10
84.499297
 20
70.866756
 30
0.0
  0
VERTEX
  5
3CB8
  8
0
 62
     7
 10
84.554946
 20
70.822352
 30
0.0
  0
VERTEX
  5
3CB9
  8
0
 62
     7
 10
84.594595
 20
70.806497
 30
0.0
  0
SEQEND
  5
3CBA
  8
0
 62
     7
  0
LINE
  5
3840
  8
0
 62
     7
 10
84.618944
 20
70.814987
 30
0.0
 11
84.621809
 21
70.800947
 31
0.0
  0
POLYLINE
  5
3841
  8
0
 62
     7
 66
     1
 10
0.0
 20
0.0
 30
0.0
  0
VERTEX
  5
3CBB
  8
0
 62
     7
 10
84.323755
 20
71.02643
 30
0.0
  0
VERTEX
  5
3CBC
  8
0
 62
     7
 10
84.35628
 20
70.939605
 30
0.0
  0
VERTEX
  5
3CBD
  8
0
 62
     7
 10
84.399885
 20
70.890997
 30
0.0
  0
SEQEND
  5
3CBE
  8
0
 62
     7
  0
POLYLINE
  5
3842
  8
0
 62
     7
 66
     1
 10
0.0
 20
0.0
 30
0.0
  0
VERTEX
  5
3CBF
  8
0
 62
     7
 10
84.321956
 20
71.050187
 30
0.0
  0
VERTEX
  5
3CC0
  8
0
 62
     7
 10
84.335211
 20
71.03626
 30
0.0
  0
VERTEX
  5
3CC1
  8
0
 62
     7
 10
84.38201
 20
71.016383
 30
0.0
  0
VERTEX
  5
3CC2
  8
0
 62
     7
 10
84.450576
 20
70.995845
 30
0.0
  0
SEQEND
  5
3CC3
  8
0
 62
     7
  0
POLYLINE
  5
3843
  8
0
 62
     7
 66
     1
 10
0.0
 20
0.0
 30
0.0
  0
VERTEX
  5
3CC4
  8
0
 62
     7
 10
84.399885
 20
70.890997
 30
0.0
  0
VERTEX
  5
3CC5
  8
0
 62
     7
 10
84.435716
 20
70.866069
 30
0.0
  0
VERTEX
  5
3CC6
  8
0
 62
     7
 10
84.466213
 20
70.850377
 30
0.0
  0
VERTEX
  5
3CC7
  8
0
 62
     7
 10
84.495893
 20
70.838004
 30
0.0
  0
VERTEX
  5
3CC8
  8
0
 62
     7
 10
84.527441
 20
70.826763
 30
0.0
  0
VERTEX
  5
3CC9
  8
0
 62
     7
 10
84.562248
 20
70.815794
 30
0.0
  0
VERTEX
  5
3CCA
  8
0
 62
     7
 10
84.594696
 20
70.806468
 30
0.0
  0
SEQEND
  5
3CCB
  8
0
 62
     7
  0
LINE
  5
3844
  8
0
 62
     7
 10
84.594595
 20
70.806497
 30
0.0
 11
84.594723
 21
70.806461
 31
0.0
  0
LINE
  5
3845
  8
0
 62
     7
 10
84.594595
 20
70.806497
 30
0.0
 11
84.621814
 21
70.800947
 31
0.0
  0
POLYLINE
  5
3846
  8
0
 62
     7
 66
     1
 10
0.0
 20
0.0
 30
0.0
  0
VERTEX
  5
3CCC
  8
0
 62
     7
 10
84.450578
 20
70.995726
 30
0.0
  0
VERTEX
  5
3CCD
  8
0
 62
     7
 10
84.472062
 20
70.995003
 30
0.0
  0
VERTEX
  5
3CCE
  8
0
 62
     7
 10
84.513303
 20
70.994752
 30
0.0
  0
VERTEX
  5
3CCF
  8
0
 62
     7
 10
84.569673
 20
70.995003
 30
0.0
  0
VERTEX
  5
3CD0
  8
0
 62
     7
 10
84.634842
 20
70.995726
 30
0.0
  0
SEQEND
  5
3CD1
  8
0
 62
     7
  0
LINE
  5
3847
  8
0
 62
     7
 10
97.456295
 20
70.207518
 30
0.0
 11
95.319627
 21
70.170248
 31
0.0
  0
POLYLINE
  5
3848
  8
0
 62
     7
 66
     1
 10
0.0
 20
0.0
 30
0.0
  0
VERTEX
  5
3CD2
  8
0
 62
     7
 10
94.927884
 20
70.167107
 30
0.0
  0
VERTEX
  5
3CD3
  8
0
 62
     7
 10
95.157955
 20
70.168808
 30
0.0
  0
VERTEX
  5
3CD4
  8
0
 62
     7
 10
95.348881
 20
70.170508
 30
0.0
  0
VERTEX
  5
3CD5
  8
0
 62
     7
 10
95.489203
 20
70.171763
 30
0.0
  0
VERTEX
  5
3CD6
  8
0
 62
     7
 10
95.567622
 20
70.172221
 30
0.0
  0
VERTEX
  5
3CD7
  8
0
 62
     7
 10
95.582811
 20
70.172017
 30
0.0
  0
SEQEND
  5
3CD8
  8
0
 62
     7
  0
LINE
  5
3849
  8
0
 62
     7
 10
94.140669
 20
70.16542
 30
0.0
 11
94.419381
 21
70.16542
 31
0.0
  0
LINE
  5
384A
  8
0
 62
     7
 10
94.419381
 20
70.16542
 30
0.0
 11
94.676665
 21
70.165872
 31
0.0
  0
LINE
  5
384B
  8
0
 62
     7
 10
94.676665
 20
70.165872
 30
0.0
 11
94.927884
 21
70.167107
 31
0.0
  0
LINE
  5
384C
  8
0
 62
     7
 10
101.398177
 20
70.456214
 30
0.0
 11
97.456295
 21
70.207518
 31
0.0
  0
LINE
  5
384D
  8
0
 62
     7
 10
86.343045
 20
86.56542
 30
0.0
 11
89.816205
 21
86.56542
 31
0.0
  0
POLYLINE
  5
384E
  8
0
 62
     7
 66
     1
 10
0.0
 20
0.0
 30
0.0
  0
VERTEX
  5
3CD9
  8
0
 62
     7
 10
101.05831
 20
84.542174
 30
0.0
  0
VERTEX
  5
3CDA
  8
0
 62
     7
 10
100.696189
 20
84.460893
 30
0.0
  0
VERTEX
  5
3CDB
  8
0
 62
     7
 10
100.303495
 20
84.380917
 30
0.0
  0
VERTEX
  5
3CDC
  8
0
 62
     7
 10
99.868056
 20
84.301893
 30
0.0
  0
VERTEX
  5
3CDD
  8
0
 62
     7
 10
99.378368
 20
84.224754
 30
0.0
  0
VERTEX
  5
3CDE
  8
0
 62
     7
 10
98.822591
 20
84.151623
 30
0.0
  0
VERTEX
  5
3CDF
  8
0
 62
     7
 10
98.187923
 20
84.085805
 30
0.0
  0
VERTEX
  5
3CE0
  8
0
 62
     7
 10
97.479579
 20
84.032808
 30
0.0
  0
VERTEX
  5
3CE1
  8
0
 62
     7
 10
96.758923
 20
83.998281
 30
0.0
  0
VERTEX
  5
3CE2
  8
0
 62
     7
 10
96.085711
 20
83.980333
 30
0.0
  0
VERTEX
  5
3CE3
  8
0
 62
     7
 10
95.457185
 20
83.972521
 30
0.0
  0
VERTEX
  5
3CE4
  8
0
 62
     7
 10
94.881527
 20
83.969906
 30
0.0
  0
VERTEX
  5
3CE5
  8
0
 62
     7
 10
94.374125
 20
83.969295
 30
0.0
  0
VERTEX
  5
3CE6
  8
0
 62
     7
 10
93.927731
 20
83.969313
 30
0.0
  0
VERTEX
  5
3CE7
  8
0
 62
     7
 10
93.527201
 20
83.969764
 30
0.0
  0
VERTEX
  5
3CE8
  8
0
 62
     7
 10
93.176088
 20
83.97082
 30
0.0
  0
VERTEX
  5
3CE9
  8
0
 62
     7
 10
92.863033
 20
83.972669
 30
0.0
  0
VERTEX
  5
3CEA
  8
0
 62
     7
 10
92.571892
 20
83.97552
 30
0.0
  0
VERTEX
  5
3CEB
  8
0
 62
     7
 10
92.286748
 20
83.979709
 30
0.0
  0
VERTEX
  5
3CEC
  8
0
 62
     7
 10
91.992269
 20
83.985831
 30
0.0
  0
VERTEX
  5
3CED
  8
0
 62
     7
 10
91.67361
 20
83.994903
 30
0.0
  0
VERTEX
  5
3CEE
  8
0
 62
     7
 10
91.316705
 20
84.008562
 30
0.0
  0
VERTEX
  5
3CEF
  8
0
 62
     7
 10
90.916812
 20
84.028845
 30
0.0
  0
VERTEX
  5
3CF0
  8
0
 62
     7
 10
90.474995
 20
84.058067
 30
0.0
  0
VERTEX
  5
3CF1
  8
0
 62
     7
 10
89.981185
 20
84.09999
 30
0.0
  0
VERTEX
  5
3CF2
  8
0
 62
     7
 10
89.437892
 20
84.158295
 30
0.0
  0
VERTEX
  5
3CF3
  8
0
 62
     7
 10
88.921133
 20
84.226333
 30
0.0
  0
VERTEX
  5
3CF4
  8
0
 62
     7
 10
88.444333
 20
84.300522
 30
0.0
  0
VERTEX
  5
3CF5
  8
0
 62
     7
 10
88.005156
 20
84.378917
 30
0.0
  0
VERTEX
  5
3CF6
  8
0
 62
     7
 10
87.600759
 20
84.459897
 30
0.0
  0
VERTEX
  5
3CF7
  8
0
 62
     7
 10
87.228136
 20
84.542174
 30
0.0
  0
SEQEND
  5
3CF8
  8
0
 62
     7
  0
POLYLINE
  5
384F
  8
0
 62
     7
 66
     1
 10
0.0
 20
0.0
 30
0.0
  0
VERTEX
  5
3CF9
  8
0
 62
     7
 10
100.979681
 20
84.732712
 30
0.0
  0
VERTEX
  5
3CFA
  8
0
 62
     7
 10
100.621465
 20
84.652264
 30
0.0
  0
VERTEX
  5
3CFB
  8
0
 62
     7
 10
100.233008
 20
84.57312
 30
0.0
  0
VERTEX
  5
3CFC
  8
0
 62
     7
 10
99.802183
 20
84.494919
 30
0.0
  0
VERTEX
  5
3CFD
  8
0
 62
     7
 10
99.317553
 20
84.418582
 30
0.0
  0
VERTEX
  5
3CFE
  8
0
 62
     7
 10
98.767294
 20
84.346208
 30
0.0
  0
VERTEX
  5
3CFF
  8
0
 62
     7
 10
98.138554
 20
84.281072
 30
0.0
  0
VERTEX
  5
3D00
  8
0
 62
     7
 10
97.436424
 20
84.228638
 30
0.0
  0
VERTEX
  5
3D01
  8
0
 62
     7
 10
96.721417
 20
84.194485
 30
0.0
  0
VERTEX
  5
3D02
  8
0
 62
     7
 10
96.052336
 20
84.176726
 30
0.0
  0
VERTEX
  5
3D03
  8
0
 62
     7
 10
95.426628
 20
84.168995
 30
0.0
  0
VERTEX
  5
3D04
  8
0
 62
     7
 10
94.852625
 20
84.166406
 30
0.0
  0
VERTEX
  5
3D05
  8
0
 62
     7
 10
94.34615
 20
84.165801
 30
0.0
  0
VERTEX
  5
3D06
  8
0
 62
     7
 10
93.900536
 20
84.165819
 30
0.0
  0
VERTEX
  5
3D07
  8
0
 62
     7
 10
93.500926
 20
84.166265
 30
0.0
  0
VERTEX
  5
3D08
  8
0
 62
     7
 10
93.15092
 20
84.16731
 30
0.0
  0
VERTEX
  5
3D09
  8
0
 62
     7
 10
92.839134
 20
84.16914
 30
0.0
  0
VERTEX
  5
3D0A
  8
0
 62
     7
 10
92.549421
 20
84.171961
 30
0.0
  0
VERTEX
  5
3D0B
  8
0
 62
     7
 10
92.265904
 20
84.176106
 30
0.0
  0
VERTEX
  5
3D0C
  8
0
 62
     7
 10
91.973332
 20
84.182165
 30
0.0
  0
VERTEX
  5
3D0D
  8
0
 62
     7
 10
91.656978
 20
84.191143
 30
0.0
  0
VERTEX
  5
3D0E
  8
0
 62
     7
 10
91.302931
 20
84.204659
 30
0.0
  0
VERTEX
  5
3D0F
  8
0
 62
     7
 10
90.906532
 20
84.22473
 30
0.0
  0
VERTEX
  5
3D10
  8
0
 62
     7
 10
90.468845
 20
84.253648
 30
0.0
  0
VERTEX
  5
3D11
  8
0
 62
     7
 10
89.979958
 20
84.295131
 30
0.0
  0
VERTEX
  5
3D12
  8
0
 62
     7
 10
89.442413
 20
84.352814
 30
0.0
  0
VERTEX
  5
3D13
  8
0
 62
     7
 10
88.931157
 20
84.420146
 30
0.0
  0
VERTEX
  5
3D14
  8
0
 62
     7
 10
88.459576
 20
84.493563
 30
0.0
  0
VERTEX
  5
3D15
  8
0
 62
     7
 10
88.025291
 20
84.57114
 30
0.0
  0
VERTEX
  5
3D16
  8
0
 62
     7
 10
87.625453
 20
84.651277
 30
0.0
  0
VERTEX
  5
3D17
  8
0
 62
     7
 10
87.257004
 20
84.732712
 30
0.0
  0
SEQEND
  5
3D18
  8
0
 62
     7
  0
LINE
  5
3850
  8
0
 62
     7
 10
84.08081
 20
84.86542
 30
0.0
 11
101.539834
 21
84.86542
 31
0.0
  0
LINE
  5
3851
  8
0
 62
     7
 10
87.257004
 20
84.732712
 30
0.0
 11
100.979681
 21
84.732712
 31
0.0
  0
LINE
  5
3852
  8
0
 62
     7
 10
82.293029
 20
111.16542
 30
0.0
 11
82.293029
 21
86.153832
 31
0.0
  0
LINE
  5
3853
  8
0
 62
     7
 10
82.193029
 20
113.16542
 30
0.0
 11
82.793029
 21
101.16542
 31
0.0
  0
LINE
  5
3854
  8
0
 62
     7
 10
82.793029
 20
101.16542
 30
0.0
 11
82.793029
 21
88.452842
 31
0.0
  0
LINE
  5
3855
  8
0
 62
     7
 10
82.043029
 20
88.734847
 30
0.0
 11
82.043029
 21
96.558802
 31
0.0
  0
LINE
  5
3856
  8
0
 62
     7
 10
86.399632
 20
86.56542
 30
0.0
 11
82.635229
 21
87.17529
 31
0.0
  0
LINE
  5
3857
  8
0
 62
     7
 10
86.343029
 20
85.714864
 30
0.0
 11
82.538799
 21
86.327825
 31
0.0
  0
LINE
  5
3858
  8
0
 62
     7
 10
82.536216
 20
85.85914
 30
0.0
 11
86.343029
 21
85.247495
 31
0.0
  0
LINE
  5
3859
  8
0
 62
     7
 10
83.878798
 20
87.36542
 30
0.0
 11
83.498908
 21
87.36542
 31
0.0
  0
ARC
  5
385A
  8
0
 62
     7
 10
83.293029
 20
88.452842
 30
0.0
 40
1.0
 50
180.0
 51
260.450974
  0
LINE
  5
385B
  8
0
 62
     7
 10
82.793029
 20
88.452842
 30
0.0
 11
82.293029
 21
88.452842
 31
0.0
  0
LINE
  5
385C
  8
0
 62
     7
 10
82.924435
 20
87.472717
 30
0.0
 11
82.637415
 21
87.527439
 31
0.0
  0
ARC
  5
385D
  8
0
 62
     7
 10
83.043029
 20
88.734847
 30
0.0
 40
1.0
 50
180.0
 51
220.782421
  0
ARC
  5
385E
  8
0
 62
     7
 10
82.593029
 20
86.153712
 30
0.0
 40
0.3
 50
180.0
 51
259.083755
  0
POLYLINE
  5
385F
  8
0
 62
     7
 66
     1
 10
0.0
 20
0.0
 30
0.0
  0
VERTEX
  5
3D19
  8
0
 62
     7
 10
82.635229
 20
87.17529
 30
0.0
  0
VERTEX
  5
3D1A
  8
0
 62
     7
 10
82.626457
 20
87.098955
 30
0.0
  0
VERTEX
  5
3D1B
  8
0
 62
     7
 10
82.614741
 20
86.996687
 30
0.0
  0
VERTEX
  5
3D1C
  8
0
 62
     7
 10
82.60077
 20
86.874411
 30
0.0
  0
VERTEX
  5
3D1D
  8
0
 62
     7
 10
82.5859
 20
86.743946
 30
0.0
  0
VERTEX
  5
3D1E
  8
0
 62
     7
 10
82.571688
 20
86.618947
 30
0.0
  0
VERTEX
  5
3D1F
  8
0
 62
     7
 10
82.55933
 20
86.509974
 30
0.0
  0
VERTEX
  5
3D20
  8
0
 62
     7
 10
82.549624
 20
86.42414
 30
0.0
  0
VERTEX
  5
3D21
  8
0
 62
     7
 10
82.538799
 20
86.327827
 30
0.0
  0
SEQEND
  5
3D22
  8
0
 62
     7
  0
LINE
  5
3860
  8
0
 62
     7
 10
82.637411
 20
87.527417
 30
0.0
 11
82.635229
 21
87.175287
 31
0.0
  0
LINE
  5
3861
  8
0
 62
     7
 10
82.538799
 20
86.327826
 30
0.0
 11
82.536217
 21
85.859141
 31
0.0
  0
LINE
  5
3862
  8
0
 62
     7
 10
82.593029
 20
87.740965
 30
0.0
 11
82.593029
 21
87.531638
 31
0.0
  0
POLYLINE
  5
3863
  8
0
 62
     7
 66
     1
 10
0.0
 20
0.0
 30
0.0
  0
VERTEX
  5
3D23
  8
0
 62
     7
 10
82.593029
 20
87.531638
 30
0.0
  0
VERTEX
  5
3D24
  8
0
 62
     7
 10
82.471851
 20
87.519376
 30
0.0
  0
VERTEX
  5
3D25
  8
0
 62
     7
 10
82.374694
 20
87.486318
 30
0.0
  0
VERTEX
  5
3D26
  8
0
 62
     7
 10
82.313489
 20
87.439443
 30
0.0
  0
VERTEX
  5
3D27
  8
0
 62
     7
 10
82.293029
 20
87.386358
 30
0.0
  0
SEQEND
  5
3D28
  8
0
 62
     7
  0
POLYLINE
  5
3864
  8
0
 62
     7
 66
     1
 10
0.0
 20
0.0
 30
0.0
  0
VERTEX
  5
3D29
  8
0
 62
     7
 10
82.593029
 20
87.531638
 30
0.0
  0
VERTEX
  5
3D2A
  8
0
 62
     7
 10
82.607835
 20
87.531169
 30
0.0
  0
VERTEX
  5
3D2B
  8
0
 62
     7
 10
82.622632
 20
87.52976
 30
0.0
  0
VERTEX
  5
3D2C
  8
0
 62
     7
 10
82.637415
 20
87.527439
 30
0.0
  0
SEQEND
  5
3D2D
  8
0
 62
     7
  0
POLYLINE
  5
3865
  8
0
 62
     7
 66
     1
 10
0.0
 20
0.0
 30
0.0
  0
VERTEX
  5
3D2E
  8
0
 62
     7
 10
82.635229
 20
87.17529
 30
0.0
  0
VERTEX
  5
3D2F
  8
0
 62
     7
 10
82.50815
 20
87.168425
 30
0.0
  0
VERTEX
  5
3D30
  8
0
 62
     7
 10
82.396382
 20
87.123144
 30
0.0
  0
VERTEX
  5
3D31
  8
0
 62
     7
 10
82.320087
 20
87.047614
 30
0.0
  0
VERTEX
  5
3D32
  8
0
 62
     7
 10
82.293029
 20
86.955461
 30
0.0
  0
SEQEND
  5
3D33
  8
0
 62
     7
  0
POLYLINE
  5
3866
  8
0
 62
     7
 66
     1
 10
0.0
 20
0.0
 30
0.0
  0
VERTEX
  5
3D34
  8
0
 62
     7
 10
82.538799
 20
86.327826
 30
0.0
  0
VERTEX
  5
3D35
  8
0
 62
     7
 10
82.412723
 20
86.380519
 30
0.0
  0
VERTEX
  5
3D36
  8
0
 62
     7
 10
82.324615
 20
86.481333
 30
0.0
  0
VERTEX
  5
3D37
  8
0
 62
     7
 10
82.293029
 20
86.60904
 30
0.0
  0
SEQEND
  5
3D38
  8
0
 62
     7
  0
ARC
  5
3867
  8
0
 62
     7
 10
83.293029
 20
88.452842
 30
0.0
 40
0.499999
 50
180.0
 51
260.450974
  0
LINE
  5
3868
  8
0
 62
     7
 10
83.210083
 20
87.95977
 30
0.0
 11
83.127137
 21
87.466698
 31
0.0
  0
LINE
  5
3869
  8
0
 62
     7
 10
83.2116
 20
87.41871
 30
0.0
 11
82.924435
 21
87.472717
 31
0.0
  0
LINE
  5
386A
  8
0
 62
     7
 10
83.498908
 20
87.36542
 30
0.0
 11
83.2116
 21
87.41871
 31
0.0
  0
LINE
  5
386B
  8
0
 62
     7
 10
82.293029
 20
90.513337
 30
0.0
 11
82.043029
 21
90.513337
 31
0.0
  0
LINE
  5
386C
  8
0
 62
     7
 10
86.343029
 20
84.86542
 30
0.0
 11
86.343029
 21
86.56542
 31
0.0
  0
POLYLINE
  5
386D
  8
0
 62
     7
 66
     1
 10
0.0
 20
0.0
 30
0.0
  0
VERTEX
  5
3D39
  8
0
 62
     7
 10
87.228136
 20
84.542174
 30
0.0
  0
VERTEX
  5
3D3A
  8
0
 62
     7
 10
86.535504
 20
84.70326
 30
0.0
  0
VERTEX
  5
3D3B
  8
0
 62
     7
 10
85.847053
 20
84.86542
 30
0.0
  0
SEQEND
  5
3D3C
  8
0
 62
     7
  0
POLYLINE
  5
386E
  8
0
 62
     7
 66
     1
 10
0.0
 20
0.0
 30
0.0
  0
VERTEX
  5
3D3D
  8
0
 62
     7
 10
87.257004
 20
84.73271
 30
0.0
  0
VERTEX
  5
3D3E
  8
0
 62
     7
 10
87.258305
 20
84.71341
 30
0.0
  0
VERTEX
  5
3D3F
  8
0
 62
     7
 10
87.253372
 20
84.671132
 30
0.0
  0
VERTEX
  5
3D40
  8
0
 62
     7
 10
87.242855
 20
84.611437
 30
0.0
  0
VERTEX
  5
3D41
  8
0
 62
     7
 10
87.228136
 20
84.542174
 30
0.0
  0
SEQEND
  5
3D42
  8
0
 62
     7
  0
POLYLINE
  5
386F
  8
0
 62
     7
 66
     1
 10
0.0
 20
0.0
 30
0.0
  0
VERTEX
  5
3D43
  8
0
 62
     7
 10
87.257004
 20
84.732712
 30
0.0
  0
VERTEX
  5
3D44
  8
0
 62
     7
 10
86.971681
 20
84.798936
 30
0.0
  0
VERTEX
  5
3D45
  8
0
 62
     7
 10
86.686955
 20
84.86542
 30
0.0
  0
SEQEND
  5
3D46
  8
0
 62
     7
  0
LINE
  5
3870
  8
0
 62
     7
 10
86.841299
 20
86.86542
 30
0.0
 11
87.093029
 21
86.56542
 31
0.0
  0
LINE
  5
3871
  8
0
 62
     7
 10
86.841429
 20
86.86542
 30
0.0
 11
87.070316
 21
86.86542
 31
0.0
  0
LINE
  5
3872
  8
0
 62
     7
 10
82.293029
 20
96.558802
 30
0.0
 11
82.043029
 21
96.558802
 31
0.0
  0
LINE
  5
3873
  8
0
 62
     7
 10
87.193029
 20
125.86542
 30
0.0
 11
87.193029
 21
115.36542
 31
0.0
  0
LINE
  5
3874
  8
0
 62
     7
 10
86.693029
 20
125.36542
 30
0.0
 11
86.693029
 21
115.86542
 31
0.0
  0
LINE
  5
3875
  8
0
 62
     7
 10
83.893029
 20
125.36542
 30
0.0
 11
83.893029
 21
116.66542
 31
0.0
  0
LINE
  5
3876
  8
0
 62
     7
 10
83.843029
 20
125.36542
 30
0.0
 11
83.843029
 21
116.66542
 31
0.0
  0
LINE
  5
3877
  8
0
 62
     7
 10
83.693029
 20
115.86542
 30
0.0
 11
83.693029
 21
125.36542
 31
0.0
  0
LINE
  5
3878
  8
0
 62
     7
 10
83.193029
 20
115.36542
 30
0.0
 11
83.193029
 21
125.86542
 31
0.0
  0
LINE
  5
3879
  8
0
 62
     7
 10
82.293029
 20
120.16542
 30
0.0
 11
82.193029
 21
124.66542
 31
0.0
  0
LINE
  5
387A
  8
0
 62
     7
 10
86.693029
 20
115.86542
 30
0.0
 11
83.693029
 21
115.86542
 31
0.0
  0
LINE
  5
387B
  8
0
 62
     7
 10
87.193029
 20
115.36542
 30
0.0
 11
83.193029
 21
115.36542
 31
0.0
  0
LINE
  5
387C
  8
0
 62
     7
 10
82.293029
 20
116.16542
 30
0.0
 11
82.193029
 21
120.16542
 31
0.0
  0
LINE
  5
387D
  8
0
 62
     7
 10
83.193029
 20
115.36542
 30
0.0
 11
83.693029
 21
115.86542
 31
0.0
  0
ARC
  5
387E
  8
0
 62
     7
 10
82.993029
 20
110.46542
 30
0.0
 40
0.8
 50
180.0
 51
207.517548
  0
LINE
  5
387F
  8
0
 62
     7
 10
82.193029
 20
110.46542
 30
0.0
 11
82.193029
 21
111.16542
 31
0.0
  0
LINE
  5
3880
  8
0
 62
     7
 10
82.193029
 20
111.16542
 30
0.0
 11
82.293029
 21
111.16542
 31
0.0
  0
LINE
  5
3881
  8
0
 62
     7
 10
82.193029
 20
116.16542
 30
0.0
 11
82.293029
 21
116.16542
 31
0.0
  0
LINE
  5
3882
  8
0
 62
     7
 10
82.193029
 20
113.16542
 30
0.0
 11
82.293029
 21
113.16542
 31
0.0
  0
LINE
  5
3883
  8
0
 62
     7
 10
82.293029
 20
113.16542
 30
0.0
 11
82.193029
 21
116.16542
 31
0.0
  0
LINE
  5
3884
  8
0
 62
     7
 10
82.193029
 20
120.16542
 30
0.0
 11
82.293029
 21
120.16542
 31
0.0
  0
LINE
  5
3885
  8
0
 62
     7
 10
83.843029
 20
120.04542
 30
0.0
 11
83.693029
 21
120.04542
 31
0.0
  0
LINE
  5
3886
  8
0
 62
     7
 10
83.843029
 20
119.66542
 30
0.0
 11
83.693029
 21
119.66542
 31
0.0
  0
LINE
  5
3887
  8
0
 62
     7
 10
83.893029
 20
116.66542
 30
0.0
 11
83.693029
 21
116.66542
 31
0.0
  0
LINE
  5
3888
  8
0
 62
     7
 10
87.193029
 20
115.36542
 30
0.0
 11
86.693029
 21
115.86542
 31
0.0
  0
LINE
  5
3889
  8
0
 62
     7
 10
83.193029
 20
125.86542
 30
0.0
 11
87.193029
 21
125.86542
 31
0.0
  0
LINE
  5
388A
  8
0
 62
     7
 10
83.693029
 20
125.36542
 30
0.0
 11
86.693029
 21
125.36542
 31
0.0
  0
LINE
  5
388B
  8
0
 62
     7
 10
85.193029
 20
130.66542
 30
0.0
 11
85.193029
 21
134.36542
 31
0.0
  0
LINE
  5
388C
  8
0
 62
     7
 10
84.893029
 20
134.16542
 30
0.0
 11
84.893029
 21
130.66542
 31
0.0
  0
LINE
  5
388D
  8
0
 62
     7
 10
83.393029
 20
130.66542
 30
0.0
 11
83.393029
 21
132.383454
 31
0.0
  0
LINE
  5
388E
  8
0
 62
     7
 10
83.393029
 20
132.159847
 30
0.0
 11
84.893029
 21
132.159847
 31
0.0
  0
LINE
  5
388F
  8
0
 62
     7
 10
84.893029
 20
130.941813
 30
0.0
 11
83.393029
 21
130.941813
 31
0.0
  0
LINE
  5
3890
  8
0
 62
     7
 10
82.193029
 20
130.66542
 30
0.0
 11
85.193029
 21
130.66542
 31
0.0
  0
LINE
  5
3891
  8
0
 62
     7
 10
83.193029
 20
125.86542
 30
0.0
 11
83.693029
 21
125.36542
 31
0.0
  0
LINE
  5
3892
  8
0
 62
     7
 10
82.293029
 20
124.66542
 30
0.0
 11
82.193029
 21
130.16542
 31
0.0
  0
LINE
  5
3893
  8
0
 62
     7
 10
82.193029
 20
124.66542
 30
0.0
 11
82.293029
 21
124.66542
 31
0.0
  0
LINE
  5
3894
  8
0
 62
     7
 10
82.193029
 20
130.16542
 30
0.0
 11
82.293029
 21
130.16542
 31
0.0
  0
LINE
  5
3895
  8
0
 62
     7
 10
82.293029
 20
130.66542
 30
0.0
 11
82.293029
 21
130.16542
 31
0.0
  0
LINE
  5
3896
  8
0
 62
     7
 10
85.193029
 20
131.06542
 30
0.0
 11
84.893029
 21
131.06542
 31
0.0
  0
ARC
  5
3897
  8
0
 62
     7
 10
83.893029
 20
139.06542
 30
0.0
 40
0.5
 50
180.0
 51
246.32505
  0
ARC
  5
3898
  8
0
 62
     7
 10
83.893029
 20
135.86542
 30
0.0
 40
0.5
 50
113.67495
 51
180.0
  0
LINE
  5
3899
  8
0
 62
     7
 10
83.393029
 20
134.16542
 30
0.0
 11
84.893029
 21
134.16542
 31
0.0
  0
LINE
  5
389A
  8
0
 62
     7
 10
83.393029
 20
132.383454
 30
0.0
 11
84.893029
 21
132.383454
 31
0.0
  0
LINE
  5
389B
  8
0
 62
     7
 10
85.193029
 20
134.36542
 30
0.0
 11
83.693029
 21
134.36542
 31
0.0
  0
LINE
  5
389C
  8
0
 62
     7
 10
83.893029
 20
134.36542
 30
0.0
 11
83.893029
 21
134.16542
 31
0.0
  0
LINE
  5
389D
  8
0
 62
     7
 10
83.843029
 20
134.36542
 30
0.0
 11
83.843029
 21
134.16542
 31
0.0
  0
LINE
  5
389E
  8
0
 62
     7
 10
83.793029
 20
134.36542
 30
0.0
 11
83.793029
 21
134.16542
 31
0.0
  0
LINE
  5
389F
  8
0
 62
     7
 10
85.193029
 20
133.06542
 30
0.0
 11
84.893029
 21
133.06542
 31
0.0
  0
LINE
  5
38A0
  8
0
 62
     7
 10
87.193029
 20
125.86542
 30
0.0
 11
86.693029
 21
125.36542
 31
0.0
  0
POLYLINE
  5
38A1
  8
0
 62
     7
 66
     1
 10
0.0
 20
0.0
 30
0.0
  0
VERTEX
  5
3D47
  8
0
 62
     7
 10
101.642932
 20
84.680318
 30
0.0
  0
VERTEX
  5
3D48
  8
0
 62
     7
 10
101.347088
 20
84.610167
 30
0.0
  0
VERTEX
  5
3D49
  8
0
 62
     7
 10
101.05831
 20
84.542174
 30
0.0
  0
SEQEND
  5
3D4A
  8
0
 62
     7
  0
POLYLINE
  5
38A2
  8
0
 62
     7
 66
     1
 10
0.0
 20
0.0
 30
0.0
  0
VERTEX
  5
3D4B
  8
0
 62
     7
 10
101.539833
 20
84.86542
 30
0.0
  0
VERTEX
  5
3D4C
  8
0
 62
     7
 10
101.256446
 20
84.798062
 30
0.0
  0
VERTEX
  5
3D4D
  8
0
 62
     7
 10
100.979681
 20
84.732712
 30
0.0
  0
SEQEND
  5
3D4E
  8
0
 62
     7
  0
POLYLINE
  5
38A3
  8
0
 62
     7
 66
     1
 10
0.0
 20
0.0
 30
0.0
  0
VERTEX
  5
3D4F
  8
0
 62
     7
 10
100.979681
 20
84.732712
 30
0.0
  0
VERTEX
  5
3D50
  8
0
 62
     7
 10
100.997748
 20
84.713411
 30
0.0
  0
VERTEX
  5
3D51
  8
0
 62
     7
 10
101.018716
 20
84.671133
 30
0.0
  0
VERTEX
  5
3D52
  8
0
 62
     7
 10
101.039829
 20
84.611437
 30
0.0
  0
VERTEX
  5
3D53
  8
0
 62
     7
 10
101.05831
 20
84.542174
 30
0.0
  0
SEQEND
  5
3D54
  8
0
 62
     7
  0
LINE
  5
38A4
  8
0
 62
     7
 10
102.843029
 20
84.86542
 30
0.0
 11
102.843029
 21
85.740084
 31
0.0
  0
LINE
  5
38A5
  8
0
 62
     7
 10
102.835095
 20
84.86542
 30
0.0
 11
102.835095
 21
85.740106
 31
0.0
  0
LINE
  5
38A6
  8
0
 62
     7
 10
102.461752
 20
84.86542
 30
0.0
 11
102.461752
 21
85.741155
 31
0.0
  0
LINE
  5
38A7
  8
0
 62
     7
 10
104.199685
 20
84.576014
 30
0.0
 11
102.461752
 21
84.90003
 31
0.0
  0
LINE
  5
38A8
  8
0
 62
     7
 10
101.641146
 20
84.86542
 30
0.0
 11
102.461752
 21
84.86542
 31
0.0
  0
LINE
  5
38A9
  8
0
 62
     7
 10
101.642932
 20
84.680318
 30
0.0
 11
101.641146
 21
84.86542
 31
0.0
  0
POLYLINE
  5
38AA
  8
0
 62
     7
 66
     1
 10
0.0
 20
0.0
 30
0.0
  0
VERTEX
  5
3D55
  8
0
 62
     7
 10
101.580044
 20
84.851657
 30
0.0
  0
VERTEX
  5
3D56
  8
0
 62
     7
 10
101.613349
 20
84.81172
 30
0.0
  0
VERTEX
  5
3D57
  8
0
 62
     7
 10
101.635193
 20
84.751041
 30
0.0
  0
VERTEX
  5
3D58
  8
0
 62
     7
 10
101.642932
 20
84.680318
 30
0.0
  0
SEQEND
  5
3D59
  8
0
 62
     7
  0
LINE
  5
38AB
  8
0
 62
     7
 10
101.539834
 20
84.86542
 30
0.0
 11
101.580044
 21
84.851657
 31
0.0
  0
LINE
  5
38AC
  8
0
 62
     7
 10
102.843029
 20
84.86542
 30
0.0
 11
103.171382
 21
84.86542
 31
0.0
  0
LINE
  5
38AD
  8
0
 62
     7
 10
103.958992
 20
78.76542
 30
0.0
 11
104.02309
 21
79.43726
 31
0.0
  0
LINE
  5
38AE
  8
0
 62
     7
 10
104.332336
 20
78.76542
 30
0.0
 11
104.396266
 21
79.435501
 31
0.0
  0
POLYLINE
  5
38AF
  8
0
 62
     7
 66
     1
 10
0.0
 20
0.0
 30
0.0
  0
VERTEX
  5
3D5A
  8
0
 62
     7
 10
104.46442
 20
78.76542
 30
0.0
  0
VERTEX
  5
3D5B
  8
0
 62
     7
 10
104.410285
 20
79.38329
 30
0.0
  0
VERTEX
  5
3D5C
  8
0
 62
     7
 10
104.249597
 20
79.981714
 30
0.0
  0
VERTEX
  5
3D5D
  8
0
 62
     7
 10
104.208632
 20
80.069243
 30
0.0
  0
SEQEND
  5
3D5E
  8
0
 62
     7
  0
LINE
  5
38B0
  8
0
 62
     7
 10
104.396266
 20
78.095338
 30
0.0
 11
104.332336
 21
78.76542
 31
0.0
  0
LINE
  5
38B1
  8
0
 62
     7
 10
102.968029
 20
100.86542
 30
0.0
 11
100.118029
 21
100.86542
 31
0.0
  0
LINE
  5
38B2
  8
0
 62
     7
 10
100.118029
 20
99.56542
 30
0.0
 11
102.968029
 21
99.56542
 31
0.0
  0
LINE
  5
38B3
  8
0
 62
     7
 10
100.118029
 20
100.86542
 30
0.0
 11
100.118029
 21
99.56542
 31
0.0
  0
LINE
  5
38B4
  8
0
 62
     7
 10
102.968029
 20
100.86542
 30
0.0
 11
102.968029
 21
99.56542
 31
0.0
  0
LINE
  5
38B5
  8
0
 62
     7
 10
102.843029
 20
103.76542
 30
0.0
 11
102.843029
 21
102.46542
 31
0.0
  0
ARC
  5
38B6
  8
0
 62
     7
 10
104.693029
 20
276.70542
 30
0.0
 40
125.24
 50
261.59789
 51
266.016648
  0
LINE
  5
38B7
  8
0
 62
     7
 10
85.943029
 20
196.96542
 30
0.0
 11
93.443029
 21
196.96542
 31
0.0
  0
LINE
  5
38B8
  8
0
 62
     7
 10
95.943029
 20
193.834166
 30
0.0
 11
86.443029
 21
193.834166
 31
0.0
  0
POLYLINE
  5
38B9
  8
0
 62
     7
 66
     1
 10
0.0
 20
0.0
 30
0.0
  0
VERTEX
  5
3D5F
  8
0
 62
     7
 10
95.943029
 20
192.86542
 30
0.0
  0
VERTEX
  5
3D60
  8
0
 62
     7
 10
92.800999
 20
192.713084
 30
0.0
  0
VERTEX
  5
3D61
  8
0
 62
     7
 10
89.585058
 20
192.713084
 30
0.0
  0
VERTEX
  5
3D62
  8
0
 62
     7
 10
86.443029
 20
192.86542
 30
0.0
  0
SEQEND
  5
3D63
  8
0
 62
     7
  0
LINE
  5
38BA
  8
0
 62
     7
 10
95.943029
 20
188.86542
 30
0.0
 11
86.443029
 21
188.86542
 31
0.0
  0
LINE
  5
38BB
  8
0
 62
     7
 10
86.443029
 20
187.36542
 30
0.0
 11
95.943029
 21
187.36542
 31
0.0
  0
LINE
  5
38BC
  8
0
 62
     7
 10
95.943029
 20
185.86542
 30
0.0
 11
86.443029
 21
185.86542
 31
0.0
  0
LINE
  5
38BD
  8
0
 62
     7
 10
86.443029
 20
184.36542
 30
0.0
 11
95.943029
 21
184.36542
 31
0.0
  0
LINE
  5
38BE
  8
0
 62
     7
 10
95.943029
 20
182.86542
 30
0.0
 11
86.443029
 21
182.86542
 31
0.0
  0
LINE
  5
38BF
  8
0
 62
     7
 10
86.443029
 20
181.36542
 30
0.0
 11
95.943029
 21
181.36542
 31
0.0
  0
LINE
  5
38C0
  8
0
 62
     7
 10
95.943029
 20
179.86542
 30
0.0
 11
86.443029
 21
179.86542
 31
0.0
  0
LINE
  5
38C1
  8
0
 62
     7
 10
86.443029
 20
178.36542
 30
0.0
 11
95.943029
 21
178.36542
 31
0.0
  0
LINE
  5
38C2
  8
0
 62
     7
 10
95.943029
 20
172.86542
 30
0.0
 11
86.443029
 21
172.86542
 31
0.0
  0
LINE
  5
38C3
  8
0
 62
     7
 10
86.043029
 20
168.66542
 30
0.0
 11
97.193029
 21
168.66542
 31
0.0
  0
LINE
  5
38C4
  8
0
 62
     7
 10
86.043029
 20
167.66542
 30
0.0
 11
96.343029
 21
167.66542
 31
0.0
  0
LINE
  5
38C5
  8
0
 62
     7
 10
88.193029
 20
167.36542
 30
0.0
 11
94.193029
 21
167.36542
 31
0.0
  0
LINE
  5
38C6
  8
0
 62
     7
 10
86.043029
 20
166.06542
 30
0.0
 11
96.343029
 21
166.06542
 31
0.0
  0
POLYLINE
  5
38C7
  8
0
 62
     7
 66
     1
 10
0.0
 20
0.0
 30
0.0
  0
VERTEX
  5
3D64
  8
0
 62
     7
 10
86.393029
 20
162.36542
 30
0.0
  0
VERTEX
  5
3D65
  8
0
 62
     7
 10
88.315549
 20
162.68698
 30
0.0
  0
VERTEX
  5
3D66
  8
0
 62
     7
 10
90.234384
 20
162.845682
 30
0.0
  0
VERTEX
  5
3D67
  8
0
 62
     7
 10
92.151763
 20
162.845678
 30
0.0
  0
VERTEX
  5
3D68
  8
0
 62
     7
 10
94.070545
 20
162.686975
 30
0.0
  0
VERTEX
  5
3D69
  8
0
 62
     7
 10
95.993029
 20
162.36542
 30
0.0
  0
SEQEND
  5
3D6A
  8
0
 62
     7
  0
LINE
  5
38C8
  8
0
 62
     7
 10
86.393029
 20
162.96542
 30
0.0
 11
95.993029
 21
162.96542
 31
0.0
  0
LINE
  5
38C9
  8
0
 62
     7
 10
85.243029
 20
177.46542
 30
0.0
 11
85.243029
 21
156.26542
 31
0.0
  0
LINE
  5
38CA
  8
0
 62
     7
 10
84.893029
 20
166.26542
 30
0.0
 11
84.893029
 21
172.26542
 31
0.0
  0
LINE
  5
38CB
  8
0
 62
     7
 10
84.693029
 20
166.16542
 30
0.0
 11
84.693029
 21
171.96542
 31
0.0
  0
LINE
  5
38CC
  8
0
 62
     7
 10
84.043029
 20
166.16542
 30
0.0
 11
84.043029
 21
175.66542
 31
0.0
  0
LINE
  5
38CD
  8
0
 62
     7
 10
83.243029
 20
156.26542
 30
0.0
 11
83.243029
 21
177.46542
 31
0.0
  0
LINE
  5
38CE
  8
0
 62
     7
 10
82.593029
 20
153.104313
 30
0.0
 11
82.593029
 21
196.86542
 31
0.0
  0
LINE
  5
38CF
  8
0
 62
     7
 10
82.293029
 20
153.104313
 30
0.0
 11
82.293029
 21
196.56542
 31
0.0
  0
LINE
  5
38D0
  8
0
 62
     7
 10
86.393029
 20
162.96542
 30
0.0
 11
86.393029
 21
152.809635
 31
0.0
  0
ARC
  5
38D1
  8
0
 62
     7
 10
83.893029
 20
144.822249
 30
0.0
 40
0.2
 50
78.705216
 51
180.0
  0
LINE
  5
38D2
  8
0
 62
     7
 10
83.393029
 20
143.16542
 30
0.0
 11
83.693029
 21
143.16542
 31
0.0
  0
ARC
  5
38D3
  8
0
 62
     7
 10
83.593029
 20
145.016749
 30
0.0
 40
0.2
 50
78.922814
 51
180.0
  0
ARC
  5
38D4
  8
0
 62
     7
 10
83.293029
 20
153.104313
 30
0.0
 40
0.700001
 50
180.0
 51
215.650244
  0
ARC
  5
38D5
  8
0
 62
     7
 10
83.293029
 20
153.104313
 30
0.0
 40
1.0
 50
180.0
 51
260.177324
  0
LINE
  5
38D6
  8
0
 62
     7
 10
82.724216
 20
152.696328
 30
0.0
 11
82.480439
 21
152.521477
 31
0.0
  0
LINE
  5
38D7
  8
0
 62
     7
 10
82.193029
 20
154.56542
 30
0.0
 11
82.293029
 21
154.56542
 31
0.0
  0
LINE
  5
38D8
  8
0
 62
     7
 10
82.593029
 20
153.104313
 30
0.0
 11
82.293029
 21
153.104313
 31
0.0
  0
POLYLINE
  5
38D9
  8
0
 62
     7
 66
     1
 10
0.0
 20
0.0
 30
0.0
  0
VERTEX
  5
3D6B
  8
0
 62
     7
 10
82.724216
 20
152.696328
 30
0.0
  0
VERTEX
  5
3D6C
  8
0
 62
     7
 10
82.766306
 20
152.539324
 30
0.0
  0
VERTEX
  5
3D6D
  8
0
 62
     7
 10
82.82646
 20
152.389411
 30
0.0
  0
VERTEX
  5
3D6E
  8
0
 62
     7
 10
82.906662
 20
152.260206
 30
0.0
  0
VERTEX
  5
3D6F
  8
0
 62
     7
 10
83.006631
 20
152.166058
 30
0.0
  0
VERTEX
  5
3D70
  8
0
 62
     7
 10
83.122429
 20
152.118972
 30
0.0
  0
SEQEND
  5
3D71
  8
0
 62
     7
  0
LINE
  5
38DA
  8
0
 62
     7
 10
86.843029
 20
144.554047
 30
0.0
 11
86.843029
 21
144.632243
 31
0.0
  0
LINE
  5
38DB
  8
0
 62
     7
 10
87.837602
 20
144.31412
 30
0.0
 11
87.83831
 21
144.395282
 31
0.0
  0
LINE
  5
38DC
  8
0
 62
     7
 10
82.293029
 20
156.26542
 30
0.0
 11
86.393029
 21
156.26542
 31
0.0
  0
LINE
  5
38DD
  8
0
 62
     7
 10
84.993029
 20
161.26542
 30
0.0
 11
84.993029
 21
164.76542
 31
0.0
  0
LINE
  5
38DE
  8
0
 62
     7
 10
83.493029
 20
161.26542
 30
0.0
 11
83.493029
 21
164.76542
 31
0.0
  0
LINE
  5
38DF
  8
0
 62
     7
 10
84.993029
 20
161.96542
 30
0.0
 11
83.493029
 21
161.96542
 31
0.0
  0
LINE
  5
38E0
  8
0
 62
     7
 10
84.993029
 20
161.46542
 30
0.0
 11
83.493029
 21
161.46542
 31
0.0
  0
LINE
  5
38E1
  8
0
 62
     7
 10
83.243029
 20
161.26542
 30
0.0
 11
85.243029
 21
161.26542
 31
0.0
  0
LINE
  5
38E2
  8
0
 62
     7
 10
83.243029
 20
157.26542
 30
0.0
 11
85.243029
 21
157.26542
 31
0.0
  0
LINE
  5
38E3
  8
0
 62
     7
 10
83.493029
 20
156.26542
 30
0.0
 11
83.493029
 21
157.26542
 31
0.0
  0
LINE
  5
38E4
  8
0
 62
     7
 10
84.993029
 20
156.26542
 30
0.0
 11
84.993029
 21
157.26542
 31
0.0
  0
LINE
  5
38E5
  8
0
 62
     7
 10
83.243029
 20
166.16542
 30
0.0
 11
85.243029
 21
166.16542
 31
0.0
  0
LINE
  5
38E6
  8
0
 62
     7
 10
83.243029
 20
164.96542
 30
0.0
 11
85.243029
 21
164.96542
 31
0.0
  0
LINE
  5
38E7
  8
0
 62
     7
 10
84.993029
 20
164.76542
 30
0.0
 11
83.493029
 21
164.76542
 31
0.0
  0
LINE
  5
38E8
  8
0
 62
     7
 10
84.043029
 20
164.76542
 30
0.0
 11
84.043029
 21
164.96542
 31
0.0
  0
LINE
  5
38E9
  8
0
 62
     7
 10
84.893029
 20
167.26542
 30
0.0
 11
84.693029
 21
167.26542
 31
0.0
  0
LINE
  5
38EA
  8
0
 62
     7
 10
84.693029
 20
166.66542
 30
0.0
 11
84.893029
 21
166.66542
 31
0.0
  0
LINE
  5
38EB
  8
0
 62
     7
 10
84.893029
 20
166.26542
 30
0.0
 11
85.243029
 21
166.26542
 31
0.0
  0
LINE
  5
38EC
  8
0
 62
     7
 10
84.693029
 20
164.76542
 30
0.0
 11
84.693029
 21
164.96542
 31
0.0
  0
LINE
  5
38ED
  8
0
 62
     7
 10
86.043029
 20
156.26542
 30
0.0
 11
86.043029
 21
168.66542
 31
0.0
  0
LINE
  5
38EE
  8
0
 62
     7
 10
86.393029
 20
158.367148
 30
0.0
 11
86.193029
 21
158.46542
 31
0.0
  0
LINE
  5
38EF
  8
0
 62
     7
 10
86.193029
 20
158.46542
 30
0.0
 11
86.193029
 21
156.26542
 31
0.0
  0
LINE
  5
38F0
  8
0
 62
     7
 10
87.443029
 20
166.26542
 30
0.0
 11
87.443029
 21
167.66542
 31
0.0
  0
LINE
  5
38F1
  8
0
 62
     7
 10
86.043029
 20
166.26542
 30
0.0
 11
87.443029
 21
166.26542
 31
0.0
  0
LINE
  5
38F2
  8
0
 62
     7
 10
86.293029
 20
166.06542
 30
0.0
 11
86.293029
 21
166.26542
 31
0.0
  0
LINE
  5
38F3
  8
0
 62
     7
 10
89.193029
 20
167.36542
 30
0.0
 11
89.193029
 21
167.66542
 31
0.0
  0
LINE
  5
38F4
  8
0
 62
     7
 10
88.193029
 20
166.06542
 30
0.0
 11
88.193029
 21
167.36542
 31
0.0
  0
LINE
  5
38F5
  8
0
 62
     7
 10
86.443029
 20
172.86542
 30
0.0
 11
86.443029
 21
193.834166
 31
0.0
  0
LINE
  5
38F6
  8
0
 62
     7
 10
85.243029
 20
177.46542
 30
0.0
 11
83.243029
 21
177.46542
 31
0.0
  0
LINE
  5
38F7
  8
0
 62
     7
 10
85.243029
 20
175.66542
 30
0.0
 11
83.243029
 21
175.66542
 31
0.0
  0
LINE
  5
38F8
  8
0
 62
     7
 10
82.293029
 20
177.202064
 30
0.0
 11
82.193029
 21
177.202064
 31
0.0
  0
LINE
  5
38F9
  8
0
 62
     7
 10
82.293029
 20
176.21485
 30
0.0
 11
82.193029
 21
176.21485
 31
0.0
  0
LINE
  5
38FA
  8
0
 62
     7
 10
84.043029
 20
172.26542
 30
0.0
 11
85.243029
 21
172.26542
 31
0.0
  0
LINE
  5
38FB
  8
0
 62
     7
 10
84.693029
 20
171.96542
 30
0.0
 11
84.043029
 21
171.96542
 31
0.0
  0
LINE
  5
38FC
  8
0
 62
     7
 10
82.193029
 20
182.316335
 30
0.0
 11
82.293029
 21
182.316335
 31
0.0
  0
LINE
  5
38FD
  8
0
 62
     7
 10
87.693029
 20
179.86542
 30
0.0
 11
87.693029
 21
178.36542
 31
0.0
  0
LINE
  5
38FE
  8
0
 62
     7
 10
87.693029
 20
182.86542
 30
0.0
 11
87.693029
 21
181.36542
 31
0.0
  0
LINE
  5
38FF
  8
0
 62
     7
 10
87.693029
 20
185.86542
 30
0.0
 11
87.693029
 21
184.36542
 31
0.0
  0
ARC
  5
3900
  8
0
 62
     7
 10
84.293029
 20
193.26542
 30
0.0
 40
3.9
 50
67.380135
 51
112.619865
  0
ARC
  5
3901
  8
0
 62
     7
 10
82.593029
 20
196.56542
 30
0.0
 40
0.3
 50
90.0
 51
180.0
  0
LINE
  5
3902
  8
0
 62
     7
 10
87.693029
 20
188.86542
 30
0.0
 11
87.693029
 21
187.36542
 31
0.0
  0
LINE
  5
3903
  8
0
 62
     7
 10
85.943029
 20
196.96542
 30
0.0
 11
85.943029
 21
196.86542
 31
0.0
  0
LINE
  5
3904
  8
0
 62
     7
 10
98.693029
 20
152.849332
 30
0.0
 11
98.693029
 21
193.26542
 31
0.0
  0
LINE
  5
3905
  8
0
 62
     7
 10
98.543029
 20
172.66542
 30
0.0
 11
98.543029
 21
152.859821
 31
0.0
  0
LINE
  5
3906
  8
0
 62
     7
 10
97.343029
 20
152.943733
 30
0.0
 11
97.343029
 21
172.66542
 31
0.0
  0
LINE
  5
3907
  8
0
 62
     7
 10
97.193029
 20
152.954222
 30
0.0
 11
97.193029
 21
193.26542
 31
0.0
  0
LINE
  5
3908
  8
0
 62
     7
 10
95.993029
 20
153.038134
 30
0.0
 11
99.893029
 21
152.76542
 31
0.0
  0
LINE
  5
3909
  8
0
 62
     7
 10
96.343029
 20
153.01366
 30
0.0
 11
96.343029
 21
167.66542
 31
0.0
  0
LINE
  5
390A
  8
0
 62
     7
 10
96.193029
 20
158.46542
 30
0.0
 11
96.193029
 21
153.024149
 31
0.0
  0
LINE
  5
390B
  8
0
 62
     7
 10
95.993029
 20
151.767965
 30
0.0
 11
95.993029
 21
162.96542
 31
0.0
  0
LINE
  5
390C
  8
0
 62
     7
 10
91.983102
 20
143.734115
 30
0.0
 11
91.980085
 21
143.906979
 31
0.0
  0
LINE
  5
390D
  8
0
 62
     7
 10
94.293029
 20
143.661133
 30
0.0
 11
94.293029
 21
143.49672
 31
0.0
  0
LINE
  5
390E
  8
0
 62
     7
 10
95.293029
 20
143.625329
 30
0.0
 11
95.293029
 21
143.429915
 31
0.0
  0
LINE
  5
390F
  8
0
 62
     7
 10
94.493029
 20
143.665539
 30
0.0
 11
94.493029
 21
143.483359
 31
0.0
  0
LINE
  5
3910
  8
0
 62
     7
 10
96.943029
 20
143.319687
 30
0.0
 11
96.943029
 21
143.405406
 31
0.0
  0
LINE
  5
3911
  8
0
 62
     7
 10
96.851607
 20
143.546992
 30
0.0
 11
96.851607
 21
143.325794
 31
0.0
  0
LINE
  5
3912
  8
0
 62
     7
 10
96.793029
 20
143.329707
 30
0.0
 11
96.793029
 21
143.339133
 31
0.0
  0
LINE
  5
3913
  8
0
 62
     7
 10
97.193029
 20
153.129748
 30
0.0
 11
96.343029
 21
153.189185
 31
0.0
  0
LINE
  5
3914
  8
0
 62
     7
 10
93.193029
 20
167.36542
 30
0.0
 11
93.193029
 21
167.66542
 31
0.0
  0
LINE
  5
3915
  8
0
 62
     7
 10
96.343029
 20
156.26542
 30
0.0
 11
96.193029
 21
156.26542
 31
0.0
  0
LINE
  5
3916
  8
0
 62
     7
 10
96.193029
 20
158.46542
 30
0.0
 11
95.993029
 21
158.367148
 31
0.0
  0
LINE
  5
3917
  8
0
 62
     7
 10
96.343029
 20
162.66542
 30
0.0
 11
97.193029
 21
162.66542
 31
0.0
  0
LINE
  5
3918
  8
0
 62
     7
 10
94.943029
 20
166.26542
 30
0.0
 11
96.343029
 21
166.26542
 31
0.0
  0
LINE
  5
3919
  8
0
 62
     7
 10
94.943029
 20
166.26542
 30
0.0
 11
94.943029
 21
167.66542
 31
0.0
  0
LINE
  5
391A
  8
0
 62
     7
 10
94.193029
 20
166.06542
 30
0.0
 11
94.193029
 21
167.36542
 31
0.0
  0
LINE
  5
391B
  8
0
 62
     7
 10
96.043029
 20
166.06542
 30
0.0
 11
96.043029
 21
166.26542
 31
0.0
  0
LINE
  5
391C
  8
0
 62
     7
 10
97.193029
 20
166.06542
 30
0.0
 11
97.343029
 21
166.06542
 31
0.0
  0
LINE
  5
391D
  8
0
 62
     7
 10
96.343029
 20
167.66542
 30
0.0
 11
97.193029
 21
168.378654
 31
0.0
  0
LINE
  5
391E
  8
0
 62
     7
 10
99.893029
 20
151.557437
 30
0.0
 11
99.893029
 21
162.96542
 31
0.0
  0
LINE
  5
391F
  8
0
 62
     7
 10
99.742271
 20
158.441224
 30
0.0
 11
99.742271
 21
152.775962
 31
0.0
  0
LINE
  5
3920
  8
0
 62
     7
 10
99.543029
 20
152.789894
 30
0.0
 11
99.543029
 21
168.66542
 31
0.0
  0
LINE
  5
3921
  8
0
 62
     7
 10
97.590681
 20
143.328732
 30
0.0
 11
97.587874
 21
143.275176
 31
0.0
  0
LINE
  5
3922
  8
0
 62
     7
 10
99.493029
 20
143.328732
 30
0.0
 11
99.493029
 21
143.121877
 31
0.0
  0
LINE
  5
3923
  8
0
 62
     7
 10
99.543029
 20
152.96542
 30
0.0
 11
98.693029
 21
153.024857
 31
0.0
  0
LINE
  5
3924
  8
0
 62
     7
 10
104.693029
 20
149.76542
 30
0.0
 11
104.693029
 21
150.305082
 31
0.0
  0
LINE
  5
3925
  8
0
 62
     7
 10
99.543029
 20
158.539123
 30
0.0
 11
99.893029
 21
158.367148
 31
0.0
  0
LINE
  5
3926
  8
0
 62
     7
 10
100.943029
 20
166.26542
 30
0.0
 11
100.943029
 21
167.66542
 31
0.0
  0
LINE
  5
3927
  8
0
 62
     7
 10
100.943029
 20
166.26542
 30
0.0
 11
99.543029
 21
166.26542
 31
0.0
  0
LINE
  5
3928
  8
0
 62
     7
 10
99.843029
 20
166.06542
 30
0.0
 11
99.843029
 21
166.26542
 31
0.0
  0
LINE
  5
3929
  8
0
 62
     7
 10
104.693029
 20
162.96542
 30
0.0
 11
104.693029
 21
167.66542
 31
0.0
  0
LINE
  5
392A
  8
0
 62
     7
 10
102.693029
 20
167.36542
 30
0.0
 11
102.693029
 21
167.66542
 31
0.0
  0
LINE
  5
392B
  8
0
 62
     7
 10
101.693029
 20
166.06542
 30
0.0
 11
101.693029
 21
167.36542
 31
0.0
  0
LINE
  5
392C
  8
0
 62
     7
 10
97.193029
 20
193.26542
 30
0.0
 11
98.693029
 21
193.26542
 31
0.0
  0
LINE
  5
392D
  8
0
 62
     7
 10
97.193029
 20
172.76542
 30
0.0
 11
98.693029
 21
172.76542
 31
0.0
  0
LINE
  5
392E
  8
0
 62
     7
 10
97.343029
 20
172.66542
 30
0.0
 11
98.693029
 21
172.66542
 31
0.0
  0
LINE
  5
392F
  8
0
 62
     7
 10
95.943029
 20
193.834166
 30
0.0
 11
95.943029
 21
172.86542
 31
0.0
  0
LINE
  5
3930
  8
0
 62
     7
 10
94.893029
 20
178.36542
 30
0.0
 11
94.893029
 21
179.86542
 31
0.0
  0
LINE
  5
3931
  8
0
 62
     7
 10
94.693029
 20
178.36542
 30
0.0
 11
94.693029
 21
179.86542
 31
0.0
  0
LINE
  5
3932
  8
0
 62
     7
 10
97.193029
 20
172.06542
 30
0.0
 11
97.343029
 21
172.06542
 31
0.0
  0
LINE
  5
3933
  8
0
 62
     7
 10
97.193029
 20
171.66542
 30
0.0
 11
97.343029
 21
171.66542
 31
0.0
  0
LINE
  5
3934
  8
0
 62
     7
 10
97.193029
 20
171.36542
 30
0.0
 11
97.343029
 21
171.36542
 31
0.0
  0
LINE
  5
3935
  8
0
 62
     7
 10
94.893029
 20
181.36542
 30
0.0
 11
94.893029
 21
182.86542
 31
0.0
  0
LINE
  5
3936
  8
0
 62
     7
 10
94.693029
 20
181.36542
 30
0.0
 11
94.693029
 21
182.86542
 31
0.0
  0
LINE
  5
3937
  8
0
 62
     7
 10
94.893029
 20
184.36542
 30
0.0
 11
94.893029
 21
185.86542
 31
0.0
  0
LINE
  5
3938
  8
0
 62
     7
 10
94.693029
 20
184.36542
 30
0.0
 11
94.693029
 21
185.86542
 31
0.0
  0
LINE
  5
3939
  8
0
 62
     7
 10
94.893029
 20
187.36542
 30
0.0
 11
94.893029
 21
188.86542
 31
0.0
  0
LINE
  5
393A
  8
0
 62
     7
 10
94.693029
 20
187.36542
 30
0.0
 11
94.693029
 21
188.86542
 31
0.0
  0
ARC
  5
393B
  8
0
 62
     7
 10
95.543029
 20
193.26542
 30
0.0
 40
3.9
 50
67.380135
 51
112.619865
  0
LINE
  5
393C
  8
0
 62
     7
 10
93.443029
 20
196.96542
 30
0.0
 11
93.443029
 21
196.86542
 31
0.0
  0
LINE
  5
393D
  8
0
 62
     7
 10
104.693029
 20
172.86542
 30
0.0
 11
104.693029
 21
199.76542
 31
0.0
  0
LINE
  5
393E
  8
0
 62
     7
 10
99.943029
 20
172.86542
 30
0.0
 11
99.943029
 21
193.834166
 31
0.0
  0
LINE
  5
393F
  8
0
 62
     7
 10
101.193029
 20
179.86542
 30
0.0
 11
101.193029
 21
178.36542
 31
0.0
  0
LINE
  5
3940
  8
0
 62
     7
 10
100.993029
 20
179.86542
 30
0.0
 11
100.993029
 21
178.36542
 31
0.0
  0
LINE
  5
3941
  8
0
 62
     7
 10
101.193029
 20
182.86542
 30
0.0
 11
101.193029
 21
181.36542
 31
0.0
  0
LINE
  5
3942
  8
0
 62
     7
 10
100.993029
 20
182.86542
 30
0.0
 11
100.993029
 21
181.36542
 31
0.0
  0
LINE
  5
3943
  8
0
 62
     7
 10
101.193029
 20
185.86542
 30
0.0
 11
101.193029
 21
184.36542
 31
0.0
  0
LINE
  5
3944
  8
0
 62
     7
 10
100.993029
 20
185.86542
 30
0.0
 11
100.993029
 21
184.36542
 31
0.0
  0
LINE
  5
3945
  8
0
 62
     7
 10
101.193029
 20
188.86542
 30
0.0
 11
101.193029
 21
187.36542
 31
0.0
  0
LINE
  5
3946
  8
0
 62
     7
 10
100.993029
 20
188.86542
 30
0.0
 11
100.993029
 21
187.36542
 31
0.0
  0
LINE
  5
3947
  8
0
 62
     7
 10
127.193029
 20
130.66542
 30
0.0
 11
127.193029
 21
182.316294
 31
0.0
  0
LINE
  5
3948
  8
0
 62
     7
 10
126.693029
 20
130.66542
 30
0.0
 11
126.693029
 21
152.306699
 31
0.0
  0
LINE
  5
3949
  8
0
 62
     7
 10
125.493029
 20
130.66542
 30
0.0
 11
125.493029
 21
144.919809
 31
0.0
  0
LINE
  5
394A
  8
0
 62
     7
 10
125.193029
 20
144.723633
 30
0.0
 11
125.193029
 21
134.36542
 31
0.0
  0
POLYLINE
  5
394C
  8
0
 62
     7
 66
     1
 10
0.0
 20
0.0
 30
0.0
  0
VERTEX
  5
3D72
  8
0
 62
     7
 10
110.474066
 20
78.764811
 30
0.0
  0
VERTEX
  5
3D73
  8
0
 62
     7
 10
110.417296
 20
78.115371
 30
0.0
  0
VERTEX
  5
3D74
  8
0
 62
     7
 10
110.231911
 20
77.454361
 30
0.0
  0
VERTEX
  5
3D75
  8
0
 62
     7
 10
109.923938
 20
76.842917
 30
0.0
  0
VERTEX
  5
3D76
  8
0
 62
     7
 10
109.504737
 20
76.305532
 30
0.0
  0
VERTEX
  5
3D77
  8
0
 62
     7
 10
108.990499
 20
75.863889
 30
0.0
  0
VERTEX
  5
3D78
  8
0
 62
     7
 10
108.401243
 20
75.535559
 30
0.0
  0
VERTEX
  5
3D79
  8
0
 62
     7
 10
107.760012
 20
75.333467
 30
0.0
  0
VERTEX
  5
3D7A
  8
0
 62
     7
 10
107.094112
 20
75.265431
 30
0.0
  0
SEQEND
  5
3D7B
  8
0
 62
     7
  0
LINE
  5
394D
  8
0
 62
     7
 10
113.393559
 20
72.737827
 30
0.0
 11
113.58733
 21
83.838943
 31
0.0
  0
LINE
  5
394E
  8
0
 62
     7
 10
113.348903
 20
73.576555
 30
0.0
 11
113.527109
 21
83.838231
 31
0.0
  0
LINE
  5
394F
  8
0
 62
     7
 10
113.218258
 20
72.094782
 30
0.0
 11
113.421863
 21
83.815476
 31
0.0
  0
LINE
  5
3950
  8
0
 62
     7
 10
112.728281
 20
73.576555
 30
0.0
 11
112.902093
 21
83.838231
 31
0.0
  0
POLYLINE
  5
3951
  8
0
 62
     7
 66
     1
 10
0.0
 20
0.0
 30
0.0
  0
VERTEX
  5
3D7C
  8
0
 62
     7
 10
112.244446
 20
72.735891
 30
0.0
  0
VERTEX
  5
3D7D
  8
0
 62
     7
 10
112.284145
 20
76.443295
 30
0.0
  0
VERTEX
  5
3D7E
  8
0
 62
     7
 10
112.323581
 20
80.144377
 30
0.0
  0
VERTEX
  5
3D7F
  8
0
 62
     7
 10
112.362756
 20
83.839135
 30
0.0
  0
SEQEND
  5
3D80
  8
0
 62
     7
  0
POLYLINE
  5
3952
  8
0
 62
     7
 66
     1
 10
0.0
 20
0.0
 30
0.0
  0
VERTEX
  5
3D81
  8
0
 62
     7
 10
112.001466
 20
72.735924
 30
0.0
  0
VERTEX
  5
3D82
  8
0
 62
     7
 10
112.041306
 20
76.443859
 30
0.0
  0
VERTEX
  5
3D83
  8
0
 62
     7
 10
112.080883
 20
80.145501
 30
0.0
  0
VERTEX
  5
3D84
  8
0
 62
     7
 10
112.120199
 20
83.840817
 30
0.0
  0
SEQEND
  5
3D85
  8
0
 62
     7
  0
LINE
  5
3953
  8
0
 62
     7
 10
110.182894
 20
77.357042
 30
0.0
 11
110.182894
 21
80.155733
 31
0.0
  0
POLYLINE
  5
3954
  8
0
 62
     7
 66
     1
 10
0.0
 20
0.0
 30
0.0
  0
VERTEX
  5
3D86
  8
0
 62
     7
 10
112.633145
 20
72.094782
 30
0.0
  0
VERTEX
  5
3D87
  8
0
 62
     7
 10
112.899932
 20
72.187857
 30
0.0
  0
VERTEX
  5
3D88
  8
0
 62
     7
 10
113.094698
 20
72.187857
 30
0.0
  0
VERTEX
  5
3D89
  8
0
 62
     7
 10
113.218258
 20
72.094782
 30
0.0
  0
SEQEND
  5
3D8A
  8
0
 62
     7
  0
POLYLINE
  5
3955
  8
0
 62
     7
 66
     1
 10
0.0
 20
0.0
 30
0.0
  0
VERTEX
  5
3D8B
  8
0
 62
     7
 10
113.218258
 20
72.094782
 30
0.0
  0
VERTEX
  5
3D8C
  8
0
 62
     7
 10
113.09463
 20
71.93676
 30
0.0
  0
VERTEX
  5
3D8D
  8
0
 62
     7
 10
112.970916
 20
71.779058
 30
0.0
  0
SEQEND
  5
3D8E
  8
0
 62
     7
  0
POLYLINE
  5
3956
  8
0
 62
     7
 66
     1
 10
0.0
 20
0.0
 30
0.0
  0
VERTEX
  5
3D8F
  8
0
 62
     7
 10
108.469351
 20
71.571013
 30
0.0
  0
VERTEX
  5
3D90
  8
0
 62
     7
 10
108.480754
 20
71.578498
 30
0.0
  0
VERTEX
  5
3D91
  8
0
 62
     7
 10
108.504449
 20
71.588392
 30
0.0
  0
VERTEX
  5
3D92
  8
0
 62
     7
 10
108.540526
 20
71.600734
 30
0.0
  0
VERTEX
  5
3D93
  8
0
 62
     7
 10
108.588711
 20
71.615441
 30
0.0
  0
VERTEX
  5
3D94
  8
0
 62
     7
 10
108.649676
 20
71.63272
 30
0.0
  0
VERTEX
  5
3D95
  8
0
 62
     7
 10
108.723095
 20
71.652477
 30
0.0
  0
VERTEX
  5
3D96
  8
0
 62
     7
 10
108.806728
 20
71.674156
 30
0.0
  0
VERTEX
  5
3D97
  8
0
 62
     7
 10
108.900946
 20
71.697908
 30
0.0
  0
VERTEX
  5
3D98
  8
0
 62
     7
 10
109.006425
 20
71.723936
 30
0.0
  0
VERTEX
  5
3D99
  8
0
 62
     7
 10
109.123837
 20
71.752423
 30
0.0
  0
VERTEX
  5
3D9A
  8
0
 62
     7
 10
109.253991
 20
71.783575
 30
0.0
  0
SEQEND
  5
3D9B
  8
0
 62
     7
  0
LINE
  5
3957
  8
0
 62
     7
 10
109.300457
 20
71.624735
 30
0.0
 11
105.34912
 21
70.928436
 31
0.0
  0
POLYLINE
  5
3958
  8
0
 62
     7
 66
     1
 10
0.0
 20
0.0
 30
0.0
  0
VERTEX
  5
3D9C
  8
0
 62
     7
 10
109.352991
 20
71.691481
 30
0.0
  0
VERTEX
  5
3D9D
  8
0
 62
     7
 10
109.260745
 20
71.67459
 30
0.0
  0
VERTEX
  5
3D9E
  8
0
 62
     7
 10
109.138123
 20
71.65286
 30
0.0
  0
VERTEX
  5
3D9F
  8
0
 62
     7
 10
109.021855
 20
71.632996
 30
0.0
  0
VERTEX
  5
3DA0
  8
0
 62
     7
 10
108.915803
 20
71.615622
 30
0.0
  0
VERTEX
  5
3DA1
  8
0
 62
     7
 10
108.821185
 20
71.600862
 30
0.0
  0
VERTEX
  5
3DA2
  8
0
 62
     7
 10
108.736886
 20
71.588484
 30
0.0
  0
VERTEX
  5
3DA3
  8
0
 62
     7
 10
108.663755
 20
71.57857
 30
0.0
  0
VERTEX
  5
3DA4
  8
0
 62
     7
 10
108.601355
 20
71.571032
 30
0.0
  0
VERTEX
  5
3DA5
  8
0
 62
     7
 10
108.55044
 20
71.565954
 30
0.0
  0
VERTEX
  5
3DA6
  8
0
 62
     7
 10
108.511298
 20
71.563369
 30
0.0
  0
VERTEX
  5
3DA7
  8
0
 62
     7
 10
108.484302
 20
71.563354
 30
0.0
  0
VERTEX
  5
3DA8
  8
0
 62
     7
 10
108.470445
 20
71.565911
 30
0.0
  0
VERTEX
  5
3DA9
  8
0
 62
     7
 10
108.469351
 20
71.571013
 30
0.0
  0
SEQEND
  5
3DAA
  8
0
 62
     7
  0
LINE
  5
3959
  8
0
 62
     7
 10
108.292596
 20
71.624733
 30
0.0
 11
112.106931
 21
72.545993
 31
0.0
  0
LINE
  5
395A
  8
0
 62
     7
 10
107.093159
 20
75.26542
 30
0.0
 11
107.094111
 21
75.26542
 31
0.0
  0
POLYLINE
  5
395B
  8
0
 62
     7
 66
     1
 10
0.0
 20
0.0
 30
0.0
  0
VERTEX
  5
3DAB
  8
0
 62
     7
 10
110.97853
 20
71.42448
 30
0.0
  0
VERTEX
  5
3DAC
  8
0
 62
     7
 10
111.149787
 20
71.659798
 30
0.0
  0
VERTEX
  5
3DAD
  8
0
 62
     7
 10
111.323465
 20
71.897286
 30
0.0
  0
SEQEND
  5
3DAE
  8
0
 62
     7
  0
LINE
  5
395C
  8
0
 62
     7
 10
111.441892
 20
71.42448
 30
0.0
 11
110.97853
 21
71.42448
 31
0.0
  0
POLYLINE
  5
395D
  8
0
 62
     7
 66
     1
 10
0.0
 20
0.0
 30
0.0
  0
VERTEX
  5
3DAF
  8
0
 62
     7
 10
109.253991
 20
71.783575
 30
0.0
  0
VERTEX
  5
3DB0
  8
0
 62
     7
 10
110.202005
 20
72.017594
 30
0.0
  0
VERTEX
  5
3DB1
  8
0
 62
     7
 10
111.223646
 20
72.280466
 30
0.0
  0
SEQEND
  5
3DB2
  8
0
 62
     7
  0
POLYLINE
  5
395E
  8
0
 62
     7
 66
     1
 10
0.0
 20
0.0
 30
0.0
  0
VERTEX
  5
3DB3
  8
0
 62
     7
 10
110.125474
 20
71.389902
 30
0.0
  0
VERTEX
  5
3DB4
  8
0
 62
     7
 10
110.070739
 20
71.324662
 30
0.0
  0
VERTEX
  5
3DB5
  8
0
 62
     7
 10
109.889838
 20
71.110108
 30
0.0
  0
SEQEND
  5
3DB6
  8
0
 62
     7
  0
POLYLINE
  5
395F
  8
0
 62
     7
 66
     1
 10
0.0
 20
0.0
 30
0.0
  0
VERTEX
  5
3DB7
  8
0
 62
     7
 10
109.949178
 20
71.542709
 30
0.0
  0
VERTEX
  5
3DB8
  8
0
 62
     7
 10
110.118161
 20
71.396204
 30
0.0
  0
VERTEX
  5
3DB9
  8
0
 62
     7
 10
110.291088
 20
71.247191
 30
0.0
  0
SEQEND
  5
3DBA
  8
0
 62
     7
  0
POLYLINE
  5
3960
  8
0
 62
     7
 66
     1
 10
0.0
 20
0.0
 30
0.0
  0
VERTEX
  5
3DBB
  8
0
 62
     7
 10
109.889838
 20
71.110108
 30
0.0
  0
VERTEX
  5
3DBC
  8
0
 62
     7
 10
109.878362
 20
71.096552
 30
0.0
  0
VERTEX
  5
3DBD
  8
0
 62
     7
 10
109.866978
 20
71.08315
 30
0.0
  0
VERTEX
  5
3DBE
  8
0
 62
     7
 10
109.855689
 20
71.069902
 30
0.0
  0
SEQEND
  5
3DBF
  8
0
 62
     7
  0
POLYLINE
  5
3961
  8
0
 62
     7
 66
     1
 10
0.0
 20
0.0
 30
0.0
  0
VERTEX
  5
3DC0
  8
0
 62
     7
 10
109.647319
 20
71.110108
 30
0.0
  0
VERTEX
  5
3DC1
  8
0
 62
     7
 10
109.796582
 20
71.324662
 30
0.0
  0
VERTEX
  5
3DC2
  8
0
 62
     7
 10
109.949178
 20
71.542709
 30
0.0
  0
SEQEND
  5
3DC3
  8
0
 62
     7
  0
POLYLINE
  5
3962
  8
0
 62
     7
 66
     1
 10
0.0
 20
0.0
 30
0.0
  0
VERTEX
  5
3DC4
  8
0
 62
     7
 10
109.619598
 20
71.069902
 30
0.0
  0
VERTEX
  5
3DC5
  8
0
 62
     7
 10
109.628695
 20
71.08315
 30
0.0
  0
VERTEX
  5
3DC6
  8
0
 62
     7
 10
109.637935
 20
71.096552
 30
0.0
  0
VERTEX
  5
3DC7
  8
0
 62
     7
 10
109.647319
 20
71.110108
 30
0.0
  0
SEQEND
  5
3DC8
  8
0
 62
     7
  0
LINE
  5
3963
  8
0
 62
     7
 10
109.647319
 20
71.110108
 30
0.0
 11
109.647319
 21
71.880669
 31
0.0
  0
LINE
  5
3964
  8
0
 62
     7
 10
109.352991
 20
71.352898
 30
0.0
 11
109.352991
 21
71.808013
 31
0.0
  0
POLYLINE
  5
3965
  8
0
 62
     7
 66
     1
 10
0.0
 20
0.0
 30
0.0
  0
VERTEX
  5
3DC9
  8
0
 62
     7
 10
109.619598
 20
71.069902
 30
0.0
  0
VERTEX
  5
3DCA
  8
0
 62
     7
 10
109.488932
 20
71.190804
 30
0.0
  0
VERTEX
  5
3DCB
  8
0
 62
     7
 10
109.403825
 20
71.27874
 30
0.0
  0
VERTEX
  5
3DCC
  8
0
 62
     7
 10
109.360725
 20
71.334919
 30
0.0
  0
VERTEX
  5
3DCD
  8
0
 62
     7
 10
109.352977
 20
71.356006
 30
0.0
  0
SEQEND
  5
3DCE
  8
0
 62
     7
  0
LINE
  5
3966
  8
0
 62
     7
 10
109.352991
 20
71.637008
 30
0.0
 11
109.300457
 21
71.624735
 31
0.0
  0
LINE
  5
3967
  8
0
 62
     7
 10
109.855689
 20
71.069902
 30
0.0
 11
109.619598
 21
71.069902
 31
0.0
  0
POLYLINE
  5
3968
  8
0
 62
     7
 66
     1
 10
0.0
 20
0.0
 30
0.0
  0
VERTEX
  5
3DCF
  8
0
 62
     7
 10
110.875161
 20
71.511619
 30
0.0
  0
VERTEX
  5
3DD0
  8
0
 62
     7
 10
110.850833
 20
71.482038
 30
0.0
  0
VERTEX
  5
3DD1
  8
0
 62
     7
 10
110.656767
 20
71.247191
 30
0.0
  0
SEQEND
  5
3DD2
  8
0
 62
     7
  0
POLYLINE
  5
3969
  8
0
 62
     7
 66
     1
 10
0.0
 20
0.0
 30
0.0
  0
VERTEX
  5
3DD3
  8
0
 62
     7
 10
110.291088
 20
71.247191
 30
0.0
  0
VERTEX
  5
3DD4
  8
0
 62
     7
 10
110.458412
 20
71.482038
 30
0.0
  0
VERTEX
  5
3DD5
  8
0
 62
     7
 10
110.62889
 20
71.719997
 30
0.0
  0
SEQEND
  5
3DD6
  8
0
 62
     7
  0
POLYLINE
  5
396A
  8
0
 62
     7
 66
     1
 10
0.0
 20
0.0
 30
0.0
  0
VERTEX
  5
3DD7
  8
0
 62
     7
 10
110.62889
 20
71.719997
 30
0.0
  0
VERTEX
  5
3DD8
  8
0
 62
     7
 10
110.802157
 20
71.573162
 30
0.0
  0
VERTEX
  5
3DD9
  8
0
 62
     7
 10
110.97853
 20
71.42448
 30
0.0
  0
SEQEND
  5
3DDA
  8
0
 62
     7
  0
LINE
  5
396B
  8
0
 62
     7
 10
110.656767
 20
71.247191
 30
0.0
 11
110.291088
 21
71.247191
 31
0.0
  0
POLYLINE
  5
396C
  8
0
 62
     7
 66
     1
 10
0.0
 20
0.0
 30
0.0
  0
VERTEX
  5
3DDB
  8
0
 62
     7
 10
111.68007
 20
71.601769
 30
0.0
  0
VERTEX
  5
3DDC
  8
0
 62
     7
 10
111.8549
 20
71.837477
 30
0.0
  0
VERTEX
  5
3DDD
  8
0
 62
     7
 10
112.031546
 20
72.074575
 30
0.0
  0
SEQEND
  5
3DDE
  8
0
 62
     7
  0
LINE
  5
396D
  8
0
 62
     7
 10
112.21292
 20
71.601769
 30
0.0
 11
111.68007
 21
71.601769
 31
0.0
  0
LINE
  5
396E
  8
0
 62
     7
 10
111.223646
 20
72.280466
 30
0.0
 11
112.309088
 21
72.572075
 31
0.0
  0
LINE
  5
396F
  8
0
 62
     7
 10
111.623137
 20
71.647945
 30
0.0
 11
111.441892
 21
71.42448
 31
0.0
  0
POLYLINE
  5
3970
  8
0
 62
     7
 66
     1
 10
0.0
 20
0.0
 30
0.0
  0
VERTEX
  5
3DDF
  8
0
 62
     7
 10
111.323465
 20
71.897286
 30
0.0
  0
VERTEX
  5
3DE0
  8
0
 62
     7
 10
111.500583
 20
71.750158
 30
0.0
  0
VERTEX
  5
3DE1
  8
0
 62
     7
 10
111.68007
 20
71.601769
 30
0.0
  0
SEQEND
  5
3DE2
  8
0
 62
     7
  0
POLYLINE
  5
3971
  8
0
 62
     7
 66
     1
 10
0.0
 20
0.0
 30
0.0
  0
VERTEX
  5
3DE3
  8
0
 62
     7
 10
112.106927
 20
72.545993
 30
0.0
  0
VERTEX
  5
3DE4
  8
0
 62
     7
 10
112.162284
 20
72.572271
 30
0.0
  0
VERTEX
  5
3DE5
  8
0
 62
     7
 10
112.206861
 20
72.616774
 30
0.0
  0
VERTEX
  5
3DE6
  8
0
 62
     7
 10
112.234929
 20
72.673282
 30
0.0
  0
VERTEX
  5
3DE7
  8
0
 62
     7
 10
112.244446
 20
72.73589
 30
0.0
  0
SEQEND
  5
3DE8
  8
0
 62
     7
  0
LINE
  5
3972
  8
0
 62
     7
 10
112.369936
 20
71.798751
 30
0.0
 11
112.21292
 21
71.601769
 31
0.0
  0
POLYLINE
  5
3973
  8
0
 62
     7
 66
     1
 10
0.0
 20
0.0
 30
0.0
  0
VERTEX
  5
3DE9
  8
0
 62
     7
 10
112.394641
 20
71.779058
 30
0.0
  0
VERTEX
  5
3DEA
  8
0
 62
     7
 10
112.513605
 20
71.93676
 30
0.0
  0
VERTEX
  5
3DEB
  8
0
 62
     7
 10
112.633145
 20
72.094782
 30
0.0
  0
SEQEND
  5
3DEC
  8
0
 62
     7
  0
POLYLINE
  5
3974
  8
0
 62
     7
 66
     1
 10
0.0
 20
0.0
 30
0.0
  0
VERTEX
  5
3DED
  8
0
 62
     7
 10
112.498375
 20
72.767813
 30
0.0
  0
VERTEX
  5
3DEE
  8
0
 62
     7
 10
112.468531
 20
72.701046
 30
0.0
  0
VERTEX
  5
3DEF
  8
0
 62
     7
 10
112.424028
 20
72.643263
 30
0.0
  0
VERTEX
  5
3DF0
  8
0
 62
     7
 10
112.367082
 20
72.597548
 30
0.0
  0
VERTEX
  5
3DF1
  8
0
 62
     7
 10
112.309089
 20
72.572072
 30
0.0
  0
SEQEND
  5
3DF2
  8
0
 62
     7
  0
POLYLINE
  5
3975
  8
0
 62
     7
 66
     1
 10
0.0
 20
0.0
 30
0.0
  0
VERTEX
  5
3DF3
  8
0
 62
     7
 10
112.498385
 20
72.767813
 30
0.0
  0
VERTEX
  5
3DF4
  8
0
 62
     7
 10
112.578229
 20
73.037448
 30
0.0
  0
VERTEX
  5
3DF5
  8
0
 62
     7
 10
112.654866
 20
73.307022
 30
0.0
  0
VERTEX
  5
3DF6
  8
0
 62
     7
 10
112.728281
 20
73.576555
 30
0.0
  0
SEQEND
  5
3DF7
  8
0
 62
     7
  0
LINE
  5
3976
  8
0
 62
     7
 10
112.633145
 20
72.094782
 30
0.0
 11
112.65358
 21
73.302498
 31
0.0
  0
POLYLINE
  5
3977
  8
0
 62
     7
 66
     1
 10
0.0
 20
0.0
 30
0.0
  0
VERTEX
  5
3DF8
  8
0
 62
     7
 10
112.001466
 20
72.73589
 30
0.0
  0
VERTEX
  5
3DF9
  8
0
 62
     7
 10
112.02461
 20
72.662218
 30
0.0
  0
VERTEX
  5
3DFA
  8
0
 62
     7
 10
112.052942
 20
72.599728
 30
0.0
  0
VERTEX
  5
3DFB
  8
0
 62
     7
 10
112.081876
 20
72.558875
 30
0.0
  0
VERTEX
  5
3DFC
  8
0
 62
     7
 10
112.106927
 20
72.545993
 30
0.0
  0
SEQEND
  5
3DFD
  8
0
 62
     7
  0
POLYLINE
  5
3978
  8
0
 62
     7
 66
     1
 10
0.0
 20
0.0
 30
0.0
  0
VERTEX
  5
3DFE
  8
0
 62
     7
 10
112.031546
 20
72.074575
 30
0.0
  0
VERTEX
  5
3DFF
  8
0
 62
     7
 10
112.21224
 20
71.927186
 30
0.0
  0
VERTEX
  5
3E00
  8
0
 62
     7
 10
112.394641
 20
71.779058
 30
0.0
  0
SEQEND
  5
3E01
  8
0
 62
     7
  0
POLYLINE
  5
3979
  8
0
 62
     7
 66
     1
 10
0.0
 20
0.0
 30
0.0
  0
VERTEX
  5
3E02
  8
0
 62
     7
 10
112.001466
 20
72.73589
 30
0.0
  0
VERTEX
  5
3E03
  8
0
 62
     7
 10
112.075652
 20
72.734944
 30
0.0
  0
VERTEX
  5
3E04
  8
0
 62
     7
 10
112.147207
 20
72.734613
 30
0.0
  0
VERTEX
  5
3E05
  8
0
 62
     7
 10
112.206201
 20
72.734944
 30
0.0
  0
VERTEX
  5
3E06
  8
0
 62
     7
 10
112.244446
 20
72.73589
 30
0.0
  0
SEQEND
  5
3E07
  8
0
 62
     7
  0
LINE
  5
397A
  8
0
 62
     7
 10
112.970916
 20
71.779058
 30
0.0
 11
112.394641
 21
71.779058
 31
0.0
  0
POLYLINE
  5
397B
  8
0
 62
     7
 66
     1
 10
0.0
 20
0.0
 30
0.0
  0
VERTEX
  5
3E08
  8
0
 62
     7
 10
112.498385
 20
72.767813
 30
0.0
  0
VERTEX
  5
3E09
  8
0
 62
     7
 10
112.375269
 20
72.752873
 30
0.0
  0
VERTEX
  5
3E0A
  8
0
 62
     7
 10
112.244446
 20
72.735891
 30
0.0
  0
SEQEND
  5
3E0B
  8
0
 62
     7
  0
POLYLINE
  5
397C
  8
0
 62
     7
 66
     1
 10
0.0
 20
0.0
 30
0.0
  0
VERTEX
  5
3E0C
  8
0
 62
     7
 10
112.309088
 20
72.572075
 30
0.0
  0
VERTEX
  5
3E0D
  8
0
 62
     7
 10
112.210462
 20
72.559686
 30
0.0
  0
VERTEX
  5
3E0E
  8
0
 62
     7
 10
112.106931
 20
72.545993
 30
0.0
  0
SEQEND
  5
3E0F
  8
0
 62
     7
  0
POLYLINE
  5
397D
  8
0
 62
     7
 66
     1
 10
0.0
 20
0.0
 30
0.0
  0
VERTEX
  5
3E10
  8
0
 62
     7
 10
113.243732
 20
72.545993
 30
0.0
  0
VERTEX
  5
3E11
  8
0
 62
     7
 10
113.302901
 20
72.572118
 30
0.0
  0
VERTEX
  5
3E12
  8
0
 62
     7
 10
113.350623
 20
72.615745
 30
0.0
  0
VERTEX
  5
3E13
  8
0
 62
     7
 10
113.381905
 20
72.672309
 30
0.0
  0
VERTEX
  5
3E14
  8
0
 62
     7
 10
113.39304
 20
72.725773
 30
0.0
  0
SEQEND
  5
3E15
  8
0
 62
     7
  0
POLYLINE
  5
397E
  8
0
 62
     7
 66
     1
 10
0.0
 20
0.0
 30
0.0
  0
VERTEX
  5
3E16
  8
0
 62
     7
 10
113.235798
 20
72.572072
 30
0.0
  0
VERTEX
  5
3E17
  8
0
 62
     7
 10
113.292457
 20
72.597548
 30
0.0
  0
VERTEX
  5
3E18
  8
0
 62
     7
 10
113.340489
 20
72.643263
 30
0.0
  0
VERTEX
  5
3E19
  8
0
 62
     7
 10
113.37
 20
72.701046
 30
0.0
  0
VERTEX
  5
3E1A
  8
0
 62
     7
 10
113.379666
 20
72.767813
 30
0.0
  0
SEQEND
  5
3E1B
  8
0
 62
     7
  0
POLYLINE
  5
397F
  8
0
 62
     7
 66
     1
 10
0.0
 20
0.0
 30
0.0
  0
VERTEX
  5
3E1C
  8
0
 62
     7
 10
113.38716
 20
72.689409
 30
0.0
  0
VERTEX
  5
3E1D
  8
0
 62
     7
 10
113.373409
 20
72.652006
 30
0.0
  0
VERTEX
  5
3E1E
  8
0
 62
     7
 10
113.352615
 20
72.618205
 30
0.0
  0
VERTEX
  5
3E1F
  8
0
 62
     7
 10
113.32797
 20
72.591331
 30
0.0
  0
VERTEX
  5
3E20
  8
0
 62
     7
 10
113.297901
 20
72.56879
 30
0.0
  0
VERTEX
  5
3E21
  8
0
 62
     7
 10
113.269856
 20
72.554529
 30
0.0
  0
VERTEX
  5
3E22
  8
0
 62
     7
 10
113.244488
 20
72.545988
 30
0.0
  0
SEQEND
  5
3E23
  8
0
 62
     7
  0
LINE
  5
3980
  8
0
 62
     7
 10
113.39304
 20
72.725773
 30
0.0
 11
113.38716
 21
72.689409
 31
0.0
  0
LINE
  5
3981
  8
0
 62
     7
 10
113.39304
 20
72.725773
 30
0.0
 11
113.393049
 21
72.725898
 31
0.0
  0
LINE
  5
3982
  8
0
 62
     7
 10
113.393049
 20
72.725898
 30
0.0
 11
113.393561
 21
72.737902
 31
0.0
  0
LINE
  5
3983
  8
0
 62
     7
 10
113.394024
 20
72.767564
 30
0.0
 11
113.393473
 21
72.735891
 31
0.0
  0
POLYLINE
  5
3984
  8
0
 62
     7
 66
     1
 10
0.0
 20
0.0
 30
0.0
  0
VERTEX
  5
3E24
  8
0
 62
     7
 10
113.379676
 20
72.767813
 30
0.0
  0
VERTEX
  5
3E25
  8
0
 62
     7
 10
113.372808
 20
73.037448
 30
0.0
  0
VERTEX
  5
3E26
  8
0
 62
     7
 10
113.36255
 20
73.307022
 30
0.0
  0
VERTEX
  5
3E27
  8
0
 62
     7
 10
113.348903
 20
73.576555
 30
0.0
  0
SEQEND
  5
3E28
  8
0
 62
     7
  0
POLYLINE
  5
3985
  8
0
 62
     7
 66
     1
 10
0.0
 20
0.0
 30
0.0
  0
VERTEX
  5
3E29
  8
0
 62
     7
 10
113.243723
 20
72.545993
 30
0.0
  0
VERTEX
  5
3E2A
  8
0
 62
     7
 10
113.242301
 20
72.559686
 30
0.0
  0
VERTEX
  5
3E2B
  8
0
 62
     7
 10
113.235798
 20
72.572075
 30
0.0
  0
SEQEND
  5
3E2C
  8
0
 62
     7
  0
LINE
  5
3986
  8
0
 62
     7
 10
113.393561
 20
72.73793
 30
0.0
 11
113.390642
 21
72.752873
 31
0.0
  0
LINE
  5
3987
  8
0
 62
     7
 10
113.390642
 20
72.752873
 30
0.0
 11
113.379676
 21
72.767813
 31
0.0
  0
LINE
  5
3988
  8
0
 62
     7
 10
113.244488
 20
72.545988
 30
0.0
 11
113.243732
 21
72.545993
 31
0.0
  0
LINE
  5
3989
  8
0
 62
     7
 10
113.226023
 20
72.541755
 30
0.0
 11
113.244313
 21
72.545943
 31
0.0
  0
LINE
  5
398A
  8
0
 62
     7
 10
113.243723
 20
72.545993
 30
0.0
 11
113.226024
 21
72.541858
 31
0.0
  0
LINE
  5
398B
  8
0
 62
     7
 10
113.235798
 20
72.572075
 30
0.0
 11
113.226509
 21
72.569727
 31
0.0
  0
LINE
  5
398C
  8
0
 62
     7
 10
113.348903
 20
73.576555
 30
0.0
 11
113.243518
 21
73.548906
 31
0.0
  0
LINE
  5
398D
  8
0
 62
     7
 10
125.906555
 20
89.96542
 30
0.0
 11
108.593029
 21
89.96542
 31
0.0
  0
LINE
  5
398E
  8
0
 62
     7
 10
112.618029
 20
88.16542
 30
0.0
 11
122.518029
 21
88.16542
 31
0.0
  0
LINE
  5
398F
  8
0
 62
     7
 10
112.618029
 20
86.75411
 30
0.0
 11
122.518029
 21
86.75411
 31
0.0
  0
LINE
  5
3990
  8
0
 62
     7
 10
127.093029
 20
86.46542
 30
0.0
 11
108.593029
 21
86.46542
 31
0.0
  0
LINE
  5
3991
  8
0
 62
     7
 10
126.543029
 20
85.71542
 30
0.0
 11
108.593029
 21
85.71542
 31
0.0
  0
POLYLINE
  5
3992
  8
0
 62
     7
 66
     1
 10
0.0
 20
0.0
 30
0.0
  0
VERTEX
  5
3E2D
  8
0
 62
     7
 10
110.894228
 20
83.939834
 30
0.0
  0
VERTEX
  5
3E2E
  8
0
 62
     7
 10
112.149013
 20
83.979831
 30
0.0
  0
VERTEX
  5
3E2F
  8
0
 62
     7
 10
119.579236
 20
84.692887
 30
0.0
  0
VERTEX
  5
3E30
  8
0
 62
     7
 10
125.953865
 20
85.71542
 30
0.0
  0
SEQEND
  5
3E31
  8
0
 62
     7
  0
POLYLINE
  5
3993
  8
0
 62
     7
 66
     1
 10
0.0
 20
0.0
 30
0.0
  0
VERTEX
  5
3E32
  8
0
 62
     7
 10
123.046426
 20
85.71542
 30
0.0
  0
VERTEX
  5
3E33
  8
0
 62
     7
 10
119.832302
 20
85.197547
 30
0.0
  0
VERTEX
  5
3E34
  8
0
 62
     7
 10
112.270712
 20
84.461336
 30
0.0
  0
VERTEX
  5
3E35
  8
0
 62
     7
 10
106.864956
 20
84.286513
 30
0.0
  0
SEQEND
  5
3E36
  8
0
 62
     7
  0
LINE
  5
3994
  8
0
 62
     7
 10
112.534085
 20
83.848269
 30
0.0
 11
113.527109
 21
83.838231
 31
0.0
  0
POLYLINE
  5
3995
  8
0
 62
     7
 66
     1
 10
0.0
 20
0.0
 30
0.0
  0
VERTEX
  5
3E37
  8
0
 62
     7
 10
112.902088
 20
83.815461
 30
0.0
  0
VERTEX
  5
3E38
  8
0
 62
     7
 10
113.098555
 20
83.81542
 30
0.0
  0
VERTEX
  5
3E39
  8
0
 62
     7
 10
113.295616
 20
83.81542
 30
0.0
  0
VERTEX
  5
3E3A
  8
0
 62
     7
 10
113.421863
 20
83.815476
 30
0.0
  0
SEQEND
  5
3E3B
  8
0
 62
     7
  0
LINE
  5
3996
  8
0
 62
     7
 10
108.593029
 20
88.16542
 30
0.0
 11
110.718029
 21
88.16542
 31
0.0
  0
LINE
  5
3997
  8
0
 62
     7
 10
108.593029
 20
86.75411
 30
0.0
 11
110.718029
 21
86.75411
 31
0.0
  0
POLYLINE
  5
3998
  8
0
 62
     7
 66
     1
 10
0.0
 20
0.0
 30
0.0
  0
VERTEX
  5
3E3C
  8
0
 62
     7
 10
107.071065
 20
82.265409
 30
0.0
  0
VERTEX
  5
3E3D
  8
0
 62
     7
 10
107.743967
 20
82.19613
 30
0.0
  0
VERTEX
  5
3E3E
  8
0
 62
     7
 10
108.385875
 20
81.992959
 30
0.0
  0
VERTEX
  5
3E3F
  8
0
 62
     7
 10
108.976104
 20
81.663992
 30
0.0
  0
VERTEX
  5
3E40
  8
0
 62
     7
 10
109.491871
 20
81.222237
 30
0.0
  0
VERTEX
  5
3E41
  8
0
 62
     7
 10
109.913321
 20
80.685202
 30
0.0
  0
VERTEX
  5
3E42
  8
0
 62
     7
 10
110.224309
 20
80.074389
 30
0.0
  0
VERTEX
  5
3E43
  8
0
 62
     7
 10
110.41339
 20
79.41401
 30
0.0
  0
VERTEX
  5
3E44
  8
0
 62
     7
 10
110.474067
 20
78.764811
 30
0.0
  0
SEQEND
  5
3E45
  8
0
 62
     7
  0
LINE
  5
3999
  8
0
 62
     7
 10
108.014266
 20
84.080307
 30
0.0
 11
106.300767
 21
84.266467
 31
0.0
  0
LINE
  5
399A
  8
0
 62
     7
 10
106.657762
 20
82.181998
 30
0.0
 11
107.21105
 21
82.250996
 31
0.0
  0
LINE
  5
399B
  8
0
 62
     7
 10
107.071064
 20
82.26542
 30
0.0
 11
107.070723
 21
82.26542
 31
0.0
  0
LINE
  5
399C
  8
0
 62
     7
 10
108.593029
 20
85.71542
 30
0.0
 11
108.593029
 21
89.96542
 31
0.0
  0
POLYLINE
  5
399D
  8
0
 62
     7
 66
     1
 10
0.0
 20
0.0
 30
0.0
  0
VERTEX
  5
3E46
  8
0
 62
     7
 10
110.562778
 20
83.915092
 30
0.0
  0
VERTEX
  5
3E47
  8
0
 62
     7
 10
111.541026
 20
83.874494
 30
0.0
  0
VERTEX
  5
3E48
  8
0
 62
     7
 10
112.534085
 20
83.848269
 30
0.0
  0
SEQEND
  5
3E49
  8
0
 62
     7
  0
LINE
  5
399E
  8
0
 62
     7
 10
109.958323
 20
83.976822
 30
0.0
 11
112.902971
 21
83.860445
 31
0.0
  0
POLYLINE
  5
399F
  8
0
 62
     7
 66
     1
 10
0.0
 20
0.0
 30
0.0
  0
VERTEX
  5
3E4A
  8
0
 62
     7
 10
112.120259
 20
83.846483
 30
0.0
  0
VERTEX
  5
3E4B
  8
0
 62
     7
 10
111.950986
 20
83.848269
 30
0.0
  0
VERTEX
  5
3E4C
  8
0
 62
     7
 10
111.042173
 20
83.874494
 30
0.0
  0
VERTEX
  5
3E4D
  8
0
 62
     7
 10
110.189435
 20
83.915092
 30
0.0
  0
SEQEND
  5
3E4E
  8
0
 62
     7
  0
LINE
  5
39A0
  8
0
 62
     7
 10
110.562778
 20
83.897317
 30
0.0
 11
110.562778
 21
83.915092
 31
0.0
  0
POLYLINE
  5
39A1
  8
0
 62
     7
 66
     1
 10
0.0
 20
0.0
 30
0.0
  0
VERTEX
  5
3E4F
  8
0
 62
     7
 10
112.120199
 20
83.840817
 30
0.0
  0
VERTEX
  5
3E50
  8
0
 62
     7
 10
112.193965
 20
83.840154
 30
0.0
  0
VERTEX
  5
3E51
  8
0
 62
     7
 10
112.265223
 20
83.839638
 30
0.0
  0
VERTEX
  5
3E52
  8
0
 62
     7
 10
112.324185
 20
83.839299
 30
0.0
  0
VERTEX
  5
3E53
  8
0
 62
     7
 10
112.362756
 20
83.839135
 30
0.0
  0
SEQEND
  5
3E54
  8
0
 62
     7
  0
POLYLINE
  5
39A2
  8
0
 62
     7
 66
     1
 10
0.0
 20
0.0
 30
0.0
  0
VERTEX
  5
3E55
  8
0
 62
     7
 10
112.362756
 20
83.839135
 30
0.0
  0
VERTEX
  5
3E56
  8
0
 62
     7
 10
112.559333
 20
83.838644
 30
0.0
  0
VERTEX
  5
3E57
  8
0
 62
     7
 10
112.739175
 20
83.838368
 30
0.0
  0
VERTEX
  5
3E58
  8
0
 62
     7
 10
112.902093
 20
83.838231
 30
0.0
  0
SEQEND
  5
3E59
  8
0
 62
     7
  0
LINE
  5
39A3
  8
0
 62
     7
 10
112.618029
 20
89.46542
 30
0.0
 11
110.718029
 21
89.46542
 31
0.0
  0
LINE
  5
39A4
  8
0
 62
     7
 10
110.718029
 20
88.926805
 30
0.0
 11
112.618029
 21
88.926805
 31
0.0
  0
LINE
  5
39A5
  8
0
 62
     7
 10
110.718029
 20
86.46542
 30
0.0
 11
110.718029
 21
89.465395
 31
0.0
  0
LINE
  5
39A6
  8
0
 62
     7
 10
112.618029
 20
86.46542
 30
0.0
 11
112.618029
 21
89.465395
 31
0.0
  0
LINE
  5
39A7
  8
0
 62
     7
 10
105.943029
 20
103.76542
 30
0.0
 11
105.943029
 21
102.46542
 31
0.0
  0
POLYLINE
  5
39A8
  8
0
 62
     7
 66
     1
 10
0.0
 20
0.0
 30
0.0
  0
VERTEX
  5
3E5A
  8
0
 62
     7
 10
113.527109
 20
83.838231
 30
0.0
  0
VERTEX
  5
3E5B
  8
0
 62
     7
 10
113.564426
 20
83.838368
 30
0.0
  0
VERTEX
  5
3E5C
  8
0
 62
     7
 10
113.584053
 20
83.838644
 30
0.0
  0
SEQEND
  5
3E5D
  8
0
 62
     7
  0
LINE
  5
39A9
  8
0
 62
     7
 10
113.584053
 20
83.838644
 30
0.0
 11
113.587329
 21
83.838912
 31
0.0
  0
LINE
  5
39AA
  8
0
 62
     7
 10
126.593029
 20
101.16542
 30
0.0
 11
127.193029
 21
113.16542
 31
0.0
  0
LINE
  5
39AB
  8
0
 62
     7
 10
127.093029
 20
86.153828
 30
0.0
 11
127.093029
 21
111.16542
 31
0.0
  0
LINE
  5
39AC
  8
0
 62
     7
 10
127.343029
 20
88.734847
 30
0.0
 11
127.343029
 21
96.558802
 31
0.0
  0
LINE
  5
39AD
  8
0
 62
     7
 10
126.593029
 20
86.46542
 30
0.0
 11
126.593029
 21
101.16542
 31
0.0
  0
LINE
  5
39AE
  8
0
 62
     7
 10
124.418029
 20
88.16542
 30
0.0
 11
125.898701
 21
88.16542
 31
0.0
  0
LINE
  5
39AF
  8
0
 62
     7
 10
124.418029
 20
86.75411
 30
0.0
 11
125.892543
 21
86.75411
 31
0.0
  0
LINE
  5
39B0
  8
0
 62
     7
 10
124.418029
 20
89.46542
 30
0.0
 11
122.518029
 21
89.46542
 31
0.0
  0
LINE
  5
39B1
  8
0
 62
     7
 10
122.518029
 20
88.926805
 30
0.0
 11
124.418029
 21
88.926805
 31
0.0
  0
LINE
  5
39B2
  8
0
 62
     7
 10
122.518029
 20
86.46542
 30
0.0
 11
122.518029
 21
89.465395
 31
0.0
  0
LINE
  5
39B3
  8
0
 62
     7
 10
124.418029
 20
86.46542
 30
0.0
 11
124.418029
 21
89.465395
 31
0.0
  0
LINE
  5
39B4
  8
0
 62
     7
 10
126.543029
 20
85.809925
 30
0.0
 11
126.849841
 21
85.85914
 31
0.0
  0
LINE
  5
39B5
  8
0
 62
     7
 10
126.847258
 20
86.327825
 30
0.0
 11
126.543029
 21
86.278806
 31
0.0
  0
LINE
  5
39B6
  8
0
 62
     7
 10
125.906555
 20
89.96542
 30
0.0
 11
125.891283
 21
86.46542
 31
0.0
  0
LINE
  5
39B7
  8
0
 62
     7
 10
126.543029
 20
85.71542
 30
0.0
 11
126.543029
 21
86.46542
 31
0.0
  0
ARC
  5
39B8
  8
0
 62
     7
 10
126.343029
 20
88.734847
 30
0.0
 40
1.0
 50
319.217579
 51
0.0
  0
ARC
  5
39B9
  8
0
 62
     7
 10
126.793029
 20
86.153712
 30
0.0
 40
0.3
 50
280.916245
 51
0.0
  0
LINE
  5
39BA
  8
0
 62
     7
 10
126.973334
 20
86.380519
 30
0.0
 11
126.847258
 21
86.327826
 31
0.0
  0
LINE
  5
39BB
  8
0
 62
     7
 10
127.047534
 20
86.46542
 30
0.0
 11
126.973334
 21
86.380519
 31
0.0
  0
LINE
  5
39BC
  8
0
 62
     7
 10
126.847258
 20
86.327826
 30
0.0
 11
126.84984
 21
85.859141
 31
0.0
  0
LINE
  5
39BD
  8
0
 62
     7
 10
126.83177
 20
86.46542
 30
0.0
 11
126.847258
 21
86.327826
 31
0.0
  0
LINE
  5
39BE
  8
0
 62
     7
 10
127.093029
 20
90.513337
 30
0.0
 11
127.343029
 21
90.513337
 31
0.0
  0
LINE
  5
39BF
  8
0
 62
     7
 10
127.093029
 20
96.558802
 30
0.0
 11
127.343029
 21
96.558802
 31
0.0
  0
LINE
  5
39C0
  8
0
 62
     7
 10
127.093029
 20
120.16542
 30
0.0
 11
127.193029
 21
124.66542
 31
0.0
  0
LINE
  5
39C1
  8
0
 62
     7
 10
127.093029
 20
116.16542
 30
0.0
 11
127.193029
 21
120.16542
 31
0.0
  0
ARC
  5
39C2
  8
0
 62
     7
 10
126.393029
 20
110.46542
 30
0.0
 40
0.8
 50
332.482452
 51
0.0
  0
LINE
  5
39C3
  8
0
 62
     7
 10
127.193029
 20
111.16542
 30
0.0
 11
127.193029
 21
110.46542
 31
0.0
  0
LINE
  5
39C4
  8
0
 62
     7
 10
127.193029
 20
111.16542
 30
0.0
 11
127.093029
 21
111.16542
 31
0.0
  0
LINE
  5
39C5
  8
0
 62
     7
 10
127.093029
 20
113.16542
 30
0.0
 11
127.193029
 21
116.16542
 31
0.0
  0
LINE
  5
39C6
  8
0
 62
     7
 10
127.193029
 20
116.16542
 30
0.0
 11
127.093029
 21
116.16542
 31
0.0
  0
LINE
  5
39C7
  8
0
 62
     7
 10
127.193029
 20
113.16542
 30
0.0
 11
127.093029
 21
113.16542
 31
0.0
  0
LINE
  5
39C8
  8
0
 62
     7
 10
127.193029
 20
120.16542
 30
0.0
 11
127.093029
 21
120.16542
 31
0.0
  0
LINE
  5
39C9
  8
0
 62
     7
 10
125.193029
 20
134.36542
 30
0.0
 11
123.693029
 21
134.36542
 31
0.0
  0
LINE
  5
39CA
  8
0
 62
     7
 10
123.693029
 20
133.06542
 30
0.0
 11
125.493029
 21
133.06542
 31
0.0
  0
LINE
  5
39CB
  8
0
 62
     7
 10
123.693029
 20
131.06542
 30
0.0
 11
125.493029
 21
131.06542
 31
0.0
  0
LINE
  5
39CC
  8
0
 62
     7
 10
123.693029
 20
130.66542
 30
0.0
 11
127.193029
 21
130.66542
 31
0.0
  0
LINE
  5
39CD
  8
0
 62
     7
 10
124.067196
 20
131.46542
 30
0.0
 11
124.067196
 21
132.66542
 31
0.0
  0
LINE
  5
39CE
  8
0
 62
     7
 10
123.693029
 20
134.36542
 30
0.0
 11
123.693029
 21
130.66542
 31
0.0
  0
LINE
  5
39CF
  8
0
 62
     7
 10
124.067196
 20
131.46542
 30
0.0
 11
123.693029
 21
131.46542
 31
0.0
  0
POLYLINE
  5
39D0
  8
0
 62
     7
 66
     1
 10
0.0
 20
0.0
 30
0.0
  0
VERTEX
  5
3E5E
  8
0
 62
     7
 10
124.067196
 20
131.46542
 30
0.0
  0
VERTEX
  5
3E5F
  8
0
 62
     7
 10
124.065228
 20
131.389127
 30
0.0
  0
VERTEX
  5
3E60
  8
0
 62
     7
 10
124.059272
 20
131.314478
 30
0.0
  0
VERTEX
  5
3E61
  8
0
 62
     7
 10
124.049606
 20
131.245861
 30
0.0
  0
VERTEX
  5
3E62
  8
0
 62
     7
 10
124.03642
 20
131.184895
 30
0.0
  0
VERTEX
  5
3E63
  8
0
 62
     7
 10
124.020193
 20
131.134417
 30
0.0
  0
VERTEX
  5
3E64
  8
0
 62
     7
 10
124.001719
 20
131.096941
 30
0.0
  0
VERTEX
  5
3E65
  8
0
 62
     7
 10
123.981323
 20
131.073403
 30
0.0
  0
VERTEX
  5
3E66
  8
0
 62
     7
 10
123.960016
 20
131.06542
 30
0.0
  0
SEQEND
  5
3E67
  8
0
 62
     7
  0
LINE
  5
39D1
  8
0
 62
     7
 10
123.693029
 20
132.66542
 30
0.0
 11
124.067196
 21
132.66542
 31
0.0
  0
POLYLINE
  5
39D2
  8
0
 62
     7
 66
     1
 10
0.0
 20
0.0
 30
0.0
  0
VERTEX
  5
3E68
  8
0
 62
     7
 10
123.960016
 20
133.06542
 30
0.0
  0
VERTEX
  5
3E69
  8
0
 62
     7
 10
123.981323
 20
133.057436
 30
0.0
  0
VERTEX
  5
3E6A
  8
0
 62
     7
 10
124.001719
 20
133.033898
 30
0.0
  0
VERTEX
  5
3E6B
  8
0
 62
     7
 10
124.020193
 20
132.996422
 30
0.0
  0
VERTEX
  5
3E6C
  8
0
 62
     7
 10
124.03642
 20
132.945944
 30
0.0
  0
VERTEX
  5
3E6D
  8
0
 62
     7
 10
124.049606
 20
132.884978
 30
0.0
  0
VERTEX
  5
3E6E
  8
0
 62
     7
 10
124.059272
 20
132.816361
 30
0.0
  0
VERTEX
  5
3E6F
  8
0
 62
     7
 10
124.065228
 20
132.741712
 30
0.0
  0
VERTEX
  5
3E70
  8
0
 62
     7
 10
124.067196
 20
132.66542
 30
0.0
  0
SEQEND
  5
3E71
  8
0
 62
     7
  0
LINE
  5
39D3
  8
0
 62
     7
 10
125.493029
 20
131.66542
 30
0.0
 11
125.993029
 21
130.66542
 31
0.0
  0
LINE
  5
39D4
  8
0
 62
     7
 10
125.770728
 20
131.110021
 30
0.0
 11
125.766848
 21
130.66542
 31
0.0
  0
LINE
  5
39D5
  8
0
 62
     7
 10
127.093029
 20
124.66542
 30
0.0
 11
127.193029
 21
130.16542
 31
0.0
  0
LINE
  5
39D6
  8
0
 62
     7
 10
127.193029
 20
124.66542
 30
0.0
 11
127.093029
 21
124.66542
 31
0.0
  0
LINE
  5
39D7
  8
0
 62
     7
 10
127.093029
 20
130.66542
 30
0.0
 11
127.093029
 21
130.16542
 31
0.0
  0
LINE
  5
39D8
  8
0
 62
     7
 10
127.193029
 20
130.16542
 30
0.0
 11
127.093029
 21
130.16542
 31
0.0
  0
LINE
  5
39D9
  8
0
 62
     7
 10
125.193029
 20
135.958277
 30
0.0
 11
125.493029
 21
134.672562
 31
0.0
  0
ARC
  5
39DA
  8
0
 62
     7
 10
104.693029
 20
276.70542
 30
0.0
 40
125.24
 50
273.983352
 51
278.40211
  0
LINE
  5
39DB
  8
0
 62
     7
 10
123.443029
 20
196.96542
 30
0.0
 11
115.943029
 21
196.96542
 31
0.0
  0
LINE
  5
39DC
  8
0
 62
     7
 10
113.443029
 20
191.96542
 30
0.0
 11
125.043029
 21
191.96542
 31
0.0
  0
LINE
  5
39DD
  8
0
 62
     7
 10
122.943029
 20
188.86542
 30
0.0
 11
113.443029
 21
188.86542
 31
0.0
  0
LINE
  5
39DE
  8
0
 62
     7
 10
113.443029
 20
187.36542
 30
0.0
 11
122.943029
 21
187.36542
 31
0.0
  0
LINE
  5
39DF
  8
0
 62
     7
 10
122.943029
 20
185.86542
 30
0.0
 11
113.443029
 21
185.86542
 31
0.0
  0
LINE
  5
39E0
  8
0
 62
     7
 10
113.443029
 20
184.36542
 30
0.0
 11
122.943029
 21
184.36542
 31
0.0
  0
LINE
  5
39E1
  8
0
 62
     7
 10
122.943029
 20
182.86542
 30
0.0
 11
113.443029
 21
182.86542
 31
0.0
  0
LINE
  5
39E2
  8
0
 62
     7
 10
113.443029
 20
181.36542
 30
0.0
 11
122.943029
 21
181.36542
 31
0.0
  0
LINE
  5
39E3
  8
0
 62
     7
 10
122.943029
 20
179.86542
 30
0.0
 11
113.443029
 21
179.86542
 31
0.0
  0
LINE
  5
39E4
  8
0
 62
     7
 10
113.443029
 20
178.36542
 30
0.0
 11
122.943029
 21
178.36542
 31
0.0
  0
LINE
  5
39E5
  8
0
 62
     7
 10
122.943029
 20
172.86542
 30
0.0
 11
113.443029
 21
172.86542
 31
0.0
  0
LINE
  5
39E6
  8
0
 62
     7
 10
113.043029
 20
168.66542
 30
0.0
 11
124.143029
 21
168.66542
 31
0.0
  0
LINE
  5
39E7
  8
0
 62
     7
 10
113.043029
 20
167.66542
 30
0.0
 11
123.343029
 21
167.66542
 31
0.0
  0
LINE
  5
39E8
  8
0
 62
     7
 10
115.193029
 20
167.36542
 30
0.0
 11
121.193029
 21
167.36542
 31
0.0
  0
LINE
  5
39E9
  8
0
 62
     7
 10
113.043029
 20
166.06542
 30
0.0
 11
123.343029
 21
166.06542
 31
0.0
  0
LINE
  5
39EA
  8
0
 62
     7
 10
113.393029
 20
162.96542
 30
0.0
 11
122.993029
 21
162.96542
 31
0.0
  0
POLYLINE
  5
39EB
  8
0
 62
     7
 66
     1
 10
0.0
 20
0.0
 30
0.0
  0
VERTEX
  5
3E72
  8
0
 62
     7
 10
113.393029
 20
162.36542
 30
0.0
  0
VERTEX
  5
3E73
  8
0
 62
     7
 10
115.315549
 20
162.68698
 30
0.0
  0
VERTEX
  5
3E74
  8
0
 62
     7
 10
117.234384
 20
162.845682
 30
0.0
  0
VERTEX
  5
3E75
  8
0
 62
     7
 10
119.151763
 20
162.845678
 30
0.0
  0
VERTEX
  5
3E76
  8
0
 62
     7
 10
121.070545
 20
162.686975
 30
0.0
  0
VERTEX
  5
3E77
  8
0
 62
     7
 10
122.993029
 20
162.36542
 30
0.0
  0
SEQEND
  5
3E78
  8
0
 62
     7
  0
LINE
  5
39EC
  8
0
 62
     7
 10
112.193029
 20
152.954222
 30
0.0
 11
112.193029
 21
193.26542
 31
0.0
  0
LINE
  5
39ED
  8
0
 62
     7
 10
112.043029
 20
172.66542
 30
0.0
 11
112.043029
 21
152.943733
 31
0.0
  0
LINE
  5
39EE
  8
0
 62
     7
 10
110.843029
 20
172.66542
 30
0.0
 11
110.843029
 21
152.859821
 31
0.0
  0
LINE
  5
39EF
  8
0
 62
     7
 10
110.693029
 20
152.849332
 30
0.0
 11
110.693029
 21
193.26542
 31
0.0
  0
LINE
  5
39F0
  8
0
 62
     7
 10
113.043029
 20
153.189185
 30
0.0
 11
112.193029
 21
153.129748
 31
0.0
  0
LINE
  5
39F1
  8
0
 62
     7
 10
109.493029
 20
152.76542
 30
0.0
 11
113.393029
 21
153.038134
 31
0.0
  0
LINE
  5
39F2
  8
0
 62
     7
 10
109.843029
 20
152.789894
 30
0.0
 11
109.843029
 21
167.66542
 31
0.0
  0
LINE
  5
39F3
  8
0
 62
     7
 10
109.693029
 20
158.46542
 30
0.0
 11
109.693029
 21
152.779405
 31
0.0
  0
LINE
  5
39F4
  8
0
 62
     7
 10
109.493029
 20
151.557437
 30
0.0
 11
109.493029
 21
162.96542
 31
0.0
  0
LINE
  5
39F5
  8
0
 62
     7
 10
106.693029
 20
143.268521
 30
0.0
 11
106.693029
 21
143.040697
 31
0.0
  0
LINE
  5
39F6
  8
0
 62
     7
 10
112.433688
 20
143.328732
 30
0.0
 11
112.56544
 21
143.328732
 31
0.0
  0
LINE
  5
39F7
  8
0
 62
     7
 10
110.693029
 20
153.024857
 30
0.0
 11
109.843029
 21
152.96542
 31
0.0
  0
LINE
  5
39F8
  8
0
 62
     7
 10
108.443029
 20
166.26542
 30
0.0
 11
109.843029
 21
166.26542
 31
0.0
  0
LINE
  5
39F9
  8
0
 62
     7
 10
106.693029
 20
167.36542
 30
0.0
 11
106.693029
 21
167.66542
 31
0.0
  0
LINE
  5
39FA
  8
0
 62
     7
 10
108.443029
 20
166.26542
 30
0.0
 11
108.443029
 21
167.66542
 31
0.0
  0
LINE
  5
39FB
  8
0
 62
     7
 10
107.693029
 20
166.06542
 30
0.0
 11
107.693029
 21
167.36542
 31
0.0
  0
LINE
  5
39FC
  8
0
 62
     7
 10
109.843029
 20
156.26542
 30
0.0
 11
109.693029
 21
156.26542
 31
0.0
  0
LINE
  5
39FD
  8
0
 62
     7
 10
109.693029
 20
158.46542
 30
0.0
 11
109.493029
 21
158.367148
 31
0.0
  0
LINE
  5
39FE
  8
0
 62
     7
 10
109.843029
 20
162.66542
 30
0.0
 11
110.693029
 21
162.66542
 31
0.0
  0
LINE
  5
39FF
  8
0
 62
     7
 10
109.543029
 20
166.06542
 30
0.0
 11
109.543029
 21
166.26542
 31
0.0
  0
LINE
  5
3A00
  8
0
 62
     7
 10
110.693029
 20
166.06542
 30
0.0
 11
110.843029
 21
166.06542
 31
0.0
  0
LINE
  5
3A01
  8
0
 62
     7
 10
109.843029
 20
167.66542
 30
0.0
 11
110.693029
 21
168.378654
 31
0.0
  0
LINE
  5
3A02
  8
0
 62
     7
 10
113.393029
 20
151.767965
 30
0.0
 11
113.393029
 21
162.96542
 31
0.0
  0
LINE
  5
3A03
  8
0
 62
     7
 10
113.242271
 20
158.441224
 30
0.0
 11
113.242271
 21
153.027592
 31
0.0
  0
LINE
  5
3A04
  8
0
 62
     7
 10
113.043029
 20
153.01366
 30
0.0
 11
113.043029
 21
168.66542
 31
0.0
  0
LINE
  5
3A05
  8
0
 62
     7
 10
113.043029
 20
158.539123
 30
0.0
 11
113.393029
 21
158.367148
 31
0.0
  0
LINE
  5
3A06
  8
0
 62
     7
 10
114.443029
 20
166.26542
 30
0.0
 11
114.443029
 21
167.66542
 31
0.0
  0
LINE
  5
3A07
  8
0
 62
     7
 10
114.443029
 20
166.26542
 30
0.0
 11
113.043029
 21
166.26542
 31
0.0
  0
LINE
  5
3A08
  8
0
 62
     7
 10
113.343029
 20
166.06542
 30
0.0
 11
113.343029
 21
166.26542
 31
0.0
  0
LINE
  5
3A09
  8
0
 62
     7
 10
116.193029
 20
167.36542
 30
0.0
 11
116.193029
 21
167.66542
 31
0.0
  0
LINE
  5
3A0A
  8
0
 62
     7
 10
115.193029
 20
166.06542
 30
0.0
 11
115.193029
 21
167.36542
 31
0.0
  0
LINE
  5
3A0B
  8
0
 62
     7
 10
120.193029
 20
167.36542
 30
0.0
 11
120.193029
 21
167.66542
 31
0.0
  0
ARC
  5
3A0C
  8
0
 62
     7
 10
113.843029
 20
193.26542
 30
0.0
 40
3.9
 50
67.380135
 51
112.619865
  0
LINE
  5
3A0D
  8
0
 62
     7
 10
109.443029
 20
193.834166
 30
0.0
 11
109.443029
 21
172.86542
 31
0.0
  0
LINE
  5
3A0E
  8
0
 62
     7
 10
108.393029
 20
179.86542
 30
0.0
 11
108.393029
 21
178.36542
 31
0.0
  0
LINE
  5
3A0F
  8
0
 62
     7
 10
108.193029
 20
178.36542
 30
0.0
 11
108.193029
 21
179.86542
 31
0.0
  0
LINE
  5
3A10
  8
0
 62
     7
 10
108.393029
 20
182.86542
 30
0.0
 11
108.393029
 21
181.36542
 31
0.0
  0
LINE
  5
3A11
  8
0
 62
     7
 10
108.193029
 20
181.36542
 30
0.0
 11
108.193029
 21
182.86542
 31
0.0
  0
LINE
  5
3A12
  8
0
 62
     7
 10
108.393029
 20
185.86542
 30
0.0
 11
108.393029
 21
184.36542
 31
0.0
  0
LINE
  5
3A13
  8
0
 62
     7
 10
108.193029
 20
184.36542
 30
0.0
 11
108.193029
 21
185.86542
 31
0.0
  0
LINE
  5
3A14
  8
0
 62
     7
 10
112.193029
 20
172.76542
 30
0.0
 11
110.693029
 21
172.76542
 31
0.0
  0
LINE
  5
3A15
  8
0
 62
     7
 10
110.843029
 20
172.66542
 30
0.0
 11
112.193029
 21
172.66542
 31
0.0
  0
LINE
  5
3A16
  8
0
 62
     7
 10
110.693029
 20
172.06542
 30
0.0
 11
110.843029
 21
172.06542
 31
0.0
  0
LINE
  5
3A17
  8
0
 62
     7
 10
110.693029
 20
171.66542
 30
0.0
 11
110.843029
 21
171.66542
 31
0.0
  0
LINE
  5
3A18
  8
0
 62
     7
 10
110.693029
 20
171.36542
 30
0.0
 11
110.843029
 21
171.36542
 31
0.0
  0
LINE
  5
3A19
  8
0
 62
     7
 10
108.393029
 20
188.86542
 30
0.0
 11
108.393029
 21
187.36542
 31
0.0
  0
LINE
  5
3A1A
  8
0
 62
     7
 10
108.193029
 20
187.36542
 30
0.0
 11
108.193029
 21
188.86542
 31
0.0
  0
LINE
  5
3A1B
  8
0
 62
     7
 10
110.693029
 20
193.26542
 30
0.0
 11
112.193029
 21
193.26542
 31
0.0
  0
LINE
  5
3A1C
  8
0
 62
     7
 10
113.443029
 20
172.86542
 30
0.0
 11
113.443029
 21
191.96542
 31
0.0
  0
LINE
  5
3A1D
  8
0
 62
     7
 10
114.693029
 20
179.86542
 30
0.0
 11
114.693029
 21
178.36542
 31
0.0
  0
LINE
  5
3A1E
  8
0
 62
     7
 10
114.493029
 20
179.86542
 30
0.0
 11
114.493029
 21
178.36542
 31
0.0
  0
LINE
  5
3A1F
  8
0
 62
     7
 10
114.693029
 20
182.86542
 30
0.0
 11
114.693029
 21
181.36542
 31
0.0
  0
LINE
  5
3A20
  8
0
 62
     7
 10
114.493029
 20
182.86542
 30
0.0
 11
114.493029
 21
181.36542
 31
0.0
  0
LINE
  5
3A21
  8
0
 62
     7
 10
114.693029
 20
185.86542
 30
0.0
 11
114.693029
 21
184.36542
 31
0.0
  0
LINE
  5
3A22
  8
0
 62
     7
 10
114.493029
 20
185.86542
 30
0.0
 11
114.493029
 21
184.36542
 31
0.0
  0
ARC
  5
3A23
  8
0
 62
     7
 10
115.343029
 20
194.96542
 30
0.0
 40
0.5
 50
270.0
 51
0.0
  0
LINE
  5
3A24
  8
0
 62
     7
 10
115.943029
 20
196.96542
 30
0.0
 11
115.943029
 21
194.26542
 31
0.0
  0
LINE
  5
3A25
  8
0
 62
     7
 10
115.343029
 20
194.46542
 30
0.0
 11
114.343029
 21
194.46542
 31
0.0
  0
LINE
  5
3A26
  8
0
 62
     7
 10
114.343029
 20
194.26542
 30
0.0
 11
115.943029
 21
194.26542
 31
0.0
  0
ARC
  5
3A27
  8
0
 62
     7
 10
116.693029
 20
188.66542
 30
0.0
 40
2.0
 50
174.260799
 51
180.0
  0
LINE
  5
3A28
  8
0
 62
     7
 10
114.693029
 20
188.66542
 30
0.0
 11
114.693029
 21
187.36542
 31
0.0
  0
LINE
  5
3A29
  8
0
 62
     7
 10
114.493029
 20
188.86542
 30
0.0
 11
114.493029
 21
187.36542
 31
0.0
  0
LINE
  5
3A2A
  8
0
 62
     7
 10
114.493029
 20
191.96542
 30
0.0
 11
114.493029
 21
194.26542
 31
0.0
  0
LINE
  5
3A2B
  8
0
 62
     7
 10
114.343029
 20
194.46542
 30
0.0
 11
114.343029
 21
191.96542
 31
0.0
  0
LINE
  5
3A2C
  8
0
 62
     7
 10
115.843029
 20
196.86542
 30
0.0
 11
115.843029
 21
194.96542
 31
0.0
  0
LINE
  5
3A2D
  8
0
 62
     7
 10
127.093029
 20
153.104313
 30
0.0
 11
127.093029
 21
196.56542
 31
0.0
  0
LINE
  5
3A2E
  8
0
 62
     7
 10
126.793029
 20
153.104313
 30
0.0
 11
126.793029
 21
196.86542
 31
0.0
  0
LINE
  5
3A2F
  8
0
 62
     7
 10
126.143029
 20
177.46542
 30
0.0
 11
126.143029
 21
156.26542
 31
0.0
  0
LINE
  5
3A30
  8
0
 62
     7
 10
125.343029
 20
175.66542
 30
0.0
 11
125.343029
 21
166.16542
 31
0.0
  0
LINE
  5
3A31
  8
0
 62
     7
 10
124.693029
 20
171.96542
 30
0.0
 11
124.693029
 21
166.16542
 31
0.0
  0
LINE
  5
3A32
  8
0
 62
     7
 10
124.493029
 20
172.26542
 30
0.0
 11
124.493029
 21
166.26542
 31
0.0
  0
LINE
  5
3A33
  8
0
 62
     7
 10
124.143029
 20
156.26542
 30
0.0
 11
124.143029
 21
177.46542
 31
0.0
  0
LINE
  5
3A34
  8
0
 62
     7
 10
122.993029
 20
162.96542
 30
0.0
 11
122.993029
 21
152.809626
 31
0.0
  0
LINE
  5
3A35
  8
0
 62
     7
 10
125.493029
 20
140.81542
 30
0.0
 11
125.193029
 21
140.81542
 31
0.0
  0
LINE
  5
3A36
  8
0
 62
     7
 10
125.493029
 20
140.31542
 30
0.0
 11
125.193029
 21
140.31542
 31
0.0
  0
ARC
  5
3A37
  8
0
 62
     7
 10
124.993029
 20
144.723633
 30
0.0
 40
0.2
 50
0.0
 51
101.019833
  0
ARC
  5
3A38
  8
0
 62
     7
 10
125.293029
 20
144.919809
 30
0.0
 40
0.2
 50
0.0
 51
100.810826
  0
ARC
  5
3A39
  8
0
 62
     7
 10
126.093029
 20
153.104313
 30
0.0
 40
1.0
 50
279.822676
 51
0.0
  0
POLYLINE
  5
3A3A
  8
0
 62
     7
 66
     1
 10
0.0
 20
0.0
 30
0.0
  0
VERTEX
  5
3E79
  8
0
 62
     7
 10
126.263628
 20
152.118972
 30
0.0
  0
VERTEX
  5
3E7A
  8
0
 62
     7
 10
126.37944
 20
152.166068
 30
0.0
  0
VERTEX
  5
3E7B
  8
0
 62
     7
 10
126.479427
 20
152.260246
 30
0.0
  0
VERTEX
  5
3E7C
  8
0
 62
     7
 10
126.559592
 20
152.389401
 30
0.0
  0
VERTEX
  5
3E7D
  8
0
 62
     7
 10
126.619783
 20
152.539417
 30
0.0
  0
VERTEX
  5
3E7E
  8
0
 62
     7
 10
126.661842
 20
152.696328
 30
0.0
  0
SEQEND
  5
3E7F
  8
0
 62
     7
  0
ARC
  5
3A3B
  8
0
 62
     7
 10
126.093029
 20
153.104313
 30
0.0
 40
0.700001
 50
324.349756
 51
0.0
  0
LINE
  5
3A3C
  8
0
 62
     7
 10
126.661842
 20
152.696328
 30
0.0
 11
126.905619
 21
152.521477
 31
0.0
  0
LINE
  5
3A3D
  8
0
 62
     7
 10
127.093029
 20
154.56542
 30
0.0
 11
127.193029
 21
154.56542
 31
0.0
  0
LINE
  5
3A3E
  8
0
 62
     7
 10
126.793029
 20
153.104313
 30
0.0
 11
127.093029
 21
153.104313
 31
0.0
  0
LINE
  5
3A3F
  8
0
 62
     7
 10
124.693029
 20
167.26542
 30
0.0
 11
124.493029
 21
167.26542
 31
0.0
  0
LINE
  5
3A40
  8
0
 62
     7
 10
124.493029
 20
166.66542
 30
0.0
 11
124.693029
 21
166.66542
 31
0.0
  0
LINE
  5
3A41
  8
0
 62
     7
 10
126.143029
 20
166.16542
 30
0.0
 11
124.143029
 21
166.16542
 31
0.0
  0
LINE
  5
3A42
  8
0
 62
     7
 10
126.143029
 20
164.96542
 30
0.0
 11
124.143029
 21
164.96542
 31
0.0
  0
LINE
  5
3A43
  8
0
 62
     7
 10
125.893029
 20
164.76542
 30
0.0
 11
124.393029
 21
164.76542
 31
0.0
  0
LINE
  5
3A44
  8
0
 62
     7
 10
125.893029
 20
161.96542
 30
0.0
 11
124.393029
 21
161.96542
 31
0.0
  0
LINE
  5
3A45
  8
0
 62
     7
 10
125.893029
 20
161.46542
 30
0.0
 11
124.393029
 21
161.46542
 31
0.0
  0
LINE
  5
3A46
  8
0
 62
     7
 10
124.143029
 20
161.26542
 30
0.0
 11
126.143029
 21
161.26542
 31
0.0
  0
LINE
  5
3A47
  8
0
 62
     7
 10
124.143029
 20
157.26542
 30
0.0
 11
126.143029
 21
157.26542
 31
0.0
  0
LINE
  5
3A48
  8
0
 62
     7
 10
122.993029
 20
156.26542
 30
0.0
 11
127.093029
 21
156.26542
 31
0.0
  0
LINE
  5
3A49
  8
0
 62
     7
 10
124.393029
 20
161.26542
 30
0.0
 11
124.393029
 21
164.76542
 31
0.0
  0
LINE
  5
3A4A
  8
0
 62
     7
 10
123.343029
 20
156.26542
 30
0.0
 11
123.343029
 21
167.66542
 31
0.0
  0
LINE
  5
3A4B
  8
0
 62
     7
 10
123.193029
 20
158.46542
 30
0.0
 11
123.193029
 21
156.26542
 31
0.0
  0
LINE
  5
3A4C
  8
0
 62
     7
 10
123.193029
 20
158.46542
 30
0.0
 11
122.993029
 21
158.367148
 31
0.0
  0
LINE
  5
3A4D
  8
0
 62
     7
 10
124.393029
 20
156.26542
 30
0.0
 11
124.393029
 21
157.26542
 31
0.0
  0
LINE
  5
3A4E
  8
0
 62
     7
 10
123.343029
 20
162.66542
 30
0.0
 11
124.143029
 21
162.66542
 31
0.0
  0
LINE
  5
3A4F
  8
0
 62
     7
 10
121.943029
 20
166.26542
 30
0.0
 11
123.343029
 21
166.26542
 31
0.0
  0
LINE
  5
3A50
  8
0
 62
     7
 10
121.943029
 20
166.26542
 30
0.0
 11
121.943029
 21
167.66542
 31
0.0
  0
LINE
  5
3A51
  8
0
 62
     7
 10
121.193029
 20
166.06542
 30
0.0
 11
121.193029
 21
167.36542
 31
0.0
  0
LINE
  5
3A52
  8
0
 62
     7
 10
123.093029
 20
166.26542
 30
0.0
 11
123.093029
 21
166.06542
 31
0.0
  0
LINE
  5
3A53
  8
0
 62
     7
 10
124.493029
 20
166.26542
 30
0.0
 11
124.143029
 21
166.26542
 31
0.0
  0
LINE
  5
3A54
  8
0
 62
     7
 10
123.343029
 20
167.66542
 30
0.0
 11
124.143029
 21
168.336699
 31
0.0
  0
LINE
  5
3A55
  8
0
 62
     7
 10
125.893029
 20
161.26542
 30
0.0
 11
125.893029
 21
164.76542
 31
0.0
  0
LINE
  5
3A56
  8
0
 62
     7
 10
125.893029
 20
156.26542
 30
0.0
 11
125.893029
 21
157.26542
 31
0.0
  0
LINE
  5
3A57
  8
0
 62
     7
 10
125.343029
 20
164.96542
 30
0.0
 11
125.343029
 21
164.76542
 31
0.0
  0
LINE
  5
3A58
  8
0
 62
     7
 10
124.693029
 20
164.96542
 30
0.0
 11
124.693029
 21
164.76542
 31
0.0
  0
LINE
  5
3A59
  8
0
 62
     7
 10
122.943029
 20
191.96542
 30
0.0
 11
122.943029
 21
172.86542
 31
0.0
  0
LINE
  5
3A5A
  8
0
 62
     7
 10
126.143029
 20
177.46542
 30
0.0
 11
124.143029
 21
177.46542
 31
0.0
  0
LINE
  5
3A5B
  8
0
 62
     7
 10
126.143029
 20
175.66542
 30
0.0
 11
124.143029
 21
175.66542
 31
0.0
  0
LINE
  5
3A5C
  8
0
 62
     7
 10
124.143029
 20
172.26542
 30
0.0
 11
125.343029
 21
172.26542
 31
0.0
  0
LINE
  5
3A5D
  8
0
 62
     7
 10
121.693029
 20
179.86542
 30
0.0
 11
121.693029
 21
178.36542
 31
0.0
  0
LINE
  5
3A5E
  8
0
 62
     7
 10
121.693029
 20
182.86542
 30
0.0
 11
121.693029
 21
181.36542
 31
0.0
  0
LINE
  5
3A5F
  8
0
 62
     7
 10
121.693029
 20
185.86542
 30
0.0
 11
121.693029
 21
184.36542
 31
0.0
  0
LINE
  5
3A60
  8
0
 62
     7
 10
125.343029
 20
171.96542
 30
0.0
 11
124.693029
 21
171.96542
 31
0.0
  0
LINE
  5
3A61
  8
0
 62
     7
 10
127.093029
 20
177.202064
 30
0.0
 11
127.193029
 21
177.202064
 31
0.0
  0
LINE
  5
3A62
  8
0
 62
     7
 10
127.093029
 20
176.21485
 30
0.0
 11
127.193029
 21
176.21485
 31
0.0
  0
LINE
  5
3A63
  8
0
 62
     7
 10
127.193029
 20
182.316335
 30
0.0
 11
127.093029
 21
182.316335
 31
0.0
  0
ARC
  5
3A64
  8
0
 62
     7
 10
125.093029
 20
193.26542
 30
0.0
 40
3.9
 50
67.380135
 51
112.619865
  0
LINE
  5
3A65
  8
0
 62
     7
 10
126.793029
 20
196.86542
 30
0.0
 11
123.443029
 21
196.86542
 31
0.0
  0
LINE
  5
3A66
  8
0
 62
     7
 10
127.093029
 20
196.56542
 30
0.0
 11
123.543029
 21
196.56542
 31
0.0
  0
LINE
  5
3A67
  8
0
 62
     7
 10
125.043029
 20
194.46542
 30
0.0
 11
124.043029
 21
194.46542
 31
0.0
  0
LINE
  5
3A68
  8
0
 62
     7
 10
123.443029
 20
194.26542
 30
0.0
 11
125.043029
 21
194.26542
 31
0.0
  0
ARC
  5
3A69
  8
0
 62
     7
 10
124.043029
 20
194.96542
 30
0.0
 40
0.5
 50
180.0
 51
270.0
  0
LINE
  5
3A6A
  8
0
 62
     7
 10
123.443029
 20
194.26542
 30
0.0
 11
123.443029
 21
196.96542
 31
0.0
  0
LINE
  5
3A6B
  8
0
 62
     7
 10
122.357383
 20
188.66542
 30
0.0
 11
121.693029
 21
188.66542
 31
0.0
  0
ARC
  5
3A6C
  8
0
 62
     7
 10
119.693029
 20
188.66542
 30
0.0
 40
2.0
 50
0.0
 51
5.827235
  0
LINE
  5
3A6D
  8
0
 62
     7
 10
121.693029
 20
188.66542
 30
0.0
 11
121.693029
 21
187.36542
 31
0.0
  0
LINE
  5
3A6E
  8
0
 62
     7
 10
122.329783
 20
188.86542
 30
0.0
 11
122.357383
 21
188.66542
 31
0.0
  0
LINE
  5
3A6F
  8
0
 62
     7
 10
122.356936
 20
188.86542
 30
0.0
 11
122.357383
 21
188.66542
 31
0.0
  0
LINE
  5
3A70
  8
0
 62
     7
 10
123.543029
 20
194.96542
 30
0.0
 11
123.543029
 21
196.86542
 31
0.0
  0
LINE
  5
3A71
  8
0
 62
     7
 10
125.043029
 20
191.96542
 30
0.0
 11
125.043029
 21
194.46542
 31
0.0
  0
LINE
  5
3A72
  8
0
 62
     7
 10
124.893029
 20
191.96542
 30
0.0
 11
124.893029
 21
194.26542
 31
0.0
  0
ARC
  5
3A73
  8
0
 62
     7
 10
126.793029
 20
196.56542
 30
0.0
 40
0.3
 50
0.0
 51
90.0
  0
ENDSEC
  0
EOF
