  0
SECTION
  2
HEADER
  9
$ACADVER
  1
AC1009
  9
$INSBASE
 10
0.0
 20
0.0
 30
0.0
  9
$EXTMIN
 10
-149.606969
 20
72.354662
 30
-0.001526
  9
$EXTMAX
 10
4.064005
 20
261.438956
 30
0.0
  9
$LIMMIN
 10
0.0
 20
0.0
  9
$LIMMAX
 10
150.0
 20
150.0
  9
$ORTHOMODE
 70
     0
  9
$REGENMODE
 70
     1
  9
$FILLMODE
 70
     1
  9
$QTEXTMODE
 70
     0
  9
$MIRRTEXT
 70
     1
  9
$DRAGMODE
 70
     2
  9
$LTSCALE
 40
9.777778
  9
$OSMODE
 70
   167
  9
$ATTMODE
 70
     1
  9
$TEXTSIZE
 40
0.2
  9
$TRACEWID
 40
0.05
  9
$TEXTSTYLE
  7
STANDARD
  9
$CLAYER
  8
0
  9
$CELTYPE
  6
BYLAYER
  9
$CECOLOR
 62
   256
  9
$DIMSCALE
 40
1.0
  9
$DIMASZ
 40
2.5
  9
$DIMEXO
 40
1.111111
  9
$DIMDLI
 40
2.0
  9
$DIMRND
 40
0.0
  9
$DIMDLE
 40
0.0
  9
$DIMEXE
 40
3.2
  9
$DIMTP
 40
0.0
  9
$DIMTM
 40
0.0
  9
$DIMTXT
 40
2.008929
  9
$DIMCEN
 40
1.6
  9
$DIMTSZ
 40
0.0
  9
$DIMTOL
 70
     0
  9
$DIMLIM
 70
     0
  9
$DIMTIH
 70
     0
  9
$DIMTOH
 70
     0
  9
$DIMSE1
 70
     0
  9
$DIMSE2
 70
     0
  9
$DIMTAD
 70
     1
  9
$DIMZIN
 70
     8
  9
$DIMBLK
  1

  9
$DIMASO
 70
     1
  9
$DIMSHO
 70
     1
  9
$DIMPOST
  1

  9
$DIMAPOST
  1

  9
$DIMALT
 70
     0
  9
$DIMALTD
 70
     2
  9
$DIMALTF
 40
25.4
  9
$DIMLFAC
 40
1.0
  9
$DIMTOFL
 70
     0
  9
$DIMTVP
 40
0.0
  9
$DIMTIX
 70
     0
  9
$DIMSOXD
 70
     0
  9
$DIMSAH
 70
     0
  9
$DIMBLK1
  1

  9
$DIMBLK2
  1

  9
$DIMSTYLE
  2
STANDARD
  9
$DIMCLRD
 70
     0
  9
$DIMCLRE
 70
     0
  9
$DIMCLRT
 70
     0
  9
$DIMTFAC
 40
1.0
  9
$DIMGAP
 40
1.0
  9
$LUNITS
 70
     2
  9
$LUPREC
 70
     4
  9
$SKETCHINC
 40
0.1
  9
$FILLETRAD
 40
0.0
  9
$AUNITS
 70
     0
  9
$AUPREC
 70
     0
  9
$MENU
  1
.
  9
$ELEVATION
 40
0.0
  9
$PELEVATION
 40
0.0
  9
$THICKNESS
 40
0.0
  9
$LIMCHECK
 70
     0
  9
$BLIPMODE
 70
     0
  9
$CHAMFERA
 40
0.0
  9
$CHAMFERB
 40
0.0
  9
$SKPOLY
 70
     0
  9
$TDCREATE
 40
2452282.428316
  9
$TDUPDATE
 40
2452292.364346
  9
$TDINDWG
 40
0.014107
  9
$TDUSRTIMER
 40
0.014107
  9
$USRTIMER
 70
     1
  9
$ANGBASE
 50
0.0
  9
$ANGDIR
 70
     0
  9
$PDMODE
 70
     0
  9
$PDSIZE
 40
0.0
  9
$PLINEWID
 40
0.0
  9
$COORDS
 70
     2
  9
$SPLFRAME
 70
     0
  9
$SPLINETYPE
 70
     6
  9
$SPLINESEGS
 70
     8
  9
$ATTDIA
 70
     0
  9
$ATTREQ
 70
     1
  9
$HANDLING
 70
     1
  9
$HANDSEED
  5
465A
  9
$SURFTAB1
 70
     6
  9
$SURFTAB2
 70
     6
  9
$SURFTYPE
 70
     6
  9
$SURFU
 70
     6
  9
$SURFV
 70
     6
  9
$UCSNAME
  2

  9
$UCSORG
 10
0.0
 20
0.0
 30
0.0
  9
$UCSXDIR
 10
1.0
 20
0.0
 30
0.0
  9
$UCSYDIR
 10
0.0
 20
1.0
 30
0.0
  9
$PUCSNAME
  2

  9
$PUCSORG
 10
0.0
 20
0.0
 30
0.0
  9
$PUCSXDIR
 10
1.0
 20
0.0
 30
0.0
  9
$PUCSYDIR
 10
0.0
 20
1.0
 30
0.0
  9
$USERI1
 70
     0
  9
$USERI2
 70
     0
  9
$USERI3
 70
     0
  9
$USERI4
 70
     0
  9
$USERI5
 70
     0
  9
$USERR1
 40
0.0
  9
$USERR2
 40
0.0
  9
$USERR3
 40
0.0
  9
$USERR4
 40
0.0
  9
$USERR5
 40
0.0
  9
$WORLDVIEW
 70
     1
  9
$SHADEDGE
 70
     3
  9
$SHADEDIF
 70
    70
  9
$TILEMODE
 70
     1
  9
$MAXACTVP
 70
    48
  9
$PLIMCHECK
 70
     0
  9
$PEXTMIN
 10
1.000000E+020
 20
1.000000E+020
 30
1.000000E+020
  9
$PEXTMAX
 10
-1.000000E+020
 20
-1.000000E+020
 30
-1.000000E+020
  9
$PLIMMIN
 10
0.0
 20
0.0
  9
$PLIMMAX
 10
12.0
 20
9.0
  9
$UNITMODE
 70
     0
  9
$VISRETAIN
 70
     1
  9
$PLINEGEN
 70
     0
  9
$PSLTSCALE
 70
     1
  0
ENDSEC
  0
SECTION
  2
TABLES
  0
TABLE
  2
VPORT
 70
     2
  0
VPORT
  2
*ACTIVE
 70
     0
 10
0.0
 20
0.0
 11
1.0
 21
1.0
 12
-72.771482
 22
166.896809
 13
0.0
 23
0.0
 14
1.0
 24
1.0
 15
0.0
 25
0.0
 16
0.0
 26
0.0
 36
1.0
 17
0.0
 27
0.0
 37
0.0
 40
191.165956
 41
1.700368
 42
50.0
 43
0.0
 44
0.0
 50
0.0
 51
0.0
 71
     0
 72
   100
 73
     1
 74
     1
 75
     0
 76
     0
 77
     0
 78
     0
  0
ENDTAB
  0
TABLE
  2
LTYPE
 70
     6
  0
LTYPE
  2
CONTINUOUS
 70
     0
  3
Solid line
 72
    65
 73
     0
 40
0.0
  0
LTYPE
  2
CENTER
 70
     0
  3
____ _ ____ _ ____ _ ____ _ ____ _ ____ _ ____
 72
    65
 73
     4
 40
0.6
 49
0.375
 49
-0.075
 49
0.075
 49
-0.075
  0
LTYPE
  2
HIDDEN
 70
     0
  3
- - - - - - - - - - - - - - - - - - - -
 72
    65
 73
     2
 40
0.2
 49
0.1
 49
-0.1
  0
LTYPE
  2
PHANTOM
 70
     0
  3
_____ _ _ _____ _ _ _____ _ _ _____
 72
    65
 73
     6
 40
0.8
 49
0.45
 49
-0.05
 49
0.1
 49
-0.05
 49
0.1
 49
-0.05
  0
ENDTAB
  0
TABLE
  2
LAYER
 70
     5
  0
LAYER
  2
0
 70
     0
 62
     7
  6
CONTINUOUS
  0
LAYER
  2
DEFPOINTS
 70
     0
 62
     7
  6
CONTINUOUS
  0
ENDTAB
  0
TABLE
  2
STYLE
 70
     1
  0
STYLE
  2
STANDARD
 70
     0
 40
0.0
 41
1.0
 50
0.0
 71
     0
 42
0.2
  3
txt
  4

  0
ENDTAB
  0
TABLE
  2
VIEW
 70
     0
  0
ENDTAB
  0
TABLE
  2
UCS
 70
     0
  0
ENDTAB
  0
TABLE
  2
APPID
 70
     1
  0
APPID
  2
ACAD
 70
     0
  0
ENDTAB
  0
TABLE
  2
DIMSTYLE
 70
     1
  0
DIMSTYLE
  2
STANDARD
 70
     0
  3

  4

  5

  6

  7

 40
1.0
 41
0.18
 42
0.0625
 43
0.02
 44
0.1
 45
0.0
 46
0.0
 47
0.0
 48
0.0
140
0.18
141
0.0
142
0.0
143
25.4
144
1.0
145
0.0
146
1.0
147
1.0
 71
     0
 72
     0
 73
     0
 74
     0
 75
     0
 76
     0
 77
     1
 78
     8
170
     0
171
     2
172
     0
173
     0
174
     0
175
     0
176
     0
177
     0
178
     0
  0
ENDTAB
  0
ENDSEC
  0
SECTION
  2
BLOCKS
  0
BLOCK
  8
0
  2
$MODEL_SPACE
 70
     0
 10
0.0
 20
0.0
 30
0.0
  3
$MODEL_SPACE
  1

  0
ENDBLK
  5
20
  8
0
  0
BLOCK
 67
     1
  8
0
  2
$PAPER_SPACE
 70
     0
 10
0.0
 20
0.0
 30
0.0
  3
$PAPER_SPACE
  1

  0
ENDBLK
  5
1C
 67
     1
  8
0
  0
BLOCK
  8
0
  2
*D0
 70
     1
 10
0.0
 20
0.0
 30
0.0
  3
*D0
  1

  0
LINE
  5
3EEA
  8
0
 62
     0
 10
-122.657771
 20
248.899774
 30
0.0
 11
-122.657771
 21
258.930977
 31
0.0
1001
ACAD
1000
RTLwPs
1070
   158
  0
LINE
  5
3EEB
  8
0
 62
     0
 10
3.211922
 20
217.308663
 30
0.0
 11
3.211922
 21
258.930977
 31
0.0
1001
ACAD
1000
RTLwPs
1070
   158
  0
LINE
  5
3EEC
  8
0
 62
     0
 10
-120.157771
 20
257.930977
 30
0.0
 11
0.711922
 21
257.930977
 31
0.0
1001
ACAD
1000
RTLwPs
1070
   158
  0
SOLID
  5
3EED
  8
0
 62
     0
 10
-120.157771
 20
258.347644
 30
0.0
 11
-120.157771
 21
257.51431
 31
0.0
 12
-122.657771
 22
257.930977
 32
0.0
 13
-122.657771
 23
257.930977
 33
0.0
  0
SOLID
  5
3EEE
  8
0
 62
     0
 10
0.711922
 20
258.347644
 30
0.0
 11
0.711922
 21
257.51431
 31
0.0
 12
3.211922
 22
257.930977
 32
0.0
 13
3.211922
 23
257.930977
 33
0.0
  0
TEXT
  8
0
  40
2.5
  5
4658
  62
0
  72
0
  71
0
 10
-64.7229
 20
255.756
 30
0.000000
  1
125.87
  0
POINT
  5
3EF0
  8
DEFPOINTS
 62
     0
 10
-122.657771
 20
247.899774
 30
0.0
  0
POINT
  5
3EF1
  8
DEFPOINTS
 62
     0
 10
3.211922
 20
216.308663
 30
0.0
  0
POINT
  5
3EF2
  8
DEFPOINTS
 62
     0
 10
3.211922
 20
257.930977
 30
0.0
  0
ENDBLK
  5
3DF6
  8
0
  0
BLOCK
  8
0
  2
*D1
 70
     1
 10
0.0
 20
0.0
 30
0.0
  3
*D1
  1

  0
LINE
  5
3EE1
  8
0
 62
     0
 10
-125.345271
 20
247.312274
 30
0.0
 11
-147.097826
 21
247.312274
 31
0.0
1001
ACAD
1000
RTLwPs
1070
   158
  0
LINE
  5
3EE2
  8
0
 62
     0
 10
-125.345271
 20
72.365172
 30
0.0
 11
-147.097826
 21
72.365172
 31
0.0
1001
ACAD
1000
RTLwPs
1070
   158
  0
LINE
  5
3EE3
  8
0
 62
     0
 10
-146.097826
 20
244.812274
 30
0.0
 11
-146.097826
 21
74.865172
 31
0.0
1001
ACAD
1000
RTLwPs
1070
   158
  0
SOLID
  5
3EE4
  8
0
 62
     0
 10
-146.514493
 20
244.812274
 30
0.0
 11
-145.68116
 21
244.812274
 31
0.0
 12
-146.097826
 22
247.312274
 32
0.0
 13
-146.097826
 23
247.312274
 33
0.0
  0
SOLID
  5
3EE5
  8
0
 62
     0
 10
-146.514493
 20
74.865172
 30
0.0
 11
-145.68116
 21
74.865172
 31
0.0
 12
-146.097826
 22
72.365172
 32
0.0
 13
-146.097826
 23
72.365172
 33
0.0
  0
TEXT
  8
0
  40
2.5
  5
4659
  62
0
  72
0
  71
0
 10
-153.348
 20
155.414
 30
0.000000
  1
174.95
  0
POINT
  5
3EE7
  8
DEFPOINTS
 62
     0
 10
-124.345271
 20
247.312274
 30
0.0
  0
POINT
  5
3EE8
  8
DEFPOINTS
 62
     0
 10
-124.345271
 20
72.365172
 30
0.0
  0
POINT
  5
3EE9
  8
DEFPOINTS
 62
     0
 10
-146.097826
 20
72.365172
 30
0.0
  0
ENDBLK
  5
3E02
  8
0
  0
ENDSEC
  0
SECTION
  2
ENTITIES
  0
ARC
  5
39BC
  8
0
 62
     7
 10
-60.847771
 20
210.248723
 30
0.0
 40
0.39
 50
0.0
 51
90.0
  0
ARC
  5
39BD
  8
0
 62
     7
 10
-60.847771
 20
207.028723
 30
0.0
 40
0.39
 50
270.0
 51
0.0
  0
LINE
  5
39BE
  8
0
 62
     7
 10
-102.007201
 20
224.438723
 30
0.0
 11
-11.957915
 21
224.438723
 31
0.0
  0
LINE
  5
39BF
  8
0
 62
     7
 10
-56.457771
 20
223.938723
 30
0.0
 11
-80.357771
 21
223.938723
 31
0.0
  0
LINE
  5
39C0
  8
0
 62
     7
 10
-72.457771
 20
208.958723
 30
0.0
 11
-60.457771
 21
208.958723
 31
0.0
  0
LINE
  5
39C1
  8
0
 62
     7
 10
-102.007201
 20
95.238723
 30
0.0
 11
-56.457771
 21
95.238723
 31
0.0
  0
DIMENSION
  5
39C4
  8
0
 62
     7
  2
*D0
 10
3.211922
 20
257.930977
 30
0.0
 11
-59.722925
 21
260.180977
 31
0.0
 70
     0
 13
-122.657771
 23
247.899774
 33
0.0
 14
3.211922
 24
216.308663
 34
0.0
1001
ACAD
1000
DSTYLE
1002
{
1070
    41
1040
2.5
1070
    42
1040
1.0
1070
    43
1040
2.0
1070
    44
1040
1.0
1070
   140
1040
2.5
1070
   141
1040
1.6
1002
}
  0
ARC
  5
39C5
  8
0
 62
     7
 10
291.891314
 20
159.838723
 30
0.0
 40
400.0
 50
170.828015
 51
189.171985
  0
ARC
  5
39C6
  8
0
 62
     7
 10
291.142102
 20
159.838723
 30
0.0
 40
399.8
 50
170.845536
 51
189.139008
  0
ARC
  5
39C7
  8
0
 62
     7
 10
291.142102
 20
159.838723
 30
0.0
 40
400.0
 50
170.845549
 51
189.154451
  0
LINE
  5
39C8
  8
0
 62
     7
 10
-95.057771
 20
161.488723
 30
0.0
 11
-95.057771
 21
167.788723
 31
0.0
  0
LINE
  5
39C9
  8
0
 62
     7
 10
-95.557771
 20
168.288723
 30
0.0
 11
-95.557771
 21
160.988723
 31
0.0
  0
LINE
  5
39CA
  8
0
 62
     7
 10
-97.982642
 20
168.138723
 30
0.0
 11
-97.982642
 21
161.138723
 31
0.0
  0
LINE
  5
39CB
  8
0
 62
     7
 10
-99.557771
 20
167.288723
 30
0.0
 11
-99.557771
 21
161.988723
 31
0.0
  0
LINE
  5
39CC
  8
0
 62
     7
 10
-122.157771
 20
157.516073
 30
0.0
 11
-122.157771
 21
171.761373
 31
0.0
  0
DIMENSION
  5
39CE
  8
0
 62
     7
  2
*D1
 10
-146.097826
 20
72.365172
 30
0.0
 11
-148.347826
 21
159.838723
 31
0.0
 70
     0
 13
-124.345271
 23
247.312274
 33
0.0
 14
-124.345271
 24
72.365172
 34
0.0
 50
270.0
1001
ACAD
1000
DSTYLE
1002
{
1070
    41
1040
2.5
1070
    42
1040
1.0
1070
    43
1040
2.0
1070
    44
1040
1.0
1070
   140
1040
2.5
1070
   141
1040
1.6
1002
}
  0
POLYLINE
  5
39CF
  8
0
 62
     7
 66
     1
 10
0.0
 20
0.0
 30
0.0
  0
VERTEX
  5
3F65
  8
0
 62
     7
 10
-73.908226
 20
89.338723
 30
0.0
  0
VERTEX
  5
3F66
  8
0
 62
     7
 10
-73.913557
 20
88.615404
 30
0.0
  0
VERTEX
  5
3F67
  8
0
 62
     7
 10
-73.929377
 20
87.924422
 30
0.0
  0
VERTEX
  5
3F68
  8
0
 62
     7
 10
-73.955674
 20
87.283962
 30
0.0
  0
VERTEX
  5
3F69
  8
0
 62
     7
 10
-73.992581
 20
86.712835
 30
0.0
  0
VERTEX
  5
3F6A
  8
0
 62
     7
 10
-74.040202
 20
86.228801
 30
0.0
  0
VERTEX
  5
3F6B
  8
0
 62
     7
 10
-74.098474
 20
85.84804
 30
0.0
  0
VERTEX
  5
3F6C
  8
0
 62
     7
 10
-74.166184
 20
85.587303
 30
0.0
  0
VERTEX
  5
3F6D
  8
0
 62
     7
 10
-74.226114
 20
85.482545
 30
0.0
  0
SEQEND
  5
3F6E
  8
0
 62
     7
  0
POLYLINE
  5
39D0
  8
0
 62
     7
 66
     1
 10
0.0
 20
0.0
 30
0.0
  0
VERTEX
  5
3F6F
  8
0
 62
     7
 10
-73.708781
 20
89.338723
 30
0.0
  0
VERTEX
  5
3F70
  8
0
 62
     7
 10
-73.714108
 20
88.579258
 30
0.0
  0
VERTEX
  5
3F71
  8
0
 62
     7
 10
-73.729943
 20
87.852648
 30
0.0
  0
VERTEX
  5
3F72
  8
0
 62
     7
 10
-73.756277
 20
87.179149
 30
0.0
  0
VERTEX
  5
3F73
  8
0
 62
     7
 10
-73.793241
 20
86.57855
 30
0.0
  0
VERTEX
  5
3F74
  8
0
 62
     7
 10
-73.840941
 20
86.069532
 30
0.0
  0
VERTEX
  5
3F75
  8
0
 62
     7
 10
-73.899315
 20
85.669116
 30
0.0
  0
VERTEX
  5
3F76
  8
0
 62
     7
 10
-73.967146
 20
85.394929
 30
0.0
  0
VERTEX
  5
3F77
  8
0
 62
     7
 10
-74.04285
 20
85.256043
 30
0.0
  0
VERTEX
  5
3F78
  8
0
 62
     7
 10
-74.12454
 20
85.256529
 30
0.0
  0
SEQEND
  5
3F79
  8
0
 62
     7
  0
LINE
  5
39D1
  8
0
 62
     7
 10
-75.211324
 20
95.238723
 30
0.0
 11
-75.211324
 21
84.138723
 31
0.0
  0
LINE
  5
39D2
  8
0
 62
     7
 10
-76.196664
 20
95.238723
 30
0.0
 11
-76.196664
 21
84.138723
 31
0.0
  0
LINE
  5
39D3
  8
0
 62
     7
 10
-79.357771
 20
95.238723
 30
0.0
 11
-79.357771
 21
83.938723
 31
0.0
  0
POLYLINE
  5
39D4
  8
0
 62
     7
 66
     1
 10
0.0
 20
0.0
 30
0.0
  0
VERTEX
  5
3F7A
  8
0
 62
     7
 10
-73.394089
 20
86.571746
 30
0.0
  0
VERTEX
  5
3F7B
  8
0
 62
     7
 10
-73.405882
 20
87.174326
 30
0.0
  0
VERTEX
  5
3F7C
  8
0
 62
     7
 10
-73.414573
 20
87.77411
 30
0.0
  0
SEQEND
  5
3F7D
  8
0
 62
     7
  0
POLYLINE
  5
39D5
  8
0
 62
     7
 66
     1
 10
0.0
 20
0.0
 30
0.0
  0
VERTEX
  5
3F7E
  8
0
 62
     7
 10
-73.360447
 20
85.325063
 30
0.0
  0
VERTEX
  5
3F7F
  8
0
 62
     7
 10
-73.367753
 20
85.561443
 30
0.0
  0
VERTEX
  5
3F80
  8
0
 62
     7
 10
-73.378667
 20
85.94507
 30
0.0
  0
VERTEX
  5
3F81
  8
0
 62
     7
 10
-73.391501
 20
86.460852
 30
0.0
  0
VERTEX
  5
3F82
  8
0
 62
     7
 10
-73.404273
 20
87.088507
 30
0.0
  0
VERTEX
  5
3F83
  8
0
 62
     7
 10
-73.415011
 20
87.80323
 30
0.0
  0
VERTEX
  5
3F84
  8
0
 62
     7
 10
-73.422065
 20
88.577038
 30
0.0
  0
VERTEX
  5
3F85
  8
0
 62
     7
 10
-73.424368
 20
89.338723
 30
0.0
  0
SEQEND
  5
3F86
  8
0
 62
     7
  0
LINE
  5
39D6
  8
0
 62
     7
 10
-82.057771
 20
94.938723
 30
0.0
 11
-82.057771
 21
83.138723
 31
0.0
  0
POLYLINE
  5
39D7
  8
0
 62
     7
 66
     1
 10
0.0
 20
0.0
 30
0.0
  0
VERTEX
  5
3F87
  8
0
 62
     7
 10
-74.209524
 20
85.397031
 30
0.0
  0
VERTEX
  5
3F88
  8
0
 62
     7
 10
-74.29422
 20
85.672682
 30
0.0
  0
VERTEX
  5
3F89
  8
0
 62
     7
 10
-74.374748
 20
86.073076
 30
0.0
  0
VERTEX
  5
3F8A
  8
0
 62
     7
 10
-74.447211
 20
86.583378
 30
0.0
  0
VERTEX
  5
3F8B
  8
0
 62
     7
 10
-74.508023
 20
87.185912
 30
0.0
  0
VERTEX
  5
3F8C
  8
0
 62
     7
 10
-74.554066
 20
87.861009
 30
0.0
  0
SEQEND
  5
3F8D
  8
0
 62
     7
  0
POLYLINE
  5
39D8
  8
0
 62
     7
 66
     1
 10
0.0
 20
0.0
 30
0.0
  0
VERTEX
  5
3F8E
  8
0
 62
     7
 10
-74.191203
 20
85.406595
 30
0.0
  0
VERTEX
  5
3F8F
  8
0
 62
     7
 10
-74.188906
 20
85.404315
 30
0.0
  0
VERTEX
  5
3F90
  8
0
 62
     7
 10
-74.200039
 20
85.422834
 30
0.0
  0
VERTEX
  5
3F91
  8
0
 62
     7
 10
-74.233062
 20
85.498454
 30
0.0
  0
VERTEX
  5
3F92
  8
0
 62
     7
 10
-74.273813
 20
85.625878
 30
0.0
  0
VERTEX
  5
3F93
  8
0
 62
     7
 10
-74.317632
 20
85.802664
 30
0.0
  0
VERTEX
  5
3F94
  8
0
 62
     7
 10
-74.362389
 20
86.028266
 30
0.0
  0
VERTEX
  5
3F95
  8
0
 62
     7
 10
-74.406597
 20
86.302358
 30
0.0
  0
VERTEX
  5
3F96
  8
0
 62
     7
 10
-74.44894
 20
86.624204
 30
0.0
  0
VERTEX
  5
3F97
  8
0
 62
     7
 10
-74.488109
 20
86.99231
 30
0.0
  0
VERTEX
  5
3F98
  8
0
 62
     7
 10
-74.522753
 20
87.403791
 30
0.0
  0
VERTEX
  5
3F99
  8
0
 62
     7
 10
-74.551528
 20
87.854399
 30
0.0
  0
VERTEX
  5
3F9A
  8
0
 62
     7
 10
-74.573162
 20
88.33865
 30
0.0
  0
VERTEX
  5
3F9B
  8
0
 62
     7
 10
-74.586517
 20
88.849902
 30
0.0
  0
VERTEX
  5
3F9C
  8
0
 62
     7
 10
-74.59066
 20
89.338723
 30
0.0
  0
SEQEND
  5
3F9D
  8
0
 62
     7
  0
LINE
  5
39D9
  8
0
 62
     7
 10
-122.357771
 20
82.838723
 30
0.0
 11
-122.357771
 21
144.979877
 31
0.0
  0
LINE
  5
39DA
  8
0
 62
     7
 10
-122.557771
 20
96.338723
 30
0.0
 11
-122.557771
 21
82.838723
 31
0.0
  0
LINE
  5
39DB
  8
0
 62
     7
 10
-122.657771
 20
73.365172
 30
0.0
 11
-122.657771
 21
144.517997
 31
0.0
  0
LINE
  5
39DC
  8
0
 62
     7
 10
-125.557771
 20
147.138723
 30
0.0
 11
-125.557771
 21
83.838723
 31
0.0
  0
LINE
  5
39DD
  8
0
 62
     7
 10
-122.657771
 20
83.138723
 30
0.0
 11
-82.057771
 21
83.138723
 31
0.0
  0
LINE
  5
39DE
  8
0
 62
     7
 10
-122.557771
 20
82.838723
 30
0.0
 11
-73.357771
 21
82.838723
 31
0.0
  0
LINE
  5
39DF
  8
0
 62
     7
 10
-117.757771
 20
72.365172
 30
0.0
 11
-122.757771
 21
72.365172
 31
0.0
  0
LINE
  5
39E0
  8
0
 62
     7
 10
-120.057771
 20
72.365172
 30
0.0
 11
-120.057771
 21
82.838723
 31
0.0
  0
LINE
  5
39E1
  8
0
 62
     7
 10
-122.757771
 20
72.365172
 30
0.0
 11
-122.757771
 21
73.365172
 31
0.0
  0
LINE
  5
39E2
  8
0
 62
     7
 10
-122.757771
 20
73.365172
 30
0.0
 11
-122.657771
 21
73.365172
 31
0.0
  0
LINE
  5
39E3
  8
0
 62
     7
 10
-125.557771
 20
83.838723
 30
0.0
 11
-122.810302
 21
83.838723
 31
0.0
  0
ARC
  5
39E4
  8
0
 62
     7
 10
-122.357771
 20
83.138723
 30
0.0
 40
0.3
 50
180.0
 51
227.778512
  0
ARC
  5
39E5
  8
0
 62
     7
 10
-119.057771
 20
84.838723
 30
0.0
 40
3.9
 50
157.380135
 51
202.619865
  0
LINE
  5
39E6
  8
0
 62
     7
 10
-117.757771
 20
72.365172
 30
0.0
 11
-117.757771
 21
82.838723
 31
0.0
  0
LINE
  5
39E7
  8
0
 62
     7
 10
-100.157771
 20
86.638723
 30
0.0
 11
-105.157771
 21
86.638723
 31
0.0
  0
LINE
  5
39E8
  8
0
 62
     7
 10
-105.157771
 20
82.838723
 30
0.0
 11
-105.157771
 21
86.638723
 31
0.0
  0
LINE
  5
39E9
  8
0
 62
     7
 10
-100.157771
 20
82.838723
 30
0.0
 11
-100.157771
 21
86.638723
 31
0.0
  0
LINE
  5
39EA
  8
0
 62
     7
 10
-79.357771
 20
84.138723
 30
0.0
 11
-73.357788
 21
84.138723
 31
0.0
  0
LINE
  5
39EB
  8
0
 62
     7
 10
-79.357771
 20
83.938723
 30
0.0
 11
-73.357771
 21
83.938723
 31
0.0
  0
LINE
  5
39EC
  8
0
 62
     7
 10
-78.057771
 20
84.138723
 30
0.0
 11
-78.057771
 21
84.038723
 31
0.0
  0
LINE
  5
39ED
  8
0
 62
     7
 10
-78.757771
 20
83.938723
 30
0.0
 11
-78.757771
 21
84.038723
 31
0.0
  0
LINE
  5
39EE
  8
0
 62
     7
 10
-78.817209
 20
83.938723
 30
0.0
 11
-78.817209
 21
84.038723
 31
0.0
  0
LINE
  5
39EF
  8
0
 62
     7
 10
-78.922099
 20
83.938723
 30
0.0
 11
-78.922099
 21
84.038723
 31
0.0
  0
LINE
  5
39F0
  8
0
 62
     7
 10
-78.981537
 20
83.938723
 30
0.0
 11
-78.981537
 21
84.038723
 31
0.0
  0
LINE
  5
39F1
  8
0
 62
     7
 10
-78.057771
 20
84.038723
 30
0.0
 11
-78.981537
 21
84.038723
 31
0.0
  0
LINE
  5
39F2
  8
0
 62
     7
 10
-75.557771
 20
83.938723
 30
0.0
 11
-75.557771
 21
84.138723
 31
0.0
  0
LINE
  5
39F3
  8
0
 62
     7
 10
-73.357771
 20
84.138723
 30
0.0
 11
-73.357771
 21
85.25596
 31
0.0
  0
LINE
  5
39F4
  8
0
 62
     7
 10
-73.357771
 20
82.838723
 30
0.0
 11
-73.357771
 21
83.938723
 31
0.0
  0
LINE
  5
39F5
  8
0
 62
     7
 10
-75.357771
 20
82.838723
 30
0.0
 11
-75.357771
 21
83.938723
 31
0.0
  0
LINE
  5
39F6
  8
0
 62
     7
 10
-73.381911
 20
86.06374
 30
0.0
 11
-73.394089
 21
86.571746
 31
0.0
  0
LINE
  5
39F7
  8
0
 62
     7
 10
-73.370969
 20
85.666763
 30
0.0
 11
-73.381911
 21
86.06374
 31
0.0
  0
POLYLINE
  5
39F8
  8
0
 62
     7
 66
     1
 10
0.0
 20
0.0
 30
0.0
  0
VERTEX
  5
3F9E
  8
0
 62
     7
 10
-73.357771
 20
85.238694
 30
0.0
  0
VERTEX
  5
3F9F
  8
0
 62
     7
 10
-73.362734
 20
85.394228
 30
0.0
  0
VERTEX
  5
3FA0
  8
0
 62
     7
 10
-73.370969
 20
85.666763
 30
0.0
  0
SEQEND
  5
3FA1
  8
0
 62
     7
  0
LINE
  5
39F9
  8
0
 62
     7
 10
-74.12454
 20
85.256529
 30
0.0
 11
-74.209524
 21
85.397031
 31
0.0
  0
LINE
  5
39FA
  8
0
 62
     7
 10
-82.057771
 20
94.938723
 30
0.0
 11
-102.282211
 21
94.938723
 31
0.0
  0
LINE
  5
39FB
  8
0
 62
     7
 10
-122.557771
 20
96.338723
 30
0.0
 11
-103.030233
 21
96.338723
 31
0.0
  0
ARC
  5
39FC
  8
0
 62
     7
 10
-102.007201
 20
96.238723
 30
0.0
 40
1.0
 50
189.171985
 51
270.0
  0
ARC
  5
39FD
  8
0
 62
     7
 10
-102.282211
 20
96.438723
 30
0.0
 40
1.5
 50
189.150997
 51
270.0
  0
ARC
  5
39FE
  8
0
 62
     7
 10
-120.657771
 20
153.763297
 30
0.0
 40
2.0
 50
0.0
 51
60.0
  0
LINE
  5
39FF
  8
0
 62
     7
 10
-119.657771
 20
146.538723
 30
0.0
 11
-118.657771
 21
146.538723
 31
0.0
  0
LINE
  5
3A00
  8
0
 62
     7
 10
-121.457771
 20
144.138723
 30
0.0
 11
-118.957771
 21
144.138723
 31
0.0
  0
LINE
  5
3A01
  8
0
 62
     7
 10
-118.957771
 20
137.49158
 30
0.0
 11
-121.457771
 21
137.578882
 31
0.0
  0
LINE
  5
3A02
  8
0
 62
     7
 10
-118.957771
 20
137.538723
 30
0.0
 11
-120.307771
 21
137.538723
 31
0.0
  0
LINE
  5
3A03
  8
0
 62
     7
 10
-122.407771
 20
144.95101
 30
0.0
 11
-119.657771
 21
146.538723
 31
0.0
  0
LINE
  5
3A04
  8
0
 62
     7
 10
-120.307771
 20
137.538723
 30
0.0
 11
-120.307771
 21
144.138723
 31
0.0
  0
LINE
  5
3A05
  8
0
 62
     7
 10
-121.457771
 20
144.138723
 30
0.0
 11
-121.457771
 21
137.578882
 31
0.0
  0
ARC
  5
3A06
  8
0
 62
     7
 10
-122.157771
 20
144.517997
 30
0.0
 40
0.5
 50
120.0
 51
180.0
  0
LINE
  5
3A07
  8
0
 62
     7
 10
-120.557771
 20
156.014963
 30
0.0
 11
-120.557771
 21
147.138723
 31
0.0
  0
LINE
  5
3A08
  8
0
 62
     7
 10
-120.557771
 20
147.138723
 30
0.0
 11
-125.557771
 21
147.138723
 31
0.0
  0
ARC
  5
3A09
  8
0
 62
     7
 10
-121.157771
 20
157.516073
 30
0.0
 40
1.0
 50
180.0
 51
240.0
  0
LINE
  5
3A0A
  8
0
 62
     7
 10
-119.657771
 20
155.495348
 30
0.0
 11
-121.657771
 21
156.650048
 31
0.0
  0
LINE
  5
3A0B
  8
0
 62
     7
 10
-118.957771
 20
144.138723
 30
0.0
 11
-118.957771
 21
137.49158
 31
0.0
  0
LINE
  5
3A0C
  8
0
 62
     7
 10
-118.657771
 20
146.538723
 30
0.0
 11
-118.657771
 21
153.763297
 31
0.0
  0
LINE
  5
3A0D
  8
0
 62
     7
 10
-95.057771
 20
104.138723
 30
0.0
 11
-95.057771
 21
111.138723
 31
0.0
  0
LINE
  5
3A0E
  8
0
 62
     7
 10
-95.557771
 20
111.338723
 30
0.0
 11
-95.557771
 21
103.938723
 31
0.0
  0
LINE
  5
3A0F
  8
0
 62
     7
 10
-97.982642
 20
111.138723
 30
0.0
 11
-97.982642
 21
104.138723
 31
0.0
  0
LINE
  5
3A10
  8
0
 62
     7
 10
-99.557771
 20
110.638723
 30
0.0
 11
-99.557771
 21
104.638723
 31
0.0
  0
LINE
  5
3A11
  8
0
 62
     7
 10
-98.557771
 20
104.138723
 30
0.0
 11
-95.904181
 21
104.138723
 31
0.0
  0
LINE
  5
3A12
  8
0
 62
     7
 10
-98.557771
 20
103.938723
 30
0.0
 11
-95.557771
 21
103.938723
 31
0.0
  0
LINE
  5
3A13
  8
0
 62
     7
 10
-98.557771
 20
103.638723
 30
0.0
 11
-95.557771
 21
103.638723
 31
0.0
  0
ARC
  5
3A14
  8
0
 62
     7
 10
-98.557771
 20
104.638723
 30
0.0
 40
1.0
 50
180.0
 51
270.0
  0
ARC
  5
3A15
  8
0
 62
     7
 10
-98.557771
 20
105.138723
 30
0.0
 40
1.199987
 50
215.591137
 51
270.0
  0
ARC
  5
3A16
  8
0
 62
     7
 10
-98.557771
 20
105.138723
 30
0.0
 40
1.0
 50
180.0
 51
270.0
  0
LINE
  5
3A17
  8
0
 62
     7
 10
-98.557771
 20
103.938723
 30
0.0
 11
-98.557771
 21
104.138723
 31
0.0
  0
ARC
  5
3A18
  8
0
 62
     7
 10
-95.557771
 20
104.138723
 30
0.0
 40
0.5
 50
270.0
 51
0.0
  0
POLYLINE
  5
3A19
  8
0
 62
     7
 66
     1
 10
0.0
 20
0.0
 30
0.0
  0
VERTEX
  5
3FA2
  8
0
 62
     7
 10
-95.557771
 20
103.938723
 30
0.0
  0
VERTEX
  5
3FA3
  8
0
 62
     7
 10
-95.573527
 20
103.998355
 30
0.0
  0
VERTEX
  5
3FA4
  8
0
 62
     7
 10
-95.614907
 20
104.048754
 30
0.0
  0
VERTEX
  5
3FA5
  8
0
 62
     7
 10
-95.672151
 20
104.087229
 30
0.0
  0
VERTEX
  5
3FA6
  8
0
 62
     7
 10
-95.740515
 20
104.114993
 30
0.0
  0
VERTEX
  5
3FA7
  8
0
 62
     7
 10
-95.818122
 20
104.132453
 30
0.0
  0
VERTEX
  5
3FA8
  8
0
 62
     7
 10
-95.904181
 20
104.138723
 30
0.0
  0
SEQEND
  5
3FA9
  8
0
 62
     7
  0
ARC
  5
3A1A
  8
0
 62
     7
 10
-95.557771
 20
111.138723
 30
0.0
 40
0.5
 50
0.0
 51
90.0
  0
ARC
  5
3A1B
  8
0
 62
     7
 10
-98.557771
 20
110.638723
 30
0.0
 40
1.0
 50
90.0
 51
180.0
  0
ARC
  5
3A1C
  8
0
 62
     7
 10
-98.557771
 20
110.138723
 30
0.0
 40
1.199987
 50
90.0
 51
144.348178
  0
ARC
  5
3A1D
  8
0
 62
     7
 10
-98.557771
 20
110.138723
 30
0.0
 40
1.0
 50
90.0
 51
162.058535
  0
POLYLINE
  5
3A1E
  8
0
 62
     7
 66
     1
 10
0.0
 20
0.0
 30
0.0
  0
VERTEX
  5
3FAA
  8
0
 62
     7
 10
-95.557771
 20
111.338723
 30
0.0
  0
VERTEX
  5
3FAB
  8
0
 62
     7
 10
-95.573527
 20
111.279092
 30
0.0
  0
VERTEX
  5
3FAC
  8
0
 62
     7
 10
-95.614907
 20
111.228692
 30
0.0
  0
VERTEX
  5
3FAD
  8
0
 62
     7
 10
-95.672151
 20
111.190218
 30
0.0
  0
VERTEX
  5
3FAE
  8
0
 62
     7
 10
-95.740515
 20
111.162453
 30
0.0
  0
VERTEX
  5
3FAF
  8
0
 62
     7
 10
-95.818122
 20
111.144993
 30
0.0
  0
VERTEX
  5
3FB0
  8
0
 62
     7
 10
-95.904181
 20
111.138723
 30
0.0
  0
SEQEND
  5
3FB1
  8
0
 62
     7
  0
LINE
  5
3A1F
  8
0
 62
     7
 10
-98.557771
 20
111.338723
 30
0.0
 11
-98.557771
 21
111.138723
 31
0.0
  0
LINE
  5
3A20
  8
0
 62
     7
 10
-95.904181
 20
111.138723
 30
0.0
 11
-98.557771
 21
111.138723
 31
0.0
  0
LINE
  5
3A21
  8
0
 62
     7
 10
-95.557771
 20
111.638723
 30
0.0
 11
-98.557771
 21
111.638723
 31
0.0
  0
LINE
  5
3A22
  8
0
 62
     7
 10
-95.557771
 20
111.338723
 30
0.0
 11
-98.557771
 21
111.338723
 31
0.0
  0
LINE
  5
3A23
  8
0
 62
     7
 10
-83.657771
 20
121.338723
 30
0.0
 11
-83.657771
 21
117.338723
 31
0.0
  0
LINE
  5
3A24
  8
0
 62
     7
 10
-83.757771
 20
120.956753
 30
0.0
 11
-83.757771
 21
117.338723
 31
0.0
  0
LINE
  5
3A25
  8
0
 62
     7
 10
-84.757771
 20
120.956753
 30
0.0
 11
-84.757771
 21
117.338723
 31
0.0
  0
LINE
  5
3A26
  8
0
 62
     7
 10
-84.957771
 20
117.338723
 30
0.0
 11
-84.957771
 21
121.338723
 31
0.0
  0
LINE
  5
3A27
  8
0
 62
     7
 10
-83.757771
 20
118.038723
 30
0.0
 11
-83.657771
 21
118.038723
 31
0.0
  0
LINE
  5
3A28
  8
0
 62
     7
 10
-84.957771
 20
118.038723
 30
0.0
 11
-84.757771
 21
118.038723
 31
0.0
  0
LINE
  5
3A29
  8
0
 62
     7
 10
-83.757771
 20
117.738723
 30
0.0
 11
-83.657771
 21
117.738723
 31
0.0
  0
LINE
  5
3A2A
  8
0
 62
     7
 10
-84.957771
 20
117.738723
 30
0.0
 11
-84.757771
 21
117.738723
 31
0.0
  0
LINE
  5
3A2B
  8
0
 62
     7
 10
-83.757771
 20
117.720694
 30
0.0
 11
-84.957771
 21
117.720694
 31
0.0
  0
LINE
  5
3A2C
  8
0
 62
     7
 10
-83.657771
 20
117.338723
 30
0.0
 11
-84.957771
 21
117.338723
 31
0.0
  0
LINE
  5
3A2D
  8
0
 62
     7
 10
-84.957771
 20
121.338723
 30
0.0
 11
-83.657771
 21
121.338723
 31
0.0
  0
POLYLINE
  5
3A2E
  8
0
 62
     7
 66
     1
 10
0.0
 20
0.0
 30
0.0
  0
VERTEX
  5
3FB2
  8
0
 62
     7
 10
-74.209467
 20
93.280556
 30
0.0
  0
VERTEX
  5
3FB3
  8
0
 62
     7
 10
-74.12449
 20
93.420959
 30
0.0
  0
VERTEX
  5
3FB4
  8
0
 62
     7
 10
-74.04281
 20
93.421368
 30
0.0
  0
VERTEX
  5
3FB5
  8
0
 62
     7
 10
-73.967118
 20
93.282438
 30
0.0
  0
VERTEX
  5
3FB6
  8
0
 62
     7
 10
-73.899292
 20
93.008209
 30
0.0
  0
VERTEX
  5
3FB7
  8
0
 62
     7
 10
-73.840905
 20
92.607605
 30
0.0
  0
VERTEX
  5
3FB8
  8
0
 62
     7
 10
-73.793185
 20
92.09815
 30
0.0
  0
VERTEX
  5
3FB9
  8
0
 62
     7
 10
-73.756227
 20
91.49729
 30
0.0
  0
VERTEX
  5
3FBA
  8
0
 62
     7
 10
-73.729913
 20
90.823783
 30
0.0
  0
VERTEX
  5
3FBB
  8
0
 62
     7
 10
-73.714096
 20
90.097371
 30
0.0
  0
VERTEX
  5
3FBC
  8
0
 62
     7
 10
-73.708781
 20
89.338723
 30
0.0
  0
SEQEND
  5
3FBD
  8
0
 62
     7
  0
POLYLINE
  5
3A2F
  8
0
 62
     7
 66
     1
 10
0.0
 20
0.0
 30
0.0
  0
VERTEX
  5
3FBE
  8
0
 62
     7
 10
-74.582826
 20
90.090749
 30
0.0
  0
VERTEX
  5
3FBF
  8
0
 62
     7
 10
-74.554042
 20
90.816898
 30
0.0
  0
VERTEX
  5
3FC0
  8
0
 62
     7
 10
-74.507982
 20
91.492015
 30
0.0
  0
VERTEX
  5
3FC1
  8
0
 62
     7
 10
-74.447158
 20
92.094505
 30
0.0
  0
VERTEX
  5
3FC2
  8
0
 62
     7
 10
-74.374688
 20
92.604724
 30
0.0
  0
VERTEX
  5
3FC3
  8
0
 62
     7
 10
-74.294159
 20
93.005017
 30
0.0
  0
SEQEND
  5
3FC4
  8
0
 62
     7
  0
LINE
  5
3A30
  8
0
 62
     7
 10
-73.405872
 20
91.503683
 30
0.0
 11
-73.394079
 21
92.106196
 31
0.0
  0
POLYLINE
  5
3A31
  8
0
 62
     7
 66
     1
 10
0.0
 20
0.0
 30
0.0
  0
VERTEX
  5
3FC5
  8
0
 62
     7
 10
-74.59066
 20
89.338723
 30
0.0
  0
VERTEX
  5
3FC6
  8
0
 62
     7
 10
-74.586517
 20
89.827552
 30
0.0
  0
VERTEX
  5
3FC7
  8
0
 62
     7
 10
-74.573161
 20
90.338828
 30
0.0
  0
VERTEX
  5
3FC8
  8
0
 62
     7
 10
-74.551527
 20
90.823066
 30
0.0
  0
VERTEX
  5
3FC9
  8
0
 62
     7
 10
-74.522753
 20
91.273651
 30
0.0
  0
VERTEX
  5
3FCA
  8
0
 62
     7
 10
-74.48811
 20
91.685124
 30
0.0
  0
VERTEX
  5
3FCB
  8
0
 62
     7
 10
-74.448941
 20
92.053231
 30
0.0
  0
VERTEX
  5
3FCC
  8
0
 62
     7
 10
-74.406599
 20
92.375075
 30
0.0
  0
VERTEX
  5
3FCD
  8
0
 62
     7
 10
-74.362391
 20
92.649171
 30
0.0
  0
VERTEX
  5
3FCE
  8
0
 62
     7
 10
-74.317634
 20
92.874772
 30
0.0
  0
VERTEX
  5
3FCF
  8
0
 62
     7
 10
-74.273815
 20
93.051561
 30
0.0
  0
VERTEX
  5
3FD0
  8
0
 62
     7
 10
-74.233064
 20
93.178986
 30
0.0
  0
VERTEX
  5
3FD1
  8
0
 62
     7
 10
-74.200042
 20
93.254609
 30
0.0
  0
VERTEX
  5
3FD2
  8
0
 62
     7
 10
-74.195693
 20
93.262353
 30
0.0
  0
SEQEND
  5
3FD3
  8
0
 62
     7
  0
POLYLINE
  5
3A32
  8
0
 62
     7
 66
     1
 10
0.0
 20
0.0
 30
0.0
  0
VERTEX
  5
3FD4
  8
0
 62
     7
 10
-73.424368
 20
89.338723
 30
0.0
  0
VERTEX
  5
3FD5
  8
0
 62
     7
 10
-73.422068
 20
90.099906
 30
0.0
  0
VERTEX
  5
3FD6
  8
0
 62
     7
 10
-73.41502
 20
90.873461
 30
0.0
  0
VERTEX
  5
3FD7
  8
0
 62
     7
 10
-73.404287
 20
91.588148
 30
0.0
  0
VERTEX
  5
3FD8
  8
0
 62
     7
 10
-73.391515
 20
92.215953
 30
0.0
  0
VERTEX
  5
3FD9
  8
0
 62
     7
 10
-73.378678
 20
92.73196
 30
0.0
  0
VERTEX
  5
3FDA
  8
0
 62
     7
 10
-73.367759
 20
93.115802
 30
0.0
  0
VERTEX
  5
3FDB
  8
0
 62
     7
 10
-73.360449
 20
93.352331
 30
0.0
  0
SEQEND
  5
3FDC
  8
0
 62
     7
  0
POLYLINE
  5
3A33
  8
0
 62
     7
 66
     1
 10
0.0
 20
0.0
 30
0.0
  0
VERTEX
  5
3FDD
  8
0
 62
     7
 10
-74.226114
 20
93.194901
 30
0.0
  0
VERTEX
  5
3FDE
  8
0
 62
     7
 10
-74.166196
 20
93.090177
 30
0.0
  0
VERTEX
  5
3FDF
  8
0
 62
     7
 10
-74.098485
 20
92.829464
 30
0.0
  0
VERTEX
  5
3FE0
  8
0
 62
     7
 10
-74.040193
 20
92.448574
 30
0.0
  0
VERTEX
  5
3FE1
  8
0
 62
     7
 10
-73.992545
 20
91.964162
 30
0.0
  0
VERTEX
  5
3FE2
  8
0
 62
     7
 10
-73.95564
 20
91.392814
 30
0.0
  0
VERTEX
  5
3FE3
  8
0
 62
     7
 10
-73.929356
 20
90.752363
 30
0.0
  0
VERTEX
  5
3FE4
  8
0
 62
     7
 10
-73.91355
 20
90.061576
 30
0.0
  0
VERTEX
  5
3FE5
  8
0
 62
     7
 10
-73.908226
 20
89.338723
 30
0.0
  0
SEQEND
  5
3FE6
  8
0
 62
     7
  0
LINE
  5
3A34
  8
0
 62
     7
 10
-73.415689
 20
90.826455
 30
0.0
 11
-73.405872
 21
91.503683
 31
0.0
  0
LINE
  5
3A35
  8
0
 62
     7
 10
-74.592614
 20
89.338723
 30
0.0
 11
-74.582826
 21
90.090749
 31
0.0
  0
POLYLINE
  5
3A36
  8
0
 62
     7
 66
     1
 10
0.0
 20
0.0
 30
0.0
  0
VERTEX
  5
3FE7
  8
0
 62
     7
 10
-73.424474
 20
89.338723
 30
0.0
  0
VERTEX
  5
3FE8
  8
0
 62
     7
 10
-73.422194
 20
90.0967
 30
0.0
  0
VERTEX
  5
3FE9
  8
0
 62
     7
 10
-73.415689
 20
90.826455
 30
0.0
  0
SEQEND
  5
3FEA
  8
0
 62
     7
  0
LINE
  5
3A37
  8
0
 62
     7
 10
-74.582836
 20
88.587079
 30
0.0
 11
-74.592614
 21
89.338723
 31
0.0
  0
POLYLINE
  5
3A38
  8
0
 62
     7
 66
     1
 10
0.0
 20
0.0
 30
0.0
  0
VERTEX
  5
3FEB
  8
0
 62
     7
 10
-73.415011
 20
87.80323
 30
0.0
  0
VERTEX
  5
3FEC
  8
0
 62
     7
 10
-73.415696
 20
87.851551
 30
0.0
  0
VERTEX
  5
3FED
  8
0
 62
     7
 10
-73.422196
 20
88.581198
 30
0.0
  0
VERTEX
  5
3FEE
  8
0
 62
     7
 10
-73.424474
 20
89.338723
 30
0.0
  0
SEQEND
  5
3FEF
  8
0
 62
     7
  0
LINE
  5
3A39
  8
0
 62
     7
 10
-74.554066
 20
87.861009
 30
0.0
 11
-74.582836
 21
88.587079
 31
0.0
  0
LINE
  5
3A3A
  8
0
 62
     7
 10
-74.294159
 20
93.005017
 30
0.0
 11
-74.209467
 21
93.280556
 31
0.0
  0
LINE
  5
3A3B
  8
0
 62
     7
 10
-73.362726
 20
93.283479
 30
0.0
 11
-73.357771
 21
93.43875
 31
0.0
  0
POLYLINE
  5
3A3C
  8
0
 62
     7
 66
     1
 10
0.0
 20
0.0
 30
0.0
  0
VERTEX
  5
3FF0
  8
0
 62
     7
 10
-73.3819
 20
92.614098
 30
0.0
  0
VERTEX
  5
3FF1
  8
0
 62
     7
 10
-73.37096
 20
93.01099
 30
0.0
  0
VERTEX
  5
3FF2
  8
0
 62
     7
 10
-73.362726
 20
93.283479
 30
0.0
  0
SEQEND
  5
3FF3
  8
0
 62
     7
  0
LINE
  5
3A3D
  8
0
 62
     7
 10
-73.394079
 20
92.106196
 30
0.0
 11
-73.3819
 21
92.614098
 31
0.0
  0
LINE
  5
3A3E
  8
0
 62
     7
 10
-73.357771
 20
93.421481
 30
0.0
 11
-73.357771
 21
95.238723
 31
0.0
  0
POLYLINE
  5
3A3F
  8
0
 62
     7
 66
     1
 10
0.0
 20
0.0
 30
0.0
  0
VERTEX
  5
3FF4
  8
0
 62
     7
 10
-75.357771
 20
101.638723
 30
0.0
  0
VERTEX
  5
3FF5
  8
0
 62
     7
 10
-75.162867
 20
102.239445
 30
0.0
  0
VERTEX
  5
3FF6
  8
0
 62
     7
 10
-75.069291
 20
102.839186
 30
0.0
  0
VERTEX
  5
3FF7
  8
0
 62
     7
 10
-75.06927
 20
103.437984
 30
0.0
  0
VERTEX
  5
3FF8
  8
0
 62
     7
 10
-75.162844
 20
104.037906
 30
0.0
  0
VERTEX
  5
3FF9
  8
0
 62
     7
 10
-75.357771
 20
104.638723
 30
0.0
  0
SEQEND
  5
3FFA
  8
0
 62
     7
  0
LINE
  5
3A40
  8
0
 62
     7
 10
-74.057771
 20
104.638723
 30
0.0
 11
-74.057771
 21
101.638723
 31
0.0
  0
LINE
  5
3A41
  8
0
 62
     7
 10
-74.157771
 20
104.638723
 30
0.0
 11
-74.157771
 21
101.638723
 31
0.0
  0
LINE
  5
3A42
  8
0
 62
     7
 10
-75.357771
 20
101.638723
 30
0.0
 11
-75.357771
 21
104.638723
 31
0.0
  0
LINE
  5
3A43
  8
0
 62
     7
 10
-75.357771
 20
104.638723
 30
0.0
 11
-74.057771
 21
104.638723
 31
0.0
  0
LINE
  5
3A44
  8
0
 62
     7
 10
-74.157771
 20
104.376158
 30
0.0
 11
-74.057771
 21
104.377031
 31
0.0
  0
LINE
  5
3A45
  8
0
 62
     7
 10
-74.057771
 20
101.638723
 30
0.0
 11
-75.357771
 21
101.638723
 31
0.0
  0
LINE
  5
3A46
  8
0
 62
     7
 10
-79.857771
 20
151.638723
 30
0.0
 11
-85.857771
 21
151.638723
 31
0.0
  0
LINE
  5
3A47
  8
0
 62
     7
 10
-79.257771
 20
150.939262
 30
0.0
 11
-86.457771
 21
150.939262
 31
0.0
  0
LINE
  5
3A48
  8
0
 62
     7
 10
-80.757771
 20
155.838723
 30
0.0
 11
-79.257771
 21
153.838723
 31
0.0
  0
LINE
  5
3A49
  8
0
 62
     7
 10
-81.357771
 20
155.638723
 30
0.0
 11
-79.857771
 21
153.638723
 31
0.0
  0
ARC
  5
3A4A
  8
0
 62
     7
 10
-98.557771
 20
135.638723
 30
0.0
 40
1.0
 50
180.0
 51
270.0
  0
ARC
  5
3A4B
  8
0
 62
     7
 10
-98.557771
 20
136.138723
 30
0.0
 40
1.0
 50
180.0
 51
270.0
  0
LINE
  5
3A4C
  8
0
 62
     7
 10
-95.057771
 20
135.138723
 30
0.0
 11
-95.057771
 21
142.138723
 31
0.0
  0
LINE
  5
3A4D
  8
0
 62
     7
 10
-95.557771
 20
142.338723
 30
0.0
 11
-95.557771
 21
134.938723
 31
0.0
  0
LINE
  5
3A4E
  8
0
 62
     7
 10
-97.982642
 20
142.138723
 30
0.0
 11
-97.982642
 21
135.138723
 31
0.0
  0
LINE
  5
3A4F
  8
0
 62
     7
 10
-98.557771
 20
135.138723
 30
0.0
 11
-95.904181
 21
135.138723
 31
0.0
  0
LINE
  5
3A50
  8
0
 62
     7
 10
-98.557771
 20
134.938723
 30
0.0
 11
-95.557771
 21
134.938723
 31
0.0
  0
LINE
  5
3A51
  8
0
 62
     7
 10
-98.557771
 20
134.638723
 30
0.0
 11
-95.557771
 21
134.638723
 31
0.0
  0
ARC
  5
3A52
  8
0
 62
     7
 10
-98.557771
 20
136.138723
 30
0.0
 40
1.199987
 50
215.591137
 51
270.0
  0
LINE
  5
3A53
  8
0
 62
     7
 10
-98.557771
 20
134.938723
 30
0.0
 11
-98.557771
 21
135.138723
 31
0.0
  0
ARC
  5
3A54
  8
0
 62
     7
 10
-95.557771
 20
135.138723
 30
0.0
 40
0.5
 50
270.0
 51
0.0
  0
POLYLINE
  5
3A55
  8
0
 62
     7
 66
     1
 10
0.0
 20
0.0
 30
0.0
  0
VERTEX
  5
3FFB
  8
0
 62
     7
 10
-95.557771
 20
134.938723
 30
0.0
  0
VERTEX
  5
3FFC
  8
0
 62
     7
 10
-95.573527
 20
134.998355
 30
0.0
  0
VERTEX
  5
3FFD
  8
0
 62
     7
 10
-95.614907
 20
135.048754
 30
0.0
  0
VERTEX
  5
3FFE
  8
0
 62
     7
 10
-95.672151
 20
135.087229
 30
0.0
  0
VERTEX
  5
3FFF
  8
0
 62
     7
 10
-95.740515
 20
135.114993
 30
0.0
  0
VERTEX
  5
4000
  8
0
 62
     7
 10
-95.818122
 20
135.132453
 30
0.0
  0
VERTEX
  5
4001
  8
0
 62
     7
 10
-95.904181
 20
135.138723
 30
0.0
  0
SEQEND
  5
4002
  8
0
 62
     7
  0
LINE
  5
3A56
  8
0
 62
     7
 10
-99.557771
 20
141.638723
 30
0.0
 11
-99.557771
 21
135.638723
 31
0.0
  0
LINE
  5
3A57
  8
0
 62
     7
 10
-95.557771
 20
142.638723
 30
0.0
 11
-98.557771
 21
142.638723
 31
0.0
  0
LINE
  5
3A58
  8
0
 62
     7
 10
-95.557771
 20
142.338723
 30
0.0
 11
-98.557771
 21
142.338723
 31
0.0
  0
LINE
  5
3A59
  8
0
 62
     7
 10
-95.904181
 20
142.138723
 30
0.0
 11
-98.557771
 21
142.138723
 31
0.0
  0
ARC
  5
3A5A
  8
0
 62
     7
 10
-98.557771
 20
141.638723
 30
0.0
 40
1.0
 50
90.0
 51
180.0
  0
ARC
  5
3A5B
  8
0
 62
     7
 10
-98.557771
 20
141.138723
 30
0.0
 40
1.199987
 50
90.0
 51
144.348178
  0
ARC
  5
3A5C
  8
0
 62
     7
 10
-98.557771
 20
141.138723
 30
0.0
 40
1.0
 50
90.0
 51
162.058535
  0
LINE
  5
3A5D
  8
0
 62
     7
 10
-98.557771
 20
142.338723
 30
0.0
 11
-98.557771
 21
142.138723
 31
0.0
  0
ARC
  5
3A5E
  8
0
 62
     7
 10
-95.557771
 20
142.138723
 30
0.0
 40
0.5
 50
0.0
 51
90.0
  0
POLYLINE
  5
3A5F
  8
0
 62
     7
 66
     1
 10
0.0
 20
0.0
 30
0.0
  0
VERTEX
  5
4003
  8
0
 62
     7
 10
-95.557771
 20
142.338723
 30
0.0
  0
VERTEX
  5
4004
  8
0
 62
     7
 10
-95.573527
 20
142.279092
 30
0.0
  0
VERTEX
  5
4005
  8
0
 62
     7
 10
-95.614907
 20
142.228692
 30
0.0
  0
VERTEX
  5
4006
  8
0
 62
     7
 10
-95.672151
 20
142.190218
 30
0.0
  0
VERTEX
  5
4007
  8
0
 62
     7
 10
-95.740515
 20
142.162453
 30
0.0
  0
VERTEX
  5
4008
  8
0
 62
     7
 10
-95.818122
 20
142.144993
 30
0.0
  0
VERTEX
  5
4009
  8
0
 62
     7
 10
-95.904181
 20
142.138723
 30
0.0
  0
SEQEND
  5
400A
  8
0
 62
     7
  0
LINE
  5
3A60
  8
0
 62
     7
 10
-98.557771
 20
161.138723
 30
0.0
 11
-95.904181
 21
161.138723
 31
0.0
  0
LINE
  5
3A61
  8
0
 62
     7
 10
-98.557771
 20
160.988723
 30
0.0
 11
-95.557771
 21
160.988723
 31
0.0
  0
ARC
  5
3A62
  8
0
 62
     7
 10
-98.557771
 20
161.988723
 30
0.0
 40
1.0
 50
180.0
 51
270.0
  0
ARC
  5
3A63
  8
0
 62
     7
 10
-98.557771
 20
162.138723
 30
0.0
 40
1.0
 50
180.0
 51
270.0
  0
LINE
  5
3A64
  8
0
 62
     7
 10
-98.557771
 20
160.988723
 30
0.0
 11
-98.557771
 21
161.111928
 31
0.0
  0
ARC
  5
3A65
  8
0
 62
     7
 10
-95.557771
 20
161.488723
 30
0.0
 40
0.5
 50
270.0
 51
0.0
  0
LINE
  5
3A66
  8
0
 62
     7
 10
-95.818122
 20
161.132453
 30
0.0
 11
-95.904181
 21
161.138723
 31
0.0
  0
POLYLINE
  5
3A67
  8
0
 62
     7
 66
     1
 10
0.0
 20
0.0
 30
0.0
  0
VERTEX
  5
400B
  8
0
 62
     7
 10
-95.672151
 20
161.087229
 30
0.0
  0
VERTEX
  5
400C
  8
0
 62
     7
 10
-95.740515
 20
161.114993
 30
0.0
  0
VERTEX
  5
400D
  8
0
 62
     7
 10
-95.818122
 20
161.132453
 30
0.0
  0
SEQEND
  5
400E
  8
0
 62
     7
  0
POLYLINE
  5
3A68
  8
0
 62
     7
 66
     1
 10
0.0
 20
0.0
 30
0.0
  0
VERTEX
  5
400F
  8
0
 62
     7
 10
-95.570982
 20
160.988723
 30
0.0
  0
VERTEX
  5
4010
  8
0
 62
     7
 10
-95.573527
 20
160.998355
 30
0.0
  0
VERTEX
  5
4011
  8
0
 62
     7
 10
-95.614907
 20
161.048754
 30
0.0
  0
VERTEX
  5
4012
  8
0
 62
     7
 10
-95.672151
 20
161.087229
 30
0.0
  0
SEQEND
  5
4013
  8
0
 62
     7
  0
LINE
  5
3A69
  8
0
 62
     7
 10
-85.857771
 20
153.638723
 30
0.0
 11
-84.357771
 21
155.638723
 31
0.0
  0
LINE
  5
3A6A
  8
0
 62
     7
 10
-86.457771
 20
153.838723
 30
0.0
 11
-84.957771
 21
155.838723
 31
0.0
  0
LINE
  5
3A6B
  8
0
 62
     7
 10
-86.457771
 20
150.939262
 30
0.0
 11
-85.857771
 21
151.219046
 31
0.0
  0
LINE
  5
3A6C
  8
0
 62
     7
 10
-86.457771
 20
153.838723
 30
0.0
 11
-85.857771
 21
153.638723
 31
0.0
  0
LINE
  5
3A6D
  8
0
 62
     7
 10
-85.857771
 20
151.219046
 30
0.0
 11
-85.857771
 21
153.638723
 31
0.0
  0
LINE
  5
3A6E
  8
0
 62
     7
 10
-86.457771
 20
150.939262
 30
0.0
 11
-86.457771
 21
153.838723
 31
0.0
  0
ARC
  5
3A6F
  8
0
 62
     7
 10
-83.857771
 20
157.138723
 30
0.0
 40
1.09998
 50
90.0
 51
180.0
  0
LINE
  5
3A70
  8
0
 62
     7
 10
-84.358664
 20
157.036396
 30
0.0
 11
-81.358893
 21
157.010218
 31
0.0
  0
LINE
  5
3A71
  8
0
 62
     7
 10
-83.857771
 20
158.238723
 30
0.0
 11
-81.857771
 21
158.238723
 31
0.0
  0
LINE
  5
3A72
  8
0
 62
     7
 10
-83.857771
 20
157.638723
 30
0.0
 11
-81.857771
 21
157.638723
 31
0.0
  0
ARC
  5
3A73
  8
0
 62
     7
 10
-83.857771
 20
157.138723
 30
0.0
 40
0.5
 50
90.0
 51
180.0
  0
LINE
  5
3A74
  8
0
 62
     7
 10
-84.957771
 20
157.138723
 30
0.0
 11
-84.357771
 21
157.138723
 31
0.0
  0
LINE
  5
3A75
  8
0
 62
     7
 10
-83.857771
 20
158.238723
 30
0.0
 11
-83.857771
 21
157.638723
 31
0.0
  0
LINE
  5
3A76
  8
0
 62
     7
 10
-84.357771
 20
155.638723
 30
0.0
 11
-84.357771
 21
157.138723
 31
0.0
  0
LINE
  5
3A77
  8
0
 62
     7
 10
-84.957771
 20
155.838723
 30
0.0
 11
-84.957771
 21
157.138723
 31
0.0
  0
POLYLINE
  5
3A78
  8
0
 62
     7
 66
     1
 10
0.0
 20
0.0
 30
0.0
  0
VERTEX
  5
4014
  8
0
 62
     7
 10
-84.357771
 20
155.638723
 30
0.0
  0
VERTEX
  5
4015
  8
0
 62
     7
 10
-84.367467
 20
155.80484
 30
0.0
  0
VERTEX
  5
4016
  8
0
 62
     7
 10
-84.396972
 20
155.941986
 30
0.0
  0
VERTEX
  5
4017
  8
0
 62
     7
 10
-84.451842
 20
156.050871
 30
0.0
  0
VERTEX
  5
4018
  8
0
 62
     7
 10
-84.542432
 20
156.114184
 30
0.0
  0
VERTEX
  5
4019
  8
0
 62
     7
 10
-84.681239
 20
156.094892
 30
0.0
  0
VERTEX
  5
401A
  8
0
 62
     7
 10
-84.822007
 20
155.993806
 30
0.0
  0
VERTEX
  5
401B
  8
0
 62
     7
 10
-84.957771
 20
155.838723
 30
0.0
  0
SEQEND
  5
401C
  8
0
 62
     7
  0
ARC
  5
3A79
  8
0
 62
     7
 10
-81.857771
 20
157.138723
 30
0.0
 40
1.09998
 50
0.0
 51
90.0
  0
ARC
  5
3A7A
  8
0
 62
     7
 10
-81.857771
 20
157.138723
 30
0.0
 40
0.5
 50
0.0
 51
90.0
  0
LINE
  5
3A7B
  8
0
 62
     7
 10
-80.757771
 20
157.138723
 30
0.0
 11
-81.357771
 21
157.138723
 31
0.0
  0
POLYLINE
  5
3A7C
  8
0
 62
     7
 66
     1
 10
0.0
 20
0.0
 30
0.0
  0
VERTEX
  5
401D
  8
0
 62
     7
 10
-80.757771
 20
155.838723
 30
0.0
  0
VERTEX
  5
401E
  8
0
 62
     7
 10
-80.893535
 20
155.993806
 30
0.0
  0
VERTEX
  5
401F
  8
0
 62
     7
 10
-81.034303
 20
156.094892
 30
0.0
  0
VERTEX
  5
4020
  8
0
 62
     7
 10
-81.173111
 20
156.114184
 30
0.0
  0
VERTEX
  5
4021
  8
0
 62
     7
 10
-81.263701
 20
156.050871
 30
0.0
  0
VERTEX
  5
4022
  8
0
 62
     7
 10
-81.31857
 20
155.941986
 30
0.0
  0
VERTEX
  5
4023
  8
0
 62
     7
 10
-81.348076
 20
155.80484
 30
0.0
  0
VERTEX
  5
4024
  8
0
 62
     7
 10
-81.357771
 20
155.638723
 30
0.0
  0
SEQEND
  5
4025
  8
0
 62
     7
  0
LINE
  5
3A7D
  8
0
 62
     7
 10
-80.757771
 20
157.138723
 30
0.0
 11
-80.757771
 21
155.838723
 31
0.0
  0
LINE
  5
3A7E
  8
0
 62
     7
 10
-81.357771
 20
157.138723
 30
0.0
 11
-81.357771
 21
155.638723
 31
0.0
  0
LINE
  5
3A7F
  8
0
 62
     7
 10
-81.857771
 20
158.238723
 30
0.0
 11
-81.857771
 21
157.638723
 31
0.0
  0
LINE
  5
3A80
  8
0
 62
     7
 10
-79.257771
 20
153.838723
 30
0.0
 11
-79.857771
 21
153.638723
 31
0.0
  0
LINE
  5
3A81
  8
0
 62
     7
 10
-79.257771
 20
150.939262
 30
0.0
 11
-79.857771
 21
151.219046
 31
0.0
  0
LINE
  5
3A82
  8
0
 62
     7
 10
-79.257771
 20
153.838723
 30
0.0
 11
-79.257771
 21
150.939262
 31
0.0
  0
LINE
  5
3A83
  8
0
 62
     7
 10
-79.857771
 20
153.638723
 30
0.0
 11
-79.857771
 21
151.219046
 31
0.0
  0
LINE
  5
3A84
  8
0
 62
     7
 10
-117.757771
 20
236.838723
 30
0.0
 11
-117.757771
 21
247.312274
 31
0.0
  0
LINE
  5
3A85
  8
0
 62
     7
 10
-120.057771
 20
236.838723
 30
0.0
 11
-120.057771
 21
247.312274
 31
0.0
  0
LINE
  5
3A86
  8
0
 62
     7
 10
-122.657771
 20
180.638723
 30
0.0
 11
-122.657771
 21
246.312274
 31
0.0
  0
ARC
  5
3A87
  8
0
 62
     7
 10
-99.985295
 20
203.083699
 30
0.0
 40
0.5
 50
218.435766
 51
320.0
  0
ARC
  5
3A88
  8
0
 62
     7
 10
-99.985295
 20
206.193747
 30
0.0
 40
0.5
 50
40.0
 51
141.564234
  0
ARC
  5
3A89
  8
0
 62
     7
 10
-98.027771
 20
204.638723
 30
0.0
 40
1.9
 50
141.98355
 51
218.01645
  0
LINE
  5
3A8A
  8
0
 62
     7
 10
-122.357771
 20
236.838723
 30
0.0
 11
-76.557792
 21
236.838723
 31
0.0
  0
LINE
  5
3A8B
  8
0
 62
     7
 10
-122.657771
 20
236.538723
 30
0.0
 11
-78.313829
 21
236.538723
 31
0.0
  0
LINE
  5
3A8C
  8
0
 62
     7
 10
-102.282211
 20
224.738723
 30
0.0
 11
-76.057788
 21
224.738723
 31
0.0
  0
LINE
  5
3A8D
  8
0
 62
     7
 10
-102.282211
 20
224.538723
 30
0.0
 11
-98.057771
 21
224.538723
 31
0.0
  0
ARC
  5
3A8E
  8
0
 62
     7
 10
-98.027771
 20
204.638723
 30
0.0
 40
3.0
 50
141.541505
 51
218.458495
  0
LINE
  5
3A8F
  8
0
 62
     7
 10
-122.357771
 20
236.838723
 30
0.0
 11
-122.357771
 21
180.638723
 31
0.0
  0
LINE
  5
3A90
  8
0
 62
     7
 10
-125.557771
 20
235.838723
 30
0.0
 11
-125.557771
 21
182.138723
 31
0.0
  0
ARC
  5
3A91
  8
0
 62
     7
 10
-120.657771
 20
175.51415
 30
0.0
 40
2.0
 50
300.0
 51
0.0
  0
LINE
  5
3A92
  8
0
 62
     7
 10
-118.657771
 20
182.138723
 30
0.0
 11
-119.657771
 21
182.138723
 31
0.0
  0
LINE
  5
3A93
  8
0
 62
     7
 10
-120.557771
 20
181.249512
 30
0.0
 11
-120.557771
 21
173.262484
 31
0.0
  0
ARC
  5
3A94
  8
0
 62
     7
 10
-121.157771
 20
171.761373
 30
0.0
 40
1.0
 50
120.0
 51
180.0
  0
LINE
  5
3A95
  8
0
 62
     7
 10
-121.657771
 20
172.627398
 30
0.0
 11
-119.657771
 21
173.782099
 31
0.0
  0
LINE
  5
3A96
  8
0
 62
     7
 10
-125.557771
 20
182.138723
 30
0.0
 11
-122.657771
 21
182.138723
 31
0.0
  0
ARC
  5
3A97
  8
0
 62
     7
 10
-122.200154
 20
182.138723
 30
0.0
 40
1.5
 50
270.0
 51
295.0
  0
LINE
  5
3A98
  8
0
 62
     7
 10
-122.200154
 20
180.638723
 30
0.0
 11
-122.657771
 21
180.638723
 31
0.0
  0
LINE
  5
3A99
  8
0
 62
     7
 10
-119.937556
 20
181.538723
 30
0.0
 11
-121.566227
 21
180.779262
 31
0.0
  0
LINE
  5
3A9A
  8
0
 62
     7
 10
-119.657771
 20
182.138723
 30
0.0
 11
-119.937556
 21
181.538723
 31
0.0
  0
LINE
  5
3A9B
  8
0
 62
     7
 10
-118.657771
 20
175.51415
 30
0.0
 11
-118.657771
 21
182.138723
 31
0.0
  0
LINE
  5
3A9C
  8
0
 62
     7
 10
-122.810302
 20
235.838723
 30
0.0
 11
-125.557771
 21
235.838723
 31
0.0
  0
ARC
  5
3A9D
  8
0
 62
     7
 10
-122.357771
 20
236.538723
 30
0.0
 40
0.3
 50
90.0
 51
180.0
  0
ARC
  5
3A9E
  8
0
 62
     7
 10
-119.057771
 20
234.838723
 30
0.0
 40
3.9
 50
157.380135
 51
202.619865
  0
ARC
  5
3A9F
  8
0
 62
     7
 10
-102.282211
 20
223.238723
 30
0.0
 40
1.299977
 50
90.0
 51
170.845536
  0
ARC
  5
3AA0
  8
0
 62
     7
 10
-102.282211
 20
223.238723
 30
0.0
 40
1.5
 50
90.0
 51
170.849003
  0
LINE
  5
3AA1
  8
0
 62
     7
 10
-103.565653
 20
223.445549
 30
0.0
 11
-103.763105
 21
223.477368
 31
0.0
  0
ARC
  5
3AA2
  8
0
 62
     7
 10
-102.007201
 20
223.438723
 30
0.0
 40
1.0
 50
90.0
 51
170.828015
  0
LINE
  5
3AA3
  8
0
 62
     7
 10
-102.282211
 20
224.538723
 30
0.0
 11
-102.282211
 21
224.738723
 31
0.0
  0
LINE
  5
3AA4
  8
0
 62
     7
 10
-95.557771
 20
168.288723
 30
0.0
 11
-98.557771
 21
168.288723
 31
0.0
  0
LINE
  5
3AA5
  8
0
 62
     7
 10
-95.904181
 20
168.138723
 30
0.0
 11
-98.557771
 21
168.138723
 31
0.0
  0
ARC
  5
3AA6
  8
0
 62
     7
 10
-98.557771
 20
167.288723
 30
0.0
 40
1.0
 50
90.0
 51
180.0
  0
ARC
  5
3AA7
  8
0
 62
     7
 10
-98.557771
 20
167.138723
 30
0.0
 40
1.0
 50
90.0
 51
162.058535
  0
LINE
  5
3AA8
  8
0
 62
     7
 10
-98.557771
 20
168.288723
 30
0.0
 11
-98.557771
 21
168.165519
 31
0.0
  0
ARC
  5
3AA9
  8
0
 62
     7
 10
-95.557771
 20
167.788723
 30
0.0
 40
0.5
 50
0.0
 51
90.0
  0
LINE
  5
3AAA
  8
0
 62
     7
 10
-95.818122
 20
168.144993
 30
0.0
 11
-95.904181
 21
168.138723
 31
0.0
  0
POLYLINE
  5
3AAB
  8
0
 62
     7
 66
     1
 10
0.0
 20
0.0
 30
0.0
  0
VERTEX
  5
4026
  8
0
 62
     7
 10
-95.672151
 20
168.190218
 30
0.0
  0
VERTEX
  5
4027
  8
0
 62
     7
 10
-95.740515
 20
168.162453
 30
0.0
  0
VERTEX
  5
4028
  8
0
 62
     7
 10
-95.818122
 20
168.144993
 30
0.0
  0
SEQEND
  5
4029
  8
0
 62
     7
  0
POLYLINE
  5
3AAC
  8
0
 62
     7
 66
     1
 10
0.0
 20
0.0
 30
0.0
  0
VERTEX
  5
402A
  8
0
 62
     7
 10
-95.570982
 20
168.288723
 30
0.0
  0
VERTEX
  5
402B
  8
0
 62
     7
 10
-95.573527
 20
168.279092
 30
0.0
  0
VERTEX
  5
402C
  8
0
 62
     7
 10
-95.614907
 20
168.228692
 30
0.0
  0
VERTEX
  5
402D
  8
0
 62
     7
 10
-95.672151
 20
168.190218
 30
0.0
  0
SEQEND
  5
402E
  8
0
 62
     7
  0
ARC
  5
3AAD
  8
0
 62
     7
 10
-95.557771
 20
194.138723
 30
0.0
 40
0.5
 50
0.0
 51
90.0
  0
ARC
  5
3AAE
  8
0
 62
     7
 10
-98.557771
 20
193.638723
 30
0.0
 40
1.0
 50
90.0
 51
180.0
  0
ARC
  5
3AAF
  8
0
 62
     7
 10
-98.557771
 20
193.138723
 30
0.0
 40
1.199987
 50
90.0
 51
144.348178
  0
ARC
  5
3AB0
  8
0
 62
     7
 10
-98.557771
 20
193.138723
 30
0.0
 40
1.0
 50
90.0
 51
162.058535
  0
LINE
  5
3AB1
  8
0
 62
     7
 10
-95.557771
 20
194.338723
 30
0.0
 11
-95.557771
 21
186.938723
 31
0.0
  0
POLYLINE
  5
3AB2
  8
0
 62
     7
 66
     1
 10
0.0
 20
0.0
 30
0.0
  0
VERTEX
  5
402F
  8
0
 62
     7
 10
-95.557771
 20
194.338723
 30
0.0
  0
VERTEX
  5
4030
  8
0
 62
     7
 10
-95.573527
 20
194.279092
 30
0.0
  0
VERTEX
  5
4031
  8
0
 62
     7
 10
-95.614907
 20
194.228692
 30
0.0
  0
VERTEX
  5
4032
  8
0
 62
     7
 10
-95.672151
 20
194.190218
 30
0.0
  0
VERTEX
  5
4033
  8
0
 62
     7
 10
-95.740515
 20
194.162453
 30
0.0
  0
VERTEX
  5
4034
  8
0
 62
     7
 10
-95.818122
 20
194.144993
 30
0.0
  0
VERTEX
  5
4035
  8
0
 62
     7
 10
-95.904181
 20
194.138723
 30
0.0
  0
SEQEND
  5
4036
  8
0
 62
     7
  0
LINE
  5
3AB3
  8
0
 62
     7
 10
-98.557771
 20
194.338723
 30
0.0
 11
-98.557771
 21
194.138723
 31
0.0
  0
LINE
  5
3AB4
  8
0
 62
     7
 10
-95.057771
 20
187.138723
 30
0.0
 11
-95.057771
 21
194.138723
 31
0.0
  0
LINE
  5
3AB5
  8
0
 62
     7
 10
-97.982642
 20
194.138723
 30
0.0
 11
-97.982642
 21
187.138723
 31
0.0
  0
LINE
  5
3AB6
  8
0
 62
     7
 10
-99.557771
 20
193.638723
 30
0.0
 11
-99.557771
 21
187.638723
 31
0.0
  0
LINE
  5
3AB7
  8
0
 62
     7
 10
-98.557771
 20
187.138723
 30
0.0
 11
-95.904181
 21
187.138723
 31
0.0
  0
LINE
  5
3AB8
  8
0
 62
     7
 10
-98.557771
 20
186.938723
 30
0.0
 11
-95.557771
 21
186.938723
 31
0.0
  0
LINE
  5
3AB9
  8
0
 62
     7
 10
-98.557771
 20
186.638723
 30
0.0
 11
-95.557771
 21
186.638723
 31
0.0
  0
ARC
  5
3ABA
  8
0
 62
     7
 10
-98.557771
 20
187.638723
 30
0.0
 40
1.0
 50
180.0
 51
270.0
  0
ARC
  5
3ABB
  8
0
 62
     7
 10
-98.557771
 20
188.138723
 30
0.0
 40
1.199987
 50
215.591137
 51
270.0
  0
ARC
  5
3ABC
  8
0
 62
     7
 10
-98.557771
 20
188.138723
 30
0.0
 40
1.0
 50
180.0
 51
270.0
  0
LINE
  5
3ABD
  8
0
 62
     7
 10
-98.557771
 20
186.938723
 30
0.0
 11
-98.557771
 21
187.138723
 31
0.0
  0
ARC
  5
3ABE
  8
0
 62
     7
 10
-95.557771
 20
187.138723
 30
0.0
 40
0.5
 50
270.0
 51
0.0
  0
POLYLINE
  5
3ABF
  8
0
 62
     7
 66
     1
 10
0.0
 20
0.0
 30
0.0
  0
VERTEX
  5
4037
  8
0
 62
     7
 10
-95.557771
 20
186.938723
 30
0.0
  0
VERTEX
  5
4038
  8
0
 62
     7
 10
-95.573527
 20
186.998355
 30
0.0
  0
VERTEX
  5
4039
  8
0
 62
     7
 10
-95.614907
 20
187.048754
 30
0.0
  0
VERTEX
  5
403A
  8
0
 62
     7
 10
-95.672151
 20
187.087229
 30
0.0
  0
VERTEX
  5
403B
  8
0
 62
     7
 10
-95.740515
 20
187.114993
 30
0.0
  0
VERTEX
  5
403C
  8
0
 62
     7
 10
-95.818122
 20
187.132453
 30
0.0
  0
VERTEX
  5
403D
  8
0
 62
     7
 10
-95.904181
 20
187.138723
 30
0.0
  0
SEQEND
  5
403E
  8
0
 62
     7
  0
LINE
  5
3AC0
  8
0
 62
     7
 10
-95.904181
 20
194.138723
 30
0.0
 11
-98.557771
 21
194.138723
 31
0.0
  0
LINE
  5
3AC1
  8
0
 62
     7
 10
-95.557771
 20
194.638723
 30
0.0
 11
-98.557771
 21
194.638723
 31
0.0
  0
LINE
  5
3AC2
  8
0
 62
     7
 10
-95.557771
 20
194.338723
 30
0.0
 11
-98.557771
 21
194.338723
 31
0.0
  0
ARC
  5
3AC3
  8
0
 62
     7
 10
-99.919634
 20
203.161951
 30
0.0
 40
0.5
 50
320.0
 51
37.818811
  0
LINE
  5
3AC4
  8
0
 62
     7
 10
-99.602273
 20
202.762305
 30
0.0
 11
-99.536612
 21
202.840557
 31
0.0
  0
CIRCLE
  5
3AC5
  8
0
 62
     7
 10
-87.607771
 20
191.638723
 30
0.0
 40
1.3
  0
CIRCLE
  5
3AC6
  8
0
 62
     7
 10
-87.607771
 20
191.638723
 30
0.0
 40
0.95
  0
CIRCLE
  5
3AC7
  8
0
 62
     7
 10
-87.607771
 20
191.638723
 30
0.0
 40
1.25
  0
LINE
  5
3AC8
  8
0
 62
     7
 10
-61.857771
 20
168.938723
 30
0.0
 11
-66.857771
 21
168.938723
 31
0.0
  0
LINE
  5
3AC9
  8
0
 62
     7
 10
-66.857771
 20
167.138723
 30
0.0
 11
-62.857771
 21
167.138723
 31
0.0
  0
LINE
  5
3ACA
  8
0
 62
     7
 10
-66.857771
 20
165.438723
 30
0.0
 11
-61.857771
 21
165.438723
 31
0.0
  0
LINE
  5
3ACB
  8
0
 62
     7
 10
-66.857771
 20
168.938723
 30
0.0
 11
-66.857771
 21
165.438723
 31
0.0
  0
LINE
  5
3ACC
  8
0
 62
     7
 10
-61.857771
 20
165.438723
 30
0.0
 11
-61.857771
 21
168.938723
 31
0.0
  0
LINE
  5
3ACD
  8
0
 62
     7
 10
-62.857771
 20
168.938723
 30
0.0
 11
-62.857771
 21
167.138723
 31
0.0
  0
LINE
  5
3ACE
  8
0
 62
     7
 10
-90.957771
 20
221.905031
 30
0.0
 11
-83.757771
 21
221.905031
 31
0.0
  0
LINE
  5
3ACF
  8
0
 62
     7
 10
-90.357771
 20
221.438723
 30
0.0
 11
-84.357771
 21
221.438723
 31
0.0
  0
LINE
  5
3AD0
  8
0
 62
     7
 10
-90.357771
 20
220.938723
 30
0.0
 11
-84.357771
 21
220.938723
 31
0.0
  0
LINE
  5
3AD1
  8
0
 62
     7
 10
-88.857771
 20
217.438723
 30
0.0
 11
-90.357771
 21
219.438723
 31
0.0
  0
LINE
  5
3AD2
  8
0
 62
     7
 10
-89.457771
 20
217.238723
 30
0.0
 11
-90.957771
 21
219.238723
 31
0.0
  0
LINE
  5
3AD3
  8
0
 62
     7
 10
-95.057771
 20
209.138723
 30
0.0
 11
-95.057771
 21
216.138723
 31
0.0
  0
LINE
  5
3AD4
  8
0
 62
     7
 10
-95.557771
 20
216.338723
 30
0.0
 11
-95.557771
 21
208.938723
 31
0.0
  0
LINE
  5
3AD5
  8
0
 62
     7
 10
-97.982642
 20
216.138723
 30
0.0
 11
-97.982642
 21
209.138723
 31
0.0
  0
LINE
  5
3AD6
  8
0
 62
     7
 10
-99.557771
 20
215.638723
 30
0.0
 11
-99.557771
 21
209.638723
 31
0.0
  0
ARC
  5
3AD7
  8
0
 62
     7
 10
-95.557771
 20
209.138723
 30
0.0
 40
0.5
 50
270.0
 51
0.0
  0
ARC
  5
3AD8
  8
0
 62
     7
 10
-98.557771
 20
209.638723
 30
0.0
 40
1.0
 50
180.0
 51
270.0
  0
ARC
  5
3AD9
  8
0
 62
     7
 10
-98.557771
 20
210.138723
 30
0.0
 40
1.199987
 50
215.591137
 51
270.0
  0
LINE
  5
3ADA
  8
0
 62
     7
 10
-98.557771
 20
208.638723
 30
0.0
 11
-95.557771
 21
208.638723
 31
0.0
  0
ARC
  5
3ADB
  8
0
 62
     7
 10
-99.919634
 20
206.115495
 30
0.0
 40
0.5
 50
322.181189
 51
40.0
  0
LINE
  5
3ADC
  8
0
 62
     7
 10
-99.536612
 20
206.436889
 30
0.0
 11
-99.602273
 21
206.515141
 31
0.0
  0
LINE
  5
3ADD
  8
0
 62
     7
 10
-98.557771
 20
209.138723
 30
0.0
 11
-95.904181
 21
209.138723
 31
0.0
  0
LINE
  5
3ADE
  8
0
 62
     7
 10
-98.557771
 20
208.938723
 30
0.0
 11
-95.557771
 21
208.938723
 31
0.0
  0
ARC
  5
3ADF
  8
0
 62
     7
 10
-98.557771
 20
210.138723
 30
0.0
 40
1.0
 50
180.0
 51
270.0
  0
LINE
  5
3AE0
  8
0
 62
     7
 10
-98.557771
 20
208.938723
 30
0.0
 11
-98.557771
 21
209.138723
 31
0.0
  0
POLYLINE
  5
3AE1
  8
0
 62
     7
 66
     1
 10
0.0
 20
0.0
 30
0.0
  0
VERTEX
  5
403F
  8
0
 62
     7
 10
-95.557771
 20
208.938723
 30
0.0
  0
VERTEX
  5
4040
  8
0
 62
     7
 10
-95.573527
 20
208.998355
 30
0.0
  0
VERTEX
  5
4041
  8
0
 62
     7
 10
-95.614907
 20
209.048754
 30
0.0
  0
VERTEX
  5
4042
  8
0
 62
     7
 10
-95.672151
 20
209.087229
 30
0.0
  0
VERTEX
  5
4043
  8
0
 62
     7
 10
-95.740515
 20
209.114993
 30
0.0
  0
VERTEX
  5
4044
  8
0
 62
     7
 10
-95.818122
 20
209.132453
 30
0.0
  0
VERTEX
  5
4045
  8
0
 62
     7
 10
-95.904181
 20
209.138723
 30
0.0
  0
SEQEND
  5
4046
  8
0
 62
     7
  0
LINE
  5
3AE2
  8
0
 62
     7
 10
-95.557771
 20
216.638723
 30
0.0
 11
-98.557771
 21
216.638723
 31
0.0
  0
LINE
  5
3AE3
  8
0
 62
     7
 10
-95.557771
 20
216.338723
 30
0.0
 11
-98.557771
 21
216.338723
 31
0.0
  0
LINE
  5
3AE4
  8
0
 62
     7
 10
-95.904181
 20
216.138723
 30
0.0
 11
-98.557771
 21
216.138723
 31
0.0
  0
ARC
  5
3AE5
  8
0
 62
     7
 10
-98.557771
 20
215.638723
 30
0.0
 40
1.0
 50
90.0
 51
180.0
  0
ARC
  5
3AE6
  8
0
 62
     7
 10
-98.557771
 20
215.138723
 30
0.0
 40
1.199987
 50
90.0
 51
144.348178
  0
ARC
  5
3AE7
  8
0
 62
     7
 10
-98.557771
 20
215.138723
 30
0.0
 40
1.0
 50
90.0
 51
162.058535
  0
LINE
  5
3AE8
  8
0
 62
     7
 10
-98.557771
 20
216.338723
 30
0.0
 11
-98.557771
 21
216.138723
 31
0.0
  0
ARC
  5
3AE9
  8
0
 62
     7
 10
-95.557771
 20
216.138723
 30
0.0
 40
0.5
 50
0.0
 51
90.0
  0
POLYLINE
  5
3AEA
  8
0
 62
     7
 66
     1
 10
0.0
 20
0.0
 30
0.0
  0
VERTEX
  5
4047
  8
0
 62
     7
 10
-95.557771
 20
216.338723
 30
0.0
  0
VERTEX
  5
4048
  8
0
 62
     7
 10
-95.573527
 20
216.279092
 30
0.0
  0
VERTEX
  5
4049
  8
0
 62
     7
 10
-95.614907
 20
216.228692
 30
0.0
  0
VERTEX
  5
404A
  8
0
 62
     7
 10
-95.672151
 20
216.190218
 30
0.0
  0
VERTEX
  5
404B
  8
0
 62
     7
 10
-95.740515
 20
216.162453
 30
0.0
  0
VERTEX
  5
404C
  8
0
 62
     7
 10
-95.818122
 20
216.144993
 30
0.0
  0
VERTEX
  5
404D
  8
0
 62
     7
 10
-95.904181
 20
216.138723
 30
0.0
  0
SEQEND
  5
404E
  8
0
 62
     7
  0
LINE
  5
3AEB
  8
0
 62
     7
 10
-90.957771
 20
221.905031
 30
0.0
 11
-90.357771
 21
221.625246
 31
0.0
  0
LINE
  5
3AEC
  8
0
 62
     7
 10
-90.357771
 20
219.438723
 30
0.0
 11
-90.357771
 21
221.625246
 31
0.0
  0
LINE
  5
3AED
  8
0
 62
     7
 10
-90.957771
 20
219.238723
 30
0.0
 11
-90.957771
 21
221.905031
 31
0.0
  0
LINE
  5
3AEE
  8
0
 62
     7
 10
-90.957771
 20
219.238723
 30
0.0
 11
-90.357771
 21
219.438723
 31
0.0
  0
ARC
  5
3AEF
  8
0
 62
     7
 10
-86.357771
 20
215.938723
 30
0.0
 40
1.09998
 50
270.0
 51
0.0
  0
LINE
  5
3AF0
  8
0
 62
     7
 10
-83.757771
 20
219.238723
 30
0.0
 11
-85.257771
 21
217.238723
 31
0.0
  0
LINE
  5
3AF1
  8
0
 62
     7
 10
-84.357771
 20
219.438723
 30
0.0
 11
-85.857771
 21
217.438723
 31
0.0
  0
LINE
  5
3AF2
  8
0
 62
     7
 10
-86.357771
 20
215.438723
 30
0.0
 11
-88.357771
 21
215.438723
 31
0.0
  0
LINE
  5
3AF3
  8
0
 62
     7
 10
-86.357771
 20
214.838723
 30
0.0
 11
-88.357771
 21
214.838723
 31
0.0
  0
ARC
  5
3AF4
  8
0
 62
     7
 10
-88.357771
 20
215.938723
 30
0.0
 40
1.09998
 50
180.0
 51
270.0
  0
ARC
  5
3AF5
  8
0
 62
     7
 10
-88.357771
 20
215.938723
 30
0.0
 40
0.5
 50
180.0
 51
270.0
  0
LINE
  5
3AF6
  8
0
 62
     7
 10
-89.457771
 20
215.938723
 30
0.0
 11
-88.857771
 21
215.938723
 31
0.0
  0
POLYLINE
  5
3AF7
  8
0
 62
     7
 66
     1
 10
0.0
 20
0.0
 30
0.0
  0
VERTEX
  5
404F
  8
0
 62
     7
 10
-89.457771
 20
217.238723
 30
0.0
  0
VERTEX
  5
4050
  8
0
 62
     7
 10
-89.322007
 20
217.083641
 30
0.0
  0
VERTEX
  5
4051
  8
0
 62
     7
 10
-89.181239
 20
216.982555
 30
0.0
  0
VERTEX
  5
4052
  8
0
 62
     7
 10
-89.042432
 20
216.963263
 30
0.0
  0
VERTEX
  5
4053
  8
0
 62
     7
 10
-88.951842
 20
217.026576
 30
0.0
  0
VERTEX
  5
4054
  8
0
 62
     7
 10
-88.896972
 20
217.135461
 30
0.0
  0
VERTEX
  5
4055
  8
0
 62
     7
 10
-88.867467
 20
217.272606
 30
0.0
  0
VERTEX
  5
4056
  8
0
 62
     7
 10
-88.857771
 20
217.438723
 30
0.0
  0
SEQEND
  5
4057
  8
0
 62
     7
  0
LINE
  5
3AF8
  8
0
 62
     7
 10
-88.357771
 20
214.838723
 30
0.0
 11
-88.357771
 21
215.438723
 31
0.0
  0
LINE
  5
3AF9
  8
0
 62
     7
 10
-88.857771
 20
215.938723
 30
0.0
 11
-88.857771
 21
217.438723
 31
0.0
  0
LINE
  5
3AFA
  8
0
 62
     7
 10
-89.457771
 20
215.938723
 30
0.0
 11
-89.457771
 21
217.238723
 31
0.0
  0
ARC
  5
3AFB
  8
0
 62
     7
 10
-86.357771
 20
215.938723
 30
0.0
 40
0.5
 50
270.0
 51
0.0
  0
LINE
  5
3AFC
  8
0
 62
     7
 10
-85.257771
 20
215.938723
 30
0.0
 11
-85.857771
 21
215.938723
 31
0.0
  0
LINE
  5
3AFD
  8
0
 62
     7
 10
-85.257771
 20
217.238723
 30
0.0
 11
-85.257771
 21
215.938723
 31
0.0
  0
LINE
  5
3AFE
  8
0
 62
     7
 10
-85.857771
 20
217.438723
 30
0.0
 11
-85.857771
 21
215.938723
 31
0.0
  0
LINE
  5
3AFF
  8
0
 62
     7
 10
-86.357771
 20
214.838723
 30
0.0
 11
-86.357771
 21
215.438723
 31
0.0
  0
POLYLINE
  5
3B00
  8
0
 62
     7
 66
     1
 10
0.0
 20
0.0
 30
0.0
  0
VERTEX
  5
4058
  8
0
 62
     7
 10
-85.857771
 20
217.438723
 30
0.0
  0
VERTEX
  5
4059
  8
0
 62
     7
 10
-85.848076
 20
217.272606
 30
0.0
  0
VERTEX
  5
405A
  8
0
 62
     7
 10
-85.81857
 20
217.135461
 30
0.0
  0
VERTEX
  5
405B
  8
0
 62
     7
 10
-85.763701
 20
217.026576
 30
0.0
  0
VERTEX
  5
405C
  8
0
 62
     7
 10
-85.673111
 20
216.963263
 30
0.0
  0
VERTEX
  5
405D
  8
0
 62
     7
 10
-85.534303
 20
216.982555
 30
0.0
  0
VERTEX
  5
405E
  8
0
 62
     7
 10
-85.393535
 20
217.083641
 30
0.0
  0
VERTEX
  5
405F
  8
0
 62
     7
 10
-85.257771
 20
217.238723
 30
0.0
  0
SEQEND
  5
4060
  8
0
 62
     7
  0
LINE
  5
3B01
  8
0
 62
     7
 10
-83.757771
 20
219.238723
 30
0.0
 11
-84.357771
 21
219.438723
 31
0.0
  0
LINE
  5
3B02
  8
0
 62
     7
 10
-83.757771
 20
221.905031
 30
0.0
 11
-83.757771
 21
219.238723
 31
0.0
  0
LINE
  5
3B03
  8
0
 62
     7
 10
-84.357771
 20
221.625246
 30
0.0
 11
-84.357771
 21
219.438723
 31
0.0
  0
LINE
  5
3B04
  8
0
 62
     7
 10
-83.757771
 20
221.905031
 30
0.0
 11
-84.357771
 21
221.625246
 31
0.0
  0
LINE
  5
3B05
  8
0
 62
     7
 10
-97.757771
 20
224.438723
 30
0.0
 11
-97.757771
 21
224.738723
 31
0.0
  0
LINE
  5
3B06
  8
0
 62
     7
 10
-98.057771
 20
224.738723
 30
0.0
 11
-98.057771
 21
224.438723
 31
0.0
  0
LINE
  5
3B07
  8
0
 62
     7
 10
-82.057771
 20
236.838723
 30
0.0
 11
-82.057771
 21
224.738723
 31
0.0
  0
LINE
  5
3B08
  8
0
 62
     7
 10
-83.557771
 20
224.438723
 30
0.0
 11
-83.557771
 21
224.738723
 31
0.0
  0
LINE
  5
3B09
  8
0
 62
     7
 10
-80.357771
 20
224.438723
 30
0.0
 11
-80.357771
 21
223.938723
 31
0.0
  0
LINE
  5
3B0A
  8
0
 62
     7
 10
-60.847771
 20
210.638723
 30
0.0
 11
-72.067771
 21
210.638723
 31
0.0
  0
LINE
  5
3B0B
  8
0
 62
     7
 10
-72.067771
 20
207.838723
 30
0.0
 11
-66.357771
 21
207.838723
 31
0.0
  0
LINE
  5
3B0C
  8
0
 62
     7
 10
-72.457771
 20
210.248723
 30
0.0
 11
-72.457771
 21
208.228723
 31
0.0
  0
ARC
  5
3B0D
  8
0
 62
     7
 10
-72.067771
 20
208.228723
 30
0.0
 40
0.39
 50
180.0
 51
270.0
  0
ARC
  5
3B0E
  8
0
 62
     7
 10
-72.067771
 20
210.248723
 30
0.0
 40
0.39
 50
90.0
 51
180.0
  0
LINE
  5
3B0F
  8
0
 62
     7
 10
-65.967771
 20
206.638723
 30
0.0
 11
-60.847771
 21
206.638723
 31
0.0
  0
ARC
  5
3B10
  8
0
 62
     7
 10
-65.967771
 20
207.028723
 30
0.0
 40
0.39
 50
180.0
 51
270.0
  0
LINE
  5
3B11
  8
0
 62
     7
 10
-66.357771
 20
207.838723
 30
0.0
 11
-66.357771
 21
207.028723
 31
0.0
  0
POLYLINE
  5
3B12
  8
0
 62
     7
 66
     1
 10
0.0
 20
0.0
 30
0.0
  0
VERTEX
  5
4061
  8
0
 62
     7
 10
-76.780536
 20
233.738723
 30
0.0
  0
VERTEX
  5
4062
  8
0
 62
     7
 10
-76.702162
 20
233.665743
 30
0.0
  0
VERTEX
  5
4063
  8
0
 62
     7
 10
-76.629368
 20
233.442504
 30
0.0
  0
VERTEX
  5
4064
  8
0
 62
     7
 10
-76.56616
 20
233.077308
 30
0.0
  0
VERTEX
  5
4065
  8
0
 62
     7
 10
-76.514877
 20
232.595848
 30
0.0
  0
VERTEX
  5
4066
  8
0
 62
     7
 10
-76.474835
 20
232.011385
 30
0.0
  0
VERTEX
  5
4067
  8
0
 62
     7
 10
-76.445699
 20
231.331263
 30
0.0
  0
VERTEX
  5
4068
  8
0
 62
     7
 10
-76.428349
 20
230.59176
 30
0.0
  0
VERTEX
  5
4069
  8
0
 62
     7
 10
-76.422732
 20
229.838882
 30
0.0
  0
SEQEND
  5
406A
  8
0
 62
     7
  0
POLYLINE
  5
3B13
  8
0
 62
     7
 66
     1
 10
0.0
 20
0.0
 30
0.0
  0
VERTEX
  5
406B
  8
0
 62
     7
 10
-77.260755
 20
229.838565
 30
0.0
  0
VERTEX
  5
406C
  8
0
 62
     7
 10
-77.25066
 20
230.588323
 30
0.0
  0
VERTEX
  5
406D
  8
0
 62
     7
 10
-77.220114
 20
231.32659
 30
0.0
  0
VERTEX
  5
406E
  8
0
 62
     7
 10
-77.17101
 20
232.007352
 30
0.0
  0
VERTEX
  5
406F
  8
0
 62
     7
 10
-77.107836
 20
232.592608
 30
0.0
  0
VERTEX
  5
4070
  8
0
 62
     7
 10
-77.033467
 20
233.07427
 30
0.0
  0
VERTEX
  5
4071
  8
0
 62
     7
 10
-76.95026
 20
233.440167
 30
0.0
  0
VERTEX
  5
4072
  8
0
 62
     7
 10
-76.864095
 20
233.664613
 30
0.0
  0
VERTEX
  5
4073
  8
0
 62
     7
 10
-76.780536
 20
233.738723
 30
0.0
  0
SEQEND
  5
4074
  8
0
 62
     7
  0
POLYLINE
  5
3B14
  8
0
 62
     7
 66
     1
 10
0.0
 20
0.0
 30
0.0
  0
VERTEX
  5
4075
  8
0
 62
     7
 10
-76.117936
 20
229.838564
 30
0.0
  0
VERTEX
  5
4076
  8
0
 62
     7
 10
-76.115683
 20
230.592712
 30
0.0
  0
VERTEX
  5
4077
  8
0
 62
     7
 10
-76.109105
 20
231.332504
 30
0.0
  0
VERTEX
  5
4078
  8
0
 62
     7
 10
-76.099234
 20
232.012794
 30
0.0
  0
VERTEX
  5
4079
  8
0
 62
     7
 10
-76.08784
 20
232.596811
 30
0.0
  0
VERTEX
  5
407A
  8
0
 62
     7
 10
-76.076442
 20
233.077394
 30
0.0
  0
VERTEX
  5
407B
  8
0
 62
     7
 10
-76.066575
 20
233.442032
 30
0.0
  0
VERTEX
  5
407C
  8
0
 62
     7
 10
-76.060014
 20
233.665312
 30
0.0
  0
VERTEX
  5
407D
  8
0
 62
     7
 10
-76.057771
 20
233.738723
 30
0.0
  0
SEQEND
  5
407E
  8
0
 62
     7
  0
LINE
  5
3B15
  8
0
 62
     7
 10
-77.911324
 20
236.338723
 30
0.0
 11
-77.911324
 21
224.738723
 31
0.0
  0
LINE
  5
3B16
  8
0
 62
     7
 10
-78.896664
 20
236.838723
 30
0.0
 11
-78.896664
 21
224.738723
 31
0.0
  0
POLYLINE
  5
3B17
  8
0
 62
     7
 66
     1
 10
0.0
 20
0.0
 30
0.0
  0
VERTEX
  5
407F
  8
0
 62
     7
 10
-76.780536
 20
225.938723
 30
0.0
  0
VERTEX
  5
4080
  8
0
 62
     7
 10
-76.864034
 20
226.012728
 30
0.0
  0
VERTEX
  5
4081
  8
0
 62
     7
 10
-76.950151
 20
226.236901
 30
0.0
  0
VERTEX
  5
4082
  8
0
 62
     7
 10
-77.033393
 20
226.602778
 30
0.0
  0
VERTEX
  5
4083
  8
0
 62
     7
 10
-77.107809
 20
227.084631
 30
0.0
  0
VERTEX
  5
4084
  8
0
 62
     7
 10
-77.170963
 20
227.669573
 30
0.0
  0
VERTEX
  5
4085
  8
0
 62
     7
 10
-77.220054
 20
228.349803
 30
0.0
  0
VERTEX
  5
4086
  8
0
 62
     7
 10
-77.250639
 20
229.088338
 30
0.0
  0
VERTEX
  5
4087
  8
0
 62
     7
 10
-77.260755
 20
229.838565
 30
0.0
  0
SEQEND
  5
4088
  8
0
 62
     7
  0
POLYLINE
  5
3B18
  8
0
 62
     7
 66
     1
 10
0.0
 20
0.0
 30
0.0
  0
VERTEX
  5
4089
  8
0
 62
     7
 10
-76.057771
 20
225.938723
 30
0.0
  0
VERTEX
  5
408A
  8
0
 62
     7
 10
-76.060008
 20
226.011914
 30
0.0
  0
VERTEX
  5
408B
  8
0
 62
     7
 10
-76.066563
 20
226.235004
 30
0.0
  0
VERTEX
  5
408C
  8
0
 62
     7
 10
-76.076435
 20
226.599779
 30
0.0
  0
VERTEX
  5
408D
  8
0
 62
     7
 10
-76.087841
 20
227.08065
 30
0.0
  0
VERTEX
  5
408E
  8
0
 62
     7
 10
-76.099229
 20
227.664387
 30
0.0
  0
VERTEX
  5
408F
  8
0
 62
     7
 10
-76.109095
 20
228.344117
 30
0.0
  0
VERTEX
  5
4090
  8
0
 62
     7
 10
-76.11568
 20
229.084081
 30
0.0
  0
VERTEX
  5
4091
  8
0
 62
     7
 10
-76.117936
 20
229.838564
 30
0.0
  0
SEQEND
  5
4092
  8
0
 62
     7
  0
POLYLINE
  5
3B19
  8
0
 62
     7
 66
     1
 10
0.0
 20
0.0
 30
0.0
  0
VERTEX
  5
4093
  8
0
 62
     7
 10
-76.422732
 20
229.838882
 30
0.0
  0
VERTEX
  5
4094
  8
0
 62
     7
 10
-76.428338
 20
229.086452
 30
0.0
  0
VERTEX
  5
4095
  8
0
 62
     7
 10
-76.445666
 20
228.347187
 30
0.0
  0
VERTEX
  5
4096
  8
0
 62
     7
 10
-76.47481
 20
227.66652
 30
0.0
  0
VERTEX
  5
4097
  8
0
 62
     7
 10
-76.514864
 20
227.081755
 30
0.0
  0
VERTEX
  5
4098
  8
0
 62
     7
 10
-76.566111
 20
226.600501
 30
0.0
  0
VERTEX
  5
4099
  8
0
 62
     7
 10
-76.629285
 20
226.235301
 30
0.0
  0
VERTEX
  5
409A
  8
0
 62
     7
 10
-76.702111
 20
226.011802
 30
0.0
  0
VERTEX
  5
409B
  8
0
 62
     7
 10
-76.780536
 20
225.938723
 30
0.0
  0
SEQEND
  5
409C
  8
0
 62
     7
  0
LINE
  5
3B1A
  8
0
 62
     7
 10
-76.057771
 20
224.738723
 30
0.0
 11
-76.057771
 21
225.93878
 31
0.0
  0
LINE
  5
3B1B
  8
0
 62
     7
 10
-77.357771
 20
224.438723
 30
0.0
 11
-77.357771
 21
224.738723
 31
0.0
  0
LINE
  5
3B1C
  8
0
 62
     7
 10
-77.911324
 20
236.338723
 30
0.0
 11
-76.057771
 21
236.338723
 31
0.0
  0
POLYLINE
  5
3B1D
  8
0
 62
     7
 66
     1
 10
0.0
 20
0.0
 30
0.0
  0
VERTEX
  5
409D
  8
0
 62
     7
 10
-78.488679
 20
236.838723
 30
0.0
  0
VERTEX
  5
409E
  8
0
 62
     7
 10
-78.331676
 20
236.816542
 30
0.0
  0
VERTEX
  5
409F
  8
0
 62
     7
 10
-78.181763
 20
236.749913
 30
0.0
  0
VERTEX
  5
40A0
  8
0
 62
     7
 10
-78.052558
 20
236.641545
 30
0.0
  0
VERTEX
  5
40A1
  8
0
 62
     7
 10
-77.95841
 20
236.499581
 30
0.0
  0
VERTEX
  5
40A2
  8
0
 62
     7
 10
-77.911324
 20
236.338723
 30
0.0
  0
SEQEND
  5
40A3
  8
0
 62
     7
  0
POLYLINE
  5
3B1E
  8
0
 62
     7
 66
     1
 10
0.0
 20
0.0
 30
0.0
  0
VERTEX
  5
40A4
  8
0
 62
     7
 10
-78.313829
 20
236.538723
 30
0.0
  0
VERTEX
  5
40A5
  8
0
 62
     7
 10
-78.21402
 20
236.529888
 30
0.0
  0
VERTEX
  5
40A6
  8
0
 62
     7
 10
-78.11565
 20
236.503246
 30
0.0
  0
VERTEX
  5
40A7
  8
0
 62
     7
 10
-78.026799
 20
236.459906
 30
0.0
  0
VERTEX
  5
40A8
  8
0
 62
     7
 10
-77.95611
 20
236.403101
 30
0.0
  0
VERTEX
  5
40A9
  8
0
 62
     7
 10
-77.911324
 20
236.338723
 30
0.0
  0
SEQEND
  5
40AA
  8
0
 62
     7
  0
POLYLINE
  5
3B1F
  8
0
 62
     7
 66
     1
 10
0.0
 20
0.0
 30
0.0
  0
VERTEX
  5
40AB
  8
0
 62
     7
 10
-78.488679
 20
236.838723
 30
0.0
  0
VERTEX
  5
40AC
  8
0
 62
     7
 10
-78.421772
 20
236.815888
 30
0.0
  0
VERTEX
  5
40AD
  8
0
 62
     7
 10
-78.365048
 20
236.750858
 30
0.0
  0
VERTEX
  5
40AE
  8
0
 62
     7
 10
-78.327142
 20
236.65353
 30
0.0
  0
VERTEX
  5
40AF
  8
0
 62
     7
 10
-78.313829
 20
236.538723
 30
0.0
  0
SEQEND
  5
40B0
  8
0
 62
     7
  0
ARC
  5
3B20
  8
0
 62
     7
 10
-76.557771
 20
236.338723
 30
0.0
 40
0.5
 50
0.0
 51
90.0
  0
LINE
  5
3B21
  8
0
 62
     7
 10
-75.557771
 20
235.838723
 30
0.0
 11
-76.057771
 21
235.838723
 31
0.0
  0
LINE
  5
3B22
  8
0
 62
     7
 10
-76.057771
 20
233.738642
 30
0.0
 11
-76.057771
 21
236.338723
 31
0.0
  0
LINE
  5
3B23
  8
0
 62
     7
 10
-122.757771
 20
247.312274
 30
0.0
 11
-117.757771
 21
247.312274
 31
0.0
  0
LINE
  5
3B24
  8
0
 62
     7
 10
-122.757771
 20
246.312274
 30
0.0
 11
-122.657771
 21
246.312274
 31
0.0
  0
LINE
  5
3B25
  8
0
 62
     7
 10
-122.757771
 20
247.312274
 30
0.0
 11
-122.757771
 21
246.312274
 31
0.0
  0
POLYLINE
  5
3B26
  8
0
 62
     7
 66
     1
 10
0.0
 20
0.0
 30
0.0
  0
VERTEX
  5
40B1
  8
0
 62
     7
 10
-11.997418
 20
164.848428
 30
0.0
  0
VERTEX
  5
40B2
  8
0
 62
     7
 10
-12.057551
 20
165.035024
 30
0.0
  0
VERTEX
  5
40B3
  8
0
 62
     7
 10
-12.111204
 20
165.280452
 30
0.0
  0
VERTEX
  5
40B4
  8
0
 62
     7
 10
-12.158531
 20
165.575774
 30
0.0
  0
VERTEX
  5
40B5
  8
0
 62
     7
 10
-12.197262
 20
165.903009
 30
0.0
  0
VERTEX
  5
40B6
  8
0
 62
     7
 10
-12.22633
 20
166.247447
 30
0.0
  0
VERTEX
  5
40B7
  8
0
 62
     7
 10
-12.245677
 20
166.602197
 30
0.0
  0
VERTEX
  5
40B8
  8
0
 62
     7
 10
-12.255362
 20
166.966442
 30
0.0
  0
VERTEX
  5
40B9
  8
0
 62
     7
 10
-12.255149
 20
167.329604
 30
0.0
  0
VERTEX
  5
40BA
  8
0
 62
     7
 10
-12.245067
 20
167.691752
 30
0.0
  0
VERTEX
  5
40BB
  8
0
 62
     7
 10
-12.225402
 20
168.042741
 30
0.0
  0
VERTEX
  5
40BC
  8
0
 62
     7
 10
-12.196088
 20
168.382252
 30
0.0
  0
VERTEX
  5
40BD
  8
0
 62
     7
 10
-12.157228
 20
168.703206
 30
0.0
  0
VERTEX
  5
40BE
  8
0
 62
     7
 10
-12.109967
 20
168.991124
 30
0.0
  0
VERTEX
  5
40BF
  8
0
 62
     7
 10
-12.056585
 20
169.229077
 30
0.0
  0
SEQEND
  5
40C0
  8
0
 62
     7
  0
LINE
  5
3B27
  8
0
 62
     7
 10
-14.661442
 20
168.938723
 30
0.0
 11
-15.562284
 21
161.233952
 31
0.0
  0
POLYLINE
  5
3B28
  8
0
 62
     7
 66
     1
 10
0.0
 20
0.0
 30
0.0
  0
VERTEX
  5
40C1
  8
0
 62
     7
 10
-11.738376
 20
165.336491
 30
0.0
  0
VERTEX
  5
40C2
  8
0
 62
     7
 10
-11.760041
 20
165.148258
 30
0.0
  0
VERTEX
  5
40C3
  8
0
 62
     7
 10
-11.805036
 20
164.911639
 30
0.0
  0
VERTEX
  5
40C4
  8
0
 62
     7
 10
-11.862267
 20
164.765382
 30
0.0
  0
VERTEX
  5
40C5
  8
0
 62
     7
 10
-11.932331
 20
164.745896
 30
0.0
  0
SEQEND
  5
40C6
  8
0
 62
     7
  0
LINE
  5
3B29
  8
0
 62
     7
 10
-17.47123
 20
143.284906
 30
0.0
 11
-14.657771
 21
169.738723
 31
0.0
  0
LINE
  5
3B2A
  8
0
 62
     7
 10
-11.507599
 20
158.489279
 30
0.0
 11
-11.507599
 21
165.371659
 31
0.0
  0
LINE
  5
3B2B
  8
0
 62
     7
 10
-14.390932
 20
157.438723
 30
0.0
 11
-14.390932
 21
172.87342
 31
0.0
  0
LINE
  5
3B2C
  8
0
 62
     7
 10
-17.769548
 20
143.316633
 30
0.0
 11
-14.957771
 21
169.754631
 31
0.0
  0
LINE
  5
3B2D
  8
0
 62
     7
 10
-21.957771
 20
184.938723
 30
0.0
 11
-21.957771
 21
143.538723
 31
0.0
  0
LINE
  5
3B2E
  8
0
 62
     7
 10
-22.257771
 20
184.938723
 30
0.0
 11
-22.257771
 21
143.538723
 31
0.0
  0
LINE
  5
3B2F
  8
0
 62
     7
 10
-22.757771
 20
145.338723
 30
0.0
 11
-22.757771
 21
186.170473
 31
0.0
  0
LINE
  5
3B30
  8
0
 62
     7
 10
-23.757771
 20
145.645854
 30
0.0
 11
-23.757771
 21
186.683256
 31
0.0
  0
LINE
  5
3B31
  8
0
 62
     7
 10
-24.257771
 20
201.038723
 30
0.0
 11
-24.257771
 21
148.538723
 31
0.0
  0
LINE
  5
3B32
  8
0
 62
     7
 10
-34.757771
 20
201.038723
 30
0.0
 11
-34.757771
 21
137.938723
 31
0.0
  0
LINE
  5
3B33
  8
0
 62
     7
 10
-34.957771
 20
200.838723
 30
0.0
 11
-34.957771
 21
138.138723
 31
0.0
  0
LINE
  5
3B34
  8
0
 62
     7
 10
-35.457771
 20
137.338723
 30
0.0
 11
-35.457771
 21
201.838723
 31
0.0
  0
LINE
  5
3B35
  8
0
 62
     7
 10
-36.257771
 20
201.838723
 30
0.0
 11
-36.257771
 21
162.422576
 31
0.0
  0
LINE
  5
3B36
  8
0
 62
     7
 10
-36.957771
 20
162.422576
 30
0.0
 11
-36.957771
 21
223.938723
 31
0.0
  0
LINE
  5
3B37
  8
0
 62
     7
 10
-38.957771
 20
224.438723
 30
0.0
 11
-38.957771
 21
162.427816
 31
0.0
  0
LINE
  5
3B38
  8
0
 62
     7
 10
-41.957771
 20
224.438723
 30
0.0
 11
-41.957771
 21
162.427816
 31
0.0
  0
LINE
  5
3B39
  8
0
 62
     7
 10
-45.957771
 20
224.438723
 30
0.0
 11
-45.957771
 21
162.427816
 31
0.0
  0
LINE
  5
3B3A
  8
0
 62
     7
 10
-50.457771
 20
224.438723
 30
0.0
 11
-50.457771
 21
162.427816
 31
0.0
  0
LINE
  5
3B3B
  8
0
 62
     7
 10
-55.957771
 20
224.438723
 30
0.0
 11
-55.957771
 21
162.427816
 31
0.0
  0
LINE
  5
3B3C
  8
0
 62
     7
 10
-56.457771
 20
95.238723
 30
0.0
 11
-56.457771
 21
224.438723
 31
0.0
  0
LINE
  5
3B3D
  8
0
 62
     7
 10
-56.557771
 20
170.088723
 30
0.0
 11
-56.557771
 21
164.788723
 31
0.0
  0
LINE
  5
3B3E
  8
0
 62
     7
 10
-59.157771
 20
170.088723
 30
0.0
 11
-59.157771
 21
164.788723
 31
0.0
  0
LINE
  5
3B3F
  8
0
 62
     7
 10
-59.357771
 20
170.438723
 30
0.0
 11
-59.357771
 21
164.438723
 31
0.0
  0
ARC
  5
3B41
  8
0
 62
     7
 10
-19.857771
 20
143.538723
 30
0.0
 40
2.099998
 50
180.0
 51
353.929207
  0
ARC
  5
3B42
  8
0
 62
     7
 10
-19.857771
 20
143.538723
 30
0.0
 40
2.4
 50
180.0
 51
353.929207
  0
POLYLINE
  5
3B43
  8
0
 62
     7
 66
     1
 10
0.0
 20
0.0
 30
0.0
  0
VERTEX
  5
40C7
  8
0
 62
     7
 10
-16.305689
 20
139.996721
 30
0.0
  0
VERTEX
  5
40C8
  8
0
 62
     7
 10
-16.59398
 20
139.820752
 30
0.0
  0
VERTEX
  5
40C9
  8
0
 62
     7
 10
-16.882172
 20
139.659976
 30
0.0
  0
VERTEX
  5
40CA
  8
0
 62
     7
 10
-17.169211
 20
139.513034
 30
0.0
  0
VERTEX
  5
40CB
  8
0
 62
     7
 10
-17.454321
 20
139.3787
 30
0.0
  0
VERTEX
  5
40CC
  8
0
 62
     7
 10
-17.736953
 20
139.25586
 30
0.0
  0
VERTEX
  5
40CD
  8
0
 62
     7
 10
-18.016746
 20
139.143505
 30
0.0
  0
VERTEX
  5
40CE
  8
0
 62
     7
 10
-18.293596
 20
139.040721
 30
0.0
  0
VERTEX
  5
40CF
  8
0
 62
     7
 10
-18.567426
 20
138.946679
 30
0.0
  0
VERTEX
  5
40D0
  8
0
 62
     7
 10
-18.838409
 20
138.860625
 30
0.0
  0
VERTEX
  5
40D1
  8
0
 62
     7
 10
-19.106821
 20
138.781879
 30
0.0
  0
VERTEX
  5
40D2
  8
0
 62
     7
 10
-19.373115
 20
138.709822
 30
0.0
  0
VERTEX
  5
40D3
  8
0
 62
     7
 10
-19.637911
 20
138.643892
 30
0.0
  0
VERTEX
  5
40D4
  8
0
 62
     7
 10
-19.902025
 20
138.583576
 30
0.0
  0
VERTEX
  5
40D5
  8
0
 62
     7
 10
-20.166646
 20
138.528412
 30
0.0
  0
VERTEX
  5
40D6
  8
0
 62
     7
 10
-20.433233
 20
138.477977
 30
0.0
  0
VERTEX
  5
40D7
  8
0
 62
     7
 10
-20.703912
 20
138.43189
 30
0.0
  0
VERTEX
  5
40D8
  8
0
 62
     7
 10
-20.981752
 20
138.389801
 30
0.0
  0
VERTEX
  5
40D9
  8
0
 62
     7
 10
-21.271594
 20
138.3514
 30
0.0
  0
VERTEX
  5
40DA
  8
0
 62
     7
 10
-21.581162
 20
138.316437
 30
0.0
  0
VERTEX
  5
40DB
  8
0
 62
     7
 10
-21.926425
 20
138.28467
 30
0.0
  0
VERTEX
  5
40DC
  8
0
 62
     7
 10
-22.351154
 20
138.255854
 30
0.0
  0
SEQEND
  5
40DD
  8
0
 62
     7
  0
LINE
  5
3B44
  8
0
 62
     7
 10
-22.351154
 20
138.238723
 30
0.0
 11
-14.527198
 21
138.238723
 31
0.0
  0
LINE
  5
3B45
  8
0
 62
     7
 10
-22.351154
 20
137.938723
 30
0.0
 11
-11.657839
 21
137.938723
 31
0.0
  0
LINE
  5
3B46
  8
0
 62
     7
 10
-35.457771
 20
137.638723
 30
0.0
 11
-12.457828
 21
137.638723
 31
0.0
  0
LINE
  5
3B47
  8
0
 62
     7
 10
-36.957771
 20
137.338723
 30
0.0
 11
-14.857771
 21
137.338723
 31
0.0
  0
LINE
  5
3B48
  8
0
 62
     7
 10
-36.957771
 20
137.038723
 30
0.0
 11
-14.557771
 21
137.038723
 31
0.0
  0
LINE
  5
3B49
  8
0
 62
     7
 10
-22.757775
 20
138.338722
 30
0.0
 11
-21.674208
 21
138.407851
 31
0.0
  0
POLYLINE
  5
3B4A
  8
0
 62
     7
 66
     1
 10
0.0
 20
0.0
 30
0.0
  0
VERTEX
  5
40DE
  8
0
 62
     7
 10
-22.757771
 20
138.638858
 30
0.0
  0
VERTEX
  5
40DF
  8
0
 62
     7
 10
-21.695076
 20
138.707249
 30
0.0
  0
VERTEX
  5
40E0
  8
0
 62
     7
 10
-20.524153
 20
138.869874
 30
0.0
  0
VERTEX
  5
40E1
  8
0
 62
     7
 10
-19.239083
 20
139.165641
 30
0.0
  0
VERTEX
  5
40E2
  8
0
 62
     7
 10
-17.957843
 20
139.609484
 30
0.0
  0
VERTEX
  5
40E3
  8
0
 62
     7
 10
-16.863922
 20
140.149315
 30
0.0
  0
VERTEX
  5
40E4
  8
0
 62
     7
 10
-15.979684
 20
140.75481
 30
0.0
  0
VERTEX
  5
40E5
  8
0
 62
     7
 10
-15.29908
 20
141.409634
 30
0.0
  0
VERTEX
  5
40E6
  8
0
 62
     7
 10
-14.825932
 20
142.088567
 30
0.0
  0
VERTEX
  5
40E7
  8
0
 62
     7
 10
-14.557244
 20
142.754296
 30
0.0
  0
VERTEX
  5
40E8
  8
0
 62
     7
 10
-14.465996
 20
143.419814
 30
0.0
  0
VERTEX
  5
40E9
  8
0
 62
     7
 10
-14.547476
 20
144.085657
 30
0.0
  0
VERTEX
  5
40EA
  8
0
 62
     7
 10
-14.805526
 20
144.750718
 30
0.0
  0
VERTEX
  5
40EB
  8
0
 62
     7
 10
-15.266518
 20
145.429486
 30
0.0
  0
VERTEX
  5
40EC
  8
0
 62
     7
 10
-15.93565
 20
146.086659
 30
0.0
  0
VERTEX
  5
40ED
  8
0
 62
     7
 10
-16.808261
 20
146.69539
 30
0.0
  0
VERTEX
  5
40EE
  8
0
 62
     7
 10
-17.093257
 20
146.838834
 30
0.0
  0
SEQEND
  5
40EF
  8
0
 62
     7
  0
LINE
  5
3B4B
  8
0
 62
     7
 10
-29.307771
 20
117.338723
 30
0.0
 11
-17.222412
 21
117.233256
 31
0.0
  0
LINE
  5
3B4C
  8
0
 62
     7
 10
-14.557771
 20
118.038723
 30
0.0
 11
-36.957771
 21
118.038723
 31
0.0
  0
LINE
  5
3B4D
  8
0
 62
     7
 10
-14.857771
 20
117.738723
 30
0.0
 11
-36.957771
 21
117.738723
 31
0.0
  0
LINE
  5
3B4E
  8
0
 62
     7
 10
-29.507771
 20
117.338723
 30
0.0
 11
-17.660389
 21
117.338723
 31
0.0
  0
LINE
  5
3B4F
  8
0
 62
     7
 10
-29.307771
 20
115.962029
 30
0.0
 11
-21.607771
 21
115.894832
 31
0.0
  0
LINE
  5
3B50
  8
0
 62
     7
 10
-21.807771
 20
115.738723
 30
0.0
 11
-21.607771
 21
115.736978
 31
0.0
  0
LINE
  5
3B51
  8
0
 62
     7
 10
-17.553946
 20
103.788723
 30
0.0
 11
-37.557771
 21
103.788723
 31
0.0
  0
LINE
  5
3B52
  8
0
 62
     7
 10
-38.248089
 20
103.288723
 30
0.0
 11
-18.048364
 21
103.288723
 31
0.0
  0
LINE
  5
3B53
  8
0
 62
     7
 10
-21.807771
 20
107.738723
 30
0.0
 11
-21.607771
 21
107.740469
 31
0.0
  0
LINE
  5
3B54
  8
0
 62
     7
 10
-37.557771
 20
107.39953
 30
0.0
 11
-21.607771
 21
107.538723
 31
0.0
  0
LINE
  5
3B55
  8
0
 62
     7
 10
-19.257771
 20
94.588723
 30
0.0
 11
-37.132757
 21
94.588723
 31
0.0
  0
LINE
  5
3B56
  8
0
 62
     7
 10
-25.857771
 20
137.338723
 30
0.0
 11
-25.857771
 21
117.738723
 31
0.0
  0
LINE
  5
3B57
  8
0
 62
     7
 10
-36.257771
 20
106.738723
 30
0.0
 11
-36.257771
 21
161.838723
 31
0.0
  0
LINE
  5
3B58
  8
0
 62
     7
 10
-36.957771
 20
161.838723
 30
0.0
 11
-36.957771
 21
106.738723
 31
0.0
  0
LINE
  5
3B59
  8
0
 62
     7
 10
-38.957771
 20
106.738723
 30
0.0
 11
-38.957771
 21
161.838723
 31
0.0
  0
LINE
  5
3B5A
  8
0
 62
     7
 10
-41.957771
 20
106.738723
 30
0.0
 11
-41.957771
 21
161.838723
 31
0.0
  0
LINE
  5
3B5B
  8
0
 62
     7
 10
-45.957771
 20
106.738723
 30
0.0
 11
-45.957771
 21
161.838723
 31
0.0
  0
LINE
  5
3B5C
  8
0
 62
     7
 10
-50.457771
 20
106.738723
 30
0.0
 11
-50.457771
 21
161.838723
 31
0.0
  0
LINE
  5
3B5D
  8
0
 62
     7
 10
-55.957771
 20
106.738723
 30
0.0
 11
-55.957771
 21
161.838723
 31
0.0
  0
LINE
  5
3B5E
  8
0
 62
     7
 10
-56.457771
 20
106.738723
 30
0.0
 11
-36.257771
 21
106.738723
 31
0.0
  0
LINE
  5
3B5F
  8
0
 62
     7
 10
-56.457771
 20
106.538723
 30
0.0
 11
-39.157771
 21
106.538723
 31
0.0
  0
LINE
  5
3B60
  8
0
 62
     7
 10
-56.457771
 20
106.067677
 30
0.0
 11
-38.057771
 21
106.228251
 31
0.0
  0
LINE
  5
3B61
  8
0
 62
     7
 10
-57.770206
 20
92.638723
 30
0.0
 11
-40.557771
 21
92.638723
 31
0.0
  0
LINE
  5
3B62
  8
0
 62
     7
 10
-57.770206
 20
92.138723
 30
0.0
 11
-37.057771
 21
92.138723
 31
0.0
  0
LINE
  5
3B63
  8
0
 62
     7
 10
-41.857771
 20
106.538723
 30
0.0
 11
-41.857771
 21
106.195089
 31
0.0
  0
LINE
  5
3B64
  8
0
 62
     7
 10
-54.857771
 20
106.08164
 30
0.0
 11
-54.857771
 21
106.538723
 31
0.0
  0
LINE
  5
3B65
  8
0
 62
     7
 10
-59.557771
 20
95.238723
 30
0.0
 11
-59.557771
 21
89.838723
 31
0.0
  0
ARC
  5
3B66
  8
0
 62
     7
 10
337.60988
 20
146.763227
 30
0.0
 40
399.5
 50
187.515993
 51
187.723767
  0
ARC
  5
3B67
  8
0
 62
     7
 10
-57.770206
 20
93.138723
 30
0.0
 40
0.499998
 50
187.723767
 51
270.0
  0
ARC
  5
3B68
  8
0
 62
     7
 10
-57.770206
 20
93.138723
 30
0.0
 40
1.0
 50
187.723767
 51
270.0
  0
LINE
  5
3B69
  8
0
 62
     7
 10
-58.26567
 20
93.071525
 30
0.0
 11
-58.761134
 21
93.004326
 31
0.0
  0
ARC
  5
3B6A
  8
0
 62
     7
 10
337.60988
 20
146.763227
 30
0.0
 40
400.0
 50
187.400905
 51
187.723767
  0
LINE
  5
3B6B
  8
0
 62
     7
 10
-58.457771
 20
95.238723
 30
0.0
 11
-58.457771
 21
94.507455
 31
0.0
  0
LINE
  5
3B6C
  8
0
 62
     7
 10
-58.957771
 20
95.238723
 30
0.0
 11
-58.957771
 21
94.474624
 31
0.0
  0
LINE
  5
3B6D
  8
0
 62
     7
 10
-58.457771
 20
94.507455
 30
0.0
 11
-58.957771
 21
94.474624
 31
0.0
  0
LINE
  5
3B6E
  8
0
 62
     7
 10
-57.770206
 20
92.638723
 30
0.0
 11
-57.770206
 21
92.138723
 31
0.0
  0
LINE
  5
3B6F
  8
0
 62
     7
 10
-56.457771
 20
106.238723
 30
0.0
 11
-54.857771
 21
106.238723
 31
0.0
  0
LINE
  5
3B70
  8
0
 62
     7
 10
-41.857771
 20
106.495077
 30
0.0
 11
-54.857771
 21
106.381628
 31
0.0
  0
POLYLINE
  5
3B71
  8
0
 62
     7
 66
     1
 10
0.0
 20
0.0
 30
0.0
  0
VERTEX
  5
40F0
  8
0
 62
     7
 10
-54.050616
 20
114.321844
 30
0.0
  0
VERTEX
  5
40F1
  8
0
 62
     7
 10
-53.956024
 20
114.659165
 30
0.0
  0
VERTEX
  5
40F2
  8
0
 62
     7
 10
-53.912022
 20
114.995728
 30
0.0
  0
VERTEX
  5
40F3
  8
0
 62
     7
 10
-53.915509
 20
115.33158
 30
0.0
  0
VERTEX
  5
40F4
  8
0
 62
     7
 10
-53.966634
 20
115.667795
 30
0.0
  0
VERTEX
  5
40F5
  8
0
 62
     7
 10
-54.068968
 20
116.004786
 30
0.0
  0
VERTEX
  5
40F6
  8
0
 62
     7
 10
-54.180523
 20
116.238723
 30
0.0
  0
SEQEND
  5
40F7
  8
0
 62
     7
  0
LINE
  5
3B72
  8
0
 62
     7
 10
-53.157771
 20
116.238723
 30
0.0
 11
-53.157771
 21
113.938723
 31
0.0
  0
LINE
  5
3B73
  8
0
 62
     7
 10
-53.257771
 20
116.238723
 30
0.0
 11
-53.257771
 21
114.038723
 31
0.0
  0
LINE
  5
3B74
  8
0
 62
     7
 10
-54.257771
 20
113.938723
 30
0.0
 11
-54.257771
 21
116.238723
 31
0.0
  0
LINE
  5
3B75
  8
0
 62
     7
 10
-54.050616
 20
114.321844
 30
0.0
 11
-53.257771
 21
114.321844
 31
0.0
  0
LINE
  5
3B76
  8
0
 62
     7
 10
-53.157771
 20
113.938723
 30
0.0
 11
-54.257771
 21
113.938723
 31
0.0
  0
LINE
  5
3B77
  8
0
 62
     7
 10
-54.257771
 20
114.225246
 30
0.0
 11
-54.050616
 21
114.321844
 31
0.0
  0
LINE
  5
3B78
  8
0
 62
     7
 10
-53.257771
 20
115.739237
 30
0.0
 11
-53.157771
 21
115.74011
 31
0.0
  0
LINE
  5
3B79
  8
0
 62
     7
 10
-53.257771
 20
115.439248
 30
0.0
 11
-53.157771
 21
115.440121
 31
0.0
  0
LINE
  5
3B7A
  8
0
 62
     7
 10
-54.257771
 20
116.238723
 30
0.0
 11
-53.157771
 21
116.238723
 31
0.0
  0
LINE
  5
3B7B
  8
0
 62
     7
 10
-37.557771
 20
103.788723
 30
0.0
 11
-37.557771
 21
106.738723
 31
0.0
  0
LINE
  5
3B7C
  8
0
 62
     7
 10
-38.057771
 20
103.288723
 30
0.0
 11
-38.057771
 21
106.738723
 31
0.0
  0
POLYLINE
  5
3B7D
  8
0
 62
     7
 66
     1
 10
0.0
 20
0.0
 30
0.0
  0
VERTEX
  5
40F8
  8
0
 62
     7
 10
-37.806206
 20
103.288723
 30
0.0
  0
VERTEX
  5
40F9
  8
0
 62
     7
 10
-38.016319
 20
99.735375
 30
0.0
  0
VERTEX
  5
40FA
  8
0
 62
     7
 10
-38.226392
 20
96.185732
 30
0.0
  0
VERTEX
  5
40FB
  8
0
 62
     7
 10
-38.43649
 20
92.638723
 30
0.0
  0
SEQEND
  5
40FC
  8
0
 62
     7
  0
LINE
  5
3B7E
  8
0
 62
     7
 10
-37.235465
 20
92.638723
 30
0.0
 11
-36.67453
 21
103.288723
 31
0.0
  0
POLYLINE
  5
3B7F
  8
0
 62
     7
 66
     1
 10
0.0
 20
0.0
 30
0.0
  0
VERTEX
  5
40FD
  8
0
 62
     7
 10
-38.248089
 20
103.288723
 30
0.0
  0
VERTEX
  5
40FE
  8
0
 62
     7
 10
-38.311013
 20
99.735401
 30
0.0
  0
VERTEX
  5
40FF
  8
0
 62
     7
 10
-38.373808
 20
96.185757
 30
0.0
  0
VERTEX
  5
4100
  8
0
 62
     7
 10
-38.43649
 20
92.638723
 30
0.0
  0
SEQEND
  5
4101
  8
0
 62
     7
  0
LINE
  5
3B80
  8
0
 62
     7
 10
-38.43649
 20
92.638723
 30
0.0
 11
-38.43649
 21
104.984545
 31
0.0
  0
LINE
  5
3B81
  8
0
 62
     7
 10
-39.329519
 20
92.138723
 30
0.0
 11
-39.329519
 21
106.188723
 31
0.0
  0
LINE
  5
3B82
  8
0
 62
     7
 10
-40.557771
 20
92.138723
 30
0.0
 11
-40.557771
 21
106.206434
 31
0.0
  0
LINE
  5
3B83
  8
0
 62
     7
 10
-38.43649
 20
92.638723
 30
0.0
 11
-40.535954
 21
92.638723
 31
0.0
  0
POLYLINE
  5
3B84
  8
0
 62
     7
 66
     1
 10
0.0
 20
0.0
 30
0.0
  0
VERTEX
  5
4102
  8
0
 62
     7
 10
-38.914255
 20
92.138723
 30
0.0
  0
VERTEX
  5
4103
  8
0
 62
     7
 10
-38.769283
 20
92.162494
 30
0.0
  0
VERTEX
  5
4104
  8
0
 62
     7
 10
-38.636445
 20
92.232399
 30
0.0
  0
VERTEX
  5
4105
  8
0
 62
     7
 10
-38.529711
 20
92.342524
 30
0.0
  0
VERTEX
  5
4106
  8
0
 62
     7
 10
-38.460501
 20
92.482548
 30
0.0
  0
VERTEX
  5
4107
  8
0
 62
     7
 10
-38.43649
 20
92.638723
 30
0.0
  0
SEQEND
  5
4108
  8
0
 62
     7
  0
LINE
  5
3B85
  8
0
 62
     7
 10
-40.531591
 20
92.138723
 30
0.0
 11
-40.557771
 21
95.138723
 31
0.0
  0
LINE
  5
3B86
  8
0
 62
     7
 10
-40.539482
 20
93.043048
 30
0.0
 11
-40.557771
 21
93.043048
 31
0.0
  0
LINE
  5
3B87
  8
0
 62
     7
 10
-40.557771
 20
92.436105
 30
0.0
 11
-40.534186
 21
92.436105
 31
0.0
  0
ARC
  5
3B88
  8
0
 62
     7
 10
-37.057771
 20
92.638723
 30
0.0
 40
0.5
 50
270.0
 51
0.0
  0
LINE
  5
3B89
  8
0
 62
     7
 10
-36.557771
 20
94.588723
 30
0.0
 11
-36.557771
 21
92.638723
 31
0.0
  0
LINE
  5
3B8A
  8
0
 62
     7
 10
-37.066028
 20
94.588723
 30
0.0
 11
-37.066028
 21
94.184139
 31
0.0
  0
LINE
  5
3B8B
  8
0
 62
     7
 10
-37.066028
 20
94.184139
 30
0.0
 11
-37.154053
 21
94.184393
 31
0.0
  0
LINE
  5
3B8C
  8
0
 62
     7
 10
-37.235465
 20
92.638723
 30
0.0
 11
-38.43649
 21
92.638723
 31
0.0
  0
LINE
  5
3B8D
  8
0
 62
     7
 10
-36.557771
 20
92.638723
 30
0.0
 11
-37.235465
 21
92.638723
 31
0.0
  0
POLYLINE
  5
3B8E
  8
0
 62
     7
 66
     1
 10
0.0
 20
0.0
 30
0.0
  0
VERTEX
  5
4109
  8
0
 62
     7
 10
-36.921061
 20
101.427858
 30
0.0
  0
VERTEX
  5
410A
  8
0
 62
     7
 10
-36.930954
 20
100.799278
 30
0.0
  0
VERTEX
  5
410B
  8
0
 62
     7
 10
-36.957788
 20
100.141749
 30
0.0
  0
VERTEX
  5
410C
  8
0
 62
     7
 10
-36.999675
 20
99.490571
 30
0.0
  0
VERTEX
  5
410D
  8
0
 62
     7
 10
-37.055694
 20
98.862734
 30
0.0
  0
VERTEX
  5
410E
  8
0
 62
     7
 10
-37.123114
 20
98.295547
 30
0.0
  0
VERTEX
  5
410F
  8
0
 62
     7
 10
-37.201309
 20
97.802712
 30
0.0
  0
VERTEX
  5
4110
  8
0
 62
     7
 10
-37.286718
 20
97.414642
 30
0.0
  0
VERTEX
  5
4111
  8
0
 62
     7
 10
-37.378107
 20
97.143025
 30
0.0
  0
VERTEX
  5
4112
  8
0
 62
     7
 10
-37.471467
 20
97.005085
 30
0.0
  0
SEQEND
  5
4113
  8
0
 62
     7
  0
POLYLINE
  5
3B8F
  8
0
 62
     7
 66
     1
 10
0.0
 20
0.0
 30
0.0
  0
VERTEX
  5
4114
  8
0
 62
     7
 10
-37.559299
 20
97.005085
 30
0.0
  0
VERTEX
  5
4115
  8
0
 62
     7
 10
-37.64442
 20
97.141941
 30
0.0
  0
VERTEX
  5
4116
  8
0
 62
     7
 10
-37.719458
 20
97.412228
 30
0.0
  0
VERTEX
  5
4117
  8
0
 62
     7
 10
-37.7797
 20
97.799743
 30
0.0
  0
VERTEX
  5
4118
  8
0
 62
     7
 10
-37.822471
 20
98.293327
 30
0.0
  0
VERTEX
  5
4119
  8
0
 62
     7
 10
-37.844174
 20
98.861947
 30
0.0
  0
VERTEX
  5
411A
  8
0
 62
     7
 10
-37.843436
 20
99.491308
 30
0.0
  0
VERTEX
  5
411B
  8
0
 62
     7
 10
-37.819713
 20
100.143204
 30
0.0
  0
VERTEX
  5
411C
  8
0
 62
     7
 10
-37.773455
 20
100.800341
 30
0.0
  0
VERTEX
  5
411D
  8
0
 62
     7
 10
-37.70711
 20
101.427858
 30
0.0
  0
SEQEND
  5
411E
  8
0
 62
     7
  0
POLYLINE
  5
3B90
  8
0
 62
     7
 66
     1
 10
0.0
 20
0.0
 30
0.0
  0
VERTEX
  5
411F
  8
0
 62
     7
 10
-37.486743
 20
97.538723
 30
0.0
  0
VERTEX
  5
4120
  8
0
 62
     7
 10
-37.510861
 20
97.36065
 30
0.0
  0
VERTEX
  5
4121
  8
0
 62
     7
 10
-37.535041
 20
97.182804
 30
0.0
  0
VERTEX
  5
4122
  8
0
 62
     7
 10
-37.559299
 20
97.005085
 30
0.0
  0
SEQEND
  5
4123
  8
0
 62
     7
  0
POLYLINE
  5
3B91
  8
0
 62
     7
 66
     1
 10
0.0
 20
0.0
 30
0.0
  0
VERTEX
  5
4124
  8
0
 62
     7
 10
-37.471467
 20
97.005085
 30
0.0
  0
VERTEX
  5
4125
  8
0
 62
     7
 10
-37.47647
 20
97.182974
 30
0.0
  0
VERTEX
  5
4126
  8
0
 62
     7
 10
-37.481562
 20
97.360854
 30
0.0
  0
VERTEX
  5
4127
  8
0
 62
     7
 10
-37.486743
 20
97.538723
 30
0.0
  0
SEQEND
  5
4128
  8
0
 62
     7
  0
LINE
  5
3B92
  8
0
 62
     7
 10
-37.73979
 20
97.543014
 30
0.0
 11
-37.486743
 21
97.538723
 31
0.0
  0
LINE
  5
3B93
  8
0
 62
     7
 10
-40.557771
 20
106.188723
 30
0.0
 11
-38.634493
 21
106.188723
 31
0.0
  0
LINE
  5
3B94
  8
0
 62
     7
 10
-40.557771
 20
106.038723
 30
0.0
 11
-38.456548
 21
106.038723
 31
0.0
  0
LINE
  5
3B95
  8
0
 62
     7
 10
-38.057771
 20
103.288723
 30
0.0
 11
-37.557771
 21
103.788723
 31
0.0
  0
POLYLINE
  5
3B96
  8
0
 62
     7
 66
     1
 10
0.0
 20
0.0
 30
0.0
  0
VERTEX
  5
4129
  8
0
 62
     7
 10
-37.626815
 20
101.983227
 30
0.0
  0
VERTEX
  5
412A
  8
0
 62
     7
 10
-37.542194
 20
102.429752
 30
0.0
  0
VERTEX
  5
412B
  8
0
 62
     7
 10
-37.451135
 20
102.796372
 30
0.0
  0
VERTEX
  5
412C
  8
0
 62
     7
 10
-37.358951
 20
103.065489
 30
0.0
  0
VERTEX
  5
412D
  8
0
 62
     7
 10
-37.267777
 20
103.232668
 30
0.0
  0
VERTEX
  5
412E
  8
0
 62
     7
 10
-37.182593
 20
103.288723
 30
0.0
  0
SEQEND
  5
412F
  8
0
 62
     7
  0
POLYLINE
  5
3B97
  8
0
 62
     7
 66
     1
 10
0.0
 20
0.0
 30
0.0
  0
VERTEX
  5
4130
  8
0
 62
     7
 10
-36.928658
 20
101.983227
 30
0.0
  0
VERTEX
  5
4131
  8
0
 62
     7
 10
-36.950001
 20
101.801535
 30
0.0
  0
VERTEX
  5
4132
  8
0
 62
     7
 10
-36.9714
 20
101.620071
 30
0.0
  0
VERTEX
  5
4133
  8
0
 62
     7
 10
-36.992866
 20
101.438723
 30
0.0
  0
SEQEND
  5
4134
  8
0
 62
     7
  0
LINE
  5
3B98
  8
0
 62
     7
 10
-38.456548
 20
104.98437
 30
0.0
 11
-38.456548
 21
106.038723
 31
0.0
  0
POLYLINE
  5
3B99
  8
0
 62
     7
 66
     1
 10
0.0
 20
0.0
 30
0.0
  0
VERTEX
  5
4135
  8
0
 62
     7
 10
-37.608612
 20
101.438723
 30
0.0
  0
VERTEX
  5
4136
  8
0
 62
     7
 10
-37.614601
 20
101.620236
 30
0.0
  0
VERTEX
  5
4137
  8
0
 62
     7
 10
-37.620669
 20
101.801738
 30
0.0
  0
VERTEX
  5
4138
  8
0
 62
     7
 10
-37.626815
 20
101.983227
 30
0.0
  0
SEQEND
  5
4139
  8
0
 62
     7
  0
POLYLINE
  5
3B9A
  8
0
 62
     7
 66
     1
 10
0.0
 20
0.0
 30
0.0
  0
VERTEX
  5
413A
  8
0
 62
     7
 10
-37.182593
 20
103.288723
 30
0.0
  0
VERTEX
  5
413B
  8
0
 62
     7
 10
-37.106018
 20
103.23248
 30
0.0
  0
VERTEX
  5
413C
  8
0
 62
     7
 10
-37.040484
 20
103.064678
 30
0.0
  0
VERTEX
  5
413D
  8
0
 62
     7
 10
-36.988793
 20
102.794829
 30
0.0
  0
VERTEX
  5
413E
  8
0
 62
     7
 10
-36.951125
 20
102.427988
 30
0.0
  0
VERTEX
  5
413F
  8
0
 62
     7
 10
-36.928658
 20
101.983227
 30
0.0
  0
SEQEND
  5
4140
  8
0
 62
     7
  0
POLYLINE
  5
3B9B
  8
0
 62
     7
 66
     1
 10
0.0
 20
0.0
 30
0.0
  0
VERTEX
  5
4141
  8
0
 62
     7
 10
-38.634493
 20
106.188723
 30
0.0
  0
VERTEX
  5
4142
  8
0
 62
     7
 10
-38.562519
 20
106.176436
 30
0.0
  0
VERTEX
  5
4143
  8
0
 62
     7
 10
-38.50519
 20
106.142771
 30
0.0
  0
VERTEX
  5
4144
  8
0
 62
     7
 10
-38.468141
 20
106.092717
 30
0.0
  0
VERTEX
  5
4145
  8
0
 62
     7
 10
-38.456548
 20
106.038723
 30
0.0
  0
SEQEND
  5
4146
  8
0
 62
     7
  0
POLYLINE
  5
3B9C
  8
0
 62
     7
 66
     1
 10
0.0
 20
0.0
 30
0.0
  0
VERTEX
  5
4147
  8
0
 62
     7
 10
-36.921061
 20
101.427858
 30
0.0
  0
VERTEX
  5
4148
  8
0
 62
     7
 10
-36.944659
 20
101.43148
 30
0.0
  0
VERTEX
  5
4149
  8
0
 62
     7
 10
-36.968594
 20
101.435102
 30
0.0
  0
VERTEX
  5
414A
  8
0
 62
     7
 10
-36.992866
 20
101.438723
 30
0.0
  0
SEQEND
  5
414B
  8
0
 62
     7
  0
LINE
  5
3B9D
  8
0
 62
     7
 10
-38.456548
 20
104.98437
 30
0.0
 11
-38.057764
 21
104.987851
 31
0.0
  0
LINE
  5
3B9E
  8
0
 62
     7
 10
-37.626815
 20
101.982762
 30
0.0
 11
-36.928658
 21
101.983227
 31
0.0
  0
LINE
  5
3B9F
  8
0
 62
     7
 10
-37.608568
 20
101.433516
 30
0.0
 11
-36.992866
 21
101.438723
 31
0.0
  0
LINE
  5
3BA0
  8
0
 62
     7
 10
-37.707052
 20
101.421081
 30
0.0
 11
-36.921061
 21
101.427858
 31
0.0
  0
POLYLINE
  5
3BA1
  8
0
 62
     7
 66
     1
 10
0.0
 20
0.0
 30
0.0
  0
VERTEX
  5
414C
  8
0
 62
     7
 10
-37.608612
 20
101.438723
 30
0.0
  0
VERTEX
  5
414D
  8
0
 62
     7
 10
-37.641106
 20
101.435101
 30
0.0
  0
VERTEX
  5
414E
  8
0
 62
     7
 10
-37.673938
 20
101.431479
 30
0.0
  0
VERTEX
  5
414F
  8
0
 62
     7
 10
-37.70711
 20
101.427858
 30
0.0
  0
SEQEND
  5
4150
  8
0
 62
     7
  0
LINE
  5
3BA2
  8
0
 62
     7
 10
-35.457771
 20
117.338723
 30
0.0
 11
-29.560132
 21
117.338723
 31
0.0
  0
LINE
  5
3BA3
  8
0
 62
     7
 10
-37.557771
 20
117.268472
 30
0.0
 11
-29.507771
 21
117.338723
 31
0.0
  0
LINE
  5
3BA4
  8
0
 62
     7
 10
-21.807771
 20
107.743959
 30
0.0
 11
-36.957771
 21
107.743959
 31
0.0
  0
LINE
  5
3BA5
  8
0
 62
     7
 10
-39.157771
 20
106.738723
 30
0.0
 11
-39.157771
 21
106.538723
 31
0.0
  0
LINE
  5
3BA6
  8
0
 62
     7
 10
-35.457771
 20
117.286798
 30
0.0
 11
-35.457771
 21
117.738723
 31
0.0
  0
LINE
  5
3BA7
  8
0
 62
     7
 10
-33.807771
 20
117.338723
 30
0.0
 11
-33.807771
 21
117.301198
 31
0.0
  0
LINE
  5
3BA8
  8
0
 62
     7
 10
-29.307771
 20
117.338723
 30
0.0
 11
-29.307771
 21
115.962029
 31
0.0
  0
LINE
  5
3BA9
  8
0
 62
     7
 10
-29.560132
 20
115.733487
 30
0.0
 11
-29.560132
 21
117.338266
 31
0.0
  0
LINE
  5
3BAA
  8
0
 62
     7
 10
-21.807771
 20
115.738723
 30
0.0
 11
-29.554896
 21
115.738723
 31
0.0
  0
LINE
  5
3BAB
  8
0
 62
     7
 10
-21.807771
 20
115.733487
 30
0.0
 11
-29.560132
 21
115.733487
 31
0.0
  0
LINE
  5
3BAC
  8
0
 62
     7
 10
-21.807771
 20
115.733487
 30
0.0
 11
-21.807771
 21
107.743959
 31
0.0
  0
LINE
  5
3BAD
  8
0
 62
     7
 10
-21.807771
 20
107.738723
 30
0.0
 11
-21.807771
 21
107.536978
 31
0.0
  0
LINE
  5
3BAE
  8
0
 62
     7
 10
-21.807771
 20
115.896577
 30
0.0
 11
-21.807771
 21
115.738723
 31
0.0
  0
LINE
  5
3BAF
  8
0
 62
     7
 10
-29.507771
 20
117.338723
 30
0.0
 11
-29.507771
 21
116.713723
 31
0.0
  0
LINE
  5
3BB0
  8
0
 62
     7
 10
-29.554896
 20
116.713723
 30
0.0
 11
-29.307771
 21
116.713723
 31
0.0
  0
LINE
  5
3BB1
  8
0
 62
     7
 10
-38.957771
 20
162.422576
 30
0.0
 11
-41.957771
 21
162.427816
 31
0.0
  0
LINE
  5
3BB2
  8
0
 62
     7
 10
-43.557771
 20
162.338723
 30
0.0
 11
-34.957771
 21
162.338723
 31
0.0
  0
LINE
  5
3BB3
  8
0
 62
     7
 10
-56.457771
 20
161.838723
 30
0.0
 11
-35.457771
 21
161.838723
 31
0.0
  0
LINE
  5
3BB4
  8
0
 62
     7
 10
-42.457771
 20
162.338723
 30
0.0
 11
-35.457771
 21
162.354446
 31
0.0
  0
LINE
  5
3BB5
  8
0
 62
     7
 10
-41.457771
 20
130.588723
 30
0.0
 11
-39.457771
 21
130.588723
 31
0.0
  0
LINE
  5
3BB6
  8
0
 62
     7
 10
-39.457771
 20
128.088723
 30
0.0
 11
-41.457771
 21
128.088723
 31
0.0
  0
LINE
  5
3BB7
  8
0
 62
     7
 10
-41.457771
 20
128.088723
 30
0.0
 11
-41.457771
 21
130.588723
 31
0.0
  0
LINE
  5
3BB8
  8
0
 62
     7
 10
-50.457771
 20
162.422576
 30
0.0
 11
-55.957771
 21
162.427816
 31
0.0
  0
LINE
  5
3BB9
  8
0
 62
     7
 10
-42.457771
 20
162.391131
 30
0.0
 11
-53.900776
 21
162.391131
 31
0.0
  0
LINE
  5
3BBA
  8
0
 62
     7
 10
-53.900776
 20
162.391131
 30
0.0
 11
-56.457771
 21
162.402855
 31
0.0
  0
LINE
  5
3BBB
  8
0
 62
     7
 10
-59.157771
 20
164.788723
 30
0.0
 11
-56.557771
 21
164.788723
 31
0.0
  0
LINE
  5
3BBC
  8
0
 62
     7
 10
-59.357771
 20
164.438723
 30
0.0
 11
-56.457771
 21
164.438723
 31
0.0
  0
LINE
  5
3BBD
  8
0
 62
     7
 10
-55.957771
 20
162.422576
 30
0.0
 11
-56.457771
 21
162.422576
 31
0.0
  0
LINE
  5
3BBE
  8
0
 62
     7
 10
-45.957771
 20
162.422576
 30
0.0
 11
-50.457771
 21
162.427816
 31
0.0
  0
LINE
  5
3BBF
  8
0
 62
     7
 10
-41.957771
 20
162.422576
 30
0.0
 11
-45.957771
 21
162.427816
 31
0.0
  0
LINE
  5
3BC0
  8
0
 62
     7
 10
-42.457771
 20
162.338723
 30
0.0
 11
-42.457771
 21
162.391131
 31
0.0
  0
LINE
  5
3BC1
  8
0
 62
     7
 10
-43.557771
 20
162.391131
 30
0.0
 11
-43.557771
 21
161.838723
 31
0.0
  0
ARC
  5
3BC2
  8
0
 62
     7
 10
-20.357771
 20
143.538723
 30
0.0
 40
4.0
 50
148.211669
 51
211.788331
  0
POLYLINE
  5
3BC3
  8
0
 62
     7
 66
     1
 10
0.0
 20
0.0
 30
0.0
  0
VERTEX
  5
4151
  8
0
 62
     7
 10
-22.757771
 20
145.338723
 30
0.0
  0
VERTEX
  5
4152
  8
0
 62
     7
 10
-22.808983
 20
145.355714
 30
0.0
  0
VERTEX
  5
4153
  8
0
 62
     7
 10
-22.954792
 20
145.403241
 30
0.0
  0
VERTEX
  5
4154
  8
0
 62
     7
 10
-23.177645
 20
145.473626
 30
0.0
  0
VERTEX
  5
4155
  8
0
 62
     7
 10
-23.454316
 20
145.557598
 30
0.0
  0
VERTEX
  5
4156
  8
0
 62
     7
 10
-23.757771
 20
145.645854
 30
0.0
  0
SEQEND
  5
4157
  8
0
 62
     7
  0
LINE
  5
3BC4
  8
0
 62
     7
 10
-34.957771
 20
138.238723
 30
0.0
 11
-24.257771
 21
138.238723
 31
0.0
  0
LINE
  5
3BC5
  8
0
 62
     7
 10
-34.757771
 20
137.938723
 30
0.0
 11
-24.257771
 21
137.938723
 31
0.0
  0
LINE
  5
3BC6
  8
0
 62
     7
 10
-25.857771
 20
135.438723
 30
0.0
 11
-36.957771
 21
135.438723
 31
0.0
  0
LINE
  5
3BC7
  8
0
 62
     7
 10
-37.757771
 20
135.238723
 30
0.0
 11
-25.857771
 21
135.238723
 31
0.0
  0
LINE
  5
3BC8
  8
0
 62
     7
 10
-30.957771
 20
130.838723
 30
0.0
 11
-33.057771
 21
130.838723
 31
0.0
  0
LINE
  5
3BC9
  8
0
 62
     7
 10
-31.107771
 20
129.366126
 30
0.0
 11
-32.907771
 21
129.366126
 31
0.0
  0
LINE
  5
3BCA
  8
0
 62
     7
 10
-31.107771
 20
128.938723
 30
0.0
 11
-32.907771
 21
128.938723
 31
0.0
  0
LINE
  5
3BCB
  8
0
 62
     7
 10
-33.057771
 20
128.838723
 30
0.0
 11
-30.957771
 21
128.838723
 31
0.0
  0
LINE
  5
3BCC
  8
0
 62
     7
 10
-39.457771
 20
130.588723
 30
0.0
 11
-39.457771
 21
128.088723
 31
0.0
  0
LINE
  5
3BCD
  8
0
 62
     7
 10
-32.907771
 20
128.938723
 30
0.0
 11
-32.907771
 21
130.838723
 31
0.0
  0
LINE
  5
3BCE
  8
0
 62
     7
 10
-33.057771
 20
130.838723
 30
0.0
 11
-33.057771
 21
128.838723
 31
0.0
  0
LINE
  5
3BCF
  8
0
 62
     7
 10
-35.457771
 20
135.238723
 30
0.0
 11
-35.457771
 21
135.438723
 31
0.0
  0
ARC
  5
3BD0
  8
0
 62
     7
 10
-34.757771
 20
138.138723
 30
0.0
 40
0.2
 50
180.0
 51
270.0
  0
LINE
  5
3BD1
  8
0
 62
     7
 10
-30.957771
 20
128.838723
 30
0.0
 11
-30.957771
 21
130.838723
 31
0.0
  0
LINE
  5
3BD2
  8
0
 62
     7
 10
-31.107771
 20
128.938723
 30
0.0
 11
-31.107771
 21
130.838723
 31
0.0
  0
LINE
  5
3BD3
  8
0
 62
     7
 10
-22.757771
 20
141.738723
 30
0.0
 11
-22.757771
 21
138.338723
 31
0.0
  0
LINE
  5
3BD4
  8
0
 62
     7
 10
-23.757771
 20
141.431592
 30
0.0
 11
-23.757771
 21
138.338723
 31
0.0
  0
LINE
  5
3BD5
  8
0
 62
     7
 10
-24.257771
 20
138.338723
 30
0.0
 11
-22.139828
 21
138.338723
 31
0.0
  0
ARC
  5
3BD6
  8
0
 62
     7
 10
-25.357771
 20
138.038723
 30
0.0
 40
0.6
 50
222.394094
 51
270.0
  0
LINE
  5
3BD7
  8
0
 62
     7
 10
-24.157771
 20
137.638723
 30
0.0
 11
-24.157771
 21
137.438723
 31
0.0
  0
LINE
  5
3BD8
  8
0
 62
     7
 10
-24.257771
 20
137.938723
 30
0.0
 11
-24.257771
 21
138.338723
 31
0.0
  0
LINE
  5
3BD9
  8
0
 62
     7
 10
-24.157771
 20
137.438723
 30
0.0
 11
-25.357771
 21
137.438723
 31
0.0
  0
LINE
  5
3BDA
  8
0
 62
     7
 10
-22.139828
 20
138.378146
 30
0.0
 11
-22.139828
 21
138.268794
 31
0.0
  0
LINE
  5
3BDB
  8
0
 62
     7
 10
-22.351154
 20
137.638723
 30
0.0
 11
-22.351154
 21
138.255854
 31
0.0
  0
LINE
  5
3BDC
  8
0
 62
     7
 10
-22.491009
 20
138.338723
 30
0.0
 11
-22.491009
 21
137.638723
 31
0.0
  0
ARC
  5
3BDD
  8
0
 62
     7
 10
-20.357771
 20
143.538723
 30
0.0
 40
3.0
 50
143.130102
 51
216.869898
  0
ARC
  5
3BDE
  8
0
 62
     7
 10
-20.357771
 20
143.538723
 30
0.0
 40
2.0
 50
163.292577
 51
222.533595
  0
POLYLINE
  5
3BDF
  8
0
 62
     7
 66
     1
 10
0.0
 20
0.0
 30
0.0
  0
VERTEX
  5
4158
  8
0
 62
     7
 10
-23.757771
 20
141.431592
 30
0.0
  0
VERTEX
  5
4159
  8
0
 62
     7
 10
-23.454316
 20
141.519849
 30
0.0
  0
VERTEX
  5
415A
  8
0
 62
     7
 10
-23.177645
 20
141.60382
 30
0.0
  0
VERTEX
  5
415B
  8
0
 62
     7
 10
-22.954792
 20
141.674206
 30
0.0
  0
VERTEX
  5
415C
  8
0
 62
     7
 10
-22.808983
 20
141.721733
 30
0.0
  0
VERTEX
  5
415D
  8
0
 62
     7
 10
-22.757771
 20
141.738723
 30
0.0
  0
SEQEND
  5
415E
  8
0
 62
     7
  0
LINE
  5
3BE0
  8
0
 62
     7
 10
-21.957771
 20
143.538723
 30
0.0
 11
-22.257771
 21
143.538723
 31
0.0
  0
LINE
  5
3BE1
  8
0
 62
     7
 10
-36.257771
 20
162.422576
 30
0.0
 11
-36.957771
 21
162.422576
 31
0.0
  0
LINE
  5
3BE2
  8
0
 62
     7
 10
-36.957771
 20
162.422576
 30
0.0
 11
-38.957771
 21
162.427816
 31
0.0
  0
POLYLINE
  5
3BE3
  8
0
 62
     7
 66
     1
 10
0.0
 20
0.0
 30
0.0
  0
VERTEX
  5
415F
  8
0
 62
     7
 10
-35.457771
 20
162.380649
 30
0.0
  0
VERTEX
  5
4160
  8
0
 62
     7
 10
-35.518727
 20
162.396701
 30
0.0
  0
VERTEX
  5
4161
  8
0
 62
     7
 10
-35.692194
 20
162.410301
 30
0.0
  0
VERTEX
  5
4162
  8
0
 62
     7
 10
-35.951768
 20
162.419387
 30
0.0
  0
VERTEX
  5
4163
  8
0
 62
     7
 10
-36.257771
 20
162.422576
 30
0.0
  0
SEQEND
  5
4164
  8
0
 62
     7
  0
LINE
  5
3BE4
  8
0
 62
     7
 10
-34.957771
 20
163.129996
 30
0.0
 11
-35.457771
 21
163.138723
 31
0.0
  0
LINE
  5
3BE5
  8
0
 62
     7
 10
-35.457771
 20
162.688723
 30
0.0
 11
-34.957771
 21
162.688723
 31
0.0
  0
LINE
  5
3BE6
  8
0
 62
     7
 10
-35.457686
 20
161.819089
 30
0.0
 11
-34.957771
 21
161.82127
 31
0.0
  0
LINE
  5
3BE7
  8
0
 62
     7
 10
-35.457771
 20
161.519085
 30
0.0
 11
-34.957771
 21
161.521267
 31
0.0
  0
LINE
  5
3BE8
  8
0
 62
     7
 10
-28.257771
 20
154.438723
 30
0.0
 11
-28.257771
 21
149.838723
 31
0.0
  0
LINE
  5
3BE9
  8
0
 62
     7
 10
-29.557771
 20
154.438723
 30
0.0
 11
-29.557771
 21
149.838723
 31
0.0
  0
LINE
  5
3BEA
  8
0
 62
     7
 10
-28.257771
 20
149.838723
 30
0.0
 11
-29.557771
 21
149.838723
 31
0.0
  0
LINE
  5
3BEB
  8
0
 62
     7
 10
-28.257771
 20
154.438723
 30
0.0
 11
-29.557771
 21
154.438723
 31
0.0
  0
LINE
  5
3BEC
  8
0
 62
     7
 10
-22.257771
 20
148.538723
 30
0.0
 11
-24.257771
 21
148.538723
 31
0.0
  0
LINE
  5
3BED
  8
0
 62
     7
 10
-22.257771
 20
148.20636
 30
0.0
 11
-22.757771
 21
148.238589
 31
0.0
  0
LINE
  5
3BEE
  8
0
 62
     7
 10
-22.757771
 20
148.638723
 30
0.0
 11
-22.257771
 21
148.606716
 31
0.0
  0
LINE
  5
3BEF
  8
0
 62
     7
 10
-22.257771
 20
148.506777
 30
0.0
 11
-22.757775
 21
148.538724
 31
0.0
  0
LINE
  5
3BF0
  8
0
 62
     7
 10
-25.357771
 20
161.488723
 30
0.0
 11
-26.657771
 21
161.488723
 31
0.0
  0
LINE
  5
3BF1
  8
0
 62
     7
 10
-25.357771
 20
160.088723
 30
0.0
 11
-26.657771
 21
160.088723
 31
0.0
  0
LINE
  5
3BF2
  8
0
 62
     7
 10
-26.657771
 20
161.488723
 30
0.0
 11
-26.657771
 21
160.088723
 31
0.0
  0
LINE
  5
3BF3
  8
0
 62
     7
 10
-25.357771
 20
161.488723
 30
0.0
 11
-25.357771
 21
160.088723
 31
0.0
  0
LINE
  5
3BF4
  8
0
 62
     7
 10
-1.557771
 20
125.038723
 30
0.0
 11
-1.557771
 21
133.238723
 31
0.0
  0
LINE
  5
3BF5
  8
0
 62
     7
 10
-2.157771
 20
126.538723
 30
0.0
 11
-2.157771
 21
125.038723
 31
0.0
  0
LINE
  5
3BF6
  8
0
 62
     7
 10
-2.957771
 20
125.238723
 30
0.0
 11
-2.957771
 21
126.538723
 31
0.0
  0
LINE
  5
3BF7
  8
0
 62
     7
 10
-14.257771
 20
133.238723
 30
0.0
 11
-14.257771
 21
119.338723
 31
0.0
  0
LINE
  5
3BF8
  8
0
 62
     7
 10
-14.457771
 20
132.138723
 30
0.0
 11
-14.457771
 21
123.338723
 31
0.0
  0
LINE
  5
3BF9
  8
0
 62
     7
 10
-16.407759
 20
131.938723
 30
0.0
 11
-16.407759
 21
123.538723
 31
0.0
  0
LINE
  5
3BFA
  8
0
 62
     7
 10
-16.411324
 20
118.038723
 30
0.0
 11
-16.411324
 21
133.036051
 31
0.0
  0
LINE
  5
3BFB
  8
0
 62
     7
 10
-17.396664
 20
117.738723
 30
0.0
 11
-17.396664
 21
137.338723
 31
0.0
  0
POLYLINE
  5
3BFC
  8
0
 62
     7
 66
     1
 10
0.0
 20
0.0
 30
0.0
  0
VERTEX
  5
4165
  8
0
 62
     7
 10
-17.561016
 20
104.788723
 30
0.0
  0
VERTEX
  5
4166
  8
0
 62
     7
 10
-17.554659
 20
105.646481
 30
0.0
  0
VERTEX
  5
4167
  8
0
 62
     7
 10
-17.536029
 20
106.475409
 30
0.0
  0
VERTEX
  5
4168
  8
0
 62
     7
 10
-17.507582
 20
107.223878
 30
0.0
  0
VERTEX
  5
4169
  8
0
 62
     7
 10
-17.471206
 20
107.891104
 30
0.0
  0
VERTEX
  5
416A
  8
0
 62
     7
 10
-17.428413
 20
108.475009
 30
0.0
  0
VERTEX
  5
416B
  8
0
 62
     7
 10
-17.380701
 20
108.970247
 30
0.0
  0
VERTEX
  5
416C
  8
0
 62
     7
 10
-17.32977
 20
109.369129
 30
0.0
  0
VERTEX
  5
416D
  8
0
 62
     7
 10
-17.278014
 20
109.662142
 30
0.0
  0
VERTEX
  5
416E
  8
0
 62
     7
 10
-17.235503
 20
109.82275
 30
0.0
  0
SEQEND
  5
416F
  8
0
 62
     7
  0
POLYLINE
  5
3BFD
  8
0
 62
     7
 66
     1
 10
0.0
 20
0.0
 30
0.0
  0
VERTEX
  5
4170
  8
0
 62
     7
 10
-16.870405
 20
104.788723
 30
0.0
  0
VERTEX
  5
4171
  8
0
 62
     7
 10
-16.864524
 20
105.763747
 30
0.0
  0
VERTEX
  5
4172
  8
0
 62
     7
 10
-16.849921
 20
106.609399
 30
0.0
  0
VERTEX
  5
4173
  8
0
 62
     7
 10
-16.830899
 20
107.319032
 30
0.0
  0
VERTEX
  5
4174
  8
0
 62
     7
 10
-16.81084
 20
107.898367
 30
0.0
  0
VERTEX
  5
4175
  8
0
 62
     7
 10
-16.792319
 20
108.352298
 30
0.0
  0
VERTEX
  5
4176
  8
0
 62
     7
 10
-16.77717
 20
108.685831
 30
0.0
  0
VERTEX
  5
4177
  8
0
 62
     7
 10
-16.766326
 20
108.908878
 30
0.0
  0
SEQEND
  5
4178
  8
0
 62
     7
  0
POLYLINE
  5
3BFE
  8
0
 62
     7
 66
     1
 10
0.0
 20
0.0
 30
0.0
  0
VERTEX
  5
4179
  8
0
 62
     7
 10
-17.068016
 20
104.788723
 30
0.0
  0
VERTEX
  5
417A
  8
0
 62
     7
 10
-17.062165
 20
105.794374
 30
0.0
  0
VERTEX
  5
417B
  8
0
 62
     7
 10
-17.047648
 20
106.668132
 30
0.0
  0
VERTEX
  5
417C
  8
0
 62
     7
 10
-17.028742
 20
107.405026
 30
0.0
  0
VERTEX
  5
417D
  8
0
 62
     7
 10
-17.008805
 20
108.0112
 30
0.0
  0
VERTEX
  5
417E
  8
0
 62
     7
 10
-16.990394
 20
108.491224
 30
0.0
  0
VERTEX
  5
417F
  8
0
 62
     7
 10
-16.975333
 20
108.848595
 30
0.0
  0
VERTEX
  5
4180
  8
0
 62
     7
 10
-16.964549
 20
109.091149
 30
0.0
  0
SEQEND
  5
4181
  8
0
 62
     7
  0
POLYLINE
  5
3BFF
  8
0
 62
     7
 66
     1
 10
0.0
 20
0.0
 30
0.0
  0
VERTEX
  5
4182
  8
0
 62
     7
 10
-17.562587
 20
104.788723
 30
0.0
  0
VERTEX
  5
4183
  8
0
 62
     7
 10
-17.55997
 20
105.340077
 30
0.0
  0
VERTEX
  5
4184
  8
0
 62
     7
 10
-17.55312
 20
105.835012
 30
0.0
  0
VERTEX
  5
4185
  8
0
 62
     7
 10
-17.543125
 20
106.282305
 30
0.0
  0
VERTEX
  5
4186
  8
0
 62
     7
 10
-17.530932
 20
106.683753
 30
0.0
  0
VERTEX
  5
4187
  8
0
 62
     7
 10
-17.517297
 20
107.041612
 30
0.0
  0
VERTEX
  5
4188
  8
0
 62
     7
 10
-17.502689
 20
107.36226
 30
0.0
  0
VERTEX
  5
4189
  8
0
 62
     7
 10
-17.487433
 20
107.650826
 30
0.0
  0
VERTEX
  5
418A
  8
0
 62
     7
 10
-17.472333
 20
107.902206
 30
0.0
  0
VERTEX
  5
418B
  8
0
 62
     7
 10
-17.457683
 20
108.120819
 30
0.0
  0
VERTEX
  5
418C
  8
0
 62
     7
 10
-17.443176
 20
108.317174
 30
0.0
  0
VERTEX
  5
418D
  8
0
 62
     7
 10
-17.428341
 20
108.50042
 30
0.0
  0
VERTEX
  5
418E
  8
0
 62
     7
 10
-17.412879
 20
108.675065
 30
0.0
  0
VERTEX
  5
418F
  8
0
 62
     7
 10
-17.396495
 20
108.844017
 30
0.0
  0
VERTEX
  5
4190
  8
0
 62
     7
 10
-17.378917
 20
109.008909
 30
0.0
  0
VERTEX
  5
4191
  8
0
 62
     7
 10
-17.360202
 20
109.167569
 30
0.0
  0
VERTEX
  5
4192
  8
0
 62
     7
 10
-17.340617
 20
109.316535
 30
0.0
  0
VERTEX
  5
4193
  8
0
 62
     7
 10
-17.320492
 20
109.452817
 30
0.0
  0
VERTEX
  5
4194
  8
0
 62
     7
 10
-17.300184
 20
109.574052
 30
0.0
  0
VERTEX
  5
4195
  8
0
 62
     7
 10
-17.280079
 20
109.678598
 30
0.0
  0
SEQEND
  5
4196
  8
0
 62
     7
  0
POLYLINE
  5
3C00
  8
0
 62
     7
 66
     1
 10
0.0
 20
0.0
 30
0.0
  0
VERTEX
  5
4197
  8
0
 62
     7
 10
-16.870405
 20
104.788723
 30
0.0
  0
VERTEX
  5
4198
  8
0
 62
     7
 10
-16.868915
 20
105.279139
 30
0.0
  0
VERTEX
  5
4199
  8
0
 62
     7
 10
-16.865051
 20
105.719018
 30
0.0
  0
VERTEX
  5
419A
  8
0
 62
     7
 10
-16.859507
 20
106.116061
 30
0.0
  0
VERTEX
  5
419B
  8
0
 62
     7
 10
-16.852898
 20
106.471745
 30
0.0
  0
VERTEX
  5
419C
  8
0
 62
     7
 10
-16.845705
 20
106.788207
 30
0.0
  0
VERTEX
  5
419D
  8
0
 62
     7
 10
-16.838225
 20
107.071691
 30
0.0
  0
VERTEX
  5
419E
  8
0
 62
     7
 10
-16.830736
 20
107.324253
 30
0.0
  0
VERTEX
  5
419F
  8
0
 62
     7
 10
-16.823749
 20
107.539285
 30
0.0
  0
VERTEX
  5
41A0
  8
0
 62
     7
 10
-16.81726
 20
107.725188
 30
0.0
  0
VERTEX
  5
41A1
  8
0
 62
     7
 10
-16.810961
 20
107.895191
 30
0.0
  0
VERTEX
  5
41A2
  8
0
 62
     7
 10
-16.804579
 20
108.058656
 30
0.0
  0
VERTEX
  5
41A3
  8
0
 62
     7
 10
-16.797975
 20
108.21983
 30
0.0
  0
VERTEX
  5
41A4
  8
0
 62
     7
 10
-16.791058
 20
108.381184
 30
0.0
  0
VERTEX
  5
41A5
  8
0
 62
     7
 10
-16.783894
 20
108.541217
 30
0.0
  0
VERTEX
  5
41A6
  8
0
 62
     7
 10
-16.776725
 20
108.695216
 30
0.0
  0
VERTEX
  5
41A7
  8
0
 62
     7
 10
-16.769914
 20
108.836356
 30
0.0
  0
VERTEX
  5
41A8
  8
0
 62
     7
 10
-16.763973
 20
108.955858
 30
0.0
  0
SEQEND
  5
41A9
  8
0
 62
     7
  0
POLYLINE
  5
3C01
  8
0
 62
     7
 66
     1
 10
0.0
 20
0.0
 30
0.0
  0
VERTEX
  5
41AA
  8
0
 62
     7
 10
-17.068016
 20
104.788723
 30
0.0
  0
VERTEX
  5
41AB
  8
0
 62
     7
 10
-17.066534
 20
105.29433
 30
0.0
  0
VERTEX
  5
41AC
  8
0
 62
     7
 10
-17.062692
 20
105.747936
 30
0.0
  0
VERTEX
  5
41AD
  8
0
 62
     7
 10
-17.05718
 20
106.157801
 30
0.0
  0
VERTEX
  5
41AE
  8
0
 62
     7
 10
-17.050609
 20
106.525556
 30
0.0
  0
VERTEX
  5
41AF
  8
0
 62
     7
 10
-17.043458
 20
106.853406
 30
0.0
  0
VERTEX
  5
41B0
  8
0
 62
     7
 10
-17.036022
 20
107.147691
 30
0.0
  0
VERTEX
  5
41B1
  8
0
 62
     7
 10
-17.028576
 20
107.410618
 30
0.0
  0
VERTEX
  5
41B2
  8
0
 62
     7
 10
-17.02163
 20
107.635037
 30
0.0
  0
VERTEX
  5
41B3
  8
0
 62
     7
 10
-17.015178
 20
107.829661
 30
0.0
  0
VERTEX
  5
41B4
  8
0
 62
     7
 10
-17.008915
 20
108.008137
 30
0.0
  0
VERTEX
  5
41B5
  8
0
 62
     7
 10
-17.002571
 20
108.180372
 30
0.0
  0
VERTEX
  5
41B6
  8
0
 62
     7
 10
-16.996005
 20
108.350826
 30
0.0
  0
VERTEX
  5
41B7
  8
0
 62
     7
 10
-16.989129
 20
108.522292
 30
0.0
  0
VERTEX
  5
41B8
  8
0
 62
     7
 10
-16.982007
 20
108.693314
 30
0.0
  0
VERTEX
  5
41B9
  8
0
 62
     7
 10
-16.97488
 20
108.858976
 30
0.0
  0
VERTEX
  5
41BA
  8
0
 62
     7
 10
-16.968108
 20
109.012118
 30
0.0
  0
VERTEX
  5
41BB
  8
0
 62
     7
 10
-16.962201
 20
109.142852
 30
0.0
  0
SEQEND
  5
41BC
  8
0
 62
     7
  0
LINE
  5
3C02
  8
0
 62
     7
 10
-16.557771
 20
117.338723
 30
0.0
 11
-16.557771
 21
103.788723
 31
0.0
  0
LINE
  5
3C03
  8
0
 62
     7
 10
-16.757771
 20
109.077371
 30
0.0
 11
-16.757771
 21
104.650063
 31
0.0
  0
LINE
  5
3C04
  8
0
 62
     7
 10
-18.388046
 20
103.788723
 30
0.0
 11
-18.388046
 21
117.243428
 31
0.0
  0
LINE
  5
3C05
  8
0
 62
     7
 10
-19.373747
 20
103.288723
 30
0.0
 11
-19.373747
 21
117.25203
 31
0.0
  0
LINE
  5
3C06
  8
0
 62
     7
 10
-16.757771
 20
92.238723
 30
0.0
 11
-16.757771
 21
103.938723
 31
0.0
  0
LINE
  5
3C07
  8
0
 62
     7
 10
-16.778586
 20
102.938723
 30
0.0
 11
-16.778586
 21
92.238723
 31
0.0
  0
LINE
  5
3C08
  8
0
 62
     7
 10
-16.978467
 20
101.301758
 30
0.0
 11
-16.978467
 21
92.038863
 31
0.0
  0
LINE
  5
3C09
  8
0
 62
     7
 10
-18.057771
 20
101.274984
 30
0.0
 11
-18.057771
 21
92.038723
 31
0.0
  0
LINE
  5
3C0A
  8
0
 62
     7
 10
-18.257771
 20
92.238723
 30
0.0
 11
-18.257771
 21
103.288723
 31
0.0
  0
LINE
  5
3C0B
  8
0
 62
     7
 10
-18.557771
 20
94.302866
 30
0.0
 11
-18.557771
 21
103.138723
 31
0.0
  0
ARC
  5
3C0C
  8
0
 62
     7
 10
-16.957771
 20
92.238723
 30
0.0
 40
0.2
 50
270.0
 51
0.0
  0
POLYLINE
  5
3C0D
  8
0
 62
     7
 66
     1
 10
0.0
 20
0.0
 30
0.0
  0
VERTEX
  5
41BD
  8
0
 62
     7
 10
-16.904916
 20
92.055596
 30
0.0
  0
VERTEX
  5
41BE
  8
0
 62
     7
 10
-16.849133
 20
92.091006
 30
0.0
  0
VERTEX
  5
41BF
  8
0
 62
     7
 10
-16.810273
 20
92.136622
 30
0.0
  0
VERTEX
  5
41C0
  8
0
 62
     7
 10
-16.787119
 20
92.187311
 30
0.0
  0
VERTEX
  5
41C1
  8
0
 62
     7
 10
-16.778586
 20
92.238723
 30
0.0
  0
SEQEND
  5
41C2
  8
0
 62
     7
  0
ARC
  5
3C0E
  8
0
 62
     7
 10
-19.257771
 20
93.588723
 30
0.0
 40
1.0
 50
0.0
 51
90.0
  0
ARC
  5
3C0F
  8
0
 62
     7
 10
-18.057771
 20
92.238723
 30
0.0
 40
0.2
 50
180.0
 51
270.0
  0
LINE
  5
3C10
  8
0
 62
     7
 10
-18.057771
 20
92.038723
 30
0.0
 11
-16.985944
 21
92.038723
 31
0.0
  0
POLYLINE
  5
3C11
  8
0
 62
     7
 66
     1
 10
0.0
 20
0.0
 30
0.0
  0
VERTEX
  5
41C3
  8
0
 62
     7
 10
-16.978467
 20
92.038863
 30
0.0
  0
VERTEX
  5
41C4
  8
0
 62
     7
 10
-16.980959
 20
92.038785
 30
0.0
  0
VERTEX
  5
41C5
  8
0
 62
     7
 10
-16.983451
 20
92.038739
 30
0.0
  0
VERTEX
  5
41C6
  8
0
 62
     7
 10
-16.985944
 20
92.038723
 30
0.0
  0
SEQEND
  5
41C7
  8
0
 62
     7
  0
LINE
  5
3C12
  8
0
 62
     7
 10
-16.978467
 20
92.038863
 30
0.0
 11
-16.904916
 21
92.055596
 31
0.0
  0
LINE
  5
3C13
  8
0
 62
     7
 10
-16.757771
 20
92.238723
 30
0.0
 11
-16.778586
 21
92.238723
 31
0.0
  0
LINE
  5
3C14
  8
0
 62
     7
 10
-16.823621
 20
101.516388
 30
0.0
 11
-16.806247
 21
101.56073
 31
0.0
  0
POLYLINE
  5
3C15
  8
0
 62
     7
 66
     1
 10
0.0
 20
0.0
 30
0.0
  0
VERTEX
  5
41C8
  8
0
 62
     7
 10
-16.803629
 20
101.501689
 30
0.0
  0
VERTEX
  5
41C9
  8
0
 62
     7
 10
-16.8199
 20
101.422672
 30
0.0
  0
VERTEX
  5
41CA
  8
0
 62
     7
 10
-16.862785
 20
101.359693
 30
0.0
  0
VERTEX
  5
41CB
  8
0
 62
     7
 10
-16.922927
 20
101.318694
 30
0.0
  0
SEQEND
  5
41CC
  8
0
 62
     7
  0
POLYLINE
  5
3C16
  8
0
 62
     7
 66
     1
 10
0.0
 20
0.0
 30
0.0
  0
VERTEX
  5
41CD
  8
0
 62
     7
 10
-16.806247
 20
101.560722
 30
0.0
  0
VERTEX
  5
41CE
  8
0
 62
     7
 10
-16.819678
 20
101.920148
 30
0.0
  0
VERTEX
  5
41CF
  8
0
 62
     7
 10
-16.83095
 20
102.260041
 30
0.0
  0
VERTEX
  5
41D0
  8
0
 62
     7
 10
-16.840769
 20
102.598044
 30
0.0
  0
VERTEX
  5
41D1
  8
0
 62
     7
 10
-16.849835
 20
102.964314
 30
0.0
  0
VERTEX
  5
41D2
  8
0
 62
     7
 10
-16.858181
 20
103.382759
 30
0.0
  0
SEQEND
  5
41D3
  8
0
 62
     7
  0
POLYLINE
  5
3C17
  8
0
 62
     7
 66
     1
 10
0.0
 20
0.0
 30
0.0
  0
VERTEX
  5
41D4
  8
0
 62
     7
 10
-16.808153
 20
101.609327
 30
0.0
  0
VERTEX
  5
41D5
  8
0
 62
     7
 10
-16.812765
 20
101.730002
 30
0.0
  0
VERTEX
  5
41D6
  8
0
 62
     7
 10
-16.817715
 20
101.864924
 30
0.0
  0
VERTEX
  5
41D7
  8
0
 62
     7
 10
-16.822984
 20
102.015579
 30
0.0
  0
VERTEX
  5
41D8
  8
0
 62
     7
 10
-16.828534
 20
102.183525
 30
0.0
  0
VERTEX
  5
41D9
  8
0
 62
     7
 10
-16.834307
 20
102.370348
 30
0.0
  0
VERTEX
  5
41DA
  8
0
 62
     7
 10
-16.840218
 20
102.577775
 30
0.0
  0
VERTEX
  5
41DB
  8
0
 62
     7
 10
-16.846157
 20
102.807624
 30
0.0
  0
VERTEX
  5
41DC
  8
0
 62
     7
 10
-16.851978
 20
103.062024
 30
0.0
  0
VERTEX
  5
41DD
  8
0
 62
     7
 10
-16.857496
 20
103.343892
 30
0.0
  0
SEQEND
  5
41DE
  8
0
 62
     7
  0
POLYLINE
  5
3C18
  8
0
 62
     7
 66
     1
 10
0.0
 20
0.0
 30
0.0
  0
VERTEX
  5
41DF
  8
0
 62
     7
 10
-16.98002
 20
101.383888
 30
0.0
  0
VERTEX
  5
41E0
  8
0
 62
     7
 10
-16.950178
 20
101.3882
 30
0.0
  0
VERTEX
  5
41E1
  8
0
 62
     7
 10
-16.915307
 20
101.394514
 30
0.0
  0
VERTEX
  5
41E2
  8
0
 62
     7
 10
-16.880159
 20
101.406772
 30
0.0
  0
VERTEX
  5
41E3
  8
0
 62
     7
 10
-16.849691
 20
101.42598
 30
0.0
  0
VERTEX
  5
41E4
  8
0
 62
     7
 10
-16.826326
 20
101.450037
 30
0.0
  0
VERTEX
  5
41E5
  8
0
 62
     7
 10
-16.81069
 20
101.476742
 30
0.0
  0
VERTEX
  5
41E6
  8
0
 62
     7
 10
-16.803893
 20
101.501689
 30
0.0
  0
SEQEND
  5
41E7
  8
0
 62
     7
  0
POLYLINE
  5
3C19
  8
0
 62
     7
 66
     1
 10
0.0
 20
0.0
 30
0.0
  0
VERTEX
  5
41E8
  8
0
 62
     7
 10
-17.000954
 20
101.360793
 30
0.0
  0
VERTEX
  5
41E9
  8
0
 62
     7
 10
-17.000903
 20
101.361729
 30
0.0
  0
VERTEX
  5
41EA
  8
0
 62
     7
 10
-17.002245
 20
101.38656
 30
0.0
  0
VERTEX
  5
41EB
  8
0
 62
     7
 10
-17.004225
 20
101.441215
 30
0.0
  0
SEQEND
  5
41EC
  8
0
 62
     7
  0
LINE
  5
3C1A
  8
0
 62
     7
 10
-18.230124
 20
101.270708
 30
0.0
 11
-18.247735
 21
103.288723
 31
0.0
  0
LINE
  5
3C1B
  8
0
 62
     7
 10
-17.001236
 20
101.360783
 30
0.0
 11
-17.00612
 21
101.49244
 31
0.0
  0
LINE
  5
3C1C
  8
0
 62
     7
 10
-17.839354
 20
101.41839
 30
0.0
 11
-18.257771
 21
101.407039
 31
0.0
  0
POLYLINE
  5
3C1D
  8
0
 62
     7
 66
     1
 10
0.0
 20
0.0
 30
0.0
  0
VERTEX
  5
41ED
  8
0
 62
     7
 10
-16.998371
 20
101.301758
 30
0.0
  0
VERTEX
  5
41EE
  8
0
 62
     7
 10
-16.998699
 20
101.302379
 30
0.0
  0
VERTEX
  5
41EF
  8
0
 62
     7
 10
-16.999983
 20
101.325738
 30
0.0
  0
VERTEX
  5
41F0
  8
0
 62
     7
 10
-17.001236
 20
101.360783
 30
0.0
  0
SEQEND
  5
41F1
  8
0
 62
     7
  0
POLYLINE
  5
3C1E
  8
0
 62
     7
 66
     1
 10
0.0
 20
0.0
 30
0.0
  0
VERTEX
  5
41F2
  8
0
 62
     7
 10
-18.230124
 20
101.270653
 30
0.0
  0
VERTEX
  5
41F3
  8
0
 62
     7
 10
-17.842502
 20
101.280394
 30
0.0
  0
VERTEX
  5
41F4
  8
0
 62
     7
 10
-17.373142
 20
101.292247
 30
0.0
  0
VERTEX
  5
41F5
  8
0
 62
     7
 10
-16.998545
 20
101.301754
 30
0.0
  0
SEQEND
  5
41F6
  8
0
 62
     7
  0
LINE
  5
3C1F
  8
0
 62
     7
 10
-18.257771
 20
101.327972
 30
0.0
 11
-18.230323
 21
101.328685
 31
0.0
  0
POLYLINE
  5
3C20
  8
0
 62
     7
 66
     1
 10
0.0
 20
0.0
 30
0.0
  0
VERTEX
  5
41F7
  8
0
 62
     7
 10
-17.001884
 20
101.378898
 30
0.0
  0
VERTEX
  5
41F8
  8
0
 62
     7
 10
-17.411567
 20
101.368042
 30
0.0
  0
VERTEX
  5
41F9
  8
0
 62
     7
 10
-17.821201
 20
101.357239
 30
0.0
  0
VERTEX
  5
41FA
  8
0
 62
     7
 10
-18.230786
 20
101.346488
 30
0.0
  0
SEQEND
  5
41FB
  8
0
 62
     7
  0
LINE
  5
3C21
  8
0
 62
     7
 10
-16.922927
 20
101.318694
 30
0.0
 11
-16.998371
 21
101.301758
 31
0.0
  0
LINE
  5
3C22
  8
0
 62
     7
 10
-17.001884
 20
101.378898
 30
0.0
 11
-16.98002
 21
101.383888
 31
0.0
  0
LINE
  5
3C23
  8
0
 62
     7
 10
-17.924229
 20
103.304404
 30
0.0
 11
-17.798305
 21
103.356139
 31
0.0
  0
LINE
  5
3C24
  8
0
 62
     7
 10
-17.798305
 20
103.356139
 30
0.0
 11
-17.689266
 21
103.44257
 31
0.0
  0
LINE
  5
3C25
  8
0
 62
     7
 10
-16.867007
 20
101.478349
 30
0.0
 11
-16.823621
 21
101.516388
 31
0.0
  0
LINE
  5
3C26
  8
0
 62
     7
 10
-17.689266
 20
103.44257
 30
0.0
 11
-17.610355
 21
103.553103
 31
0.0
  0
LINE
  5
3C27
  8
0
 62
     7
 10
-17.553946
 20
103.788723
 30
0.0
 11
-17.552419
 21
103.792192
 31
0.0
  0
LINE
  5
3C28
  8
0
 62
     7
 10
-17.610355
 20
103.553103
 30
0.0
 11
-17.566228
 21
103.673237
 31
0.0
  0
LINE
  5
3C29
  8
0
 62
     7
 10
-17.566228
 20
103.673237
 30
0.0
 11
-17.553946
 21
103.788723
 31
0.0
  0
POLYLINE
  5
3C2A
  8
0
 62
     7
 66
     1
 10
0.0
 20
0.0
 30
0.0
  0
VERTEX
  5
41FC
  8
0
 62
     7
 10
-16.858181
 20
103.382759
 30
0.0
  0
VERTEX
  5
41FD
  8
0
 62
     7
 10
-16.864924
 20
103.847474
 30
0.0
  0
VERTEX
  5
41FE
  8
0
 62
     7
 10
-16.869091
 20
104.32828
 30
0.0
  0
VERTEX
  5
41FF
  8
0
 62
     7
 10
-16.870405
 20
104.788723
 30
0.0
  0
SEQEND
  5
4200
  8
0
 62
     7
  0
POLYLINE
  5
3C2B
  8
0
 62
     7
 66
     1
 10
0.0
 20
0.0
 30
0.0
  0
VERTEX
  5
4201
  8
0
 62
     7
 10
-17.553946
 20
103.788723
 30
0.0
  0
VERTEX
  5
4202
  8
0
 62
     7
 10
-17.558711
 20
104.117855
 30
0.0
  0
VERTEX
  5
4203
  8
0
 62
     7
 10
-17.561616
 20
104.452981
 30
0.0
  0
VERTEX
  5
4204
  8
0
 62
     7
 10
-17.562587
 20
104.788723
 30
0.0
  0
SEQEND
  5
4205
  8
0
 62
     7
  0
POLYLINE
  5
3C2C
  8
0
 62
     7
 66
     1
 10
0.0
 20
0.0
 30
0.0
  0
VERTEX
  5
4206
  8
0
 62
     7
 10
-17.552419
 20
103.792201
 30
0.0
  0
VERTEX
  5
4207
  8
0
 62
     7
 10
-17.556971
 20
104.104018
 30
0.0
  0
VERTEX
  5
4208
  8
0
 62
     7
 10
-17.560138
 20
104.46964
 30
0.0
  0
VERTEX
  5
4209
  8
0
 62
     7
 10
-17.561017
 20
104.788723
 30
0.0
  0
SEQEND
  5
420A
  8
0
 62
     7
  0
POLYLINE
  5
3C2D
  8
0
 62
     7
 66
     1
 10
0.0
 20
0.0
 30
0.0
  0
VERTEX
  5
420B
  8
0
 62
     7
 10
-16.857496
 20
103.343892
 30
0.0
  0
VERTEX
  5
420C
  8
0
 62
     7
 10
-16.862463
 20
103.655764
 30
0.0
  0
VERTEX
  5
420D
  8
0
 62
     7
 10
-16.866531
 20
103.997402
 30
0.0
  0
VERTEX
  5
420E
  8
0
 62
     7
 10
-16.869335
 20
104.373169
 30
0.0
  0
VERTEX
  5
420F
  8
0
 62
     7
 10
-16.870405
 20
104.788723
 30
0.0
  0
SEQEND
  5
4210
  8
0
 62
     7
  0
POLYLINE
  5
3C2E
  8
0
 62
     7
 66
     1
 10
0.0
 20
0.0
 30
0.0
  0
VERTEX
  5
4211
  8
0
 62
     7
 10
-17.004224
 20
101.44121
 30
0.0
  0
VERTEX
  5
4212
  8
0
 62
     7
 10
-17.017521
 20
101.81712
 30
0.0
  0
VERTEX
  5
4213
  8
0
 62
     7
 10
-17.028725
 20
102.171828
 30
0.0
  0
VERTEX
  5
4214
  8
0
 62
     7
 10
-17.038516
 20
102.524301
 30
0.0
  0
VERTEX
  5
4215
  8
0
 62
     7
 10
-17.047554
 20
102.905038
 30
0.0
  0
VERTEX
  5
4216
  8
0
 62
     7
 10
-17.05585
 20
103.337725
 30
0.0
  0
VERTEX
  5
4217
  8
0
 62
     7
 10
-17.062561
 20
103.817735
 30
0.0
  0
VERTEX
  5
4218
  8
0
 62
     7
 10
-17.06671
 20
104.314228
 30
0.0
  0
VERTEX
  5
4219
  8
0
 62
     7
 10
-17.068016
 20
104.788723
 30
0.0
  0
SEQEND
  5
421A
  8
0
 62
     7
  0
POLYLINE
  5
3C2F
  8
0
 62
     7
 66
     1
 10
0.0
 20
0.0
 30
0.0
  0
VERTEX
  5
421B
  8
0
 62
     7
 10
-17.00612
 20
101.49244
 30
0.0
  0
VERTEX
  5
421C
  8
0
 62
     7
 10
-17.010705
 20
101.619378
 30
0.0
  0
VERTEX
  5
421D
  8
0
 62
     7
 10
-17.015627
 20
101.760963
 30
0.0
  0
VERTEX
  5
421E
  8
0
 62
     7
 10
-17.020865
 20
101.918697
 30
0.0
  0
VERTEX
  5
421F
  8
0
 62
     7
 10
-17.026384
 20
102.09409
 30
0.0
  0
VERTEX
  5
4220
  8
0
 62
     7
 10
-17.032124
 20
102.288784
 30
0.0
  0
VERTEX
  5
4221
  8
0
 62
     7
 10
-17.038001
 20
102.504511
 30
0.0
  0
VERTEX
  5
4222
  8
0
 62
     7
 10
-17.043906
 20
102.743032
 30
0.0
  0
VERTEX
  5
4223
  8
0
 62
     7
 10
-17.049694
 20
103.006605
 30
0.0
  0
VERTEX
  5
4224
  8
0
 62
     7
 10
-17.05518
 20
103.298213
 30
0.0
  0
VERTEX
  5
4225
  8
0
 62
     7
 10
-17.060119
 20
103.620337
 30
0.0
  0
VERTEX
  5
4226
  8
0
 62
     7
 10
-17.064164
 20
103.972891
 30
0.0
  0
VERTEX
  5
4227
  8
0
 62
     7
 10
-17.066951
 20
104.360314
 30
0.0
  0
VERTEX
  5
4228
  8
0
 62
     7
 10
-17.068016
 20
104.788723
 30
0.0
  0
SEQEND
  5
4229
  8
0
 62
     7
  0
LINE
  5
3C30
  8
0
 62
     7
 10
-17.562586
 20
104.788723
 30
0.0
 11
-17.561016
 21
104.788723
 31
0.0
  0
LINE
  5
3C31
  8
0
 62
     7
 10
-17.561016
 20
104.788723
 30
0.0
 11
-16.870405
 21
104.788723
 31
0.0
  0
LINE
  5
3C32
  8
0
 62
     7
 10
-18.557771
 20
103.138723
 30
0.0
 11
-18.257771
 21
103.138723
 31
0.0
  0
POLYLINE
  5
3C33
  8
0
 62
     7
 66
     1
 10
0.0
 20
0.0
 30
0.0
  0
VERTEX
  5
422A
  8
0
 62
     7
 10
-17.004225
 20
101.441215
 30
0.0
  0
VERTEX
  5
422B
  8
0
 62
     7
 10
-17.421505
 20
101.429782
 30
0.0
  0
VERTEX
  5
422C
  8
0
 62
     7
 10
-17.839354
 20
101.41839
 30
0.0
  0
SEQEND
  5
422D
  8
0
 62
     7
  0
POLYLINE
  5
3C34
  8
0
 62
     7
 66
     1
 10
0.0
 20
0.0
 30
0.0
  0
VERTEX
  5
422E
  8
0
 62
     7
 10
-18.048364
 20
103.288728
 30
0.0
  0
VERTEX
  5
422F
  8
0
 62
     7
 10
-17.952103
 20
103.298035
 30
0.0
  0
VERTEX
  5
4230
  8
0
 62
     7
 10
-17.812315
 20
103.347893
 30
0.0
  0
VERTEX
  5
4231
  8
0
 62
     7
 10
-17.693982
 20
103.436546
 30
0.0
  0
VERTEX
  5
4232
  8
0
 62
     7
 10
-17.607364
 20
103.55622
 30
0.0
  0
VERTEX
  5
4233
  8
0
 62
     7
 10
-17.559992
 20
103.696544
 30
0.0
  0
VERTEX
  5
4234
  8
0
 62
     7
 10
-17.552421
 20
103.792192
 30
0.0
  0
SEQEND
  5
4235
  8
0
 62
     7
  0
LINE
  5
3C35
  8
0
 62
     7
 10
-18.048364
 20
103.288723
 30
0.0
 11
-17.924229
 21
103.304404
 31
0.0
  0
POLYLINE
  5
3C36
  8
0
 62
     7
 66
     1
 10
0.0
 20
0.0
 30
0.0
  0
VERTEX
  5
4236
  8
0
 62
     7
 10
-17.004225
 20
101.441215
 30
0.0
  0
VERTEX
  5
4237
  8
0
 62
     7
 10
-16.930214
 20
101.452041
 30
0.0
  0
VERTEX
  5
4238
  8
0
 62
     7
 10
-16.867007
 20
101.478349
 30
0.0
  0
SEQEND
  5
4239
  8
0
 62
     7
  0
POLYLINE
  5
3C37
  8
0
 62
     7
 66
     1
 10
0.0
 20
0.0
 30
0.0
  0
VERTEX
  5
423A
  8
0
 62
     7
 10
-18.880896
 20
103.288723
 30
0.0
  0
VERTEX
  5
423B
  8
0
 62
     7
 10
-18.692297
 20
103.326781
 30
0.0
  0
VERTEX
  5
423C
  8
0
 62
     7
 10
-18.532405
 20
103.435163
 30
0.0
  0
VERTEX
  5
423D
  8
0
 62
     7
 10
-18.425564
 20
103.597375
 30
0.0
  0
VERTEX
  5
423E
  8
0
 62
     7
 10
-18.388046
 20
103.788723
 30
0.0
  0
SEQEND
  5
423F
  8
0
 62
     7
  0
ARC
  5
3C38
  8
0
 62
     7
 10
-17.057771
 20
103.788723
 30
0.0
 40
0.5
 50
306.993824
 51
0.0
  0
ARC
  5
3C39
  8
0
 62
     7
 10
-16.957771
 20
104.650076
 30
0.0
 40
0.2
 50
336.13213
 51
0.0
  0
LINE
  5
3C3A
  8
0
 62
     7
 10
-16.803629
 20
103.390615
 30
0.0
 11
-16.798895
 21
103.396487
 31
0.0
  0
LINE
  5
3C3B
  8
0
 62
     7
 10
-16.806595
 20
103.386937
 30
0.0
 11
-16.790455
 21
103.413217
 31
0.0
  0
LINE
  5
3C3C
  8
0
 62
     7
 10
-16.798895
 20
103.396487
 30
0.0
 11
-16.778355
 21
103.447873
 31
0.0
  0
LINE
  5
3C3D
  8
0
 62
     7
 10
-16.790455
 20
103.413217
 30
0.0
 11
-16.776631
 21
103.456611
 31
0.0
  0
LINE
  5
3C3E
  8
0
 62
     7
 10
-16.80597
 20
101.562294
 30
0.0
 11
-16.806247
 21
101.56073
 31
0.0
  0
LINE
  5
3C3F
  8
0
 62
     7
 10
-16.778355
 20
103.447873
 30
0.0
 11
-16.77287
 21
103.494104
 31
0.0
  0
LINE
  5
3C40
  8
0
 62
     7
 10
-16.776631
 20
103.456611
 30
0.0
 11
-16.773054
 21
103.494084
 31
0.0
  0
LINE
  5
3C41
  8
0
 62
     7
 10
-16.80597
 20
101.562348
 30
0.0
 11
-16.80597
 21
101.562294
 31
0.0
  0
LINE
  5
3C42
  8
0
 62
     7
 10
-16.760083
 20
102.938723
 30
0.0
 11
-16.760083
 21
103.938723
 31
0.0
  0
LINE
  5
3C43
  8
0
 62
     7
 10
-16.770368
 20
104.00205
 30
0.0
 11
-16.770368
 21
104.580838
 31
0.0
  0
LINE
  5
3C44
  8
0
 62
     7
 10
-16.770502
 20
104.002728
 30
0.0
 11
-16.770502
 21
104.580619
 31
0.0
  0
LINE
  5
3C45
  8
0
 62
     7
 10
-16.77287
 20
104.644138
 30
0.0
 11
-16.77287
 21
103.494138
 31
0.0
  0
LINE
  5
3C46
  8
0
 62
     7
 10
-16.772956
 20
104.649944
 30
0.0
 11
-16.772956
 21
103.499944
 31
0.0
  0
LINE
  5
3C47
  8
0
 62
     7
 10
-16.773053
 20
104.64408
 30
0.0
 11
-16.773053
 21
103.49408
 31
0.0
  0
LINE
  5
3C48
  8
0
 62
     7
 10
-16.773141
 20
104.649942
 30
0.0
 11
-16.773141
 21
103.499942
 31
0.0
  0
LINE
  5
3C49
  8
0
 62
     7
 10
-16.803629
 20
103.489559
 30
0.0
 11
-16.803629
 21
101.501689
 31
0.0
  0
LINE
  5
3C4A
  8
0
 62
     7
 10
-16.803893
 20
103.499676
 30
0.0
 11
-16.803893
 21
101.501689
 31
0.0
  0
LINE
  5
3C4B
  8
0
 62
     7
 10
-16.80597
 20
103.489246
 30
0.0
 11
-16.80597
 21
101.561924
 31
0.0
  0
LINE
  5
3C4C
  8
0
 62
     7
 10
-16.806247
 20
103.499655
 30
0.0
 11
-16.806247
 21
101.56073
 31
0.0
  0
LINE
  5
3C4D
  8
0
 62
     7
 10
-16.77287
 20
104.644104
 30
0.0
 11
-16.772956
 21
104.649944
 31
0.0
  0
LINE
  5
3C4E
  8
0
 62
     7
 10
-16.77287
 20
103.494104
 30
0.0
 11
-16.772956
 21
103.499944
 31
0.0
  0
LINE
  5
3C4F
  8
0
 62
     7
 10
-16.773054
 20
104.644084
 30
0.0
 11
-16.773141
 21
104.649942
 31
0.0
  0
LINE
  5
3C50
  8
0
 62
     7
 10
-16.773054
 20
103.494084
 30
0.0
 11
-16.773141
 21
103.499942
 31
0.0
  0
LINE
  5
3C51
  8
0
 62
     7
 10
-16.80363
 20
103.489505
 30
0.0
 11
-16.803893
 21
103.499676
 31
0.0
  0
LINE
  5
3C52
  8
0
 62
     7
 10
-16.80597
 20
103.489251
 30
0.0
 11
-16.806247
 21
103.499655
 31
0.0
  0
LINE
  5
3C53
  8
0
 62
     7
 10
-16.803893
 20
101.501659
 30
0.0
 11
-16.808153
 21
101.609327
 31
0.0
  0
POLYLINE
  5
3C54
  8
0
 62
     7
 66
     1
 10
0.0
 20
0.0
 30
0.0
  0
VERTEX
  5
4240
  8
0
 62
     7
 10
-16.77287
 20
104.002666
 30
0.0
  0
VERTEX
  5
4241
  8
0
 62
     7
 10
-16.767577
 20
103.990642
 30
0.0
  0
VERTEX
  5
4242
  8
0
 62
     7
 10
-16.760083
 20
103.938723
 30
0.0
  0
SEQEND
  5
4243
  8
0
 62
     7
  0
POLYLINE
  5
3C55
  8
0
 62
     7
 66
     1
 10
0.0
 20
0.0
 30
0.0
  0
VERTEX
  5
4244
  8
0
 62
     7
 10
-16.80597
 20
103.031403
 30
0.0
  0
VERTEX
  5
4245
  8
0
 62
     7
 10
-16.787119
 20
102.990135
 30
0.0
  0
VERTEX
  5
4246
  8
0
 62
     7
 10
-16.778586
 20
102.938723
 30
0.0
  0
SEQEND
  5
4247
  8
0
 62
     7
  0
POLYLINE
  5
3C56
  8
0
 62
     7
 66
     1
 10
0.0
 20
0.0
 30
0.0
  0
VERTEX
  5
4248
  8
0
 62
     7
 10
-16.803629
 20
103.057986
 30
0.0
  0
VERTEX
  5
4249
  8
0
 62
     7
 10
-16.790387
 20
103.042377
 30
0.0
  0
VERTEX
  5
424A
  8
0
 62
     7
 10
-16.767689
 20
102.991041
 30
0.0
  0
VERTEX
  5
424B
  8
0
 62
     7
 10
-16.760083
 20
102.938723
 30
0.0
  0
SEQEND
  5
424C
  8
0
 62
     7
  0
LINE
  5
3C57
  8
0
 62
     7
 10
-16.760083
 20
103.938723
 30
0.0
 11
-16.757771
 21
103.938723
 31
0.0
  0
LINE
  5
3C58
  8
0
 62
     7
 10
-16.557771
 20
103.788723
 30
0.0
 11
-16.757771
 21
103.788723
 31
0.0
  0
LINE
  5
3C59
  8
0
 62
     7
 10
-16.778586
 20
102.938723
 30
0.0
 11
-16.760083
 21
102.938723
 31
0.0
  0
LINE
  5
3C5A
  8
0
 62
     7
 10
-16.757771
 20
104.650076
 30
0.0
 11
-16.773141
 21
104.649942
 31
0.0
  0
LINE
  5
3C5B
  8
0
 62
     7
 10
-16.772956
 20
103.499944
 30
0.0
 11
-16.806247
 21
103.499655
 31
0.0
  0
LINE
  5
3C5C
  8
0
 62
     7
 10
-16.803629
 20
101.501689
 30
0.0
 11
-16.803893
 21
101.501689
 31
0.0
  0
LINE
  5
3C5D
  8
0
 62
     7
 10
-14.257771
 20
122.838723
 30
0.0
 11
-6.457771
 21
122.838723
 31
0.0
  0
LINE
  5
3C5E
  8
0
 62
     7
 10
-17.062287
 20
109.85253
 30
0.0
 11
-17.062287
 21
117.338723
 31
0.0
  0
LINE
  5
3C5F
  8
0
 62
     7
 10
-17.222363
 20
117.233306
 30
0.0
 11
-17.222363
 21
109.898333
 31
0.0
  0
LINE
  5
3C60
  8
0
 62
     7
 10
-17.224969
 20
117.233278
 30
0.0
 11
-17.224969
 21
109.889806
 31
0.0
  0
ARC
  5
3C61
  8
0
 62
     7
 10
-16.957772
 20
109.077363
 30
0.0
 40
0.2
 50
0.002118
 51
89.499842
  0
POLYLINE
  5
3C62
  8
0
 62
     7
 66
     1
 10
0.0
 20
0.0
 30
0.0
  0
VERTEX
  5
424D
  8
0
 62
     7
 10
-17.346861
 20
111.288723
 30
0.0
  0
VERTEX
  5
424E
  8
0
 62
     7
 10
-17.354644
 20
110.624376
 30
0.0
  0
VERTEX
  5
424F
  8
0
 62
     7
 10
-17.377942
 20
109.987621
 30
0.0
  0
VERTEX
  5
4250
  8
0
 62
     7
 10
-17.416276
 20
109.408877
 30
0.0
  0
VERTEX
  5
4251
  8
0
 62
     7
 10
-17.469271
 20
108.90936
 30
0.0
  0
VERTEX
  5
4252
  8
0
 62
     7
 10
-17.535287
 20
108.515385
 30
0.0
  0
VERTEX
  5
4253
  8
0
 62
     7
 10
-17.613293
 20
108.240567
 30
0.0
  0
VERTEX
  5
4254
  8
0
 62
     7
 10
-17.699745
 20
108.100889
 30
0.0
  0
VERTEX
  5
4255
  8
0
 62
     7
 10
-17.745935
 20
108.083536
 30
0.0
  0
SEQEND
  5
4256
  8
0
 62
     7
  0
LINE
  5
3C63
  8
0
 62
     7
 10
-21.607771
 20
115.894832
 30
0.0
 11
-21.607771
 21
107.538723
 31
0.0
  0
POLYLINE
  5
3C64
  8
0
 62
     7
 66
     1
 10
0.0
 20
0.0
 30
0.0
  0
VERTEX
  5
4257
  8
0
 62
     7
 10
-17.745935
 20
108.083536
 30
0.0
  0
VERTEX
  5
4258
  8
0
 62
     7
 10
-17.792412
 20
108.101206
 30
0.0
  0
VERTEX
  5
4259
  8
0
 62
     7
 10
-17.885965
 20
108.241739
 30
0.0
  0
VERTEX
  5
425A
  8
0
 62
     7
 10
-17.976939
 20
108.517856
 30
0.0
  0
VERTEX
  5
425B
  8
0
 62
     7
 10
-18.059286
 20
108.913235
 30
0.0
  0
VERTEX
  5
425C
  8
0
 62
     7
 10
-18.129247
 20
109.413564
 30
0.0
  0
VERTEX
  5
425D
  8
0
 62
     7
 10
-18.182158
 20
109.992141
 30
0.0
  0
VERTEX
  5
425E
  8
0
 62
     7
 10
-18.215297
 20
110.627503
 30
0.0
  0
VERTEX
  5
425F
  8
0
 62
     7
 10
-18.226518
 20
111.288723
 30
0.0
  0
SEQEND
  5
4260
  8
0
 62
     7
  0
POLYLINE
  5
3C65
  8
0
 62
     7
 66
     1
 10
0.0
 20
0.0
 30
0.0
  0
VERTEX
  5
4261
  8
0
 62
     7
 10
-17.15617
 20
109.701908
 30
0.0
  0
VERTEX
  5
4262
  8
0
 62
     7
 10
-17.193393
 20
109.677471
 30
0.0
  0
VERTEX
  5
4263
  8
0
 62
     7
 10
-17.267825
 20
109.661065
 30
0.0
  0
SEQEND
  5
4264
  8
0
 62
     7
  0
POLYLINE
  5
3C66
  8
0
 62
     7
 66
     1
 10
0.0
 20
0.0
 30
0.0
  0
VERTEX
  5
4265
  8
0
 62
     7
 10
-17.121922
 20
109.720605
 30
0.0
  0
VERTEX
  5
4266
  8
0
 62
     7
 10
-17.1853
 20
109.678985
 30
0.0
  0
VERTEX
  5
4267
  8
0
 62
     7
 10
-17.259753
 20
109.662589
 30
0.0
  0
SEQEND
  5
4268
  8
0
 62
     7
  0
LINE
  5
3C67
  8
0
 62
     7
 10
-17.234908
 20
109.824448
 30
0.0
 11
-17.235503
 21
109.82275
 31
0.0
  0
LINE
  5
3C68
  8
0
 62
     7
 10
-17.242075
 20
109.835904
 30
0.0
 11
-17.224969
 21
109.889806
 31
0.0
  0
LINE
  5
3C69
  8
0
 62
     7
 10
-17.224969
 20
109.889806
 30
0.0
 11
-17.222366
 21
109.898337
 31
0.0
  0
LINE
  5
3C6A
  8
0
 62
     7
 10
-17.234908
 20
109.824448
 30
0.0
 11
-17.228815
 21
109.845113
 31
0.0
  0
LINE
  5
3C6B
  8
0
 62
     7
 10
-17.260577
 20
109.765799
 30
0.0
 11
-17.242075
 21
109.835904
 31
0.0
  0
POLYLINE
  5
3C6C
  8
0
 62
     7
 66
     1
 10
0.0
 20
0.0
 30
0.0
  0
VERTEX
  5
4269
  8
0
 62
     7
 10
-17.062287
 20
109.85253
 30
0.0
  0
VERTEX
  5
426A
  8
0
 62
     7
 10
-17.07883
 20
109.781398
 30
0.0
  0
VERTEX
  5
426B
  8
0
 62
     7
 10
-17.121922
 20
109.720605
 30
0.0
  0
SEQEND
  5
426C
  8
0
 62
     7
  0
LINE
  5
3C6D
  8
0
 62
     7
 10
-17.280079
 20
109.678598
 30
0.0
 11
-17.260577
 21
109.765799
 31
0.0
  0
LINE
  5
3C6E
  8
0
 62
     7
 10
-17.224969
 20
109.889806
 30
0.0
 11
-17.234908
 21
109.824448
 31
0.0
  0
LINE
  5
3C6F
  8
0
 62
     7
 10
-17.228815
 20
109.845113
 30
0.0
 11
-17.222365
 21
109.898521
 31
0.0
  0
LINE
  5
3C70
  8
0
 62
     7
 10
-16.957819
 20
109.238473
 30
0.0
 11
-16.956026
 21
109.277354
 31
0.0
  0
LINE
  5
3C71
  8
0
 62
     7
 10
-16.964549
 20
109.091149
 30
0.0
 11
-16.956026
 21
109.277353
 31
0.0
  0
LINE
  5
3C72
  8
0
 62
     7
 10
-17.222366
 20
109.898337
 30
0.0
 11
-17.222363
 21
109.898609
 31
0.0
  0
LINE
  5
3C73
  8
0
 62
     7
 10
-16.975813
 20
109.286652
 30
0.0
 11
-16.974793
 21
109.275627
 31
0.0
  0
POLYLINE
  5
3C74
  8
0
 62
     7
 66
     1
 10
0.0
 20
0.0
 30
0.0
  0
VERTEX
  5
426D
  8
0
 62
     7
 10
-17.062287
 20
109.85253
 30
0.0
  0
VERTEX
  5
426E
  8
0
 62
     7
 10
-17.051417
 20
109.809139
 30
0.0
  0
VERTEX
  5
426F
  8
0
 62
     7
 10
-17.040162
 20
109.756944
 30
0.0
  0
VERTEX
  5
4270
  8
0
 62
     7
 10
-17.028417
 20
109.694082
 30
0.0
  0
VERTEX
  5
4271
  8
0
 62
     7
 10
-17.016117
 20
109.618331
 30
0.0
  0
VERTEX
  5
4272
  8
0
 62
     7
 10
-17.003234
 20
109.527102
 30
0.0
  0
VERTEX
  5
4273
  8
0
 62
     7
 10
-16.989782
 20
109.417553
 30
0.0
  0
VERTEX
  5
4274
  8
0
 62
     7
 10
-16.975813
 20
109.286652
 30
0.0
  0
SEQEND
  5
4275
  8
0
 62
     7
  0
POLYLINE
  5
3C75
  8
0
 62
     7
 66
     1
 10
0.0
 20
0.0
 30
0.0
  0
VERTEX
  5
4276
  8
0
 62
     7
 10
-17.267825
 20
109.661065
 30
0.0
  0
VERTEX
  5
4277
  8
0
 62
     7
 10
-17.256096
 20
109.61729
 30
0.0
  0
VERTEX
  5
4278
  8
0
 62
     7
 10
-17.244012
 20
109.564328
 30
0.0
  0
VERTEX
  5
4279
  8
0
 62
     7
 10
-17.231433
 20
109.500105
 30
0.0
  0
VERTEX
  5
427A
  8
0
 62
     7
 10
-17.218279
 20
109.422136
 30
0.0
  0
VERTEX
  5
427B
  8
0
 62
     7
 10
-17.204514
 20
109.327458
 30
0.0
  0
VERTEX
  5
427C
  8
0
 62
     7
 10
-17.198508
 20
109.279479
 30
0.0
  0
SEQEND
  5
427D
  8
0
 62
     7
  0
POLYLINE
  5
3C76
  8
0
 62
     7
 66
     1
 10
0.0
 20
0.0
 30
0.0
  0
VERTEX
  5
427E
  8
0
 62
     7
 10
-17.259753
 20
109.662589
 30
0.0
  0
VERTEX
  5
427F
  8
0
 62
     7
 10
-17.2489
 20
109.622212
 30
0.0
  0
VERTEX
  5
4280
  8
0
 62
     7
 10
-17.237663
 20
109.57355
 30
0.0
  0
VERTEX
  5
4281
  8
0
 62
     7
 10
-17.225936
 20
109.514829
 30
0.0
  0
VERTEX
  5
4282
  8
0
 62
     7
 10
-17.213656
 20
109.443939
 30
0.0
  0
VERTEX
  5
4283
  8
0
 62
     7
 10
-17.200793
 20
109.358368
 30
0.0
  0
VERTEX
  5
4284
  8
0
 62
     7
 10
-17.190505
 20
109.279409
 30
0.0
  0
SEQEND
  5
4285
  8
0
 62
     7
  0
LINE
  5
3C77
  8
0
 62
     7
 10
-17.27527
 20
109.672508
 30
0.0
 11
-17.267825
 21
109.661065
 31
0.0
  0
POLYLINE
  5
3C78
  8
0
 62
     7
 66
     1
 10
0.0
 20
0.0
 30
0.0
  0
VERTEX
  5
4286
  8
0
 62
     7
 10
-17.273065
 20
109.68084
 30
0.0
  0
VERTEX
  5
4287
  8
0
 62
     7
 10
-17.269086
 20
109.677951
 30
0.0
  0
VERTEX
  5
4288
  8
0
 62
     7
 10
-17.259753
 20
109.662589
 30
0.0
  0
SEQEND
  5
4289
  8
0
 62
     7
  0
POLYLINE
  5
3C79
  8
0
 62
     7
 66
     1
 10
0.0
 20
0.0
 30
0.0
  0
VERTEX
  5
428A
  8
0
 62
     7
 10
-17.221
 20
109.907793
 30
0.0
  0
VERTEX
  5
428B
  8
0
 62
     7
 10
-17.158195
 20
109.897313
 30
0.0
  0
VERTEX
  5
428C
  8
0
 62
     7
 10
-17.108809
 20
109.88385
 30
0.0
  0
VERTEX
  5
428D
  8
0
 62
     7
 10
-17.077264
 20
109.868675
 30
0.0
  0
VERTEX
  5
428E
  8
0
 62
     7
 10
-17.062287
 20
109.85253
 30
0.0
  0
SEQEND
  5
428F
  8
0
 62
     7
  0
LINE
  5
3C7A
  8
0
 62
     7
 10
-17.341058
 20
109.280723
 30
0.0
 11
-16.956026
 21
109.277363
 31
0.0
  0
POLYLINE
  5
3C7B
  8
0
 62
     7
 66
     1
 10
0.0
 20
0.0
 30
0.0
  0
VERTEX
  5
4290
  8
0
 62
     7
 10
-18.226518
 20
111.288723
 30
0.0
  0
VERTEX
  5
4291
  8
0
 62
     7
 10
-18.215297
 20
111.949937
 30
0.0
  0
VERTEX
  5
4292
  8
0
 62
     7
 10
-18.182159
 20
112.585283
 30
0.0
  0
VERTEX
  5
4293
  8
0
 62
     7
 10
-18.129248
 20
113.163872
 30
0.0
  0
VERTEX
  5
4294
  8
0
 62
     7
 10
-18.059287
 20
113.664206
 30
0.0
  0
VERTEX
  5
4295
  8
0
 62
     7
 10
-17.97694
 20
114.059588
 30
0.0
  0
VERTEX
  5
4296
  8
0
 62
     7
 10
-17.885966
 20
114.335705
 30
0.0
  0
VERTEX
  5
4297
  8
0
 62
     7
 10
-17.792413
 20
114.47624
 30
0.0
  0
VERTEX
  5
4298
  8
0
 62
     7
 10
-17.745935
 20
114.493911
 30
0.0
  0
SEQEND
  5
4299
  8
0
 62
     7
  0
POLYLINE
  5
3C7C
  8
0
 62
     7
 66
     1
 10
0.0
 20
0.0
 30
0.0
  0
VERTEX
  5
429A
  8
0
 62
     7
 10
-17.745935
 20
114.493911
 30
0.0
  0
VERTEX
  5
429B
  8
0
 62
     7
 10
-17.699746
 20
114.476558
 30
0.0
  0
VERTEX
  5
429C
  8
0
 62
     7
 10
-17.613294
 20
114.336881
 30
0.0
  0
VERTEX
  5
429D
  8
0
 62
     7
 10
-17.535287
 20
114.062064
 30
0.0
  0
VERTEX
  5
429E
  8
0
 62
     7
 10
-17.469272
 20
113.668091
 30
0.0
  0
VERTEX
  5
429F
  8
0
 62
     7
 10
-17.416276
 20
113.168578
 30
0.0
  0
VERTEX
  5
42A0
  8
0
 62
     7
 10
-17.377943
 20
112.589846
 30
0.0
  0
VERTEX
  5
42A1
  8
0
 62
     7
 10
-17.354644
 20
111.953077
 30
0.0
  0
VERTEX
  5
42A2
  8
0
 62
     7
 10
-17.346861
 20
111.288723
 30
0.0
  0
SEQEND
  5
42A3
  8
0
 62
     7
  0
LINE
  5
3C7D
  8
0
 62
     7
 10
-16.759868
 20
109.036615
 30
0.0
 11
-16.757771
 21
109.077371
 31
0.0
  0
POLYLINE
  5
3C7E
  8
0
 62
     7
 66
     1
 10
0.0
 20
0.0
 30
0.0
  0
VERTEX
  5
42A4
  8
0
 62
     7
 10
-16.766326
 20
108.908878
 30
0.0
  0
VERTEX
  5
42A5
  8
0
 62
     7
 10
-16.759568
 20
109.042456
 30
0.0
  0
VERTEX
  5
42A6
  8
0
 62
     7
 10
-16.757771
 20
109.077371
 30
0.0
  0
SEQEND
  5
42A7
  8
0
 62
     7
  0
LINE
  5
3C7F
  8
0
 62
     7
 10
-17.657771
 20
117.338723
 30
0.0
 11
-16.557813
 21
117.338723
 31
0.0
  0
LINE
  5
3C80
  8
0
 62
     7
 10
-20.557771
 20
117.357922
 30
0.0
 11
-17.17964
 21
117.328442
 31
0.0
  0
LINE
  5
3C81
  8
0
 62
     7
 10
-20.557771
 20
117.262363
 30
0.0
 11
-20.557771
 21
117.357922
 31
0.0
  0
LINE
  5
3C82
  8
0
 62
     7
 10
-17.555953
 20
117.236167
 30
0.0
 11
-17.555953
 21
117.338723
 31
0.0
  0
LINE
  5
3C83
  8
0
 62
     7
 10
-17.564006
 20
117.236237
 30
0.0
 11
-17.564006
 21
117.331796
 31
0.0
  0
LINE
  5
3C84
  8
0
 62
     7
 10
-17.657771
 20
117.237055
 30
0.0
 11
-17.657771
 21
117.332614
 31
0.0
  0
LINE
  5
3C85
  8
0
 62
     7
 10
-17.660389
 20
117.338723
 30
0.0
 11
-17.660389
 21
117.237078
 31
0.0
  0
LINE
  5
3C86
  8
0
 62
     7
 10
-18.257771
 20
117.337851
 30
0.0
 11
-18.257771
 21
117.242291
 31
0.0
  0
LINE
  5
3C87
  8
0
 62
     7
 10
-14.557771
 20
123.338723
 30
0.0
 11
-14.557771
 21
118.038723
 31
0.0
  0
ARC
  5
3C88
  8
0
 62
     7
 10
-14.557771
 20
119.338723
 30
0.0
 40
0.3
 50
269.999782
 51
0.0
  0
LINE
  5
3C89
  8
0
 62
     7
 10
-14.257771
 20
119.338723
 30
0.0
 11
-14.557771
 21
119.338723
 31
0.0
  0
ARC
  5
3C8A
  8
0
 62
     7
 10
-14.857771
 20
118.038723
 30
0.0
 40
0.3
 50
270.0
 51
0.0
  0
LINE
  5
3C8B
  8
0
 62
     7
 10
-16.557951
 20
117.323016
 30
0.0
 11
-16.557768
 21
117.323015
 31
0.0
  0
POLYLINE
  5
3C8C
  8
0
 62
     7
 66
     1
 10
0.0
 20
0.0
 30
0.0
  0
VERTEX
  5
42A8
  8
0
 62
     7
 10
-16.706926
 20
117.738723
 30
0.0
  0
VERTEX
  5
42A9
  8
0
 62
     7
 10
-16.59381
 20
117.761557
 30
0.0
  0
VERTEX
  5
42AA
  8
0
 62
     7
 10
-16.497909
 20
117.826586
 30
0.0
  0
VERTEX
  5
42AB
  8
0
 62
     7
 10
-16.433827
 20
117.923913
 30
0.0
  0
VERTEX
  5
42AC
  8
0
 62
     7
 10
-16.411324
 20
118.038723
 30
0.0
  0
SEQEND
  5
42AD
  8
0
 62
     7
  0
ARC
  5
3C8D
  8
0
 62
     7
 10
-14.457771
 20
123.538723
 30
0.0
 40
0.2
 50
270.0
 51
0.0
  0
LINE
  5
3C8E
  8
0
 62
     7
 10
-16.407759
 20
123.538723
 30
0.0
 11
-14.257771
 21
123.538723
 31
0.0
  0
POLYLINE
  5
3C8F
  8
0
 62
     7
 66
     1
 10
0.0
 20
0.0
 30
0.0
  0
VERTEX
  5
42AE
  8
0
 62
     7
 10
-16.373331
 20
123.338723
 30
0.0
  0
VERTEX
  5
42AF
  8
0
 62
     7
 10
-16.386533
 20
123.354106
 30
0.0
  0
VERTEX
  5
42B0
  8
0
 62
     7
 10
-16.397691
 20
123.397592
 30
0.0
  0
VERTEX
  5
42B1
  8
0
 62
     7
 10
-16.405154
 20
123.462571
 30
0.0
  0
VERTEX
  5
42B2
  8
0
 62
     7
 10
-16.407759
 20
123.538723
 30
0.0
  0
SEQEND
  5
42B3
  8
0
 62
     7
  0
LINE
  5
3C90
  8
0
 62
     7
 10
-16.373331
 20
123.338723
 30
0.0
 11
-14.457771
 21
123.338723
 31
0.0
  0
LINE
  5
3C91
  8
0
 62
     7
 10
-6.457771
 20
123.538723
 30
0.0
 11
-2.957771
 21
125.238723
 31
0.0
  0
LINE
  5
3C92
  8
0
 62
     7
 10
-6.457771
 20
122.838723
 30
0.0
 11
-6.457771
 21
123.538723
 31
0.0
  0
LINE
  5
3C93
  8
0
 62
     7
 10
-2.157771
 20
125.038723
 30
0.0
 11
-1.557771
 21
125.038723
 31
0.0
  0
LINE
  5
3C94
  8
0
 62
     7
 10
-1.557771
 20
133.238723
 30
0.0
 11
-2.357771
 21
133.238723
 31
0.0
  0
LINE
  5
3C95
  8
0
 62
     7
 10
-2.957771
 20
126.538723
 30
0.0
 11
-2.157771
 21
126.538723
 31
0.0
  0
LINE
  5
3C96
  8
0
 62
     7
 10
-11.657771
 20
146.338723
 30
0.0
 11
-11.657771
 21
137.938723
 31
0.0
  0
LINE
  5
3C97
  8
0
 62
     7
 10
-13.313973
 20
146.338723
 30
0.0
 11
-13.313973
 21
139.4692
 31
0.0
  0
LINE
  5
3C98
  8
0
 62
     7
 10
-13.822375
 20
139.558845
 30
0.0
 11
-13.822375
 21
150.399353
 31
0.0
  0
LINE
  5
3C99
  8
0
 62
     7
 10
-14.85244
 20
145.62558
 30
0.0
 11
-14.85244
 21
145.350616
 31
0.0
  0
POLYLINE
  5
3C9A
  8
0
 62
     7
 66
     1
 10
0.0
 20
0.0
 30
0.0
  0
VERTEX
  5
42B4
  8
0
 62
     7
 10
-16.717026
 20
139.887695
 30
0.0
  0
VERTEX
  5
42B5
  8
0
 62
     7
 10
-15.793584
 20
140.519484
 30
0.0
  0
VERTEX
  5
42B6
  8
0
 62
     7
 10
-15.07297
 20
141.212456
 30
0.0
  0
VERTEX
  5
42B7
  8
0
 62
     7
 10
-14.562885
 20
141.944321
 30
0.0
  0
VERTEX
  5
42B8
  8
0
 62
     7
 10
-14.267613
 20
142.676108
 30
0.0
  0
VERTEX
  5
42B9
  8
0
 62
     7
 10
-14.166004
 20
143.417618
 30
0.0
  0
VERTEX
  5
42BA
  8
0
 62
     7
 10
-14.256784
 20
144.159805
 30
0.0
  0
VERTEX
  5
42BB
  8
0
 62
     7
 10
-14.540658
 20
144.891593
 30
0.0
  0
VERTEX
  5
42BC
  8
0
 62
     7
 10
-15.038205
 20
145.62411
 30
0.0
  0
VERTEX
  5
42BD
  8
0
 62
     7
 10
-15.747341
 20
146.320222
 30
0.0
  0
VERTEX
  5
42BE
  8
0
 62
     7
 10
-16.65925
 20
146.95581
 30
0.0
  0
VERTEX
  5
42BF
  8
0
 62
     7
 10
-17.059423
 20
147.156967
 30
0.0
  0
SEQEND
  5
42C0
  8
0
 62
     7
  0
POLYLINE
  5
3C9B
  8
0
 62
     7
 66
     1
 10
0.0
 20
0.0
 30
0.0
  0
VERTEX
  5
42C1
  8
0
 62
     7
 10
-17.045669
 20
147.286284
 30
0.0
  0
VERTEX
  5
42C2
  8
0
 62
     7
 10
-16.452473
 20
146.972347
 30
0.0
  0
VERTEX
  5
42C3
  8
0
 62
     7
 10
-15.461588
 20
146.250626
 30
0.0
  0
VERTEX
  5
42C4
  8
0
 62
     7
 10
-14.705321
 20
145.436836
 30
0.0
  0
VERTEX
  5
42C5
  8
0
 62
     7
 10
-14.263202
 20
144.678116
 30
0.0
  0
VERTEX
  5
42C6
  8
0
 62
     7
 10
-14.036903
 20
143.919173
 30
0.0
  0
VERTEX
  5
42C7
  8
0
 62
     7
 10
-14.01164
 20
143.15045
 30
0.0
  0
VERTEX
  5
42C8
  8
0
 62
     7
 10
-14.165031
 20
142.451887
 30
0.0
  0
VERTEX
  5
42C9
  8
0
 62
     7
 10
-14.428178
 20
141.867998
 30
0.0
  0
VERTEX
  5
42CA
  8
0
 62
     7
 10
-14.83602
 20
141.27196
 30
0.0
  0
VERTEX
  5
42CB
  8
0
 62
     7
 10
-15.482389
 20
140.608646
 30
0.0
  0
VERTEX
  5
42CC
  8
0
 62
     7
 10
-16.30569
 20
139.996721
 30
0.0
  0
SEQEND
  5
42CD
  8
0
 62
     7
  0
LINE
  5
3C9C
  8
0
 62
     7
 10
-2.357771
 20
132.438723
 30
0.0
 11
-12.257771
 21
132.438723
 31
0.0
  0
LINE
  5
3C9D
  8
0
 62
     7
 10
-14.557771
 20
137.038723
 30
0.0
 11
-14.557771
 21
135.036051
 31
0.0
  0
LINE
  5
3C9E
  8
0
 62
     7
 10
-16.411324
 20
135.036051
 30
0.0
 11
-16.411324
 21
137.038723
 31
0.0
  0
POLYLINE
  5
3C9F
  8
0
 62
     7
 66
     1
 10
0.0
 20
0.0
 30
0.0
  0
VERTEX
  5
42CE
  8
0
 62
     7
 10
-16.411324
 20
133.036051
 30
0.0
  0
VERTEX
  5
42CF
  8
0
 62
     7
 10
-16.475655
 20
133.055574
 30
0.0
  0
VERTEX
  5
42D0
  8
0
 62
     7
 10
-16.585657
 20
133.118216
 30
0.0
  0
VERTEX
  5
42D1
  8
0
 62
     7
 10
-16.720136
 20
133.22721
 30
0.0
  0
VERTEX
  5
42D2
  8
0
 62
     7
 10
-16.854274
 20
133.382379
 30
0.0
  0
VERTEX
  5
42D3
  8
0
 62
     7
 10
-16.969362
 20
133.58628
 30
0.0
  0
VERTEX
  5
42D4
  8
0
 62
     7
 10
-17.043774
 20
133.830736
 30
0.0
  0
VERTEX
  5
42D5
  8
0
 62
     7
 10
-17.061131
 20
134.100776
 30
0.0
  0
VERTEX
  5
42D6
  8
0
 62
     7
 10
-17.016185
 20
134.362034
 30
0.0
  0
VERTEX
  5
42D7
  8
0
 62
     7
 10
-16.921468
 20
134.588493
 30
0.0
  0
VERTEX
  5
42D8
  8
0
 62
     7
 10
-16.79374
 20
134.772436
 30
0.0
  0
VERTEX
  5
42D9
  8
0
 62
     7
 10
-16.656451
 20
134.906528
 30
0.0
  0
VERTEX
  5
42DA
  8
0
 62
     7
 10
-16.529355
 20
134.99435
 30
0.0
  0
VERTEX
  5
42DB
  8
0
 62
     7
 10
-16.439019
 20
135.036051
 30
0.0
  0
SEQEND
  5
42DC
  8
0
 62
     7
  0
ARC
  5
3CA0
  8
0
 62
     7
 10
-14.457771
 20
131.938723
 30
0.0
 40
0.2
 50
0.0
 51
90.0
  0
LINE
  5
3CA1
  8
0
 62
     7
 10
-16.407759
 20
131.938723
 30
0.0
 11
-14.257771
 21
131.938723
 31
0.0
  0
ARC
  5
3CA2
  8
0
 62
     7
 10
-13.82032
 20
134.038723
 30
0.0
 40
1.244663
 50
126.747153
 51
233.666048
  0
POLYLINE
  5
3CA3
  8
0
 62
     7
 66
     1
 10
0.0
 20
0.0
 30
0.0
  0
VERTEX
  5
42DD
  8
0
 62
     7
 10
-16.407759
 20
131.938723
 30
0.0
  0
VERTEX
  5
42DE
  8
0
 62
     7
 10
-16.405154
 20
132.014875
 30
0.0
  0
VERTEX
  5
42DF
  8
0
 62
     7
 10
-16.397691
 20
132.079855
 30
0.0
  0
VERTEX
  5
42E0
  8
0
 62
     7
 10
-16.386533
 20
132.12334
 30
0.0
  0
VERTEX
  5
42E1
  8
0
 62
     7
 10
-16.373331
 20
132.138723
 30
0.0
  0
SEQEND
  5
42E2
  8
0
 62
     7
  0
LINE
  5
3CA4
  8
0
 62
     7
 10
-14.557771
 20
133.036051
 30
0.0
 11
-14.557771
 21
132.138723
 31
0.0
  0
LINE
  5
3CA5
  8
0
 62
     7
 10
-16.439019
 20
135.036051
 30
0.0
 11
-14.557788
 21
135.036051
 31
0.0
  0
LINE
  5
3CA6
  8
0
 62
     7
 10
-14.557771
 20
133.036051
 30
0.0
 11
-16.411324
 21
133.036051
 31
0.0
  0
LINE
  5
3CA7
  8
0
 62
     7
 10
-16.373331
 20
132.138723
 30
0.0
 11
-14.457771
 21
132.138723
 31
0.0
  0
LINE
  5
3CA8
  8
0
 62
     7
 10
-12.257771
 20
132.438723
 30
0.0
 11
-12.257771
 21
133.238723
 31
0.0
  0
LINE
  5
3CA9
  8
0
 62
     7
 10
-12.257771
 20
133.238723
 30
0.0
 11
-14.257771
 21
133.238723
 31
0.0
  0
POLYLINE
  5
3CAA
  8
0
 62
     7
 66
     1
 10
0.0
 20
0.0
 30
0.0
  0
VERTEX
  5
42E3
  8
0
 62
     7
 10
-21.674208
 20
138.407851
 30
0.0
  0
VERTEX
  5
42E4
  8
0
 62
     7
 10
-20.479509
 20
138.57309
 30
0.0
  0
VERTEX
  5
42E5
  8
0
 62
     7
 10
-19.165057
 20
138.874807
 30
0.0
  0
VERTEX
  5
42E6
  8
0
 62
     7
 10
-17.848551
 20
139.330024
 30
0.0
  0
VERTEX
  5
42E7
  8
0
 62
     7
 10
-16.717026
 20
139.887695
 30
0.0
  0
SEQEND
  5
42E8
  8
0
 62
     7
  0
LINE
  5
3CAB
  8
0
 62
     7
 10
-17.85244
 20
139.209484
 30
0.0
 11
-17.85244
 21
139.227664
 31
0.0
  0
LINE
  5
3CAC
  8
0
 62
     7
 10
-18.112597
 20
139.238723
 30
0.0
 11
-17.823129
 21
139.238723
 31
0.0
  0
LINE
  5
3CAD
  8
0
 62
     7
 10
-18.285623
 20
139.178895
 30
0.0
 11
-17.977424
 21
139.180509
 31
0.0
  0
LINE
  5
3CAE
  8
0
 62
     7
 10
-17.769548
 20
143.316633
 30
0.0
 11
-17.47123
 21
143.284906
 31
0.0
  0
POLYLINE
  5
3CAF
  8
0
 62
     7
 66
     1
 10
0.0
 20
0.0
 30
0.0
  0
VERTEX
  5
42E9
  8
0
 62
     7
 10
-13.813055
 20
137.938723
 30
0.0
  0
VERTEX
  5
42EA
  8
0
 62
     7
 10
-13.977368
 20
137.970954
 30
0.0
  0
VERTEX
  5
42EB
  8
0
 62
     7
 10
-14.155366
 20
138.044098
 30
0.0
  0
VERTEX
  5
42EC
  8
0
 62
     7
 10
-14.340447
 20
138.1375
 30
0.0
  0
VERTEX
  5
42ED
  8
0
 62
     7
 10
-14.527198
 20
138.238723
 30
0.0
  0
SEQEND
  5
42EE
  8
0
 62
     7
  0
LINE
  5
3CB0
  8
0
 62
     7
 10
-16.305689
 20
139.996721
 30
0.0
 11
-13.313973
 21
139.4692
 31
0.0
  0
ARC
  5
3CB1
  8
0
 62
     7
 10
-14.857771
 20
137.038723
 30
0.0
 40
0.3
 50
0.0
 51
90.0
  0
LINE
  5
3CB2
  8
0
 62
     7
 10
-14.527198
 20
138.238723
 30
0.0
 11
-14.527198
 21
139.683125
 31
0.0
  0
POLYLINE
  5
3CB3
  8
0
 62
     7
 66
     1
 10
0.0
 20
0.0
 30
0.0
  0
VERTEX
  5
42EF
  8
0
 62
     7
 10
-16.706926
 20
137.338723
 30
0.0
  0
VERTEX
  5
42F0
  8
0
 62
     7
 10
-16.593804
 20
137.315887
 30
0.0
  0
VERTEX
  5
42F1
  8
0
 62
     7
 10
-16.497904
 20
137.250855
 30
0.0
  0
VERTEX
  5
42F2
  8
0
 62
     7
 10
-16.433825
 20
137.153528
 30
0.0
  0
VERTEX
  5
42F3
  8
0
 62
     7
 10
-16.411324
 20
137.038723
 30
0.0
  0
SEQEND
  5
42F4
  8
0
 62
     7
  0
LINE
  5
3CB4
  8
0
 62
     7
 10
-12.457771
 20
137.938723
 30
0.0
 11
-12.457771
 21
137.638723
 31
0.0
  0
LINE
  5
3CB5
  8
0
 62
     7
 10
-13.542
 20
137.938723
 30
0.0
 11
-13.542
 21
139.509408
 31
0.0
  0
LINE
  5
3CB6
  8
0
 62
     7
 10
-14.187873
 20
137.638723
 30
0.0
 11
-14.187873
 21
137.938723
 31
0.0
  0
LINE
  5
3CB7
  8
0
 62
     7
 10
-14.494914
 20
142.112776
 30
0.0
 11
-14.494914
 21
141.770467
 31
0.0
  0
LINE
  5
3CB8
  8
0
 62
     7
 10
-14.494914
 20
145.120421
 30
0.0
 11
-14.494914
 21
144.773671
 31
0.0
  0
LINE
  5
3CB9
  8
0
 62
     7
 10
-14.85244
 20
141.52887
 30
0.0
 11
-14.85244
 21
141.251866
 31
0.0
  0
LINE
  5
3CBA
  8
0
 62
     7
 10
-15.257771
 20
140.839153
 30
0.0
 11
-15.257771
 21
141.034744
 31
0.0
  0
LINE
  5
3CBB
  8
0
 62
     7
 10
-2.357771
 20
133.238723
 30
0.0
 11
-2.357771
 21
132.438723
 31
0.0
  0
LINE
  5
3CBC
  8
0
 62
     7
 10
-12.807599
 20
157.738723
 30
0.0
 11
-11.507599
 21
158.489279
 31
0.0
  0
LINE
  5
3CBD
  8
0
 62
     7
 10
-12.957771
 20
157.438723
 30
0.0
 11
-11.457771
 21
156.572698
 31
0.0
  0
LINE
  5
3CBE
  8
0
 62
     7
 10
-12.87388
 20
156.572698
 30
0.0
 11
-11.457771
 21
156.572698
 31
0.0
  0
LINE
  5
3CBF
  8
0
 62
     7
 10
-11.45782
 20
146.338723
 30
0.0
 11
-13.313968
 21
146.338723
 31
0.0
  0
LINE
  5
3CC0
  8
0
 62
     7
 10
-12.87388
 20
156.572698
 30
0.0
 11
-12.87388
 21
150.095405
 31
0.0
  0
POLYLINE
  5
3CC1
  8
0
 62
     7
 66
     1
 10
0.0
 20
0.0
 30
0.0
  0
VERTEX
  5
42F5
  8
0
 62
     7
 10
-13.032325
 20
150.169078
 30
0.0
  0
VERTEX
  5
42F6
  8
0
 62
     7
 10
-13.052177
 20
150.280074
 30
0.0
  0
VERTEX
  5
42F7
  8
0
 62
     7
 10
-13.111478
 20
150.375232
 30
0.0
  0
VERTEX
  5
42F8
  8
0
 62
     7
 10
-13.201763
 20
150.44097
 30
0.0
  0
SEQEND
  5
42F9
  8
0
 62
     7
  0
POLYLINE
  5
3CC2
  8
0
 62
     7
 66
     1
 10
0.0
 20
0.0
 30
0.0
  0
VERTEX
  5
42FA
  8
0
 62
     7
 10
-13.05048
 20
150.370426
 30
0.0
  0
VERTEX
  5
42FB
  8
0
 62
     7
 10
-12.956979
 20
150.303028
 30
0.0
  0
VERTEX
  5
42FC
  8
0
 62
     7
 10
-12.895311
 20
150.206624
 30
0.0
  0
VERTEX
  5
42FD
  8
0
 62
     7
 10
-12.87388
 20
150.095405
 30
0.0
  0
SEQEND
  5
42FE
  8
0
 62
     7
  0
LINE
  5
3CC3
  8
0
 62
     7
 10
-13.032254
 20
150.169078
 30
0.0
 11
-13.822375
 21
150.399353
 31
0.0
  0
LINE
  5
3CC4
  8
0
 62
     7
 10
-15.972123
 20
146.476892
 30
0.0
 11
-16.352495
 21
146.899527
 31
0.0
  0
LINE
  5
3CC5
  8
0
 62
     7
 10
-13.032254
 20
146.338723
 30
0.0
 11
-13.032254
 21
150.169078
 31
0.0
  0
LINE
  5
3CC6
  8
0
 62
     7
 10
-12.87388
 20
150.095405
 30
0.0
 11
-13.032254
 21
150.169078
 31
0.0
  0
ARC
  5
3CC7
  8
0
 62
     7
 10
-14.661442
 20
153.438723
 30
0.0
 40
1.8
 50
190.03863
 51
330.0
  0
LINE
  5
3CC8
  8
0
 62
     7
 10
-13.05048
 20
150.370426
 30
0.0
 11
-15.54894
 21
151.535477
 31
0.0
  0
LINE
  5
3CC9
  8
0
 62
     7
 10
-13.822375
 20
150.399353
 30
0.0
 11
-15.675726
 21
151.263585
 31
0.0
  0
ARC
  5
3CCA
  8
0
 62
     7
 10
-14.661442
 20
153.438723
 30
0.0
 40
2.399999
 50
217.893828
 51
245.0
  0
ARC
  5
3CCB
  8
0
 62
     7
 10
-14.661442
 20
153.438723
 30
0.0
 40
2.1
 50
208.915228
 51
245.0
  0
LINE
  5
3CCC
  8
0
 62
     7
 10
-15.675726
 20
151.263585
 30
0.0
 11
-15.54894
 21
151.535477
 31
0.0
  0
ARC
  5
3CCD
  8
0
 62
     7
 10
-14.661442
 20
153.438723
 30
0.0
 40
1.8
 50
13.469477
 51
17.070147
  0
LINE
  5
3CCE
  8
0
 62
     7
 10
-13.102596
 20
152.538723
 30
0.0
 11
-12.910952
 21
152.87066
 31
0.0
  0
LINE
  5
3CCF
  8
0
 62
     7
 10
-13.822375
 20
150.399353
 30
0.0
 11
-13.695589
 21
150.671245
 31
0.0
  0
LINE
  5
3CD0
  8
0
 62
     7
 10
-12.910952
 20
152.87066
 30
0.0
 11
-12.910952
 21
153.857992
 31
0.0
  0
LINE
  5
3CD1
  8
0
 62
     7
 10
-14.390932
 20
157.438723
 30
0.0
 11
-12.87388
 21
156.572698
 31
0.0
  0
LINE
  5
3CD2
  8
0
 62
     7
 10
-14.390932
 20
157.438723
 30
0.0
 11
-12.957771
 21
157.438723
 31
0.0
  0
LINE
  5
3CD3
  8
0
 62
     7
 10
-12.957771
 20
157.438723
 30
0.0
 11
-12.957771
 21
157.738723
 31
0.0
  0
LINE
  5
3CD4
  8
0
 62
     7
 10
-14.079629
 20
157.738723
 30
0.0
 11
-12.807599
 21
157.738723
 31
0.0
  0
LINE
  5
3CD5
  8
0
 62
     7
 10
-11.932331
 20
164.745896
 30
0.0
 11
-11.997418
 21
164.848428
 31
0.0
  0
LINE
  5
3CD6
  8
0
 62
     7
 10
-11.457771
 20
156.572698
 30
0.0
 11
-11.457771
 21
146.338723
 31
0.0
  0
ARC
  5
3CD7
  8
0
 62
     7
 10
-21.257771
 20
184.938723
 30
0.0
 40
0.7
 50
113.202134
 51
180.0
  0
ARC
  5
3CD8
  8
0
 62
     7
 10
-21.257771
 20
184.938723
 30
0.0
 40
1.0
 50
104.577672
 51
180.0
  0
LINE
  5
3CD9
  8
0
 62
     7
 10
-36.957771
 20
223.938723
 30
0.0
 11
-11.457771
 21
223.938723
 31
0.0
  0
LINE
  5
3CDA
  8
0
 62
     7
 10
-36.257771
 20
201.838723
 30
0.0
 11
-11.457716
 21
201.838723
 31
0.0
  0
LINE
  5
3CDB
  8
0
 62
     7
 10
-32.457771
 20
201.338723
 30
0.0
 11
-12.457828
 21
201.338723
 31
0.0
  0
LINE
  5
3CDC
  8
0
 62
     7
 10
-34.757771
 20
201.038723
 30
0.0
 11
-11.757928
 21
201.038723
 31
0.0
  0
LINE
  5
3CDD
  8
0
 62
     7
 10
-34.957771
 20
200.738723
 30
0.0
 11
-11.457771
 21
200.738723
 31
0.0
  0
LINE
  5
3CDE
  8
0
 62
     7
 10
-14.281029
 20
186.683256
 30
0.0
 11
-23.757771
 21
186.683256
 31
0.0
  0
LINE
  5
3CDF
  8
0
 62
     7
 10
-14.281029
 20
186.383667
 30
0.0
 11
-23.059345
 21
186.383667
 31
0.0
  0
LINE
  5
3CE0
  8
0
 62
     7
 10
-16.057771
 20
186.367122
 30
0.0
 11
-22.841256
 21
186.367122
 31
0.0
  0
LINE
  5
3CE1
  8
0
 62
     7
 10
-59.157771
 20
169.538723
 30
0.0
 11
-59.357771
 21
169.538723
 31
0.0
  0
LINE
  5
3CE2
  8
0
 62
     7
 10
-59.357771
 20
167.038723
 30
0.0
 11
-59.157771
 21
167.038723
 31
0.0
  0
LINE
  5
3CE3
  8
0
 62
     7
 10
-59.157771
 20
165.338723
 30
0.0
 11
-59.357771
 21
165.338723
 31
0.0
  0
LINE
  5
3CE4
  8
0
 62
     7
 10
-56.457771
 20
169.538723
 30
0.0
 11
-56.557771
 21
169.538723
 31
0.0
  0
LINE
  5
3CE5
  8
0
 62
     7
 10
-56.557771
 20
167.038723
 30
0.0
 11
-56.457771
 21
167.038723
 31
0.0
  0
LINE
  5
3CE6
  8
0
 62
     7
 10
-56.457771
 20
165.338723
 30
0.0
 11
-56.557771
 21
165.338723
 31
0.0
  0
LINE
  5
3CE7
  8
0
 62
     7
 10
-59.357771
 20
170.438723
 30
0.0
 11
-56.457771
 21
170.438723
 31
0.0
  0
LINE
  5
3CE8
  8
0
 62
     7
 10
-59.157771
 20
170.088723
 30
0.0
 11
-56.557771
 21
170.088723
 31
0.0
  0
LINE
  5
3CE9
  8
0
 62
     7
 10
-22.657771
 20
185.03929
 30
0.0
 11
-22.293801
 21
184.03929
 31
0.0
  0
LINE
  5
3CEA
  8
0
 62
     7
 10
-34.957771
 20
177.938723
 30
0.0
 11
-35.457771
 21
177.938723
 31
0.0
  0
LINE
  5
3CEB
  8
0
 62
     7
 10
-22.257771
 20
184.03929
 30
0.0
 11
-22.293801
 21
184.03929
 31
0.0
  0
LINE
  5
3CEC
  8
0
 62
     7
 10
-22.257771
 20
183.438723
 30
0.0
 11
-22.757771
 21
183.438723
 31
0.0
  0
LINE
  5
3CED
  8
0
 62
     7
 10
-22.257771
 20
183.138723
 30
0.0
 11
-22.757771
 21
183.138723
 31
0.0
  0
ARC
  5
3CEE
  8
0
 62
     7
 10
-34.757771
 20
200.838723
 30
0.0
 40
0.2
 50
90.0
 51
180.0
  0
LINE
  5
3CEF
  8
0
 62
     7
 10
-32.457771
 20
201.338723
 30
0.0
 11
-32.457771
 21
201.038723
 31
0.0
  0
LINE
  5
3CF0
  8
0
 62
     7
 10
-32.657771
 20
201.838723
 30
0.0
 11
-32.657771
 21
201.038723
 31
0.0
  0
LINE
  5
3CF1
  8
0
 62
     7
 10
-33.457771
 20
201.838723
 30
0.0
 11
-33.457771
 21
201.038723
 31
0.0
  0
LINE
  5
3CF2
  8
0
 62
     7
 10
-22.657771
 20
185.03929
 30
0.0
 11
-22.657771
 21
186.367122
 31
0.0
  0
LINE
  5
3CF3
  8
0
 62
     7
 10
-22.841256
 20
186.367122
 30
0.0
 11
-22.841256
 21
186.189247
 31
0.0
  0
POLYLINE
  5
3CF4
  8
0
 62
     7
 66
     1
 10
0.0
 20
0.0
 30
0.0
  0
VERTEX
  5
42FF
  8
0
 62
     7
 10
-23.059364
 20
186.383667
 30
0.0
  0
VERTEX
  5
4300
  8
0
 62
     7
 10
-23.221178
 20
186.419989
 30
0.0
  0
VERTEX
  5
4301
  8
0
 62
     7
 10
-23.39523
 20
186.493017
 30
0.0
  0
VERTEX
  5
4302
  8
0
 62
     7
 10
-23.575691
 20
186.584513
 30
0.0
  0
VERTEX
  5
4303
  8
0
 62
     7
 10
-23.757771
 20
186.683256
 30
0.0
  0
SEQEND
  5
4304
  8
0
 62
     7
  0
POLYLINE
  5
3CF5
  8
0
 62
     7
 66
     1
 10
0.0
 20
0.0
 30
0.0
  0
VERTEX
  5
4305
  8
0
 62
     7
 10
-22.841256
 20
186.189247
 30
0.0
  0
VERTEX
  5
4306
  8
0
 62
     7
 10
-22.795179
 20
186.183692
 30
0.0
  0
VERTEX
  5
4307
  8
0
 62
     7
 10
-22.76717
 20
186.177395
 30
0.0
  0
VERTEX
  5
4308
  8
0
 62
     7
 10
-22.757771
 20
186.170473
 30
0.0
  0
SEQEND
  5
4309
  8
0
 62
     7
  0
POLYLINE
  5
3CF6
  8
0
 62
     7
 66
     1
 10
0.0
 20
0.0
 30
0.0
  0
VERTEX
  5
430A
  8
0
 62
     7
 10
-23.059345
 20
186.383667
 30
0.0
  0
VERTEX
  5
430B
  8
0
 62
     7
 10
-22.935761
 20
186.376004
 30
0.0
  0
VERTEX
  5
430C
  8
0
 62
     7
 10
-22.841256
 20
186.367122
 30
0.0
  0
SEQEND
  5
430D
  8
0
 62
     7
  0
LINE
  5
3CF7
  8
0
 62
     7
 10
-21.957771
 20
184.938723
 30
0.0
 11
-22.257771
 21
184.938723
 31
0.0
  0
LINE
  5
3CF8
  8
0
 62
     7
 10
-22.657771
 20
186.112826
 30
0.0
 11
-22.757771
 21
186.110204
 31
0.0
  0
ARC
  5
3CF9
  8
0
 62
     7
 10
-25.357771
 20
200.938723
 30
0.0
 40
0.6
 50
90.0
 51
137.605906
  0
LINE
  5
3CFA
  8
0
 62
     7
 10
-25.357771
 20
201.538723
 30
0.0
 11
-24.157771
 21
201.538723
 31
0.0
  0
LINE
  5
3CFB
  8
0
 62
     7
 10
-24.157771
 20
201.338723
 30
0.0
 11
-24.157771
 21
201.538723
 31
0.0
  0
LINE
  5
3CFC
  8
0
 62
     7
 10
-22.298125
 20
201.038723
 30
0.0
 11
-22.298125
 21
201.338723
 31
0.0
  0
LINE
  5
3CFD
  8
0
 62
     7
 10
-22.491009
 20
201.338723
 30
0.0
 11
-22.491009
 21
201.038723
 31
0.0
  0
LINE
  5
3CFE
  8
0
 62
     7
 10
-60.457771
 20
207.028723
 30
0.0
 11
-60.457771
 21
210.248723
 31
0.0
  0
POLYLINE
  5
3CFF
  8
0
 62
     7
 66
     1
 10
0.0
 20
0.0
 30
0.0
  0
VERTEX
  5
430E
  8
0
 62
     7
 10
-36.957771
 20
223.938723
 30
0.0
  0
VERTEX
  5
430F
  8
0
 62
     7
 10
-36.947773
 20
223.961076
 30
0.0
  0
VERTEX
  5
4310
  8
0
 62
     7
 10
-36.926836
 20
223.978021
 30
0.0
  0
VERTEX
  5
4311
  8
0
 62
     7
 10
-36.901192
 20
223.991836
 30
0.0
  0
VERTEX
  5
4312
  8
0
 62
     7
 10
-36.871998
 20
224.004071
 30
0.0
  0
VERTEX
  5
4313
  8
0
 62
     7
 10
-36.840141
 20
224.015188
 30
0.0
  0
VERTEX
  5
4314
  8
0
 62
     7
 10
-36.805334
 20
224.025693
 30
0.0
  0
VERTEX
  5
4315
  8
0
 62
     7
 10
-36.767345
 20
224.035835
 30
0.0
  0
VERTEX
  5
4316
  8
0
 62
     7
 10
-36.725938
 20
224.045762
 30
0.0
  0
VERTEX
  5
4317
  8
0
 62
     7
 10
-36.680898
 20
224.055565
 30
0.0
  0
VERTEX
  5
4318
  8
0
 62
     7
 10
-36.631941
 20
224.065317
 30
0.0
  0
VERTEX
  5
4319
  8
0
 62
     7
 10
-36.578846
 20
224.075059
 30
0.0
  0
VERTEX
  5
431A
  8
0
 62
     7
 10
-36.521407
 20
224.084813
 30
0.0
  0
VERTEX
  5
431B
  8
0
 62
     7
 10
-36.459241
 20
224.094624
 30
0.0
  0
VERTEX
  5
431C
  8
0
 62
     7
 10
-36.391698
 20
224.104562
 30
0.0
  0
VERTEX
  5
431D
  8
0
 62
     7
 10
-36.318208
 20
224.114665
 30
0.0
  0
VERTEX
  5
431E
  8
0
 62
     7
 10
-36.239178
 20
224.124838
 30
0.0
  0
VERTEX
  5
431F
  8
0
 62
     7
 10
-36.155493
 20
224.13495
 30
0.0
  0
VERTEX
  5
4320
  8
0
 62
     7
 10
-36.066965
 20
224.145015
 30
0.0
  0
VERTEX
  5
4321
  8
0
 62
     7
 10
-35.972608
 20
224.15513
 30
0.0
  0
VERTEX
  5
4322
  8
0
 62
     7
 10
-35.871416
 20
224.165367
 30
0.0
  0
VERTEX
  5
4323
  8
0
 62
     7
 10
-35.762383
 20
224.175782
 30
0.0
  0
VERTEX
  5
4324
  8
0
 62
     7
 10
-35.644503
 20
224.186416
 30
0.0
  0
VERTEX
  5
4325
  8
0
 62
     7
 10
-35.516773
 20
224.197294
 30
0.0
  0
VERTEX
  5
4326
  8
0
 62
     7
 10
-35.378191
 20
224.208429
 30
0.0
  0
VERTEX
  5
4327
  8
0
 62
     7
 10
-35.227823
 20
224.21982
 30
0.0
  0
VERTEX
  5
4328
  8
0
 62
     7
 10
-35.064834
 20
224.23145
 30
0.0
  0
VERTEX
  5
4329
  8
0
 62
     7
 10
-34.888398
 20
224.243293
 30
0.0
  0
VERTEX
  5
432A
  8
0
 62
     7
 10
-34.697694
 20
224.255321
 30
0.0
  0
VERTEX
  5
432B
  8
0
 62
     7
 10
-34.491838
 20
224.267501
 30
0.0
  0
VERTEX
  5
432C
  8
0
 62
     7
 10
-34.269551
 20
224.279817
 30
0.0
  0
VERTEX
  5
432D
  8
0
 62
     7
 10
-34.029402
 20
224.292248
 30
0.0
  0
VERTEX
  5
432E
  8
0
 62
     7
 10
-33.769957
 20
224.304763
 30
0.0
  0
VERTEX
  5
432F
  8
0
 62
     7
 10
-33.489654
 20
224.317321
 30
0.0
  0
VERTEX
  5
4330
  8
0
 62
     7
 10
-33.1868
 20
224.329873
 30
0.0
  0
VERTEX
  5
4331
  8
0
 62
     7
 10
-32.859661
 20
224.342356
 30
0.0
  0
VERTEX
  5
4332
  8
0
 62
     7
 10
-32.506247
 20
224.354699
 30
0.0
  0
VERTEX
  5
4333
  8
0
 62
     7
 10
-32.124446
 20
224.366816
 30
0.0
  0
VERTEX
  5
4334
  8
0
 62
     7
 10
-31.711947
 20
224.378603
 30
0.0
  0
VERTEX
  5
4335
  8
0
 62
     7
 10
-31.266269
 20
224.389935
 30
0.0
  0
VERTEX
  5
4336
  8
0
 62
     7
 10
-30.784696
 20
224.400661
 30
0.0
  0
VERTEX
  5
4337
  8
0
 62
     7
 10
-30.264302
 20
224.410599
 30
0.0
  0
VERTEX
  5
4338
  8
0
 62
     7
 10
-29.701889
 20
224.419529
 30
0.0
  0
VERTEX
  5
4339
  8
0
 62
     7
 10
-29.093984
 20
224.427181
 30
0.0
  0
VERTEX
  5
433A
  8
0
 62
     7
 10
-28.436813
 20
224.433224
 30
0.0
  0
VERTEX
  5
433B
  8
0
 62
     7
 10
-27.726245
 20
224.437245
 30
0.0
  0
VERTEX
  5
433C
  8
0
 62
     7
 10
-26.957771
 20
224.438723
 30
0.0
  0
SEQEND
  5
433D
  8
0
 62
     7
  0
LINE
  5
3D00
  8
0
 62
     7
 10
-11.457771
 20
204.688723
 30
0.0
 11
-11.457771
 21
201.838723
 31
0.0
  0
LINE
  5
3D01
  8
0
 62
     7
 10
-13.259049
 20
201.838723
 30
0.0
 11
-13.259049
 21
223.938723
 31
0.0
  0
LINE
  5
3D02
  8
0
 62
     7
 10
-14.245193
 20
201.838723
 30
0.0
 11
-14.245193
 21
224.438723
 31
0.0
  0
ARC
  5
3D03
  8
0
 62
     7
 10
-19.53437
 20
183.139992
 30
0.0
 40
10.0
 50
359.182704
 51
17.716265
  0
POLYLINE
  5
3D04
  8
0
 62
     7
 66
     1
 10
0.0
 20
0.0
 30
0.0
  0
VERTEX
  5
433E
  8
0
 62
     7
 10
-10.687515
 20
179.786699
 30
0.0
  0
VERTEX
  5
433F
  8
0
 62
     7
 10
-10.724765
 20
179.925366
 30
0.0
  0
VERTEX
  5
4340
  8
0
 62
     7
 10
-10.743655
 20
180.112299
 30
0.0
  0
VERTEX
  5
4341
  8
0
 62
     7
 10
-10.748986
 20
180.338558
 30
0.0
  0
VERTEX
  5
4342
  8
0
 62
     7
 10
-10.743917
 20
180.598831
 30
0.0
  0
VERTEX
  5
4343
  8
0
 62
     7
 10
-10.730301
 20
180.892015
 30
0.0
  0
VERTEX
  5
4344
  8
0
 62
     7
 10
-10.708612
 20
181.21824
 30
0.0
  0
VERTEX
  5
4345
  8
0
 62
     7
 10
-10.679368
 20
181.572035
 30
0.0
  0
VERTEX
  5
4346
  8
0
 62
     7
 10
-10.642977
 20
181.948408
 30
0.0
  0
VERTEX
  5
4347
  8
0
 62
     7
 10
-10.604676
 20
182.298218
 30
0.0
  0
VERTEX
  5
4348
  8
0
 62
     7
 10
-10.567083
 20
182.607982
 30
0.0
  0
VERTEX
  5
4349
  8
0
 62
     7
 10
-10.528208
 20
182.898862
 30
0.0
  0
VERTEX
  5
434A
  8
0
 62
     7
 10
-10.487175
 20
183.177397
 30
0.0
  0
VERTEX
  5
434B
  8
0
 62
     7
 10
-10.443869
 20
183.442062
 30
0.0
  0
VERTEX
  5
434C
  8
0
 62
     7
 10
-10.398693
 20
183.687563
 30
0.0
  0
VERTEX
  5
434D
  8
0
 62
     7
 10
-10.350641
 20
183.912114
 30
0.0
  0
VERTEX
  5
434E
  8
0
 62
     7
 10
-10.298559
 20
184.111917
 30
0.0
  0
VERTEX
  5
434F
  8
0
 62
     7
 10
-10.241364
 20
184.279477
 30
0.0
  0
VERTEX
  5
4350
  8
0
 62
     7
 10
-10.178538
 20
184.401426
 30
0.0
  0
VERTEX
  5
4351
  8
0
 62
     7
 10
-10.108117
 20
184.46389
 30
0.0
  0
SEQEND
  5
4352
  8
0
 62
     7
  0
POLYLINE
  5
3D05
  8
0
 62
     7
 66
     1
 10
0.0
 20
0.0
 30
0.0
  0
VERTEX
  5
4353
  8
0
 62
     7
 10
-12.120177
 20
186.167126
 30
0.0
  0
VERTEX
  5
4354
  8
0
 62
     7
 10
-12.001346
 20
185.763322
 30
0.0
  0
VERTEX
  5
4355
  8
0
 62
     7
 10
-11.88104
 20
185.271431
 30
0.0
  0
VERTEX
  5
4356
  8
0
 62
     7
 10
-11.774691
 20
184.705685
 30
0.0
  0
VERTEX
  5
4357
  8
0
 62
     7
 10
-11.695778
 20
184.08058
 30
0.0
  0
VERTEX
  5
4358
  8
0
 62
     7
 10
-11.655193
 20
183.412195
 30
0.0
  0
VERTEX
  5
4359
  8
0
 62
     7
 10
-11.660391
 20
182.717982
 30
0.0
  0
VERTEX
  5
435A
  8
0
 62
     7
 10
-11.714766
 20
182.016243
 30
0.0
  0
VERTEX
  5
435B
  8
0
 62
     7
 10
-11.817325
 20
181.325431
 30
0.0
  0
VERTEX
  5
435C
  8
0
 62
     7
 10
-11.962703
 20
180.663345
 30
0.0
  0
VERTEX
  5
435D
  8
0
 62
     7
 10
-12.141536
 20
180.046348
 30
0.0
  0
VERTEX
  5
435E
  8
0
 62
     7
 10
-12.341099
 20
179.488933
 30
0.0
  0
VERTEX
  5
435F
  8
0
 62
     7
 10
-12.546141
 20
179.003578
 30
0.0
  0
VERTEX
  5
4360
  8
0
 62
     7
 10
-12.739277
 20
178.602032
 30
0.0
  0
SEQEND
  5
4361
  8
0
 62
     7
  0
POLYLINE
  5
3D06
  8
0
 62
     7
 66
     1
 10
0.0
 20
0.0
 30
0.0
  0
VERTEX
  5
4362
  8
0
 62
     7
 10
-12.401391
 20
186.077809
 30
0.0
  0
VERTEX
  5
4363
  8
0
 62
     7
 10
-12.285973
 20
185.686022
 30
0.0
  0
VERTEX
  5
4364
  8
0
 62
     7
 10
-12.169096
 20
185.208675
 30
0.0
  0
VERTEX
  5
4365
  8
0
 62
     7
 10
-12.065772
 20
184.659633
 30
0.0
  0
VERTEX
  5
4366
  8
0
 62
     7
 10
-11.989099
 20
184.052955
 30
0.0
  0
VERTEX
  5
4367
  8
0
 62
     7
 10
-11.949661
 20
183.404247
 30
0.0
  0
VERTEX
  5
4368
  8
0
 62
     7
 10
-11.954708
 20
182.730451
 30
0.0
  0
VERTEX
  5
4369
  8
0
 62
     7
 10
-12.007539
 20
182.049345
 30
0.0
  0
VERTEX
  5
436A
  8
0
 62
     7
 10
-12.107188
 20
181.378861
 30
0.0
  0
VERTEX
  5
436B
  8
0
 62
     7
 10
-12.248434
 20
180.736298
 30
0.0
  0
VERTEX
  5
436C
  8
0
 62
     7
 10
-12.422171
 20
180.13754
 30
0.0
  0
VERTEX
  5
436D
  8
0
 62
     7
 10
-12.61603
 20
179.596649
 30
0.0
  0
VERTEX
  5
436E
  8
0
 62
     7
 10
-12.815197
 20
179.125718
 30
0.0
  0
VERTEX
  5
436F
  8
0
 62
     7
 10
-13.002748
 20
178.736205
 30
0.0
  0
SEQEND
  5
4370
  8
0
 62
     7
  0
POLYLINE
  5
3D07
  8
0
 62
     7
 66
     1
 10
0.0
 20
0.0
 30
0.0
  0
VERTEX
  5
4371
  8
0
 62
     7
 10
-10.108117
 20
184.46389
 30
0.0
  0
VERTEX
  5
4372
  8
0
 62
     7
 10
-10.033421
 20
184.453038
 30
0.0
  0
VERTEX
  5
4373
  8
0
 62
     7
 10
-9.960062
 20
184.375232
 30
0.0
  0
VERTEX
  5
4374
  8
0
 62
     7
 10
-9.890372
 20
184.243564
 30
0.0
  0
VERTEX
  5
4375
  8
0
 62
     7
 10
-9.828264
 20
184.073375
 30
0.0
  0
VERTEX
  5
4376
  8
0
 62
     7
 10
-9.776033
 20
183.878027
 30
0.0
  0
VERTEX
  5
4377
  8
0
 62
     7
 10
-9.733042
 20
183.658835
 30
0.0
  0
VERTEX
  5
4378
  8
0
 62
     7
 10
-9.700312
 20
183.421861
 30
0.0
  0
VERTEX
  5
4379
  8
0
 62
     7
 10
-9.678309
 20
183.171618
 30
0.0
  0
VERTEX
  5
437A
  8
0
 62
     7
 10
-9.667303
 20
182.907721
 30
0.0
  0
VERTEX
  5
437B
  8
0
 62
     7
 10
-9.668065
 20
182.626409
 30
0.0
  0
VERTEX
  5
437C
  8
0
 62
     7
 10
-9.682705
 20
182.319089
 30
0.0
  0
VERTEX
  5
437D
  8
0
 62
     7
 10
-9.71637
 20
181.968501
 30
0.0
  0
VERTEX
  5
437E
  8
0
 62
     7
 10
-9.772366
 20
181.593846
 30
0.0
  0
VERTEX
  5
437F
  8
0
 62
     7
 10
-9.842941
 20
181.249293
 30
0.0
  0
VERTEX
  5
4380
  8
0
 62
     7
 10
-9.923752
 20
180.938523
 30
0.0
  0
VERTEX
  5
4381
  8
0
 62
     7
 10
-10.0149
 20
180.651539
 30
0.0
  0
VERTEX
  5
4382
  8
0
 62
     7
 10
-10.114616
 20
180.390092
 30
0.0
  0
VERTEX
  5
4383
  8
0
 62
     7
 10
-10.219624
 20
180.160423
 30
0.0
  0
VERTEX
  5
4384
  8
0
 62
     7
 10
-10.327637
 20
179.966949
 30
0.0
  0
VERTEX
  5
4385
  8
0
 62
     7
 10
-10.43599
 20
179.816966
 30
0.0
  0
VERTEX
  5
4386
  8
0
 62
     7
 10
-10.537563
 20
179.726712
 30
0.0
  0
VERTEX
  5
4387
  8
0
 62
     7
 10
-10.625266
 20
179.714033
 30
0.0
  0
SEQEND
  5
4388
  8
0
 62
     7
  0
POLYLINE
  5
3D08
  8
0
 62
     7
 66
     1
 10
0.0
 20
0.0
 30
0.0
  0
VERTEX
  5
4389
  8
0
 62
     7
 10
-11.932331
 20
169.508181
 30
0.0
  0
VERTEX
  5
438A
  8
0
 62
     7
 10
-11.862437
 20
169.489394
 30
0.0
  0
VERTEX
  5
438B
  8
0
 62
     7
 10
-11.805217
 20
169.346929
 30
0.0
  0
VERTEX
  5
438C
  8
0
 62
     7
 10
-11.760165
 20
169.115265
 30
0.0
  0
VERTEX
  5
438D
  8
0
 62
     7
 10
-11.739706
 20
168.940842
 30
0.0
  0
SEQEND
  5
438E
  8
0
 62
     7
  0
LINE
  5
3D09
  8
0
 62
     7
 10
-10.62787
 20
178.593096
 30
0.0
 11
-12.739277
 21
178.602032
 31
0.0
  0
LINE
  5
3D0A
  8
0
 62
     7
 10
-11.696679
 20
177.938723
 30
0.0
 11
-14.00633
 21
177.938723
 31
0.0
  0
LINE
  5
3D0B
  8
0
 62
     7
 10
-14.382906
 20
176.438723
 30
0.0
 11
-9.726967
 21
176.438723
 31
0.0
  0
LINE
  5
3D0C
  8
0
 62
     7
 10
-11.757771
 20
168.938723
 30
0.0
 11
-12.118568
 21
168.938723
 31
0.0
  0
LINE
  5
3D0D
  8
0
 62
     7
 10
-11.757771
 20
168.238723
 30
0.0
 11
-12.208481
 21
168.238723
 31
0.0
  0
LINE
  5
3D0E
  8
0
 62
     7
 10
-12.208715
 20
166.038723
 30
0.0
 11
-11.757771
 21
166.038723
 31
0.0
  0
LINE
  5
3D0F
  8
0
 62
     7
 10
-11.757771
 20
165.338723
 30
0.0
 11
-12.120543
 21
165.338723
 31
0.0
  0
LINE
  5
3D10
  8
0
 62
     7
 10
-14.657771
 20
177.557902
 30
0.0
 11
-14.657771
 21
169.738723
 31
0.0
  0
LINE
  5
3D11
  8
0
 62
     7
 10
-14.957771
 20
177.557902
 30
0.0
 11
-14.957771
 21
169.754631
 31
0.0
  0
LINE
  5
3D12
  8
0
 62
     7
 10
-14.661442
 20
168.938723
 30
0.0
 11
-14.661442
 21
169.70421
 31
0.0
  0
LINE
  5
3D13
  8
0
 62
     7
 10
-14.657771
 20
169.738723
 30
0.0
 11
-14.957771
 21
169.754631
 31
0.0
  0
POLYLINE
  5
3D14
  8
0
 62
     7
 66
     1
 10
0.0
 20
0.0
 30
0.0
  0
VERTEX
  5
438F
  8
0
 62
     7
 10
-12.056585
 20
169.229077
 30
0.0
  0
VERTEX
  5
4390
  8
0
 62
     7
 10
-11.996876
 20
169.409303
 30
0.0
  0
VERTEX
  5
4391
  8
0
 62
     7
 10
-11.932331
 20
169.508181
 30
0.0
  0
SEQEND
  5
4392
  8
0
 62
     7
  0
LINE
  5
3D15
  8
0
 62
     7
 10
-12.050127
 20
165.011988
 30
0.0
 11
-11.970579
 21
164.938723
 31
0.0
  0
LINE
  5
3D16
  8
0
 62
     7
 10
-11.946109
 20
169.338723
 30
0.0
 11
-12.051363
 21
169.244839
 31
0.0
  0
LINE
  5
3D17
  8
0
 62
     7
 10
-12.020259
 20
169.338723
 30
0.0
 11
-11.946109
 21
169.338723
 31
0.0
  0
LINE
  5
3D18
  8
0
 62
     7
 10
-11.970579
 20
164.938723
 30
0.0
 11
-12.026517
 21
164.938723
 31
0.0
  0
POLYLINE
  5
3D19
  8
0
 62
     7
 66
     1
 10
0.0
 20
0.0
 30
0.0
  0
VERTEX
  5
4393
  8
0
 62
     7
 10
-14.648883
 20
177.64182
 30
0.0
  0
VERTEX
  5
4394
  8
0
 62
     7
 10
-14.601712
 20
177.762272
 30
0.0
  0
VERTEX
  5
4395
  8
0
 62
     7
 10
-14.518523
 20
177.861457
 30
0.0
  0
VERTEX
  5
4396
  8
0
 62
     7
 10
-14.407857
 20
177.928951
 30
0.0
  0
VERTEX
  5
4397
  8
0
 62
     7
 10
-14.281186
 20
177.957518
 30
0.0
  0
VERTEX
  5
4398
  8
0
 62
     7
 10
-14.196191
 20
177.95343
 30
0.0
  0
SEQEND
  5
4399
  8
0
 62
     7
  0
POLYLINE
  5
3D1A
  8
0
 62
     7
 66
     1
 10
0.0
 20
0.0
 30
0.0
  0
VERTEX
  5
439A
  8
0
 62
     7
 10
-12.957771
 20
177.617902
 30
0.0
  0
VERTEX
  5
439B
  8
0
 62
     7
 10
-13.024285
 20
177.619339
 30
0.0
  0
VERTEX
  5
439C
  8
0
 62
     7
 10
-13.55674
 20
177.63084
 30
0.0
  0
VERTEX
  5
439D
  8
0
 62
     7
 10
-14.619931
 20
177.65514
 30
0.0
  0
SEQEND
  5
439E
  8
0
 62
     7
  0
POLYLINE
  5
3D1B
  8
0
 62
     7
 66
     1
 10
0.0
 20
0.0
 30
0.0
  0
VERTEX
  5
439F
  8
0
 62
     7
 10
-14.14997
 20
178.249852
 30
0.0
  0
VERTEX
  5
43A0
  8
0
 62
     7
 10
-14.352607
 20
178.25175
 30
0.0
  0
VERTEX
  5
43A1
  8
0
 62
     7
 10
-14.545595
 20
178.196262
 30
0.0
  0
VERTEX
  5
43A2
  8
0
 62
     7
 10
-14.71361
 20
178.08936
 30
0.0
  0
VERTEX
  5
43A3
  8
0
 62
     7
 10
-14.844585
 20
177.939696
 30
0.0
  0
VERTEX
  5
43A4
  8
0
 62
     7
 10
-14.928586
 20
177.757961
 30
0.0
  0
VERTEX
  5
43A5
  8
0
 62
     7
 10
-14.957771
 20
177.557902
 30
0.0
  0
SEQEND
  5
43A6
  8
0
 62
     7
  0
LINE
  5
3D1C
  8
0
 62
     7
 10
-13.648506
 20
176.438723
 30
0.0
 11
-14.661442
 21
175.438723
 31
0.0
  0
LINE
  5
3D1D
  8
0
 62
     7
 10
-14.61895
 20
177.655115
 30
0.0
 11
-14.632174
 21
177.684486
 31
0.0
  0
LINE
  5
3D1E
  8
0
 62
     7
 10
-14.657035
 20
177.582166
 30
0.0
 11
-14.657772
 21
177.557902
 31
0.0
  0
LINE
  5
3D1F
  8
0
 62
     7
 10
-14.619931
 20
177.655145
 30
0.0
 11
-14.619931
 21
175.479701
 31
0.0
  0
LINE
  5
3D20
  8
0
 62
     7
 10
-14.657033
 20
177.582178
 30
0.0
 11
-14.648883
 21
177.64182
 31
0.0
  0
LINE
  5
3D21
  8
0
 62
     7
 10
-14.657771
 20
177.557902
 30
0.0
 11
-14.957771
 21
177.557902
 31
0.0
  0
LINE
  5
3D22
  8
0
 62
     7
 10
-14.646256
 20
177.648529
 30
0.0
 11
-14.619931
 21
177.655145
 31
0.0
  0
LINE
  5
3D23
  8
0
 62
     7
 10
-12.957771
 20
177.618058
 30
0.0
 11
-13.09903
 21
177.938723
 31
0.0
  0
LINE
  5
3D24
  8
0
 62
     7
 10
-12.957771
 20
176.438723
 30
0.0
 11
-12.957771
 21
177.619339
 31
0.0
  0
LINE
  5
3D25
  8
0
 62
     7
 10
-13.822651
 20
177.938723
 30
0.0
 11
-13.822651
 21
178.238723
 31
0.0
  0
LINE
  5
3D26
  8
0
 62
     7
 10
-14.006336
 20
177.938723
 30
0.0
 11
-14.006336
 21
178.238723
 31
0.0
  0
LINE
  5
3D27
  8
0
 62
     7
 10
-12.739277
 20
178.602032
 30
0.0
 11
-13.002748
 21
178.736205
 31
0.0
  0
LINE
  5
3D28
  8
0
 62
     7
 10
-14.196191
 20
177.95343
 30
0.0
 11
-14.14997
 21
178.249852
 31
0.0
  0
POLYLINE
  5
3D29
  8
0
 62
     7
 66
     1
 10
0.0
 20
0.0
 30
0.0
  0
VERTEX
  5
43A7
  8
0
 62
     7
 10
-13.002748
 20
178.736205
 30
0.0
  0
VERTEX
  5
43A8
  8
0
 62
     7
 10
-13.043801
 20
178.664072
 30
0.0
  0
VERTEX
  5
43A9
  8
0
 62
     7
 10
-13.100205
 20
178.584715
 30
0.0
  0
VERTEX
  5
43AA
  8
0
 62
     7
 10
-13.172901
 20
178.503835
 30
0.0
  0
VERTEX
  5
43AB
  8
0
 62
     7
 10
-13.261432
 20
178.427088
 30
0.0
  0
VERTEX
  5
43AC
  8
0
 62
     7
 10
-13.363681
 20
178.35964
 30
0.0
  0
VERTEX
  5
43AD
  8
0
 62
     7
 10
-13.475954
 20
178.305564
 30
0.0
  0
VERTEX
  5
43AE
  8
0
 62
     7
 10
-13.593423
 20
178.267311
 30
0.0
  0
VERTEX
  5
43AF
  8
0
 62
     7
 10
-13.710764
 20
178.245451
 30
0.0
  0
VERTEX
  5
43B0
  8
0
 62
     7
 10
-13.822651
 20
178.238723
 30
0.0
  0
SEQEND
  5
43B1
  8
0
 62
     7
  0
POLYLINE
  5
3D2A
  8
0
 62
     7
 66
     1
 10
0.0
 20
0.0
 30
0.0
  0
VERTEX
  5
43B2
  8
0
 62
     7
 10
-12.739277
 20
178.602032
 30
0.0
  0
VERTEX
  5
43B3
  8
0
 62
     7
 10
-12.793517
 20
178.505871
 30
0.0
  0
VERTEX
  5
43B4
  8
0
 62
     7
 10
-12.868022
 20
178.400096
 30
0.0
  0
VERTEX
  5
43B5
  8
0
 62
     7
 10
-12.964045
 20
178.292284
 30
0.0
  0
VERTEX
  5
43B6
  8
0
 62
     7
 10
-13.081001
 20
178.189959
 30
0.0
  0
VERTEX
  5
43B7
  8
0
 62
     7
 10
-13.216104
 20
178.100011
 30
0.0
  0
VERTEX
  5
43B8
  8
0
 62
     7
 10
-13.364474
 20
178.027882
 30
0.0
  0
VERTEX
  5
43B9
  8
0
 62
     7
 10
-13.519714
 20
177.976858
 30
0.0
  0
VERTEX
  5
43BA
  8
0
 62
     7
 10
-13.674766
 20
177.9477
 30
0.0
  0
VERTEX
  5
43BB
  8
0
 62
     7
 10
-13.822651
 20
177.938724
 30
0.0
  0
SEQEND
  5
43BC
  8
0
 62
     7
  0
POLYLINE
  5
3D2B
  8
0
 62
     7
 66
     1
 10
0.0
 20
0.0
 30
0.0
  0
VERTEX
  5
43BD
  8
0
 62
     7
 10
-14.196187
 20
177.953452
 30
0.0
  0
VERTEX
  5
43BE
  8
0
 62
     7
 10
-14.152768
 20
177.947486
 30
0.0
  0
VERTEX
  5
43BF
  8
0
 62
     7
 10
-14.050064
 20
177.939539
 30
0.0
  0
VERTEX
  5
43C0
  8
0
 62
     7
 10
-14.006336
 20
177.938753
 30
0.0
  0
SEQEND
  5
43C1
  8
0
 62
     7
  0
POLYLINE
  5
3D2C
  8
0
 62
     7
 66
     1
 10
0.0
 20
0.0
 30
0.0
  0
VERTEX
  5
43C2
  8
0
 62
     7
 10
-14.006336
 20
178.238723
 30
0.0
  0
VERTEX
  5
43C3
  8
0
 62
     7
 10
-14.078636
 20
178.241565
 30
0.0
  0
VERTEX
  5
43C4
  8
0
 62
     7
 10
-14.14997
 20
178.249852
 30
0.0
  0
SEQEND
  5
43C5
  8
0
 62
     7
  0
LINE
  5
3D2D
  8
0
 62
     7
 10
-13.822651
 20
178.238723
 30
0.0
 11
-14.006336
 21
178.238723
 31
0.0
  0
POLYLINE
  5
3D2E
  8
0
 62
     7
 66
     1
 10
0.0
 20
0.0
 30
0.0
  0
VERTEX
  5
43C6
  8
0
 62
     7
 10
-11.487908
 20
176.438723
 30
0.0
  0
VERTEX
  5
43C7
  8
0
 62
     7
 10
-11.493598
 20
176.275331
 30
0.0
  0
VERTEX
  5
43C8
  8
0
 62
     7
 10
-11.499251
 20
176.099344
 30
0.0
  0
VERTEX
  5
43C9
  8
0
 62
     7
 10
-11.504976
 20
175.90925
 30
0.0
  0
VERTEX
  5
43CA
  8
0
 62
     7
 10
-11.510533
 20
175.703269
 30
0.0
  0
VERTEX
  5
43CB
  8
0
 62
     7
 10
-11.515796
 20
175.480008
 30
0.0
  0
VERTEX
  5
43CC
  8
0
 62
     7
 10
-11.521005
 20
175.238587
 30
0.0
  0
VERTEX
  5
43CD
  8
0
 62
     7
 10
-11.525718
 20
174.981904
 30
0.0
  0
VERTEX
  5
43CE
  8
0
 62
     7
 10
-11.529987
 20
174.707593
 30
0.0
  0
VERTEX
  5
43CF
  8
0
 62
     7
 10
-11.534125
 20
174.41138
 30
0.0
  0
VERTEX
  5
43D0
  8
0
 62
     7
 10
-11.538352
 20
174.089363
 30
0.0
  0
VERTEX
  5
43D1
  8
0
 62
     7
 10
-11.542065
 20
173.740304
 30
0.0
  0
VERTEX
  5
43D2
  8
0
 62
     7
 10
-11.544109
 20
173.374211
 30
0.0
  0
VERTEX
  5
43D3
  8
0
 62
     7
 10
-11.544072
 20
173.032467
 30
0.0
  0
VERTEX
  5
43D4
  8
0
 62
     7
 10
-11.542853
 20
172.74138
 30
0.0
  0
VERTEX
  5
43D5
  8
0
 62
     7
 10
-11.540486
 20
172.496066
 30
0.0
  0
VERTEX
  5
43D6
  8
0
 62
     7
 10
-11.536718
 20
172.287404
 30
0.0
  0
VERTEX
  5
43D7
  8
0
 62
     7
 10
-11.53103
 20
172.11681
 30
0.0
  0
VERTEX
  5
43D8
  8
0
 62
     7
 10
-11.522788
 20
171.998112
 30
0.0
  0
VERTEX
  5
43D9
  8
0
 62
     7
 10
-11.511842
 20
171.958041
 30
0.0
  0
VERTEX
  5
43DA
  8
0
 62
     7
 10
-11.508558
 20
171.963163
 30
0.0
  0
SEQEND
  5
43DB
  8
0
 62
     7
  0
POLYLINE
  5
3D2F
  8
0
 62
     7
 66
     1
 10
0.0
 20
0.0
 30
0.0
  0
VERTEX
  5
43DC
  8
0
 62
     7
 10
-11.648516
 20
176.438723
 30
0.0
  0
VERTEX
  5
43DD
  8
0
 62
     7
 10
-11.646735
 20
176.276561
 30
0.0
  0
VERTEX
  5
43DE
  8
0
 62
     7
 10
-11.644775
 20
176.101756
 30
0.0
  0
VERTEX
  5
43DF
  8
0
 62
     7
 10
-11.642596
 20
175.91246
 30
0.0
  0
VERTEX
  5
43E0
  8
0
 62
     7
 10
-11.640149
 20
175.707104
 30
0.0
  0
VERTEX
  5
43E1
  8
0
 62
     7
 10
-11.637395
 20
175.484029
 30
0.0
  0
VERTEX
  5
43E2
  8
0
 62
     7
 10
-11.634272
 20
175.241606
 30
0.0
  0
VERTEX
  5
43E3
  8
0
 62
     7
 10
-11.630747
 20
174.981723
 30
0.0
  0
VERTEX
  5
43E4
  8
0
 62
     7
 10
-11.626777
 20
174.704711
 30
0.0
  0
VERTEX
  5
43E5
  8
0
 62
     7
 10
-11.622234
 20
174.405726
 30
0.0
  0
VERTEX
  5
43E6
  8
0
 62
     7
 10
-11.616898
 20
174.079601
 30
0.0
  0
VERTEX
  5
43E7
  8
0
 62
     7
 10
-11.610453
 20
173.723732
 30
0.0
  0
VERTEX
  5
43E8
  8
0
 62
     7
 10
-11.602698
 20
173.34593
 30
0.0
  0
VERTEX
  5
43E9
  8
0
 62
     7
 10
-11.594202
 20
172.983062
 30
0.0
  0
VERTEX
  5
43EA
  8
0
 62
     7
 10
-11.585809
 20
172.670888
 30
0.0
  0
VERTEX
  5
43EB
  8
0
 62
     7
 10
-11.577553
 20
172.408629
 30
0.0
  0
VERTEX
  5
43EC
  8
0
 62
     7
 10
-11.569006
 20
172.184845
 30
0.0
  0
VERTEX
  5
43ED
  8
0
 62
     7
 10
-11.55982
 20
171.999474
 30
0.0
  0
SEQEND
  5
43EE
  8
0
 62
     7
  0
POLYLINE
  5
3D30
  8
0
 62
     7
 66
     1
 10
0.0
 20
0.0
 30
0.0
  0
VERTEX
  5
43EF
  8
0
 62
     7
 10
-11.508577
 20
171.963155
 30
0.0
  0
VERTEX
  5
43F0
  8
0
 62
     7
 10
-10.83842
 20
173.64752
 30
0.0
  0
VERTEX
  5
43F1
  8
0
 62
     7
 10
-10.229795
 20
175.176614
 30
0.0
  0
VERTEX
  5
43F2
  8
0
 62
     7
 10
-9.727131
 20
176.438723
 30
0.0
  0
SEQEND
  5
43F3
  8
0
 62
     7
  0
LINE
  5
3D31
  8
0
 62
     7
 10
-11.507599
 20
168.905787
 30
0.0
 11
-11.507599
 21
171.963121
 31
0.0
  0
ARC
  5
3D32
  8
0
 62
     7
 10
-11.757771
 20
167.138723
 30
0.0
 40
1.1
 50
270.0
 51
90.0
  0
ARC
  5
3D33
  8
0
 62
     7
 10
-11.757771
 20
167.138723
 30
0.0
 40
1.8
 50
270.0
 51
90.0
  0
LINE
  5
3D34
  8
0
 62
     7
 10
-11.682077
 20
166.164396
 30
0.0
 11
-11.687633
 21
166.048808
 31
0.0
  0
LINE
  5
3D35
  8
0
 62
     7
 10
-11.507599
 20
166.074693
 30
0.0
 11
-11.507599
 21
168.202754
 31
0.0
  0
POLYLINE
  5
3D36
  8
0
 62
     7
 66
     1
 10
0.0
 20
0.0
 30
0.0
  0
VERTEX
  5
43F4
  8
0
 62
     7
 10
-11.682113
 20
168.11284
 30
0.0
  0
VERTEX
  5
43F5
  8
0
 62
     7
 10
-11.670911
 20
167.730242
 30
0.0
  0
VERTEX
  5
43F6
  8
0
 62
     7
 10
-11.665496
 20
167.338361
 30
0.0
  0
VERTEX
  5
43F7
  8
0
 62
     7
 10
-11.665449
 20
166.94902
 30
0.0
  0
VERTEX
  5
43F8
  8
0
 62
     7
 10
-11.670796
 20
166.554145
 30
0.0
  0
VERTEX
  5
43F9
  8
0
 62
     7
 10
-11.682077
 20
166.164396
 30
0.0
  0
SEQEND
  5
43FA
  8
0
 62
     7
  0
LINE
  5
3D37
  8
0
 62
     7
 10
-11.687745
 20
168.228655
 30
0.0
 11
-11.682113
 21
168.11284
 31
0.0
  0
POLYLINE
  5
3D38
  8
0
 62
     7
 66
     1
 10
0.0
 20
0.0
 30
0.0
  0
VERTEX
  5
43FB
  8
0
 62
     7
 10
-11.54985
 20
171.866143
 30
0.0
  0
VERTEX
  5
43FC
  8
0
 62
     7
 10
-11.539657
 20
171.812435
 30
0.0
  0
VERTEX
  5
43FD
  8
0
 62
     7
 10
-11.529985
 20
171.861294
 30
0.0
  0
SEQEND
  5
43FE
  8
0
 62
     7
  0
POLYLINE
  5
3D39
  8
0
 62
     7
 66
     1
 10
0.0
 20
0.0
 30
0.0
  0
VERTEX
  5
43FF
  8
0
 62
     7
 10
-11.528405
 20
171.897431
 30
0.0
  0
VERTEX
  5
4400
  8
0
 62
     7
 10
-11.529227
 20
171.888877
 30
0.0
  0
VERTEX
  5
4401
  8
0
 62
     7
 10
-11.528727
 20
171.892133
 30
0.0
  0
VERTEX
  5
4402
  8
0
 62
     7
 10
-11.523576
 20
171.916838
 30
0.0
  0
VERTEX
  5
4403
  8
0
 62
     7
 10
-11.508574
 20
171.963121
 30
0.0
  0
SEQEND
  5
4404
  8
0
 62
     7
  0
LINE
  5
3D3A
  8
0
 62
     7
 10
-11.529985
 20
171.861294
 30
0.0
 11
-11.528095
 21
171.897414
 31
0.0
  0
LINE
  5
3D3B
  8
0
 62
     7
 10
-11.55982
 20
171.999474
 30
0.0
 11
-11.54985
 21
171.866143
 31
0.0
  0
ARC
  5
3D3C
  8
0
 62
     7
 10
-19.53437
 20
183.139992
 30
0.0
 40
10.0
 50
332.95503
 51
348.583218
  0
ARC
  5
3D3D
  8
0
 62
     7
 10
-11.69665
 20
179.138723
 30
0.0
 40
1.2
 50
270.0
 51
332.95503
  0
ARC
  5
3D3E
  8
0
 62
     7
 10
-11.757771
 20
182.038723
 30
0.0
 40
1.8
 50
304.541713
 51
44.154553
  0
POLYLINE
  5
3D3F
  8
0
 62
     7
 66
     1
 10
0.0
 20
0.0
 30
0.0
  0
VERTEX
  5
4405
  8
0
 62
     7
 10
-9.541503
 20
182.997627
 30
0.0
  0
VERTEX
  5
4406
  8
0
 62
     7
 10
-9.540322
 20
182.987479
 30
0.0
  0
VERTEX
  5
4407
  8
0
 62
     7
 10
-9.539751
 20
182.908521
 30
0.0
  0
VERTEX
  5
4408
  8
0
 62
     7
 10
-9.543029
 20
182.758345
 30
0.0
  0
VERTEX
  5
4409
  8
0
 62
     7
 10
-9.552461
 20
182.549774
 30
0.0
  0
VERTEX
  5
440A
  8
0
 62
     7
 10
-9.56989
 20
182.302069
 30
0.0
  0
VERTEX
  5
440B
  8
0
 62
     7
 10
-9.595481
 20
182.038723
 30
0.0
  0
SEQEND
  5
440C
  8
0
 62
     7
  0
LINE
  5
3D40
  8
0
 62
     7
 10
-10.625266
 20
179.714033
 30
0.0
 11
-10.687515
 21
179.786699
 31
0.0
  0
POLYLINE
  5
3D41
  8
0
 62
     7
 66
     1
 10
0.0
 20
0.0
 30
0.0
  0
VERTEX
  5
440D
  8
0
 62
     7
 10
-10.973873
 20
182.038723
 30
0.0
  0
VERTEX
  5
440E
  8
0
 62
     7
 10
-11.014069
 20
181.762214
 30
0.0
  0
VERTEX
  5
440F
  8
0
 62
     7
 10
-11.069683
 20
181.51033
 30
0.0
  0
VERTEX
  5
4410
  8
0
 62
     7
 10
-11.134066
 20
181.302244
 30
0.0
  0
VERTEX
  5
4411
  8
0
 62
     7
 10
-11.199379
 20
181.153563
 30
0.0
  0
VERTEX
  5
4412
  8
0
 62
     7
 10
-11.257948
 20
181.075561
 30
0.0
  0
VERTEX
  5
4413
  8
0
 62
     7
 10
-11.289201
 20
181.065872
 30
0.0
  0
SEQEND
  5
4414
  8
0
 62
     7
  0
POLYLINE
  5
3D42
  8
0
 62
     7
 66
     1
 10
0.0
 20
0.0
 30
0.0
  0
VERTEX
  5
4415
  8
0
 62
     7
 10
-9.595481
 20
182.038723
 30
0.0
  0
VERTEX
  5
4416
  8
0
 62
     7
 10
-9.629652
 20
181.765845
 30
0.0
  0
VERTEX
  5
4417
  8
0
 62
     7
 10
-9.667105
 20
181.521315
 30
0.0
  0
VERTEX
  5
4418
  8
0
 62
     7
 10
-9.701684
 20
181.328271
 30
0.0
  0
VERTEX
  5
4419
  8
0
 62
     7
 10
-9.727024
 20
181.204422
 30
0.0
  0
VERTEX
  5
441A
  8
0
 62
     7
 10
-9.738165
 20
181.16167
 30
0.0
  0
SEQEND
  5
441B
  8
0
 62
     7
  0
POLYLINE
  5
3D43
  8
0
 62
     7
 66
     1
 10
0.0
 20
0.0
 30
0.0
  0
VERTEX
  5
441C
  8
0
 62
     7
 10
-9.738165
 20
181.16167
 30
0.0
  0
VERTEX
  5
441D
  8
0
 62
     7
 10
-9.732864
 20
181.204266
 30
0.0
  0
VERTEX
  5
441E
  8
0
 62
     7
 10
-9.712722
 20
181.328449
 30
0.0
  0
VERTEX
  5
441F
  8
0
 62
     7
 10
-9.68239
 20
181.521264
 30
0.0
  0
VERTEX
  5
4420
  8
0
 62
     7
 10
-9.647701
 20
181.765976
 30
0.0
  0
VERTEX
  5
4421
  8
0
 62
     7
 10
-9.614663
 20
182.038723
 30
0.0
  0
SEQEND
  5
4422
  8
0
 62
     7
  0
POLYLINE
  5
3D44
  8
0
 62
     7
 66
     1
 10
0.0
 20
0.0
 30
0.0
  0
VERTEX
  5
4423
  8
0
 62
     7
 10
-11.295841
 20
182.038723
 30
0.0
  0
VERTEX
  5
4424
  8
0
 62
     7
 10
-11.263576
 20
182.314532
 30
0.0
  0
VERTEX
  5
4425
  8
0
 62
     7
 10
-11.226614
 20
182.572607
 30
0.0
  0
VERTEX
  5
4426
  8
0
 62
     7
 10
-11.185685
 20
182.790482
 30
0.0
  0
VERTEX
  5
4427
  8
0
 62
     7
 10
-11.141904
 20
182.945971
 30
0.0
  0
VERTEX
  5
4428
  8
0
 62
     7
 10
-11.095843
 20
183.027787
 30
0.0
  0
VERTEX
  5
4429
  8
0
 62
     7
 10
-11.072267
 20
183.038618
 30
0.0
  0
SEQEND
  5
442A
  8
0
 62
     7
  0
POLYLINE
  5
3D45
  8
0
 62
     7
 66
     1
 10
0.0
 20
0.0
 30
0.0
  0
VERTEX
  5
442B
  8
0
 62
     7
 10
-9.614663
 20
182.038723
 30
0.0
  0
VERTEX
  5
442C
  8
0
 62
     7
 10
-9.588559
 20
182.301413
 30
0.0
  0
VERTEX
  5
442D
  8
0
 62
     7
 10
-9.568968
 20
182.549121
 30
0.0
  0
VERTEX
  5
442E
  8
0
 62
     7
 10
-9.555878
 20
182.75918
 30
0.0
  0
VERTEX
  5
442F
  8
0
 62
     7
 10
-9.54794
 20
182.909269
 30
0.0
  0
VERTEX
  5
4430
  8
0
 62
     7
 10
-9.543138
 20
182.98771
 30
0.0
  0
VERTEX
  5
4431
  8
0
 62
     7
 10
-9.541503
 20
182.997627
 30
0.0
  0
SEQEND
  5
4432
  8
0
 62
     7
  0
POLYLINE
  5
3D46
  8
0
 62
     7
 66
     1
 10
0.0
 20
0.0
 30
0.0
  0
VERTEX
  5
4433
  8
0
 62
     7
 10
-11.289201
 20
181.065872
 30
0.0
  0
VERTEX
  5
4434
  8
0
 62
     7
 10
-11.303715
 20
181.074532
 30
0.0
  0
VERTEX
  5
4435
  8
0
 62
     7
 10
-11.332761
 20
181.151542
 30
0.0
  0
VERTEX
  5
4436
  8
0
 62
     7
 10
-11.344106
 20
181.300991
 30
0.0
  0
VERTEX
  5
4437
  8
0
 62
     7
 10
-11.339444
 20
181.510749
 30
0.0
  0
VERTEX
  5
4438
  8
0
 62
     7
 10
-11.322133
 20
181.763412
 30
0.0
  0
VERTEX
  5
4439
  8
0
 62
     7
 10
-11.295841
 20
182.038723
 30
0.0
  0
SEQEND
  5
443A
  8
0
 62
     7
  0
LINE
  5
3D47
  8
0
 62
     7
 10
-10.711675
 20
179.876638
 30
0.0
 11
-10.631441
 21
179.838723
 31
0.0
  0
POLYLINE
  5
3D48
  8
0
 62
     7
 66
     1
 10
0.0
 20
0.0
 30
0.0
  0
VERTEX
  5
443B
  8
0
 62
     7
 10
-11.072267
 20
183.038618
 30
0.0
  0
VERTEX
  5
443C
  8
0
 62
     7
 10
-11.04956
 20
183.028827
 30
0.0
  0
VERTEX
  5
443D
  8
0
 62
     7
 10
-11.007002
 20
182.948724
 30
0.0
  0
VERTEX
  5
443E
  8
0
 62
     7
 10
-10.97327
 20
182.794187
 30
0.0
  0
VERTEX
  5
443F
  8
0
 62
     7
 10
-10.953843
 20
182.577393
 30
0.0
  0
VERTEX
  5
4440
  8
0
 62
     7
 10
-10.953422
 20
182.317261
 30
0.0
  0
VERTEX
  5
4441
  8
0
 62
     7
 10
-10.973873
 20
182.038723
 30
0.0
  0
SEQEND
  5
4442
  8
0
 62
     7
  0
LINE
  5
3D49
  8
0
 62
     7
 10
-10.631441
 20
179.838723
 30
0.0
 11
-10.70149
 21
179.838723
 31
0.0
  0
LINE
  5
3D4A
  8
0
 62
     7
 10
-13.529162
 20
186.738723
 30
0.0
 11
-11.540689
 21
186.738723
 31
0.0
  0
LINE
  5
3D4B
  8
0
 62
     7
 10
-11.434741
 20
186.525264
 30
0.0
 11
-12.599435
 21
186.518202
 31
0.0
  0
LINE
  5
3D4C
  8
0
 62
     7
 10
-10.989961
 20
186.175714
 30
0.0
 11
-12.120177
 21
186.167127
 31
0.0
  0
LINE
  5
3D4D
  8
0
 62
     7
 10
-13.295442
 20
200.738723
 30
0.0
 11
-13.295442
 21
186.738723
 31
0.0
  0
LINE
  5
3D4E
  8
0
 62
     7
 10
-14.281029
 20
186.383667
 30
0.0
 11
-14.281029
 21
201.038723
 31
0.0
  0
LINE
  5
3D4F
  8
0
 62
     7
 10
-18.572645
 20
185.938723
 30
0.0
 11
-13.32399
 21
185.938723
 31
0.0
  0
LINE
  5
3D50
  8
0
 62
     7
 10
-18.392508
 20
185.638723
 30
0.0
 11
-13.178709
 21
185.638723
 31
0.0
  0
ARC
  5
3D51
  8
0
 62
     7
 10
-19.757771
 20
186.473023
 30
0.0
 40
1.6
 50
243.0
 51
328.571288
  0
ARC
  5
3D52
  8
0
 62
     7
 10
-19.757771
 20
186.473023
 30
0.0
 40
1.3
 50
243.0
 51
335.732347
  0
LINE
  5
3D53
  8
0
 62
     7
 10
-20.347959
 20
185.314714
 30
0.0
 11
-21.509463
 21
185.906531
 31
0.0
  0
LINE
  5
3D54
  8
0
 62
     7
 10
-20.484156
 20
185.047412
 30
0.0
 11
-21.533554
 21
185.582108
 31
0.0
  0
POLYLINE
  5
3D55
  8
0
 62
     7
 66
     1
 10
0.0
 20
0.0
 30
0.0
  0
VERTEX
  5
4443
  8
0
 62
     7
 10
-21.533554
 20
185.582108
 30
0.0
  0
VERTEX
  5
4444
  8
0
 62
     7
 10
-21.527604
 20
185.701186
 30
0.0
  0
VERTEX
  5
4445
  8
0
 62
     7
 10
-21.519425
 20
185.806251
 30
0.0
  0
VERTEX
  5
4446
  8
0
 62
     7
 10
-21.512318
 20
185.879697
 30
0.0
  0
VERTEX
  5
4447
  8
0
 62
     7
 10
-21.509463
 20
185.906531
 30
0.0
  0
SEQEND
  5
4448
  8
0
 62
     7
  0
LINE
  5
3D56
  8
0
 62
     7
 10
-20.484156
 20
185.047412
 30
0.0
 11
-20.347959
 21
185.314714
 31
0.0
  0
POLYLINE
  5
3D57
  8
0
 62
     7
 66
     1
 10
0.0
 20
0.0
 30
0.0
  0
VERTEX
  5
4449
  8
0
 62
     7
 10
-18.572645
 20
185.938723
 30
0.0
  0
VERTEX
  5
444A
  8
0
 62
     7
 10
-18.561517
 20
185.921418
 30
0.0
  0
VERTEX
  5
444B
  8
0
 62
     7
 10
-18.532062
 20
185.874835
 30
0.0
  0
VERTEX
  5
444C
  8
0
 62
     7
 10
-18.49043
 20
185.80706
 30
0.0
  0
VERTEX
  5
444D
  8
0
 62
     7
 10
-18.442226
 20
185.725757
 30
0.0
  0
VERTEX
  5
444E
  8
0
 62
     7
 10
-18.392508
 20
185.638723
 30
0.0
  0
SEQEND
  5
444F
  8
0
 62
     7
  0
LINE
  5
3D58
  8
0
 62
     7
 10
-16.057771
 20
186.28589
 30
0.0
 11
-13.962726
 21
186.28589
 31
0.0
  0
LINE
  5
3D59
  8
0
 62
     7
 10
-16.057771
 20
186.367122
 30
0.0
 11
-16.057771
 21
186.28589
 31
0.0
  0
LINE
  5
3D5A
  8
0
 62
     7
 10
-16.157771
 20
186.367122
 30
0.0
 11
-16.157771
 21
185.938723
 31
0.0
  0
LINE
  5
3D5B
  8
0
 62
     7
 10
-16.077722
 20
186.369838
 30
0.0
 11
-16.088577
 21
186.290083
 31
0.0
  0
LINE
  5
3D5C
  8
0
 62
     7
 10
-16.057771
 20
186.28589
 30
0.0
 11
-16.157771
 21
186.283268
 31
0.0
  0
LINE
  5
3D5D
  8
0
 62
     7
 10
-13.914053
 20
186.397334
 30
0.0
 11
-13.906327
 21
186.377969
 31
0.0
  0
POLYLINE
  5
3D5E
  8
0
 62
     7
 66
     1
 10
0.0
 20
0.0
 30
0.0
  0
VERTEX
  5
4450
  8
0
 62
     7
 10
-13.32399
 20
185.938723
 30
0.0
  0
VERTEX
  5
4451
  8
0
 62
     7
 10
-13.311728
 20
185.913161
 30
0.0
  0
VERTEX
  5
4452
  8
0
 62
     7
 10
-13.27867
 20
185.844466
 30
0.0
  0
VERTEX
  5
4453
  8
0
 62
     7
 10
-13.231794
 20
185.747615
 30
0.0
  0
VERTEX
  5
4454
  8
0
 62
     7
 10
-13.178709
 20
185.638723
 30
0.0
  0
SEQEND
  5
4455
  8
0
 62
     7
  0
LINE
  5
3D5F
  8
0
 62
     7
 10
-12.969849
 20
186.353084
 30
0.0
 11
-12.747812
 21
186.151344
 31
0.0
  0
POLYLINE
  5
3D60
  8
0
 62
     7
 66
     1
 10
0.0
 20
0.0
 30
0.0
  0
VERTEX
  5
4456
  8
0
 62
     7
 10
-13.863491
 20
186.438723
 30
0.0
  0
VERTEX
  5
4457
  8
0
 62
     7
 10
-13.875474
 20
186.449288
 30
0.0
  0
VERTEX
  5
4458
  8
0
 62
     7
 10
-13.871714
 20
186.481735
 30
0.0
  0
VERTEX
  5
4459
  8
0
 62
     7
 10
-13.852483
 20
186.533743
 30
0.0
  0
VERTEX
  5
445A
  8
0
 62
     7
 10
-13.819805
 20
186.600259
 30
0.0
  0
VERTEX
  5
445B
  8
0
 62
     7
 10
-13.748743
 20
186.738723
 30
0.0
  0
SEQEND
  5
445C
  8
0
 62
     7
  0
POLYLINE
  5
3D61
  8
0
 62
     7
 66
     1
 10
0.0
 20
0.0
 30
0.0
  0
VERTEX
  5
445D
  8
0
 62
     7
 10
-13.90633
 20
186.377969
 30
0.0
  0
VERTEX
  5
445E
  8
0
 62
     7
 10
-13.810663
 20
186.342799
 30
0.0
  0
VERTEX
  5
445F
  8
0
 62
     7
 10
-13.718477
 20
186.307583
 30
0.0
  0
VERTEX
  5
4460
  8
0
 62
     7
 10
-13.629778
 20
186.272321
 30
0.0
  0
SEQEND
  5
4461
  8
0
 62
     7
  0
POLYLINE
  5
3D62
  8
0
 62
     7
 66
     1
 10
0.0
 20
0.0
 30
0.0
  0
VERTEX
  5
4462
  8
0
 62
     7
 10
-13.295442
 20
186.738723
 30
0.0
  0
VERTEX
  5
4463
  8
0
 62
     7
 10
-13.317949
 20
186.623918
 30
0.0
  0
VERTEX
  5
4464
  8
0
 62
     7
 10
-13.382044
 20
186.526591
 30
0.0
  0
VERTEX
  5
4465
  8
0
 62
     7
 10
-13.477968
 20
186.461559
 30
0.0
  0
VERTEX
  5
4466
  8
0
 62
     7
 10
-13.591118
 20
186.438723
 30
0.0
  0
SEQEND
  5
4467
  8
0
 62
     7
  0
POLYLINE
  5
3D63
  8
0
 62
     7
 66
     1
 10
0.0
 20
0.0
 30
0.0
  0
VERTEX
  5
4468
  8
0
 62
     7
 10
-12.598902
 20
186.518205
 30
0.0
  0
VERTEX
  5
4469
  8
0
 62
     7
 10
-12.536297
 20
186.514636
 30
0.0
  0
VERTEX
  5
446A
  8
0
 62
     7
 10
-12.411298
 20
186.482657
 30
0.0
  0
VERTEX
  5
446B
  8
0
 62
     7
 10
-12.302326
 20
186.422253
 30
0.0
  0
VERTEX
  5
446C
  8
0
 62
     7
 10
-12.216491
 20
186.34239
 30
0.0
  0
VERTEX
  5
446D
  8
0
 62
     7
 10
-12.156421
 20
186.253939
 30
0.0
  0
VERTEX
  5
446E
  8
0
 62
     7
 10
-12.120178
 20
186.167126
 30
0.0
  0
SEQEND
  5
446F
  8
0
 62
     7
  0
POLYLINE
  5
3D64
  8
0
 62
     7
 66
     1
 10
0.0
 20
0.0
 30
0.0
  0
VERTEX
  5
4470
  8
0
 62
     7
 10
-13.90633
 20
186.377969
 30
0.0
  0
VERTEX
  5
4471
  8
0
 62
     7
 10
-14.086723
 20
186.382226
 30
0.0
  0
VERTEX
  5
4472
  8
0
 62
     7
 10
-14.281029
 20
186.383667
 30
0.0
  0
SEQEND
  5
4473
  8
0
 62
     7
  0
POLYLINE
  5
3D65
  8
0
 62
     7
 66
     1
 10
0.0
 20
0.0
 30
0.0
  0
VERTEX
  5
4474
  8
0
 62
     7
 10
-13.962726
 20
186.28589
 30
0.0
  0
VERTEX
  5
4475
  8
0
 62
     7
 10
-13.837163
 20
186.28479
 30
0.0
  0
VERTEX
  5
4476
  8
0
 62
     7
 10
-13.733941
 20
186.281803
 30
0.0
  0
VERTEX
  5
4477
  8
0
 62
     7
 10
-13.661827
 20
186.277358
 30
0.0
  0
VERTEX
  5
4478
  8
0
 62
     7
 10
-13.629778
 20
186.272321
 30
0.0
  0
SEQEND
  5
4479
  8
0
 62
     7
  0
LINE
  5
3D66
  8
0
 62
     7
 10
-13.863487
 20
186.438723
 30
0.0
 11
-12.855984
 21
186.438723
 31
0.0
  0
POLYLINE
  5
3D67
  8
0
 62
     7
 66
     1
 10
0.0
 20
0.0
 30
0.0
  0
VERTEX
  5
447A
  8
0
 62
     7
 10
-13.776166
 20
186.678237
 30
0.0
  0
VERTEX
  5
447B
  8
0
 62
     7
 10
-13.832236
 20
186.58779
 30
0.0
  0
VERTEX
  5
447C
  8
0
 62
     7
 10
-13.875082
 20
186.507476
 30
0.0
  0
VERTEX
  5
447D
  8
0
 62
     7
 10
-13.903143
 20
186.442019
 30
0.0
  0
VERTEX
  5
447E
  8
0
 62
     7
 10
-13.914053
 20
186.397334
 30
0.0
  0
SEQEND
  5
447F
  8
0
 62
     7
  0
LINE
  5
3D68
  8
0
 62
     7
 10
-13.629778
 20
186.272321
 30
0.0
 11
-13.809587
 21
185.938723
 31
0.0
  0
LINE
  5
3D69
  8
0
 62
     7
 10
-13.962726
 20
186.28589
 30
0.0
 11
-14.141302
 21
185.938723
 31
0.0
  0
POLYLINE
  5
3D6A
  8
0
 62
     7
 66
     1
 10
0.0
 20
0.0
 30
0.0
  0
VERTEX
  5
4480
  8
0
 62
     7
 10
-13.755725
 20
186.70848
 30
0.0
  0
VERTEX
  5
4481
  8
0
 62
     7
 10
-14.020009
 20
186.681984
 30
0.0
  0
VERTEX
  5
4482
  8
0
 62
     7
 10
-14.281029
 20
186.683256
 30
0.0
  0
SEQEND
  5
4483
  8
0
 62
     7
  0
LINE
  5
3D6B
  8
0
 62
     7
 10
-13.755725
 20
186.70848
 30
0.0
 11
-13.529162
 21
186.738723
 31
0.0
  0
POLYLINE
  5
3D6C
  8
0
 62
     7
 66
     1
 10
0.0
 20
0.0
 30
0.0
  0
VERTEX
  5
4484
  8
0
 62
     7
 10
-12.599442
 20
186.518202
 30
0.0
  0
VERTEX
  5
4485
  8
0
 62
     7
 10
-12.749079
 20
186.4945
 30
0.0
  0
VERTEX
  5
4486
  8
0
 62
     7
 10
-12.904098
 20
186.41362
 30
0.0
  0
VERTEX
  5
4487
  8
0
 62
     7
 10
-12.969849
 20
186.353084
 30
0.0
  0
SEQEND
  5
4488
  8
0
 62
     7
  0
POLYLINE
  5
3D6D
  8
0
 62
     7
 66
     1
 10
0.0
 20
0.0
 30
0.0
  0
VERTEX
  5
4489
  8
0
 62
     7
 10
-12.969846
 20
186.353082
 30
0.0
  0
VERTEX
  5
448A
  8
0
 62
     7
 10
-13.110727
 20
186.194285
 30
0.0
  0
VERTEX
  5
448B
  8
0
 62
     7
 10
-13.283148
 20
185.989171
 30
0.0
  0
VERTEX
  5
448C
  8
0
 62
     7
 10
-13.32399
 20
185.938723
 30
0.0
  0
SEQEND
  5
448D
  8
0
 62
     7
  0
POLYLINE
  5
3D6E
  8
0
 62
     7
 66
     1
 10
0.0
 20
0.0
 30
0.0
  0
VERTEX
  5
448E
  8
0
 62
     7
 10
-13.178709
 20
185.638723
 30
0.0
  0
VERTEX
  5
448F
  8
0
 62
     7
 10
-12.968587
 20
185.8987
 30
0.0
  0
VERTEX
  5
4490
  8
0
 62
     7
 10
-12.747812
 20
186.151344
 30
0.0
  0
SEQEND
  5
4491
  8
0
 62
     7
  0
POLYLINE
  5
3D6F
  8
0
 62
     7
 66
     1
 10
0.0
 20
0.0
 30
0.0
  0
VERTEX
  5
4492
  8
0
 62
     7
 10
-12.747812
 20
186.151344
 30
0.0
  0
VERTEX
  5
4493
  8
0
 62
     7
 10
-12.71661
 20
186.17924
 30
0.0
  0
VERTEX
  5
4494
  8
0
 62
     7
 10
-12.674793
 20
186.202563
 30
0.0
  0
VERTEX
  5
4495
  8
0
 62
     7
 10
-12.624771
 20
186.216185
 30
0.0
  0
VERTEX
  5
4496
  8
0
 62
     7
 10
-12.571405
 20
186.216782
 30
0.0
  0
VERTEX
  5
4497
  8
0
 62
     7
 10
-12.520304
 20
186.203978
 30
0.0
  0
VERTEX
  5
4498
  8
0
 62
     7
 10
-12.47578
 20
186.179812
 30
0.0
  0
VERTEX
  5
4499
  8
0
 62
     7
 10
-12.440724
 20
186.147878
 30
0.0
  0
VERTEX
  5
449A
  8
0
 62
     7
 10
-12.416194
 20
186.112518
 30
0.0
  0
VERTEX
  5
449B
  8
0
 62
     7
 10
-12.401391
 20
186.077809
 30
0.0
  0
SEQEND
  5
449C
  8
0
 62
     7
  0
LINE
  5
3D70
  8
0
 62
     7
 10
-12.120177
 20
186.167126
 30
0.0
 11
-12.401391
 21
186.077809
 31
0.0
  0
POLYLINE
  5
3D71
  8
0
 62
     7
 66
     1
 10
0.0
 20
0.0
 30
0.0
  0
VERTEX
  5
449D
  8
0
 62
     7
 10
-13.591118
 20
201.038723
 30
0.0
  0
VERTEX
  5
449E
  8
0
 62
     7
 10
-13.477968
 20
201.015887
 30
0.0
  0
VERTEX
  5
449F
  8
0
 62
     7
 10
-13.382044
 20
200.950855
 30
0.0
  0
VERTEX
  5
44A0
  8
0
 62
     7
 10
-13.317949
 20
200.853528
 30
0.0
  0
VERTEX
  5
44A1
  8
0
 62
     7
 10
-13.295442
 20
200.738723
 30
0.0
  0
SEQEND
  5
44A2
  8
0
 62
     7
  0
LINE
  5
3D72
  8
0
 62
     7
 10
-12.457771
 20
201.038723
 30
0.0
 11
-12.457771
 21
201.338723
 31
0.0
  0
LINE
  5
3D73
  8
0
 62
     7
 10
-14.187873
 20
201.338723
 30
0.0
 11
-14.187873
 21
201.038723
 31
0.0
  0
POLYLINE
  5
3D74
  8
0
 62
     7
 66
     1
 10
0.0
 20
0.0
 30
0.0
  0
VERTEX
  5
44A3
  8
0
 62
     7
 10
-11.470319
 20
192.245497
 30
0.0
  0
VERTEX
  5
44A4
  8
0
 62
     7
 10
-11.468803
 20
192.367261
 30
0.0
  0
VERTEX
  5
44A5
  8
0
 62
     7
 10
-11.467374
 20
192.48562
 30
0.0
  0
VERTEX
  5
44A6
  8
0
 62
     7
 10
-11.466036
 20
192.600502
 30
0.0
  0
VERTEX
  5
44A7
  8
0
 62
     7
 10
-11.464793
 20
192.711842
 30
0.0
  0
VERTEX
  5
44A8
  8
0
 62
     7
 10
-11.463646
 20
192.819588
 30
0.0
  0
VERTEX
  5
44A9
  8
0
 62
     7
 10
-11.462592
 20
192.923696
 30
0.0
  0
VERTEX
  5
44AA
  8
0
 62
     7
 10
-11.461629
 20
193.024132
 30
0.0
  0
VERTEX
  5
44AB
  8
0
 62
     7
 10
-11.460762
 20
193.120835
 30
0.0
  0
VERTEX
  5
44AC
  8
0
 62
     7
 10
-11.460002
 20
193.21369
 30
0.0
  0
VERTEX
  5
44AD
  8
0
 62
     7
 10
-11.459353
 20
193.302599
 30
0.0
  0
VERTEX
  5
44AE
  8
0
 62
     7
 10
-11.458819
 20
193.38748
 30
0.0
  0
VERTEX
  5
44AF
  8
0
 62
     7
 10
-11.458397
 20
193.468267
 30
0.0
  0
VERTEX
  5
44B0
  8
0
 62
     7
 10
-11.458082
 20
193.544914
 30
0.0
  0
VERTEX
  5
44B1
  8
0
 62
     7
 10
-11.45787
 20
193.617401
 30
0.0
  0
VERTEX
  5
44B2
  8
0
 62
     7
 10
-11.457764
 20
193.685687
 30
0.0
  0
VERTEX
  5
44B3
  8
0
 62
     7
 10
-11.457771
 20
200.738723
 30
0.0
  0
SEQEND
  5
44B4
  8
0
 62
     7
  0
LINE
  5
3D75
  8
0
 62
     7
 10
-11.514478
 20
189.03712
 30
0.0
 11
-11.505458
 21
189.697953
 31
0.0
  0
POLYLINE
  5
3D76
  8
0
 62
     7
 66
     1
 10
0.0
 20
0.0
 30
0.0
  0
VERTEX
  5
44B5
  8
0
 62
     7
 10
-11.540507
 20
186.735915
 30
0.0
  0
VERTEX
  5
44B6
  8
0
 62
     7
 10
-11.538966
 20
186.897673
 30
0.0
  0
VERTEX
  5
44B7
  8
0
 62
     7
 10
-11.536751
 20
187.121408
 30
0.0
  0
VERTEX
  5
44B8
  8
0
 62
     7
 10
-11.534482
 20
187.341301
 30
0.0
  0
VERTEX
  5
44B9
  8
0
 62
     7
 10
-11.532167
 20
187.557398
 30
0.0
  0
VERTEX
  5
44BA
  8
0
 62
     7
 10
-11.529812
 20
187.769751
 30
0.0
  0
VERTEX
  5
44BB
  8
0
 62
     7
 10
-11.527424
 20
187.978404
 30
0.0
  0
VERTEX
  5
44BC
  8
0
 62
     7
 10
-11.525011
 20
188.183406
 30
0.0
  0
VERTEX
  5
44BD
  8
0
 62
     7
 10
-11.522579
 20
188.384805
 30
0.0
  0
VERTEX
  5
44BE
  8
0
 62
     7
 10
-11.520133
 20
188.582654
 30
0.0
  0
VERTEX
  5
44BF
  8
0
 62
     7
 10
-11.517678
 20
188.777004
 30
0.0
  0
VERTEX
  5
44C0
  8
0
 62
     7
 10
-11.515219
 20
188.967909
 30
0.0
  0
VERTEX
  5
44C1
  8
0
 62
     7
 10
-11.512762
 20
189.155412
 30
0.0
  0
VERTEX
  5
44C2
  8
0
 62
     7
 10
-11.510313
 20
189.339558
 30
0.0
  0
SEQEND
  5
44C3
  8
0
 62
     7
  0
ARC
  5
3D77
  8
0
 62
     7
 10
-10.484906
 20
186.030876
 30
0.0
 40
0.5
 50
17.716265
 51
90.263229
  0
LINE
  5
3D78
  8
0
 62
     7
 10
-11.529242
 20
187.836705
 30
0.0
 11
-11.514478
 21
189.03712
 31
0.0
  0
LINE
  5
3D79
  8
0
 62
     7
 10
-11.540689
 20
186.738723
 30
0.0
 11
-11.529242
 21
187.836705
 31
0.0
  0
LINE
  5
3D7A
  8
0
 62
     7
 10
-11.540689
 20
186.738723
 30
0.0
 11
-11.540507
 21
186.735915
 31
0.0
  0
POLYLINE
  5
3D7B
  8
0
 62
     7
 66
     1
 10
0.0
 20
0.0
 30
0.0
  0
VERTEX
  5
44C4
  8
0
 62
     7
 10
-11.540507
 20
186.735915
 30
0.0
  0
VERTEX
  5
44C5
  8
0
 62
     7
 10
-11.563934
 20
186.622472
 30
0.0
  0
VERTEX
  5
44C6
  8
0
 62
     7
 10
-11.627057
 20
186.527904
 30
0.0
  0
VERTEX
  5
44C7
  8
0
 62
     7
 10
-11.632716
 20
186.524065
 30
0.0
  0
SEQEND
  5
44C8
  8
0
 62
     7
  0
LINE
  5
3D7C
  8
0
 62
     7
 10
-11.56351
 20
186.623918
 30
0.0
 11
-11.540689
 21
186.738723
 31
0.0
  0
LINE
  5
3D7D
  8
0
 62
     7
 10
-10.487203
 20
186.53087
 30
0.0
 11
-10.724802
 21
186.529476
 31
0.0
  0
LINE
  5
3D7E
  8
0
 62
     7
 10
-10.487203
 20
186.53087
 30
0.0
 11
-11.632716
 21
186.524065
 31
0.0
  0
LINE
  5
3D7F
  8
0
 62
     7
 10
-10.008618
 20
186.183027
 30
0.0
 11
-10.989961
 21
186.175714
 31
0.0
  0
LINE
  5
3D80
  8
0
 62
     7
 10
-11.628092
 20
186.527202
 30
0.0
 11
-11.56351
 21
186.623918
 31
0.0
  0
POLYLINE
  5
3D81
  8
0
 62
     7
 66
     1
 10
0.0
 20
0.0
 30
0.0
  0
VERTEX
  5
44C9
  8
0
 62
     7
 10
-11.500681
 20
190.043466
 30
0.0
  0
VERTEX
  5
44CA
  8
0
 62
     7
 10
-11.49601
 20
190.376454
 30
0.0
  0
VERTEX
  5
44CB
  8
0
 62
     7
 10
-11.493726
 20
190.538331
 30
0.0
  0
VERTEX
  5
44CC
  8
0
 62
     7
 10
-11.491483
 20
190.697169
 30
0.0
  0
VERTEX
  5
44CD
  8
0
 62
     7
 10
-11.489283
 20
190.853002
 30
0.0
  0
VERTEX
  5
44CE
  8
0
 62
     7
 10
-11.487128
 20
191.005863
 30
0.0
  0
VERTEX
  5
44CF
  8
0
 62
     7
 10
-11.485019
 20
191.155789
 30
0.0
  0
VERTEX
  5
44D0
  8
0
 62
     7
 10
-11.480952
 20
191.446826
 30
0.0
  0
SEQEND
  5
44D1
  8
0
 62
     7
  0
LINE
  5
3D82
  8
0
 62
     7
 10
-11.505458
 20
189.697953
 30
0.0
 11
-11.500681
 21
190.043466
 31
0.0
  0
LINE
  5
3D83
  8
0
 62
     7
 10
-11.480952
 20
191.446826
 30
0.0
 11
-11.477127
 21
191.725727
 31
0.0
  0
LINE
  5
3D84
  8
0
 62
     7
 10
-11.510313
 20
189.339558
 30
0.0
 11
-11.505458
 21
189.697953
 31
0.0
  0
POLYLINE
  5
3D85
  8
0
 62
     7
 66
     1
 10
0.0
 20
0.0
 30
0.0
  0
VERTEX
  5
44D2
  8
0
 62
     7
 10
-11.503058
 20
189.872296
 30
0.0
  0
VERTEX
  5
44D3
  8
0
 62
     7
 10
-11.497746
 20
190.262151
 30
0.0
  0
VERTEX
  5
44D4
  8
0
 62
     7
 10
-11.482288
 20
191.357307
 30
0.0
  0
VERTEX
  5
44D5
  8
0
 62
     7
 10
-11.469728
 20
192.297209
 30
0.0
  0
VERTEX
  5
44D6
  8
0
 62
     7
 10
-11.461348
 20
193.05766
 30
0.0
  0
VERTEX
  5
44D7
  8
0
 62
     7
 10
-11.457869
 20
193.620309
 30
0.0
  0
VERTEX
  5
44D8
  8
0
 62
     7
 10
-11.457771
 20
193.709795
 30
0.0
  0
SEQEND
  5
44D9
  8
0
 62
     7
  0
LINE
  5
3D86
  8
0
 62
     7
 10
-11.477127
 20
191.725727
 30
0.0
 11
-11.473579
 21
191.992062
 31
0.0
  0
LINE
  5
3D87
  8
0
 62
     7
 10
-11.473579
 20
191.992062
 30
0.0
 11
-11.470319
 21
192.245497
 31
0.0
  0
ARC
  5
3D88
  8
0
 62
     7
 10
-11.757771
 20
200.738723
 30
0.0
 40
0.3
 50
0.0
 51
90.0
  0
POLYLINE
  5
3D89
  8
0
 62
     7
 66
     1
 10
0.0
 20
0.0
 30
0.0
  0
VERTEX
  5
44DA
  8
0
 62
     7
 10
-1.057852
 20
218.068203
 30
0.0
  0
VERTEX
  5
44DB
  8
0
 62
     7
 10
-1.072481
 20
218.140844
 30
0.0
  0
VERTEX
  5
44DC
  8
0
 62
     7
 10
-1.19063
 20
218.300319
 30
0.0
  0
VERTEX
  5
44DD
  8
0
 62
     7
 10
-1.423357
 20
218.457015
 30
0.0
  0
VERTEX
  5
44DE
  8
0
 62
     7
 10
-1.762666
 20
218.604912
 30
0.0
  0
VERTEX
  5
44DF
  8
0
 62
     7
 10
-2.196671
 20
218.738048
 30
0.0
  0
VERTEX
  5
44E0
  8
0
 62
     7
 10
-2.710804
 20
218.851055
 30
0.0
  0
VERTEX
  5
44E1
  8
0
 62
     7
 10
-3.288499
 20
218.939284
 30
0.0
  0
VERTEX
  5
44E2
  8
0
 62
     7
 10
-3.911153
 20
218.9989
 30
0.0
  0
VERTEX
  5
44E3
  8
0
 62
     7
 10
-4.557771
 20
219.027096
 30
0.0
  0
SEQEND
  5
44E4
  8
0
 62
     7
  0
LINE
  5
3D8A
  8
0
 62
     7
 10
1.472519
 20
219.541791
 30
0.0
 11
-9.632657
 21
219.777806
 31
0.0
  0
LINE
  5
3D8B
  8
0
 62
     7
 10
1.471724
 20
219.534027
 30
0.0
 11
-9.633169
 21
219.76996
 31
0.0
  0
POLYLINE
  5
3D8C
  8
0
 62
     7
 66
     1
 10
0.0
 20
0.0
 30
0.0
  0
VERTEX
  5
44E5
  8
0
 62
     7
 10
3.211803
 20
214.553066
 30
0.0
  0
VERTEX
  5
44E6
  8
0
 62
     7
 10
-1.376379
 20
214.630027
 30
0.0
  0
VERTEX
  5
44E7
  8
0
 62
     7
 10
-5.999523
 20
214.707615
 30
0.0
  0
VERTEX
  5
44E8
  8
0
 62
     7
 10
-10.657771
 20
214.785832
 30
0.0
  0
SEQEND
  5
44E9
  8
0
 62
     7
  0
POLYLINE
  5
3D8D
  8
0
 62
     7
 66
     1
 10
0.0
 20
0.0
 30
0.0
  0
VERTEX
  5
44EA
  8
0
 62
     7
 10
3.21191
 20
214.721164
 30
0.0
  0
VERTEX
  5
44EB
  8
0
 62
     7
 10
-1.37638
 20
214.796889
 30
0.0
  0
VERTEX
  5
44EC
  8
0
 62
     7
 10
-5.999524
 20
214.873249
 30
0.0
  0
VERTEX
  5
44ED
  8
0
 62
     7
 10
-10.657771
 20
214.950247
 30
0.0
  0
SEQEND
  5
44EE
  8
0
 62
     7
  0
POLYLINE
  5
3D8E
  8
0
 62
     7
 66
     1
 10
0.0
 20
0.0
 30
0.0
  0
VERTEX
  5
44EF
  8
0
 62
     7
 10
-4.554281
 20
217.490095
 30
0.0
  0
VERTEX
  5
44F0
  8
0
 62
     7
 10
-3.869729
 20
217.491774
 30
0.0
  0
VERTEX
  5
44F1
  8
0
 62
     7
 10
-3.210606
 20
217.520368
 30
0.0
  0
VERTEX
  5
44F2
  8
0
 62
     7
 10
-2.60001
 20
217.575096
 30
0.0
  0
VERTEX
  5
44F3
  8
0
 62
     7
 10
-2.057321
 20
217.65468
 30
0.0
  0
VERTEX
  5
44F4
  8
0
 62
     7
 10
-1.599576
 20
217.757352
 30
0.0
  0
VERTEX
  5
44F5
  8
0
 62
     7
 10
-1.241612
 20
217.880706
 30
0.0
  0
SEQEND
  5
44F6
  8
0
 62
     7
  0
LINE
  5
3D8F
  8
0
 62
     7
 10
-10.657771
 20
212.037283
 30
0.0
 11
3.142414
 21
212.133159
 31
0.0
  0
POLYLINE
  5
3D90
  8
0
 62
     7
 66
     1
 10
0.0
 20
0.0
 30
0.0
  0
VERTEX
  5
44F7
  8
0
 62
     7
 10
-1.057863
 20
218.068194
 30
0.0
  0
VERTEX
  5
44F8
  8
0
 62
     7
 10
-1.059114
 20
218.0563
 30
0.0
  0
VERTEX
  5
44F9
  8
0
 62
     7
 10
-1.104895
 20
217.999201
 30
0.0
  0
VERTEX
  5
44FA
  8
0
 62
     7
 10
-1.267701
 20
217.89581
 30
0.0
  0
VERTEX
  5
44FB
  8
0
 62
     7
 10
-1.572547
 20
217.77949
 30
0.0
  0
VERTEX
  5
44FC
  8
0
 62
     7
 10
-2.01479
 20
217.671735
 30
0.0
  0
VERTEX
  5
44FD
  8
0
 62
     7
 10
-2.574724
 20
217.584633
 30
0.0
  0
VERTEX
  5
44FE
  8
0
 62
     7
 10
-3.219271
 20
217.525057
 30
0.0
  0
VERTEX
  5
44FF
  8
0
 62
     7
 10
-3.906258
 20
217.495639
 30
0.0
  0
VERTEX
  5
4500
  8
0
 62
     7
 10
-4.554331
 20
217.49458
 30
0.0
  0
SEQEND
  5
4501
  8
0
 62
     7
  0
LINE
  5
3D91
  8
0
 62
     7
 10
-10.657771
 20
210.203653
 30
0.0
 11
3.142414
 21
210.193523
 31
0.0
  0
POLYLINE
  5
3D92
  8
0
 62
     7
 66
     1
 10
0.0
 20
0.0
 30
0.0
  0
VERTEX
  5
4502
  8
0
 62
     7
 10
-10.657771
 20
207.563932
 30
0.0
  0
VERTEX
  5
4503
  8
0
 62
     7
 10
-6.018141
 20
207.659515
 30
0.0
  0
VERTEX
  5
4504
  8
0
 62
     7
 10
-1.349251
 20
207.755788
 30
0.0
  0
VERTEX
  5
4505
  8
0
 62
     7
 10
3.212487
 20
207.849938
 30
0.0
  0
SEQEND
  5
4506
  8
0
 62
     7
  0
POLYLINE
  5
3D93
  8
0
 62
     7
 66
     1
 10
0.0
 20
0.0
 30
0.0
  0
VERTEX
  5
4507
  8
0
 62
     7
 10
-10.657771
 20
207.663556
 30
0.0
  0
VERTEX
  5
4508
  8
0
 62
     7
 10
-5.999523
 20
207.7606
 30
0.0
  0
VERTEX
  5
4509
  8
0
 62
     7
 10
-1.376379
 20
207.857019
 30
0.0
  0
VERTEX
  5
450A
  8
0
 62
     7
 10
3.211789
 20
207.952814
 30
0.0
  0
SEQEND
  5
450B
  8
0
 62
     7
  0
POLYLINE
  5
3D94
  8
0
 62
     7
 66
     1
 10
0.0
 20
0.0
 30
0.0
  0
VERTEX
  5
450C
  8
0
 62
     7
 10
-1.241612
 20
217.880706
 30
0.0
  0
VERTEX
  5
450D
  8
0
 62
     7
 10
-0.99566
 20
218.021461
 30
0.0
  0
VERTEX
  5
450E
  8
0
 62
     7
 10
-0.870218
 20
218.175569
 30
0.0
  0
VERTEX
  5
450F
  8
0
 62
     7
 10
-0.869841
 20
218.338138
 30
0.0
  0
VERTEX
  5
4510
  8
0
 62
     7
 10
-0.994795
 20
218.503689
 30
0.0
  0
VERTEX
  5
4511
  8
0
 62
     7
 10
-1.240914
 20
218.666144
 30
0.0
  0
VERTEX
  5
4512
  8
0
 62
     7
 10
-1.59974
 20
218.819283
 30
0.0
  0
VERTEX
  5
4513
  8
0
 62
     7
 10
-2.058695
 20
218.956963
 30
0.0
  0
VERTEX
  5
4514
  8
0
 62
     7
 10
-2.602369
 20
219.073665
 30
0.0
  0
VERTEX
  5
4515
  8
0
 62
     7
 10
-3.213239
 20
219.164619
 30
0.0
  0
VERTEX
  5
4516
  8
0
 62
     7
 10
-3.871623
 20
219.225895
 30
0.0
  0
VERTEX
  5
4517
  8
0
 62
     7
 10
-4.554281
 20
219.2546
 30
0.0
  0
SEQEND
  5
4518
  8
0
 62
     7
  0
LINE
  5
3D95
  8
0
 62
     7
 10
-11.457771
 20
223.938723
 30
0.0
 11
-11.457771
 21
221.188723
 31
0.0
  0
LINE
  5
3D96
  8
0
 62
     7
 10
-10.657771
 20
221.188723
 30
0.0
 11
-12.09969
 21
221.188723
 31
0.0
  0
POLYLINE
  5
3D97
  8
0
 62
     7
 66
     1
 10
0.0
 20
0.0
 30
0.0
  0
VERTEX
  5
4519
  8
0
 62
     7
 10
-11.850753
 20
204.188575
 30
0.0
  0
VERTEX
  5
451A
  8
0
 62
     7
 10
-11.866162
 20
204.190926
 30
0.0
  0
VERTEX
  5
451B
  8
0
 62
     7
 10
-12.016964
 20
204.407592
 30
0.0
  0
SEQEND
  5
451C
  8
0
 62
     7
  0
LINE
  5
3D98
  8
0
 62
     7
 10
-10.657771
 20
204.688723
 30
0.0
 11
-12.099679
 21
204.688723
 31
0.0
  0
POLYLINE
  5
3D99
  8
0
 62
     7
 66
     1
 10
0.0
 20
0.0
 30
0.0
  0
VERTEX
  5
451D
  8
0
 62
     7
 10
-12.185843
 20
220.895981
 30
0.0
  0
VERTEX
  5
451E
  8
0
 62
     7
 10
-12.016929
 20
221.46994
 30
0.0
  0
VERTEX
  5
451F
  8
0
 62
     7
 10
-11.866352
 20
221.686466
 30
0.0
  0
VERTEX
  5
4520
  8
0
 62
     7
 10
-11.850772
 20
221.688818
 30
0.0
  0
SEQEND
  5
4521
  8
0
 62
     7
  0
LINE
  5
3D9A
  8
0
 62
     7
 10
-12.357771
 20
205.880544
 30
0.0
 11
-12.357771
 21
219.996839
 31
0.0
  0
LINE
  5
3D9B
  8
0
 62
     7
 10
-12.657771
 20
208.469798
 30
0.0
 11
-12.657771
 21
217.407649
 31
0.0
  0
LINE
  5
3D9C
  8
0
 62
     7
 10
-12.016964
 20
204.407592
 30
0.0
 11
-12.18597
 21
204.982012
 31
0.0
  0
POLYLINE
  5
3D9D
  8
0
 62
     7
 66
     1
 10
0.0
 20
0.0
 30
0.0
  0
VERTEX
  5
4522
  8
0
 62
     7
 10
-12.18597
 20
204.982012
 30
0.0
  0
VERTEX
  5
4523
  8
0
 62
     7
 10
-12.358498
 20
205.884345
 30
0.0
  0
VERTEX
  5
4524
  8
0
 62
     7
 10
-12.519178
 20
207.05702
 30
0.0
  0
SEQEND
  5
4525
  8
0
 62
     7
  0
LINE
  5
3D9E
  8
0
 62
     7
 10
-12.519178
 20
207.05702
 30
0.0
 11
-12.657771
 21
208.469798
 31
0.0
  0
POLYLINE
  5
3D9F
  8
0
 62
     7
 66
     1
 10
0.0
 20
0.0
 30
0.0
  0
VERTEX
  5
4526
  8
0
 62
     7
 10
-12.657771
 20
217.407649
 30
0.0
  0
VERTEX
  5
4527
  8
0
 62
     7
 10
-12.519406
 20
218.818479
 30
0.0
  0
VERTEX
  5
4528
  8
0
 62
     7
 10
-12.358562
 20
219.992702
 30
0.0
  0
SEQEND
  5
4529
  8
0
 62
     7
  0
LINE
  5
3DA0
  8
0
 62
     7
 10
-12.358562
 20
219.992702
 30
0.0
 11
-12.185843
 21
220.895981
 31
0.0
  0
LINE
  5
3DA1
  8
0
 62
     7
 10
-10.657771
 20
204.688723
 30
0.0
 11
-10.657771
 21
221.188723
 31
0.0
  0
ARC
  5
3DA2
  8
0
 62
     7
 10
-28.957771
 20
209.82773
 30
0.0
 40
19.0
 50
345.963757
 51
353.190353
  0
LINE
  5
3DA3
  8
0
 62
     7
 10
-10.525064
 20
205.219553
 30
0.0
 11
-10.525064
 21
207.566666
 31
0.0
  0
LINE
  5
3DA4
  8
0
 62
     7
 10
-10.525064
 20
205.219553
 30
0.0
 11
-10.657771
 21
204.688723
 31
0.0
  0
POLYLINE
  5
3DA5
  8
0
 62
     7
 66
     1
 10
0.0
 20
0.0
 30
0.0
  0
VERTEX
  5
452A
  8
0
 62
     7
 10
-11.664751
 20
204.688723
 30
0.0
  0
VERTEX
  5
452B
  8
0
 62
     7
 10
-11.7394
 20
204.326666
 30
0.0
  0
VERTEX
  5
452C
  8
0
 62
     7
 10
-11.850753
 20
204.188575
 30
0.0
  0
SEQEND
  5
452D
  8
0
 62
     7
  0
POLYLINE
  5
3DA6
  8
0
 62
     7
 66
     1
 10
0.0
 20
0.0
 30
0.0
  0
VERTEX
  5
452E
  8
0
 62
     7
 10
-8.114054
 20
218.144967
 30
0.0
  0
VERTEX
  5
452F
  8
0
 62
     7
 10
-7.868393
 20
217.995436
 30
0.0
  0
VERTEX
  5
4530
  8
0
 62
     7
 10
-7.510366
 20
217.859484
 30
0.0
  0
VERTEX
  5
4531
  8
0
 62
     7
 10
-7.05232
 20
217.740844
 30
0.0
  0
VERTEX
  5
4532
  8
0
 62
     7
 10
-6.509252
 20
217.642447
 30
0.0
  0
VERTEX
  5
4533
  8
0
 62
     7
 10
-5.898304
 20
217.566634
 30
0.0
  0
VERTEX
  5
4534
  8
0
 62
     7
 10
-5.238914
 20
217.51533
 30
0.0
  0
VERTEX
  5
4535
  8
0
 62
     7
 10
-4.554281
 20
217.490095
 30
0.0
  0
SEQEND
  5
4536
  8
0
 62
     7
  0
POLYLINE
  5
3DA7
  8
0
 62
     7
 66
     1
 10
0.0
 20
0.0
 30
0.0
  0
VERTEX
  5
4537
  8
0
 62
     7
 10
-4.554331
 20
217.49458
 30
0.0
  0
VERTEX
  5
4538
  8
0
 62
     7
 10
-5.201949
 20
217.51791
 30
0.0
  0
VERTEX
  5
4539
  8
0
 62
     7
 10
-5.888324
 20
217.570883
 30
0.0
  0
VERTEX
  5
453A
  8
0
 62
     7
 10
-6.53241
 20
217.652504
 30
0.0
  0
VERTEX
  5
453B
  8
0
 62
     7
 10
-7.09231
 20
217.758744
 30
0.0
  0
VERTEX
  5
453C
  8
0
 62
     7
 10
-7.535223
 20
217.881722
 30
0.0
  0
VERTEX
  5
453D
  8
0
 62
     7
 10
-7.841725
 20
218.008995
 30
0.0
  0
VERTEX
  5
453E
  8
0
 62
     7
 10
-8.007404
 20
218.119745
 30
0.0
  0
VERTEX
  5
453F
  8
0
 62
     7
 10
-8.056127
 20
218.182469
 30
0.0
  0
VERTEX
  5
4540
  8
0
 62
     7
 10
-8.057693
 20
218.195184
 30
0.0
  0
SEQEND
  5
4541
  8
0
 62
     7
  0
POLYLINE
  5
3DA8
  8
0
 62
     7
 66
     1
 10
0.0
 20
0.0
 30
0.0
  0
VERTEX
  5
4542
  8
0
 62
     7
 10
-4.557771
 20
219.027096
 30
0.0
  0
VERTEX
  5
4543
  8
0
 62
     7
 10
-5.204225
 20
219.02251
 30
0.0
  0
VERTEX
  5
4544
  8
0
 62
     7
 10
-5.826214
 20
218.985685
 30
0.0
  0
VERTEX
  5
4545
  8
0
 62
     7
 10
-6.403074
 20
218.918702
 30
0.0
  0
VERTEX
  5
4546
  8
0
 62
     7
 10
-6.916531
 20
218.82471
 30
0.0
  0
VERTEX
  5
4547
  8
0
 62
     7
 10
-7.35029
 20
218.707696
 30
0.0
  0
VERTEX
  5
4548
  8
0
 62
     7
 10
-7.689903
 20
218.572418
 30
0.0
  0
VERTEX
  5
4549
  8
0
 62
     7
 10
-7.923407
 20
218.424328
 30
0.0
  0
VERTEX
  5
454A
  8
0
 62
     7
 10
-8.042564
 20
218.269121
 30
0.0
  0
VERTEX
  5
454B
  8
0
 62
     7
 10
-8.057704
 20
218.195188
 30
0.0
  0
SEQEND
  5
454C
  8
0
 62
     7
  0
POLYLINE
  5
3DA9
  8
0
 62
     7
 66
     1
 10
0.0
 20
0.0
 30
0.0
  0
VERTEX
  5
454D
  8
0
 62
     7
 10
-4.554281
 20
219.2546
 30
0.0
  0
VERTEX
  5
454E
  8
0
 62
     7
 10
-5.236835
 20
219.249471
 30
0.0
  0
VERTEX
  5
454F
  8
0
 62
     7
 10
-5.894515
 20
219.21099
 30
0.0
  0
VERTEX
  5
4550
  8
0
 62
     7
 10
-6.504497
 20
219.14129
 30
0.0
  0
VERTEX
  5
4551
  8
0
 62
     7
 10
-7.04745
 20
219.043614
 30
0.0
  0
VERTEX
  5
4552
  8
0
 62
     7
 10
-7.506134
 20
218.922071
 30
0.0
  0
VERTEX
  5
4553
  8
0
 62
     7
 10
-7.86527
 20
218.781564
 30
0.0
  0
VERTEX
  5
4554
  8
0
 62
     7
 10
-8.112198
 20
218.627723
 30
0.0
  0
VERTEX
  5
4555
  8
0
 62
     7
 10
-8.238202
 20
218.466442
 30
0.0
  0
VERTEX
  5
4556
  8
0
 62
     7
 10
-8.238809
 20
218.303675
 30
0.0
  0
VERTEX
  5
4557
  8
0
 62
     7
 10
-8.114054
 20
218.144967
 30
0.0
  0
SEQEND
  5
4558
  8
0
 62
     7
  0
ARC
  5
3DAA
  8
0
 62
     7
 10
-28.957771
 20
216.049716
 30
0.0
 40
19.0
 50
0.471844
 51
14.036243
  0
LINE
  5
3DAB
  8
0
 62
     7
 10
-10.525064
 20
215.340459
 30
0.0
 11
-10.525064
 21
220.657893
 31
0.0
  0
POLYLINE
  5
3DAC
  8
0
 62
     7
 66
     1
 10
0.0
 20
0.0
 30
0.0
  0
VERTEX
  5
4559
  8
0
 62
     7
 10
-9.633169
 20
219.76996
 30
0.0
  0
VERTEX
  5
455A
  8
0
 62
     7
 10
-9.769174
 20
218.858105
 30
0.0
  0
VERTEX
  5
455B
  8
0
 62
     7
 10
-10.085402
 20
218.103571
 30
0.0
  0
SEQEND
  5
455C
  8
0
 62
     7
  0
POLYLINE
  5
3DAD
  8
0
 62
     7
 66
     1
 10
0.0
 20
0.0
 30
0.0
  0
VERTEX
  5
455D
  8
0
 62
     7
 10
-9.99485
 20
216.750574
 30
0.0
  0
VERTEX
  5
455E
  8
0
 62
     7
 10
-9.943974
 20
216.67996
 30
0.0
  0
VERTEX
  5
455F
  8
0
 62
     7
 10
-9.878157
 20
216.567405
 30
0.0
  0
VERTEX
  5
4560
  8
0
 62
     7
 10
-9.82516
 20
216.445971
 30
0.0
  0
VERTEX
  5
4561
  8
0
 62
     7
 10
-9.790632
 20
216.326897
 30
0.0
  0
VERTEX
  5
4562
  8
0
 62
     7
 10
-9.772685
 20
216.219665
 30
0.0
  0
VERTEX
  5
4563
  8
0
 62
     7
 10
-9.764872
 20
216.12297
 30
0.0
  0
VERTEX
  5
4564
  8
0
 62
     7
 10
-9.762258
 20
216.037246
 30
0.0
  0
VERTEX
  5
4565
  8
0
 62
     7
 10
-9.761647
 20
215.963897
 30
0.0
  0
VERTEX
  5
4566
  8
0
 62
     7
 10
-9.761665
 20
215.901064
 30
0.0
  0
VERTEX
  5
4567
  8
0
 62
     7
 10
-9.762116
 20
215.846036
 30
0.0
  0
VERTEX
  5
4568
  8
0
 62
     7
 10
-9.763172
 20
215.798852
 30
0.0
  0
VERTEX
  5
4569
  8
0
 62
     7
 10
-9.765021
 20
215.757619
 30
0.0
  0
VERTEX
  5
456A
  8
0
 62
     7
 10
-9.767872
 20
215.719986
 30
0.0
  0
VERTEX
  5
456B
  8
0
 62
     7
 10
-9.772061
 20
215.683799
 30
0.0
  0
VERTEX
  5
456C
  8
0
 62
     7
 10
-9.778183
 20
215.647132
 30
0.0
  0
VERTEX
  5
456D
  8
0
 62
     7
 10
-9.787255
 20
215.608265
 30
0.0
  0
VERTEX
  5
456E
  8
0
 62
     7
 10
-9.800913
 20
215.565741
 30
0.0
  0
VERTEX
  5
456F
  8
0
 62
     7
 10
-9.821196
 20
215.519372
 30
0.0
  0
VERTEX
  5
4570
  8
0
 62
     7
 10
-9.850418
 20
215.469718
 30
0.0
  0
VERTEX
  5
4571
  8
0
 62
     7
 10
-9.892342
 20
215.416192
 30
0.0
  0
VERTEX
  5
4572
  8
0
 62
     7
 10
-9.950647
 20
215.35972
 30
0.0
  0
VERTEX
  5
4573
  8
0
 62
     7
 10
-10.018685
 20
215.308366
 30
0.0
  0
VERTEX
  5
4574
  8
0
 62
     7
 10
-10.092874
 20
215.26303
 30
0.0
  0
VERTEX
  5
4575
  8
0
 62
     7
 10
-10.171268
 20
215.223016
 30
0.0
  0
VERTEX
  5
4576
  8
0
 62
     7
 10
-10.252248
 20
215.187651
 30
0.0
  0
VERTEX
  5
4577
  8
0
 62
     7
 10
-10.334526
 20
215.156326
 30
0.0
  0
SEQEND
  5
4578
  8
0
 62
     7
  0
POLYLINE
  5
3DAE
  8
0
 62
     7
 66
     1
 10
0.0
 20
0.0
 30
0.0
  0
VERTEX
  5
4579
  8
0
 62
     7
 10
-10.525062
 20
215.340459
 30
0.0
  0
VERTEX
  5
457A
  8
0
 62
     7
 10
-10.505761
 20
215.27056
 30
0.0
  0
VERTEX
  5
457B
  8
0
 62
     7
 10
-10.463484
 20
215.211838
 30
0.0
  0
VERTEX
  5
457C
  8
0
 62
     7
 10
-10.403788
 20
215.172014
 30
0.0
  0
VERTEX
  5
457D
  8
0
 62
     7
 10
-10.334526
 20
215.156325
 30
0.0
  0
SEQEND
  5
457E
  8
0
 62
     7
  0
POLYLINE
  5
3DAF
  8
0
 62
     7
 66
     1
 10
0.0
 20
0.0
 30
0.0
  0
VERTEX
  5
457F
  8
0
 62
     7
 10
-9.95814
 20
216.156374
 30
0.0
  0
VERTEX
  5
4580
  8
0
 62
     7
 10
-9.95817
 20
216.097871
 30
0.0
  0
VERTEX
  5
4581
  8
0
 62
     7
 10
-9.958617
 20
216.042408
 30
0.0
  0
VERTEX
  5
4582
  8
0
 62
     7
 10
-9.959661
 20
215.994524
 30
0.0
  0
VERTEX
  5
4583
  8
0
 62
     7
 10
-9.961491
 20
215.952485
 30
0.0
  0
VERTEX
  5
4584
  8
0
 62
     7
 10
-9.964313
 20
215.914004
 30
0.0
  0
VERTEX
  5
4585
  8
0
 62
     7
 10
-9.968458
 20
215.876941
 30
0.0
  0
VERTEX
  5
4586
  8
0
 62
     7
 10
-9.974516
 20
215.839357
 30
0.0
  0
VERTEX
  5
4587
  8
0
 62
     7
 10
-9.983494
 20
215.799518
 30
0.0
  0
VERTEX
  5
4588
  8
0
 62
     7
 10
-9.997011
 20
215.755966
 30
0.0
  0
VERTEX
  5
4589
  8
0
 62
     7
 10
-10.017082
 20
215.70854
 30
0.0
  0
VERTEX
  5
458A
  8
0
 62
     7
 10
-10.045999
 20
215.657852
 30
0.0
  0
VERTEX
  5
458B
  8
0
 62
     7
 10
-10.087483
 20
215.603341
 30
0.0
  0
VERTEX
  5
458C
  8
0
 62
     7
 10
-10.145166
 20
215.545983
 30
0.0
  0
VERTEX
  5
458D
  8
0
 62
     7
 10
-10.212498
 20
215.493934
 30
0.0
  0
VERTEX
  5
458E
  8
0
 62
     7
 10
-10.285914
 20
215.44808
 30
0.0
  0
VERTEX
  5
458F
  8
0
 62
     7
 10
-10.363492
 20
215.407676
 30
0.0
  0
VERTEX
  5
4590
  8
0
 62
     7
 10
-10.443628
 20
215.372016
 30
0.0
  0
VERTEX
  5
4591
  8
0
 62
     7
 10
-10.525064
 20
215.340459
 30
0.0
  0
SEQEND
  5
4592
  8
0
 62
     7
  0
LINE
  5
3DB0
  8
0
 62
     7
 10
-9.958327
 20
216.195092
 30
0.0
 11
-9.95814
 21
216.156374
 31
0.0
  0
POLYLINE
  5
3DB1
  8
0
 62
     7
 66
     1
 10
0.0
 20
0.0
 30
0.0
  0
VERTEX
  5
4593
  8
0
 62
     7
 10
-10.525064
 20
215.340459
 30
0.0
  0
VERTEX
  5
4594
  8
0
 62
     7
 10
-10.591288
 20
215.317879
 30
0.0
  0
VERTEX
  5
4595
  8
0
 62
     7
 10
-10.657771
 20
215.295946
 30
0.0
  0
SEQEND
  5
4596
  8
0
 62
     7
  0
POLYLINE
  5
3DB2
  8
0
 62
     7
 66
     1
 10
0.0
 20
0.0
 30
0.0
  0
VERTEX
  5
4597
  8
0
 62
     7
 10
-10.334526
 20
215.156326
 30
0.0
  0
VERTEX
  5
4598
  8
0
 62
     7
 10
-10.495611
 20
215.101106
 30
0.0
  0
VERTEX
  5
4599
  8
0
 62
     7
 10
-10.657771
 20
215.049944
 30
0.0
  0
SEQEND
  5
459A
  8
0
 62
     7
  0
LINE
  5
3DB3
  8
0
 62
     7
 10
-8.057704
 20
218.195188
 30
0.0
 11
-8.057771
 21
218.189904
 31
0.0
  0
POLYLINE
  5
3DB4
  8
0
 62
     7
 66
     1
 10
0.0
 20
0.0
 30
0.0
  0
VERTEX
  5
459B
  8
0
 62
     7
 10
-11.850772
 20
221.688818
 30
0.0
  0
VERTEX
  5
459C
  8
0
 62
     7
 10
-11.739388
 20
221.550749
 30
0.0
  0
VERTEX
  5
459D
  8
0
 62
     7
 10
-11.664781
 20
221.188723
 30
0.0
  0
SEQEND
  5
459E
  8
0
 62
     7
  0
LINE
  5
3DB5
  8
0
 62
     7
 10
-10.525064
 20
220.657893
 30
0.0
 11
-10.657771
 21
221.188723
 31
0.0
  0
LINE
  5
3DB6
  8
0
 62
     7
 10
-9.633169
 20
219.76996
 30
0.0
 11
-9.632657
 21
219.777778
 31
0.0
  0
ARC
  5
3DB7
  8
0
 62
     7
 10
-11.957771
 20
223.938723
 30
0.0
 40
0.5
 50
0.0
 51
90.0
  0
LINE
  5
3DB8
  8
0
 62
     7
 10
-11.507771
 20
227.213723
 30
0.0
 11
-12.257771
 21
227.213723
 31
0.0
  0
LINE
  5
3DB9
  8
0
 62
     7
 10
-12.257771
 20
225.288723
 30
0.0
 11
-14.719156
 21
225.035575
 31
0.0
  0
ARC
  5
3DBA
  8
0
 62
     7
 10
-14.657771
 20
224.438723
 30
0.0
 40
0.6
 50
95.872106
 51
180.000279
  0
POLYLINE
  5
3DBB
  8
0
 62
     7
 66
     1
 10
0.0
 20
0.0
 30
0.0
  0
VERTEX
  5
459F
  8
0
 62
     7
 10
-13.752121
 20
224.438723
 30
0.0
  0
VERTEX
  5
45A0
  8
0
 62
     7
 10
-13.563431
 20
224.400663
 30
0.0
  0
VERTEX
  5
45A1
  8
0
 62
     7
 10
-13.403467
 20
224.292277
 30
0.0
  0
VERTEX
  5
45A2
  8
0
 62
     7
 10
-13.296582
 20
224.130065
 30
0.0
  0
VERTEX
  5
45A3
  8
0
 62
     7
 10
-13.259049
 20
223.938723
 30
0.0
  0
SEQEND
  5
45A4
  8
0
 62
     7
  0
LINE
  5
3DBC
  8
0
 62
     7
 10
-12.257771
 20
227.213723
 30
0.0
 11
-12.257771
 21
224.438723
 31
0.0
  0
LINE
  5
3DBD
  8
0
 62
     7
 10
-11.507771
 20
227.213723
 30
0.0
 11
-11.507771
 21
224.147934
 31
0.0
  0
POLYLINE
  5
3DBE
  8
0
 62
     7
 66
     1
 10
0.0
 20
0.0
 30
0.0
  0
VERTEX
  5
45A5
  8
0
 62
     7
 10
3.337442
 20
212.178453
 30
0.0
  0
VERTEX
  5
45A6
  8
0
 62
     7
 10
3.349665
 20
212.835652
 30
0.0
  0
VERTEX
  5
45A7
  8
0
 62
     7
 10
3.366498
 20
213.456175
 30
0.0
  0
VERTEX
  5
45A8
  8
0
 62
     7
 10
3.386213
 20
214.022972
 30
0.0
  0
VERTEX
  5
45A9
  8
0
 62
     7
 10
3.406665
 20
214.517007
 30
0.0
  0
SEQEND
  5
45AA
  8
0
 62
     7
  0
POLYLINE
  5
3DBF
  8
0
 62
     7
 66
     1
 10
0.0
 20
0.0
 30
0.0
  0
VERTEX
  5
45AB
  8
0
 62
     7
 10
3.142414
 20
212.133159
 30
0.0
  0
VERTEX
  5
45AC
  8
0
 62
     7
 10
3.15451
 20
212.813058
 30
0.0
  0
VERTEX
  5
45AD
  8
0
 62
     7
 10
3.171388
 20
213.455566
 30
0.0
  0
VERTEX
  5
45AE
  8
0
 62
     7
 10
3.191265
 20
214.042315
 30
0.0
  0
VERTEX
  5
45AF
  8
0
 62
     7
 10
3.211803
 20
214.553066
 30
0.0
  0
SEQEND
  5
45B0
  8
0
 62
     7
  0
POLYLINE
  5
3DC0
  8
0
 62
     7
 66
     1
 10
0.0
 20
0.0
 30
0.0
  0
VERTEX
  5
45B1
  8
0
 62
     7
 10
4.040542
 20
213.878271
 30
0.0
  0
VERTEX
  5
45B2
  8
0
 62
     7
 10
4.03884
 20
213.757605
 30
0.0
  0
VERTEX
  5
45B3
  8
0
 62
     7
 10
4.03714
 20
213.58155
 30
0.0
  0
VERTEX
  5
45B4
  8
0
 62
     7
 10
4.035885
 20
213.360136
 30
0.0
  0
VERTEX
  5
45B5
  8
0
 62
     7
 10
4.035428
 20
213.110449
 30
0.0
  0
VERTEX
  5
45B6
  8
0
 62
     7
 10
4.035889
 20
212.84804
 30
0.0
  0
VERTEX
  5
45B7
  8
0
 62
     7
 10
4.037142
 20
212.592957
 30
0.0
  0
VERTEX
  5
45B8
  8
0
 62
     7
 10
4.038848
 20
212.36154
 30
0.0
  0
VERTEX
  5
45B9
  8
0
 62
     7
 10
4.040544
 20
212.170134
 30
0.0
  0
VERTEX
  5
45BA
  8
0
 62
     7
 10
4.04178
 20
212.031163
 30
0.0
  0
VERTEX
  5
45BB
  8
0
 62
     7
 10
4.042229
 20
211.953915
 30
0.0
  0
SEQEND
  5
45BC
  8
0
 62
     7
  0
POLYLINE
  5
3DC1
  8
0
 62
     7
 66
     1
 10
0.0
 20
0.0
 30
0.0
  0
VERTEX
  5
45BD
  8
0
 62
     7
 10
4.042229
 20
213.923531
 30
0.0
  0
VERTEX
  5
45BE
  8
0
 62
     7
 10
3.963805
 20
213.340145
 30
0.0
  0
VERTEX
  5
45BF
  8
0
 62
     7
 10
3.728706
 20
212.758029
 30
0.0
  0
VERTEX
  5
45C0
  8
0
 62
     7
 10
3.555163
 20
212.471722
 30
0.0
  0
SEQEND
  5
45C1
  8
0
 62
     7
  0
POLYLINE
  5
3DC2
  8
0
 62
     7
 66
     1
 10
0.0
 20
0.0
 30
0.0
  0
VERTEX
  5
45C2
  8
0
 62
     7
 10
3.406665
 20
208.04531
 30
0.0
  0
VERTEX
  5
45C3
  8
0
 62
     7
 10
3.390766
 20
208.38181
 30
0.0
  0
VERTEX
  5
45C4
  8
0
 62
     7
 10
3.374702
 20
208.77388
 30
0.0
  0
VERTEX
  5
45C5
  8
0
 62
     7
 10
3.359752
 20
209.213648
 30
0.0
  0
VERTEX
  5
45C6
  8
0
 62
     7
 10
3.347016
 20
209.69441
 30
0.0
  0
VERTEX
  5
45C7
  8
0
 62
     7
 10
3.337442
 20
210.208838
 30
0.0
  0
SEQEND
  5
45C8
  8
0
 62
     7
  0
POLYLINE
  5
3DC3
  8
0
 62
     7
 66
     1
 10
0.0
 20
0.0
 30
0.0
  0
VERTEX
  5
45C9
  8
0
 62
     7
 10
4.042228
 20
210.386089
 30
0.0
  0
VERTEX
  5
45CA
  8
0
 62
     7
 10
4.025629
 20
210.056782
 30
0.0
  0
VERTEX
  5
45CB
  8
0
 62
     7
 10
3.827903
 20
209.112176
 30
0.0
  0
VERTEX
  5
45CC
  8
0
 62
     7
 10
3.406665
 20
208.04531
 30
0.0
  0
SEQEND
  5
45CD
  8
0
 62
     7
  0
POLYLINE
  5
3DC4
  8
0
 62
     7
 66
     1
 10
0.0
 20
0.0
 30
0.0
  0
VERTEX
  5
45CE
  8
0
 62
     7
 10
3.211789
 20
207.952814
 30
0.0
  0
VERTEX
  5
45CF
  8
0
 62
     7
 10
3.191829
 20
208.395757
 30
0.0
  0
VERTEX
  5
45D0
  8
0
 62
     7
 10
3.171964
 20
208.927221
 30
0.0
  0
VERTEX
  5
45D1
  8
0
 62
     7
 10
3.154808
 20
209.531532
 30
0.0
  0
VERTEX
  5
45D2
  8
0
 62
     7
 10
3.142414
 20
210.193523
 30
0.0
  0
SEQEND
  5
45D3
  8
0
 62
     7
  0
POLYLINE
  5
3DC5
  8
0
 62
     7
 66
     1
 10
0.0
 20
0.0
 30
0.0
  0
VERTEX
  5
45D4
  8
0
 62
     7
 10
3.389266
 20
207.964466
 30
0.0
  0
VERTEX
  5
45D5
  8
0
 62
     7
 10
3.78492
 20
208.946441
 30
0.0
  0
VERTEX
  5
45D6
  8
0
 62
     7
 10
4.000485
 20
209.839852
 30
0.0
  0
SEQEND
  5
45D7
  8
0
 62
     7
  0
POLYLINE
  5
3DC6
  8
0
 62
     7
 66
     1
 10
0.0
 20
0.0
 30
0.0
  0
VERTEX
  5
45D8
  8
0
 62
     7
 10
3.211922
 20
207.952816
 30
0.0
  0
VERTEX
  5
45D9
  8
0
 62
     7
 10
3.212581
 20
207.90119
 30
0.0
  0
VERTEX
  5
45DA
  8
0
 62
     7
 10
3.212971
 20
207.865491
 30
0.0
  0
VERTEX
  5
45DB
  8
0
 62
     7
 10
3.212578
 20
207.850243
 30
0.0
  0
VERTEX
  5
45DC
  8
0
 62
     7
 10
3.212307
 20
207.849935
 30
0.0
  0
SEQEND
  5
45DD
  8
0
 62
     7
  0
LINE
  5
3DC7
  8
0
 62
     7
 10
3.238014
 20
207.852097
 30
0.0
 11
3.212287
 21
207.849936
 31
0.0
  0
POLYLINE
  5
3DC8
  8
0
 62
     7
 66
     1
 10
0.0
 20
0.0
 30
0.0
  0
VERTEX
  5
45DE
  8
0
 62
     7
 10
3.211922
 20
207.952816
 30
0.0
  0
VERTEX
  5
45DF
  8
0
 62
     7
 10
3.281504
 20
207.962202
 30
0.0
  0
VERTEX
  5
45E0
  8
0
 62
     7
 10
3.341875
 20
207.982639
 30
0.0
  0
SEQEND
  5
45E1
  8
0
 62
     7
  0
LINE
  5
3DC9
  8
0
 62
     7
 10
3.389131
 20
207.964178
 30
0.0
 11
3.389301
 21
207.964539
 31
0.0
  0
POLYLINE
  5
3DCA
  8
0
 62
     7
 66
     1
 10
0.0
 20
0.0
 30
0.0
  0
VERTEX
  5
45E2
  8
0
 62
     7
 10
3.389301
 20
207.964539
 30
0.0
  0
VERTEX
  5
45E3
  8
0
 62
     7
 10
3.392966
 20
207.972834
 30
0.0
  0
VERTEX
  5
45E4
  8
0
 62
     7
 10
3.406666
 20
208.045293
 30
0.0
  0
SEQEND
  5
45E5
  8
0
 62
     7
  0
LINE
  5
3DCB
  8
0
 62
     7
 10
3.385425
 20
208.011551
 30
0.0
 11
3.406666
 21
208.045293
 31
0.0
  0
POLYLINE
  5
3DCC
  8
0
 62
     7
 66
     1
 10
0.0
 20
0.0
 30
0.0
  0
VERTEX
  5
45E6
  8
0
 62
     7
 10
3.389131
 20
207.964178
 30
0.0
  0
VERTEX
  5
45E7
  8
0
 62
     7
 10
3.367884
 20
207.929171
 30
0.0
  0
VERTEX
  5
45E8
  8
0
 62
     7
 10
3.312613
 20
207.879174
 30
0.0
  0
SEQEND
  5
45E9
  8
0
 62
     7
  0
LINE
  5
3DCD
  8
0
 62
     7
 10
3.341875
 20
207.982639
 30
0.0
 11
3.385425
 21
208.011551
 31
0.0
  0
LINE
  5
3DCE
  8
0
 62
     7
 10
3.312613
 20
207.879174
 30
0.0
 11
3.238014
 21
207.852097
 31
0.0
  0
POLYLINE
  5
3DCF
  8
0
 62
     7
 66
     1
 10
0.0
 20
0.0
 30
0.0
  0
VERTEX
  5
45EA
  8
0
 62
     7
 10
4.042229
 20
211.953915
 30
0.0
  0
VERTEX
  5
45EB
  8
0
 62
     7
 10
3.877941
 20
212.260228
 30
0.0
  0
VERTEX
  5
45EC
  8
0
 62
     7
 10
3.776526
 20
212.592724
 30
0.0
  0
VERTEX
  5
45ED
  8
0
 62
     7
 10
3.753945
 20
212.820524
 30
0.0
  0
SEQEND
  5
45EE
  8
0
 62
     7
  0
POLYLINE
  5
3DD0
  8
0
 62
     7
 66
     1
 10
0.0
 20
0.0
 30
0.0
  0
VERTEX
  5
45EF
  8
0
 62
     7
 10
3.329239
 20
210.207451
 30
0.0
  0
VERTEX
  5
45F0
  8
0
 62
     7
 10
3.332711
 20
210.20684
 30
0.0
  0
VERTEX
  5
45F1
  8
0
 62
     7
 10
3.335444
 20
210.20732
 30
0.0
  0
VERTEX
  5
45F2
  8
0
 62
     7
 10
3.337442
 20
210.208838
 30
0.0
  0
SEQEND
  5
45F3
  8
0
 62
     7
  0
LINE
  5
3DD1
  8
0
 62
     7
 10
4.000485
 20
209.839852
 30
0.0
 11
4.042223
 21
210.386076
 31
0.0
  0
LINE
  5
3DD2
  8
0
 62
     7
 10
4.042229
 20
211.953915
 30
0.0
 11
4.042229
 21
210.373261
 31
0.0
  0
POLYLINE
  5
3DD3
  8
0
 62
     7
 66
     1
 10
0.0
 20
0.0
 30
0.0
  0
VERTEX
  5
45F4
  8
0
 62
     7
 10
3.153207
 20
212.132827
 30
0.0
  0
VERTEX
  5
45F5
  8
0
 62
     7
 10
3.149612
 20
212.133028
 30
0.0
  0
VERTEX
  5
45F6
  8
0
 62
     7
 10
3.146015
 20
212.133138
 30
0.0
  0
VERTEX
  5
45F7
  8
0
 62
     7
 10
3.142414
 20
212.133159
 30
0.0
  0
SEQEND
  5
45F8
  8
0
 62
     7
  0
POLYLINE
  5
3DD4
  8
0
 62
     7
 66
     1
 10
0.0
 20
0.0
 30
0.0
  0
VERTEX
  5
45F9
  8
0
 62
     7
 10
3.329244
 20
210.207454
 30
0.0
  0
VERTEX
  5
45FA
  8
0
 62
     7
 10
3.29133
 20
210.208989
 30
0.0
  0
VERTEX
  5
45FB
  8
0
 62
     7
 10
3.230089
 20
210.202694
 30
0.0
  0
VERTEX
  5
45FC
  8
0
 62
     7
 10
3.153193
 20
210.194028
 30
0.0
  0
SEQEND
  5
45FD
  8
0
 62
     7
  0
POLYLINE
  5
3DD5
  8
0
 62
     7
 66
     1
 10
0.0
 20
0.0
 30
0.0
  0
VERTEX
  5
45FE
  8
0
 62
     7
 10
3.153207
 20
212.132827
 30
0.0
  0
VERTEX
  5
45FF
  8
0
 62
     7
 10
3.230098
 20
212.131487
 30
0.0
  0
VERTEX
  5
4600
  8
0
 62
     7
 10
3.291333
 20
212.142156
 30
0.0
  0
VERTEX
  5
4601
  8
0
 62
     7
 10
3.329244
 20
212.167557
 30
0.0
  0
SEQEND
  5
4602
  8
0
 62
     7
  0
POLYLINE
  5
3DD6
  8
0
 62
     7
 66
     1
 10
0.0
 20
0.0
 30
0.0
  0
VERTEX
  5
4603
  8
0
 62
     7
 10
4.042229
 20
211.953915
 30
0.0
  0
VERTEX
  5
4604
  8
0
 62
     7
 10
3.963805
 20
211.370529
 30
0.0
  0
VERTEX
  5
4605
  8
0
 62
     7
 10
3.728706
 20
210.788414
 30
0.0
  0
VERTEX
  5
4606
  8
0
 62
     7
 10
3.337442
 20
210.208838
 30
0.0
  0
SEQEND
  5
4607
  8
0
 62
     7
  0
POLYLINE
  5
3DD7
  8
0
 62
     7
 66
     1
 10
0.0
 20
0.0
 30
0.0
  0
VERTEX
  5
4608
  8
0
 62
     7
 10
3.153193
 20
210.194025
 30
0.0
  0
VERTEX
  5
4609
  8
0
 62
     7
 10
3.149604
 20
210.193738
 30
0.0
  0
VERTEX
  5
460A
  8
0
 62
     7
 10
3.146011
 20
210.193577
 30
0.0
  0
VERTEX
  5
460B
  8
0
 62
     7
 10
3.142414
 20
210.193523
 30
0.0
  0
SEQEND
  5
460C
  8
0
 62
     7
  0
POLYLINE
  5
3DD8
  8
0
 62
     7
 66
     1
 10
0.0
 20
0.0
 30
0.0
  0
VERTEX
  5
460D
  8
0
 62
     7
 10
3.153207
 20
212.132827
 30
0.0
  0
VERTEX
  5
460E
  8
0
 62
     7
 10
3.085585
 20
212.026136
 30
0.0
  0
VERTEX
  5
460F
  8
0
 62
     7
 10
3.020017
 20
211.898637
 30
0.0
  0
VERTEX
  5
4610
  8
0
 62
     7
 10
2.960296
 20
211.747056
 30
0.0
  0
VERTEX
  5
4611
  8
0
 62
     7
 10
2.911546
 20
211.567951
 30
0.0
  0
VERTEX
  5
4612
  8
0
 62
     7
 10
2.880537
 20
211.357037
 30
0.0
  0
VERTEX
  5
4613
  8
0
 62
     7
 10
2.876749
 20
211.110296
 30
0.0
  0
VERTEX
  5
4614
  8
0
 62
     7
 10
2.912392
 20
210.828965
 30
0.0
  0
VERTEX
  5
4615
  8
0
 62
     7
 10
3.000373
 20
210.519798
 30
0.0
  0
VERTEX
  5
4616
  8
0
 62
     7
 10
3.153193
 20
210.194025
 30
0.0
  0
SEQEND
  5
4617
  8
0
 62
     7
  0
POLYLINE
  5
3DD9
  8
0
 62
     7
 66
     1
 10
0.0
 20
0.0
 30
0.0
  0
VERTEX
  5
4618
  8
0
 62
     7
 10
3.329244
 20
212.167557
 30
0.0
  0
VERTEX
  5
4619
  8
0
 62
     7
 10
3.273378
 20
212.074783
 30
0.0
  0
VERTEX
  5
461A
  8
0
 62
     7
 10
3.218451
 20
211.965063
 30
0.0
  0
VERTEX
  5
461B
  8
0
 62
     7
 10
3.166873
 20
211.835779
 30
0.0
  0
VERTEX
  5
461C
  8
0
 62
     7
 10
3.121884
 20
211.68419
 30
0.0
  0
VERTEX
  5
461D
  8
0
 62
     7
 10
3.087703
 20
211.507241
 30
0.0
  0
VERTEX
  5
461E
  8
0
 62
     7
 10
3.069924
 20
211.301372
 30
0.0
  0
VERTEX
  5
461F
  8
0
 62
     7
 10
3.076138
 20
211.064151
 30
0.0
  0
VERTEX
  5
4620
  8
0
 62
     7
 10
3.115377
 20
210.79809
 30
0.0
  0
VERTEX
  5
4621
  8
0
 62
     7
 10
3.196774
 20
210.509447
 30
0.0
  0
VERTEX
  5
4622
  8
0
 62
     7
 10
3.329239
 20
210.207451
 30
0.0
  0
SEQEND
  5
4623
  8
0
 62
     7
  0
LINE
  5
3DDA
  8
0
 62
     7
 10
3.555163
 20
212.471722
 30
0.0
 11
3.337442
 21
212.178453
 31
0.0
  0
POLYLINE
  5
3DDB
  8
0
 62
     7
 66
     1
 10
0.0
 20
0.0
 30
0.0
  0
VERTEX
  5
4624
  8
0
 62
     7
 10
3.329244
 20
212.167557
 30
0.0
  0
VERTEX
  5
4625
  8
0
 62
     7
 10
3.332712
 20
212.172279
 30
0.0
  0
VERTEX
  5
4626
  8
0
 62
     7
 10
3.335444
 20
212.175906
 30
0.0
  0
VERTEX
  5
4627
  8
0
 62
     7
 10
3.337442
 20
212.178453
 30
0.0
  0
SEQEND
  5
4628
  8
0
 62
     7
  0
POLYLINE
  5
3DDC
  8
0
 62
     7
 66
     1
 10
0.0
 20
0.0
 30
0.0
  0
VERTEX
  5
4629
  8
0
 62
     7
 10
4.042223
 20
215.489186
 30
0.0
  0
VERTEX
  5
462A
  8
0
 62
     7
 10
4.033464
 20
215.660425
 30
0.0
  0
VERTEX
  5
462B
  8
0
 62
     7
 10
3.828567
 20
216.418011
 30
0.0
  0
VERTEX
  5
462C
  8
0
 62
     7
 10
3.353092
 20
217.310511
 30
0.0
  0
VERTEX
  5
462D
  8
0
 62
     7
 10
2.607991
 20
218.338857
 30
0.0
  0
VERTEX
  5
462E
  8
0
 62
     7
 10
1.61442
 20
219.478362
 30
0.0
  0
SEQEND
  5
462F
  8
0
 62
     7
  0
POLYLINE
  5
3DDD
  8
0
 62
     7
 66
     1
 10
0.0
 20
0.0
 30
0.0
  0
VERTEX
  5
4630
  8
0
 62
     7
 10
3.21191
 20
214.721164
 30
0.0
  0
VERTEX
  5
4631
  8
0
 62
     7
 10
3.631966
 20
215.039005
 30
0.0
  0
VERTEX
  5
4632
  8
0
 62
     7
 10
3.829161
 20
215.482808
 30
0.0
  0
VERTEX
  5
4633
  8
0
 62
     7
 10
3.803741
 20
216.051474
 30
0.0
  0
VERTEX
  5
4634
  8
0
 62
     7
 10
3.555732
 20
216.743449
 30
0.0
  0
VERTEX
  5
4635
  8
0
 62
     7
 10
3.084806
 20
217.556581
 30
0.0
  0
VERTEX
  5
4636
  8
0
 62
     7
 10
2.390416
 20
218.487962
 30
0.0
  0
SEQEND
  5
4637
  8
0
 62
     7
  0
LINE
  5
3DDE
  8
0
 62
     7
 10
2.390416
 20
218.487962
 30
0.0
 11
1.471724
 21
219.534027
 31
0.0
  0
LINE
  5
3DDF
  8
0
 62
     7
 10
-1.057771
 20
218.062415
 30
0.0
 11
-1.057852
 21
218.068203
 31
0.0
  0
LINE
  5
3DE0
  8
0
 62
     7
 10
1.614487
 20
219.47829
 30
0.0
 11
1.614768
 21
219.477989
 31
0.0
  0
POLYLINE
  5
3DE1
  8
0
 62
     7
 66
     1
 10
0.0
 20
0.0
 30
0.0
  0
VERTEX
  5
4638
  8
0
 62
     7
 10
1.54543
 20
219.52354
 30
0.0
  0
VERTEX
  5
4639
  8
0
 62
     7
 10
1.607921
 20
219.484955
 30
0.0
  0
VERTEX
  5
463A
  8
0
 62
     7
 10
1.614487
 20
219.47829
 30
0.0
  0
SEQEND
  5
463B
  8
0
 62
     7
  0
POLYLINE
  5
3DE2
  8
0
 62
     7
 66
     1
 10
0.0
 20
0.0
 30
0.0
  0
VERTEX
  5
463C
  8
0
 62
     7
 10
1.540306
 20
219.528412
 30
0.0
  0
VERTEX
  5
463D
  8
0
 62
     7
 10
1.598683
 20
219.493467
 30
0.0
  0
VERTEX
  5
463E
  8
0
 62
     7
 10
1.614768
 20
219.477989
 30
0.0
  0
SEQEND
  5
463F
  8
0
 62
     7
  0
LINE
  5
3DE3
  8
0
 62
     7
 10
1.472519
 20
219.541791
 30
0.0
 11
1.540306
 21
219.528412
 31
0.0
  0
LINE
  5
3DE4
  8
0
 62
     7
 10
1.471758
 20
219.534026
 30
0.0
 11
1.54543
 21
219.52354
 31
0.0
  0
LINE
  5
3DE5
  8
0
 62
     7
 10
1.471758
 20
219.534026
 30
0.0
 11
1.472519
 21
219.541791
 31
0.0
  0
POLYLINE
  5
3DE6
  8
0
 62
     7
 66
     1
 10
0.0
 20
0.0
 30
0.0
  0
VERTEX
  5
4640
  8
0
 62
     7
 10
3.211922
 20
214.721163
 30
0.0
  0
VERTEX
  5
4641
  8
0
 62
     7
 10
3.286799
 20
214.704309
 30
0.0
  0
VERTEX
  5
4642
  8
0
 62
     7
 10
3.350564
 20
214.659584
 30
0.0
  0
VERTEX
  5
4643
  8
0
 62
     7
 10
3.392662
 20
214.593822
 30
0.0
  0
VERTEX
  5
4644
  8
0
 62
     7
 10
3.406666
 20
214.517027
 30
0.0
  0
SEQEND
  5
4645
  8
0
 62
     7
  0
POLYLINE
  5
3DE7
  8
0
 62
     7
 66
     1
 10
0.0
 20
0.0
 30
0.0
  0
VERTEX
  5
4646
  8
0
 62
     7
 10
3.211922
 20
214.553064
 30
0.0
  0
VERTEX
  5
4647
  8
0
 62
     7
 10
3.280537
 20
214.547899
 30
0.0
  0
VERTEX
  5
4648
  8
0
 62
     7
 10
3.340892
 20
214.539614
 30
0.0
  0
VERTEX
  5
4649
  8
0
 62
     7
 10
3.385296
 20
214.5286
 30
0.0
  0
VERTEX
  5
464A
  8
0
 62
     7
 10
3.406666
 20
214.517027
 30
0.0
  0
SEQEND
  5
464B
  8
0
 62
     7
  0
POLYLINE
  5
3DE8
  8
0
 62
     7
 66
     1
 10
0.0
 20
0.0
 30
0.0
  0
VERTEX
  5
464C
  8
0
 62
     7
 10
3.211922
 20
214.553064
 30
0.0
  0
VERTEX
  5
464D
  8
0
 62
     7
 10
3.212646
 20
214.616533
 30
0.0
  0
VERTEX
  5
464E
  8
0
 62
     7
 10
3.212897
 20
214.669348
 30
0.0
  0
VERTEX
  5
464F
  8
0
 62
     7
 10
3.212646
 20
214.705581
 30
0.0
  0
VERTEX
  5
4650
  8
0
 62
     7
 10
3.211922
 20
214.721163
 30
0.0
  0
SEQEND
  5
4651
  8
0
 62
     7
  0
LINE
  5
3DE9
  8
0
 62
     7
 10
4.042229
 20
215.504185
 30
0.0
 11
4.042229
 21
213.923531
 31
0.0
  0
POLYLINE
  5
3DEA
  8
0
 62
     7
 66
     1
 10
0.0
 20
0.0
 30
0.0
  0
VERTEX
  5
4652
  8
0
 62
     7
 10
3.406665
 20
214.517007
 30
0.0
  0
VERTEX
  5
4653
  8
0
 62
     7
 10
3.827902
 20
214.837322
 30
0.0
  0
VERTEX
  5
4654
  8
0
 62
     7
 10
4.025629
 20
215.28374
 30
0.0
  0
VERTEX
  5
4655
  8
0
 62
     7
 10
4.042229
 20
215.489205
 30
0.0
  0
SEQEND
  5
4656
  8
0
 62
     7
  0
ENDSEC
  0
EOF
