  0
SECTION
  2
HEADER
  9
$ACADVER
  1
AC1009
  9
$INSBASE
 10
402.590624
 20
-1.041018
 30
0.0
  9
$EXTMIN
 10
188.468872
 20
-221.212194
 30
0.0
  9
$EXTMAX
 10
306.604225
 20
-93.712194
 30
0.0
  9
$LIMMIN
 10
-407.970438
 20
-367.832444
  9
$LIMMAX
 10
429.804077
 20
234.370848
  9
$ORTHOMODE
 70
     1
  9
$REGENMODE
 70
     1
  9
$FILLMODE
 70
     1
  9
$QTEXTMODE
 70
     0
  9
$MIRRTEXT
 70
     1
  9
$DRAGMODE
 70
     2
  9
$LTSCALE
 40
10.0
  9
$OSMODE
 70
    32
  9
$ATTMODE
 70
     1
  9
$TEXTSIZE
 40
6.0
  9
$TRACEWID
 40
1.0
  9
$TEXTSTYLE
  7
ROMANS
  9
$CLAYER
  8
ALPHA
  9
$CELTYPE
  6
BYLAYER
  9
$CECOLOR
 62
   256
  9
$DIMSCALE
 40
1.0
  9
$DIMASZ
 40
5.0
  9
$DIMEXO
 40
2.0
  9
$DIMDLI
 40
0.38
  9
$DIMRND
 40
0.0
  9
$DIMDLE
 40
0.0
  9
$DIMEXE
 40
2.5
  9
$DIMTP
 40
0.0
  9
$DIMTM
 40
0.0
  9
$DIMTXT
 40
2.5
  9
$DIMCEN
 40
0.0
  9
$DIMTSZ
 40
0.0
  9
$DIMTOL
 70
     0
  9
$DIMLIM
 70
     0
  9
$DIMTIH
 70
     1
  9
$DIMTOH
 70
     1
  9
$DIMSE1
 70
     0
  9
$DIMSE2
 70
     0
  9
$DIMTAD
 70
     1
  9
$DIMZIN
 70
    12
  9
$DIMBLK
  1
OPEN30
  9
$DIMASO
 70
     1
  9
$DIMSHO
 70
     1
  9
$DIMPOST
  1

  9
$DIMAPOST
  1

  9
$DIMALT
 70
     0
  9
$DIMALTD
 70
     2
  9
$DIMALTF
 40
25.4
  9
$DIMLFAC
 40
1.0
  9
$DIMTOFL
 70
     0
  9
$DIMTVP
 40
0.0
  9
$DIMTIX
 70
     0
  9
$DIMSOXD
 70
     0
  9
$DIMSAH
 70
     0
  9
$DIMBLK1
  1

  9
$DIMBLK2
  1

  9
$DIMSTYLE
  2
SC_DEFAUT
  9
$DIMCLRD
 70
     0
  9
$DIMCLRE
 70
     0
  9
$DIMCLRT
 70
     0
  9
$DIMTFAC
 40
1.0
  9
$DIMGAP
 40
2.0
  9
$LUNITS
 70
     2
  9
$LUPREC
 70
     1
  9
$SKETCHINC
 40
0.1
  9
$FILLETRAD
 40
0.0
  9
$AUNITS
 70
     0
  9
$AUPREC
 70
     0
  9
$MENU
  1
acad
  9
$ELEVATION
 40
0.0
  9
$PELEVATION
 40
0.0
  9
$THICKNESS
 40
0.0
  9
$LIMCHECK
 70
     0
  9
$BLIPMODE
 70
     0
  9
$CHAMFERA
 40
0.0
  9
$CHAMFERB
 40
0.0
  9
$SKPOLY
 70
     0
  9
$TDCREATE
 40
2450373.687919
  9
$TDUPDATE
 40
2453028.640128
  9
$TDINDWG
 40
1.08053
  9
$TDUSRTIMER
 40
1.08053
  9
$USRTIMER
 70
     1
  9
$ANGBASE
 50
0.0
  9
$ANGDIR
 70
     0
  9
$PDMODE
 70
    32
  9
$PDSIZE
 40
0.0
  9
$PLINEWID
 40
0.0
  9
$COORDS
 70
     1
  9
$SPLFRAME
 70
     0
  9
$SPLINETYPE
 70
     6
  9
$SPLINESEGS
 70
     8
  9
$ATTDIA
 70
     0
  9
$ATTREQ
 70
     1
  9
$HANDLING
 70
     1
  9
$HANDSEED
  5
AF02
  9
$SURFTAB1
 70
     6
  9
$SURFTAB2
 70
     6
  9
$SURFTYPE
 70
     6
  9
$SURFU
 70
     6
  9
$SURFV
 70
     6
  9
$UCSNAME
  2

  9
$UCSORG
 10
0.0
 20
0.0
 30
0.0
  9
$UCSXDIR
 10
1.0
 20
0.0
 30
0.0
  9
$UCSYDIR
 10
0.0
 20
1.0
 30
0.0
  9
$PUCSNAME
  2

  9
$PUCSORG
 10
0.0
 20
0.0
 30
0.0
  9
$PUCSXDIR
 10
1.0
 20
0.0
 30
0.0
  9
$PUCSYDIR
 10
0.0
 20
1.0
 30
0.0
  9
$USERI1
 70
     0
  9
$USERI2
 70
     0
  9
$USERI3
 70
     0
  9
$USERI4
 70
     0
  9
$USERI5
 70
     0
  9
$USERR1
 40
0.0
  9
$USERR2
 40
0.0
  9
$USERR3
 40
0.0
  9
$USERR4
 40
0.0
  9
$USERR5
 40
0.0
  9
$WORLDVIEW
 70
     1
  9
$SHADEDGE
 70
     3
  9
$SHADEDIF
 70
    70
  9
$TILEMODE
 70
     1
  9
$MAXACTVP
 70
    16
  9
$PLIMCHECK
 70
     0
  9
$PEXTMIN
 10
-1.452248
 20
-0.437698
 30
0.0
  9
$PEXTMAX
 10
12.749749
 20
8.310198
 30
0.0
  9
$PLIMMIN
 10
0.0
 20
0.0
  9
$PLIMMAX
 10
12.0
 20
9.0
  9
$UNITMODE
 70
     0
  9
$VISRETAIN
 70
     0
  9
$PLINEGEN
 70
     0
  9
$PSLTSCALE
 70
     0
  0
ENDSEC
  0
SECTION
  2
TABLES
  0
TABLE
  2
VPORT
 70
     2
  0
VPORT
  2
*ACTIVE
 70
     0
 10
0.0
 20
0.0
 11
1.0
 21
1.0
 12
247.538011
 22
-157.471115
 13
0.0
 23
0.0
 14
1.0
 24
1.0
 15
10.0
 25
10.0
 16
0.0
 26
0.0
 36
1.0
 17
0.0
 27
0.0
 37
0.0
 40
128.460503
 41
1.466346
 42
50.0
 43
0.0
 44
0.0
 50
0.0
 51
0.0
 71
     0
 72
   100
 73
     1
 74
     0
 75
     0
 76
     0
 77
     0
 78
     0
  0
ENDTAB
  0
TABLE
  2
LTYPE
 70
     3
  0
LTYPE
  2
CONTINUOUS
 70
     0
  3
Solid line
 72
    65
 73
     0
 40
0.0
  0
LTYPE
  2
AXES2
 70
     0
  3
___ _ ___ _ ___ _ ___ _ ___ _ ___ _ ___ _ ___ _
 72
    65
 73
     4
 40
1.125
 49
0.75
 49
-0.125
 49
0.125
 49
-0.125
  0
LTYPE
  2
CACHE2
 70
     0
  3
Caché (x.5) _ _ _ _ _ _ _ _ _ _ _ _ _ _ _ _ _
 72
    65
 73
     2
 40
0.1875
 49
0.125
 49
-0.0625
  0
ENDTAB
  0
TABLE
  2
LAYER
 70
     6
  0
LAYER
  2
0
 70
     0
 62
   255
  6
CONTINUOUS
  0
LAYER
  2
COTATION1
 70
     0
 62
     2
  6
CONTINUOUS
  0
LAYER
  2
AXE
 70
     0
 62
    80
  6
AXES2
  0
LAYER
  2
DEFPOINTS
 70
     0
 62
     7
  6
CONTINUOUS
  0
LAYER
  2
ALPHA
 70
     0
 62
   254
  6
CONTINUOUS
  0
LAYER
  2
POINTILLE_COURT
 70
     0
 62
    41
  6
CACHE2
  0
ENDTAB
  0
TABLE
  2
STYLE
 70
     2
  0
STYLE
  2
ROMANS
 70
     0
 40
0.0
 41
1.0
 50
0.0
 71
     0
 42
6.0
  3
romans
  4

  0
STYLE
  2
STANDARD
 70
     0
 40
0.0
 41
1.0
 50
0.0
 71
     0
 42
0.2
  3
txt
  4

  0
ENDTAB
  0
TABLE
  2
VIEW
 70
     0
  0
ENDTAB
  0
TABLE
  2
UCS
 70
     0
  0
ENDTAB
  0
TABLE
  2
APPID
 70
     1
  0
APPID
  2
ACAD
 70
     0
  0
ENDTAB
  0
TABLE
  2
DIMSTYLE
 70
     2
  0
DIMSTYLE
  2
SC_DEFAUT
 70
     0
  3

  4

  5
OPEN30
  6

  7

 40
1.0
 41
5.0
 42
2.0
 43
0.38
 44
2.5
 45
0.0
 46
0.0
 47
0.0
 48
0.0
140
2.5
141
0.0
142
0.0
143
25.4
144
1.0
145
0.0
146
1.0
147
2.0
 71
     0
 72
     0
 73
     1
 74
     1
 75
     0
 76
     0
 77
     1
 78
    12
170
     0
171
     2
172
     0
173
     0
174
     0
175
     0
176
     0
177
     0
178
     0
  0
DIMSTYLE
  2
STANDARD
 70
     0
  3

  4

  5

  6

  7

 40
1.0
 41
3.0
 42
0.0625
 43
0.38
 44
0.18
 45
0.0
 46
0.0
 47
0.01
 48
0.01
140
3.5
141
0.09
142
0.0
143
25.4
144
1.0
145
0.0
146
1.0
147
0.09
 71
     1
 72
     0
 73
     0
 74
     0
 75
     0
 76
     0
 77
     1
 78
     8
170
     0
171
     2
172
     0
173
     0
174
     0
175
     0
176
     0
177
     0
178
     0
  0
ENDTAB
  0
ENDSEC
  0
SECTION
  2
BLOCKS
  0
BLOCK
  8
0
  2
$MODEL_SPACE
 70
     0
 10
0.0
 20
0.0
 30
0.0
  3
$MODEL_SPACE
  1

  0
ENDBLK
  5
AEA9
  8
0
  0
BLOCK
 67
     1
  8
0
  2
$PAPER_SPACE
 70
     0
 10
0.0
 20
0.0
 30
0.0
  3
$PAPER_SPACE
  1

  0
ENDBLK
  5
AEA7
 67
     1
  8
0
  0
BLOCK
  8
0
  2
COTE
 70
     0
 10
0.0
 20
0.0
 30
0.0
  3
COTE
  1

  0
ENDBLK
  5
F
  8
0
  0
BLOCK
  8
0
  2
FOND
 70
     0
 10
0.0
 20
0.0
 30
0.0
  3
FOND
  1

  0
ENDBLK
  5
75
  8
0
  0
BLOCK
  8
0
  2
_OPEN30
 70
     0
 10
0.0
 20
0.0
 30
0.0
  3
_OPEN30
  1

  0
LINE
  5
4B05
  8
COTATION1
 62
     0
 10
-1.0
 20
0.267949
 30
0.0
 11
0.0
 21
0.0
 31
0.0
1001
ACAD
1000
RTLwPs
1070
   158
  0
LINE
  5
4B06
  8
COTATION1
 62
     0
 10
0.0
 20
0.0
 30
0.0
 11
-1.0
 21
-0.267949
 31
0.0
1001
ACAD
1000
RTLwPs
1070
   158
  0
LINE
  5
4B07
  8
COTATION1
 62
     0
 10
0.0
 20
0.0
 30
0.0
 11
-1.0
 21
0.0
 31
0.0
1001
ACAD
1000
RTLwPs
1070
   158
  0
ENDBLK
  5
4B09
  8
0
  0
BLOCK
  8
0
  2
*D3
 70
     1
 10
0.0
 20
0.0
 30
0.0
  3
*D3
  1

  0
LINE
  5
A110
  8
COTATION1
 62
     0
 10
219.104225
 20
-133.416312
 30
0.0
 11
219.104225
 21
-105.712194
 31
0.0
1001
ACAD
1000
RTLwPs
1070
   158
  0
LINE
  5
A111
  8
COTATION1
 62
     0
 10
249.104225
 20
-133.416312
 30
0.0
 11
249.104225
 21
-105.712194
 31
0.0
1001
ACAD
1000
RTLwPs
1070
   158
  0
LINE
  5
A112
  8
COTATION1
 62
     0
 10
224.104225
 20
-108.212194
 30
0.0
 11
244.104225
 21
-108.212194
 31
0.0
1001
ACAD
1000
RTLwPs
1070
   158
  0
INSERT
  5
A113
  8
COTATION1
 62
     0
  2
_OPEN30
 10
219.104225
 20
-108.212194
 30
0.0
 41
5.0
 42
5.0
 43
5.0
 50
180.0
1001
ACAD
1000
RTLwPs
1070
   158
  0
INSERT
  5
A114
  8
COTATION1
 62
     0
  2
_OPEN30
 10
249.104225
 20
-108.212194
 30
0.0
 41
5.0
 42
5.0
 43
5.0
1001
ACAD
1000
RTLwPs
1070
   158
  0
TEXT
  5
A115
  8
COTATION1
 62
     0
 10
231.723273
 20
-106.212194
 30
0.0
 40
2.5
  1
30
1001
ACAD
1000
MTEXTBEGIN
1070
    73
1070
     1
1070
    44
1040
1.0
1070
    74
1070
     0
1000
MTEXTEND
  0
POINT
  5
A116
  8
DEFPOINTS
 62
     0
 10
219.104225
 20
-135.416312
 30
0.0
  0
POINT
  5
A117
  8
DEFPOINTS
 62
     0
 10
249.104225
 20
-135.416312
 30
0.0
  0
POINT
  5
A118
  8
DEFPOINTS
 62
     0
 10
249.104225
 20
-108.212194
 30
0.0
  0
ENDBLK
  5
A0E9
  8
0
  0
BLOCK
  8
0
  2
*D4
 70
     1
 10
0.0
 20
0.0
 30
0.0
  3
*D4
  1

  0
LINE
  5
A119
  8
COTATION1
 62
     0
 10
224.104225
 20
-134.137194
 30
0.0
 11
224.104225
 21
-115.712194
 31
0.0
1001
ACAD
1000
RTLwPs
1070
   158
  0
LINE
  5
A11A
  8
COTATION1
 62
     0
 10
244.104225
 20
-134.137194
 30
0.0
 11
244.104225
 21
-115.712194
 31
0.0
1001
ACAD
1000
RTLwPs
1070
   158
  0
LINE
  5
A11B
  8
COTATION1
 62
     0
 10
229.104225
 20
-118.212194
 30
0.0
 11
239.104225
 21
-118.212194
 31
0.0
1001
ACAD
1000
RTLwPs
1070
   158
  0
INSERT
  5
A11C
  8
COTATION1
 62
     0
  2
_OPEN30
 10
224.104225
 20
-118.212194
 30
0.0
 41
5.0
 42
5.0
 43
5.0
 50
180.0
1001
ACAD
1000
RTLwPs
1070
   158
  0
INSERT
  5
A11D
  8
COTATION1
 62
     0
  2
_OPEN30
 10
244.104225
 20
-118.212194
 30
0.0
 41
5.0
 42
5.0
 43
5.0
1001
ACAD
1000
RTLwPs
1070
   158
  0
TEXT
  5
A11E
  8
COTATION1
 62
     0
 10
231.723273
 20
-116.212194
 30
0.0
 40
2.5
  1
20
1001
ACAD
1000
MTEXTBEGIN
1070
    73
1070
     1
1070
    44
1040
1.0
1070
    74
1070
     0
1000
MTEXTEND
  0
POINT
  5
A11F
  8
DEFPOINTS
 62
     0
 10
224.104225
 20
-136.137194
 30
0.0
  0
POINT
  5
A120
  8
DEFPOINTS
 62
     0
 10
244.104225
 20
-136.137194
 30
0.0
  0
POINT
  5
A121
  8
DEFPOINTS
 62
     0
 10
244.104225
 20
-118.212194
 30
0.0
  0
ENDBLK
  5
A0F5
  8
0
  0
BLOCK
  8
0
  2
*D5
 70
     1
 10
0.0
 20
0.0
 30
0.0
  3
*D5
  1

  0
LINE
  5
A1FA
  8
COTATION1
 62
     0
 10
244.104225
 20
-133.212194
 30
0.0
 11
296.604225
 21
-133.212194
 31
0.0
1001
ACAD
1000
RTLwPs
1070
   158
  0
LINE
  5
A1FB
  8
COTATION1
 62
     0
 10
257.532142
 20
-183.212141
 30
0.0
 11
296.604225
 21
-183.212141
 31
0.0
1001
ACAD
1000
RTLwPs
1070
   158
  0
LINE
  5
A1FC
  8
COTATION1
 62
     0
 10
294.104225
 20
-138.212194
 30
0.0
 11
294.104225
 21
-154.962168
 31
0.0
1001
ACAD
1000
RTLwPs
1070
   158
  0
LINE
  5
A1FD
  8
COTATION1
 62
     0
 10
294.104225
 20
-178.212141
 30
0.0
 11
294.104225
 21
-161.462168
 31
0.0
1001
ACAD
1000
RTLwPs
1070
   158
  0
INSERT
  5
A1FE
  8
COTATION1
 62
     0
  2
_OPEN30
 10
294.104225
 20
-133.212194
 30
0.0
 41
5.0
 42
5.0
 43
5.0
 50
90.0
1001
ACAD
1000
RTLwPs
1070
   158
  0
INSERT
  5
A1FF
  8
COTATION1
 62
     0
  2
_OPEN30
 10
294.104225
 20
-183.212141
 30
0.0
 41
5.0
 42
5.0
 43
5.0
 50
270.0
1001
ACAD
1000
RTLwPs
1070
   158
  0
TEXT
  5
A200
  8
COTATION1
 62
     0
 10
291.723273
 20
-159.462168
 30
0.0
 40
2.5
  1
50
1001
ACAD
1000
MTEXTBEGIN
1070
    73
1070
     1
1070
    44
1040
1.0
1070
    74
1070
     0
1000
MTEXTEND
  0
POINT
  5
A201
  8
DEFPOINTS
 62
     0
 10
242.104225
 20
-133.212194
 30
0.0
  0
POINT
  5
A202
  8
DEFPOINTS
 62
     0
 10
255.532142
 20
-183.212141
 30
0.0
  0
POINT
  5
A203
  8
DEFPOINTS
 62
     0
 10
294.104225
 20
-183.212141
 30
0.0
  0
ENDBLK
  5
A102
  8
0
  0
BLOCK
  8
0
  2
*D6
 70
     1
 10
0.0
 20
0.0
 30
0.0
  3
*D6
  1

  0
LINE
  5
A1F0
  8
COTATION1
 62
     0
 10
253.179225
 20
-143.212194
 30
0.0
 11
286.604225
 21
-143.212194
 31
0.0
1001
ACAD
1000
RTLwPs
1070
   158
  0
LINE
  5
A1F1
  8
COTATION1
 62
     0
 10
257.532142
 20
-183.212141
 30
0.0
 11
286.604225
 21
-183.212141
 31
0.0
1001
ACAD
1000
RTLwPs
1070
   158
  0
LINE
  5
A1F2
  8
COTATION1
 62
     0
 10
284.104225
 20
-148.212194
 30
0.0
 11
284.104225
 21
-159.962168
 31
0.0
1001
ACAD
1000
RTLwPs
1070
   158
  0
LINE
  5
A1F3
  8
COTATION1
 62
     0
 10
284.104225
 20
-178.212141
 30
0.0
 11
284.104225
 21
-166.462168
 31
0.0
1001
ACAD
1000
RTLwPs
1070
   158
  0
INSERT
  5
A1F4
  8
COTATION1
 62
     0
  2
_OPEN30
 10
284.104225
 20
-143.212194
 30
0.0
 41
5.0
 42
5.0
 43
5.0
 50
90.0
1001
ACAD
1000
RTLwPs
1070
   158
  0
INSERT
  5
A1F5
  8
COTATION1
 62
     0
  2
_OPEN30
 10
284.104225
 20
-183.212141
 30
0.0
 41
5.0
 42
5.0
 43
5.0
 50
270.0
1001
ACAD
1000
RTLwPs
1070
   158
  0
TEXT
  5
A1F6
  8
COTATION1
 62
     0
 10
281.723273
 20
-164.462168
 30
0.0
 40
2.5
  1
40
1001
ACAD
1000
MTEXTBEGIN
1070
    73
1070
     1
1070
    44
1040
1.0
1070
    74
1070
     0
1000
MTEXTEND
  0
POINT
  5
A1F7
  8
DEFPOINTS
 62
     0
 10
251.179225
 20
-143.212194
 30
0.0
  0
POINT
  5
A1F8
  8
DEFPOINTS
 62
     0
 10
255.532142
 20
-183.212141
 30
0.0
  0
POINT
  5
A1F9
  8
DEFPOINTS
 62
     0
 10
284.104225
 20
-183.212141
 30
0.0
  0
ENDBLK
  5
A10F
  8
0
  0
BLOCK
  8
0
  2
*D7
 70
     1
 10
0.0
 20
0.0
 30
0.0
  3
*D7
  1

  0
LINE
  5
A8EA
  8
COTATION1
 62
     0
 10
219.104225
 20
-133.416312
 30
0.0
 11
219.104225
 21
-95.712194
 31
0.0
1001
ACAD
1000
RTLwPs
1070
   158
  0
LINE
  5
A8EB
  8
COTATION1
 62
     0
 10
271.004278
 20
-168.662176
 30
0.0
 11
271.004278
 21
-95.712194
 31
0.0
1001
ACAD
1000
RTLwPs
1070
   158
  0
LINE
  5
A8EC
  8
COTATION1
 62
     0
 10
224.104225
 20
-98.212194
 30
0.0
 11
266.004278
 21
-98.212194
 31
0.0
1001
ACAD
1000
RTLwPs
1070
   158
  0
INSERT
  5
A8ED
  8
COTATION1
 62
     0
  2
_OPEN30
 10
219.104225
 20
-98.212194
 30
0.0
 41
5.0
 42
5.0
 43
5.0
 50
180.0
1001
ACAD
1000
RTLwPs
1070
   158
  0
INSERT
  5
A8EE
  8
COTATION1
 62
     0
  2
_OPEN30
 10
271.004278
 20
-98.212194
 30
0.0
 41
5.0
 42
5.0
 43
5.0
1001
ACAD
1000
RTLwPs
1070
   158
  0
TEXT
  5
A8EF
  8
COTATION1
 62
     0
 10
240.947109
 20
-96.212194
 30
0.0
 40
2.5
  1
51.9
1001
ACAD
1000
MTEXTBEGIN
1070
    73
1070
     1
1070
    44
1040
1.0
1070
    74
1070
     0
1000
MTEXTEND
  0
POINT
  5
A8F0
  8
DEFPOINTS
 62
     0
 10
219.104225
 20
-135.416312
 30
0.0
  0
POINT
  5
A8F1
  8
DEFPOINTS
 62
     0
 10
271.004278
 20
-170.662176
 30
0.0
  0
POINT
  5
A8F2
  8
DEFPOINTS
 62
     0
 10
271.004278
 20
-98.212194
 30
0.0
  0
ENDBLK
  5
A8D7
  8
0
  0
BLOCK
  8
0
  2
*D8
 70
     1
 10
0.0
 20
0.0
 30
0.0
  3
*D8
  1

  0
LINE
  5
AE18
  8
COTATION1
 62
     0
 10
188.468872
 20
-123.369443
 30
0.0
 11
202.373634
 21
-123.369443
 31
0.0
  0
LINE
  5
AE19
  8
COTATION1
 62
     0
 10
202.373634
 20
-123.369443
 30
0.0
 11
218.84273
 21
-138.40779
 31
0.0
  0
TEXT
  5
AE1A
  8
COTATION1
 62
     0
 10
188.111729
 20
-121.369443
 30
0.0
 40
2.5
  1
2x%%c4.3
  0
INSERT
  5
AE1B
  8
COTATION1
 62
     0
  2
_OPEN30
 10
222.535007
 20
-141.779302
 30
0.0
 41
5.0
 42
5.0
 43
5.0
 50
317.600007
  0
POINT
  5
AE1C
  8
DEFPOINTS
 62
     0
 10
222.535007
 20
-141.779302
 30
0.0
  0
POINT
  5
AE1D
  8
DEFPOINTS
 62
     0
 10
225.673443
 20
-144.645086
 30
0.0
  0
ENDBLK
  5
A8FC
  8
0
  0
BLOCK
  8
0
  2
*D9
 70
     1
 10
0.0
 20
0.0
 30
0.0
  3
*D9
  1

  0
LINE
  5
A925
  8
COTATION1
 62
     0
 10
244.104225
 20
-133.212194
 30
0.0
 11
306.604225
 21
-133.212194
 31
0.0
1001
ACAD
1000
RTLwPs
1070
   158
  0
LINE
  5
A926
  8
COTATION1
 62
     0
 10
249.054225
 20
-205.212194
 30
0.0
 11
306.604225
 21
-205.212194
 31
0.0
1001
ACAD
1000
RTLwPs
1070
   158
  0
LINE
  5
A927
  8
COTATION1
 62
     0
 10
304.104225
 20
-138.212194
 30
0.0
 11
304.104225
 21
-165.962194
 31
0.0
1001
ACAD
1000
RTLwPs
1070
   158
  0
LINE
  5
A928
  8
COTATION1
 62
     0
 10
304.104225
 20
-200.212194
 30
0.0
 11
304.104225
 21
-172.462194
 31
0.0
1001
ACAD
1000
RTLwPs
1070
   158
  0
INSERT
  5
A929
  8
COTATION1
 62
     0
  2
_OPEN30
 10
304.104225
 20
-133.212194
 30
0.0
 41
5.0
 42
5.0
 43
5.0
 50
90.0
1001
ACAD
1000
RTLwPs
1070
   158
  0
INSERT
  5
A92A
  8
COTATION1
 62
     0
  2
_OPEN30
 10
304.104225
 20
-205.212194
 30
0.0
 41
5.0
 42
5.0
 43
5.0
 50
270.0
1001
ACAD
1000
RTLwPs
1070
   158
  0
TEXT
  5
A92B
  8
COTATION1
 62
     0
 10
301.723273
 20
-170.462194
 30
0.0
 40
2.5
  1
72
1001
ACAD
1000
MTEXTBEGIN
1070
    73
1070
     1
1070
    44
1040
1.0
1070
    74
1070
     0
1000
MTEXTEND
  0
POINT
  5
A92C
  8
DEFPOINTS
 62
     0
 10
242.104225
 20
-133.212194
 30
0.0
  0
POINT
  5
A92D
  8
DEFPOINTS
 62
     0
 10
247.054225
 20
-205.212194
 30
0.0
  0
POINT
  5
A92E
  8
DEFPOINTS
 62
     0
 10
304.104225
 20
-205.212194
 30
0.0
  0
ENDBLK
  5
A910
  8
0
  0
ENDSEC
  0
SECTION
  2
ENTITIES
  0
INSERT
  5
A
  8
0
  2
COTE
 10
0.0
 20
0.0
 30
0.0
  0
INSERT
  5
17
  8
0
  2
COTE
 10
284.010391
 20
6.373258
 30
0.0
  0
INSERT
  5
72
  8
0
  2
FOND
 10
0.0
 20
0.0
 30
0.0
  0
LINE
  5
9EDD
  8
POINTILLE_COURT
 10
264.232189
 20
-181.312141
 30
0.0
 11
263.876367
 21
-170.612141
 31
0.0
  0
LINE
  5
9EDE
  8
POINTILLE_COURT
 10
264.11051
 20
-170.621798
 30
0.0
 11
264.105726
 21
-170.612141
 31
0.0
  0
LINE
  5
9EDF
  8
POINTILLE_COURT
 10
259.004278
 20
-170.612141
 30
0.0
 11
270.004278
 21
-170.612141
 31
0.0
  0
LINE
  5
9EE0
  8
POINTILLE_COURT
 10
263.900754
 20
-181.312141
 30
0.0
 11
264.897181
 21
-181.312141
 31
0.0
  0
LINE
  5
9F1E
  8
ALPHA
 10
249.104225
 20
-135.416312
 30
0.0
 11
249.104225
 21
-171.972194
 31
0.0
  0
LINE
  5
9F1F
  8
ALPHA
 10
248.404225
 20
-144.018807
 30
0.0
 11
248.404225
 21
-172.672194
 31
0.0
  0
LINE
  5
9F20
  8
ALPHA
 10
219.804225
 20
-181.712194
 30
0.0
 11
219.804225
 21
-144.018807
 31
0.0
  0
LINE
  5
9F21
  8
ALPHA
 10
219.104225
 20
-181.712194
 30
0.0
 11
219.104225
 21
-135.416312
 31
0.0
  0
LINE
  5
9F22
  8
ALPHA
 10
219.104225
 20
-181.712194
 30
0.0
 11
239.664225
 21
-181.712194
 31
0.0
  0
LINE
  5
9F23
  8
ALPHA
 10
219.204225
 20
-182.512194
 30
0.0
 11
238.864225
 21
-182.512194
 31
0.0
  0
LINE
  5
9F24
  8
ALPHA
 10
219.904225
 20
-183.212194
 30
0.0
 11
238.164225
 21
-183.212194
 31
0.0
  0
CIRCLE
  5
9F50
  8
ALPHA
 10
222.604225
 20
-179.412194
 30
0.0
 40
0.949986
  0
CIRCLE
  5
9F51
  8
ALPHA
 10
222.604225
 20
-179.412194
 30
0.0
 40
0.75
  0
CIRCLE
  5
9F52
  8
ALPHA
 10
222.604225
 20
-179.412194
 30
0.0
 40
0.7
  0
CIRCLE
  5
9F53
  8
ALPHA
 10
222.604225
 20
-179.412194
 30
0.0
 40
0.57
  0
ARC
  5
9F54
  8
ALPHA
 10
219.904225
 20
-182.512194
 30
0.0
 40
0.7
 50
180.0
 51
270.0
  0
LINE
  5
9F55
  8
ALPHA
 10
219.904225
 20
-181.712194
 30
0.0
 11
219.904225
 21
-183.212194
 31
0.0
  0
LINE
  5
9F56
  8
ALPHA
 10
219.204225
 20
-181.712194
 30
0.0
 11
219.204225
 21
-182.512194
 31
0.0
  0
CIRCLE
  5
9F57
  8
ALPHA
 10
222.604225
 20
-179.412194
 30
0.0
 40
0.44
  0
LINE
  5
9F58
  8
ALPHA
 10
248.304278
 20
-173.425694
 30
0.0
 11
239.217832
 21
-182.512141
 31
0.0
  0
LINE
  5
9F59
  8
ALPHA
 10
238.164225
 20
-183.212194
 30
0.0
 11
249.004225
 21
-172.372194
 31
0.0
  0
LINE
  5
9F5A
  8
ALPHA
 10
239.364225
 20
-181.712194
 30
0.0
 11
249.104225
 21
-171.972194
 31
0.0
  0
LINE
  5
9F5B
  8
ALPHA
 10
239.217832
 20
-182.512141
 30
0.0
 11
249.004278
 21
-182.512141
 31
0.0
  0
LINE
  5
9F5C
  8
POINTILLE_COURT
 10
238.767832
 20
-183.212141
 30
0.0
 11
255.532142
 21
-183.212141
 31
0.0
  0
CIRCLE
  5
9F5D
  8
ALPHA
 10
235.604225
 20
-179.412194
 30
0.0
 40
0.949986
  0
CIRCLE
  5
9F5E
  8
ALPHA
 10
235.604225
 20
-179.412194
 30
0.0
 40
0.75
  0
CIRCLE
  5
9F5F
  8
ALPHA
 10
235.604225
 20
-179.412194
 30
0.0
 40
0.7
  0
CIRCLE
  5
9F60
  8
ALPHA
 10
235.604225
 20
-179.412194
 30
0.0
 40
0.44
  0
CIRCLE
  5
9F61
  8
ALPHA
 10
235.604225
 20
-179.412194
 30
0.0
 40
0.57
  0
LINE
  5
9F62
  8
ALPHA
 10
239.217832
 20
-182.512141
 30
0.0
 11
238.767832
 21
-183.212141
 31
0.0
  0
ARC
  5
9F63
  8
ALPHA
 10
238.767851
 20
-182.962121
 30
0.0
 40
0.25
 50
135.006422
 51
269.995459
  0
LINE
  5
9F64
  8
ALPHA
 10
239.217832
 20
-182.512141
 30
0.0
 11
239.041055
 21
-182.335364
 31
0.0
  0
LINE
  5
9F65
  8
POINTILLE_COURT
 10
263.232189
 20
-181.312141
 30
0.0
 11
262.876367
 21
-170.612141
 31
0.0
  0
LINE
  5
9F66
  8
POINTILLE_COURT
 10
259.004278
 20
-174.268075
 30
0.0
 11
256.426569
 21
-183.000995
 31
0.0
  0
POLYLINE
  5
9F67
  8
POINTILLE_COURT
 66
     1
 10
0.0
 20
0.0
 30
0.0
 70
   128
  0
VERTEX
  5
AEAF
  8
POINTILLE_COURT
 10
259.004278
 20
-171.184834
 30
0.0
  0
VERTEX
  5
AEB0
  8
POINTILLE_COURT
 10
257.110898
 20
-177.152655
 30
0.0
  0
VERTEX
  5
AEB1
  8
POINTILLE_COURT
 10
255.532142
 20
-183.212141
 30
0.0
  0
SEQEND
  5
AEB2
  8
POINTILLE_COURT
  0
LINE
  5
9F68
  8
POINTILLE_COURT
 10
262.404278
 20
-170.612141
 30
0.0
 11
262.895621
 21
-181.310496
 31
0.0
  0
LINE
  5
9F69
  8
POINTILLE_COURT
 10
263.600946
 20
-181.312141
 30
0.0
 11
263.114686
 21
-170.616858
 31
0.0
  0
LINE
  5
9F6A
  8
POINTILLE_COURT
 10
263.404278
 20
-170.612141
 30
0.0
 11
263.895634
 21
-181.310522
 31
0.0
  0
LINE
  5
9F6B
  8
POINTILLE_COURT
 10
259.004278
 20
-170.562141
 30
0.0
 11
259.004278
 21
-181.712048
 31
0.0
  0
LINE
  5
9F6C
  8
ALPHA
 10
249.004278
 20
-182.512141
 30
0.0
 11
249.004278
 21
-172.975694
 31
0.0
  0
LINE
  5
9F6D
  8
ALPHA
 10
248.304278
 20
-183.212141
 30
0.0
 11
248.304278
 21
-173.425694
 31
0.0
  0
ARC
  5
9F6E
  8
POINTILLE_COURT
 10
255.532145
 20
-181.212131
 30
0.0
 40
1.999999
 50
269.999932
 51
296.56486
  0
ARC
  5
9F6F
  8
ALPHA
 10
248.304278
 20
-182.512141
 30
0.0
 40
0.7
 50
270.0
 51
0.0
  0
LINE
  5
9F70
  8
POINTILLE_COURT
 10
259.004278
 20
-181.312141
 30
0.0
 11
262.897181
 21
-181.312141
 31
0.0
  0
LINE
  5
9F71
  8
POINTILLE_COURT
 10
259.004278
 20
-181.712141
 30
0.0
 11
256.426569
 21
-183.000995
 31
0.0
  0
LINE
  5
9F72
  8
POINTILLE_COURT
 10
263.897181
 20
-181.306823
 30
0.0
 11
263.90073
 21
-181.312141
 31
0.0
  0
LINE
  5
9F73
  8
POINTILLE_COURT
 10
262.897181
 20
-181.306823
 30
0.0
 11
262.90073
 21
-181.312141
 31
0.0
  0
LINE
  5
9F74
  8
POINTILLE_COURT
 10
262.900756
 20
-181.312141
 30
0.0
 11
263.897181
 21
-181.312141
 31
0.0
  0
LINE
  5
9F75
  8
POINTILLE_COURT
 10
255.341778
 20
-170.562141
 30
0.0
 11
259.004278
 21
-170.562141
 31
0.0
  0
POLYLINE
  5
9F76
  8
POINTILLE_COURT
 66
     1
 10
0.0
 20
0.0
 30
0.0
 70
   128
  0
VERTEX
  5
AEB3
  8
POINTILLE_COURT
 10
255.341778
 20
-170.562141
 30
0.0
  0
VERTEX
  5
AEB4
  8
POINTILLE_COURT
 10
254.292897
 20
-170.677569
 30
0.0
  0
VERTEX
  5
AEB5
  8
POINTILLE_COURT
 10
253.291459
 20
-171.012821
 30
0.0
  0
VERTEX
  5
AEB6
  8
POINTILLE_COURT
 10
252.36799
 20
-171.523596
 30
0.0
  0
VERTEX
  5
AEB7
  8
POINTILLE_COURT
 10
251.533475
 20
-172.170436
 30
0.0
  0
VERTEX
  5
AEB8
  8
POINTILLE_COURT
 10
250.121311
 20
-173.736378
 30
0.0
  0
VERTEX
  5
AEB9
  8
POINTILLE_COURT
 10
249.004278
 20
-175.526433
 30
0.0
  0
SEQEND
  5
AEBA
  8
POINTILLE_COURT
  0
ARC
  5
9F77
  8
POINTILLE_COURT
 10
255.341778
 20
-182.562141
 30
0.0
 40
12.0
 50
90.0
 51
121.878853
  0
LINE
  5
9F78
  8
ALPHA
 10
249.004278
 20
-172.975694
 30
0.0
 11
248.304278
 21
-173.425694
 31
0.0
  0
ARC
  5
9F79
  8
ALPHA
 10
248.754258
 20
-172.975714
 30
0.0
 40
0.25
 50
0.004541
 51
134.993578
  0
LINE
  5
9F7A
  8
ALPHA
 10
249.004225
 20
-172.372194
 30
0.0
 11
249.004225
 21
-172.072194
 31
0.0
  0
LINE
  5
9F7B
  8
ALPHA
 10
248.304278
 20
-173.425694
 30
0.0
 11
248.127502
 21
-173.248918
 31
0.0
  0
LINE
  5
9F7C
  8
POINTILLE_COURT
 10
263.11051
 20
-170.621798
 30
0.0
 11
263.105727
 21
-170.612141
 31
0.0
  0
LINE
  5
9F7D
  8
ALPHA
 10
234.104225
 20
-134.870254
 30
0.0
 11
227.493092
 21
-135.19135
 31
0.0
  0
POLYLINE
  5
9F7E
  8
ALPHA
 66
     1
 10
0.0
 20
0.0
 30
0.0
 70
   128
  0
VERTEX
  5
AEBB
  8
ALPHA
 10
233.606082
 20
-139.089745
 30
0.0
  0
VERTEX
  5
AEBC
  8
ALPHA
 10
232.811151
 20
-139.294288
 30
0.0
  0
VERTEX
  5
AEBD
  8
ALPHA
 10
232.102129
 20
-139.70632
 30
0.0
  0
VERTEX
  5
AEBE
  8
ALPHA
 10
231.537308
 20
-140.302282
 30
0.0
  0
VERTEX
  5
AEBF
  8
ALPHA
 10
231.104225
 20
-141.000905
 30
0.0
  0
SEQEND
  5
AEC0
  8
ALPHA
  0
POLYLINE
  5
9F7F
  8
ALPHA
 66
     1
 10
0.0
 20
0.0
 30
0.0
 70
   128
210
0.0
220
0.0
230
-1.0
  0
VERTEX
  5
AEC1
  8
ALPHA
 10
-238.074733
 20
-141.193764
 30
0.0
  0
VERTEX
  5
AEC2
  8
ALPHA
 10
-237.728278
 20
-142.855105
 30
0.0
  0
VERTEX
  5
AEC3
  8
ALPHA
 10
-236.908065
 20
-144.529857
 30
0.0
  0
VERTEX
  5
AEC4
  8
ALPHA
 10
-236.309105
 20
-145.27976
 30
0.0
  0
VERTEX
  5
AEC5
  8
ALPHA
 10
-235.622704
 20
-145.890623
 30
0.0
  0
VERTEX
  5
AEC6
  8
ALPHA
 10
-234.878008
 20
-146.301687
 30
0.0
  0
VERTEX
  5
AEC7
  8
ALPHA
 10
-234.104166
 20
-146.452194
 30
0.0
  0
VERTEX
  5
AEC8
  8
ALPHA
 10
-233.330326
 20
-146.301643
 30
0.0
  0
VERTEX
  5
AEC9
  8
ALPHA
 10
-232.585637
 20
-145.890545
 30
0.0
  0
VERTEX
  5
AECA
  8
ALPHA
 10
-231.899247
 20
-145.279657
 30
0.0
  0
VERTEX
  5
AECB
  8
ALPHA
 10
-231.300303
 20
-144.529737
 30
0.0
  0
VERTEX
  5
AECC
  8
ALPHA
 10
-230.480132
 20
-142.854976
 30
0.0
  0
VERTEX
  5
AECD
  8
ALPHA
 10
-230.133705
 20
-141.193633
 30
0.0
  0
SEQEND
  5
AECE
  8
ALPHA
  0
ARC
  5
9F80
  8
ALPHA
 10
234.104225
 20
-196.622194
 30
0.0
 40
63.1
 50
76.901583
 51
95.730045
  0
ARC
  5
9F81
  8
ALPHA
 10
234.104225
 20
-196.622194
 30
0.0
 40
63.4
 50
91.961682
 51
103.327962
  0
LINE
  5
9F82
  8
ALPHA
 10
242.104225
 20
-133.212194
 30
0.0
 11
226.104225
 21
-133.212194
 31
0.0
  0
LINE
  5
9F83
  8
ALPHA
 10
227.356176
 20
-135.712194
 30
0.0
 11
243.479225
 21
-135.712194
 31
0.0
  0
LINE
  5
9F84
  8
ALPHA
 10
227.034636
 20
-136.912194
 30
0.0
 11
233.604225
 21
-136.912194
 31
0.0
  0
LINE
  5
9F85
  8
ALPHA
 10
226.820277
 20
-137.712194
 30
0.0
 11
233.604225
 21
-137.712194
 31
0.0
  0
LINE
  5
9F86
  8
ALPHA
 10
230.17971
 20
-137.932194
 30
0.0
 11
233.704225
 21
-137.932194
 31
0.0
  0
LINE
  5
9F87
  8
ALPHA
 10
233.66018
 20
-138.00984
 30
0.0
 11
230.063387
 21
-138.00984
 31
0.0
  0
ARC
  5
9F9A
  8
ALPHA
 10
224.104225
 20
-143.212194
 30
0.0
 40
4.375
 50
190.624332
 51
47.807538
  0
ARC
  5
9F9B
  8
ALPHA
 10
224.104225
 20
-143.212194
 30
0.0
 40
4.975
 50
92.624102
 51
119.709398
  0
ARC
  5
9F9C
  8
ALPHA
 10
234.104225
 20
-196.622194
 30
0.0
 40
62.2
 50
98.685111
 51
101.953211
  0
ARC
  5
9F9D
  8
ALPHA
 10
224.104225
 20
-143.212194
 30
0.0
 40
4.075
 50
128.467
 51
47.807538
  0
ARC
  5
9F9E
  8
ALPHA
 10
224.104225
 20
-143.212194
 30
0.0
 40
4.675
 50
93.822521
 51
119.709398
  0
ARC
  5
9F9F
  8
ALPHA
 10
234.104225
 20
-196.622194
 30
0.0
 40
62.4
 50
98.605056
 51
101.953211
  0
CIRCLE
  5
9FA0
  8
ALPHA
 10
224.104225
 20
-143.212194
 30
0.0
 40
2.125
  0
ARC
  5
9FA1
  8
ALPHA
 10
224.104225
 20
-143.212194
 30
0.0
 40
4.0
 50
99.746525
 51
177.897255
  0
ARC
  5
9FA2
  8
ALPHA
 10
224.104225
 20
-143.212194
 30
0.0
 40
4.0
 50
180.0
 51
358.041398
  0
CIRCLE
  5
9FA3
  8
ALPHA
 10
224.104225
 20
-143.212194
 30
0.0
 40
2.25
  0
ARC
  5
9FA4
  8
ALPHA
 10
224.104225
 20
-143.212194
 30
0.0
 40
4.375
 50
128.467
 51
169.375668
  0
LINE
  5
9FA5
  8
ALPHA
 10
219.804225
 20
-135.163916
 30
0.0
 11
219.804225
 21
-142.405581
 31
0.0
  0
LINE
  5
9FA6
  8
ALPHA
 10
220.104225
 20
-143.212194
 30
0.0
 11
221.290392
 21
-143.212194
 31
0.0
  0
LINE
  5
9FA7
  8
ALPHA
 10
221.296723
 20
-143.023546
 30
0.0
 11
220.111239
 21
-142.975427
 31
0.0
  0
LINE
  5
9FA8
  8
ALPHA
 10
221.29217
 20
-143.112194
 30
0.0
 11
220.106919
 21
-143.065428
 31
0.0
  0
LINE
  5
9FA9
  8
ALPHA
 10
221.575177
 20
-141.978674
 30
0.0
 11
220.500029
 21
-141.477324
 31
0.0
  0
LINE
  5
9FAA
  8
ALPHA
 10
221.534698
 20
-142.065378
 30
0.0
 11
220.459562
 21
-141.564034
 31
0.0
  0
LINE
  5
9FAB
  8
ALPHA
 10
219.672975
 20
-143.212194
 30
0.0
 11
219.804225
 21
-142.405581
 31
0.0
  0
LINE
  5
9FAC
  8
ALPHA
 10
219.804225
 20
-144.018807
 30
0.0
 11
219.672975
 21
-143.212194
 31
0.0
  0
LINE
  5
9FAD
  8
ALPHA
 10
219.804225
 20
-144.018807
 30
0.0
 11
220.099082
 21
-143.963497
 31
0.0
  0
LINE
  5
9FAE
  8
ALPHA
 10
219.804225
 20
-142.405581
 30
0.0
 11
220.099082
 21
-142.460891
 31
0.0
  0
ARC
  5
9FAF
  8
ALPHA
 10
224.104225
 20
-143.212194
 30
0.0
 40
2.813833
 50
153.999619
 51
180.0
  0
LINE
  5
9FB0
  8
ALPHA
 10
219.373542
 20
-135.221699
 30
0.0
 11
219.104225
 21
-135.416312
 31
0.0
  0
ARC
  5
9FB1
  8
ALPHA
 10
219.604225
 20
-135.416312
 30
0.0
 40
0.5
 50
103.327962
 51
180.0
  0
LINE
  5
9FB2
  8
ALPHA
 10
220.941999
 20
-135.414276
 30
0.0
 11
220.840317
 21
-134.837606
 31
0.0
  0
LINE
  5
9FB3
  8
ALPHA
 10
220.660734
 20
-134.970896
 30
0.0
 11
220.745038
 21
-135.449006
 31
0.0
  0
ARC
  5
9FB4
  8
ALPHA
 10
221.138961
 20
-135.379546
 30
0.0
 40
0.4
 50
190.0
 51
281.953211
  0
ARC
  5
9FB5
  8
ALPHA
 10
221.138961
 20
-135.379546
 30
0.0
 40
0.2
 50
190.0
 51
281.953211
  0
LINE
  5
9FB6
  8
ALPHA
 10
220.941999
 20
-135.414276
 30
0.0
 11
220.745038
 21
-135.449006
 31
0.0
  0
ARC
  5
9FB7
  8
ALPHA
 10
221.93597
 20
-139.412287
 30
0.0
 40
0.6
 50
119.709398
 51
188.0
  0
ARC
  5
9FB8
  8
ALPHA
 10
221.93597
 20
-139.412287
 30
0.0
 40
0.3
 50
119.709398
 51
188.0
  0
ARC
  5
9FB9
  8
ALPHA
 10
221.382696
 20
-139.786715
 30
0.0
 40
0.3
 50
308.467
 51
8.0
  0
LINE
  5
9FBA
  8
ALPHA
 10
221.341809
 20
-139.495791
 30
0.0
 11
221.63889
 21
-139.454039
 31
0.0
  0
LINE
  5
9FBB
  8
ALPHA
 10
221.382696
 20
-139.786715
 30
0.0
 11
221.679777
 21
-139.744963
 31
0.0
  0
LINE
  5
9FBC
  8
ALPHA
 10
221.569315
 20
-140.021605
 30
0.0
 11
221.382696
 21
-139.786715
 31
0.0
  0
LINE
  5
9FBD
  8
ALPHA
 10
221.78729
 20
-139.151722
 30
0.0
 11
221.638609
 21
-138.891157
 31
0.0
  0
LINE
  5
9FBE
  8
ALPHA
 10
221.221806
 20
-135.770873
 30
0.0
 11
221.180383
 21
-135.57521
 31
0.0
  0
LINE
  5
9FBF
  8
ALPHA
 10
221.63889
 20
-139.454039
 30
0.0
 11
221.679777
 21
-139.744963
 31
0.0
  0
LINE
  5
9FC0
  8
ALPHA
 10
221.341809
 20
-139.495791
 30
0.0
 11
221.382696
 21
-139.786715
 31
0.0
  0
LINE
  5
9FC1
  8
ALPHA
 10
220.660734
 20
-134.970896
 30
0.0
 11
220.600758
 21
-134.676925
 31
0.0
  0
LINE
  5
9FC2
  8
ALPHA
 10
219.373542
 20
-135.221699
 30
0.0
 11
219.488963
 21
-134.929779
 31
0.0
  0
LINE
  5
9FC3
  8
ALPHA
 10
219.804225
 20
-135.163916
 30
0.0
 11
219.373542
 21
-135.221699
 31
0.0
  0
LINE
  5
9FC4
  8
ALPHA
 10
220.857697
 20
-134.936167
 30
0.0
 11
220.841089
 21
-134.841986
 31
0.0
  0
LINE
  5
9FC5
  8
ALPHA
 10
220.841089
 20
-134.841986
 30
0.0
 11
220.840531
 21
-134.838901
 31
0.0
  0
ARC
  5
9FC6
  8
ALPHA
 10
234.104225
 20
-196.622194
 30
0.0
 40
63.1
 50
102.301184
 51
103.098417
  0
ARC
  5
9FC7
  8
ALPHA
 10
220.643355
 20
-134.872336
 30
0.0
 40
0.2
 50
10.0
 51
102.297541
  0
LINE
  5
9FC8
  8
ALPHA
 10
220.660734
 20
-134.970896
 30
0.0
 11
220.857696
 21
-134.936166
 31
0.0
  0
LINE
  5
9FC9
  8
ALPHA
 10
219.804225
 20
-135.163916
 30
0.0
 11
219.736238
 21
-134.871721
 31
0.0
  0
LINE
  5
9FCA
  8
ALPHA
 10
230.133705
 20
-141.193633
 30
0.0
 11
230.112236
 21
-138.687215
 31
0.0
  0
ARC
  5
9FCB
  8
ALPHA
 10
224.104225
 20
-143.212194
 30
0.0
 40
4.0
 50
0.0
 51
54.58379
  0
LINE
  5
9FCC
  8
ALPHA
 10
230.133701
 20
-141.193596
 30
0.0
 11
230.544158
 21
-139.50977
 31
0.0
  0
LINE
  5
9FCD
  8
ALPHA
 10
228.104225
 20
-143.212194
 30
0.0
 11
226.918058
 21
-143.212194
 31
0.0
  0
LINE
  5
9FCE
  8
ALPHA
 10
226.912198
 20
-143.393702
 30
0.0
 11
228.097785
 21
-143.439086
 31
0.0
  0
LINE
  5
9FCF
  8
ALPHA
 10
226.916531
 20
-143.304881
 30
0.0
 11
228.101888
 21
-143.348904
 31
0.0
  0
LINE
  5
9FD0
  8
ALPHA
 10
226.673755
 20
-144.359011
 30
0.0
 11
227.748888
 21
-144.860354
 31
0.0
  0
LINE
  5
9FD1
  8
ALPHA
 10
226.633273
 20
-144.445714
 30
0.0
 11
227.708421
 21
-144.947064
 31
0.0
  0
ARC
  5
9FD2
  8
ALPHA
 10
224.104225
 20
-143.212194
 30
0.0
 40
2.813833
 50
333.999619
 51
0.0
  0
LINE
  5
9FD3
  8
ALPHA
 10
226.639159
 20
-138.394554
 30
0.0
 11
230.112236
 21
-138.687215
 31
0.0
  0
ARC
  5
9FD4
  8
ALPHA
 10
226.528691
 20
-139.57041
 30
0.0
 40
0.6
 50
345.0
 51
56.346868
  0
LINE
  5
9FD5
  8
ALPHA
 10
227.551626
 20
-134.087171
 30
0.0
 11
224.909425
 21
-134.411593
 31
0.0
  0
LINE
  5
9FD6
  8
ALPHA
 10
227.551626
 20
-134.490175
 30
0.0
 11
224.797767
 21
-134.828307
 31
0.0
  0
LINE
  5
9FD7
  8
ALPHA
 10
226.75329
 20
-137.962194
 30
0.0
 11
230.054668
 21
-137.962194
 31
0.0
  0
LINE
  5
9FD8
  8
ALPHA
 10
226.27273
 20
-139.755666
 30
0.0
 11
227.534589
 21
-135.046345
 31
0.0
  0
LINE
  5
9FD9
  8
ALPHA
 10
223.666057
 20
-139.051905
 30
0.0
 11
224.909425
 21
-134.411593
 31
0.0
  0
LINE
  5
9FDA
  8
ALPHA
 10
223.79414
 20
-138.573892
 30
0.0
 11
226.40214
 21
-139.272703
 31
0.0
  0
LINE
  5
9FDB
  8
ALPHA
 10
223.690613
 20
-138.960262
 30
0.0
 11
226.298612
 21
-139.659074
 31
0.0
  0
LINE
  5
9FDC
  8
ALPHA
 10
223.664688
 20
-139.056843
 30
0.0
 11
226.27273
 21
-139.755666
 31
0.0
  0
ARC
  5
9FDD
  8
ALPHA
 10
223.376279
 20
-138.974259
 30
0.0
 40
0.3
 50
279.746525
 51
345.0
  0
ARC
  5
9FDE
  8
ALPHA
 10
224.104225
 20
-143.212194
 30
0.0
 40
4.975
 50
56.346868
 51
61.007152
  0
ARC
  5
9FDF
  8
ALPHA
 10
227.042576
 20
-139.970787
 30
0.0
 40
0.3
 50
165.0
 51
227.807538
  0
ARC
  5
9FE0
  8
ALPHA
 10
226.528691
 20
-139.57041
 30
0.0
 40
0.3
 50
345.0
 51
56.346868
  0
ARC
  5
9FE1
  8
ALPHA
 10
224.104225
 20
-143.212194
 30
0.0
 40
4.675
 50
56.346868
 51
60.071418
  0
ARC
  5
9FE2
  8
ALPHA
 10
226.596126
 20
-139.707849
 30
0.0
 40
0.3
 50
173.697974
 51
234.58379
  0
LINE
  5
9FE3
  8
ALPHA
 10
226.818469
 20
-139.648056
 30
0.0
 11
227.108247
 21
-139.725702
 31
0.0
  0
LINE
  5
9FE4
  8
ALPHA
 10
227.042576
 20
-139.970787
 30
0.0
 11
226.752799
 21
-139.893142
 31
0.0
  0
LINE
  5
9FE5
  8
ALPHA
 10
227.042576
 20
-139.970787
 30
0.0
 11
227.108247
 21
-139.725702
 31
0.0
  0
LINE
  5
9FE6
  8
ALPHA
 10
226.752799
 20
-139.893142
 30
0.0
 11
226.818469
 21
-139.648056
 31
0.0
  0
LINE
  5
9FE7
  8
ALPHA
 10
226.841089
 20
-140.193055
 30
0.0
 11
227.042576
 21
-139.970787
 31
0.0
  0
LINE
  5
9FE8
  8
ALPHA
 10
226.86119
 20
-139.070966
 30
0.0
 11
226.69494
 21
-139.320688
 31
0.0
  0
LINE
  5
9FE9
  8
ALPHA
 10
226.104225
 20
-133.212194
 30
0.0
 11
226.104225
 21
-133.728951
 31
0.0
  0
LINE
  5
9FEA
  8
ALPHA
 10
230.18142
 20
-137.962194
 30
0.0
 11
230.17971
 21
-137.932194
 31
0.0
  0
POLYLINE
  5
9FEB
  8
ALPHA
 66
     1
 10
0.0
 20
0.0
 30
0.0
 70
   128
210
0.0
220
0.0
230
-1.0
  0
VERTEX
  5
AECF
  8
ALPHA
 10
-231.104225
 20
-141.000905
 30
0.0
  0
VERTEX
  5
AED0
  8
ALPHA
 10
-230.968475
 20
-140.94588
 30
0.0
  0
VERTEX
  5
AED1
  8
ALPHA
 10
-230.894193
 20
-140.74524
 30
0.0
  0
VERTEX
  5
AED2
  8
ALPHA
 10
-230.770988
 20
-140.335308
 30
0.0
  0
VERTEX
  5
AED3
  8
ALPHA
 10
-230.544158
 20
-139.50977
 30
0.0
  0
SEQEND
  5
AED4
  8
ALPHA
  0
LINE
  5
9FEC
  8
ALPHA
 10
230.544158
 20
-139.50977
 30
0.0
 11
230.143793
 21
-138.30992
 31
0.0
  0
LINE
  5
9FED
  8
ALPHA
 10
230.127042
 20
-138.309388
 30
0.0
 11
230.128588
 21
-138.253174
 31
0.0
  0
LINE
  5
9FEE
  8
ALPHA
 10
230.112236
 20
-138.687215
 30
0.0
 11
230.127042
 21
-138.309388
 31
0.0
  0
ARC
  5
9FEF
  8
ALPHA
 10
230.353164
 20
-137.932194
 30
0.0
 40
0.3
 50
185.73917
 51
195.0
  0
LINE
  5
9FF0
  8
ALPHA
 10
230.18142
 20
-137.962194
 30
0.0
 11
230.063387
 21
-137.962194
 31
0.0
  0
LINE
  5
9FF1
  8
ALPHA
 10
230.143793
 20
-138.30992
 30
0.0
 11
230.063387
 21
-138.00984
 31
0.0
  0
LINE
  5
9FF2
  8
ALPHA
 10
231.104225
 20
-137.712194
 30
0.0
 11
231.104225
 21
-141.000905
 31
0.0
  0
LINE
  5
9FF3
  8
ALPHA
 10
230.17971
 20
-137.932194
 30
0.0
 11
230.17971
 21
-137.712194
 31
0.0
  0
LINE
  5
9FF4
  8
ALPHA
 10
227.784288
 20
-133.537977
 30
0.0
 11
227.804225
 21
-133.837483
 31
0.0
  0
ARC
  5
9FF5
  8
ALPHA
 10
227.404225
 20
-134.381773
 30
0.0
 40
0.4
 50
291.975285
 51
0.0
  0
ARC
  5
9FF6
  8
ALPHA
 10
227.404225
 20
-134.381773
 30
0.0
 40
0.2
 50
318.072032
 51
0.0
  0
ARC
  5
9FF7
  8
ALPHA
 10
227.804225
 20
-133.736981
 30
0.0
 40
0.2
 50
95.720948
 51
175.355417
  0
ARC
  5
9FF8
  8
ALPHA
 10
227.051626
 20
-134.916936
 30
0.0
 40
0.5
 50
345.0
 51
0.0
  0
LINE
  5
9FF9
  8
ALPHA
 10
227.804225
 20
-133.837483
 30
0.0
 11
227.604225
 21
-133.837483
 31
0.0
  0
LINE
  5
9FFA
  8
ALPHA
 10
227.804225
 20
-134.381773
 30
0.0
 11
227.604225
 21
-134.381773
 31
0.0
  0
LINE
  5
9FFB
  8
ALPHA
 10
227.604882
 20
-133.720786
 30
0.0
 11
227.604229
 21
-133.736931
 31
0.0
  0
LINE
  5
9FFC
  8
ALPHA
 10
227.604225
 20
-133.736981
 30
0.0
 11
227.604882
 21
-133.720786
 31
0.0
  0
LINE
  5
9FFD
  8
ALPHA
 10
227.804225
 20
-134.381773
 30
0.0
 11
227.804225
 21
-133.837483
 31
0.0
  0
LINE
  5
9FFE
  8
ALPHA
 10
227.604225
 20
-134.381773
 30
0.0
 11
227.604225
 21
-133.736981
 31
0.0
  0
LINE
  5
9FFF
  8
ALPHA
 10
227.551626
 20
-134.916936
 30
0.0
 11
227.551626
 21
-134.087171
 31
0.0
  0
ARC
  5
A000
  8
ALPHA
 10
244.104225
 20
-143.212194
 30
0.0
 40
4.375
 50
10.624332
 51
349.375668
  0
ARC
  5
A001
  8
ALPHA
 10
234.104225
 20
-196.622194
 30
0.0
 40
63.4
 50
76.672038
 51
88.038318
  0
CIRCLE
  5
A002
  8
ALPHA
 10
244.104225
 20
-143.212194
 30
0.0
 40
4.075
  0
LINE
  5
A003
  8
ALPHA
 10
243.479225
 20
-135.516853
 30
0.0
 11
234.104225
 21
-134.870254
 31
0.0
  0
LINE
  5
A004
  8
ALPHA
 10
238.096214
 20
-138.687215
 30
0.0
 11
243.479225
 21
-138.157536
 31
0.0
  0
LINE
  5
A005
  8
ALPHA
 10
234.604225
 20
-136.912194
 30
0.0
 11
243.354225
 21
-136.912194
 31
0.0
  0
LINE
  5
A006
  8
ALPHA
 10
234.604225
 20
-137.712194
 30
0.0
 11
243.354225
 21
-137.712194
 31
0.0
  0
LINE
  5
A007
  8
ALPHA
 10
238.153782
 20
-137.962194
 30
0.0
 11
243.479225
 21
-137.962194
 31
0.0
  0
LINE
  5
A008
  8
ALPHA
 10
238.096214
 20
-138.687215
 30
0.0
 11
238.074733
 21
-141.193764
 31
0.0
  0
LINE
  5
A009
  8
ALPHA
 10
238.074749
 20
-141.193596
 30
0.0
 11
237.664292
 21
-139.50977
 31
0.0
  0
POLYLINE
  5
A00A
  8
ALPHA
 66
     1
 10
0.0
 20
0.0
 30
0.0
 70
   128
  0
VERTEX
  5
AED5
  8
ALPHA
 10
237.104225
 20
-141.000905
 30
0.0
  0
VERTEX
  5
AED6
  8
ALPHA
 10
236.671143
 20
-140.302282
 30
0.0
  0
VERTEX
  5
AED7
  8
ALPHA
 10
236.106321
 20
-139.70632
 30
0.0
  0
VERTEX
  5
AED8
  8
ALPHA
 10
235.3973
 20
-139.294288
 30
0.0
  0
VERTEX
  5
AED9
  8
ALPHA
 10
234.602368
 20
-139.089745
 30
0.0
  0
SEQEND
  5
AEDA
  8
ALPHA
  0
LINE
  5
A00B
  8
ALPHA
 10
234.104225
 20
-133.522194
 30
0.0
 11
236.274479
 21
-133.25935
 31
0.0
  0
LINE
  5
A00C
  8
ALPHA
 10
234.504225
 20
-137.932194
 30
0.0
 11
238.028741
 21
-137.932194
 31
0.0
  0
LINE
  5
A00D
  8
ALPHA
 10
234.54827
 20
-138.00984
 30
0.0
 11
238.145064
 21
-138.00984
 31
0.0
  0
LINE
  5
A00E
  8
ALPHA
 10
234.104225
 20
-135.712194
 30
0.0
 11
234.104225
 21
-134.870254
 31
0.0
  0
LINE
  5
A00F
  8
ALPHA
 10
234.604225
 20
-138.705399
 30
0.0
 11
234.530107
 21
-138.731281
 31
0.0
  0
LINE
  5
A010
  8
ALPHA
 10
234.604195
 20
-139.026709
 30
0.0
 11
234.603168
 21
-139.071737
 31
0.0
  0
LINE
  5
A011
  8
ALPHA
 10
233.66018
 20
-138.00984
 30
0.0
 11
233.704225
 21
-137.932194
 31
0.0
  0
LINE
  5
A012
  8
ALPHA
 10
233.605283
 20
-139.071737
 30
0.0
 11
233.604255
 21
-139.026709
 31
0.0
  0
LINE
  5
A013
  8
ALPHA
 10
233.660133
 20
-139.374193
 30
0.0
 11
233.606087
 21
-139.089849
 31
0.0
  0
LINE
  5
A014
  8
ALPHA
 10
233.606082
 20
-139.089745
 30
0.0
 11
233.605283
 21
-139.071737
 31
0.0
  0
LINE
  5
A015
  8
ALPHA
 10
233.704225
 20
-139.459981
 30
0.0
 11
233.660133
 21
-139.374193
 31
0.0
  0
LINE
  5
A016
  8
ALPHA
 10
234.504225
 20
-137.932194
 30
0.0
 11
234.54827
 21
-138.00984
 31
0.0
  0
LINE
  5
A017
  8
ALPHA
 10
234.54827
 20
-138.00984
 30
0.0
 11
234.604225
 21
-138.344895
 31
0.0
  0
LINE
  5
A018
  8
ALPHA
 10
234.603168
 20
-139.071737
 30
0.0
 11
234.602368
 21
-139.089745
 31
0.0
  0
LINE
  5
A019
  8
ALPHA
 10
234.602363
 20
-139.089849
 30
0.0
 11
234.548318
 21
-139.374193
 31
0.0
  0
LINE
  5
A01A
  8
ALPHA
 10
234.548318
 20
-139.374193
 30
0.0
 11
234.504225
 21
-139.459981
 31
0.0
  0
LINE
  5
A01B
  8
ALPHA
 10
234.504225
 20
-138.705399
 30
0.0
 11
234.530107
 21
-138.731281
 31
0.0
  0
LINE
  5
A01C
  8
ALPHA
 10
234.530107
 20
-138.731281
 30
0.0
 11
234.504225
 21
-138.755399
 31
0.0
  0
LINE
  5
A01D
  8
ALPHA
 10
233.704225
 20
-138.755399
 30
0.0
 11
233.678343
 21
-138.731281
 31
0.0
  0
LINE
  5
A01E
  8
ALPHA
 10
233.678343
 20
-138.731281
 30
0.0
 11
233.704225
 21
-138.705399
 31
0.0
  0
LINE
  5
A01F
  8
ALPHA
 10
233.604225
 20
-138.344895
 30
0.0
 11
233.66018
 21
-138.00984
 31
0.0
  0
LINE
  5
A020
  8
ALPHA
 10
233.604225
 20
-138.705399
 30
0.0
 11
233.678343
 21
-138.731281
 31
0.0
  0
LINE
  5
A021
  8
ALPHA
 10
234.504225
 20
-139.459981
 30
0.0
 11
233.704225
 21
-139.459981
 31
0.0
  0
LINE
  5
A022
  8
ALPHA
 10
233.604225
 20
-136.912194
 30
0.0
 11
234.604225
 21
-136.912194
 31
0.0
  0
POLYLINE
  5
A023
  8
ALPHA
 66
     1
 10
0.0
 20
0.0
 30
0.0
  0
VERTEX
  5
AEDB
  8
ALPHA
 10
234.548318
 20
-139.374193
 30
0.0
  0
VERTEX
  5
AEDC
  8
ALPHA
 10
234.534199
 20
-139.375536
 30
0.0
  0
VERTEX
  5
AEDD
  8
ALPHA
 10
234.519387
 20
-139.376355
 30
0.0
  0
VERTEX
  5
AEDE
  8
ALPHA
 10
234.504225
 20
-139.37663
 30
0.0
  0
SEQEND
  5
AEDF
  8
ALPHA
  0
POLYLINE
  5
A024
  8
ALPHA
 66
     1
 10
0.0
 20
0.0
 30
0.0
  0
VERTEX
  5
AEE0
  8
ALPHA
 10
233.660133
 20
-139.374193
 30
0.0
  0
VERTEX
  5
AEE1
  8
ALPHA
 10
233.674251
 20
-139.375536
 30
0.0
  0
VERTEX
  5
AEE2
  8
ALPHA
 10
233.689063
 20
-139.376355
 30
0.0
  0
VERTEX
  5
AEE3
  8
ALPHA
 10
233.704225
 20
-139.37663
 30
0.0
  0
SEQEND
  5
AEE4
  8
ALPHA
  0
LINE
  5
A025
  8
ALPHA
 10
234.504225
 20
-138.705399
 30
0.0
 11
233.704223
 21
-138.705399
 31
0.0
  0
LINE
  5
A026
  8
ALPHA
 10
234.504225
 20
-138.755399
 30
0.0
 11
233.704225
 21
-138.755399
 31
0.0
  0
LINE
  5
A027
  8
ALPHA
 10
234.504225
 20
-139.114485
 30
0.0
 11
233.704225
 21
-139.114485
 31
0.0
  0
LINE
  5
A028
  8
ALPHA
 10
234.504225
 20
-139.37663
 30
0.0
 11
233.704225
 21
-139.37663
 31
0.0
  0
POLYLINE
  5
A029
  8
ALPHA
 66
     1
 10
0.0
 20
0.0
 30
0.0
  0
VERTEX
  5
AEE5
  8
ALPHA
 10
233.605283
 20
-139.071737
 30
0.0
  0
VERTEX
  5
AEE6
  8
ALPHA
 10
233.622874
 20
-139.093563
 30
0.0
  0
VERTEX
  5
AEE7
  8
ALPHA
 10
233.658484
 20
-139.108948
 30
0.0
  0
VERTEX
  5
AEE8
  8
ALPHA
 10
233.704225
 20
-139.114485
 30
0.0
  0
SEQEND
  5
AEE9
  8
ALPHA
  0
LINE
  5
A02A
  8
ALPHA
 10
234.604225
 20
-138.344895
 30
0.0
 11
234.604195
 21
-139.026709
 31
0.0
  0
LINE
  5
A02B
  8
ALPHA
 10
234.604225
 20
-136.912194
 30
0.0
 11
234.604225
 21
-137.712194
 31
0.0
  0
LINE
  5
A02C
  8
ALPHA
 10
234.504225
 20
-138.705399
 30
0.0
 11
234.504225
 21
-137.932194
 31
0.0
  0
LINE
  5
A02D
  8
ALPHA
 10
234.504225
 20
-139.459981
 30
0.0
 11
234.504225
 21
-138.755399
 31
0.0
  0
LINE
  5
A02E
  8
ALPHA
 10
233.704225
 20
-138.755399
 30
0.0
 11
233.704225
 21
-139.459981
 31
0.0
  0
LINE
  5
A02F
  8
ALPHA
 10
233.704225
 20
-137.932194
 30
0.0
 11
233.704223
 21
-138.705399
 31
0.0
  0
LINE
  5
A030
  8
ALPHA
 10
233.604225
 20
-138.344895
 30
0.0
 11
233.604255
 21
-139.026709
 31
0.0
  0
LINE
  5
A031
  8
ALPHA
 10
233.604225
 20
-136.912194
 30
0.0
 11
233.604225
 21
-137.712194
 31
0.0
  0
POLYLINE
  5
A032
  8
ALPHA
 66
     1
 10
0.0
 20
0.0
 30
0.0
  0
VERTEX
  5
AEEA
  8
ALPHA
 10
234.603168
 20
-139.071737
 30
0.0
  0
VERTEX
  5
AEEB
  8
ALPHA
 10
234.585576
 20
-139.093563
 30
0.0
  0
VERTEX
  5
AEEC
  8
ALPHA
 10
234.549966
 20
-139.108948
 30
0.0
  0
VERTEX
  5
AEED
  8
ALPHA
 10
234.504225
 20
-139.114485
 30
0.0
  0
SEQEND
  5
AEEE
  8
ALPHA
  0
LINE
  5
A033
  8
ALPHA
 10
234.104225
 20
-133.522194
 30
0.0
 11
231.933972
 21
-133.25935
 31
0.0
  0
POLYLINE
  5
A034
  8
ALPHA
 66
     1
 10
0.0
 20
0.0
 30
0.0
 70
   128
210
0.0
220
0.0
230
-1.0
  0
VERTEX
  5
AEEF
  8
ALPHA
 10
-237.664292
 20
-139.50977
 30
0.0
  0
VERTEX
  5
AEF0
  8
ALPHA
 10
-237.437463
 20
-140.335307
 30
0.0
  0
VERTEX
  5
AEF1
  8
ALPHA
 10
-237.314258
 20
-140.745238
 30
0.0
  0
VERTEX
  5
AEF2
  8
ALPHA
 10
-237.239977
 20
-140.94588
 30
0.0
  0
VERTEX
  5
AEF3
  8
ALPHA
 10
-237.104225
 20
-141.000905
 30
0.0
  0
SEQEND
  5
AEF4
  8
ALPHA
  0
LINE
  5
A035
  8
ALPHA
 10
237.104225
 20
-137.712194
 30
0.0
 11
237.104225
 21
-141.000905
 31
0.0
  0
LINE
  5
A036
  8
ALPHA
 10
238.028741
 20
-137.932194
 30
0.0
 11
238.027031
 21
-137.962194
 31
0.0
  0
LINE
  5
A037
  8
ALPHA
 10
238.064658
 20
-138.30992
 30
0.0
 11
237.664292
 21
-139.50977
 31
0.0
  0
LINE
  5
A038
  8
ALPHA
 10
238.081408
 20
-138.309388
 30
0.0
 11
238.096214
 21
-138.687215
 31
0.0
  0
LINE
  5
A039
  8
ALPHA
 10
238.079863
 20
-138.253174
 30
0.0
 11
238.081408
 21
-138.309388
 31
0.0
  0
ARC
  5
A03A
  8
ALPHA
 10
237.855286
 20
-137.932194
 30
0.0
 40
0.3
 50
345.0
 51
354.26083
  0
LINE
  5
A03B
  8
ALPHA
 10
238.027031
 20
-137.962194
 30
0.0
 11
238.145064
 21
-137.962194
 31
0.0
  0
LINE
  5
A03C
  8
ALPHA
 10
238.028741
 20
-137.712194
 30
0.0
 11
238.028741
 21
-137.932194
 31
0.0
  0
LINE
  5
A03D
  8
ALPHA
 10
238.145064
 20
-138.00984
 30
0.0
 11
238.064658
 21
-138.30992
 31
0.0
  0
CIRCLE
  5
A03E
  8
ALPHA
 10
244.104225
 20
-143.212194
 30
0.0
 40
2.125
  0
LINE
  5
A03F
  8
ALPHA
 10
243.354225
 20
-136.862194
 30
0.0
 11
243.479225
 21
-136.862194
 31
0.0
  0
LINE
  5
A040
  8
ALPHA
 10
243.354225
 20
-137.212194
 30
0.0
 11
243.479225
 21
-137.212194
 31
0.0
  0
LINE
  5
A041
  8
ALPHA
 10
243.479225
 20
-135.516853
 30
0.0
 11
243.479225
 21
-138.157536
 31
0.0
  0
LINE
  5
A042
  8
ALPHA
 10
243.354225
 20
-137.712194
 30
0.0
 11
243.354225
 21
-135.712194
 31
0.0
  0
LINE
  5
A043
  8
ALPHA
 10
242.104225
 20
-133.212194
 30
0.0
 11
242.104225
 21
-133.728951
 31
0.0
  0
LINE
  5
A044
  8
ALPHA
 10
248.404225
 20
-142.405581
 30
0.0
 11
248.404225
 21
-135.163916
 31
0.0
  0
LINE
  5
A045
  8
ALPHA
 10
248.535475
 20
-143.212194
 30
0.0
 11
248.404225
 21
-144.018807
 31
0.0
  0
LINE
  5
A046
  8
ALPHA
 10
248.404225
 20
-142.405581
 30
0.0
 11
248.535475
 21
-143.212194
 31
0.0
  0
LINE
  5
A047
  8
ALPHA
 10
248.404225
 20
-142.405581
 30
0.0
 11
248.109368
 21
-142.460891
 31
0.0
  0
LINE
  5
A048
  8
ALPHA
 10
248.404225
 20
-144.018807
 30
0.0
 11
248.109368
 21
-143.963497
 31
0.0
  0
LINE
  5
A049
  8
ALPHA
 10
249.104225
 20
-135.416312
 30
0.0
 11
248.834909
 21
-135.221699
 31
0.0
  0
ARC
  5
A04A
  8
ALPHA
 10
248.604225
 20
-135.416312
 30
0.0
 40
0.5
 50
0.0
 51
76.672038
  0
LINE
  5
A04B
  8
ALPHA
 10
248.834909
 20
-135.221699
 30
0.0
 11
248.719487
 21
-134.929779
 31
0.0
  0
LINE
  5
A04C
  8
ALPHA
 10
248.404225
 20
-135.163916
 30
0.0
 11
248.834909
 21
-135.221699
 31
0.0
  0
LINE
  5
A04D
  8
ALPHA
 10
248.404225
 20
-135.163916
 30
0.0
 11
248.472212
 21
-134.871721
 31
0.0
  0
LINE
  5
A04E
  8
POINTILLE_COURT
 10
267.404278
 20
-170.612141
 30
0.0
 11
267.895645
 21
-181.310541
 31
0.0
  0
LINE
  5
A04F
  8
POINTILLE_COURT
 10
266.600946
 20
-181.312141
 30
0.0
 11
266.114686
 21
-170.616858
 31
0.0
  0
LINE
  5
A050
  8
POINTILLE_COURT
 10
265.232189
 20
-181.312141
 30
0.0
 11
264.876368
 21
-170.612141
 31
0.0
  0
LINE
  5
A051
  8
POINTILLE_COURT
 10
267.600946
 20
-181.312141
 30
0.0
 11
267.114688
 21
-170.616875
 31
0.0
  0
LINE
  5
A052
  8
POINTILLE_COURT
 10
268.600946
 20
-181.312141
 30
0.0
 11
268.114699
 21
-170.616957
 31
0.0
  0
LINE
  5
A053
  8
POINTILLE_COURT
 10
266.232189
 20
-181.312141
 30
0.0
 11
265.876367
 21
-170.612141
 31
0.0
  0
LINE
  5
A054
  8
POINTILLE_COURT
 10
267.232189
 20
-181.312141
 30
0.0
 11
266.876367
 21
-170.612141
 31
0.0
  0
LINE
  5
A055
  8
POINTILLE_COURT
 10
268.232189
 20
-181.312141
 30
0.0
 11
267.876368
 21
-170.612141
 31
0.0
  0
LINE
  5
A056
  8
POINTILLE_COURT
 10
264.600946
 20
-181.312141
 30
0.0
 11
264.114688
 21
-170.616875
 31
0.0
  0
LINE
  5
A057
  8
POINTILLE_COURT
 10
264.404278
 20
-170.612141
 30
0.0
 11
264.895645
 21
-181.310541
 31
0.0
  0
LINE
  5
A058
  8
POINTILLE_COURT
 10
265.600946
 20
-181.312141
 30
0.0
 11
265.114699
 21
-170.616957
 31
0.0
  0
LINE
  5
A059
  8
POINTILLE_COURT
 10
265.404278
 20
-170.612141
 30
0.0
 11
265.895621
 21
-181.310496
 31
0.0
  0
LINE
  5
A05A
  8
POINTILLE_COURT
 10
266.404278
 20
-170.612141
 30
0.0
 11
266.895634
 21
-181.310522
 31
0.0
  0
ARC
  5
A05B
  8
POINTILLE_COURT
 10
270.004278
 20
-175.962141
 30
0.0
 40
1.0
 50
90.0
 51
270.0
  0
ARC
  5
A05C
  8
POINTILLE_COURT
 10
270.004278
 20
-175.962141
 30
0.0
 40
0.85
 50
90.0
 51
270.0
  0
LINE
  5
A05D
  8
POINTILLE_COURT
 10
271.004278
 20
-181.262106
 30
0.0
 11
271.004278
 21
-170.662176
 31
0.0
  0
LINE
  5
A05E
  8
POINTILLE_COURT
 10
267.900754
 20
-181.312141
 30
0.0
 11
270.004278
 21
-181.312141
 31
0.0
  0
LINE
  5
A05F
  8
POINTILLE_COURT
 10
265.900756
 20
-181.312141
 30
0.0
 11
266.897181
 21
-181.312141
 31
0.0
  0
LINE
  5
A060
  8
POINTILLE_COURT
 10
265.897181
 20
-181.306823
 30
0.0
 11
265.90073
 21
-181.312141
 31
0.0
  0
LINE
  5
A061
  8
POINTILLE_COURT
 10
264.897181
 20
-181.306823
 30
0.0
 11
264.900731
 21
-181.312141
 31
0.0
  0
LINE
  5
A062
  8
POINTILLE_COURT
 10
264.900754
 20
-181.312141
 30
0.0
 11
265.897181
 21
-181.312141
 31
0.0
  0
LINE
  5
A063
  8
POINTILLE_COURT
 10
267.897181
 20
-181.306823
 30
0.0
 11
267.900731
 21
-181.312141
 31
0.0
  0
LINE
  5
A064
  8
POINTILLE_COURT
 10
266.897181
 20
-181.306823
 30
0.0
 11
266.90073
 21
-181.312141
 31
0.0
  0
LINE
  5
A065
  8
POINTILLE_COURT
 10
266.900754
 20
-181.312141
 30
0.0
 11
267.897181
 21
-181.312141
 31
0.0
  0
LINE
  5
A066
  8
POINTILLE_COURT
 10
270.004278
 20
-181.262141
 30
0.0
 11
271.004278
 21
-181.262141
 31
0.0
  0
LINE
  5
A067
  8
POINTILLE_COURT
 10
270.004278
 20
-176.812141
 30
0.0
 11
270.004278
 21
-181.312141
 31
0.0
  0
LINE
  5
A068
  8
POINTILLE_COURT
 10
266.11051
 20
-170.621798
 30
0.0
 11
266.105727
 21
-170.612141
 31
0.0
  0
LINE
  5
A069
  8
POINTILLE_COURT
 10
265.11051
 20
-170.621798
 30
0.0
 11
265.105727
 21
-170.612141
 31
0.0
  0
LINE
  5
A06A
  8
POINTILLE_COURT
 10
268.11051
 20
-170.621798
 30
0.0
 11
268.105727
 21
-170.612141
 31
0.0
  0
LINE
  5
A06B
  8
POINTILLE_COURT
 10
267.11051
 20
-170.621798
 30
0.0
 11
267.105726
 21
-170.612141
 31
0.0
  0
LINE
  5
A06C
  8
POINTILLE_COURT
 10
270.004278
 20
-170.662141
 30
0.0
 11
271.004278
 21
-170.662141
 31
0.0
  0
LINE
  5
A06D
  8
POINTILLE_COURT
 10
270.004278
 20
-170.612141
 30
0.0
 11
270.004278
 21
-175.112141
 31
0.0
  0
DIMENSION
  5
A0D4
  8
COTATION1
  2
*D4
 10
244.104225
 20
-118.212194
 30
0.0
 11
234.104225
 21
-114.962194
 31
0.0
 13
224.104225
 23
-136.137194
 33
0.0
 14
244.104225
 24
-136.137194
 34
0.0
  0
DIMENSION
  5
A0D5
  8
COTATION1
  2
*D3
 10
249.104225
 20
-108.212194
 30
0.0
 11
234.104225
 21
-104.962194
 31
0.0
 13
219.104225
 23
-135.416312
 33
0.0
 14
249.104225
 24
-135.416312
 34
0.0
  0
LINE
  5
A0D6
  8
ALPHA
 10
234.104225
 20
-133.522194
 30
0.0
 11
236.274479
 21
-133.25935
 31
0.0
  0
LINE
  5
A0D7
  8
ALPHA
 10
242.104225
 20
-133.212194
 30
0.0
 11
242.104225
 21
-133.728951
 31
0.0
  0
LINE
  5
A0D8
  8
AXE
 10
234.104225
 20
-128.212194
 30
0.0
 11
234.104225
 21
-221.212194
 31
0.0
  0
DIMENSION
  5
A0D9
  8
COTATION1
  2
*D6
 10
284.104225
 20
-183.212141
 30
0.0
 11
284.104225
 21
-163.212168
 31
0.0
 13
251.179225
 23
-143.212194
 33
0.0
 14
255.532142
 24
-183.212141
 34
0.0
 50
90.0
  0
DIMENSION
  5
A0DA
  8
COTATION1
  2
*D5
 10
294.104225
 20
-183.212141
 30
0.0
 11
294.104225
 21
-158.212168
 31
0.0
 13
242.104225
 23
-133.212194
 33
0.0
 14
255.532142
 24
-183.212141
 34
0.0
 50
90.0
  0
LINE
  5
A0DB
  8
AXE
 10
214.104225
 20
-156.814235
 30
0.0
 11
264.104225
 21
-156.814235
 31
0.0
  0
TEXT
  5
A0DC
  8
AXE
 10
257.628035
 20
-155.814235
 30
0.0
 40
8.0
  1
X
 72
     2
 11
264.104225
 21
-155.814235
 31
0.0
  0
TEXT
  5
A0DD
  8
AXE
 10
226.628035
 20
-221.212194
 30
0.0
 40
8.0
  1
Y
 72
     2
 11
233.104225
 21
-221.212194
 31
0.0
  0
LINE
  5
A145
  8
AXE
 10
217.029225
 20
-143.212194
 30
0.0
 11
231.179225
 21
-143.212194
 31
0.0
  0
LINE
  5
A146
  8
AXE
 10
224.104225
 20
-150.287194
 30
0.0
 11
224.104225
 21
-136.137194
 31
0.0
  0
LINE
  5
A147
  8
AXE
 10
237.029225
 20
-143.212194
 30
0.0
 11
251.179225
 21
-143.212194
 31
0.0
  0
LINE
  5
A148
  8
AXE
 10
244.104225
 20
-150.287194
 30
0.0
 11
244.104225
 21
-136.137194
 31
0.0
  0
LINE
  5
A7B4
  8
ALPHA
 10
236.404225
 20
-199.940105
 30
0.0
 11
247.104225
 21
-199.584284
 31
0.0
  0
LINE
  5
A7B5
  8
ALPHA
 10
236.404225
 20
-201.308862
 30
0.0
 11
247.099508
 21
-200.822602
 31
0.0
  0
LINE
  5
A7B6
  8
ALPHA
 10
236.404225
 20
-198.940105
 30
0.0
 11
247.104225
 21
-198.584284
 31
0.0
  0
LINE
  5
A7B7
  8
ALPHA
 10
247.104225
 20
-197.112194
 30
0.0
 11
236.405857
 21
-197.603543
 31
0.0
  0
LINE
  5
A7B8
  8
ALPHA
 10
236.404225
 20
-197.940104
 30
0.0
 11
247.104225
 21
-197.584283
 31
0.0
  0
LINE
  5
A7B9
  8
ALPHA
 10
236.404225
 20
-199.308862
 30
0.0
 11
247.099449
 21
-198.82261
 31
0.0
  0
LINE
  5
A7BA
  8
ALPHA
 10
247.104225
 20
-198.112194
 30
0.0
 11
236.40583
 21
-198.603558
 31
0.0
  0
LINE
  5
A7BB
  8
ALPHA
 10
247.104225
 20
-199.112194
 30
0.0
 11
236.405825
 21
-199.60356
 31
0.0
  0
LINE
  5
A7BC
  8
ALPHA
 10
236.404225
 20
-200.940104
 30
0.0
 11
247.104225
 21
-200.584283
 31
0.0
  0
LINE
  5
A7BD
  8
ALPHA
 10
247.104225
 20
-200.112194
 30
0.0
 11
236.405857
 21
-200.603543
 31
0.0
  0
LINE
  5
A7BE
  8
ALPHA
 10
247.104225
 20
-201.112194
 30
0.0
 11
236.40583
 21
-201.603558
 31
0.0
  0
POLYLINE
  5
A7BF
  8
ALPHA
 66
     1
 10
0.0
 20
0.0
 30
0.0
 70
   128
  0
VERTEX
  5
AEF5
  8
ALPHA
 10
241.318517
 20
-183.212194
 30
0.0
  0
VERTEX
  5
AEF6
  8
ALPHA
 10
239.528475
 20
-184.329243
 30
0.0
  0
VERTEX
  5
AEF7
  8
ALPHA
 10
237.962523
 20
-185.741384
 30
0.0
  0
VERTEX
  5
AEF8
  8
ALPHA
 10
237.315686
 20
-186.575894
 30
0.0
  0
VERTEX
  5
AEF9
  8
ALPHA
 10
236.804898
 20
-187.49936
 30
0.0
  0
VERTEX
  5
AEFA
  8
ALPHA
 10
236.469726
 20
-188.500792
 30
0.0
  0
VERTEX
  5
AEFB
  8
ALPHA
 10
236.354225
 20
-189.549694
 30
0.0
  0
SEQEND
  5
AEFC
  8
ALPHA
  0
LINE
  5
A7C0
  8
ALPHA
 10
236.404225
 20
-201.940105
 30
0.0
 11
247.104225
 21
-201.584284
 31
0.0
  0
LINE
  5
A7C1
  8
ALPHA
 10
247.104225
 20
-202.112194
 30
0.0
 11
236.405825
 21
-202.60356
 31
0.0
  0
POLYLINE
  5
A7C2
  8
ALPHA
 66
     1
 10
0.0
 20
0.0
 30
0.0
 70
   128
  0
VERTEX
  5
AEFD
  8
ALPHA
 10
249.004225
 20
-189.740058
 30
0.0
  0
VERTEX
  5
AEFE
  8
ALPHA
 10
242.944934
 20
-191.318759
 30
0.0
  0
VERTEX
  5
AEFF
  8
ALPHA
 10
236.977347
 20
-193.212194
 30
0.0
  0
SEQEND
  5
AF00
  8
ALPHA
  0
LINE
  5
A7C3
  8
ALPHA
 10
236.404225
 20
-202.940105
 30
0.0
 11
247.104225
 21
-202.584284
 31
0.0
  0
LINE
  5
A7C4
  8
ALPHA
 10
236.404225
 20
-203.308862
 30
0.0
 11
247.099372
 21
-202.822619
 31
0.0
  0
LINE
  5
A7C5
  8
ALPHA
 10
236.404225
 20
-202.308862
 30
0.0
 11
247.099449
 21
-201.82261
 31
0.0
  0
LINE
  5
A7C6
  8
ALPHA
 10
236.404225
 20
-200.308862
 30
0.0
 11
247.099372
 21
-199.822619
 31
0.0
  0
LINE
  5
A7C7
  8
ALPHA
 10
236.404225
 20
-198.308862
 30
0.0
 11
247.099508
 21
-197.822602
 31
0.0
  0
LINE
  5
A7CA
  8
ALPHA
 10
247.504132
 20
-193.212194
 30
0.0
 11
236.354225
 21
-193.212194
 31
0.0
  0
LINE
  5
A7CB
  8
ALPHA
 10
247.104225
 20
-204.212194
 30
0.0
 11
236.404225
 21
-204.212194
 31
0.0
  0
LINE
  5
A7CC
  8
ALPHA
 10
236.45426
 20
-205.212194
 30
0.0
 11
247.05419
 21
-205.212194
 31
0.0
  0
ARC
  5
A7CD
  8
ALPHA
 10
248.354225
 20
-189.549694
 30
0.0
 40
12.0
 50
148.121147
 51
180.0
  0
LINE
  5
A7CE
  8
ALPHA
 10
236.404225
 20
-197.608691
 30
0.0
 11
236.404225
 21
-198.605097
 31
0.0
  0
LINE
  5
A7CF
  8
ALPHA
 10
236.454225
 20
-204.212194
 30
0.0
 11
236.454225
 21
-205.212194
 31
0.0
  0
LINE
  5
A7D0
  8
ALPHA
 10
236.409544
 20
-202.605097
 30
0.0
 11
236.404225
 21
-202.608646
 31
0.0
  0
LINE
  5
A7D1
  8
ALPHA
 10
236.409544
 20
-201.605097
 30
0.0
 11
236.404225
 21
-201.608646
 31
0.0
  0
LINE
  5
A7D2
  8
ALPHA
 10
236.409544
 20
-200.605097
 30
0.0
 11
236.404225
 21
-200.608646
 31
0.0
  0
LINE
  5
A7D3
  8
ALPHA
 10
236.409544
 20
-199.605097
 30
0.0
 11
236.404225
 21
-199.608646
 31
0.0
  0
LINE
  5
A7D4
  8
ALPHA
 10
236.409544
 20
-198.605097
 30
0.0
 11
236.404225
 21
-198.608646
 31
0.0
  0
LINE
  5
A7D5
  8
ALPHA
 10
236.404225
 20
-201.608643
 30
0.0
 11
236.404225
 21
-204.212194
 31
0.0
  0
LINE
  5
A7D6
  8
ALPHA
 10
236.404225
 20
-200.608691
 30
0.0
 11
236.404225
 21
-201.605097
 31
0.0
  0
LINE
  5
A7D7
  8
ALPHA
 10
236.404225
 20
-199.608538
 30
0.0
 11
236.404225
 21
-200.605097
 31
0.0
  0
LINE
  5
A7D8
  8
ALPHA
 10
236.404225
 20
-198.608643
 30
0.0
 11
236.404225
 21
-199.605097
 31
0.0
  0
LINE
  5
A7D9
  8
ALPHA
 10
236.354225
 20
-189.549694
 30
0.0
 11
236.354225
 21
-193.212194
 31
0.0
  0
LINE
  5
A7DA
  8
ALPHA
 10
236.409544
 20
-197.605097
 30
0.0
 11
236.404225
 21
-197.608646
 31
0.0
  0
LINE
  5
A7DB
  8
ALPHA
 10
236.404225
 20
-193.212194
 30
0.0
 11
236.404225
 21
-197.605097
 31
0.0
  0
LINE
  5
A7E1
  8
ALPHA
 10
249.004225
 20
-189.740058
 30
0.0
 11
249.004225
 21
-172.975747
 31
0.0
  0
LINE
  5
A7E2
  8
ALPHA
 10
248.79308
 20
-190.634485
 30
0.0
 11
240.060247
 21
-193.212194
 31
0.0
  0
LINE
  5
A7E3
  8
ALPHA
 10
247.104225
 20
-204.212194
 30
0.0
 11
247.104225
 21
-193.212194
 31
0.0
  0
LINE
  5
A7E4
  8
ALPHA
 10
247.054225
 20
-204.212194
 30
0.0
 11
247.054225
 21
-205.212194
 31
0.0
  0
LINE
  5
A7E5
  8
ALPHA
 10
247.094568
 20
-202.818426
 30
0.0
 11
247.104225
 21
-202.813643
 31
0.0
  0
LINE
  5
A7E6
  8
ALPHA
 10
247.094568
 20
-201.818426
 30
0.0
 11
247.104225
 21
-201.813643
 31
0.0
  0
LINE
  5
A7E7
  8
ALPHA
 10
247.094568
 20
-200.818426
 30
0.0
 11
247.104225
 21
-200.813642
 31
0.0
  0
LINE
  5
A7E8
  8
ALPHA
 10
247.094568
 20
-199.818426
 30
0.0
 11
247.104225
 21
-199.813643
 31
0.0
  0
LINE
  5
A7E9
  8
ALPHA
 10
247.094568
 20
-198.818426
 30
0.0
 11
247.104225
 21
-198.813643
 31
0.0
  0
LINE
  5
A7EA
  8
ALPHA
 10
247.504225
 20
-193.212194
 30
0.0
 11
248.79308
 21
-190.634485
 31
0.0
  0
LINE
  5
A7EB
  8
ALPHA
 10
247.094568
 20
-197.818426
 30
0.0
 11
247.104225
 21
-197.813642
 31
0.0
  0
ARC
  5
A7EC
  8
ALPHA
 10
247.004215
 20
-189.740061
 30
0.0
 40
1.999999
 50
333.43514
 51
0.000068
  0
DIMENSION
  5
A8CB
  8
COTATION1
  2
*D7
 10
271.004278
 20
-98.212194
 30
0.0
 11
245.054252
 21
-94.962194
 31
0.0
 13
219.104225
 23
-135.416312
 33
0.0
 14
271.004278
 24
-170.662176
 34
0.0
  0
DIMENSION
  5
A8F3
  8
COTATION1
  2
*D8
 10
225.673443
 20
-144.645086
 30
0.0
 11
202.373634
 21
-123.369443
 31
0.0
 70
   131
  1
2x<>
 15
222.535007
 25
-141.779302
 35
0.0
 40
0.0
1001
ACAD
1000
DSTYLE
1002
{
1070
   287
1070
     4
1070
   287
1070
     4
1070
   279
1070
     1
1070
   289
1070
     3
1002
}
  0
DIMENSION
  5
A903
  8
COTATION1
  2
*D9
 10
304.104225
 20
-205.212194
 30
0.0
 11
304.104225
 21
-169.212194
 31
0.0
 13
242.104225
 23
-133.212194
 33
0.0
 14
247.054225
 24
-205.212194
 34
0.0
 50
90.0
  0
VIEWPORT
  5
494D
 67
     1
  8
0
 10
4.995325
 20
6.556512
 30
0.0
 40
22.70986
 41
13.988421
 68
    -1
 69
     1
1001
ACAD
1000
MVIEW
1002
{
1070
    16
1010
0.0
1020
0.0
1030
0.0
1010
0.0
1020
0.0
1030
1.0
1040
0.0
1040
13.988421
1040
4.995325
1040
6.556512
1040
50.0
1040
0.0
1040
0.0
1070
     0
1070
   100
1070
     1
1070
     1
1070
     0
1070
     0
1070
     0
1070
     0
1040
0.0
1040
0.0
1040
0.0
1040
10.0
1040
10.0
1040
10.0
1040
10.0
1070
     0
1002
{
1002
}
1002
}
  0
ENDSEC
  0
EOF
