  0
SECTION
  2
HEADER
  9
$ACADVER
  1
AC1014
  9
$ACADMAINTVER
 70
     0
  9
$DWGCODEPAGE
  3
ANSI_1252
  9
$INSBASE
 10
-52.887544
 20
-61.5323
 30
0.0
  9
$EXTMIN
 10
82.397152
 20
138.397917
 30
0.0
  9
$EXTMAX
 10
121.286203
 20
185.547752
 30
0.0
  9
$LIMMIN
 10
0.0
 20
0.0
  9
$LIMMAX
 10
210.0
 20
297.0
  9
$ORTHOMODE
 70
     0
  9
$REGENMODE
 70
     1
  9
$FILLMODE
 70
     1
  9
$QTEXTMODE
 70
     0
  9
$MIRRTEXT
 70
     0
  9
$DRAGMODE
 70
     1
  9
$LTSCALE
 40
20.0
  9
$OSMODE
 70
     0
  9
$ATTMODE
 70
     1
  9
$TEXTSIZE
 40
2.5
  9
$TRACEWID
 40
0.05
  9
$TEXTSTYLE
  7
ROMANS
  9
$CLAYER
  8
COTATION1
  9
$CELTYPE
  6
BYLAYER
  9
$CECOLOR
 62
   256
  9
$CELTSCALE
 40
1.0
  9
$DELOBJ
 70
     1
  9
$DISPSILH
 70
     0
  9
$DIMSCALE
 40
1.0
  9
$DIMASZ
 40
3.0
  9
$DIMEXO
 40
0.0625
  9
$DIMDLI
 40
0.38
  9
$DIMRND
 40
0.01
  9
$DIMDLE
 40
0.0
  9
$DIMEXE
 40
0.18
  9
$DIMTP
 40
0.0
  9
$DIMTM
 40
0.0
  9
$DIMTXT
 40
2.5
  9
$DIMCEN
 40
0.09
  9
$DIMTSZ
 40
0.0
  9
$DIMTOL
 70
     0
  9
$DIMLIM
 70
     0
  9
$DIMTIH
 70
     0
  9
$DIMTOH
 70
     0
  9
$DIMSE1
 70
     0
  9
$DIMSE2
 70
     0
  9
$DIMTAD
 70
     1
  9
$DIMZIN
 70
    12
  9
$DIMBLK
  1

  9
$DIMASO
 70
     1
  9
$DIMSHO
 70
     1
  9
$DIMPOST
  1

  9
$DIMAPOST
  1

  9
$DIMALT
 70
     0
  9
$DIMALTD
 70
     2
  9
$DIMALTF
 40
25.4
  9
$DIMLFAC
 40
1.0
  9
$DIMTOFL
 70
     1
  9
$DIMTVP
 40
0.0
  9
$DIMTIX
 70
     0
  9
$DIMSOXD
 70
     0
  9
$DIMSAH
 70
     0
  9
$DIMBLK1
  1

  9
$DIMBLK2
  1

  9
$DIMSTYLE
  2
SC_STAND
  9
$DIMCLRD
 70
     0
  9
$DIMCLRE
 70
     0
  9
$DIMCLRT
 70
     0
  9
$DIMTFAC
 40
1.0
  9
$DIMGAP
 40
1.0
  9
$DIMJUST
 70
     0
  9
$DIMSD1
 70
     0
  9
$DIMSD2
 70
     0
  9
$DIMTOLJ
 70
     1
  9
$DIMTZIN
 70
    12
  9
$DIMALTZ
 70
    12
  9
$DIMALTTZ
 70
    12
  9
$DIMFIT
 70
     5
  9
$DIMUPT
 70
     0
  9
$DIMUNIT
 70
     2
  9
$DIMDEC
 70
     3
  9
$DIMTDEC
 70
     3
  9
$DIMALTU
 70
     2
  9
$DIMALTTD
 70
     2
  9
$DIMTXSTY
  7
ROMANS
  9
$DIMAUNIT
 70
     0
  9
$LUNITS
 70
     2
  9
$LUPREC
 70
     3
  9
$SKETCHINC
 40
0.1
  9
$FILLETRAD
 40
0.0625
  9
$AUNITS
 70
     0
  9
$AUPREC
 70
     0
  9
$MENU
  1
ACAD
  9
$ELEVATION
 40
0.0
  9
$PELEVATION
 40
0.0
  9
$THICKNESS
 40
0.0
  9
$LIMCHECK
 70
     0
  9
$BLIPMODE
 70
     1
  9
$CHAMFERA
 40
0.0
  9
$CHAMFERB
 40
0.0
  9
$CHAMFERC
 40
0.0
  9
$CHAMFERD
 40
0.0
  9
$SKPOLY
 70
     0
  9
$TDCREATE
 40
2450599.564987997
  9
$TDUPDATE
 40
2451387.883460451
  9
$TDINDWG
 40
0.0011271991
  9
$TDUSRTIMER
 40
0.0011271991
  9
$USRTIMER
 70
     1
  9
$ANGBASE
 50
0.0
  9
$ANGDIR
 70
     0
  9
$PDMODE
 70
     0
  9
$PDSIZE
 40
0.0
  9
$PLINEWID
 40
0.0
  9
$COORDS
 70
     2
  9
$SPLFRAME
 70
     0
  9
$SPLINETYPE
 70
     6
  9
$SPLINESEGS
 70
     8
  9
$ATTDIA
 70
     0
  9
$ATTREQ
 70
     1
  9
$HANDLING
 70
     1
  9
$HANDSEED
  5
4C4
  9
$SURFTAB1
 70
     6
  9
$SURFTAB2
 70
     6
  9
$SURFTYPE
 70
     6
  9
$SURFU
 70
     6
  9
$SURFV
 70
     6
  9
$UCSNAME
  2

  9
$UCSORG
 10
0.0
 20
0.0
 30
0.0
  9
$UCSXDIR
 10
1.0
 20
0.0
 30
0.0
  9
$UCSYDIR
 10
0.0
 20
1.0
 30
0.0
  9
$PUCSNAME
  2

  9
$PUCSORG
 10
0.0
 20
0.0
 30
0.0
  9
$PUCSXDIR
 10
1.0
 20
0.0
 30
0.0
  9
$PUCSYDIR
 10
0.0
 20
1.0
 30
0.0
  9
$USERI1
 70
     0
  9
$USERI2
 70
     0
  9
$USERI3
 70
     0
  9
$USERI4
 70
     0
  9
$USERI5
 70
     0
  9
$USERR1
 40
0.0
  9
$USERR2
 40
0.0
  9
$USERR3
 40
0.0
  9
$USERR4
 40
0.0
  9
$USERR5
 40
0.0
  9
$WORLDVIEW
 70
     1
  9
$SHADEDGE
 70
     3
  9
$SHADEDIF
 70
    70
  9
$TILEMODE
 70
     1
  9
$MAXACTVP
 70
    16
  9
$PINSBASE
 10
0.0
 20
0.0
 30
0.0
  9
$PLIMCHECK
 70
     0
  9
$PEXTMIN
 10
1.000000E+20
 20
1.000000E+20
 30
1.000000E+20
  9
$PEXTMAX
 10
-1.000000E+20
 20
-1.000000E+20
 30
-1.000000E+20
  9
$PLIMMIN
 10
0.0
 20
0.0
  9
$PLIMMAX
 10
12.0
 20
9.0
  9
$UNITMODE
 70
     0
  9
$VISRETAIN
 70
     0
  9
$PLINEGEN
 70
     0
  9
$PSLTSCALE
 70
     1
  9
$TREEDEPTH
 70
  3020
  9
$PICKSTYLE
 70
     1
  9
$CMLSTYLE
  2
STANDARD
  9
$CMLJUST
 70
     0
  9
$CMLSCALE
 40
1.0
  9
$PROXYGRAPHICS
 70
     1
  9
$MEASUREMENT
 70
     0
  0
ENDSEC
  0
SECTION
  2
CLASSES
  0
CLASS
  1
DICTIONARYVAR
  2
AcDbDictionaryVar
  3
"AutoCAD"
 90
        0
280
     0
281
     0
  0
CLASS
  1
LWPOLYLINE
  2
AcDbPolyline
  3
"AutoCAD"
 90
        0
280
     0
281
     1
  0
ENDSEC
  0
SECTION
  2
TABLES
  0
TABLE
  2
VPORT
  5
469
100
AcDbSymbolTable
 70
     1
  0
VPORT
  5
4BF
100
AcDbSymbolTableRecord
100
AcDbViewportTableRecord
  2
*ACTIVE
 70
     0
 10
0.0
 20
0.0
 11
1.0
 21
1.0
 12
283.244621
 22
169.500718
 13
0.0
 23
0.0
 14
1.0
 24
1.0
 15
10.0
 25
10.0
 16
0.0
 26
0.0
 36
1.0
 17
0.0
 27
0.0
 37
0.0
 40
339.001436
 41
1.671053
 42
50.0
 43
0.0
 44
0.0
 50
0.0
 51
0.0
 71
     0
 72
   100
 73
     1
 74
     1
 75
     0
 76
     1
 77
     0
 78
     0
  0
ENDTAB
  0
TABLE
  2
LTYPE
  5
466
100
AcDbSymbolTable
 70
    24
  0
LTYPE
  5
472
100
AcDbSymbolTableRecord
100
AcDbLinetypeTableRecord
  2
BYBLOCK
 70
     0
  3

 72
    65
 73
     0
 40
0.0
  0
LTYPE
  5
473
100
AcDbSymbolTableRecord
100
AcDbLinetypeTableRecord
  2
BYLAYER
 70
     0
  3

 72
    65
 73
     0
 40
0.0
  0
LTYPE
  5
474
100
AcDbSymbolTableRecord
100
AcDbLinetypeTableRecord
  2
CONTINUOUS
 70
     0
  3
Solid line
 72
    65
 73
     0
 40
0.0
  0
LTYPE
  5
485
100
AcDbSymbolTableRecord
100
AcDbLinetypeTableRecord
  2
CADRA_SOLID
 70
     0
  3
Cadra_solid
 72
    65
 73
     0
 40
0.0
  0
LTYPE
  5
486
100
AcDbSymbolTableRecord
100
AcDbLinetypeTableRecord
  2
AXES2
 70
     0
  3
___ _ ___ _ ___ _ ___ _ ___ _ ___ _ ___ _ ___ _
 72
    65
 73
     4
 40
1.125
 49
0.75
 74
     0
 49
-0.125
 74
     0
 49
0.125
 74
     0
 49
-0.125
 74
     0
  0
LTYPE
  5
487
100
AcDbSymbolTableRecord
100
AcDbLinetypeTableRecord
  2
AXES
 70
     0
  3
____ _ ____ _ ____ _ ____ _ ____ _ ____ _ ____ 
 72
    65
 73
     4
 40
2.0
 49
1.25
 74
     0
 49
-0.25
 74
     0
 49
0.25
 74
     0
 49
-0.25
 74
     0
  0
LTYPE
  5
488
100
AcDbSymbolTableRecord
100
AcDbLinetypeTableRecord
  2
AXESX2
 70
     0
  3
________  __  ________  __  ________  __  _____
 72
    65
 73
     4
 40
4.0
 49
2.5
 74
     0
 49
-0.5
 74
     0
 49
0.5
 74
     0
 49
-0.5
 74
     0
  0
LTYPE
  5
489
100
AcDbSymbolTableRecord
100
AcDbLinetypeTableRecord
  2
TIRETPT
 70
     0
  3
__ . __ . __ . __ . __ . __ . __ . __ . __ . __
 72
    65
 73
     4
 40
1.0
 49
0.5
 74
     0
 49
-0.25
 74
     0
 49
0.0
 74
     0
 49
-0.25
 74
     0
  0
LTYPE
  5
48A
100
AcDbSymbolTableRecord
100
AcDbLinetypeTableRecord
  2
TIRETPT2
 70
     0
  3
_._._._._._._._._._._._._._._._._._._._._._._._
 72
    65
 73
     4
 40
0.5
 49
0.25
 74
     0
 49
-0.125
 74
     0
 49
0.0
 74
     0
 49
-0.125
 74
     0
  0
LTYPE
  5
48B
100
AcDbSymbolTableRecord
100
AcDbLinetypeTableRecord
  2
TIRETPTX2
 70
     0
  3
____  .  ____  .  ____  .  ____  .  ____  .  __
 72
    65
 73
     4
 40
2.0
 49
1.0
 74
     0
 49
-0.5
 74
     0
 49
0.0
 74
     0
 49
-0.5
 74
     0
  0
LTYPE
  5
48C
100
AcDbSymbolTableRecord
100
AcDbLinetypeTableRecord
  2
DISCONTINU
 70
     0
  3
__ __ __ __ __ __ __ __ __ __ __ __ __ __ __ __
 72
    65
 73
     2
 40
0.75
 49
0.5
 74
     0
 49
-0.25
 74
     0
  0
LTYPE
  5
48D
100
AcDbSymbolTableRecord
100
AcDbLinetypeTableRecord
  2
DISCONTINU2
 70
     0
  3
_ _ _ _ _ _ _ _ _ _ _ _ _ _ _ _ _ _ _ _ _ _ _ _
 72
    65
 73
     2
 40
0.375
 49
0.25
 74
     0
 49
-0.125
 74
     0
  0
LTYPE
  5
48E
100
AcDbSymbolTableRecord
100
AcDbLinetypeTableRecord
  2
DISCONTINUX2
 70
     0
  3
____  ____  ____  ____  ____  ____  ____  ____ 
 72
    65
 73
     2
 40
1.5
 49
1.0
 74
     0
 49
-0.5
 74
     0
  0
LTYPE
  5
48F
100
AcDbSymbolTableRecord
100
AcDbLinetypeTableRecord
  2
DIVISE
 70
     0
  3
____ . . ____ . . ____ . . ____ . . ____ . . __
 72
    65
 73
     6
 40
1.25
 49
0.5
 74
     0
 49
-0.25
 74
     0
 49
0.0
 74
     0
 49
-0.25
 74
     0
 49
0.0
 74
     0
 49
-0.25
 74
     0
  0
LTYPE
  5
490
100
AcDbSymbolTableRecord
100
AcDbLinetypeTableRecord
  2
DIVISE2
 70
     0
  3
__..__..__..__..__..__..__..__..__..__..__..__.
 72
    65
 73
     6
 40
0.625
 49
0.25
 74
     0
 49
-0.125
 74
     0
 49
0.0
 74
     0
 49
-0.125
 74
     0
 49
0.0
 74
     0
 49
-0.125
 74
     0
  0
LTYPE
  5
491
100
AcDbSymbolTableRecord
100
AcDbLinetypeTableRecord
  2
DIVISEX2
 70
     0
  3
________  .  .  ________  .  .  ________  .  . 
 72
    65
 73
     6
 40
2.5
 49
1.0
 74
     0
 49
-0.5
 74
     0
 49
0.0
 74
     0
 49
-0.5
 74
     0
 49
0.0
 74
     0
 49
-0.5
 74
     0
  0
LTYPE
  5
492
100
AcDbSymbolTableRecord
100
AcDbLinetypeTableRecord
  2
POINTILLE
 70
     0
  3
. . . . . . . . . . . . . . . . . . . . . . . .
 72
    65
 73
     2
 40
0.25
 49
0.0
 74
     0
 49
-0.25
 74
     0
  0
LTYPE
  5
493
100
AcDbSymbolTableRecord
100
AcDbLinetypeTableRecord
  2
POINTILLE2
 70
     0
  3
...............................................
 72
    65
 73
     2
 40
0.125
 49
0.0
 74
     0
 49
-0.125
 74
     0
  0
LTYPE
  5
494
100
AcDbSymbolTableRecord
100
AcDbLinetypeTableRecord
  2
POINTILLEX2
 70
     0
  3
.  .  .  .  .  .  .  .  .  .  .  .  .  .  .  . 
 72
    65
 73
     2
 40
0.5
 49
0.0
 74
     0
 49
-0.5
 74
     0
  0
LTYPE
  5
495
100
AcDbSymbolTableRecord
100
AcDbLinetypeTableRecord
  2
CACHE
 70
     0
  3
__ __ __ __ __ __ __ __ __ __ __ __ __ __ __ __
 72
    65
 73
     2
 40
0.375
 49
0.25
 74
     0
 49
-0.125
 74
     0
  0
LTYPE
  5
496
100
AcDbSymbolTableRecord
100
AcDbLinetypeTableRecord
  2
CACHE2
 70
     0
  3
_ _ _ _ _ _ _ _ _ _ _ _ _ _ _ _ _ _ _ _ _ _ _ _
 72
    65
 73
     2
 40
0.1875
 49
0.125
 74
     0
 49
-0.0625
 74
     0
  0
LTYPE
  5
497
100
AcDbSymbolTableRecord
100
AcDbLinetypeTableRecord
  2
CACHEX2
 70
     0
  3
____ ____ ____ ____ ____ ____ ____ ____ ____ __
 72
    65
 73
     2
 40
0.75
 49
0.5
 74
     0
 49
-0.25
 74
     0
  0
LTYPE
  5
498
100
AcDbSymbolTableRecord
100
AcDbLinetypeTableRecord
  2
FANTOME
 70
     0
  3
______  __  __  ______  __  __  ______  __  __ 
 72
    65
 73
     6
 40
2.5
 49
1.25
 74
     0
 49
-0.25
 74
     0
 49
0.25
 74
     0
 49
-0.25
 74
     0
 49
0.25
 74
     0
 49
-0.25
 74
     0
  0
LTYPE
  5
499
100
AcDbSymbolTableRecord
100
AcDbLinetypeTableRecord
  2
FANTOME2
 70
     0
  3
___ _ _ ___ _ _ ___ _ _ ___ _ _ ___ _ _ ___ _ _
 72
    65
 73
     6
 40
1.25
 49
0.625
 74
     0
 49
-0.125
 74
     0
 49
0.125
 74
     0
 49
-0.125
 74
     0
 49
0.125
 74
     0
 49
-0.125
 74
     0
  0
LTYPE
  5
49A
100
AcDbSymbolTableRecord
100
AcDbLinetypeTableRecord
  2
FANTOMEX2
 70
     0
  3
____________    ____    ____    ____________   
 72
    65
 73
     6
 40
5.0
 49
2.5
 74
     0
 49
-0.5
 74
     0
 49
0.5
 74
     0
 49
-0.5
 74
     0
 49
0.5
 74
     0
 49
-0.5
 74
     0
  0
LTYPE
  5
49B
100
AcDbSymbolTableRecord
100
AcDbLinetypeTableRecord
  2
0
 70
     0
  3
MEDUSA PEN 0
 72
    65
 73
     0
 40
0.0
  0
ENDTAB
  0
TABLE
  2
LAYER
  5
463
100
AcDbSymbolTable
 70
    21
  0
LAYER
  5
46F
100
AcDbSymbolTableRecord
100
AcDbLayerTableRecord
  2
0
 70
     0
 62
   102
  6
CADRA_SOLID
  0
LAYER
  5
4A2
100
AcDbSymbolTableRecord
100
AcDbLayerTableRecord
  2
AXE
 70
     0
 62
    80
  6
AXES2
  0
LAYER
  5
4A3
100
AcDbSymbolTableRecord
100
AcDbLayerTableRecord
  2
ALPHA
 70
     0
 62
   255
  6
CONTINUOUS
  0
LAYER
  5
4A4
100
AcDbSymbolTableRecord
100
AcDbLayerTableRecord
  2
CONSTRUCTION
 70
     0
 62
     6
  6
CONTINUOUS
  0
LAYER
  5
4A5
100
AcDbSymbolTableRecord
100
AcDbLayerTableRecord
  2
COTATION1
 70
     0
 62
     2
  6
CONTINUOUS
  0
LAYER
  5
4A6
100
AcDbSymbolTableRecord
100
AcDbLayerTableRecord
  2
HACHURES
 70
     0
 62
     9
  6
CONTINUOUS
  0
LAYER
  5
4A7
100
AcDbSymbolTableRecord
100
AcDbLayerTableRecord
  2
FMULT
 70
     0
 62
     6
  6
CONTINUOUS
  0
LAYER
  5
4A8
100
AcDbSymbolTableRecord
100
AcDbLayerTableRecord
  2
TEXTE
 70
     0
 62
   131
  6
CONTINUOUS
  0
LAYER
  5
4A9
100
AcDbSymbolTableRecord
100
AcDbLayerTableRecord
  2
FDP_CARTOUCHE
 70
     0
 62
     4
  6
CONTINUOUS
  0
LAYER
  5
4AA
100
AcDbSymbolTableRecord
100
AcDbLayerTableRecord
  2
FDP_TEXTES
 70
     0
 62
     5
  6
CONTINUOUS
  0
LAYER
  5
4AB
100
AcDbSymbolTableRecord
100
AcDbLayerTableRecord
  2
FDP_LOGO_MG
 70
     0
 62
    30
  6
CONTINUOUS
  0
LAYER
  5
4AC
100
AcDbSymbolTableRecord
100
AcDbLayerTableRecord
  2
FDP_LOGO_SCH
 70
     0
 62
     3
  6
CONTINUOUS
  0
LAYER
  5
4AD
100
AcDbSymbolTableRecord
100
AcDbLayerTableRecord
  2
FDP_FDP
 70
     0
 62
     5
  6
CONTINUOUS
  0
LAYER
  5
4AE
100
AcDbSymbolTableRecord
100
AcDbLayerTableRecord
  2
COTATION2
 70
     0
 62
     2
  6
CONTINUOUS
  0
LAYER
  5
4AF
100
AcDbSymbolTableRecord
100
AcDbLayerTableRecord
  2
COTATION3
 70
     0
 62
     2
  6
CONTINUOUS
  0
LAYER
  5
4B0
100
AcDbSymbolTableRecord
100
AcDbLayerTableRecord
  2
COTATION4
 70
     0
 62
     2
  6
CONTINUOUS
  0
LAYER
  5
4B1
100
AcDbSymbolTableRecord
100
AcDbLayerTableRecord
  2
ASHADE
 70
     0
 62
     7
  6
CONTINUOUS
  0
LAYER
  5
4B2
100
AcDbSymbolTableRecord
100
AcDbLayerTableRecord
  2
POINTILLE_COURT
 70
     0
 62
    40
  6
CACHE2
  0
LAYER
  5
4B3
100
AcDbSymbolTableRecord
100
AcDbLayerTableRecord
  2
POINTILLE_MOYEN
 70
     0
 62
   140
  6
CACHE
  0
LAYER
  5
4B4
100
AcDbSymbolTableRecord
100
AcDbLayerTableRecord
  2
POINTILLE_LONG
 70
     0
 62
   240
  6
CACHEX2
  0
LAYER
  5
4B5
100
AcDbSymbolTableRecord
100
AcDbLayerTableRecord
  2
DEFPOINTS
 70
     0
 62
     7
  6
CONTINUOUS
  0
ENDTAB
  0
TABLE
  2
STYLE
  5
464
100
AcDbSymbolTable
 70
     4
  0
STYLE
  5
470
100
AcDbSymbolTableRecord
100
AcDbTextStyleTableRecord
  2
STANDARD
 70
     0
 40
0.0
 41
1.0
 50
0.0
 71
     0
 42
5.0
  3
txt
  4

  0
STYLE
  5
482
100
AcDbSymbolTableRecord
100
AcDbTextStyleTableRecord
  2
ROMANS
 70
     0
 40
0.0
 41
1.0
 50
0.0
 71
     0
 42
2.9
  3
romans.shx
  4

  0
STYLE
  5
483
100
AcDbSymbolTableRecord
100
AcDbTextStyleTableRecord
  2
INFOCAR
 70
     0
 40
0.0
 41
1.34
 50
0.0
 71
     0
 42
2.0
  3
ROMANS.SHX
  4

  0
STYLE
  5
484
100
AcDbSymbolTableRecord
100
AcDbTextStyleTableRecord
  2
CARTOUCHE
 70
     0
 40
0.0
 41
1.0
 50
0.0
 71
     0
 42
0.2
  3
ROMANS.SHX
  4

  0
ENDTAB
  0
TABLE
  2
VIEW
  5
467
100
AcDbSymbolTable
 70
     0
  0
ENDTAB
  0
TABLE
  2
UCS
  5
468
100
AcDbSymbolTable
 70
     0
  0
ENDTAB
  0
TABLE
  2
APPID
  5
46A
100
AcDbSymbolTable
 70
     3
  0
APPID
  5
471
100
AcDbSymbolTableRecord
100
AcDbRegAppTableRecord
  2
ACAD
 70
     0
  0
APPID
  5
49E
100
AcDbSymbolTableRecord
100
AcDbRegAppTableRecord
  2
AVE_RENDER
 70
     0
  0
APPID
  5
49F
100
AcDbSymbolTableRecord
100
AcDbRegAppTableRecord
  2
AVE_MATERIAL
 70
     0
  0
ENDTAB
  0
TABLE
  2
DIMSTYLE
  5
46B
100
AcDbSymbolTable
 70
     2
  0
DIMSTYLE
105
4A0
100
AcDbSymbolTableRecord
100
AcDbDimStyleTableRecord
  2
STANDARD
 70
     0
  3

  4

  5

  6

  7

 40
1.0
 41
0.18
 42
0.0625
 43
0.38
 44
0.18
 45
0.0
 46
0.0
 47
0.0
 48
0.0
140
0.18
141
0.09
142
0.0
143
25.4
144
1.0
145
0.0
146
1.0
147
0.09
 71
     0
 72
     0
 73
     1
 74
     1
 75
     0
 76
     0
 77
     0
 78
     0
170
     0
171
     2
172
     0
173
     0
174
     0
175
     0
176
     0
177
     0
178
     0
270
     2
271
     3
272
     3
273
     2
274
     2
340
482
275
     0
280
     0
281
     0
282
     0
283
     1
284
    12
285
    12
286
    12
287
     5
288
     0
  0
DIMSTYLE
105
4A1
102
{ACAD_REACTORS
330
451
102
}
100
AcDbSymbolTableRecord
100
AcDbDimStyleTableRecord
  2
SC_STAND
 70
     0
  3

  4

  5

  6

  7

 40
1.0
 41
3.0
 42
0.0625
 43
0.38
 44
0.18
 45
0.01
 46
0.0
 47
0.0
 48
0.0
140
2.5
141
0.09
142
0.0
143
25.4
144
1.0
145
0.0
146
1.0
147
1.0
 71
     0
 72
     0
 73
     0
 74
     0
 75
     0
 76
     0
 77
     1
 78
    12
170
     0
171
     2
172
     1
173
     0
174
     0
175
     0
176
     0
177
     0
178
     0
270
     2
271
     3
272
     3
273
     2
274
     2
340
482
275
     0
280
     0
281
     0
282
     0
283
     1
284
    12
285
    12
286
    12
287
     5
288
     0
  0
ENDTAB
  0
TABLE
  2
BLOCK_RECORD
  5
462
100
AcDbSymbolTable
 70
     5
  0
BLOCK_RECORD
  5
478
100
AcDbSymbolTableRecord
100
AcDbBlockTableRecord
  2
*MODEL_SPACE
  0
BLOCK_RECORD
  5
475
100
AcDbSymbolTableRecord
100
AcDbBlockTableRecord
  2
*PAPER_SPACE
  0
BLOCK_RECORD
  5
47D
100
AcDbSymbolTableRecord
100
AcDbBlockTableRecord
  2
AVE_RENDER
  0
BLOCK_RECORD
  5
47E
100
AcDbSymbolTableRecord
100
AcDbBlockTableRecord
  2
AVE_GLOBAL
  0
BLOCK_RECORD
  5
47F
100
AcDbSymbolTableRecord
100
AcDbBlockTableRecord
  2
SCH_ISO
  0
BLOCK_RECORD
  5
481
100
AcDbSymbolTableRecord
100
AcDbBlockTableRecord
  2
*D4
  0
ENDTAB
  0
ENDSEC
  0
SECTION
  2
BLOCKS
  0
BLOCK
  5
4B8
100
AcDbEntity
  8
0
100
AcDbBlockBegin
  2
*MODEL_SPACE
 70
     0
 10
0.0
 20
0.0
 30
0.0
  3
*MODEL_SPACE
  1

  0
ENDBLK
  5
4B9
100
AcDbEntity
  8
0
100
AcDbBlockEnd
  0
BLOCK
  5
4B6
100
AcDbEntity
 67
     1
  8
0
100
AcDbBlockBegin
  2
*PAPER_SPACE
 70
     0
 10
0.0
 20
0.0
 30
0.0
  3
*PAPER_SPACE
  1

  0
ENDBLK
  5
4B7
100
AcDbEntity
 67
     1
  8
0
100
AcDbBlockEnd
  0
BLOCK
  5
405
100
AcDbEntity
  8
0
100
AcDbBlockBegin
  2
AVE_RENDER
 70
     0
 10
0.0
 20
0.0
 30
0.0
  3
AVE_RENDER
  1
AVE_RENDER
  0
ENDBLK
  5
406
100
AcDbEntity
  8
0
100
AcDbBlockEnd
  0
BLOCK
  5
408
100
AcDbEntity
  8
0
100
AcDbBlockBegin
  2
AVE_GLOBAL
 70
     0
 10
0.0
 20
0.0
 30
0.0
  3
AVE_GLOBAL
  1
AVE_GLOBAL
  0
ENDBLK
  5
409
100
AcDbEntity
  8
0
100
AcDbBlockEnd
  0
BLOCK
  5
441
100
AcDbEntity
  8
0
100
AcDbBlockBegin
  2
SCH_ISO
 70
     0
 10
0.0
 20
0.0
 30
0.0
  3
SCH_ISO
  1

  0
INSERT
  5
438
100
AcDbEntity
  8
ASHADE
 62
     1
100
AcDbBlockReference
  2
AVE_RENDER
 10
0.0
 20
0.0
 30
0.0
1001
AVE_RENDER
1002
{
1070
     6
1000
Pref
1070
    50
1070
    20
1070
     1
1070
     0
1000

1070
    10
1070
     1
1070
    30
1040
25.4
1070
     1
1040
0.3
1040
0.7
1040
0.0
1040
10.0
1010
-1.0
1020
-1.0
1030
-1.0
1040
0.3
1070
    49
1070
     0
1070
     0
1010
1.0
1020
1.0
1030
1.0
1040
45.0
1070
     1
1070
     0
1000
WCS
1040
0.0
1002
}
  0
INSERT
  5
439
100
AcDbEntity
  8
ASHADE
 62
     3
100
AcDbBlockReference
  2
AVE_RENDER
 10
0.0
 20
0.0
 30
0.0
1001
AVE_RENDER
1002
{
1070
     0
1000
Full Opt
1070
     0
1070
     1
1070
     1
1070
     1
1070
     0
1070
     0
1070
     0
1070
     1
1070
     1
1040
0.0001
1040
0.0001
1002
}
  0
INSERT
  5
43A
100
AcDbEntity
  8
ASHADE
 62
     4
100
AcDbBlockReference
  2
AVE_RENDER
 10
0.0
 20
0.0
 30
0.0
1001
AVE_RENDER
1002
{
1070
     0
1000
Quick Opt
1070
     0
1070
     1
1070
     1
1070
     1
1070
     0
1070
     0
1070
     1
1002
}
  0
INSERT
  5
43B
100
AcDbEntity
  8
ASHADE
 62
     5
100
AcDbBlockReference
  2
AVE_RENDER
 10
0.0
 20
0.0
 30
0.0
1001
AVE_RENDER
1002
{
1070
     1
1000
Scanl Opt
1070
     2
1070
     0
1070
     2
1040
2.0
1040
4.0
1070
     0
1070
     1
1070
     0
1040
0.03
1002
}
  0
INSERT
  5
43C
100
AcDbEntity
  8
ASHADE
 62
     6
100
AcDbBlockReference
  2
AVE_RENDER
 10
0.0
 20
0.0
 30
0.0
1001
AVE_RENDER
1002
{
1070
     2
1000
Raytr Opt
1070
     2
1070
     0
1070
     2
1040
2.0
1040
4.0
1070
     0
1070
     1
1070
     1
1040
0.03
1070
     3
1040
0.03
1002
}
  0
INSERT
  5
43D
100
AcDbEntity
  8
ASHADE
 62
     7
100
AcDbBlockReference
  2
AVE_RENDER
 10
0.0
 20
0.0
 30
0.0
1001
AVE_RENDER
1002
{
1070
     0
1000
RFile Opt
1070
     5
1070
   640
1070
   480
1070
 10000
1070
     3
1070
    32
1070
    24
1070
     0
1070
     0
1070
     0
1070
     1
1070
     0
1070
     0
1070
     0
1002
}
  0
INSERT
  5
43E
100
AcDbEntity
  8
ASHADE
 62
     8
100
AcDbBlockReference
  2
AVE_RENDER
 10
0.0
 20
0.0
 30
0.0
1001
AVE_RENDER
1002
{
1070
     0
1000
Fog Opt
1070
     0
1070
     0
1040
0.0
1040
1.0
1040
0.0
1040
1.0
1010
0.5
1020
0.5
1030
0.5
1002
}
  0
INSERT
  5
43F
100
AcDbEntity
  8
ASHADE
 62
     9
100
AcDbBlockReference
  2
AVE_RENDER
 10
0.0
 20
0.0
 30
0.0
1001
AVE_RENDER
1002
{
1070
     0
1000
BG Opt
1070
     0
1070
     1
1010
0.0
1020
0.0
1030
0.0
1010
1.0
1020
0.0
1030
0.0
1010
0.0
1020
1.0
1030
0.0
1010
0.0
1020
0.0
1030
1.0
1040
0.5
1040
0.33
1040
0.0
1000

1070
     1
1000

1070
     1
1070
     1
1040
1.0
1040
1.0
1040
0.0
1040
0.0
1070
     0
1002
}
  0
INSERT
  5
440
100
AcDbEntity
  8
ASHADE
 62
     1
100
AcDbBlockReference
  2
AVE_GLOBAL
 10
0.0
 20
0.0
 30
0.0
1001
AVE_MATERIAL
1002
{
1000
*GLOBAL*
1000
1
1000
Finition globale.
1002
{
1002
}
1002
{
1070
    63
1002
{
1002
{
1010
-1.0
1020
-1.0
1030
-1.0
1002
}
1040
0.1
1000

1040
0.0
1002
{
1002
}
1040
0.0
1002
{
1002
}
1040
0.0
1002
}
1002
{
1002
{
1010
-1.0
1020
-1.0
1030
-1.0
1002
}
1040
0.7
1000

1040
0.0
1002
{
1002
}
1040
0.0
1002
{
1002
}
1040
0.0
1002
}
1002
{
1002
{
1010
-1.0
1020
-1.0
1030
-1.0
1002
}
1040
0.2
1000

1040
0.0
1002
{
1002
}
1040
0.0
1002
{
1002
}
1040
0.0
1002
}
1002
{
1070
     0
1002
{
1070
     1
1002
{
1040
1.0
1040
1.0
1000

1040
0.0
1002
{
1002
}
1040
0.0
1002
{
1002
}
1040
0.0
1002
}
1002
}
1040
1.0
1040
0.0
1040
0.0
1002
}
1002
{
1040
1.0
1040
1.0
1000

1040
0.0
1002
{
1002
}
1040
0.0
1002
{
1002
}
1040
0.0
1002
}
1002
{
1040
0.5
1040
1.0
1000

1040
0.0
1002
{
1002
}
1040
0.0
1002
{
1002
}
1040
0.0
1002
}
1002
{
1070
     0
1040
0.0
1002
{
1002
}
1040
1.0
1002
{
1002
}
1040
0.0
1002
}
1002
{
1040
0.0
1002
{
1002
{
1010
0.0
1020
0.0
1030
0.0
1002
}
1040
1.0
1000

1040
0.0
1002
{
1002
}
1040
0.0
1002
{
1002
}
1040
0.0
1002
}
1002
}
1002
{
1002
{
1070
     1
1002
{
1040
0.0
1040
1.0
1000

1040
0.0
1002
{
1002
}
1040
0.0
1002
{
1002
}
1040
0.0
1002
}
1002
}
1040
0.0
1002
{
1002
}
1010
1.0
1020
0.0
1030
0.0
1010
0.0
1020
1.0
1030
0.0
1010
0.0
1020
0.0
1030
1.0
1070
     0
1002
}
1002
{
1002
{
1040
1.0
1040
1.0
1002
{
1070
     1
1002
{
1040
1.0
1040
1.0
1000

1040
0.0
1002
{
1002
}
1040
0.0
1002
{
1002
}
1040
0.0
1002
}
1002
}
1002
}
1070
     0
1040
0.0
1002
{
1002
}
1002
}
1002
{
1002
}
1002
}
1002
{
1071
        3
1070
     3
1070
     0
1002
{
1070
     2
1070
     0
1070
     0
1040
0.0
1002
}
1070
     0
1070
     2
1002
{
1002
}
1002
}
1002
{
1040
8030.0
1040
190.300003
1040
0.305
1040
228.0
1040
545.0
1040
14.0
1040
17.4
1040
0.456
1002
}
1002
}
  0
ENDBLK
  5
442
100
AcDbEntity
  8
0
100
AcDbBlockEnd
  0
BLOCK
  5
457
100
AcDbEntity
  8
0
100
AcDbBlockBegin
  2
*D4
 70
     1
 10
0.0
 20
0.0
 30
0.0
  3
*D4
  1

  0
LINE
  5
458
100
AcDbEntity
  8
0
  6
BYBLOCK
 62
     0
100
AcDbLine
 10
82.444776
 20
155.885253
 30
0.0
 11
82.444776
 21
138.717917
 31
0.0
  0
LINE
  5
459
100
AcDbEntity
  8
0
  6
BYBLOCK
 62
     0
100
AcDbLine
 10
121.236906
 20
155.885253
 30
0.0
 11
121.236906
 21
138.717917
 31
0.0
  0
LINE
  5
45A
100
AcDbEntity
  8
0
  6
BYBLOCK
 62
     0
100
AcDbLine
 10
85.444776
 20
138.897917
 30
0.0
 11
118.236906
 21
138.897917
 31
0.0
  0
SOLID
  5
45B
100
AcDbEntity
  8
0
  6
BYBLOCK
 62
     0
100
AcDbTrace
 10
85.444776
 20
139.397917
 30
0.0
 11
85.444776
 21
138.397917
 31
0.0
 12
82.444776
 22
138.897917
 32
0.0
 13
82.444776
 23
138.897917
 33
0.0
  0
SOLID
  5
45C
100
AcDbEntity
  8
0
  6
BYBLOCK
 62
     0
100
AcDbTrace
 10
118.236906
 20
139.397917
 30
0.0
 11
118.236906
 21
138.397917
 31
0.0
 12
121.236906
 22
138.897917
 32
0.0
 13
121.236906
 23
138.897917
 33
0.0
  0
TEXT
  5
45D
100
AcDbEntity
  8
0
  6
BYBLOCK
 62
     0
100
AcDbText
 10
96.543222
 20
140.147917
 30
0.0
 40
2.5
  1
38.79
  7
ROMANS
 72
     1
 11
101.840841
 21
141.397917
 31
0.0
100
AcDbText
 73
     2
  0
POINT
  5
45E
100
AcDbEntity
  8
DEFPOINTS
  6
BYBLOCK
 62
     0
100
AcDbPoint
 10
82.444776
 20
155.947753
 30
0.0
  0
POINT
  5
45F
100
AcDbEntity
  8
DEFPOINTS
  6
BYBLOCK
 62
     0
100
AcDbPoint
 10
121.236906
 20
155.947753
 30
0.0
  0
POINT
  5
460
100
AcDbEntity
  8
DEFPOINTS
  6
BYBLOCK
 62
     0
100
AcDbPoint
 10
121.236906
 20
138.897917
 30
0.0
  0
ENDBLK
  5
461
100
AcDbEntity
  8
0
100
AcDbBlockEnd
  0
ENDSEC
  0
SECTION
  2
ENTITIES
  0
LINE
  5
1E
100
AcDbEntity
  8
ALPHA
100
AcDbLine
 10
83.982435
 20
153.497809
 30
0.0
 11
85.17848
 21
153.497809
 31
0.0
  0
LINE
  5
20
100
AcDbEntity
  8
ALPHA
100
AcDbLine
 10
82.444776
 20
155.947753
 30
0.0
 11
83.93971
 21
155.947753
 31
0.0
  0
LINE
  5
21
100
AcDbEntity
  8
ALPHA
100
AcDbLine
 10
82.444776
 20
182.547791
 30
0.0
 11
83.93971
 21
182.547791
 31
0.0
  0
LINE
  5
22
100
AcDbEntity
  8
ALPHA
100
AcDbLine
 10
92.871778
 20
155.747802
 30
0.0
 11
93.817762
 21
155.747802
 31
0.0
  0
LINE
  5
23
100
AcDbEntity
  8
ALPHA
100
AcDbLine
 10
110.071851
 20
182.747742
 30
0.0
 11
111.017774
 21
182.747742
 31
0.0
  0
LINE
  5
24
100
AcDbEntity
  8
ALPHA
100
AcDbLine
 10
101.471815
 20
182.747742
 30
0.0
 11
102.417737
 21
182.747742
 31
0.0
  0
LINE
  5
25
100
AcDbEntity
  8
ALPHA
100
AcDbLine
 10
92.871839
 20
182.747742
 30
0.0
 11
93.817762
 21
182.747742
 31
0.0
  0
LINE
  5
26
100
AcDbEntity
  8
ALPHA
100
AcDbLine
 10
101.471815
 20
155.747802
 30
0.0
 11
102.417737
 21
155.747802
 31
0.0
  0
LINE
  5
27
100
AcDbEntity
  8
ALPHA
100
AcDbLine
 10
110.071851
 20
155.747802
 30
0.0
 11
111.017774
 21
155.747802
 31
0.0
  0
LINE
  5
28
100
AcDbEntity
  8
ALPHA
100
AcDbLine
 10
85.178464
 20
153.497787
 30
0.0
 11
85.2413
 21
157.097777
 31
0.0
  0
LINE
  5
29
100
AcDbEntity
  8
ALPHA
100
AcDbLine
 10
110.068403
 20
155.942977
 30
0.0
 11
110.120679
 21
152.947762
 31
0.0
  0
LINE
  5
2A
100
AcDbEntity
  8
ALPHA
100
AcDbLine
 10
110.96887
 20
152.947746
 30
0.0
 11
111.020658
 21
155.914519
 31
0.0
  0
LINE
  5
2B
100
AcDbEntity
  8
ALPHA
100
AcDbLine
 10
92.867673
 20
155.984084
 30
0.0
 11
92.920682
 21
152.947746
 31
0.0
  0
LINE
  5
2C
100
AcDbEntity
  8
ALPHA
100
AcDbLine
 10
93.768857
 20
152.947754
 30
0.0
 11
93.821653
 21
155.971663
 31
0.0
  0
LINE
  5
2D
100
AcDbEntity
  8
ALPHA
100
AcDbLine
 10
101.468503
 20
155.936385
 30
0.0
 11
101.520689
 21
152.947754
 31
0.0
  0
LINE
  5
2E
100
AcDbEntity
  8
ALPHA
100
AcDbLine
 10
102.368864
 20
152.947754
 30
0.0
 11
102.421354
 21
155.954284
 31
0.0
  0
LINE
  5
2F
100
AcDbEntity
  8
ALPHA
100
AcDbLine
 10
85.241285
 20
181.39772
 30
0.0
 11
85.178434
 21
184.997673
 31
0.0
  0
LINE
  5
30
100
AcDbEntity
  8
ALPHA
100
AcDbLine
 10
110.120695
 20
185.547722
 30
0.0
 11
110.068754
 21
182.57196
 31
0.0
  0
LINE
  5
31
100
AcDbEntity
  8
ALPHA
100
AcDbLine
 10
111.020811
 20
182.57135
 30
0.0
 11
110.968854
 21
185.547691
 31
0.0
  0
LINE
  5
32
100
AcDbEntity
  8
ALPHA
100
AcDbLine
 10
92.920682
 20
185.547722
 30
0.0
 11
92.869123
 21
182.593307
 31
0.0
  0
LINE
  5
33
100
AcDbEntity
  8
ALPHA
100
AcDbLine
 10
93.820768
 20
182.573257
 30
0.0
 11
93.768857
 21
185.547691
 31
0.0
  0
LINE
  5
34
100
AcDbEntity
  8
ALPHA
100
AcDbLine
 10
101.520689
 20
185.547722
 30
0.0
 11
101.469221
 21
182.598892
 31
0.0
  0
LINE
  5
35
100
AcDbEntity
  8
ALPHA
100
AcDbLine
 10
102.419828
 20
182.627319
 30
0.0
 11
102.368848
 21
185.547691
 31
0.0
  0
LINE
  5
36
100
AcDbEntity
  8
ALPHA
100
AcDbLine
 10
102.618848
 20
185.547722
 30
0.0
 11
101.270704
 21
185.547722
 31
0.0
  0
LINE
  5
37
100
AcDbEntity
  8
ALPHA
100
AcDbLine
 10
92.920728
 20
185.547722
 30
0.0
 11
93.768873
 21
185.547722
 31
0.0
  0
LINE
  5
38
100
AcDbEntity
  8
ALPHA
100
AcDbLine
 10
110.12074
 20
185.547722
 30
0.0
 11
110.968885
 21
185.547722
 31
0.0
  0
LINE
  5
39
100
AcDbEntity
  8
ALPHA
100
AcDbLine
 10
92.920728
 20
152.947762
 30
0.0
 11
93.768873
 21
152.947762
 31
0.0
  0
LINE
  5
3A
100
AcDbEntity
  8
ALPHA
100
AcDbLine
 10
101.270704
 20
152.947762
 30
0.0
 11
102.618848
 21
152.947762
 31
0.0
  0
LINE
  5
3B
100
AcDbEntity
  8
ALPHA
100
AcDbLine
 10
110.120679
 20
152.947762
 30
0.0
 11
110.968885
 21
152.947762
 31
0.0
  0
LINE
  5
3C
100
AcDbEntity
  8
ALPHA
100
AcDbLine
 10
83.982404
 20
153.497832
 30
0.0
 11
83.939634
 21
155.947768
 31
0.0
  0
LINE
  5
3D
100
AcDbEntity
  8
ALPHA
100
AcDbLine
 10
85.241346
 20
157.097777
 30
0.0
 11
82.444776
 21
157.097777
 31
0.0
  0
LINE
  5
3E
100
AcDbEntity
  8
ALPHA
100
AcDbLine
 10
83.982435
 20
184.997673
 30
0.0
 11
85.17848
 21
184.997673
 31
0.0
  0
LINE
  5
3F
100
AcDbEntity
  8
ALPHA
100
AcDbLine
 10
83.982419
 20
184.997643
 30
0.0
 11
83.939649
 21
182.547699
 31
0.0
  0
LINE
  5
40
100
AcDbEntity
  8
ALPHA
100
AcDbLine
 10
85.241285
 20
181.397705
 30
0.0
 11
82.444776
 21
181.397705
 31
0.0
  0
LINE
  5
41
100
AcDbEntity
  8
ALPHA
100
AcDbLine
 10
92.87367
 20
182.852722
 30
0.0
 11
93.81587
 21
182.852722
 31
0.0
  0
LINE
  5
42
100
AcDbEntity
  8
ALPHA
100
AcDbLine
 10
82.444776
 20
181.502747
 30
0.0
 11
85.244825
 21
181.502747
 31
0.0
  0
LINE
  5
43
100
AcDbEntity
  8
ALPHA
100
AcDbLine
 10
82.444776
 20
156.992827
 30
0.0
 11
85.244825
 21
156.992827
 31
0.0
  0
LINE
  5
44
100
AcDbEntity
  8
ALPHA
100
AcDbLine
 10
92.873609
 20
155.64276
 30
0.0
 11
93.815931
 21
155.64276
 31
0.0
  0
LINE
  5
45
100
AcDbEntity
  8
ALPHA
100
AcDbLine
 10
101.473646
 20
155.64276
 30
0.0
 11
102.415906
 21
155.64276
 31
0.0
  0
LINE
  5
46
100
AcDbEntity
  8
ALPHA
100
AcDbLine
 10
110.073621
 20
155.64276
 30
0.0
 11
111.015943
 21
155.64276
 31
0.0
  0
LINE
  5
47
100
AcDbEntity
  8
ALPHA
100
AcDbLine
 10
110.073682
 20
182.852722
 30
0.0
 11
111.015882
 21
182.852722
 31
0.0
  0
LINE
  5
48
100
AcDbEntity
  8
ALPHA
100
AcDbLine
 10
101.473646
 20
182.852722
 30
0.0
 11
102.415906
 21
182.852722
 31
0.0
  0
LINE
  5
49
100
AcDbEntity
  8
ALPHA
100
AcDbLine
 10
102.669736
 20
182.631683
 30
0.0
 11
102.618864
 21
185.547752
 31
0.0
  0
LINE
  5
4A
100
AcDbEntity
  8
ALPHA
100
AcDbLine
 10
101.219297
 20
182.603241
 30
0.0
 11
101.270719
 21
185.547722
 31
0.0
  0
LINE
  5
4B
100
AcDbEntity
  8
ALPHA
100
AcDbLine
 10
102.670682
 20
155.917769
 30
0.0
 11
102.618864
 21
152.947784
 31
0.0
  0
LINE
  5
4C
100
AcDbEntity
  8
ALPHA
100
AcDbLine
 10
101.218564
 20
155.936217
 30
0.0
 11
101.270734
 21
152.947784
 31
0.0
  0
LINE
  5
4D
100
AcDbEntity
  8
ALPHA
100
AcDbLine
 10
101.229688
 20
183.198792
 30
0.0
 11
101.479688
 21
183.198792
 31
0.0
  0
LINE
  5
4E
100
AcDbEntity
  8
ALPHA
100
AcDbLine
 10
102.409864
 20
183.198792
 30
0.0
 11
102.659864
 21
183.198792
 31
0.0
  0
LINE
  5
4F
100
AcDbEntity
  8
ALPHA
100
AcDbLine
 10
101.229688
 20
155.296691
 30
0.0
 11
101.479688
 21
155.296691
 31
0.0
  0
LINE
  5
50
100
AcDbEntity
  8
ALPHA
100
AcDbLine
 10
102.409864
 20
155.296691
 30
0.0
 11
102.659864
 21
155.296691
 31
0.0
  0
LINE
  5
51
100
AcDbEntity
  8
ALPHA
100
AcDbLine
 10
119.907117
 20
153.497809
 30
0.0
 11
118.711072
 21
153.497809
 31
0.0
  0
LINE
  5
52
100
AcDbEntity
  8
ALPHA
100
AcDbLine
 10
121.236906
 20
155.947753
 30
0.0
 11
119.949842
 21
155.947753
 31
0.0
  0
LINE
  5
53
100
AcDbEntity
  8
ALPHA
100
AcDbLine
 10
121.236906
 20
182.547791
 30
0.0
 11
119.949842
 21
182.547791
 31
0.0
  0
LINE
  5
54
100
AcDbEntity
  8
ALPHA
100
AcDbLine
 10
118.711103
 20
153.497787
 30
0.0
 11
118.648267
 21
157.097793
 31
0.0
  0
LINE
  5
55
100
AcDbEntity
  8
ALPHA
100
AcDbLine
 10
118.648275
 20
181.39772
 30
0.0
 11
118.711111
 21
184.997673
 31
0.0
  0
LINE
  5
56
100
AcDbEntity
  8
ALPHA
100
AcDbLine
 10
119.907156
 20
153.49784
 30
0.0
 11
119.949918
 21
155.947783
 31
0.0
  0
LINE
  5
57
100
AcDbEntity
  8
ALPHA
100
AcDbLine
 10
118.648206
 20
157.097777
 30
0.0
 11
121.236906
 21
157.097777
 31
0.0
  0
LINE
  5
58
100
AcDbEntity
  8
ALPHA
100
AcDbLine
 10
119.907117
 20
184.997673
 30
0.0
 11
118.711072
 21
184.997673
 31
0.0
  0
LINE
  5
59
100
AcDbEntity
  8
ALPHA
100
AcDbLine
 10
119.907148
 20
184.997643
 30
0.0
 11
119.949911
 21
182.547699
 31
0.0
  0
LINE
  5
5A
100
AcDbEntity
  8
ALPHA
100
AcDbLine
 10
118.648267
 20
181.397705
 30
0.0
 11
121.236906
 21
181.397705
 31
0.0
  0
LINE
  5
5B
100
AcDbEntity
  8
ALPHA
100
AcDbLine
 10
121.236906
 20
181.502747
 30
0.0
 11
118.644727
 21
181.502747
 31
0.0
  0
LINE
  5
5C
100
AcDbEntity
  8
ALPHA
100
AcDbLine
 10
121.236906
 20
156.992827
 30
0.0
 11
118.644727
 21
156.992827
 31
0.0
  0
LINE
  5
5D
100
AcDbEntity
  8
ALPHA
100
AcDbLine
 10
121.236906
 20
182.547791
 30
0.0
 11
121.236906
 21
155.947753
 31
0.0
  0
LINE
  5
5E
100
AcDbEntity
  8
ALPHA
100
AcDbLine
 10
84.750165
 20
157.447753
 30
0.0
 11
84.750165
 21
157.142364
 31
0.0
  0
LINE
  5
5F
100
AcDbEntity
  8
ALPHA
100
AcDbLine
 10
85.251432
 20
155.597777
 30
0.0
 11
86.349287
 21
155.597777
 31
0.0
  0
LINE
  5
60
100
AcDbEntity
  8
ALPHA
100
AcDbLine
 10
86.349271
 20
155.597747
 30
0.0
 11
86.699247
 21
155.947738
 31
0.0
  0
LINE
  5
61
100
AcDbEntity
  8
ALPHA
100
AcDbLine
 10
85.349287
 20
157.641662
 30
0.0
 11
85.349287
 21
155.597777
 31
0.0
  0
LINE
  5
62
100
AcDbEntity
  8
ALPHA
100
AcDbLine
 10
119.139387
 20
157.447753
 30
0.0
 11
119.139387
 21
157.141692
 31
0.0
  0
LINE
  5
63
100
AcDbEntity
  8
ALPHA
100
AcDbLine
 10
117.190305
 20
155.947753
 30
0.0
 11
86.699262
 21
155.947753
 31
0.0
  0
LINE
  5
64
100
AcDbEntity
  8
ALPHA
100
AcDbLine
 10
118.58975
 20
155.597777
 30
0.0
 11
117.540281
 21
155.597777
 31
0.0
  0
LINE
  5
65
100
AcDbEntity
  8
ALPHA
100
AcDbLine
 10
117.540273
 20
155.597762
 30
0.0
 11
117.190305
 21
155.947722
 31
0.0
  0
LINE
  5
66
100
AcDbEntity
  8
ALPHA
100
AcDbLine
 10
118.540266
 20
157.641662
 30
0.0
 11
118.540266
 21
155.597777
 31
0.0
  0
LINE
  5
67
100
AcDbEntity
  8
ALPHA
100
AcDbLine
 10
82.444807
 20
155.947753
 30
0.0
 11
82.444807
 21
182.547791
 31
0.0
  0
LINE
  5
68
100
AcDbEntity
  8
ALPHA
100
AcDbLine
 10
84.750165
 20
181.047729
 30
0.0
 11
84.750165
 21
181.269104
 31
0.0
  0
LINE
  5
69
100
AcDbEntity
  8
ALPHA
100
AcDbLine
 10
85.260328
 20
182.897705
 30
0.0
 11
86.349287
 21
182.897705
 31
0.0
  0
LINE
  5
6A
100
AcDbEntity
  8
ALPHA
100
AcDbLine
 10
86.349332
 20
182.897675
 30
0.0
 11
86.699308
 21
182.547699
 31
0.0
  0
LINE
  5
6B
100
AcDbEntity
  8
ALPHA
100
AcDbLine
 10
121.244779
 20
157.784026
 30
0.0
 11
121.244779
 21
180.711456
 31
0.0
  0
LINE
  5
6C
100
AcDbEntity
  8
ALPHA
100
AcDbLine
 10
119.139387
 20
181.047729
 30
0.0
 11
119.139387
 21
181.326111
 31
0.0
  0
LINE
  5
6D
100
AcDbEntity
  8
ALPHA
100
AcDbLine
 10
117.190305
 20
182.547729
 30
0.0
 11
86.699262
 21
182.547729
 31
0.0
  0
LINE
  5
6E
100
AcDbEntity
  8
ALPHA
100
AcDbLine
 10
118.605665
 20
182.897705
 30
0.0
 11
117.540281
 21
182.897705
 31
0.0
  0
LINE
  5
6F
100
AcDbEntity
  8
ALPHA
100
AcDbLine
 10
117.540296
 20
182.89772
 30
0.0
 11
117.190328
 21
182.54776
 31
0.0
  0
LINE
  5
70
100
AcDbEntity
  8
ALPHA
100
AcDbLine
 10
118.540266
 20
180.853821
 30
0.0
 11
118.540266
 21
182.897705
 31
0.0
  0
LINE
  5
71
100
AcDbEntity
  8
ALPHA
100
AcDbLine
 10
119.644773
 20
170.197754
 30
0.0
 11
119.644773
 21
168.297729
 31
0.0
  0
LINE
  5
72
100
AcDbEntity
  8
ALPHA
100
AcDbLine
 10
114.244764
 20
170.197754
 30
0.0
 11
114.244764
 21
168.297729
 31
0.0
  0
LINE
  5
73
100
AcDbEntity
  8
ALPHA
100
AcDbLine
 10
114.244764
 20
168.297729
 30
0.0
 11
119.644773
 21
168.297729
 31
0.0
  0
LINE
  5
74
100
AcDbEntity
  8
ALPHA
100
AcDbLine
 10
114.244764
 20
170.197754
 30
0.0
 11
119.644773
 21
170.197754
 31
0.0
  0
LINE
  5
75
100
AcDbEntity
  8
ALPHA
100
AcDbLine
 10
111.744733
 20
175.429077
 30
0.0
 11
111.744733
 21
177.016479
 31
0.0
  0
LINE
  5
76
100
AcDbEntity
  8
ALPHA
100
AcDbLine
 10
117.944746
 20
175.429077
 30
0.0
 11
117.944746
 21
177.016479
 31
0.0
  0
ARC
  5
77
100
AcDbEntity
  8
ALPHA
100
AcDbCircle
 10
114.844739
 20
176.222778
 30
0.0
 40
3.2
100
AcDbArc
 50
14.361624
 51
165.638371
  0
ARC
  5
78
100
AcDbEntity
  8
ALPHA
100
AcDbCircle
 10
114.844739
 20
176.222778
 30
0.0
 40
3.2
100
AcDbArc
 50
194.361625
 51
345.63839
  0
LINE
  5
79
100
AcDbEntity
  8
ALPHA
100
AcDbLine
 10
111.744733
 20
161.479003
 30
0.0
 11
111.744733
 21
163.066405
 31
0.0
  0
LINE
  5
7A
100
AcDbEntity
  8
ALPHA
100
AcDbLine
 10
117.944746
 20
161.479003
 30
0.0
 11
117.944746
 21
163.066405
 31
0.0
  0
ARC
  5
7B
100
AcDbEntity
  8
ALPHA
100
AcDbCircle
 10
114.844739
 20
162.272704
 30
0.0
 40
3.2
100
AcDbArc
 50
14.361624
 51
165.638371
  0
ARC
  5
7C
100
AcDbEntity
  8
ALPHA
100
AcDbCircle
 10
114.844739
 20
162.272704
 30
0.0
 40
3.2
100
AcDbArc
 50
194.361625
 51
345.63839
  0
LINE
  5
7D
100
AcDbEntity
  8
ALPHA
100
AcDbLine
 10
82.674787
 20
157.641662
 30
0.0
 11
85.349287
 21
157.641662
 31
0.0
  0
LINE
  5
7E
100
AcDbEntity
  8
ALPHA
100
AcDbLine
 10
82.644819
 20
157.584014
 30
0.0
 11
84.14665
 21
157.584014
 31
0.0
  0
LINE
  5
7F
100
AcDbEntity
  8
ALPHA
100
AcDbLine
 10
84.149274
 20
157.584014
 30
0.0
 11
84.149274
 21
157.447753
 31
0.0
  0
ARC
  5
80
100
AcDbEntity
  8
ALPHA
100
AcDbCircle
 10
82.674787
 20
157.871673
 30
0.0
 40
0.23
100
AcDbArc
 50
180.000032
 51
270.000028
  0
ARC
  5
81
100
AcDbEntity
  8
ALPHA
100
AcDbCircle
 10
82.644819
 20
157.784026
 30
0.0
 40
0.2
100
AcDbArc
 50
180.000032
 51
270.000028
  0
LINE
  5
82
100
AcDbEntity
  8
ALPHA
100
AcDbLine
 10
84.149274
 20
157.447753
 30
0.0
 11
84.750165
 21
157.447753
 31
0.0
  0
ARC
  5
83
100
AcDbEntity
  8
ALPHA
100
AcDbCircle
 10
85.329145
 20
153.727332
 30
0.0
 40
3.765213
100
AcDbArc
 50
89.693498
 51
98.845514
  0
LINE
  5
84
100
AcDbEntity
  8
ALPHA
100
AcDbLine
 10
85.349287
 20
180.853821
 30
0.0
 11
85.349287
 21
182.897705
 31
0.0
  0
LINE
  5
85
100
AcDbEntity
  8
ALPHA
100
AcDbLine
 10
82.674787
 20
180.853821
 30
0.0
 11
85.349287
 21
180.853821
 31
0.0
  0
LINE
  5
86
100
AcDbEntity
  8
ALPHA
100
AcDbLine
 10
82.644819
 20
180.911469
 30
0.0
 11
84.14665
 21
180.911469
 31
0.0
  0
LINE
  5
87
100
AcDbEntity
  8
ALPHA
100
AcDbLine
 10
84.149274
 20
180.911469
 30
0.0
 11
84.149274
 21
181.047729
 31
0.0
  0
ARC
  5
88
100
AcDbEntity
  8
ALPHA
100
AcDbCircle
 10
82.674787
 20
180.62381
 30
0.0
 40
0.23
100
AcDbArc
 50
89.999982
 51
179.999964
  0
ARC
  5
89
100
AcDbEntity
  8
ALPHA
100
AcDbCircle
 10
82.644819
 20
180.711456
 30
0.0
 40
0.2
100
AcDbArc
 50
89.999982
 51
179.999964
  0
LINE
  5
8A
100
AcDbEntity
  8
ALPHA
100
AcDbLine
 10
84.149274
 20
181.047729
 30
0.0
 11
84.750165
 21
181.047729
 31
0.0
  0
ARC
  5
8B
100
AcDbEntity
  8
ALPHA
100
AcDbCircle
 10
85.329145
 20
184.76815
 30
0.0
 40
3.765213
100
AcDbArc
 50
261.154496
 51
270.306512
  0
LINE
  5
8C
100
AcDbEntity
  8
ALPHA
100
AcDbLine
 10
121.044782
 20
157.641662
 30
0.0
 11
118.540266
 21
157.641662
 31
0.0
  0
LINE
  5
8D
100
AcDbEntity
  8
ALPHA
100
AcDbLine
 10
121.044782
 20
157.584014
 30
0.0
 11
119.742902
 21
157.584014
 31
0.0
  0
LINE
  5
8E
100
AcDbEntity
  8
ALPHA
100
AcDbLine
 10
119.740278
 20
157.584014
 30
0.0
 11
119.740278
 21
157.447753
 31
0.0
  0
LINE
  5
8F
100
AcDbEntity
  8
ALPHA
100
AcDbLine
 10
119.740278
 20
157.447753
 30
0.0
 11
119.139387
 21
157.447753
 31
0.0
  0
ARC
  5
90
100
AcDbEntity
  8
ALPHA
100
AcDbCircle
 10
118.560407
 20
153.727332
 30
0.0
 40
3.765213
100
AcDbArc
 50
81.154505
 51
90.306521
  0
LINE
  5
91
100
AcDbEntity
  8
ALPHA
100
AcDbLine
 10
121.044782
 20
180.853821
 30
0.0
 11
118.540266
 21
180.853821
 31
0.0
  0
LINE
  5
92
100
AcDbEntity
  8
ALPHA
100
AcDbLine
 10
121.044782
 20
180.911469
 30
0.0
 11
119.742902
 21
180.911469
 31
0.0
  0
LINE
  5
93
100
AcDbEntity
  8
ALPHA
100
AcDbLine
 10
119.740278
 20
180.911469
 30
0.0
 11
119.740278
 21
181.047729
 31
0.0
  0
LINE
  5
94
100
AcDbEntity
  8
ALPHA
100
AcDbLine
 10
119.740278
 20
181.047729
 30
0.0
 11
119.139387
 21
181.047729
 31
0.0
  0
ARC
  5
95
100
AcDbEntity
  8
ALPHA
100
AcDbCircle
 10
118.560407
 20
184.76815
 30
0.0
 40
3.765213
100
AcDbArc
 50
269.693489
 51
278.845505
  0
ARC
  5
96
100
AcDbEntity
  8
ALPHA
100
AcDbCircle
 10
121.044782
 20
180.711456
 30
0.0
 40
0.2
100
AcDbArc
 50
0.0
 51
89.999982
  0
ARC
  5
97
100
AcDbEntity
  8
ALPHA
100
AcDbCircle
 10
121.044782
 20
180.653809
 30
0.0
 40
0.2
100
AcDbArc
 50
0.0
 51
89.999982
  0
ARC
  5
98
100
AcDbEntity
  8
ALPHA
100
AcDbCircle
 10
121.044782
 20
157.841674
 30
0.0
 40
0.2
100
AcDbArc
 50
270.000028
 51
0.00001
  0
ARC
  5
99
100
AcDbEntity
  8
ALPHA
100
AcDbCircle
 10
121.044782
 20
157.784026
 30
0.0
 40
0.2
100
AcDbArc
 50
270.000028
 51
0.00001
  0
LINE
  5
9A
100
AcDbEntity
  8
ALPHA
100
AcDbLine
 10
83.444807
 20
173.247742
 30
0.0
 11
100.444807
 21
173.247742
 31
0.0
  0
LINE
  5
9B
100
AcDbEntity
  8
ALPHA
100
AcDbLine
 10
83.444807
 20
165.247741
 30
0.0
 11
100.444807
 21
165.247741
 31
0.0
  0
LINE
  5
9C
100
AcDbEntity
  8
ALPHA
100
AcDbLine
 10
83.444807
 20
173.247742
 30
0.0
 11
83.444807
 21
165.247741
 31
0.0
  0
LINE
  5
9D
100
AcDbEntity
  8
ALPHA
100
AcDbLine
 10
100.444807
 20
173.247742
 30
0.0
 11
100.444807
 21
165.247741
 31
0.0
  0
LINE
  5
9E
100
AcDbEntity
  8
ALPHA
100
AcDbLine
 10
117.644773
 20
169.997742
 30
0.0
 11
119.144773
 21
169.997742
 31
0.0
  0
LINE
  5
9F
100
AcDbEntity
  8
ALPHA
100
AcDbLine
 10
117.644773
 20
168.497741
 30
0.0
 11
119.144773
 21
168.497741
 31
0.0
  0
LINE
  5
A0
100
AcDbEntity
  8
ALPHA
100
AcDbLine
 10
119.144773
 20
169.997742
 30
0.0
 11
119.144773
 21
168.497741
 31
0.0
  0
LINE
  5
A1
100
AcDbEntity
  8
ALPHA
100
AcDbLine
 10
117.644773
 20
169.997742
 30
0.0
 11
117.644773
 21
168.497741
 31
0.0
  0
ARC
  5
A2
100
AcDbEntity
  8
ALPHA
100
AcDbCircle
 10
114.843671
 20
178.07933
 30
0.0
 40
18.606903
100
AcDbArc
 50
264.828045
 51
275.179606
  0
LINE
  5
A3
100
AcDbEntity
  8
AXE
100
AcDbLine
 10
114.844739
 20
165.472701
 30
0.0
 11
114.844739
 21
159.072707
 31
0.0
  0
LINE
  5
A6
100
AcDbEntity
  8
ALPHA
100
AcDbLine
 10
115.344717
 20
161.651275
 30
0.0
 11
115.189725
 21
161.707267
 31
0.0
  0
LINE
  5
A7
100
AcDbEntity
  8
ALPHA
100
AcDbLine
 10
114.344732
 20
161.65132
 30
0.0
 11
114.499738
 21
161.707313
 31
0.0
  0
LINE
  5
A8
100
AcDbEntity
  8
ALPHA
100
AcDbLine
 10
115.344747
 20
163.993537
 30
0.0
 11
115.189741
 21
163.937545
 31
0.0
  0
LINE
  5
A9
100
AcDbEntity
  8
ALPHA
100
AcDbLine
 10
114.344732
 20
163.993499
 30
0.0
 11
114.499723
 21
163.937507
 31
0.0
  0
LINE
  5
AA
100
AcDbEntity
  8
ALPHA
100
AcDbLine
 10
115.959859
 20
162.477424
 30
0.0
 11
116.012006
 21
162.333068
 31
0.0
  0
LINE
  5
AB
100
AcDbEntity
  8
ALPHA
100
AcDbLine
 10
116.011999
 20
163.311751
 30
0.0
 11
115.959852
 21
163.167396
 31
0.0
  0
LINE
  5
AC
100
AcDbEntity
  8
ALPHA
100
AcDbLine
 10
113.729597
 20
162.47737
 30
0.0
 11
113.677442
 21
162.333014
 31
0.0
  0
LINE
  5
AD
100
AcDbEntity
  8
ALPHA
100
AcDbLine
 10
113.677473
 20
163.311774
 30
0.0
 11
113.729627
 21
163.167418
 31
0.0
  0
LINE
  5
AE
100
AcDbEntity
  8
ALPHA
100
AcDbLine
 10
115.375066
 20
161.764083
 30
0.0
 11
115.519445
 21
162.147811
 31
0.0
  0
LINE
  5
AF
100
AcDbEntity
  8
ALPHA
100
AcDbLine
 10
115.375066
 20
163.88079
 30
0.0
 11
115.519422
 21
163.497108
 31
0.0
  0
LINE
  5
B0
100
AcDbEntity
  8
ALPHA
100
AcDbLine
 10
116.012006
 20
162.33306
 30
0.0
 11
115.51943
 21
162.147735
 31
0.0
  0
LINE
  5
B1
100
AcDbEntity
  8
ALPHA
100
AcDbLine
 10
116.011999
 20
163.311774
 30
0.0
 11
115.519407
 21
163.497115
 31
0.0
  0
LINE
  5
B2
100
AcDbEntity
  8
ALPHA
100
AcDbLine
 10
117.104185
 20
162.477439
 30
0.0
 11
116.011999
 21
162.333083
 31
0.0
  0
LINE
  5
B3
100
AcDbEntity
  8
ALPHA
100
AcDbLine
 10
116.012006
 20
163.311782
 30
0.0
 11
117.104192
 21
163.167426
 31
0.0
  0
LINE
  5
B4
100
AcDbEntity
  8
ALPHA
100
AcDbLine
 10
114.314405
 20
161.76406
 30
0.0
 11
114.170057
 21
162.147735
 31
0.0
  0
LINE
  5
B5
100
AcDbEntity
  8
ALPHA
100
AcDbLine
 10
114.314374
 20
163.880759
 30
0.0
 11
114.170057
 21
163.497184
 31
0.0
  0
LINE
  5
B6
100
AcDbEntity
  8
ALPHA
100
AcDbLine
 10
113.677473
 20
162.333045
 30
0.0
 11
114.170042
 21
162.147727
 31
0.0
  0
LINE
  5
B7
100
AcDbEntity
  8
ALPHA
100
AcDbLine
 10
113.677473
 20
163.311774
 30
0.0
 11
114.170049
 21
163.497108
 31
0.0
  0
LINE
  5
B8
100
AcDbEntity
  8
ALPHA
100
AcDbLine
 10
112.585279
 20
162.477431
 30
0.0
 11
113.677457
 21
162.333076
 31
0.0
  0
LINE
  5
B9
100
AcDbEntity
  8
ALPHA
100
AcDbLine
 10
113.677473
 20
163.31179
 30
0.0
 11
112.585264
 21
163.167434
 31
0.0
  0
ARC
  5
BA
100
AcDbEntity
  8
ALPHA
100
AcDbCircle
 10
114.844739
 20
162.822433
 30
0.0
 40
2.285645
100
AcDbArc
 50
351.318484
 51
8.681536
  0
ARC
  5
BB
100
AcDbEntity
  8
ALPHA
100
AcDbCircle
 10
114.844739
 20
162.822433
 30
0.0
 40
2.285645
100
AcDbArc
 50
171.318466
 51
188.681517
  0
LINE
  5
BC
100
AcDbEntity
  8
ALPHA
100
AcDbLine
 10
115.189725
 20
163.937545
 30
0.0
 11
115.375059
 21
163.352744
 31
0.0
  0
LINE
  5
BD
100
AcDbEntity
  8
ALPHA
100
AcDbLine
 10
115.189748
 20
161.707351
 30
0.0
 11
115.375074
 21
162.292121
 31
0.0
  0
LINE
  5
BE
100
AcDbEntity
  8
ALPHA
100
AcDbLine
 10
114.314405
 20
162.292106
 30
0.0
 11
114.499731
 21
161.70732
 31
0.0
  0
LINE
  5
BF
100
AcDbEntity
  8
ALPHA
100
AcDbLine
 10
114.499715
 20
163.937507
 30
0.0
 11
114.31439
 21
163.352721
 31
0.0
  0
LINE
  5
C0
100
AcDbEntity
  8
ALPHA
100
AcDbLine
 10
115.189741
 20
161.70732
 30
0.0
 11
115.189741
 21
161.309737
 31
0.0
  0
LINE
  5
C1
100
AcDbEntity
  8
ALPHA
100
AcDbLine
 10
114.499738
 20
161.70732
 30
0.0
 11
114.499738
 21
161.309737
 31
0.0
  0
LINE
  5
C2
100
AcDbEntity
  8
ALPHA
100
AcDbLine
 10
115.189741
 20
164.335128
 30
0.0
 11
115.189741
 21
163.937545
 31
0.0
  0
LINE
  5
C3
100
AcDbEntity
  8
ALPHA
100
AcDbLine
 10
114.499738
 20
164.335128
 30
0.0
 11
114.499738
 21
163.937545
 31
0.0
  0
LINE
  5
C4
100
AcDbEntity
  8
ALPHA
100
AcDbLine
 10
113.729627
 20
162.477424
 30
0.0
 11
114.314413
 21
162.29209
 31
0.0
  0
LINE
  5
C5
100
AcDbEntity
  8
ALPHA
100
AcDbLine
 10
113.729612
 20
163.167426
 30
0.0
 11
114.314405
 21
163.352759
 31
0.0
  0
LINE
  5
C6
100
AcDbEntity
  8
ALPHA
100
AcDbLine
 10
115.375059
 20
162.292106
 30
0.0
 11
115.959844
 21
162.477431
 31
0.0
  0
LINE
  5
C7
100
AcDbEntity
  8
ALPHA
100
AcDbLine
 10
115.375066
 20
163.352759
 30
0.0
 11
115.959852
 21
163.167434
 31
0.0
  0
ARC
  5
C8
100
AcDbEntity
  8
ALPHA
100
AcDbCircle
 10
114.844739
 20
162.822433
 30
0.0
 40
1.167265
100
AcDbArc
 50
342.808724
 51
17.191241
  0
ARC
  5
C9
100
AcDbEntity
  8
ALPHA
100
AcDbCircle
 10
114.844739
 20
162.822433
 30
0.0
 40
1.167265
100
AcDbArc
 50
162.80876
 51
197.191277
  0
LINE
  5
CA
100
AcDbEntity
  8
ALPHA
100
AcDbLine
 10
115.959852
 20
162.477431
 30
0.0
 11
117.1042
 21
162.477431
 31
0.0
  0
LINE
  5
CB
100
AcDbEntity
  8
ALPHA
100
AcDbLine
 10
115.959852
 20
163.167434
 30
0.0
 11
117.1042
 21
163.167434
 31
0.0
  0
LINE
  5
CC
100
AcDbEntity
  8
ALPHA
100
AcDbLine
 10
112.585279
 20
162.477431
 30
0.0
 11
113.729627
 21
162.477431
 31
0.0
  0
LINE
  5
CD
100
AcDbEntity
  8
ALPHA
100
AcDbLine
 10
112.585279
 20
163.167434
 30
0.0
 11
113.729627
 21
163.167434
 31
0.0
  0
ARC
  5
CE
100
AcDbEntity
  8
ALPHA
100
AcDbCircle
 10
114.844739
 20
162.822433
 30
0.0
 40
1.167265
100
AcDbArc
 50
252.80877
 51
287.191286
  0
ARC
  5
CF
100
AcDbEntity
  8
ALPHA
100
AcDbCircle
 10
114.844739
 20
162.822433
 30
0.0
 40
1.167265
100
AcDbArc
 50
72.808724
 51
107.19124
  0
ARC
  5
D0
100
AcDbEntity
  8
ALPHA
100
AcDbCircle
 10
114.844739
 20
162.822433
 30
0.0
 40
1.551542
100
AcDbArc
 50
77.152342
 51
102.847622
  0
LINE
  5
D1
100
AcDbEntity
  8
ALPHA
100
AcDbLine
 10
115.375074
 20
162.292098
 30
0.0
 11
115.375074
 21
160.012008
 31
0.0
  0
LINE
  5
D2
100
AcDbEntity
  8
ALPHA
100
AcDbLine
 10
114.314405
 20
162.292098
 30
0.0
 11
114.314405
 21
160.012008
 31
0.0
  0
LINE
  5
D3
100
AcDbEntity
  8
ALPHA
100
AcDbLine
 10
115.375074
 20
165.428451
 30
0.0
 11
115.375074
 21
163.352767
 31
0.0
  0
LINE
  5
D4
100
AcDbEntity
  8
ALPHA
100
AcDbLine
 10
114.314405
 20
165.428451
 30
0.0
 11
114.314405
 21
163.352767
 31
0.0
  0
LINE
  5
D5
100
AcDbEntity
  8
ALPHA
100
AcDbLine
 10
115.344739
 20
165.433402
 30
0.0
 11
115.344739
 21
163.44847
 31
0.0
  0
ARC
  5
D6
100
AcDbEntity
  8
ALPHA
100
AcDbCircle
 10
114.844739
 20
162.822433
 30
0.0
 40
2.763781
100
AcDbArc
 50
281.062858
 51
49.173875
  0
ARC
  5
D7
100
AcDbEntity
  8
ALPHA
100
AcDbCircle
 10
114.844739
 20
162.822433
 30
0.0
 40
2.763781
100
AcDbArc
 50
130.826099
 51
258.937116
  0
ARC
  5
D8
100
AcDbEntity
  8
ALPHA
100
AcDbCircle
 10
114.844739
 20
162.822433
 30
0.0
 40
2.860018
100
AcDbArc
 50
259.313897
 51
280.686159
  0
LINE
  5
D9
100
AcDbEntity
  8
ALPHA
100
AcDbLine
 10
115.344739
 20
162.196395
 30
0.0
 11
115.344739
 21
160.006454
 31
0.0
  0
LINE
  5
DA
100
AcDbEntity
  8
ALPHA
100
AcDbLine
 10
114.344739
 20
162.19641
 30
0.0
 11
114.344739
 21
160.006454
 31
0.0
  0
LINE
  5
DB
100
AcDbEntity
  8
ALPHA
100
AcDbLine
 10
114.344739
 20
165.433402
 30
0.0
 11
114.344739
 21
163.44847
 31
0.0
  0
ARC
  5
DC
100
AcDbEntity
  8
ALPHA
100
AcDbCircle
 10
114.844739
 20
162.822433
 30
0.0
 40
3.0
100
AcDbArc
 50
163.481397
 51
16.518604
  0
LINE
  5
DD
100
AcDbEntity
  8
ALPHA
100
AcDbLine
 10
114.507612
 20
161.302444
 30
0.0
 11
115.181867
 21
161.302444
 31
0.0
  0
LINE
  5
DE
100
AcDbEntity
  8
ALPHA
100
AcDbLine
 10
116.341413
 20
160.222426
 30
0.0
 11
117.301633
 21
160.222426
 31
0.0
  0
LINE
  5
DF
100
AcDbEntity
  8
ALPHA
100
AcDbLine
 10
117.382459
 20
161.222426
 30
0.0
 11
117.867475
 21
161.222426
 31
0.0
  0
LINE
  5
E0
100
AcDbEntity
  8
ALPHA
100
AcDbLine
 10
112.38783
 20
160.222426
 30
0.0
 11
113.348066
 21
160.222426
 31
0.0
  0
LINE
  5
E1
100
AcDbEntity
  8
ALPHA
100
AcDbLine
 10
111.822004
 20
161.222426
 30
0.0
 11
112.30702
 21
161.222426
 31
0.0
  0
ARC
  5
E2
100
AcDbEntity
  8
ALPHA
100
AcDbCircle
 10
114.843671
 20
160.416167
 30
0.0
 40
18.606903
100
AcDbArc
 50
84.820404
 51
95.171965
  0
LINE
  5
E3
100
AcDbEntity
  8
AXE
100
AcDbLine
 10
114.844739
 20
173.022781
 30
0.0
 11
114.844739
 21
179.422775
 31
0.0
  0
LINE
  5
E4
100
AcDbEntity
  8
ALPHA
100
AcDbLine
 10
115.344717
 20
176.844208
 30
0.0
 11
115.189725
 21
176.788216
 31
0.0
  0
LINE
  5
E5
100
AcDbEntity
  8
ALPHA
100
AcDbLine
 10
114.344732
 20
176.844162
 30
0.0
 11
114.499738
 21
176.78817
 31
0.0
  0
LINE
  5
E6
100
AcDbEntity
  8
ALPHA
100
AcDbLine
 10
115.344747
 20
174.501953
 30
0.0
 11
115.189741
 21
174.557953
 31
0.0
  0
LINE
  5
E7
100
AcDbEntity
  8
ALPHA
100
AcDbLine
 10
114.344732
 20
174.501999
 30
0.0
 11
114.499723
 21
174.557991
 31
0.0
  0
LINE
  5
E8
100
AcDbEntity
  8
ALPHA
100
AcDbLine
 10
115.959852
 20
176.018059
 30
0.0
 11
116.011999
 21
176.162422
 31
0.0
  0
LINE
  5
E9
100
AcDbEntity
  8
ALPHA
100
AcDbLine
 10
116.011999
 20
175.183739
 30
0.0
 11
115.959852
 21
175.328094
 31
0.0
  0
LINE
  5
EA
100
AcDbEntity
  8
ALPHA
100
AcDbLine
 10
113.729597
 20
176.01812
 30
0.0
 11
113.677457
 21
176.162468
 31
0.0
  0
LINE
  5
EB
100
AcDbEntity
  8
ALPHA
100
AcDbLine
 10
113.677473
 20
175.183701
 30
0.0
 11
113.729627
 21
175.328072
 31
0.0
  0
LINE
  5
EC
100
AcDbEntity
  8
ALPHA
100
AcDbLine
 10
115.375066
 20
176.731415
 30
0.0
 11
115.519445
 21
176.347687
 31
0.0
  0
LINE
  5
ED
100
AcDbEntity
  8
ALPHA
100
AcDbLine
 10
115.375066
 20
174.614693
 30
0.0
 11
115.51943
 21
174.99839
 31
0.0
  0
LINE
  5
EE
100
AcDbEntity
  8
ALPHA
100
AcDbLine
 10
116.012006
 20
176.16243
 30
0.0
 11
115.51943
 21
176.347763
 31
0.0
  0
LINE
  5
EF
100
AcDbEntity
  8
ALPHA
100
AcDbLine
 10
116.011999
 20
175.183716
 30
0.0
 11
115.519414
 21
174.998383
 31
0.0
  0
LINE
  5
F0
100
AcDbEntity
  8
ALPHA
100
AcDbLine
 10
117.104192
 20
176.018066
 30
0.0
 11
116.012006
 21
176.162422
 31
0.0
  0
LINE
  5
F1
100
AcDbEntity
  8
ALPHA
100
AcDbLine
 10
116.012006
 20
175.183701
 30
0.0
 11
117.104185
 21
175.328064
 31
0.0
  0
LINE
  5
F2
100
AcDbEntity
  8
ALPHA
100
AcDbLine
 10
114.314413
 20
176.73143
 30
0.0
 11
114.170057
 21
176.347763
 31
0.0
  0
LINE
  5
F3
100
AcDbEntity
  8
ALPHA
100
AcDbLine
 10
114.31439
 20
174.614731
 30
0.0
 11
114.170072
 21
174.998314
 31
0.0
  0
LINE
  5
F4
100
AcDbEntity
  8
ALPHA
100
AcDbLine
 10
113.677473
 20
176.16243
 30
0.0
 11
114.170057
 21
176.347763
 31
0.0
  0
LINE
  5
F5
100
AcDbEntity
  8
ALPHA
100
AcDbLine
 10
113.677473
 20
175.183723
 30
0.0
 11
114.170057
 21
174.99839
 31
0.0
  0
LINE
  5
F6
100
AcDbEntity
  8
ALPHA
100
AcDbLine
 10
112.585279
 20
176.018051
 30
0.0
 11
113.677457
 21
176.162407
 31
0.0
  0
LINE
  5
F7
100
AcDbEntity
  8
ALPHA
100
AcDbLine
 10
113.677473
 20
175.183693
 30
0.0
 11
112.585279
 21
175.328056
 31
0.0
  0
ARC
  5
F8
100
AcDbEntity
  8
ALPHA
100
AcDbCircle
 10
114.844739
 20
175.673065
 30
0.0
 40
2.285645
100
AcDbArc
 50
351.318457
 51
8.681508
  0
ARC
  5
F9
100
AcDbEntity
  8
ALPHA
100
AcDbCircle
 10
114.844739
 20
175.673065
 30
0.0
 40
2.285645
100
AcDbArc
 50
171.318466
 51
188.681517
  0
LINE
  5
FA
100
AcDbEntity
  8
ALPHA
100
AcDbLine
 10
115.189733
 20
174.557953
 30
0.0
 11
115.375066
 21
175.142754
 31
0.0
  0
LINE
  5
FB
100
AcDbEntity
  8
ALPHA
100
AcDbLine
 10
115.189756
 20
176.788147
 30
0.0
 11
115.375089
 21
176.203362
 31
0.0
  0
LINE
  5
FC
100
AcDbEntity
  8
ALPHA
100
AcDbLine
 10
114.314413
 20
176.203392
 30
0.0
 11
114.499738
 21
176.788162
 31
0.0
  0
LINE
  5
FD
100
AcDbEntity
  8
ALPHA
100
AcDbLine
 10
114.499723
 20
174.557991
 30
0.0
 11
114.314397
 21
175.142776
 31
0.0
  0
LINE
  5
FE
100
AcDbEntity
  8
ALPHA
100
AcDbLine
 10
115.189741
 20
176.788177
 30
0.0
 11
115.189741
 21
177.18576
 31
0.0
  0
LINE
  5
FF
100
AcDbEntity
  8
ALPHA
100
AcDbLine
 10
114.499738
 20
176.788177
 30
0.0
 11
114.499738
 21
177.18576
 31
0.0
  0
LINE
  5
100
100
AcDbEntity
  8
ALPHA
100
AcDbLine
 10
115.189741
 20
174.16037
 30
0.0
 11
115.189741
 21
174.557953
 31
0.0
  0
LINE
  5
101
100
AcDbEntity
  8
ALPHA
100
AcDbLine
 10
114.499738
 20
174.16037
 30
0.0
 11
114.499738
 21
174.557953
 31
0.0
  0
LINE
  5
102
100
AcDbEntity
  8
ALPHA
100
AcDbLine
 10
113.729627
 20
176.018074
 30
0.0
 11
114.314405
 21
176.2034
 31
0.0
  0
LINE
  5
103
100
AcDbEntity
  8
ALPHA
100
AcDbLine
 10
113.729627
 20
175.328056
 30
0.0
 11
114.314405
 21
175.142723
 31
0.0
  0
LINE
  5
104
100
AcDbEntity
  8
ALPHA
100
AcDbLine
 10
115.375066
 20
176.203392
 30
0.0
 11
115.959852
 21
176.018059
 31
0.0
  0
LINE
  5
105
100
AcDbEntity
  8
ALPHA
100
AcDbLine
 10
115.375074
 20
175.142738
 30
0.0
 11
115.959844
 21
175.328064
 31
0.0
  0
ARC
  5
106
100
AcDbEntity
  8
ALPHA
100
AcDbCircle
 10
114.844739
 20
175.673065
 30
0.0
 40
1.167265
100
AcDbArc
 50
342.808752
 51
17.191268
  0
ARC
  5
107
100
AcDbEntity
  8
ALPHA
100
AcDbCircle
 10
114.844739
 20
175.673065
 30
0.0
 40
1.167265
100
AcDbArc
 50
162.808706
 51
197.191222
  0
LINE
  5
108
100
AcDbEntity
  8
ALPHA
100
AcDbLine
 10
115.959852
 20
176.018066
 30
0.0
 11
117.1042
 21
176.018066
 31
0.0
  0
LINE
  5
109
100
AcDbEntity
  8
ALPHA
100
AcDbLine
 10
115.959852
 20
175.328064
 30
0.0
 11
117.1042
 21
175.328064
 31
0.0
  0
LINE
  5
10A
100
AcDbEntity
  8
ALPHA
100
AcDbLine
 10
112.585279
 20
176.018066
 30
0.0
 11
113.729627
 21
176.018066
 31
0.0
  0
LINE
  5
10B
100
AcDbEntity
  8
ALPHA
100
AcDbLine
 10
112.585279
 20
175.328064
 30
0.0
 11
113.729627
 21
175.328064
 31
0.0
  0
ARC
  5
10C
100
AcDbEntity
  8
ALPHA
100
AcDbCircle
 10
114.844739
 20
175.673065
 30
0.0
 40
1.167265
100
AcDbArc
 50
72.808724
 51
107.19124
  0
ARC
  5
10D
100
AcDbEntity
  8
ALPHA
100
AcDbCircle
 10
114.844739
 20
175.673065
 30
0.0
 40
1.167265
100
AcDbArc
 50
252.80877
 51
287.191286
  0
ARC
  5
10E
100
AcDbEntity
  8
ALPHA
100
AcDbCircle
 10
114.844739
 20
175.673065
 30
0.0
 40
1.551542
100
AcDbArc
 50
257.152388
 51
282.847668
  0
LINE
  5
10F
100
AcDbEntity
  8
ALPHA
100
AcDbLine
 10
115.375074
 20
176.2034
 30
0.0
 11
115.375074
 21
178.48349
 31
0.0
  0
LINE
  5
110
100
AcDbEntity
  8
ALPHA
100
AcDbLine
 10
114.314405
 20
176.2034
 30
0.0
 11
114.314405
 21
178.48349
 31
0.0
  0
LINE
  5
111
100
AcDbEntity
  8
ALPHA
100
AcDbLine
 10
115.375074
 20
173.067032
 30
0.0
 11
115.375074
 21
175.142731
 31
0.0
  0
LINE
  5
112
100
AcDbEntity
  8
ALPHA
100
AcDbLine
 10
114.314405
 20
173.067032
 30
0.0
 11
114.314405
 21
175.142731
 31
0.0
  0
LINE
  5
113
100
AcDbEntity
  8
ALPHA
100
AcDbLine
 10
115.344739
 20
173.06208
 30
0.0
 11
115.344739
 21
175.047028
 31
0.0
  0
ARC
  5
114
100
AcDbEntity
  8
ALPHA
100
AcDbCircle
 10
114.844739
 20
175.673065
 30
0.0
 40
2.763781
100
AcDbArc
 50
310.826118
 51
78.937162
  0
ARC
  5
115
100
AcDbEntity
  8
ALPHA
100
AcDbCircle
 10
114.844739
 20
175.673065
 30
0.0
 40
2.763781
100
AcDbArc
 50
101.062867
 51
229.173884
  0
ARC
  5
116
100
AcDbEntity
  8
ALPHA
100
AcDbCircle
 10
114.844739
 20
175.673065
 30
0.0
 40
2.860018
100
AcDbArc
 50
79.313851
 51
100.686113
  0
LINE
  5
117
100
AcDbEntity
  8
ALPHA
100
AcDbLine
 10
115.344739
 20
176.299103
 30
0.0
 11
115.344739
 21
178.489044
 31
0.0
  0
LINE
  5
118
100
AcDbEntity
  8
ALPHA
100
AcDbLine
 10
114.344739
 20
176.299072
 30
0.0
 11
114.344739
 21
178.489044
 31
0.0
  0
LINE
  5
119
100
AcDbEntity
  8
ALPHA
100
AcDbLine
 10
114.344739
 20
173.06208
 30
0.0
 11
114.344739
 21
175.047028
 31
0.0
  0
ARC
  5
11A
100
AcDbEntity
  8
ALPHA
100
AcDbCircle
 10
114.844739
 20
175.673065
 30
0.0
 40
3.0
100
AcDbArc
 50
343.481416
 51
196.518568
  0
LINE
  5
11B
100
AcDbEntity
  8
ALPHA
100
AcDbLine
 10
114.507612
 20
177.193054
 30
0.0
 11
115.181867
 21
177.193054
 31
0.0
  0
LINE
  5
11C
100
AcDbEntity
  8
ALPHA
100
AcDbLine
 10
116.341413
 20
178.273071
 30
0.0
 11
117.301633
 21
178.273071
 31
0.0
  0
LINE
  5
11D
100
AcDbEntity
  8
ALPHA
100
AcDbLine
 10
117.382459
 20
177.273071
 30
0.0
 11
117.867475
 21
177.273071
 31
0.0
  0
LINE
  5
11E
100
AcDbEntity
  8
ALPHA
100
AcDbLine
 10
112.38783
 20
178.273071
 30
0.0
 11
113.348066
 21
178.273071
 31
0.0
  0
LINE
  5
11F
100
AcDbEntity
  8
ALPHA
100
AcDbLine
 10
111.822004
 20
177.273071
 30
0.0
 11
112.30702
 21
177.273071
 31
0.0
  0
LINE
  5
120
100
AcDbEntity
  8
ALPHA
100
AcDbLine
 10
103.222028
 20
177.273071
 30
0.0
 11
103.707044
 21
177.273071
 31
0.0
  0
LINE
  5
121
100
AcDbEntity
  8
ALPHA
100
AcDbLine
 10
103.787855
 20
178.273071
 30
0.0
 11
104.74809
 21
178.273071
 31
0.0
  0
LINE
  5
122
100
AcDbEntity
  8
ALPHA
100
AcDbLine
 10
108.782484
 20
177.273071
 30
0.0
 11
109.267499
 21
177.273071
 31
0.0
  0
LINE
  5
123
100
AcDbEntity
  8
ALPHA
100
AcDbLine
 10
107.741437
 20
178.273071
 30
0.0
 11
108.701658
 21
178.273071
 31
0.0
  0
LINE
  5
124
100
AcDbEntity
  8
ALPHA
100
AcDbLine
 10
105.907636
 20
177.193054
 30
0.0
 11
106.581892
 21
177.193054
 31
0.0
  0
ARC
  5
125
100
AcDbEntity
  8
ALPHA
100
AcDbCircle
 10
106.244764
 20
175.673065
 30
0.0
 40
3.0
100
AcDbArc
 50
343.481416
 51
196.518568
  0
LINE
  5
126
100
AcDbEntity
  8
ALPHA
100
AcDbLine
 10
105.744764
 20
173.06208
 30
0.0
 11
105.744764
 21
175.047028
 31
0.0
  0
LINE
  5
127
100
AcDbEntity
  8
ALPHA
100
AcDbLine
 10
105.744764
 20
176.299072
 30
0.0
 11
105.744764
 21
178.489044
 31
0.0
  0
ARC
  5
128
100
AcDbEntity
  8
ALPHA
100
AcDbCircle
 10
106.244764
 20
175.673065
 30
0.0
 40
2.860018
100
AcDbArc
 50
79.313851
 51
100.686113
  0
ARC
  5
129
100
AcDbEntity
  8
ALPHA
100
AcDbCircle
 10
106.244764
 20
175.673065
 30
0.0
 40
2.763781
100
AcDbArc
 50
101.062867
 51
229.173884
  0
ARC
  5
12A
100
AcDbEntity
  8
ALPHA
100
AcDbCircle
 10
106.244764
 20
175.673065
 30
0.0
 40
2.763781
100
AcDbArc
 50
310.826118
 51
78.937162
  0
LINE
  5
12B
100
AcDbEntity
  8
ALPHA
100
AcDbLine
 10
106.744764
 20
173.06208
 30
0.0
 11
106.744764
 21
175.047028
 31
0.0
  0
LINE
  5
12C
100
AcDbEntity
  8
ALPHA
100
AcDbLine
 10
106.744764
 20
176.299103
 30
0.0
 11
106.744764
 21
178.489044
 31
0.0
  0
LINE
  5
12D
100
AcDbEntity
  8
ALPHA
100
AcDbLine
 10
105.714429
 20
173.067032
 30
0.0
 11
105.714429
 21
175.142731
 31
0.0
  0
LINE
  5
12E
100
AcDbEntity
  8
ALPHA
100
AcDbLine
 10
106.775098
 20
173.067032
 30
0.0
 11
106.775098
 21
175.142731
 31
0.0
  0
LINE
  5
12F
100
AcDbEntity
  8
ALPHA
100
AcDbLine
 10
105.714429
 20
176.2034
 30
0.0
 11
105.714429
 21
178.48349
 31
0.0
  0
LINE
  5
130
100
AcDbEntity
  8
ALPHA
100
AcDbLine
 10
106.775098
 20
176.2034
 30
0.0
 11
106.775098
 21
178.48349
 31
0.0
  0
ARC
  5
131
100
AcDbEntity
  8
ALPHA
100
AcDbCircle
 10
106.244764
 20
175.673065
 30
0.0
 40
1.551542
100
AcDbArc
 50
257.152388
 51
282.847668
  0
ARC
  5
132
100
AcDbEntity
  8
ALPHA
100
AcDbCircle
 10
106.244764
 20
175.673065
 30
0.0
 40
1.167265
100
AcDbArc
 50
252.80877
 51
287.191286
  0
ARC
  5
133
100
AcDbEntity
  8
ALPHA
100
AcDbCircle
 10
106.244764
 20
175.673065
 30
0.0
 40
1.167265
100
AcDbArc
 50
72.808724
 51
107.19124
  0
LINE
  5
134
100
AcDbEntity
  8
ALPHA
100
AcDbLine
 10
103.985303
 20
175.328064
 30
0.0
 11
105.129652
 21
175.328064
 31
0.0
  0
LINE
  5
135
100
AcDbEntity
  8
ALPHA
100
AcDbLine
 10
103.985303
 20
176.018066
 30
0.0
 11
105.129652
 21
176.018066
 31
0.0
  0
LINE
  5
136
100
AcDbEntity
  8
ALPHA
100
AcDbLine
 10
107.359876
 20
175.328064
 30
0.0
 11
108.504224
 21
175.328064
 31
0.0
  0
LINE
  5
137
100
AcDbEntity
  8
ALPHA
100
AcDbLine
 10
107.359876
 20
176.018066
 30
0.0
 11
108.504224
 21
176.018066
 31
0.0
  0
ARC
  5
138
100
AcDbEntity
  8
ALPHA
100
AcDbCircle
 10
106.244764
 20
175.673065
 30
0.0
 40
1.167265
100
AcDbArc
 50
162.808706
 51
197.191222
  0
ARC
  5
139
100
AcDbEntity
  8
ALPHA
100
AcDbCircle
 10
106.244764
 20
175.673065
 30
0.0
 40
1.167265
100
AcDbArc
 50
342.808752
 51
17.191268
  0
LINE
  5
13A
100
AcDbEntity
  8
ALPHA
100
AcDbLine
 10
106.775098
 20
175.142738
 30
0.0
 11
107.359876
 21
175.328072
 31
0.0
  0
LINE
  5
13B
100
AcDbEntity
  8
ALPHA
100
AcDbLine
 10
106.775083
 20
176.203392
 30
0.0
 11
107.359876
 21
176.018059
 31
0.0
  0
LINE
  5
13C
100
AcDbEntity
  8
ALPHA
100
AcDbLine
 10
105.129652
 20
175.328056
 30
0.0
 11
105.714429
 21
175.142723
 31
0.0
  0
LINE
  5
13D
100
AcDbEntity
  8
ALPHA
100
AcDbLine
 10
105.129652
 20
176.018074
 30
0.0
 11
105.714429
 21
176.2034
 31
0.0
  0
LINE
  5
13E
100
AcDbEntity
  8
ALPHA
100
AcDbLine
 10
105.899763
 20
174.16037
 30
0.0
 11
105.899763
 21
174.557953
 31
0.0
  0
LINE
  5
13F
100
AcDbEntity
  8
ALPHA
100
AcDbLine
 10
106.589765
 20
174.16037
 30
0.0
 11
106.589765
 21
174.557953
 31
0.0
  0
LINE
  5
140
100
AcDbEntity
  8
ALPHA
100
AcDbLine
 10
105.899763
 20
176.788177
 30
0.0
 11
105.899763
 21
177.18576
 31
0.0
  0
LINE
  5
141
100
AcDbEntity
  8
ALPHA
100
AcDbLine
 10
106.589765
 20
176.788177
 30
0.0
 11
106.589765
 21
177.18576
 31
0.0
  0
LINE
  5
142
100
AcDbEntity
  8
ALPHA
100
AcDbLine
 10
105.899747
 20
174.557991
 30
0.0
 11
105.714414
 21
175.142776
 31
0.0
  0
LINE
  5
143
100
AcDbEntity
  8
ALPHA
100
AcDbLine
 10
105.714445
 20
176.203384
 30
0.0
 11
105.899763
 21
176.788162
 31
0.0
  0
LINE
  5
144
100
AcDbEntity
  8
ALPHA
100
AcDbLine
 10
106.58978
 20
176.788147
 30
0.0
 11
106.775114
 21
176.203362
 31
0.0
  0
LINE
  5
145
100
AcDbEntity
  8
ALPHA
100
AcDbLine
 10
106.58975
 20
174.557953
 30
0.0
 11
106.775083
 21
175.142761
 31
0.0
  0
ARC
  5
146
100
AcDbEntity
  8
ALPHA
100
AcDbCircle
 10
106.244764
 20
175.673065
 30
0.0
 40
2.285645
100
AcDbArc
 50
171.318466
 51
188.681517
  0
ARC
  5
147
100
AcDbEntity
  8
ALPHA
100
AcDbCircle
 10
106.244764
 20
175.673065
 30
0.0
 40
2.285645
100
AcDbArc
 50
351.318457
 51
8.681508
  0
LINE
  5
148
100
AcDbEntity
  8
ALPHA
100
AcDbLine
 10
105.077497
 20
175.183693
 30
0.0
 11
103.985303
 21
175.328056
 31
0.0
  0
LINE
  5
149
100
AcDbEntity
  8
ALPHA
100
AcDbLine
 10
103.985303
 20
176.018051
 30
0.0
 11
105.077482
 21
176.162407
 31
0.0
  0
LINE
  5
14A
100
AcDbEntity
  8
ALPHA
100
AcDbLine
 10
105.077497
 20
175.183723
 30
0.0
 11
105.570081
 21
174.99839
 31
0.0
  0
LINE
  5
14B
100
AcDbEntity
  8
ALPHA
100
AcDbLine
 10
105.077497
 20
176.16243
 30
0.0
 11
105.570081
 21
176.347763
 31
0.0
  0
LINE
  5
14C
100
AcDbEntity
  8
ALPHA
100
AcDbLine
 10
105.714414
 20
174.614731
 30
0.0
 11
105.570096
 21
174.998314
 31
0.0
  0
LINE
  5
14D
100
AcDbEntity
  8
ALPHA
100
AcDbLine
 10
105.714445
 20
176.73143
 30
0.0
 11
105.570081
 21
176.347763
 31
0.0
  0
LINE
  5
14E
100
AcDbEntity
  8
ALPHA
100
AcDbLine
 10
107.412031
 20
175.183701
 30
0.0
 11
108.504209
 21
175.328064
 31
0.0
  0
LINE
  5
14F
100
AcDbEntity
  8
ALPHA
100
AcDbLine
 10
108.504209
 20
176.018066
 30
0.0
 11
107.412031
 21
176.162422
 31
0.0
  0
LINE
  5
150
100
AcDbEntity
  8
ALPHA
100
AcDbLine
 10
107.412015
 20
175.183716
 30
0.0
 11
106.919431
 21
174.998383
 31
0.0
  0
LINE
  5
151
100
AcDbEntity
  8
ALPHA
100
AcDbLine
 10
107.412031
 20
176.16243
 30
0.0
 11
106.919446
 21
176.347771
 31
0.0
  0
LINE
  5
152
100
AcDbEntity
  8
ALPHA
100
AcDbLine
 10
106.775083
 20
174.614693
 30
0.0
 11
106.919462
 21
174.99839
 31
0.0
  0
LINE
  5
153
100
AcDbEntity
  8
ALPHA
100
AcDbLine
 10
106.775083
 20
176.731415
 30
0.0
 11
106.919462
 21
176.347687
 31
0.0
  0
LINE
  5
154
100
AcDbEntity
  8
ALPHA
100
AcDbLine
 10
105.077497
 20
175.183701
 30
0.0
 11
105.129652
 21
175.328072
 31
0.0
  0
LINE
  5
155
100
AcDbEntity
  8
ALPHA
100
AcDbLine
 10
105.129621
 20
176.01812
 30
0.0
 11
105.077482
 21
176.162468
 31
0.0
  0
LINE
  5
156
100
AcDbEntity
  8
ALPHA
100
AcDbLine
 10
107.412015
 20
175.183739
 30
0.0
 11
107.359876
 21
175.328094
 31
0.0
  0
LINE
  5
157
100
AcDbEntity
  8
ALPHA
100
AcDbLine
 10
107.359876
 20
176.018059
 30
0.0
 11
107.412015
 21
176.162422
 31
0.0
  0
LINE
  5
158
100
AcDbEntity
  8
ALPHA
100
AcDbLine
 10
105.744749
 20
174.501999
 30
0.0
 11
105.899747
 21
174.557991
 31
0.0
  0
LINE
  5
159
100
AcDbEntity
  8
ALPHA
100
AcDbLine
 10
106.744779
 20
174.501953
 30
0.0
 11
106.589765
 21
174.557953
 31
0.0
  0
LINE
  5
15A
100
AcDbEntity
  8
ALPHA
100
AcDbLine
 10
105.744749
 20
176.844162
 30
0.0
 11
105.899763
 21
176.78817
 31
0.0
  0
LINE
  5
15B
100
AcDbEntity
  8
ALPHA
100
AcDbLine
 10
106.744749
 20
176.844208
 30
0.0
 11
106.58975
 21
176.788216
 31
0.0
  0
LINE
  5
15C
100
AcDbEntity
  8
AXE
100
AcDbLine
 10
106.244764
 20
173.022781
 30
0.0
 11
106.244764
 21
179.422775
 31
0.0
  0
ARC
  5
15D
100
AcDbEntity
  8
ALPHA
100
AcDbCircle
 10
106.243696
 20
160.416167
 30
0.0
 40
18.606903
100
AcDbArc
 50
84.820404
 51
95.171965
  0
ARC
  5
15E
100
AcDbEntity
  8
ALPHA
100
AcDbCircle
 10
106.244764
 20
176.222778
 30
0.0
 40
3.2
100
AcDbArc
 50
194.361625
 51
345.63839
  0
ARC
  5
15F
100
AcDbEntity
  8
ALPHA
100
AcDbCircle
 10
106.244764
 20
176.222778
 30
0.0
 40
3.2
100
AcDbArc
 50
14.361624
 51
165.638371
  0
LINE
  5
160
100
AcDbEntity
  8
ALPHA
100
AcDbLine
 10
109.34477
 20
175.429077
 30
0.0
 11
109.34477
 21
177.016479
 31
0.0
  0
LINE
  5
161
100
AcDbEntity
  8
ALPHA
100
AcDbLine
 10
103.144758
 20
175.429077
 30
0.0
 11
103.144758
 21
177.016479
 31
0.0
  0
LINE
  5
162
100
AcDbEntity
  8
ALPHA
100
AcDbLine
 10
94.544782
 20
175.429077
 30
0.0
 11
94.544782
 21
177.016479
 31
0.0
  0
LINE
  5
163
100
AcDbEntity
  8
ALPHA
100
AcDbLine
 10
100.744794
 20
175.429077
 30
0.0
 11
100.744794
 21
177.016479
 31
0.0
  0
ARC
  5
164
100
AcDbEntity
  8
ALPHA
100
AcDbCircle
 10
97.644788
 20
176.222778
 30
0.0
 40
3.2
100
AcDbArc
 50
14.361624
 51
165.638371
  0
ARC
  5
165
100
AcDbEntity
  8
ALPHA
100
AcDbCircle
 10
97.644788
 20
176.222778
 30
0.0
 40
3.2
100
AcDbArc
 50
194.361625
 51
248.387943
  0
ARC
  5
166
100
AcDbEntity
  8
ALPHA
100
AcDbCircle
 10
97.64372
 20
160.416167
 30
0.0
 40
18.606903
100
AcDbArc
 50
84.820404
 51
95.171965
  0
LINE
  5
167
100
AcDbEntity
  8
AXE
100
AcDbLine
 10
97.644788
 20
173.247742
 30
0.0
 11
97.644788
 21
179.422775
 31
0.0
  0
LINE
  5
168
100
AcDbEntity
  8
ALPHA
100
AcDbLine
 10
98.144773
 20
176.844208
 30
0.0
 11
97.989774
 21
176.788216
 31
0.0
  0
LINE
  5
169
100
AcDbEntity
  8
ALPHA
100
AcDbLine
 10
97.144773
 20
176.844162
 30
0.0
 11
97.299787
 21
176.78817
 31
0.0
  0
LINE
  5
16A
100
AcDbEntity
  8
ALPHA
100
AcDbLine
 10
98.144804
 20
174.501953
 30
0.0
 11
97.989789
 21
174.557953
 31
0.0
  0
LINE
  5
16B
100
AcDbEntity
  8
ALPHA
100
AcDbLine
 10
97.144773
 20
174.501999
 30
0.0
 11
97.299772
 21
174.557991
 31
0.0
  0
LINE
  5
16C
100
AcDbEntity
  8
ALPHA
100
AcDbLine
 10
98.759901
 20
176.018059
 30
0.0
 11
98.81204
 21
176.162422
 31
0.0
  0
LINE
  5
16D
100
AcDbEntity
  8
ALPHA
100
AcDbLine
 10
98.81204
 20
175.183739
 30
0.0
 11
98.759901
 21
175.328094
 31
0.0
  0
LINE
  5
16E
100
AcDbEntity
  8
ALPHA
100
AcDbLine
 10
96.529645
 20
176.01812
 30
0.0
 11
96.477506
 21
176.162468
 31
0.0
  0
LINE
  5
16F
100
AcDbEntity
  8
ALPHA
100
AcDbLine
 10
96.477521
 20
175.183701
 30
0.0
 11
96.529676
 21
175.328072
 31
0.0
  0
LINE
  5
170
100
AcDbEntity
  8
ALPHA
100
AcDbLine
 10
98.175107
 20
176.731415
 30
0.0
 11
98.319486
 21
176.347687
 31
0.0
  0
LINE
  5
171
100
AcDbEntity
  8
ALPHA
100
AcDbLine
 10
98.175107
 20
174.614693
 30
0.0
 11
98.319486
 21
174.99839
 31
0.0
  0
LINE
  5
172
100
AcDbEntity
  8
ALPHA
100
AcDbLine
 10
98.812055
 20
176.16243
 30
0.0
 11
98.319471
 21
176.347771
 31
0.0
  0
LINE
  5
173
100
AcDbEntity
  8
ALPHA
100
AcDbLine
 10
98.81204
 20
175.183716
 30
0.0
 11
98.319456
 21
174.998383
 31
0.0
  0
LINE
  5
174
100
AcDbEntity
  8
ALPHA
100
AcDbLine
 10
99.904233
 20
176.018066
 30
0.0
 11
98.812055
 21
176.162422
 31
0.0
  0
LINE
  5
175
100
AcDbEntity
  8
ALPHA
100
AcDbLine
 10
98.812055
 20
175.183701
 30
0.0
 11
99.904233
 21
175.328064
 31
0.0
  0
LINE
  5
176
100
AcDbEntity
  8
ALPHA
100
AcDbLine
 10
97.114469
 20
176.73143
 30
0.0
 11
96.970106
 21
176.347763
 31
0.0
  0
LINE
  5
177
100
AcDbEntity
  8
ALPHA
100
AcDbLine
 10
97.114439
 20
174.614731
 30
0.0
 11
96.970121
 21
174.998314
 31
0.0
  0
LINE
  5
178
100
AcDbEntity
  8
ALPHA
100
AcDbLine
 10
96.477521
 20
176.16243
 30
0.0
 11
96.970106
 21
176.347763
 31
0.0
  0
LINE
  5
179
100
AcDbEntity
  8
ALPHA
100
AcDbLine
 10
96.477521
 20
175.183723
 30
0.0
 11
96.970106
 21
174.99839
 31
0.0
  0
LINE
  5
17A
100
AcDbEntity
  8
ALPHA
100
AcDbLine
 10
95.385328
 20
176.018051
 30
0.0
 11
96.477506
 21
176.162407
 31
0.0
  0
LINE
  5
17B
100
AcDbEntity
  8
ALPHA
100
AcDbLine
 10
96.477521
 20
175.183693
 30
0.0
 11
95.385328
 21
175.328056
 31
0.0
  0
ARC
  5
17C
100
AcDbEntity
  8
ALPHA
100
AcDbCircle
 10
97.644788
 20
175.673065
 30
0.0
 40
2.285645
100
AcDbArc
 50
351.318457
 51
8.681508
  0
ARC
  5
17D
100
AcDbEntity
  8
ALPHA
100
AcDbCircle
 10
97.644788
 20
175.673065
 30
0.0
 40
2.285645
100
AcDbArc
 50
171.318466
 51
188.681517
  0
LINE
  5
17E
100
AcDbEntity
  8
ALPHA
100
AcDbLine
 10
97.989774
 20
174.557953
 30
0.0
 11
98.175107
 21
175.142761
 31
0.0
  0
LINE
  5
17F
100
AcDbEntity
  8
ALPHA
100
AcDbLine
 10
97.989805
 20
176.788147
 30
0.0
 11
98.175138
 21
176.203362
 31
0.0
  0
LINE
  5
180
100
AcDbEntity
  8
ALPHA
100
AcDbLine
 10
97.114469
 20
176.203384
 30
0.0
 11
97.299787
 21
176.788162
 31
0.0
  0
LINE
  5
181
100
AcDbEntity
  8
ALPHA
100
AcDbLine
 10
97.299772
 20
174.557991
 30
0.0
 11
97.114439
 21
175.142776
 31
0.0
  0
LINE
  5
182
100
AcDbEntity
  8
ALPHA
100
AcDbLine
 10
97.989789
 20
176.788177
 30
0.0
 11
97.989789
 21
177.18576
 31
0.0
  0
LINE
  5
183
100
AcDbEntity
  8
ALPHA
100
AcDbLine
 10
97.299787
 20
176.788177
 30
0.0
 11
97.299787
 21
177.18576
 31
0.0
  0
LINE
  5
184
100
AcDbEntity
  8
ALPHA
100
AcDbLine
 10
97.989789
 20
174.16037
 30
0.0
 11
97.989789
 21
174.557953
 31
0.0
  0
LINE
  5
185
100
AcDbEntity
  8
ALPHA
100
AcDbLine
 10
97.299787
 20
174.16037
 30
0.0
 11
97.299787
 21
174.557953
 31
0.0
  0
LINE
  5
186
100
AcDbEntity
  8
ALPHA
100
AcDbLine
 10
96.529676
 20
176.018074
 30
0.0
 11
97.114454
 21
176.2034
 31
0.0
  0
LINE
  5
187
100
AcDbEntity
  8
ALPHA
100
AcDbLine
 10
96.529676
 20
175.328056
 30
0.0
 11
97.114454
 21
175.142723
 31
0.0
  0
LINE
  5
188
100
AcDbEntity
  8
ALPHA
100
AcDbLine
 10
98.175107
 20
176.203392
 30
0.0
 11
98.759901
 21
176.018059
 31
0.0
  0
LINE
  5
189
100
AcDbEntity
  8
ALPHA
100
AcDbLine
 10
98.175123
 20
175.142738
 30
0.0
 11
98.759901
 21
175.328072
 31
0.0
  0
ARC
  5
18A
100
AcDbEntity
  8
ALPHA
100
AcDbCircle
 10
97.644788
 20
175.673065
 30
0.0
 40
1.167265
100
AcDbArc
 50
342.808752
 51
17.191268
  0
ARC
  5
18B
100
AcDbEntity
  8
ALPHA
100
AcDbCircle
 10
97.644788
 20
175.673065
 30
0.0
 40
1.167265
100
AcDbArc
 50
162.808706
 51
197.191222
  0
LINE
  5
18C
100
AcDbEntity
  8
ALPHA
100
AcDbLine
 10
98.759901
 20
176.018066
 30
0.0
 11
99.904249
 21
176.018066
 31
0.0
  0
LINE
  5
18D
100
AcDbEntity
  8
ALPHA
100
AcDbLine
 10
98.759901
 20
175.328064
 30
0.0
 11
99.904249
 21
175.328064
 31
0.0
  0
LINE
  5
18E
100
AcDbEntity
  8
ALPHA
100
AcDbLine
 10
95.385328
 20
176.018066
 30
0.0
 11
96.529676
 21
176.018066
 31
0.0
  0
LINE
  5
18F
100
AcDbEntity
  8
ALPHA
100
AcDbLine
 10
95.385328
 20
175.328064
 30
0.0
 11
96.529676
 21
175.328064
 31
0.0
  0
ARC
  5
190
100
AcDbEntity
  8
ALPHA
100
AcDbCircle
 10
97.644788
 20
175.673065
 30
0.0
 40
1.167265
100
AcDbArc
 50
72.808724
 51
107.19124
  0
ARC
  5
191
100
AcDbEntity
  8
ALPHA
100
AcDbCircle
 10
97.644788
 20
175.673065
 30
0.0
 40
1.167265
100
AcDbArc
 50
252.80877
 51
287.191286
  0
ARC
  5
192
100
AcDbEntity
  8
ALPHA
100
AcDbCircle
 10
97.644788
 20
175.673065
 30
0.0
 40
1.551542
100
AcDbArc
 50
257.152388
 51
282.847668
  0
LINE
  5
193
100
AcDbEntity
  8
ALPHA
100
AcDbLine
 10
98.175123
 20
176.2034
 30
0.0
 11
98.175123
 21
178.48349
 31
0.0
  0
LINE
  5
194
100
AcDbEntity
  8
ALPHA
100
AcDbLine
 10
97.114454
 20
176.2034
 30
0.0
 11
97.114454
 21
178.48349
 31
0.0
  0
LINE
  5
195
100
AcDbEntity
  8
ALPHA
100
AcDbLine
 10
98.175123
 20
173.247742
 30
0.0
 11
98.175123
 21
175.142731
 31
0.0
  0
LINE
  5
196
100
AcDbEntity
  8
ALPHA
100
AcDbLine
 10
97.114454
 20
173.247742
 30
0.0
 11
97.114454
 21
175.142731
 31
0.0
  0
LINE
  5
197
100
AcDbEntity
  8
ALPHA
100
AcDbLine
 10
98.144788
 20
173.247742
 30
0.0
 11
98.144788
 21
175.047028
 31
0.0
  0
ARC
  5
198
100
AcDbEntity
  8
ALPHA
100
AcDbCircle
 10
97.644788
 20
175.673065
 30
0.0
 40
2.763781
100
AcDbArc
 50
310.826118
 51
78.937162
  0
ARC
  5
199
100
AcDbEntity
  8
ALPHA
100
AcDbCircle
 10
97.644788
 20
175.673065
 30
0.0
 40
2.763781
100
AcDbArc
 50
101.062867
 51
229.173884
  0
ARC
  5
19A
100
AcDbEntity
  8
ALPHA
100
AcDbCircle
 10
97.644788
 20
175.673065
 30
0.0
 40
2.860018
100
AcDbArc
 50
79.313851
 51
100.686113
  0
LINE
  5
19B
100
AcDbEntity
  8
ALPHA
100
AcDbLine
 10
98.144788
 20
176.299103
 30
0.0
 11
98.144788
 21
178.489044
 31
0.0
  0
LINE
  5
19C
100
AcDbEntity
  8
ALPHA
100
AcDbLine
 10
97.144788
 20
176.299072
 30
0.0
 11
97.144788
 21
178.489044
 31
0.0
  0
LINE
  5
19D
100
AcDbEntity
  8
ALPHA
100
AcDbLine
 10
97.144788
 20
173.247742
 30
0.0
 11
97.144788
 21
175.047028
 31
0.0
  0
ARC
  5
19E
100
AcDbEntity
  8
ALPHA
100
AcDbCircle
 10
97.644788
 20
175.673065
 30
0.0
 40
3.0
100
AcDbArc
 50
343.481416
 51
196.518568
  0
LINE
  5
19F
100
AcDbEntity
  8
ALPHA
100
AcDbLine
 10
97.307661
 20
177.193054
 30
0.0
 11
97.981916
 21
177.193054
 31
0.0
  0
LINE
  5
1A0
100
AcDbEntity
  8
ALPHA
100
AcDbLine
 10
99.141462
 20
178.273071
 30
0.0
 11
100.101682
 21
178.273071
 31
0.0
  0
LINE
  5
1A1
100
AcDbEntity
  8
ALPHA
100
AcDbLine
 10
100.182508
 20
177.273071
 30
0.0
 11
100.667524
 21
177.273071
 31
0.0
  0
LINE
  5
1A2
100
AcDbEntity
  8
ALPHA
100
AcDbLine
 10
95.187879
 20
178.273071
 30
0.0
 11
96.148115
 21
178.273071
 31
0.0
  0
LINE
  5
1A3
100
AcDbEntity
  8
ALPHA
100
AcDbLine
 10
94.622053
 20
177.273071
 30
0.0
 11
95.107069
 21
177.273071
 31
0.0
  0
LINE
  5
1A4
100
AcDbEntity
  8
ALPHA
100
AcDbLine
 10
86.022077
 20
177.273071
 30
0.0
 11
86.507093
 21
177.273071
 31
0.0
  0
LINE
  5
1A5
100
AcDbEntity
  8
ALPHA
100
AcDbLine
 10
86.587903
 20
178.273071
 30
0.0
 11
87.548139
 21
178.273071
 31
0.0
  0
LINE
  5
1A6
100
AcDbEntity
  8
ALPHA
100
AcDbLine
 10
91.582532
 20
177.273071
 30
0.0
 11
92.067548
 21
177.273071
 31
0.0
  0
LINE
  5
1A7
100
AcDbEntity
  8
ALPHA
100
AcDbLine
 10
90.541486
 20
178.273071
 30
0.0
 11
91.501707
 21
178.273071
 31
0.0
  0
LINE
  5
1A8
100
AcDbEntity
  8
ALPHA
100
AcDbLine
 10
88.707685
 20
177.193054
 30
0.0
 11
89.38194
 21
177.193054
 31
0.0
  0
ARC
  5
1A9
100
AcDbEntity
  8
ALPHA
100
AcDbCircle
 10
89.044813
 20
175.673065
 30
0.0
 40
3.0
100
AcDbArc
 50
343.481416
 51
196.518568
  0
LINE
  5
1AA
100
AcDbEntity
  8
ALPHA
100
AcDbLine
 10
88.544813
 20
173.247742
 30
0.0
 11
88.544813
 21
175.047028
 31
0.0
  0
LINE
  5
1AB
100
AcDbEntity
  8
ALPHA
100
AcDbLine
 10
88.544813
 20
176.299072
 30
0.0
 11
88.544813
 21
178.489044
 31
0.0
  0
ARC
  5
1AC
100
AcDbEntity
  8
ALPHA
100
AcDbCircle
 10
89.044813
 20
175.673065
 30
0.0
 40
2.860018
100
AcDbArc
 50
79.313851
 51
100.686113
  0
ARC
  5
1AD
100
AcDbEntity
  8
ALPHA
100
AcDbCircle
 10
89.044813
 20
175.673065
 30
0.0
 40
2.763781
100
AcDbArc
 50
101.062867
 51
229.173884
  0
ARC
  5
1AE
100
AcDbEntity
  8
ALPHA
100
AcDbCircle
 10
89.044813
 20
175.673065
 30
0.0
 40
2.763781
100
AcDbArc
 50
310.826118
 51
78.937162
  0
LINE
  5
1AF
100
AcDbEntity
  8
ALPHA
100
AcDbLine
 10
89.544813
 20
173.247742
 30
0.0
 11
89.544813
 21
175.047028
 31
0.0
  0
LINE
  5
1B0
100
AcDbEntity
  8
ALPHA
100
AcDbLine
 10
89.544813
 20
176.299103
 30
0.0
 11
89.544813
 21
178.489044
 31
0.0
  0
LINE
  5
1B1
100
AcDbEntity
  8
ALPHA
100
AcDbLine
 10
88.514478
 20
173.247742
 30
0.0
 11
88.514478
 21
175.142731
 31
0.0
  0
LINE
  5
1B2
100
AcDbEntity
  8
ALPHA
100
AcDbLine
 10
89.575147
 20
173.247742
 30
0.0
 11
89.575147
 21
175.142731
 31
0.0
  0
LINE
  5
1B3
100
AcDbEntity
  8
ALPHA
100
AcDbLine
 10
88.514478
 20
176.2034
 30
0.0
 11
88.514478
 21
178.48349
 31
0.0
  0
LINE
  5
1B4
100
AcDbEntity
  8
ALPHA
100
AcDbLine
 10
89.575147
 20
176.2034
 30
0.0
 11
89.575147
 21
178.48349
 31
0.0
  0
ARC
  5
1B5
100
AcDbEntity
  8
ALPHA
100
AcDbCircle
 10
89.044813
 20
175.673065
 30
0.0
 40
1.551542
100
AcDbArc
 50
257.152388
 51
282.847668
  0
ARC
  5
1B6
100
AcDbEntity
  8
ALPHA
100
AcDbCircle
 10
89.044813
 20
175.673065
 30
0.0
 40
1.167265
100
AcDbArc
 50
252.80877
 51
287.191286
  0
ARC
  5
1B7
100
AcDbEntity
  8
ALPHA
100
AcDbCircle
 10
89.044813
 20
175.673065
 30
0.0
 40
1.167265
100
AcDbArc
 50
72.808724
 51
107.19124
  0
LINE
  5
1B8
100
AcDbEntity
  8
ALPHA
100
AcDbLine
 10
86.785352
 20
175.328064
 30
0.0
 11
87.9297
 21
175.328064
 31
0.0
  0
LINE
  5
1B9
100
AcDbEntity
  8
ALPHA
100
AcDbLine
 10
86.785352
 20
176.018066
 30
0.0
 11
87.9297
 21
176.018066
 31
0.0
  0
LINE
  5
1BA
100
AcDbEntity
  8
ALPHA
100
AcDbLine
 10
90.159925
 20
175.328064
 30
0.0
 11
91.304273
 21
175.328064
 31
0.0
  0
LINE
  5
1BB
100
AcDbEntity
  8
ALPHA
100
AcDbLine
 10
90.159925
 20
176.018066
 30
0.0
 11
91.304273
 21
176.018066
 31
0.0
  0
ARC
  5
1BC
100
AcDbEntity
  8
ALPHA
100
AcDbCircle
 10
89.044813
 20
175.673065
 30
0.0
 40
1.167265
100
AcDbArc
 50
162.808706
 51
197.191222
  0
ARC
  5
1BD
100
AcDbEntity
  8
ALPHA
100
AcDbCircle
 10
89.044813
 20
175.673065
 30
0.0
 40
1.167265
100
AcDbArc
 50
342.808752
 51
17.191268
  0
LINE
  5
1BE
100
AcDbEntity
  8
ALPHA
100
AcDbLine
 10
89.575147
 20
175.142738
 30
0.0
 11
90.159925
 21
175.328072
 31
0.0
  0
LINE
  5
1BF
100
AcDbEntity
  8
ALPHA
100
AcDbLine
 10
89.575132
 20
176.203392
 30
0.0
 11
90.159925
 21
176.018059
 31
0.0
  0
LINE
  5
1C0
100
AcDbEntity
  8
ALPHA
100
AcDbLine
 10
87.9297
 20
175.328056
 30
0.0
 11
88.514478
 21
175.142723
 31
0.0
  0
LINE
  5
1C1
100
AcDbEntity
  8
ALPHA
100
AcDbLine
 10
87.9297
 20
176.018074
 30
0.0
 11
88.514478
 21
176.2034
 31
0.0
  0
LINE
  5
1C2
100
AcDbEntity
  8
ALPHA
100
AcDbLine
 10
88.699811
 20
174.16037
 30
0.0
 11
88.699811
 21
174.557953
 31
0.0
  0
LINE
  5
1C3
100
AcDbEntity
  8
ALPHA
100
AcDbLine
 10
89.389814
 20
174.16037
 30
0.0
 11
89.389814
 21
174.557953
 31
0.0
  0
LINE
  5
1C4
100
AcDbEntity
  8
ALPHA
100
AcDbLine
 10
88.699811
 20
176.788177
 30
0.0
 11
88.699811
 21
177.18576
 31
0.0
  0
LINE
  5
1C5
100
AcDbEntity
  8
ALPHA
100
AcDbLine
 10
89.389814
 20
176.788177
 30
0.0
 11
89.389814
 21
177.18576
 31
0.0
  0
LINE
  5
1C6
100
AcDbEntity
  8
ALPHA
100
AcDbLine
 10
88.699796
 20
174.557991
 30
0.0
 11
88.514463
 21
175.142776
 31
0.0
  0
LINE
  5
1C7
100
AcDbEntity
  8
ALPHA
100
AcDbLine
 10
88.514493
 20
176.203384
 30
0.0
 11
88.699811
 21
176.788162
 31
0.0
  0
LINE
  5
1C8
100
AcDbEntity
  8
ALPHA
100
AcDbLine
 10
89.389829
 20
176.788147
 30
0.0
 11
89.575162
 21
176.203362
 31
0.0
  0
LINE
  5
1C9
100
AcDbEntity
  8
ALPHA
100
AcDbLine
 10
89.389799
 20
174.557953
 30
0.0
 11
89.575132
 21
175.142761
 31
0.0
  0
ARC
  5
1CA
100
AcDbEntity
  8
ALPHA
100
AcDbCircle
 10
89.044813
 20
175.673065
 30
0.0
 40
2.285645
100
AcDbArc
 50
171.318466
 51
188.681517
  0
ARC
  5
1CB
100
AcDbEntity
  8
ALPHA
100
AcDbCircle
 10
89.044813
 20
175.673065
 30
0.0
 40
2.285645
100
AcDbArc
 50
351.318457
 51
8.681508
  0
LINE
  5
1CC
100
AcDbEntity
  8
ALPHA
100
AcDbLine
 10
87.877546
 20
175.183693
 30
0.0
 11
86.785352
 21
175.328056
 31
0.0
  0
LINE
  5
1CD
100
AcDbEntity
  8
ALPHA
100
AcDbLine
 10
86.785352
 20
176.018051
 30
0.0
 11
87.877531
 21
176.162407
 31
0.0
  0
LINE
  5
1CE
100
AcDbEntity
  8
ALPHA
100
AcDbLine
 10
87.877546
 20
175.183723
 30
0.0
 11
88.37013
 21
174.99839
 31
0.0
  0
LINE
  5
1CF
100
AcDbEntity
  8
ALPHA
100
AcDbLine
 10
87.877546
 20
176.16243
 30
0.0
 11
88.37013
 21
176.347763
 31
0.0
  0
LINE
  5
1D0
100
AcDbEntity
  8
ALPHA
100
AcDbLine
 10
88.514463
 20
174.614731
 30
0.0
 11
88.370145
 21
174.998314
 31
0.0
  0
LINE
  5
1D1
100
AcDbEntity
  8
ALPHA
100
AcDbLine
 10
88.514493
 20
176.73143
 30
0.0
 11
88.37013
 21
176.347763
 31
0.0
  0
LINE
  5
1D2
100
AcDbEntity
  8
ALPHA
100
AcDbLine
 10
90.21208
 20
175.183701
 30
0.0
 11
91.304258
 21
175.328064
 31
0.0
  0
LINE
  5
1D3
100
AcDbEntity
  8
ALPHA
100
AcDbLine
 10
91.304258
 20
176.018066
 30
0.0
 11
90.21208
 21
176.162422
 31
0.0
  0
LINE
  5
1D4
100
AcDbEntity
  8
ALPHA
100
AcDbLine
 10
90.212064
 20
175.183716
 30
0.0
 11
89.71948
 21
174.998383
 31
0.0
  0
LINE
  5
1D5
100
AcDbEntity
  8
ALPHA
100
AcDbLine
 10
90.21208
 20
176.16243
 30
0.0
 11
89.719495
 21
176.347771
 31
0.0
  0
LINE
  5
1D6
100
AcDbEntity
  8
ALPHA
100
AcDbLine
 10
89.575132
 20
174.614693
 30
0.0
 11
89.719511
 21
174.99839
 31
0.0
  0
LINE
  5
1D7
100
AcDbEntity
  8
ALPHA
100
AcDbLine
 10
89.575132
 20
176.731415
 30
0.0
 11
89.719511
 21
176.347687
 31
0.0
  0
LINE
  5
1D8
100
AcDbEntity
  8
ALPHA
100
AcDbLine
 10
87.877546
 20
175.183701
 30
0.0
 11
87.9297
 21
175.328072
 31
0.0
  0
LINE
  5
1D9
100
AcDbEntity
  8
ALPHA
100
AcDbLine
 10
87.92967
 20
176.01812
 30
0.0
 11
87.877531
 21
176.162468
 31
0.0
  0
LINE
  5
1DA
100
AcDbEntity
  8
ALPHA
100
AcDbLine
 10
90.212064
 20
175.183739
 30
0.0
 11
90.159925
 21
175.328094
 31
0.0
  0
LINE
  5
1DB
100
AcDbEntity
  8
ALPHA
100
AcDbLine
 10
90.159925
 20
176.018059
 30
0.0
 11
90.212064
 21
176.162422
 31
0.0
  0
LINE
  5
1DC
100
AcDbEntity
  8
ALPHA
100
AcDbLine
 10
88.544797
 20
174.501999
 30
0.0
 11
88.699796
 21
174.557991
 31
0.0
  0
LINE
  5
1DD
100
AcDbEntity
  8
ALPHA
100
AcDbLine
 10
89.544828
 20
174.501953
 30
0.0
 11
89.389814
 21
174.557953
 31
0.0
  0
LINE
  5
1DE
100
AcDbEntity
  8
ALPHA
100
AcDbLine
 10
88.544797
 20
176.844162
 30
0.0
 11
88.699811
 21
176.78817
 31
0.0
  0
LINE
  5
1DF
100
AcDbEntity
  8
ALPHA
100
AcDbLine
 10
89.544797
 20
176.844208
 30
0.0
 11
89.389799
 21
176.788216
 31
0.0
  0
LINE
  5
1E0
100
AcDbEntity
  8
AXE
100
AcDbLine
 10
89.044813
 20
173.247742
 30
0.0
 11
89.044813
 21
179.422775
 31
0.0
  0
ARC
  5
1E1
100
AcDbEntity
  8
ALPHA
100
AcDbCircle
 10
89.043745
 20
160.416167
 30
0.0
 40
18.606903
100
AcDbArc
 50
84.820404
 51
95.171965
  0
ARC
  5
1E2
100
AcDbEntity
  8
ALPHA
100
AcDbCircle
 10
89.044813
 20
176.222778
 30
0.0
 40
3.2
100
AcDbArc
 50
194.361625
 51
248.387943
  0
ARC
  5
1E3
100
AcDbEntity
  8
ALPHA
100
AcDbCircle
 10
89.044813
 20
176.222778
 30
0.0
 40
3.2
100
AcDbArc
 50
14.361624
 51
165.638371
  0
LINE
  5
1E4
100
AcDbEntity
  8
ALPHA
100
AcDbLine
 10
92.144819
 20
175.429077
 30
0.0
 11
92.144819
 21
177.016479
 31
0.0
  0
LINE
  5
1E5
100
AcDbEntity
  8
ALPHA
100
AcDbLine
 10
85.944807
 20
175.429077
 30
0.0
 11
85.944807
 21
177.016479
 31
0.0
  0
ARC
  5
1E6
100
AcDbEntity
  8
ALPHA
100
AcDbCircle
 10
97.644788
 20
176.222778
 30
0.0
 40
3.2
100
AcDbArc
 50
291.612058
 51
345.63839
  0
ARC
  5
1E7
100
AcDbEntity
  8
ALPHA
100
AcDbCircle
 10
89.044813
 20
176.222778
 30
0.0
 40
3.2
100
AcDbArc
 50
291.612058
 51
345.63839
  0
LINE
  5
1E8
100
AcDbEntity
  8
ALPHA
100
AcDbLine
 10
103.222028
 20
161.222426
 30
0.0
 11
103.707044
 21
161.222426
 31
0.0
  0
LINE
  5
1E9
100
AcDbEntity
  8
ALPHA
100
AcDbLine
 10
103.787855
 20
160.222426
 30
0.0
 11
104.74809
 21
160.222426
 31
0.0
  0
LINE
  5
1EA
100
AcDbEntity
  8
ALPHA
100
AcDbLine
 10
108.782484
 20
161.222426
 30
0.0
 11
109.267499
 21
161.222426
 31
0.0
  0
LINE
  5
1EB
100
AcDbEntity
  8
ALPHA
100
AcDbLine
 10
107.741437
 20
160.222426
 30
0.0
 11
108.701658
 21
160.222426
 31
0.0
  0
LINE
  5
1EC
100
AcDbEntity
  8
ALPHA
100
AcDbLine
 10
105.907636
 20
161.302444
 30
0.0
 11
106.581892
 21
161.302444
 31
0.0
  0
ARC
  5
1ED
100
AcDbEntity
  8
ALPHA
100
AcDbCircle
 10
106.244764
 20
162.822433
 30
0.0
 40
3.0
100
AcDbArc
 50
163.481397
 51
16.518604
  0
LINE
  5
1EE
100
AcDbEntity
  8
ALPHA
100
AcDbLine
 10
105.744764
 20
165.433402
 30
0.0
 11
105.744764
 21
163.44847
 31
0.0
  0
LINE
  5
1EF
100
AcDbEntity
  8
ALPHA
100
AcDbLine
 10
105.744764
 20
162.19641
 30
0.0
 11
105.744764
 21
160.006454
 31
0.0
  0
ARC
  5
1F0
100
AcDbEntity
  8
ALPHA
100
AcDbCircle
 10
106.244764
 20
162.822433
 30
0.0
 40
2.860018
100
AcDbArc
 50
259.313897
 51
280.686159
  0
ARC
  5
1F1
100
AcDbEntity
  8
ALPHA
100
AcDbCircle
 10
106.244764
 20
162.822433
 30
0.0
 40
2.763781
100
AcDbArc
 50
130.826099
 51
258.937116
  0
ARC
  5
1F2
100
AcDbEntity
  8
ALPHA
100
AcDbCircle
 10
106.244764
 20
162.822433
 30
0.0
 40
2.763781
100
AcDbArc
 50
281.062858
 51
49.173875
  0
LINE
  5
1F3
100
AcDbEntity
  8
ALPHA
100
AcDbLine
 10
106.744764
 20
165.433402
 30
0.0
 11
106.744764
 21
163.44847
 31
0.0
  0
LINE
  5
1F4
100
AcDbEntity
  8
ALPHA
100
AcDbLine
 10
106.744764
 20
162.196395
 30
0.0
 11
106.744764
 21
160.006454
 31
0.0
  0
LINE
  5
1F5
100
AcDbEntity
  8
ALPHA
100
AcDbLine
 10
105.714429
 20
165.428451
 30
0.0
 11
105.714429
 21
163.352767
 31
0.0
  0
LINE
  5
1F6
100
AcDbEntity
  8
ALPHA
100
AcDbLine
 10
106.775098
 20
165.428451
 30
0.0
 11
106.775098
 21
163.352767
 31
0.0
  0
LINE
  5
1F7
100
AcDbEntity
  8
ALPHA
100
AcDbLine
 10
105.714429
 20
162.292098
 30
0.0
 11
105.714429
 21
160.012008
 31
0.0
  0
LINE
  5
1F8
100
AcDbEntity
  8
ALPHA
100
AcDbLine
 10
106.775098
 20
162.292098
 30
0.0
 11
106.775098
 21
160.012008
 31
0.0
  0
ARC
  5
1F9
100
AcDbEntity
  8
ALPHA
100
AcDbCircle
 10
106.244764
 20
162.822433
 30
0.0
 40
1.551542
100
AcDbArc
 50
77.152342
 51
102.847622
  0
ARC
  5
1FA
100
AcDbEntity
  8
ALPHA
100
AcDbCircle
 10
106.244764
 20
162.822433
 30
0.0
 40
1.167265
100
AcDbArc
 50
72.808724
 51
107.19124
  0
ARC
  5
1FB
100
AcDbEntity
  8
ALPHA
100
AcDbCircle
 10
106.244764
 20
162.822433
 30
0.0
 40
1.167265
100
AcDbArc
 50
252.80877
 51
287.191286
  0
LINE
  5
1FC
100
AcDbEntity
  8
ALPHA
100
AcDbLine
 10
103.985303
 20
163.167434
 30
0.0
 11
105.129652
 21
163.167434
 31
0.0
  0
LINE
  5
1FD
100
AcDbEntity
  8
ALPHA
100
AcDbLine
 10
103.985303
 20
162.477431
 30
0.0
 11
105.129652
 21
162.477431
 31
0.0
  0
LINE
  5
1FE
100
AcDbEntity
  8
ALPHA
100
AcDbLine
 10
107.359876
 20
163.167434
 30
0.0
 11
108.504224
 21
163.167434
 31
0.0
  0
LINE
  5
1FF
100
AcDbEntity
  8
ALPHA
100
AcDbLine
 10
107.359876
 20
162.477431
 30
0.0
 11
108.504224
 21
162.477431
 31
0.0
  0
ARC
  5
200
100
AcDbEntity
  8
ALPHA
100
AcDbCircle
 10
106.244764
 20
162.822433
 30
0.0
 40
1.167265
100
AcDbArc
 50
162.80876
 51
197.191277
  0
ARC
  5
201
100
AcDbEntity
  8
ALPHA
100
AcDbCircle
 10
106.244764
 20
162.822433
 30
0.0
 40
1.167265
100
AcDbArc
 50
342.808724
 51
17.191241
  0
LINE
  5
202
100
AcDbEntity
  8
ALPHA
100
AcDbLine
 10
106.775083
 20
163.352759
 30
0.0
 11
107.359876
 21
163.167434
 31
0.0
  0
LINE
  5
203
100
AcDbEntity
  8
ALPHA
100
AcDbLine
 10
106.775083
 20
162.292106
 30
0.0
 11
107.359861
 21
162.477431
 31
0.0
  0
LINE
  5
204
100
AcDbEntity
  8
ALPHA
100
AcDbLine
 10
105.129636
 20
163.167426
 30
0.0
 11
105.714429
 21
163.352759
 31
0.0
  0
LINE
  5
205
100
AcDbEntity
  8
ALPHA
100
AcDbLine
 10
105.129652
 20
162.477424
 30
0.0
 11
105.714445
 21
162.29209
 31
0.0
  0
LINE
  5
206
100
AcDbEntity
  8
ALPHA
100
AcDbLine
 10
105.899763
 20
164.335128
 30
0.0
 11
105.899763
 21
163.937545
 31
0.0
  0
LINE
  5
207
100
AcDbEntity
  8
ALPHA
100
AcDbLine
 10
106.589765
 20
164.335128
 30
0.0
 11
106.589765
 21
163.937545
 31
0.0
  0
LINE
  5
208
100
AcDbEntity
  8
ALPHA
100
AcDbLine
 10
105.899763
 20
161.70732
 30
0.0
 11
105.899763
 21
161.309737
 31
0.0
  0
LINE
  5
209
100
AcDbEntity
  8
ALPHA
100
AcDbLine
 10
106.589765
 20
161.70732
 30
0.0
 11
106.589765
 21
161.309737
 31
0.0
  0
LINE
  5
20A
100
AcDbEntity
  8
ALPHA
100
AcDbLine
 10
105.899747
 20
163.937507
 30
0.0
 11
105.714414
 21
163.352721
 31
0.0
  0
LINE
  5
20B
100
AcDbEntity
  8
ALPHA
100
AcDbLine
 10
105.714429
 20
162.292106
 30
0.0
 11
105.899747
 21
161.707313
 31
0.0
  0
LINE
  5
20C
100
AcDbEntity
  8
ALPHA
100
AcDbLine
 10
106.58978
 20
161.707351
 30
0.0
 11
106.775098
 21
162.292121
 31
0.0
  0
LINE
  5
20D
100
AcDbEntity
  8
ALPHA
100
AcDbLine
 10
106.58975
 20
163.937545
 30
0.0
 11
106.775083
 21
163.352744
 31
0.0
  0
ARC
  5
20E
100
AcDbEntity
  8
ALPHA
100
AcDbCircle
 10
106.244764
 20
162.822433
 30
0.0
 40
2.285645
100
AcDbArc
 50
171.318466
 51
188.681517
  0
ARC
  5
20F
100
AcDbEntity
  8
ALPHA
100
AcDbCircle
 10
106.244764
 20
162.822433
 30
0.0
 40
2.285645
100
AcDbArc
 50
351.318484
 51
8.681536
  0
LINE
  5
210
100
AcDbEntity
  8
ALPHA
100
AcDbLine
 10
105.077497
 20
163.31179
 30
0.0
 11
103.985288
 21
163.167434
 31
0.0
  0
LINE
  5
211
100
AcDbEntity
  8
ALPHA
100
AcDbLine
 10
103.985303
 20
162.477431
 30
0.0
 11
105.077482
 21
162.333076
 31
0.0
  0
LINE
  5
212
100
AcDbEntity
  8
ALPHA
100
AcDbLine
 10
105.077497
 20
163.311774
 30
0.0
 11
105.570081
 21
163.497115
 31
0.0
  0
LINE
  5
213
100
AcDbEntity
  8
ALPHA
100
AcDbLine
 10
105.077497
 20
162.333045
 30
0.0
 11
105.570066
 21
162.147727
 31
0.0
  0
LINE
  5
214
100
AcDbEntity
  8
ALPHA
100
AcDbLine
 10
105.714399
 20
163.880759
 30
0.0
 11
105.570081
 21
163.497184
 31
0.0
  0
LINE
  5
215
100
AcDbEntity
  8
ALPHA
100
AcDbLine
 10
105.714429
 20
161.76406
 30
0.0
 11
105.570081
 21
162.147735
 31
0.0
  0
LINE
  5
216
100
AcDbEntity
  8
ALPHA
100
AcDbLine
 10
107.412031
 20
163.311782
 30
0.0
 11
108.504209
 21
163.167426
 31
0.0
  0
LINE
  5
217
100
AcDbEntity
  8
ALPHA
100
AcDbLine
 10
108.504209
 20
162.477439
 30
0.0
 11
107.412015
 21
162.333083
 31
0.0
  0
LINE
  5
218
100
AcDbEntity
  8
ALPHA
100
AcDbLine
 10
107.412015
 20
163.311774
 30
0.0
 11
106.919431
 21
163.497115
 31
0.0
  0
LINE
  5
219
100
AcDbEntity
  8
ALPHA
100
AcDbLine
 10
107.412031
 20
162.33306
 30
0.0
 11
106.919446
 21
162.147727
 31
0.0
  0
LINE
  5
21A
100
AcDbEntity
  8
ALPHA
100
AcDbLine
 10
106.775083
 20
163.88079
 30
0.0
 11
106.919446
 21
163.497108
 31
0.0
  0
LINE
  5
21B
100
AcDbEntity
  8
ALPHA
100
AcDbLine
 10
106.775083
 20
161.764083
 30
0.0
 11
106.919462
 21
162.147811
 31
0.0
  0
LINE
  5
21C
100
AcDbEntity
  8
ALPHA
100
AcDbLine
 10
105.077497
 20
163.311774
 30
0.0
 11
105.129652
 21
163.167418
 31
0.0
  0
LINE
  5
21D
100
AcDbEntity
  8
ALPHA
100
AcDbLine
 10
105.129621
 20
162.47737
 30
0.0
 11
105.077466
 21
162.333014
 31
0.0
  0
LINE
  5
21E
100
AcDbEntity
  8
ALPHA
100
AcDbLine
 10
107.412015
 20
163.311759
 30
0.0
 11
107.359876
 21
163.167396
 31
0.0
  0
LINE
  5
21F
100
AcDbEntity
  8
ALPHA
100
AcDbLine
 10
107.359891
 20
162.477431
 30
0.0
 11
107.412031
 21
162.333068
 31
0.0
  0
LINE
  5
220
100
AcDbEntity
  8
ALPHA
100
AcDbLine
 10
105.744749
 20
163.993499
 30
0.0
 11
105.899747
 21
163.937507
 31
0.0
  0
LINE
  5
221
100
AcDbEntity
  8
ALPHA
100
AcDbLine
 10
106.744779
 20
163.993537
 30
0.0
 11
106.589765
 21
163.937545
 31
0.0
  0
LINE
  5
222
100
AcDbEntity
  8
ALPHA
100
AcDbLine
 10
105.744749
 20
161.65132
 30
0.0
 11
105.899763
 21
161.707313
 31
0.0
  0
LINE
  5
223
100
AcDbEntity
  8
ALPHA
100
AcDbLine
 10
106.744749
 20
161.651275
 30
0.0
 11
106.58975
 21
161.707267
 31
0.0
  0
LINE
  5
224
100
AcDbEntity
  8
AXE
100
AcDbLine
 10
106.244764
 20
165.472701
 30
0.0
 11
106.244764
 21
159.072707
 31
0.0
  0
ARC
  5
225
100
AcDbEntity
  8
ALPHA
100
AcDbCircle
 10
106.243696
 20
178.07933
 30
0.0
 40
18.606903
100
AcDbArc
 50
264.828045
 51
275.179606
  0
ARC
  5
226
100
AcDbEntity
  8
ALPHA
100
AcDbCircle
 10
106.244764
 20
162.272704
 30
0.0
 40
3.2
100
AcDbArc
 50
194.361625
 51
345.63839
  0
ARC
  5
227
100
AcDbEntity
  8
ALPHA
100
AcDbCircle
 10
106.244764
 20
162.272704
 30
0.0
 40
3.2
100
AcDbArc
 50
14.361624
 51
165.638371
  0
LINE
  5
228
100
AcDbEntity
  8
ALPHA
100
AcDbLine
 10
109.34477
 20
161.479003
 30
0.0
 11
109.34477
 21
163.066405
 31
0.0
  0
LINE
  5
229
100
AcDbEntity
  8
ALPHA
100
AcDbLine
 10
103.144758
 20
161.479003
 30
0.0
 11
103.144758
 21
163.066405
 31
0.0
  0
LINE
  5
22A
100
AcDbEntity
  8
ALPHA
100
AcDbLine
 10
94.544782
 20
161.479003
 30
0.0
 11
94.544782
 21
163.066405
 31
0.0
  0
LINE
  5
22B
100
AcDbEntity
  8
ALPHA
100
AcDbLine
 10
100.744794
 20
161.479003
 30
0.0
 11
100.744794
 21
163.066405
 31
0.0
  0
ARC
  5
22C
100
AcDbEntity
  8
ALPHA
100
AcDbCircle
 10
97.644788
 20
162.272704
 30
0.0
 40
3.2
100
AcDbArc
 50
14.361624
 51
68.387932
  0
ARC
  5
22D
100
AcDbEntity
  8
ALPHA
100
AcDbCircle
 10
97.644788
 20
162.272704
 30
0.0
 40
3.2
100
AcDbArc
 50
194.361625
 51
345.63839
  0
ARC
  5
22E
100
AcDbEntity
  8
ALPHA
100
AcDbCircle
 10
97.64372
 20
178.07933
 30
0.0
 40
18.606903
100
AcDbArc
 50
264.828045
 51
275.179606
  0
LINE
  5
22F
100
AcDbEntity
  8
AXE
100
AcDbLine
 10
97.644788
 20
165.247741
 30
0.0
 11
97.644788
 21
159.072707
 31
0.0
  0
LINE
  5
230
100
AcDbEntity
  8
ALPHA
100
AcDbLine
 10
98.144773
 20
161.651275
 30
0.0
 11
97.989774
 21
161.707267
 31
0.0
  0
LINE
  5
231
100
AcDbEntity
  8
ALPHA
100
AcDbLine
 10
97.144773
 20
161.65132
 30
0.0
 11
97.299787
 21
161.707313
 31
0.0
  0
LINE
  5
232
100
AcDbEntity
  8
ALPHA
100
AcDbLine
 10
98.144804
 20
163.993537
 30
0.0
 11
97.989789
 21
163.937545
 31
0.0
  0
LINE
  5
233
100
AcDbEntity
  8
ALPHA
100
AcDbLine
 10
97.144773
 20
163.993499
 30
0.0
 11
97.299772
 21
163.937507
 31
0.0
  0
LINE
  5
234
100
AcDbEntity
  8
ALPHA
100
AcDbLine
 10
98.759916
 20
162.477431
 30
0.0
 11
98.812055
 21
162.333068
 31
0.0
  0
LINE
  5
235
100
AcDbEntity
  8
ALPHA
100
AcDbLine
 10
98.81204
 20
163.311759
 30
0.0
 11
98.759901
 21
163.167396
 31
0.0
  0
LINE
  5
236
100
AcDbEntity
  8
ALPHA
100
AcDbLine
 10
96.529645
 20
162.47737
 30
0.0
 11
96.477491
 21
162.333014
 31
0.0
  0
LINE
  5
237
100
AcDbEntity
  8
ALPHA
100
AcDbLine
 10
96.477521
 20
163.311774
 30
0.0
 11
96.529676
 21
163.167418
 31
0.0
  0
LINE
  5
238
100
AcDbEntity
  8
ALPHA
100
AcDbLine
 10
98.175107
 20
161.764083
 30
0.0
 11
98.319486
 21
162.147811
 31
0.0
  0
LINE
  5
239
100
AcDbEntity
  8
ALPHA
100
AcDbLine
 10
98.175107
 20
163.88079
 30
0.0
 11
98.319471
 21
163.497108
 31
0.0
  0
LINE
  5
23A
100
AcDbEntity
  8
ALPHA
100
AcDbLine
 10
98.812055
 20
162.33306
 30
0.0
 11
98.319471
 21
162.147727
 31
0.0
  0
LINE
  5
23B
100
AcDbEntity
  8
ALPHA
100
AcDbLine
 10
98.81204
 20
163.311774
 30
0.0
 11
98.319456
 21
163.497115
 31
0.0
  0
LINE
  5
23C
100
AcDbEntity
  8
ALPHA
100
AcDbLine
 10
99.904233
 20
162.477439
 30
0.0
 11
98.81204
 21
162.333083
 31
0.0
  0
LINE
  5
23D
100
AcDbEntity
  8
ALPHA
100
AcDbLine
 10
98.812055
 20
163.311782
 30
0.0
 11
99.904233
 21
163.167426
 31
0.0
  0
LINE
  5
23E
100
AcDbEntity
  8
ALPHA
100
AcDbLine
 10
97.114454
 20
161.76406
 30
0.0
 11
96.970106
 21
162.147735
 31
0.0
  0
LINE
  5
23F
100
AcDbEntity
  8
ALPHA
100
AcDbLine
 10
97.114423
 20
163.880759
 30
0.0
 11
96.970106
 21
163.497184
 31
0.0
  0
LINE
  5
240
100
AcDbEntity
  8
ALPHA
100
AcDbLine
 10
96.477521
 20
162.333045
 30
0.0
 11
96.97009
 21
162.147727
 31
0.0
  0
LINE
  5
241
100
AcDbEntity
  8
ALPHA
100
AcDbLine
 10
96.477521
 20
163.311774
 30
0.0
 11
96.970106
 21
163.497115
 31
0.0
  0
LINE
  5
242
100
AcDbEntity
  8
ALPHA
100
AcDbLine
 10
95.385328
 20
162.477431
 30
0.0
 11
96.477506
 21
162.333076
 31
0.0
  0
LINE
  5
243
100
AcDbEntity
  8
ALPHA
100
AcDbLine
 10
96.477521
 20
163.31179
 30
0.0
 11
95.385313
 21
163.167434
 31
0.0
  0
ARC
  5
244
100
AcDbEntity
  8
ALPHA
100
AcDbCircle
 10
97.644788
 20
162.822433
 30
0.0
 40
2.285645
100
AcDbArc
 50
351.318484
 51
8.681536
  0
ARC
  5
245
100
AcDbEntity
  8
ALPHA
100
AcDbCircle
 10
97.644788
 20
162.822433
 30
0.0
 40
2.285645
100
AcDbArc
 50
171.318466
 51
188.681517
  0
LINE
  5
246
100
AcDbEntity
  8
ALPHA
100
AcDbLine
 10
97.989774
 20
163.937545
 30
0.0
 11
98.175107
 21
163.352744
 31
0.0
  0
LINE
  5
247
100
AcDbEntity
  8
ALPHA
100
AcDbLine
 10
97.989805
 20
161.707351
 30
0.0
 11
98.175123
 21
162.292121
 31
0.0
  0
LINE
  5
248
100
AcDbEntity
  8
ALPHA
100
AcDbLine
 10
97.114454
 20
162.292106
 30
0.0
 11
97.299772
 21
161.707313
 31
0.0
  0
LINE
  5
249
100
AcDbEntity
  8
ALPHA
100
AcDbLine
 10
97.299772
 20
163.937507
 30
0.0
 11
97.114439
 21
163.352721
 31
0.0
  0
LINE
  5
24A
100
AcDbEntity
  8
ALPHA
100
AcDbLine
 10
97.989789
 20
161.70732
 30
0.0
 11
97.989789
 21
161.309737
 31
0.0
  0
LINE
  5
24B
100
AcDbEntity
  8
ALPHA
100
AcDbLine
 10
97.299787
 20
161.70732
 30
0.0
 11
97.299787
 21
161.309737
 31
0.0
  0
LINE
  5
24C
100
AcDbEntity
  8
ALPHA
100
AcDbLine
 10
97.989789
 20
164.335128
 30
0.0
 11
97.989789
 21
163.937545
 31
0.0
  0
LINE
  5
24D
100
AcDbEntity
  8
ALPHA
100
AcDbLine
 10
97.299787
 20
164.335128
 30
0.0
 11
97.299787
 21
163.937545
 31
0.0
  0
LINE
  5
24E
100
AcDbEntity
  8
ALPHA
100
AcDbLine
 10
96.529676
 20
162.477424
 30
0.0
 11
97.114469
 21
162.29209
 31
0.0
  0
LINE
  5
24F
100
AcDbEntity
  8
ALPHA
100
AcDbLine
 10
96.529661
 20
163.167426
 30
0.0
 11
97.114454
 21
163.352759
 31
0.0
  0
LINE
  5
250
100
AcDbEntity
  8
ALPHA
100
AcDbLine
 10
98.175107
 20
162.292106
 30
0.0
 11
98.759885
 21
162.477431
 31
0.0
  0
LINE
  5
251
100
AcDbEntity
  8
ALPHA
100
AcDbLine
 10
98.175107
 20
163.352759
 30
0.0
 11
98.759901
 21
163.167434
 31
0.0
  0
ARC
  5
252
100
AcDbEntity
  8
ALPHA
100
AcDbCircle
 10
97.644788
 20
162.822433
 30
0.0
 40
1.167265
100
AcDbArc
 50
342.808724
 51
17.191241
  0
ARC
  5
253
100
AcDbEntity
  8
ALPHA
100
AcDbCircle
 10
97.644788
 20
162.822433
 30
0.0
 40
1.167265
100
AcDbArc
 50
162.80876
 51
197.191277
  0
LINE
  5
254
100
AcDbEntity
  8
ALPHA
100
AcDbLine
 10
98.759901
 20
162.477431
 30
0.0
 11
99.904249
 21
162.477431
 31
0.0
  0
LINE
  5
255
100
AcDbEntity
  8
ALPHA
100
AcDbLine
 10
98.759901
 20
163.167434
 30
0.0
 11
99.904249
 21
163.167434
 31
0.0
  0
LINE
  5
256
100
AcDbEntity
  8
ALPHA
100
AcDbLine
 10
95.385328
 20
162.477431
 30
0.0
 11
96.529676
 21
162.477431
 31
0.0
  0
LINE
  5
257
100
AcDbEntity
  8
ALPHA
100
AcDbLine
 10
95.385328
 20
163.167434
 30
0.0
 11
96.529676
 21
163.167434
 31
0.0
  0
ARC
  5
258
100
AcDbEntity
  8
ALPHA
100
AcDbCircle
 10
97.644788
 20
162.822433
 30
0.0
 40
1.167265
100
AcDbArc
 50
252.80877
 51
287.191286
  0
ARC
  5
259
100
AcDbEntity
  8
ALPHA
100
AcDbCircle
 10
97.644788
 20
162.822433
 30
0.0
 40
1.167265
100
AcDbArc
 50
72.808724
 51
107.19124
  0
ARC
  5
25A
100
AcDbEntity
  8
ALPHA
100
AcDbCircle
 10
97.644788
 20
162.822433
 30
0.0
 40
1.551542
100
AcDbArc
 50
77.152342
 51
102.847622
  0
LINE
  5
25B
100
AcDbEntity
  8
ALPHA
100
AcDbLine
 10
98.175123
 20
162.292098
 30
0.0
 11
98.175123
 21
160.012008
 31
0.0
  0
LINE
  5
25C
100
AcDbEntity
  8
ALPHA
100
AcDbLine
 10
97.114454
 20
162.292098
 30
0.0
 11
97.114454
 21
160.012008
 31
0.0
  0
LINE
  5
25D
100
AcDbEntity
  8
ALPHA
100
AcDbLine
 10
98.175123
 20
165.247741
 30
0.0
 11
98.175123
 21
163.352767
 31
0.0
  0
LINE
  5
25E
100
AcDbEntity
  8
ALPHA
100
AcDbLine
 10
97.114454
 20
165.247741
 30
0.0
 11
97.114454
 21
163.352767
 31
0.0
  0
LINE
  5
25F
100
AcDbEntity
  8
ALPHA
100
AcDbLine
 10
98.144788
 20
165.247741
 30
0.0
 11
98.144788
 21
163.44847
 31
0.0
  0
ARC
  5
260
100
AcDbEntity
  8
ALPHA
100
AcDbCircle
 10
97.644788
 20
162.822433
 30
0.0
 40
2.763781
100
AcDbArc
 50
281.062858
 51
49.173875
  0
ARC
  5
261
100
AcDbEntity
  8
ALPHA
100
AcDbCircle
 10
97.644788
 20
162.822433
 30
0.0
 40
2.763781
100
AcDbArc
 50
130.826099
 51
258.937116
  0
ARC
  5
262
100
AcDbEntity
  8
ALPHA
100
AcDbCircle
 10
97.644788
 20
162.822433
 30
0.0
 40
2.860018
100
AcDbArc
 50
259.313897
 51
280.686159
  0
LINE
  5
263
100
AcDbEntity
  8
ALPHA
100
AcDbLine
 10
98.144788
 20
162.196395
 30
0.0
 11
98.144788
 21
160.006454
 31
0.0
  0
LINE
  5
264
100
AcDbEntity
  8
ALPHA
100
AcDbLine
 10
97.144788
 20
162.19641
 30
0.0
 11
97.144788
 21
160.006454
 31
0.0
  0
LINE
  5
265
100
AcDbEntity
  8
ALPHA
100
AcDbLine
 10
97.144788
 20
165.247741
 30
0.0
 11
97.144788
 21
163.44847
 31
0.0
  0
ARC
  5
266
100
AcDbEntity
  8
ALPHA
100
AcDbCircle
 10
97.644788
 20
162.822433
 30
0.0
 40
3.0
100
AcDbArc
 50
163.481397
 51
16.518604
  0
LINE
  5
267
100
AcDbEntity
  8
ALPHA
100
AcDbLine
 10
97.307661
 20
161.302444
 30
0.0
 11
97.981916
 21
161.302444
 31
0.0
  0
LINE
  5
268
100
AcDbEntity
  8
ALPHA
100
AcDbLine
 10
99.141462
 20
160.222426
 30
0.0
 11
100.101682
 21
160.222426
 31
0.0
  0
LINE
  5
269
100
AcDbEntity
  8
ALPHA
100
AcDbLine
 10
100.182508
 20
161.222426
 30
0.0
 11
100.667524
 21
161.222426
 31
0.0
  0
LINE
  5
26A
100
AcDbEntity
  8
ALPHA
100
AcDbLine
 10
95.187879
 20
160.222426
 30
0.0
 11
96.148115
 21
160.222426
 31
0.0
  0
LINE
  5
26B
100
AcDbEntity
  8
ALPHA
100
AcDbLine
 10
94.622053
 20
161.222426
 30
0.0
 11
95.107069
 21
161.222426
 31
0.0
  0
LINE
  5
26C
100
AcDbEntity
  8
ALPHA
100
AcDbLine
 10
86.022077
 20
161.222426
 30
0.0
 11
86.507093
 21
161.222426
 31
0.0
  0
LINE
  5
26D
100
AcDbEntity
  8
ALPHA
100
AcDbLine
 10
86.587903
 20
160.222426
 30
0.0
 11
87.548139
 21
160.222426
 31
0.0
  0
LINE
  5
26E
100
AcDbEntity
  8
ALPHA
100
AcDbLine
 10
91.582532
 20
161.222426
 30
0.0
 11
92.067548
 21
161.222426
 31
0.0
  0
LINE
  5
26F
100
AcDbEntity
  8
ALPHA
100
AcDbLine
 10
90.541486
 20
160.222426
 30
0.0
 11
91.501707
 21
160.222426
 31
0.0
  0
LINE
  5
270
100
AcDbEntity
  8
ALPHA
100
AcDbLine
 10
88.707685
 20
161.302444
 30
0.0
 11
89.38194
 21
161.302444
 31
0.0
  0
ARC
  5
271
100
AcDbEntity
  8
ALPHA
100
AcDbCircle
 10
89.044813
 20
162.822433
 30
0.0
 40
3.0
100
AcDbArc
 50
163.481397
 51
16.518604
  0
LINE
  5
272
100
AcDbEntity
  8
ALPHA
100
AcDbLine
 10
88.544813
 20
165.247741
 30
0.0
 11
88.544813
 21
163.44847
 31
0.0
  0
LINE
  5
273
100
AcDbEntity
  8
ALPHA
100
AcDbLine
 10
88.544813
 20
162.19641
 30
0.0
 11
88.544813
 21
160.006454
 31
0.0
  0
ARC
  5
274
100
AcDbEntity
  8
ALPHA
100
AcDbCircle
 10
89.044813
 20
162.822433
 30
0.0
 40
2.860018
100
AcDbArc
 50
259.313897
 51
280.686159
  0
ARC
  5
275
100
AcDbEntity
  8
ALPHA
100
AcDbCircle
 10
89.044813
 20
162.822433
 30
0.0
 40
2.763781
100
AcDbArc
 50
130.826099
 51
258.937116
  0
ARC
  5
276
100
AcDbEntity
  8
ALPHA
100
AcDbCircle
 10
89.044813
 20
162.822433
 30
0.0
 40
2.763781
100
AcDbArc
 50
281.062858
 51
49.173875
  0
LINE
  5
277
100
AcDbEntity
  8
ALPHA
100
AcDbLine
 10
89.544813
 20
165.247741
 30
0.0
 11
89.544813
 21
163.44847
 31
0.0
  0
LINE
  5
278
100
AcDbEntity
  8
ALPHA
100
AcDbLine
 10
89.544813
 20
162.196395
 30
0.0
 11
89.544813
 21
160.006454
 31
0.0
  0
LINE
  5
279
100
AcDbEntity
  8
ALPHA
100
AcDbLine
 10
88.514478
 20
165.247741
 30
0.0
 11
88.514478
 21
163.352767
 31
0.0
  0
LINE
  5
27A
100
AcDbEntity
  8
ALPHA
100
AcDbLine
 10
89.575147
 20
165.247741
 30
0.0
 11
89.575147
 21
163.352767
 31
0.0
  0
LINE
  5
27B
100
AcDbEntity
  8
ALPHA
100
AcDbLine
 10
88.514478
 20
162.292098
 30
0.0
 11
88.514478
 21
160.012008
 31
0.0
  0
LINE
  5
27C
100
AcDbEntity
  8
ALPHA
100
AcDbLine
 10
89.575147
 20
162.292098
 30
0.0
 11
89.575147
 21
160.012008
 31
0.0
  0
ARC
  5
27D
100
AcDbEntity
  8
ALPHA
100
AcDbCircle
 10
89.044813
 20
162.822433
 30
0.0
 40
1.551542
100
AcDbArc
 50
77.152342
 51
102.847622
  0
ARC
  5
27E
100
AcDbEntity
  8
ALPHA
100
AcDbCircle
 10
89.044813
 20
162.822433
 30
0.0
 40
1.167265
100
AcDbArc
 50
72.808724
 51
107.19124
  0
ARC
  5
27F
100
AcDbEntity
  8
ALPHA
100
AcDbCircle
 10
89.044813
 20
162.822433
 30
0.0
 40
1.167265
100
AcDbArc
 50
252.80877
 51
287.191286
  0
LINE
  5
280
100
AcDbEntity
  8
ALPHA
100
AcDbLine
 10
86.785352
 20
163.167434
 30
0.0
 11
87.9297
 21
163.167434
 31
0.0
  0
LINE
  5
281
100
AcDbEntity
  8
ALPHA
100
AcDbLine
 10
86.785352
 20
162.477431
 30
0.0
 11
87.9297
 21
162.477431
 31
0.0
  0
LINE
  5
282
100
AcDbEntity
  8
ALPHA
100
AcDbLine
 10
90.159925
 20
163.167434
 30
0.0
 11
91.304273
 21
163.167434
 31
0.0
  0
LINE
  5
283
100
AcDbEntity
  8
ALPHA
100
AcDbLine
 10
90.159925
 20
162.477431
 30
0.0
 11
91.304273
 21
162.477431
 31
0.0
  0
ARC
  5
284
100
AcDbEntity
  8
ALPHA
100
AcDbCircle
 10
89.044813
 20
162.822433
 30
0.0
 40
1.167265
100
AcDbArc
 50
162.80876
 51
197.191277
  0
ARC
  5
285
100
AcDbEntity
  8
ALPHA
100
AcDbCircle
 10
89.044813
 20
162.822433
 30
0.0
 40
1.167265
100
AcDbArc
 50
342.808724
 51
17.191241
  0
LINE
  5
286
100
AcDbEntity
  8
ALPHA
100
AcDbLine
 10
89.575132
 20
163.352759
 30
0.0
 11
90.159925
 21
163.167434
 31
0.0
  0
LINE
  5
287
100
AcDbEntity
  8
ALPHA
100
AcDbLine
 10
89.575132
 20
162.292106
 30
0.0
 11
90.15991
 21
162.477431
 31
0.0
  0
LINE
  5
288
100
AcDbEntity
  8
ALPHA
100
AcDbLine
 10
87.929685
 20
163.167426
 30
0.0
 11
88.514478
 21
163.352759
 31
0.0
  0
LINE
  5
289
100
AcDbEntity
  8
ALPHA
100
AcDbLine
 10
87.9297
 20
162.477424
 30
0.0
 11
88.514493
 21
162.29209
 31
0.0
  0
LINE
  5
28A
100
AcDbEntity
  8
ALPHA
100
AcDbLine
 10
88.699811
 20
164.335128
 30
0.0
 11
88.699811
 21
163.937545
 31
0.0
  0
LINE
  5
28B
100
AcDbEntity
  8
ALPHA
100
AcDbLine
 10
89.389814
 20
164.335128
 30
0.0
 11
89.389814
 21
163.937545
 31
0.0
  0
LINE
  5
28C
100
AcDbEntity
  8
ALPHA
100
AcDbLine
 10
88.699811
 20
161.70732
 30
0.0
 11
88.699811
 21
161.309737
 31
0.0
  0
LINE
  5
28D
100
AcDbEntity
  8
ALPHA
100
AcDbLine
 10
89.389814
 20
161.70732
 30
0.0
 11
89.389814
 21
161.309737
 31
0.0
  0
LINE
  5
28E
100
AcDbEntity
  8
ALPHA
100
AcDbLine
 10
88.699796
 20
163.937507
 30
0.0
 11
88.514463
 21
163.352721
 31
0.0
  0
LINE
  5
28F
100
AcDbEntity
  8
ALPHA
100
AcDbLine
 10
88.514478
 20
162.292106
 30
0.0
 11
88.699796
 21
161.707313
 31
0.0
  0
LINE
  5
290
100
AcDbEntity
  8
ALPHA
100
AcDbLine
 10
89.389829
 20
161.707351
 30
0.0
 11
89.575147
 21
162.292121
 31
0.0
  0
LINE
  5
291
100
AcDbEntity
  8
ALPHA
100
AcDbLine
 10
89.389799
 20
163.937545
 30
0.0
 11
89.575132
 21
163.352744
 31
0.0
  0
ARC
  5
292
100
AcDbEntity
  8
ALPHA
100
AcDbCircle
 10
89.044813
 20
162.822433
 30
0.0
 40
2.285645
100
AcDbArc
 50
171.318466
 51
188.681517
  0
ARC
  5
293
100
AcDbEntity
  8
ALPHA
100
AcDbCircle
 10
89.044813
 20
162.822433
 30
0.0
 40
2.285645
100
AcDbArc
 50
351.318484
 51
8.681536
  0
LINE
  5
294
100
AcDbEntity
  8
ALPHA
100
AcDbLine
 10
87.877546
 20
163.31179
 30
0.0
 11
86.785337
 21
163.167434
 31
0.0
  0
LINE
  5
295
100
AcDbEntity
  8
ALPHA
100
AcDbLine
 10
86.785352
 20
162.477431
 30
0.0
 11
87.877531
 21
162.333076
 31
0.0
  0
LINE
  5
296
100
AcDbEntity
  8
ALPHA
100
AcDbLine
 10
87.877546
 20
163.311774
 30
0.0
 11
88.37013
 21
163.497115
 31
0.0
  0
LINE
  5
297
100
AcDbEntity
  8
ALPHA
100
AcDbLine
 10
87.877546
 20
162.333045
 30
0.0
 11
88.370115
 21
162.147727
 31
0.0
  0
LINE
  5
298
100
AcDbEntity
  8
ALPHA
100
AcDbLine
 10
88.514448
 20
163.880759
 30
0.0
 11
88.37013
 21
163.497184
 31
0.0
  0
LINE
  5
299
100
AcDbEntity
  8
ALPHA
100
AcDbLine
 10
88.514478
 20
161.76406
 30
0.0
 11
88.37013
 21
162.147735
 31
0.0
  0
LINE
  5
29A
100
AcDbEntity
  8
ALPHA
100
AcDbLine
 10
90.21208
 20
163.311782
 30
0.0
 11
91.304258
 21
163.167426
 31
0.0
  0
LINE
  5
29B
100
AcDbEntity
  8
ALPHA
100
AcDbLine
 10
91.304258
 20
162.477439
 30
0.0
 11
90.212064
 21
162.333083
 31
0.0
  0
LINE
  5
29C
100
AcDbEntity
  8
ALPHA
100
AcDbLine
 10
90.212064
 20
163.311774
 30
0.0
 11
89.71948
 21
163.497115
 31
0.0
  0
LINE
  5
29D
100
AcDbEntity
  8
ALPHA
100
AcDbLine
 10
90.21208
 20
162.33306
 30
0.0
 11
89.719495
 21
162.147727
 31
0.0
  0
LINE
  5
29E
100
AcDbEntity
  8
ALPHA
100
AcDbLine
 10
89.575132
 20
163.88079
 30
0.0
 11
89.719495
 21
163.497108
 31
0.0
  0
LINE
  5
29F
100
AcDbEntity
  8
ALPHA
100
AcDbLine
 10
89.575132
 20
161.764083
 30
0.0
 11
89.719511
 21
162.147811
 31
0.0
  0
LINE
  5
2A0
100
AcDbEntity
  8
ALPHA
100
AcDbLine
 10
87.877546
 20
163.311774
 30
0.0
 11
87.9297
 21
163.167418
 31
0.0
  0
LINE
  5
2A1
100
AcDbEntity
  8
ALPHA
100
AcDbLine
 10
87.92967
 20
162.47737
 30
0.0
 11
87.877515
 21
162.333014
 31
0.0
  0
LINE
  5
2A2
100
AcDbEntity
  8
ALPHA
100
AcDbLine
 10
90.212064
 20
163.311759
 30
0.0
 11
90.159925
 21
163.167396
 31
0.0
  0
LINE
  5
2A3
100
AcDbEntity
  8
ALPHA
100
AcDbLine
 10
90.15994
 20
162.477431
 30
0.0
 11
90.21208
 21
162.333068
 31
0.0
  0
LINE
  5
2A4
100
AcDbEntity
  8
ALPHA
100
AcDbLine
 10
88.544797
 20
163.993499
 30
0.0
 11
88.699796
 21
163.937507
 31
0.0
  0
LINE
  5
2A5
100
AcDbEntity
  8
ALPHA
100
AcDbLine
 10
89.544828
 20
163.993537
 30
0.0
 11
89.389814
 21
163.937545
 31
0.0
  0
LINE
  5
2A6
100
AcDbEntity
  8
ALPHA
100
AcDbLine
 10
88.544797
 20
161.65132
 30
0.0
 11
88.699811
 21
161.707313
 31
0.0
  0
LINE
  5
2A7
100
AcDbEntity
  8
ALPHA
100
AcDbLine
 10
89.544797
 20
161.651275
 30
0.0
 11
89.389799
 21
161.707267
 31
0.0
  0
LINE
  5
2A8
100
AcDbEntity
  8
AXE
100
AcDbLine
 10
89.044813
 20
165.247741
 30
0.0
 11
89.044813
 21
159.072707
 31
0.0
  0
ARC
  5
2A9
100
AcDbEntity
  8
ALPHA
100
AcDbCircle
 10
89.043745
 20
178.07933
 30
0.0
 40
18.606903
100
AcDbArc
 50
264.828045
 51
275.179606
  0
ARC
  5
2AA
100
AcDbEntity
  8
ALPHA
100
AcDbCircle
 10
89.044813
 20
162.272704
 30
0.0
 40
3.2
100
AcDbArc
 50
194.361625
 51
345.63839
  0
ARC
  5
2AB
100
AcDbEntity
  8
ALPHA
100
AcDbCircle
 10
89.044813
 20
162.272704
 30
0.0
 40
3.2
100
AcDbArc
 50
14.361624
 51
68.387932
  0
LINE
  5
2AC
100
AcDbEntity
  8
ALPHA
100
AcDbLine
 10
92.144819
 20
161.479003
 30
0.0
 11
92.144819
 21
163.066405
 31
0.0
  0
LINE
  5
2AD
100
AcDbEntity
  8
ALPHA
100
AcDbLine
 10
85.944807
 20
161.479003
 30
0.0
 11
85.944807
 21
163.066405
 31
0.0
  0
LINE
  5
2AE
100
AcDbEntity
  8
AXE
100
AcDbLine
 10
85.944807
 20
175.70752
 30
0.0
 11
117.944746
 21
175.70752
 31
0.0
  0
LINE
  5
2AF
100
AcDbEntity
  8
AXE
100
AcDbLine
 10
85.944807
 20
162.787971
 30
0.0
 11
117.944746
 21
162.787971
 31
0.0
  0
ARC
  5
2B0
100
AcDbEntity
  8
ALPHA
100
AcDbCircle
 10
97.644788
 20
162.272704
 30
0.0
 40
3.2
100
AcDbArc
 50
111.612067
 51
165.638371
  0
ARC
  5
2B1
100
AcDbEntity
  8
ALPHA
100
AcDbCircle
 10
89.044813
 20
162.272704
 30
0.0
 40
3.2
100
AcDbArc
 50
111.612067
 51
165.638371
  0
LINE
  5
2B2
100
AcDbEntity
  8
ALPHA
100
AcDbLine
 10
112.431913
 20
172.310852
 30
0.0
 11
112.431913
 21
170.384651
 31
0.0
  0
CIRCLE
  5
2B3
100
AcDbEntity
  8
ALPHA
100
AcDbCircle
 10
101.944822
 20
171.347748
 30
0.0
 40
0.752626
  0
LINE
  5
2B4
100
AcDbEntity
  8
ALPHA
100
AcDbLine
 10
112.03082
 20
171.195023
 30
0.0
 11
112.155179
 21
171.195023
 31
0.0
  0
LWPOLYLINE
  5
2B5
100
AcDbEntity
  8
ALPHA
100
AcDbPolyline
 90
        9
 70
     0
 43
0.0
 10
111.677284
 20
171.290863
 10
111.69587
 20
171.241837
 10
111.728012
 20
171.19919
 10
111.771362
 20
171.166033
 10
111.822757
 20
171.144787
 10
111.878444
 20
171.137003
 10
111.934358
 20
171.143249
 10
111.986418
 20
171.163069
 10
112.030824
 20
171.195017
  0
LINE
  5
2C0
100
AcDbEntity
  8
ALPHA
100
AcDbLine
 10
111.677305
 20
171.290863
 30
0.0
 11
112.19238
 21
171.290863
 31
0.0
  0
LINE
  5
2C1
100
AcDbEntity
  8
ALPHA
100
AcDbLine
 10
111.677305
 20
171.367546
 30
0.0
 11
112.085844
 21
171.367546
 31
0.0
  0
LWPOLYLINE
  5
2C2
100
AcDbEntity
  8
ALPHA
100
AcDbPolyline
 90
        9
 70
     0
 43
0.0
 10
112.085834
 20
171.367539
 10
112.060006
 20
171.428571
 10
112.013448
 20
171.478059
 10
111.95157
 20
171.510256
 10
111.881559
 20
171.52142
 10
111.811548
 20
171.510256
 10
111.74967
 20
171.478059
 10
111.703112
 20
171.428571
 10
111.677284
 20
171.367539
  0
LWPOLYLINE
  5
2CD
100
AcDbEntity
  8
ALPHA
100
AcDbPolyline
 90
        9
 70
     0
 43
0.0
 10
112.192361
 20
171.290862
 10
112.140898
 20
171.483465
 10
111.954155
 20
171.595598
 10
111.729544
 20
171.568769
 10
111.584228
 20
171.416973
 10
111.594011
 20
171.219392
 10
111.753789
 20
171.079091
 10
111.980216
 20
171.069256
 10
112.15518
 20
171.195017
  0
LINE
  5
2D8
100
AcDbEntity
  8
ALPHA
100
AcDbLine
 10
111.306486
 20
171.072815
 30
0.0
 11
111.306486
 21
171.191231
 31
0.0
  0
LINE
  5
2D9
100
AcDbEntity
  8
ALPHA
100
AcDbLine
 10
111.435865
 20
171.072815
 30
0.0
 11
111.30647
 21
171.072815
 31
0.0
  0
LINE
  5
2DA
100
AcDbEntity
  8
ALPHA
100
AcDbLine
 10
111.435865
 20
171.072815
 30
0.0
 11
111.435865
 21
171.585579
 31
0.0
  0
LINE
  5
2DB
100
AcDbEntity
  8
ALPHA
100
AcDbLine
 10
111.435865
 20
171.585579
 30
0.0
 11
111.30647
 21
171.585579
 31
0.0
  0
LINE
  5
2DC
100
AcDbEntity
  8
ALPHA
100
AcDbLine
 10
111.306486
 20
171.290749
 30
0.0
 11
111.306486
 21
171.585579
 31
0.0
  0
ARC
  5
2DD
100
AcDbEntity
  8
ALPHA
100
AcDbCircle
 10
111.167524
 20
171.290749
 30
0.0
 40
0.138976
100
AcDbArc
 50
296.387999
 51
359.999955
  0
ARC
  5
2DE
100
AcDbEntity
  8
ALPHA
100
AcDbCircle
 10
111.124387
 20
171.251129
 30
0.0
 40
0.191691
100
AcDbArc
 50
281.537256
 51
341.791545
  0
ARC
  5
2DF
100
AcDbEntity
  8
ALPHA
100
AcDbCircle
 10
111.129179
 20
171.368019
 30
0.0
 40
0.225237
100
AcDbArc
 50
243.610253
 51
296.38789
  0
ARC
  5
2E0
100
AcDbEntity
  8
ALPHA
100
AcDbCircle
 10
111.090848
 20
171.290749
 30
0.0
 40
0.138976
100
AcDbArc
 50
179.999964
 51
243.610062
  0
ARC
  5
2E1
100
AcDbEntity
  8
ALPHA
100
AcDbCircle
 10
111.086057
 20
171.43895
 30
0.0
 40
0.383381
100
AcDbArc
 50
243.612221
 51
281.537092
  0
ARC
  5
2E2
100
AcDbEntity
  8
ALPHA
100
AcDbCircle
 10
110.990201
 20
171.245766
 30
0.0
 40
0.167729
100
AcDbArc
 50
179.999964
 51
243.612357
  0
LINE
  5
2E3
100
AcDbEntity
  8
ALPHA
100
AcDbLine
 10
110.951856
 20
171.290749
 30
0.0
 11
110.951856
 21
171.585579
 31
0.0
  0
LINE
  5
2E4
100
AcDbEntity
  8
ALPHA
100
AcDbLine
 10
110.822462
 20
171.245766
 30
0.0
 11
110.822462
 21
171.585579
 31
0.0
  0
LINE
  5
2E5
100
AcDbEntity
  8
ALPHA
100
AcDbLine
 10
110.951856
 20
171.585579
 30
0.0
 11
110.822462
 21
171.585579
 31
0.0
  0
LINE
  5
2E6
100
AcDbEntity
  8
ALPHA
100
AcDbLine
 10
110.520566
 20
171.118263
 30
0.0
 11
110.520566
 21
170.836082
 31
0.0
  0
LINE
  5
2E7
100
AcDbEntity
  8
ALPHA
100
AcDbLine
 10
110.520566
 20
170.836082
 30
0.0
 11
110.649961
 21
170.836082
 31
0.0
  0
LINE
  5
2E8
100
AcDbEntity
  8
ALPHA
100
AcDbLine
 10
110.520566
 20
171.585587
 30
0.0
 11
110.520566
 21
171.540146
 31
0.0
  0
LINE
  5
2E9
100
AcDbEntity
  8
ALPHA
100
AcDbLine
 10
110.649961
 20
171.585587
 30
0.0
 11
110.649961
 21
170.836082
 31
0.0
  0
LINE
  5
2EA
100
AcDbEntity
  8
ALPHA
100
AcDbLine
 10
110.520566
 20
171.585587
 30
0.0
 11
110.649961
 21
171.585587
 31
0.0
  0
CIRCLE
  5
2EB
100
AcDbEntity
  8
ALPHA
100
AcDbCircle
 10
110.323133
 20
171.329201
 30
0.0
 40
0.195045
  0
LWPOLYLINE
  5
2EC
100
AcDbEntity
  8
ALPHA
100
AcDbPolyline
 90
        9
 70
     0
 43
0.0
 10
110.520574
 20
171.540143
 10
110.361803
 20
171.600646
 10
110.191
 20
171.576696
 10
110.061307
 20
171.475745
 10
110.013073
 20
171.329201
 10
110.061307
 20
171.182656
 10
110.191
 20
171.081705
 10
110.361803
 20
171.057756
 10
110.520574
 20
171.118258
  0
LINE
  5
2F7
100
AcDbEntity
  8
ALPHA
100
AcDbLine
 10
109.881284
 20
171.775841
 30
0.0
 11
109.881284
 21
171.687187
 31
0.0
  0
LINE
  5
2F8
100
AcDbEntity
  8
ALPHA
100
AcDbLine
 10
109.75189
 20
171.775841
 30
0.0
 11
109.75189
 21
171.687187
 31
0.0
  0
LINE
  5
2F9
100
AcDbEntity
  8
ALPHA
100
AcDbLine
 10
109.75189
 20
171.775841
 30
0.0
 11
109.881284
 21
171.775841
 31
0.0
  0
LINE
  5
2FA
100
AcDbEntity
  8
ALPHA
100
AcDbLine
 10
109.75189
 20
171.687187
 30
0.0
 11
109.881284
 21
171.687187
 31
0.0
  0
LINE
  5
2FB
100
AcDbEntity
  8
ALPHA
100
AcDbLine
 10
109.75189
 20
171.072815
 30
0.0
 11
109.881284
 21
171.072815
 31
0.0
  0
LINE
  5
2FC
100
AcDbEntity
  8
ALPHA
100
AcDbLine
 10
109.881284
 20
171.585587
 30
0.0
 11
109.881284
 21
171.072815
 31
0.0
  0
LINE
  5
2FD
100
AcDbEntity
  8
ALPHA
100
AcDbLine
 10
109.75189
 20
171.585587
 30
0.0
 11
109.881284
 21
171.585587
 31
0.0
  0
LINE
  5
2FE
100
AcDbEntity
  8
ALPHA
100
AcDbLine
 10
109.75189
 20
171.585587
 30
0.0
 11
109.75189
 21
171.072815
 31
0.0
  0
ARC
  5
2FF
100
AcDbEntity
  8
ALPHA
100
AcDbCircle
 10
109.267881
 20
171.29039
 30
0.0
 40
0.225237
100
AcDbArc
 50
63.612338
 51
116.387953
  0
ARC
  5
300
100
AcDbEntity
  8
ALPHA
100
AcDbCircle
 10
109.306211
 20
171.367661
 30
0.0
 40
0.138976
100
AcDbArc
 50
0.0
 51
63.612502
  0
LINE
  5
301
100
AcDbEntity
  8
ALPHA
100
AcDbLine
 10
109.445188
 20
171.367661
 30
0.0
 11
109.445188
 21
171.072815
 31
0.0
  0
LINE
  5
302
100
AcDbEntity
  8
ALPHA
100
AcDbLine
 10
109.445188
 20
171.072815
 30
0.0
 11
109.574583
 21
171.072815
 31
0.0
  0
LINE
  5
303
100
AcDbEntity
  8
ALPHA
100
AcDbLine
 10
109.574583
 20
171.412643
 30
0.0
 11
109.574583
 21
171.072815
 31
0.0
  0
ARC
  5
304
100
AcDbEntity
  8
ALPHA
100
AcDbCircle
 10
109.406858
 20
171.412643
 30
0.0
 40
0.167729
100
AcDbArc
 50
0.0
 51
63.612393
  0
ARC
  5
305
100
AcDbEntity
  8
ALPHA
100
AcDbCircle
 10
109.311002
 20
171.21946
 30
0.0
 40
0.383381
100
AcDbArc
 50
63.612284
 51
101.537155
  0
ARC
  5
306
100
AcDbEntity
  8
ALPHA
100
AcDbCircle
 10
109.272672
 20
171.40728
 30
0.0
 40
0.191691
100
AcDbArc
 50
101.537319
 51
161.805105
  0
LINE
  5
307
100
AcDbEntity
  8
ALPHA
100
AcDbLine
 10
109.090559
 20
171.585587
 30
0.0
 11
109.090559
 21
171.467133
 31
0.0
  0
ARC
  5
308
100
AcDbEntity
  8
ALPHA
100
AcDbCircle
 10
109.229536
 20
171.367661
 30
0.0
 40
0.138976
100
AcDbArc
 50
116.388063
 51
180.000019
  0
LINE
  5
309
100
AcDbEntity
  8
ALPHA
100
AcDbLine
 10
109.090559
 20
171.367661
 30
0.0
 11
109.090559
 21
171.072815
 31
0.0
  0
LINE
  5
30A
100
AcDbEntity
  8
ALPHA
100
AcDbLine
 10
108.961179
 20
171.585587
 30
0.0
 11
109.090559
 21
171.585587
 31
0.0
  0
LINE
  5
30B
100
AcDbEntity
  8
ALPHA
100
AcDbLine
 10
108.961179
 20
171.072815
 30
0.0
 11
109.090559
 21
171.072815
 31
0.0
  0
LINE
  5
30C
100
AcDbEntity
  8
ALPHA
100
AcDbLine
 10
108.961179
 20
171.585587
 30
0.0
 11
108.961179
 21
171.072815
 31
0.0
  0
LINE
  5
30D
100
AcDbEntity
  8
ALPHA
100
AcDbLine
 10
108.602079
 20
171.316048
 30
0.0
 11
108.654462
 21
171.368423
 31
0.0
  0
ARC
  5
30E
100
AcDbEntity
  8
ALPHA
100
AcDbCircle
 10
108.568204
 20
171.349937
 30
0.0
 40
0.047923
100
AcDbArc
 50
285.826669
 51
315.445839
  0
ARC
  5
30F
100
AcDbEntity
  8
ALPHA
100
AcDbCircle
 10
108.431623
 20
171.492142
 30
0.0
 40
0.35942
100
AcDbArc
 50
254.119838
 51
308.316132
  0
ARC
  5
310
100
AcDbEntity
  8
ALPHA
100
AcDbCircle
 10
108.352552
 20
171.214188
 30
0.0
 40
0.07044
100
AcDbArc
 50
120.410334
 51
254.119866
  0
ARC
  5
311
100
AcDbEntity
  8
ALPHA
100
AcDbCircle
 10
108.417249
 20
170.744545
 30
0.0
 40
0.551111
100
AcDbArc
 50
84.72112
 51
93.88248
  0
ARC
  5
312
100
AcDbEntity
  8
ALPHA
100
AcDbCircle
 10
108.389677
 20
171.150955
 30
0.0
 40
0.143768
100
AcDbArc
 50
93.88248
 51
120.410388
  0
ARC
  5
313
100
AcDbEntity
  8
ALPHA
100
AcDbCircle
 10
108.49632
 20
171.603523
 30
0.0
 40
0.311497
100
AcDbArc
 50
264.710074
 51
285.826669
  0
LINE
  5
314
100
AcDbEntity
  8
ALPHA
100
AcDbLine
 10
108.654462
 20
171.368431
 30
0.0
 11
108.654462
 21
171.210136
 31
0.0
  0
ARC
  5
315
100
AcDbEntity
  8
ALPHA
100
AcDbCircle
 10
108.49632
 20
171.242157
 30
0.0
 40
0.167729
100
AcDbArc
 50
289.783206
 51
340.537031
  0
ARC
  5
316
100
AcDbEntity
  8
ALPHA
100
AcDbCircle
 10
108.390897
 20
171.535271
 30
0.0
 40
0.479227
100
AcDbArc
 50
258.372478
 51
289.783206
  0
ARC
  5
317
100
AcDbEntity
  8
ALPHA
100
AcDbCircle
 10
108.332929
 20
171.253639
 30
0.0
 40
0.191691
100
AcDbArc
 50
226.254729
 51
258.372478
  0
ARC
  5
318
100
AcDbEntity
  8
ALPHA
100
AcDbCircle
 10
108.324979
 20
171.178185
 30
0.0
 40
0.191691
100
AcDbArc
 50
102.15832
 51
121.643156
  0
ARC
  5
319
100
AcDbEntity
  8
ALPHA
100
AcDbCircle
 10
108.299833
 20
171.218979
 30
0.0
 40
0.143768
100
AcDbArc
 50
121.643156
 51
226.388642
  0
ARC
  5
31A
100
AcDbEntity
  8
ALPHA
100
AcDbCircle
 10
108.390897
 20
170.873741
 30
0.0
 40
0.503188
100
AcDbArc
 50
83.312899
 51
102.239517
  0
ARC
  5
31B
100
AcDbEntity
  8
ALPHA
100
AcDbCircle
 10
108.577314
 20
171.470963
 30
0.0
 40
0.095845
100
AcDbArc
 50
278.851243
 51
298.677643
  0
ARC
  5
31C
100
AcDbEntity
  8
ALPHA
100
AcDbCircle
 10
108.510694
 20
171.897087
 30
0.0
 40
0.52715
100
AcDbArc
 50
263.312453
 51
278.890038
  0
ARC
  5
31D
100
AcDbEntity
  8
ALPHA
100
AcDbCircle
 10
108.594556
 20
171.439423
 30
0.0
 40
0.059903
100
AcDbArc
 50
298.677588
 51
55.411832
  0
ARC
  5
31E
100
AcDbEntity
  8
ALPHA
100
AcDbCircle
 10
108.533353
 20
171.350655
 30
0.0
 40
0.167729
100
AcDbArc
 50
55.411802
 51
70.423403
  0
ARC
  5
31F
100
AcDbEntity
  8
ALPHA
100
AcDbCircle
 10
108.477155
 20
171.192627
 30
0.0
 40
0.335459
100
AcDbArc
 50
70.423403
 51
109.639945
  0
ARC
  5
320
100
AcDbEntity
  8
ALPHA
100
AcDbCircle
 10
108.412717
 20
171.373161
 30
0.0
 40
0.143768
100
AcDbArc
 50
109.639945
 51
134.180924
  0
ARC
  5
321
100
AcDbEntity
  8
ALPHA
100
AcDbCircle
 10
108.369321
 20
171.417862
 30
0.0
 40
0.081469
100
AcDbArc
 50
134.09918
 51
162.895586
  0
ARC
  5
322
100
AcDbEntity
  8
ALPHA
100
AcDbCircle
 10
108.323804
 20
171.417862
 30
0.0
 40
0.143768
100
AcDbArc
 50
123.565335
 51
170.405952
  0
LINE
  5
323
100
AcDbEntity
  8
ALPHA
100
AcDbLine
 10
108.182035
 20
171.441826
 30
0.0
 11
108.291471
 21
171.441826
 31
0.0
  0
ARC
  5
324
100
AcDbEntity
  8
ALPHA
100
AcDbCircle
 10
108.403287
 20
171.298065
 30
0.0
 40
0.287536
100
AcDbArc
 50
101.469509
 51
123.565335
  0
ARC
  5
325
100
AcDbEntity
  8
ALPHA
100
AcDbCircle
 10
108.47476
 20
170.945824
 30
0.0
 40
0.646956
100
AcDbArc
 50
72.842438
 51
101.469509
  0
ARC
  5
326
100
AcDbEntity
  8
ALPHA
100
AcDbCircle
 10
108.616132
 20
171.403725
 30
0.0
 40
0.167729
100
AcDbArc
 50
0.0
 51
72.842438
  0
LINE
  5
327
100
AcDbEntity
  8
ALPHA
100
AcDbLine
 10
108.654462
 20
171.186272
 30
0.0
 11
108.654462
 21
171.072815
 31
0.0
  0
LINE
  5
328
100
AcDbEntity
  8
ALPHA
100
AcDbLine
 10
108.654462
 20
171.072815
 30
0.0
 11
108.783857
 21
171.072815
 31
0.0
  0
LINE
  5
329
100
AcDbEntity
  8
ALPHA
100
AcDbLine
 10
108.783857
 20
171.403725
 30
0.0
 11
108.783857
 21
171.072815
 31
0.0
  0
LINE
  5
32A
100
AcDbEntity
  8
ALPHA
100
AcDbLine
 10
107.882871
 20
171.241982
 30
0.0
 11
108.015134
 21
171.241982
 31
0.0
  0
LINE
  5
32B
100
AcDbEntity
  8
ALPHA
100
AcDbLine
 10
107.882871
 20
171.41642
 30
0.0
 11
108.015134
 21
171.41642
 31
0.0
  0
ARC
  5
32C
100
AcDbEntity
  8
ALPHA
100
AcDbCircle
 10
107.717573
 20
171.329201
 30
0.0
 40
0.186898
100
AcDbArc
 50
27.818285
 51
332.181715
  0
LWPOLYLINE
  5
32D
100
AcDbEntity
  8
ALPHA
100
AcDbPolyline
 90
        9
 70
     0
 43
0.0
 10
108.015117
 20
171.41642
 10
107.879567
 20
171.56374
 10
107.666917
 20
171.599433
 10
107.478376
 20
171.506512
 10
107.403679
 20
171.329201
 10
107.478376
 20
171.15189
 10
107.666917
 20
171.058969
 10
107.879567
 20
171.094662
 10
108.015117
 20
171.241981
  0
LINE
  5
338
100
AcDbEntity
  8
ALPHA
100
AcDbLine
 10
107.11926
 20
171.195023
 30
0.0
 11
107.243604
 21
171.195023
 31
0.0
  0
LINE
  5
339
100
AcDbEntity
  8
ALPHA
100
AcDbLine
 10
106.765714
 20
171.367546
 30
0.0
 11
107.174253
 21
171.367546
 31
0.0
  0
LINE
  5
33A
100
AcDbEntity
  8
ALPHA
100
AcDbLine
 10
106.765714
 20
171.290863
 30
0.0
 11
107.28079
 21
171.290863
 31
0.0
  0
LWPOLYLINE
  5
33B
100
AcDbEntity
  8
ALPHA
100
AcDbPolyline
 90
        9
 70
     0
 43
0.0
 10
106.765708
 20
171.290863
 10
106.784295
 20
171.241837
 10
106.816437
 20
171.19919
 10
106.859787
 20
171.166033
 10
106.911182
 20
171.144787
 10
106.966869
 20
171.137003
 10
107.022783
 20
171.143249
 10
107.074843
 20
171.163069
 10
107.119249
 20
171.195017
  0
LWPOLYLINE
  5
346
100
AcDbEntity
  8
ALPHA
100
AcDbPolyline
 90
        9
 70
     0
 43
0.0
 10
107.174259
 20
171.367539
 10
107.14843
 20
171.428571
 10
107.101873
 20
171.478059
 10
107.039995
 20
171.510256
 10
106.969984
 20
171.52142
 10
106.899973
 20
171.510256
 10
106.838094
 20
171.478059
 10
106.791537
 20
171.428571
 10
106.765709
 20
171.367539
  0
LWPOLYLINE
  5
351
100
AcDbEntity
  8
ALPHA
100
AcDbPolyline
 90
        9
 70
     0
 43
0.0
 10
107.280785
 20
171.290862
 10
107.229323
 20
171.483465
 10
107.04258
 20
171.595598
 10
106.817968
 20
171.568769
 10
106.672653
 20
171.416973
 10
106.682436
 20
171.219392
 10
106.842213
 20
171.079091
 10
107.06864
 20
171.069256
 10
107.243604
 20
171.195017
  0
LINE
  5
35C
100
AcDbEntity
  8
ALPHA
100
AcDbLine
 10
105.613767
 20
171.585587
 30
0.0
 11
105.613767
 21
171.526855
 31
0.0
  0
ARC
  5
35D
100
AcDbEntity
  8
ALPHA
100
AcDbCircle
 10
105.853391
 20
171.383041
 30
0.0
 40
0.215652
100
AcDbArc
 50
30.405103
 51
69.512638
  0
ARC
  5
35E
100
AcDbEntity
  8
ALPHA
100
AcDbCircle
 10
105.819837
 20
171.293259
 30
0.0
 40
0.311497
100
AcDbArc
 50
69.512638
 51
131.41732
  0
ARC
  5
35F
100
AcDbEntity
  8
ALPHA
100
AcDbCircle
 10
106.193632
 20
171.426331
 30
0.0
 40
0.167729
100
AcDbArc
 50
108.12643
 51
156.879828
  0
ARC
  5
360
100
AcDbEntity
  8
ALPHA
100
AcDbCircle
 10
106.260725
 20
171.221375
 30
0.0
 40
0.383381
100
AcDbArc
 50
63.612284
 51
108.126375
  0
ARC
  5
361
100
AcDbEntity
  8
ALPHA
100
AcDbCircle
 10
106.356565
 20
171.414558
 30
0.0
 40
0.167729
100
AcDbArc
 50
0.0
 51
63.612393
  0
LINE
  5
362
100
AcDbEntity
  8
ALPHA
100
AcDbLine
 10
106.52429
 20
171.414558
 30
0.0
 11
106.52429
 21
171.072815
 31
0.0
  0
LINE
  5
363
100
AcDbEntity
  8
ALPHA
100
AcDbLine
 10
106.39491
 20
171.072815
 30
0.0
 11
106.52429
 21
171.072815
 31
0.0
  0
LINE
  5
364
100
AcDbEntity
  8
ALPHA
100
AcDbLine
 10
106.39491
 20
171.375908
 30
0.0
 11
106.39491
 21
171.072815
 31
0.0
  0
ARC
  5
365
100
AcDbEntity
  8
ALPHA
100
AcDbCircle
 10
106.255933
 20
171.375908
 30
0.0
 40
0.138976
100
AcDbArc
 50
0.0
 51
51.317759
  0
ARC
  5
366
100
AcDbEntity
  8
ALPHA
100
AcDbCircle
 10
106.231977
 20
171.345978
 30
0.0
 40
0.177314
100
AcDbArc
 50
51.317783
 51
128.682567
  0
ARC
  5
367
100
AcDbEntity
  8
ALPHA
100
AcDbCircle
 10
106.208005
 20
171.375908
 30
0.0
 40
0.138976
100
AcDbArc
 50
128.682676
 51
180.000019
  0
LINE
  5
368
100
AcDbEntity
  8
ALPHA
100
AcDbLine
 10
106.069044
 20
171.375908
 30
0.0
 11
106.069044
 21
171.072815
 31
0.0
  0
LINE
  5
369
100
AcDbEntity
  8
ALPHA
100
AcDbLine
 10
105.939649
 20
171.072815
 30
0.0
 11
106.069044
 21
171.072815
 31
0.0
  0
LINE
  5
36A
100
AcDbEntity
  8
ALPHA
100
AcDbLine
 10
105.939649
 20
171.375908
 30
0.0
 11
105.939649
 21
171.072815
 31
0.0
  0
ARC
  5
36B
100
AcDbEntity
  8
ALPHA
100
AcDbCircle
 10
105.800672
 20
171.375908
 30
0.0
 40
0.138976
100
AcDbArc
 50
0.0
 51
51.317759
  0
ARC
  5
36C
100
AcDbEntity
  8
ALPHA
100
AcDbCircle
 10
105.776716
 20
171.345978
 30
0.0
 40
0.177314
100
AcDbArc
 50
51.317783
 51
128.682567
  0
ARC
  5
36D
100
AcDbEntity
  8
ALPHA
100
AcDbCircle
 10
105.752744
 20
171.375908
 30
0.0
 40
0.138976
100
AcDbArc
 50
128.682676
 51
180.000019
  0
LINE
  5
36E
100
AcDbEntity
  8
ALPHA
100
AcDbLine
 10
105.613767
 20
171.375908
 30
0.0
 11
105.613767
 21
171.072815
 31
0.0
  0
LINE
  5
36F
100
AcDbEntity
  8
ALPHA
100
AcDbLine
 10
105.484373
 20
171.072815
 30
0.0
 11
105.613767
 21
171.072815
 31
0.0
  0
LINE
  5
370
100
AcDbEntity
  8
ALPHA
100
AcDbLine
 10
105.484373
 20
171.585587
 30
0.0
 11
105.613767
 21
171.585587
 31
0.0
  0
LINE
  5
371
100
AcDbEntity
  8
ALPHA
100
AcDbLine
 10
105.484373
 20
171.585587
 30
0.0
 11
105.484373
 21
171.072815
 31
0.0
  0
LINE
  5
372
100
AcDbEntity
  8
ALPHA
100
AcDbLine
 10
105.187955
 20
171.195023
 30
0.0
 11
105.312314
 21
171.195023
 31
0.0
  0
LINE
  5
373
100
AcDbEntity
  8
ALPHA
100
AcDbLine
 10
104.834424
 20
171.367546
 30
0.0
 11
105.242963
 21
171.367546
 31
0.0
  0
LINE
  5
374
100
AcDbEntity
  8
ALPHA
100
AcDbLine
 10
104.834424
 20
171.290863
 30
0.0
 11
105.3495
 21
171.290863
 31
0.0
  0
LWPOLYLINE
  5
375
100
AcDbEntity
  8
ALPHA
100
AcDbPolyline
 90
        9
 70
     0
 43
0.0
 10
104.834419
 20
171.290863
 10
104.853005
 20
171.241837
 10
104.885147
 20
171.19919
 10
104.928497
 20
171.166033
 10
104.979892
 20
171.144787
 10
105.035579
 20
171.137003
 10
105.091493
 20
171.143249
 10
105.143553
 20
171.163069
 10
105.187959
 20
171.195017
  0
LWPOLYLINE
  5
380
100
AcDbEntity
  8
ALPHA
100
AcDbPolyline
 90
        9
 70
     0
 43
0.0
 10
105.242969
 20
171.367539
 10
105.217141
 20
171.428571
 10
105.170583
 20
171.478059
 10
105.108705
 20
171.510256
 10
105.038694
 20
171.52142
 10
104.968683
 20
171.510256
 10
104.906805
 20
171.478059
 10
104.860247
 20
171.428571
 10
104.834419
 20
171.367539
  0
LWPOLYLINE
  5
38B
100
AcDbEntity
  8
ALPHA
100
AcDbPolyline
 90
        9
 70
     0
 43
0.0
 10
105.349496
 20
171.290862
 10
105.298033
 20
171.483465
 10
105.11129
 20
171.595598
 10
104.886679
 20
171.568769
 10
104.741363
 20
171.416973
 10
104.751146
 20
171.219392
 10
104.910924
 20
171.079091
 10
105.137351
 20
171.069256
 10
105.312315
 20
171.195017
  0
LINE
  5
396
100
AcDbEntity
  8
ALPHA
100
AcDbLine
 10
104.463621
 20
171.072815
 30
0.0
 11
104.593015
 21
171.072815
 31
0.0
  0
LINE
  5
397
100
AcDbEntity
  8
ALPHA
100
AcDbLine
 10
104.593015
 20
171.762901
 30
0.0
 11
104.593015
 21
171.072815
 31
0.0
  0
LINE
  5
398
100
AcDbEntity
  8
ALPHA
100
AcDbLine
 10
104.463621
 20
171.762901
 30
0.0
 11
104.593015
 21
171.762901
 31
0.0
  0
LINE
  5
399
100
AcDbEntity
  8
ALPHA
100
AcDbLine
 10
104.463621
 20
171.762901
 30
0.0
 11
104.463621
 21
171.072815
 31
0.0
  0
LINE
  5
39A
100
AcDbEntity
  8
ALPHA
100
AcDbLine
 10
104.167203
 20
171.195023
 30
0.0
 11
104.291563
 21
171.195023
 31
0.0
  0
LINE
  5
39B
100
AcDbEntity
  8
ALPHA
100
AcDbLine
 10
103.813673
 20
171.290863
 30
0.0
 11
104.328748
 21
171.290863
 31
0.0
  0
LINE
  5
39C
100
AcDbEntity
  8
ALPHA
100
AcDbLine
 10
103.813673
 20
171.367546
 30
0.0
 11
104.222227
 21
171.367546
 31
0.0
  0
LWPOLYLINE
  5
39D
100
AcDbEntity
  8
ALPHA
100
AcDbPolyline
 90
        9
 70
     0
 43
0.0
 10
103.813667
 20
171.290863
 10
103.832253
 20
171.241837
 10
103.864395
 20
171.19919
 10
103.907745
 20
171.166033
 10
103.95914
 20
171.144787
 10
104.014827
 20
171.137003
 10
104.070741
 20
171.143249
 10
104.122801
 20
171.163069
 10
104.167207
 20
171.195017
  0
LWPOLYLINE
  5
3A8
100
AcDbEntity
  8
ALPHA
100
AcDbPolyline
 90
        9
 70
     0
 43
0.0
 10
104.222217
 20
171.367539
 10
104.196389
 20
171.428571
 10
104.149831
 20
171.478059
 10
104.087953
 20
171.510256
 10
104.017942
 20
171.52142
 10
103.947931
 20
171.510256
 10
103.886053
 20
171.478059
 10
103.839495
 20
171.428571
 10
103.813667
 20
171.367539
  0
LWPOLYLINE
  5
3B3
100
AcDbEntity
  8
ALPHA
100
AcDbPolyline
 90
        9
 70
     0
 43
0.0
 10
104.328744
 20
171.290862
 10
104.277281
 20
171.483465
 10
104.090538
 20
171.595598
 10
103.865927
 20
171.568769
 10
103.720612
 20
171.416973
 10
103.730394
 20
171.219392
 10
103.890172
 20
171.079091
 10
104.116599
 20
171.069256
 10
104.291563
 20
171.195017
  0
LINE
  5
3BE
100
AcDbEntity
  8
ALPHA
100
AcDbLine
 10
103.186491
 20
171.762901
 30
0.0
 11
103.186491
 21
171.676643
 31
0.0
  0
LINE
  5
3BF
100
AcDbEntity
  8
ALPHA
100
AcDbLine
 10
103.799894
 20
171.762901
 30
0.0
 11
103.799894
 21
171.676643
 31
0.0
  0
LINE
  5
3C0
100
AcDbEntity
  8
ALPHA
100
AcDbLine
 10
103.428495
 20
171.072815
 30
0.0
 11
103.557889
 21
171.072815
 31
0.0
  0
LINE
  5
3C1
100
AcDbEntity
  8
ALPHA
100
AcDbLine
 10
103.557889
 20
171.676643
 30
0.0
 11
103.557889
 21
171.072815
 31
0.0
  0
LINE
  5
3C2
100
AcDbEntity
  8
ALPHA
100
AcDbLine
 10
103.428495
 20
171.676643
 30
0.0
 11
103.428495
 21
171.072815
 31
0.0
  0
LINE
  5
3C3
100
AcDbEntity
  8
ALPHA
100
AcDbLine
 10
103.557889
 20
171.676643
 30
0.0
 11
103.799894
 21
171.676643
 31
0.0
  0
LINE
  5
3C4
100
AcDbEntity
  8
ALPHA
100
AcDbLine
 10
103.186491
 20
171.676643
 30
0.0
 11
103.428495
 21
171.676643
 31
0.0
  0
LINE
  5
3C5
100
AcDbEntity
  8
ALPHA
100
AcDbLine
 10
103.186491
 20
171.762901
 30
0.0
 11
103.799894
 21
171.762901
 31
0.0
  0
LINE
  5
3C6
100
AcDbEntity
  8
ALPHA
100
AcDbLine
 10
102.193845
 20
171.666649
 30
0.0
 11
102.447599
 21
171.666649
 31
0.0
  0
ARC
  5
3C7
100
AcDbEntity
  8
ALPHA
100
AcDbCircle
 10
101.944822
 20
171.347748
 30
0.0
 40
0.404611
100
AcDbArc
 50
52.013444
 51
59.178507
  0
LINE
  5
3C8
100
AcDbEntity
  8
ALPHA
100
AcDbLine
 10
102.040205
 20
171.695221
 30
0.0
 11
102.152128
 21
171.695221
 31
0.0
  0
ARC
  5
3C9
100
AcDbEntity
  8
ALPHA
100
AcDbCircle
 10
101.944822
 20
171.347748
 30
0.0
 40
0.404611
100
AcDbArc
 50
120.821511
 51
127.986653
  0
LINE
  5
3CA
100
AcDbEntity
  8
ALPHA
100
AcDbLine
 10
101.442029
 20
171.666649
 30
0.0
 11
101.695783
 21
171.666649
 31
0.0
  0
LINE
  5
3CB
100
AcDbEntity
  8
ALPHA
100
AcDbLine
 10
101.737501
 20
171.695221
 30
0.0
 11
101.849424
 21
171.695221
 31
0.0
  0
LINE
  5
3CC
100
AcDbEntity
  8
ALPHA
100
AcDbLine
 10
102.040205
 20
170.928856
 30
0.0
 11
102.068769
 21
170.928856
 31
0.0
  0
LINE
  5
3CD
100
AcDbEntity
  8
ALPHA
100
AcDbLine
 10
102.068769
 20
170.928856
 30
0.0
 11
102.068769
 21
170.752357
 31
0.0
  0
LINE
  5
3CE
100
AcDbEntity
  8
ALPHA
100
AcDbLine
 10
101.820859
 20
170.752357
 30
0.0
 11
102.068769
 21
170.752357
 31
0.0
  0
LINE
  5
3CF
100
AcDbEntity
  8
ALPHA
100
AcDbLine
 10
101.820859
 20
170.928856
 30
0.0
 11
101.820859
 21
170.752357
 31
0.0
  0
LINE
  5
3D0
100
AcDbEntity
  8
ALPHA
100
AcDbLine
 10
101.820859
 20
170.928856
 30
0.0
 11
101.849424
 21
170.928856
 31
0.0
  0
LINE
  5
3D1
100
AcDbEntity
  8
ALPHA
100
AcDbLine
 10
101.849424
 20
170.980934
 30
0.0
 11
101.849424
 21
170.928856
 31
0.0
  0
LINE
  5
3D2
100
AcDbEntity
  8
ALPHA
100
AcDbLine
 10
102.040205
 20
170.980934
 30
0.0
 11
102.040205
 21
170.928856
 31
0.0
  0
LINE
  5
3D3
100
AcDbEntity
  8
ALPHA
100
AcDbLine
 10
102.040205
 20
170.980934
 30
0.0
 11
102.413785
 21
170.980934
 31
0.0
  0
ARC
  5
3D4
100
AcDbEntity
  8
ALPHA
100
AcDbCircle
 10
101.944822
 20
171.347748
 30
0.0
 40
0.595391
100
AcDbArc
 50
321.968205
 51
345.659591
  0
LINE
  5
3D5
100
AcDbEntity
  8
ALPHA
100
AcDbLine
 10
101.475843
 20
170.980934
 30
0.0
 11
101.849424
 21
170.980934
 31
0.0
  0
ARC
  5
3D6
100
AcDbEntity
  8
ALPHA
100
AcDbCircle
 10
101.944822
 20
171.347748
 30
0.0
 40
0.595391
100
AcDbArc
 50
197.197684
 51
218.031728
  0
LINE
  5
3D7
100
AcDbEntity
  8
ALPHA
100
AcDbLine
 10
101.376035
 20
171.171715
 30
0.0
 11
101.435132
 21
171.171715
 31
0.0
  0
ARC
  5
3D8
100
AcDbEntity
  8
ALPHA
100
AcDbCircle
 10
101.944822
 20
171.347748
 30
0.0
 40
0.38065
100
AcDbArc
 50
9.336418
 51
13.726734
  0
ARC
  5
3D9
100
AcDbEntity
  8
ALPHA
100
AcDbCircle
 10
101.944822
 20
171.347748
 30
0.0
 40
0.404611
100
AcDbArc
 50
334.209407
 51
338.625179
  0
LINE
  5
3DA
100
AcDbEntity
  8
ALPHA
100
AcDbLine
 10
102.321592
 20
171.200279
 30
0.0
 11
102.52165
 21
171.200279
 31
0.0
  0
LINE
  5
3DB
100
AcDbEntity
  8
ALPHA
100
AcDbLine
 10
102.040205
 20
171.171715
 30
0.0
 11
102.30911
 21
171.171715
 31
0.0
  0
LINE
  5
3DC
100
AcDbEntity
  8
ALPHA
100
AcDbLine
 10
102.040205
 20
171.438072
 30
0.0
 11
102.314588
 21
171.438072
 31
0.0
  0
LINE
  5
3DD
100
AcDbEntity
  8
ALPHA
100
AcDbLine
 10
102.135129
 20
171.180931
 30
0.0
 11
102.311628
 21
171.180931
 31
0.0
  0
LINE
  5
3DE
100
AcDbEntity
  8
ALPHA
100
AcDbLine
 10
102.135129
 20
171.209503
 30
0.0
 11
102.135129
 21
171.180931
 31
0.0
  0
LINE
  5
3DF
100
AcDbEntity
  8
ALPHA
100
AcDbLine
 10
102.040205
 20
171.209503
 30
0.0
 11
102.135129
 21
171.209503
 31
0.0
  0
LINE
  5
3E0
100
AcDbEntity
  8
ALPHA
100
AcDbLine
 10
102.040205
 20
171.209503
 30
0.0
 11
102.040205
 21
171.171715
 31
0.0
  0
LINE
  5
3E1
100
AcDbEntity
  8
ALPHA
100
AcDbLine
 10
101.625913
 20
171.209503
 30
0.0
 11
101.625913
 21
171.171715
 31
0.0
  0
LINE
  5
3E2
100
AcDbEntity
  8
ALPHA
100
AcDbLine
 10
101.849424
 20
171.209503
 30
0.0
 11
101.849424
 21
171.171715
 31
0.0
  0
LINE
  5
3E3
100
AcDbEntity
  8
ALPHA
100
AcDbLine
 10
101.625913
 20
171.171715
 30
0.0
 11
101.849424
 21
171.171715
 31
0.0
  0
LINE
  5
3E4
100
AcDbEntity
  8
ALPHA
100
AcDbLine
 10
101.625913
 20
171.209503
 30
0.0
 11
101.849424
 21
171.209503
 31
0.0
  0
LINE
  5
3E5
100
AcDbEntity
  8
ALPHA
100
AcDbLine
 10
101.435132
 20
171.438072
 30
0.0
 11
101.435132
 21
171.171715
 31
0.0
  0
LINE
  5
3E6
100
AcDbEntity
  8
ALPHA
100
AcDbLine
 10
101.356321
 20
171.438072
 30
0.0
 11
101.435132
 21
171.438072
 31
0.0
  0
ARC
  5
3E7
100
AcDbEntity
  8
ALPHA
100
AcDbCircle
 10
101.944822
 20
171.347748
 30
0.0
 40
0.595391
100
AcDbArc
 50
151.827128
 51
171.274151
  0
LINE
  5
3E8
100
AcDbEntity
  8
ALPHA
100
AcDbLine
 10
101.41995
 20
171.628853
 30
0.0
 11
101.849424
 21
171.628853
 31
0.0
  0
ARC
  5
3E9
100
AcDbEntity
  8
ALPHA
100
AcDbCircle
 10
101.944822
 20
171.347748
 30
0.0
 40
0.595391
100
AcDbArc
 50
5.95335
 51
28.172922
  0
LINE
  5
3EA
100
AcDbEntity
  8
ALPHA
100
AcDbLine
 10
102.040205
 20
171.628853
 30
0.0
 11
102.469663
 21
171.628853
 31
0.0
  0
LINE
  5
3EB
100
AcDbEntity
  8
ALPHA
100
AcDbLine
 10
102.320417
 20
171.4095
 30
0.0
 11
102.536985
 21
171.4095
 31
0.0
  0
LINE
  5
3EC
100
AcDbEntity
  8
ALPHA
100
AcDbLine
 10
102.040205
 20
171.400284
 30
0.0
 11
102.135129
 21
171.400284
 31
0.0
  0
LINE
  5
3ED
100
AcDbEntity
  8
ALPHA
100
AcDbLine
 10
102.135129
 20
171.428856
 30
0.0
 11
102.135129
 21
171.400284
 31
0.0
  0
LINE
  5
3EE
100
AcDbEntity
  8
ALPHA
100
AcDbLine
 10
102.311628
 20
171.428856
 30
0.0
 11
102.311628
 21
171.180931
 31
0.0
  0
LINE
  5
3EF
100
AcDbEntity
  8
ALPHA
100
AcDbLine
 10
102.135129
 20
171.428856
 30
0.0
 11
102.311628
 21
171.428856
 31
0.0
  0
LINE
  5
3F0
100
AcDbEntity
  8
ALPHA
100
AcDbLine
 10
102.040205
 20
171.438072
 30
0.0
 11
102.040205
 21
171.400284
 31
0.0
  0
LINE
  5
3F1
100
AcDbEntity
  8
ALPHA
100
AcDbLine
 10
102.040205
 20
171.695221
 30
0.0
 11
102.040205
 21
171.628853
 31
0.0
  0
LINE
  5
3F2
100
AcDbEntity
  8
ALPHA
100
AcDbLine
 10
101.849424
 20
171.695221
 30
0.0
 11
101.849424
 21
171.628853
 31
0.0
  0
LINE
  5
3F3
100
AcDbEntity
  8
ALPHA
100
AcDbLine
 10
101.625913
 20
171.438072
 30
0.0
 11
101.625913
 21
171.400284
 31
0.0
  0
LINE
  5
3F4
100
AcDbEntity
  8
ALPHA
100
AcDbLine
 10
101.849424
 20
171.438072
 30
0.0
 11
101.849424
 21
171.400284
 31
0.0
  0
LINE
  5
3F5
100
AcDbEntity
  8
ALPHA
100
AcDbLine
 10
101.625913
 20
171.400284
 30
0.0
 11
101.849424
 21
171.400284
 31
0.0
  0
LINE
  5
3F6
100
AcDbEntity
  8
ALPHA
100
AcDbLine
 10
101.625913
 20
171.438072
 30
0.0
 11
101.849424
 21
171.438072
 31
0.0
  0
ARC
  5
3F7
100
AcDbEntity
  8
ALPHA
100
AcDbCircle
 10
101.944822
 20
171.347748
 30
0.0
 40
0.595391
100
AcDbArc
 50
115.308019
 51
147.614868
  0
LINE
  5
3F8
100
AcDbEntity
  8
ALPHA
100
AcDbLine
 10
101.69029
 20
171.886002
 30
0.0
 11
102.199323
 21
171.886002
 31
0.0
  0
ARC
  5
3F9
100
AcDbEntity
  8
ALPHA
100
AcDbCircle
 10
101.944822
 20
171.347748
 30
0.0
 40
0.595391
100
AcDbArc
 50
32.38514
 51
64.692055
  0
CIRCLE
  5
3FA
100
AcDbEntity
  8
ALPHA
100
AcDbCircle
 10
101.944822
 20
171.347748
 30
0.0
 40
0.611754
  0
LINE
  5
3FB
100
AcDbEntity
  8
ALPHA
100
AcDbLine
 10
100.944807
 20
170.347748
 30
0.0
 11
100.944807
 21
172.347748
 31
0.0
  0
LINE
  5
3FC
100
AcDbEntity
  8
ALPHA
100
AcDbLine
 10
112.468809
 20
172.347748
 30
0.0
 11
112.468809
 21
170.347748
 31
0.0
  0
LINE
  5
3FD
100
AcDbEntity
  8
ALPHA
100
AcDbLine
 10
102.944822
 20
172.310852
 30
0.0
 11
102.944822
 21
170.384651
 31
0.0
  0
LINE
  5
3FE
100
AcDbEntity
  8
ALPHA
100
AcDbLine
 10
100.944807
 20
172.347748
 30
0.0
 11
112.468809
 21
172.347748
 31
0.0
  0
LINE
  5
3FF
100
AcDbEntity
  8
ALPHA
100
AcDbLine
 10
100.944807
 20
170.347748
 30
0.0
 11
112.468809
 21
170.347748
 31
0.0
  0
LINE
  5
400
100
AcDbEntity
  8
ALPHA
100
AcDbLine
 10
102.944822
 20
170.384651
 30
0.0
 11
112.431913
 21
170.384651
 31
0.0
  0
LINE
  5
401
100
AcDbEntity
  8
ALPHA
100
AcDbLine
 10
102.944822
 20
172.310852
 30
0.0
 11
112.431913
 21
172.310852
 31
0.0
  0
INSERT
  5
444
100
AcDbEntity
  8
0
100
AcDbBlockReference
  2
SCH_ISO
 10
0.0
 20
0.0
 30
0.0
  0
DIMENSION
  5
451
100
AcDbEntity
  8
COTATION1
100
AcDbDimension
  2
*D4
 10
121.236906
 20
138.897917
 30
0.0
 11
101.840841
 21
141.397917
 31
0.0
  3
SC_STAND
100
AcDbAlignedDimension
 13
82.444776
 23
155.947753
 33
0.0
 14
121.236906
 24
155.947753
 34
0.0
100
AcDbRotatedDimension
  0
ENDSEC
  0
SECTION
  2
OBJECTS
  0
DICTIONARY
  5
46D
100
AcDbDictionary
  3
ACAD_GROUP
350
46E
  3
ACAD_MLINESTYLE
350
47B
  3
ACDBVARIABLEDICTIONARY
350
4BA
  0
DICTIONARY
  5
46E
102
{ACAD_REACTORS
330
46D
102
}
100
AcDbDictionary
  0
DICTIONARY
  5
47B
102
{ACAD_REACTORS
330
46D
102
}
100
AcDbDictionary
  3
STANDARD
350
47C
  0
DICTIONARY
  5
4BA
102
{ACAD_REACTORS
330
46D
102
}
100
AcDbDictionary
  3
DIMADEC
350
4BB
  0
MLINESTYLE
  5
47C
102
{ACAD_REACTORS
330
47B
102
}
100
AcDbMlineStyle
  2
STANDARD
 70
     0
  3

 62
   256
 51
90.0
 52
90.0
 71
     2
 49
0.5
 62
   256
  6
BYLAYER
 49
-0.5
 62
   256
  6
BYLAYER
  0
DICTIONARYVAR
  5
4BB
102
{ACAD_REACTORS
330
4BA
102
}
100
DictionaryVariables
280
     0
  1
0
  0
ENDSEC
  0
EOF
