  0
SECTION
  2
HEADER
  9
$ACADVER
  1
AC1012
  9
$DWGCODEPAGE
  3
ANSI_1252
  9
$INSBASE
 10
0.0
 20
0.0
 30
0.0
  9
$EXTMIN
 10
4.216612
 20
2.607776
 30
-0.001526
  9
$EXTMAX
 10
103.933676
 20
126.121874
 30
0.0
  9
$LIMMIN
 10
19.077216
 20
43.616976
  9
$LIMMAX
 10
194.084622
 20
146.65737
  9
$ORTHOMODE
 70
     0
  9
$REGENMODE
 70
     1
  9
$FILLMODE
 70
     1
  9
$QTEXTMODE
 70
     0
  9
$MIRRTEXT
 70
     1
  9
$DRAGMODE
 70
     2
  9
$LTSCALE
 40
10.0
  9
$OSMODE
 70
    37
  9
$ATTMODE
 70
     1
  9
$TEXTSIZE
 40
0.2
  9
$TRACEWID
 40
0.05
  9
$TEXTSTYLE
  7
STANDARD
  9
$CLAYER
  8
ALPHA
  9
$CELTYPE
  6
CONTINUOUS
  9
$CECOLOR
 62
   256
  9
$CELTSCALE
 40
1.0
  9
$DELOBJ
 70
     1
  9
$DISPSILH
 70
     0
  9
$DIMSCALE
 40
1.0
  9
$DIMASZ
 40
0.18
  9
$DIMEXO
 40
0.0625
  9
$DIMDLI
 40
0.38
  9
$DIMRND
 40
0.0
  9
$DIMDLE
 40
0.0
  9
$DIMEXE
 40
0.18
  9
$DIMTP
 40
0.0
  9
$DIMTM
 40
0.0
  9
$DIMTXT
 40
0.18
  9
$DIMCEN
 40
0.09
  9
$DIMTSZ
 40
0.0
  9
$DIMTOL
 70
     0
  9
$DIMLIM
 70
     0
  9
$DIMTIH
 70
     1
  9
$DIMTOH
 70
     1
  9
$DIMSE1
 70
     0
  9
$DIMSE2
 70
     0
  9
$DIMTAD
 70
     0
  9
$DIMZIN
 70
     0
  9
$DIMBLK
  1

  9
$DIMASO
 70
     1
  9
$DIMSHO
 70
     1
  9
$DIMPOST
  1

  9
$DIMAPOST
  1

  9
$DIMALT
 70
     0
  9
$DIMALTD
 70
     2
  9
$DIMALTF
 40
25.4
  9
$DIMLFAC
 40
1.0
  9
$DIMTOFL
 70
     0
  9
$DIMTVP
 40
0.0
  9
$DIMTIX
 70
     0
  9
$DIMSOXD
 70
     0
  9
$DIMSAH
 70
     0
  9
$DIMBLK1
  1

  9
$DIMBLK2
  1

  9
$DIMSTYLE
  2
STANDARD
  9
$DIMCLRD
 70
     0
  9
$DIMCLRE
 70
     0
  9
$DIMCLRT
 70
     0
  9
$DIMTFAC
 40
1.0
  9
$DIMGAP
 40
0.09
  9
$DIMJUST
 70
     0
  9
$DIMSD1
 70
     0
  9
$DIMSD2
 70
     0
  9
$DIMTOLJ
 70
     1
  9
$DIMTZIN
 70
     0
  9
$DIMALTZ
 70
     0
  9
$DIMALTTZ
 70
     0
  9
$DIMFIT
 70
     3
  9
$DIMUPT
 70
     0
  9
$DIMUNIT
 70
     2
  9
$DIMDEC
 70
     4
  9
$DIMTDEC
 70
     4
  9
$DIMALTU
 70
     2
  9
$DIMALTTD
 70
     2
  9
$DIMTXSTY
  7
STANDARD
  9
$DIMAUNIT
 70
     0
  9
$LUNITS
 70
     2
  9
$LUPREC
 70
     4
  9
$SKETCHINC
 40
0.1
  9
$FILLETRAD
 40
0.0
  9
$AUNITS
 70
     0
  9
$AUPREC
 70
     0
  9
$MENU
  1
acad
  9
$ELEVATION
 40
0.0
  9
$PELEVATION
 40
0.0
  9
$THICKNESS
 40
0.0
  9
$LIMCHECK
 70
     0
  9
$BLIPMODE
 70
     0
  9
$CHAMFERA
 40
0.0
  9
$CHAMFERB
 40
0.0
  9
$CHAMFERC
 40
0.0
  9
$CHAMFERD
 40
0.0
  9
$SKPOLY
 70
     0
  9
$TDCREATE
 40
2453634.413430799
  9
$TDUPDATE
 40
2453893.725179294
  9
$TDINDWG
 40
1.8270138889
  9
$TDUSRTIMER
 40
1.8270128009
  9
$USRTIMER
 70
     1
  9
$ANGBASE
 50
0.0
  9
$ANGDIR
 70
     0
  9
$PDMODE
 70
     0
  9
$PDSIZE
 40
0.0
  9
$PLINEWID
 40
0.0
  9
$COORDS
 70
     1
  9
$SPLFRAME
 70
     0
  9
$SPLINETYPE
 70
     6
  9
$SPLINESEGS
 70
     8
  9
$ATTDIA
 70
     0
  9
$ATTREQ
 70
     1
  9
$HANDLING
 70
     1
  9
$HANDSEED
  5
129BB
  9
$SURFTAB1
 70
     6
  9
$SURFTAB2
 70
     6
  9
$SURFTYPE
 70
     6
  9
$SURFU
 70
     6
  9
$SURFV
 70
     6
  9
$UCSNAME
  2

  9
$UCSORG
 10
0.0
 20
0.0
 30
0.0
  9
$UCSXDIR
 10
1.0
 20
0.0
 30
0.0
  9
$UCSYDIR
 10
0.0
 20
1.0
 30
0.0
  9
$PUCSNAME
  2

  9
$PUCSORG
 10
0.0
 20
0.0
 30
0.0
  9
$PUCSXDIR
 10
1.0
 20
0.0
 30
0.0
  9
$PUCSYDIR
 10
0.0
 20
1.0
 30
0.0
  9
$USERI1
 70
     0
  9
$USERI2
 70
     0
  9
$USERI3
 70
     0
  9
$USERI4
 70
     0
  9
$USERI5
 70
     0
  9
$USERR1
 40
0.0
  9
$USERR2
 40
0.0
  9
$USERR3
 40
0.0
  9
$USERR4
 40
0.0
  9
$USERR5
 40
0.0
  9
$WORLDVIEW
 70
     1
  9
$SHADEDGE
 70
     3
  9
$SHADEDIF
 70
    70
  9
$TILEMODE
 70
     1
  9
$MAXACTVP
 70
    16
  9
$PINSBASE
 10
0.0
 20
0.0
 30
0.0
  9
$PLIMCHECK
 70
     0
  9
$PEXTMIN
 10
1.000000E+20
 20
1.000000E+20
 30
1.000000E+20
  9
$PEXTMAX
 10
-1.000000E+20
 20
-1.000000E+20
 30
-1.000000E+20
  9
$PLIMMIN
 10
0.0
 20
0.0
  9
$PLIMMAX
 10
12.0
 20
9.0
  9
$UNITMODE
 70
     0
  9
$VISRETAIN
 70
     0
  9
$PLINEGEN
 70
     1
  9
$PSLTSCALE
 70
     0
  9
$TREEDEPTH
 70
  3020
  9
$PICKSTYLE
 70
     0
  9
$CMLSTYLE
  2
STANDARD
  9
$CMLJUST
 70
     0
  9
$CMLSCALE
 40
1.0
  9
$SAVEIMAGES
 70
     0
  0
ENDSEC
  0
SECTION
  2
CLASSES
  0
CLASS
  1
LWPOLYLINE
  2
AcDbPolyline
  3
"AutoCAD"
 90
    32768
280
     0
281
     1
  0
CLASS
  1
IMAGE
  2
AcDbRasterImage
  3
ISM
 90
    32895
280
     0
281
     1
  0
CLASS
  1
OLE2FRAME
  2
AcDbOle2Frame
  3
""
 90
    32768
280
     0
281
     1
  0
CLASS
  1
HATCH
  2
AcDbHatch
  3
"ACAD_SEDONA"
 90
    32768
280
     0
281
     1
  0
CLASS
  1
DICTIONARYVAR
  2
AcDbDictionaryVar
  3
"AutoCAD"
 90
    32768
280
     0
281
     0
  0
CLASS
  1
RASTERVARIABLES
  2
AcDbRasterVariables
  3
ISM
 90
    32768
280
     0
281
     0
  0
CLASS
  1
IMAGEDEF
  2
AcDbRasterImageDef
  3
ISM
 90
    32768
280
     0
281
     0
  0
CLASS
  1
IMAGEDEF_REACTOR
  2
AcDbRasterImageDefReactor
  3
ISM
 90
    32769
280
     0
281
     0
  0
CLASS
  1
SPATIAL_FILTER
  2
AcDbSpatialFilter
  3
"Acad"
 90
    32768
280
     0
281
     0
  0
CLASS
  1
XRECORD
  2
AcDbXrecord
  3
"<Built In>"
 90
    32768
280
     0
281
     0
  0
CLASS
  1
SORTENTSTABLE
  2
AcDbSortentsTable
  3
"AutoCAD"
 90
    32768
280
     0
281
     0
  0
CLASS
  1
LAYER_INDEX
  2
AcDbLayerIndex
  3
"Acad"
 90
    32768
280
     0
281
     0
  0
CLASS
  1
SPATIAL_INDEX
  2
AcDbSpatialIndex
  3
"Acad"
 90
    32768
280
     0
281
     0
  0
CLASS
  1
OBJECT_PTR
  2
CAseDLPNTableRecord
  3
ASE-LPNTableRecord
 90
    32769
280
     0
281
     0
  0
CLASS
  1
LAYOUT
  2
AcDbLayout
  3
AutoCAD 2000
 90
    32768
280
     0
281
     0
  0
CLASS
  1
PLOTSETTINGS
  2
AcDbPlotSettings
  3
AutoCAD 2000
 90
    32768
280
     0
281
     0
  0
CLASS
  1
ACDBDICTIONARYWDFLT
  2
AcDbDictionaryWithDefault
  3
AutoCAD 2000
 90
    32768
280
     0
281
     0
  0
CLASS
  1
ACDBPLACEHOLDER
  2
AcDbPlaceHolder
  3
AutoCAD 2000
 90
    32768
280
     0
281
     0
  0
CLASS
  1
VBA_PROJECT
  2
AcDbVbaProject
  3
acad
 90
    32768
280
     0
281
     0
  0
CLASS
  1
WIPEOUT
  2
AcDbWipeout
  3
WipeOut|AutoCAD Express Tool|expresstools@autodesk.com
 90
    32895
280
     0
281
     1
  0
CLASS
  1
WIPEOUTVARIABLES
  2
AcDbWipeoutVariables
  3
WipeOut|AutoCAD Express Tool|expresstools@autodesk.com
 90
    32768
280
     0
281
     0
  0
CLASS
  1
RTEXT
  2
RText
  3
RText|AutoCAD Express Tool|expresstools@autodesk.com
 90
    32768
280
     0
281
     1
  0
CLASS
  1
ARCALIGNEDTEXT
  2
AcDbArcAlignedText
  3
ATEXT|AutoCAD Express Tool|expresstools@autodesk.com
 90
    32768
280
     0
281
     1
  0
CLASS
  1
TABLESTYLE
  2
AcDbTableStyle
  3
ObjectDBX Classes
 90
    34815
280
     0
281
     0
  0
CLASS
  1
ACAD_PROXY_OBJECT_WRAPPER
  2
AcDbProxyObjectWrapper
  3
AutoCAD 2000
 90
    32768
280
     0
281
     0
  0
CLASS
  1
LONG_TRANSACTION
  2
AcDbLongTransaction
  3
AutoCAD 2000
 90
    32768
280
     0
281
     0
  0
CLASS
  1
LWPOLYLINE
  2
AcDbPolyline
  3
"AutoCAD"
 90
    32768
280
     0
281
     1
  0
CLASS
  1
HATCH
  2
AcDbHatch
  3
"ACAD_SEDONA"
 90
    32768
280
     0
281
     1
  0
CLASS
  1
XRECORD
  2
AcDbXrecord
  3
"<Built In>"
 90
    32768
280
     0
281
     0
  0
ENDSEC
  0
SECTION
  2
TABLES
  0
TABLE
  2
VPORT
  5
7
100
AcDbSymbolTable
 70
     2
  0
VPORT
  5
129BA
100
AcDbSymbolTableRecord
100
AcDbViewportTableRecord
  2
*ACTIVE
 70
     0
 10
0.0
 20
0.0
 11
1.0
 21
1.0
 12
54.075144
 22
64.364825
 13
0.0
 23
0.0
 14
1.0
 24
1.0
 15
0.0
 25
0.0
 16
0.0
 26
0.0
 36
1.0
 17
0.0
 27
0.0
 37
0.0
 40
124.798473
 41
1.673611
 42
50.0
 43
0.0
 44
0.0
 50
0.0
 51
0.0
 71
     0
 72
   100
 73
     1
 74
     2
 75
     0
 76
     0
 77
     0
 78
     0
  0
ENDTAB
  0
TABLE
  2
LTYPE
  5
4
100
AcDbSymbolTable
 70
     2
  0
LTYPE
  5
11
102
{ACAD_XDICTIONARY
360
12977
102
}
100
AcDbSymbolTableRecord
100
AcDbLinetypeTableRecord
  2
BYBLOCK
 70
     0
  3

 72
    65
 73
     0
 40
0.0
  0
LTYPE
  5
12
102
{ACAD_XDICTIONARY
360
12979
102
}
100
AcDbSymbolTableRecord
100
AcDbLinetypeTableRecord
  2
BYLAYER
 70
     0
  3

 72
    65
 73
     0
 40
0.0
  0
LTYPE
  5
13
102
{ACAD_XDICTIONARY
360
1297B
102
}
100
AcDbSymbolTableRecord
100
AcDbLinetypeTableRecord
  2
CONTINUOUS
 70
     0
  3
Solid line
 72
    65
 73
     0
 40
0.0
  0
LTYPE
  5
725
100
AcDbSymbolTableRecord
100
AcDbLinetypeTableRecord
  2
AXES2
 70
     0
  3
___ _ ___ _ ___ _ ___ _ ___ _ ___ _ ___ _ ___ _
 72
    65
 73
     4
 40
1.125
 49
0.75
 74
     0
 49
-0.125
 74
     0
 49
0.125
 74
     0
 49
-0.125
 74
     0
  0
ENDTAB
  0
TABLE
  2
LAYER
  5
2
102
{ACAD_XDICTIONARY
360
26F0
102
}
100
AcDbSymbolTable
 70
     5
  0
LAYER
  5
14
100
AcDbSymbolTableRecord
100
AcDbLayerTableRecord
  2
0
 70
     0
 62
     7
  6
CONTINUOUS
  0
LAYER
  5
6EC
102
{ACAD_XDICTIONARY
360
12975
102
}
100
AcDbSymbolTableRecord
100
AcDbLayerTableRecord
  2
DEFPOINTS
 70
     0
 62
     7
  6
CONTINUOUS
  0
LAYER
  5
727
100
AcDbSymbolTableRecord
100
AcDbLayerTableRecord
  2
COTATION1
 70
     0
 62
     2
  6
CONTINUOUS
  0
LAYER
  5
728
100
AcDbSymbolTableRecord
100
AcDbLayerTableRecord
  2
AXE
 70
     0
 62
    80
  6
AXES2
  0
LAYER
  5
729
100
AcDbSymbolTableRecord
100
AcDbLayerTableRecord
  2
ALPHA
 70
     0
 62
   254
  6
CONTINUOUS
  0
ENDTAB
  0
TABLE
  2
STYLE
  5
3
100
AcDbSymbolTable
 70
     2
  0
STYLE
  5
17
102
{ACAD_XDICTIONARY
360
12981
102
}
100
AcDbSymbolTableRecord
100
AcDbTextStyleTableRecord
  2
STANDARD
 70
     0
 40
0.0
 41
1.0
 50
0.0
 71
     0
 42
0.0
  3
txt
  4

  0
STYLE
  5
72B
100
AcDbSymbolTableRecord
100
AcDbTextStyleTableRecord
  2
ROMANS
 70
     0
 40
0.0
 41
1.0
 50
0.0
 71
     0
 42
6.0
  3
romans
  4

  0
ENDTAB
  0
TABLE
  2
VIEW
  5
5
100
AcDbSymbolTable
 70
     0
  0
ENDTAB
  0
TABLE
  2
UCS
  5
6
100
AcDbSymbolTable
 70
     0
  0
ENDTAB
  0
TABLE
  2
APPID
  5
8
100
AcDbSymbolTable
 70
     4
  0
APPID
  5
16
100
AcDbSymbolTableRecord
100
AcDbRegAppTableRecord
  2
ACAD
 70
     0
  0
APPID
  5
26EF
102
{ACAD_XDICTIONARY
360
1297D
102
}
100
AcDbSymbolTableRecord
100
AcDbRegAppTableRecord
  2
ACAECLAYERSTANDARD
 70
     0
  0
APPID
  5
320E
100
AcDbSymbolTableRecord
100
AcDbRegAppTableRecord
  2
DCO15
 70
     0
  0
APPID
  5
3569
102
{ACAD_XDICTIONARY
360
1297F
102
}
100
AcDbSymbolTableRecord
100
AcDbRegAppTableRecord
  2
ACAD_EXEMPT_FROM_CAD_STAND
 70
     0
  0
ENDTAB
  0
TABLE
  2
DIMSTYLE
  5
9
100
AcDbSymbolTable
 70
     2
  0
DIMSTYLE
105
18
102
{ACAD_XDICTIONARY
360
12973
102
}
100
AcDbSymbolTableRecord
100
AcDbDimStyleTableRecord
  2
STANDARD
 70
     0
  3

  4

  5

  6

  7

 40
1.0
 41
0.18
 42
0.0625
 43
0.38
 44
0.18
 45
0.0
 46
0.0
 47
0.0
 48
0.0
140
0.18
141
0.09
142
0.0
143
25.4
144
1.0
145
0.0
146
1.0
147
0.09
 71
     0
 72
     0
 73
     1
 74
     1
 75
     0
 76
     0
 77
     0
 78
     0
170
     0
171
     2
172
     0
173
     0
174
     0
175
     0
176
     0
177
     0
178
     0
270
     2
271
     4
272
     4
273
     2
274
     2
340
17
275
     0
280
     0
281
     0
282
     0
283
     1
284
     0
285
     0
286
     0
287
     3
288
     0
  0
DIMSTYLE
105
72C
102
{ACAD_XDICTIONARY
360
129B1
102
}
102
{ACAD_REACTORS
330
128CA
330
128CD
102
}
100
AcDbSymbolTableRecord
100
AcDbDimStyleTableRecord
  2
SC_DEFAUT
 70
     0
  3

  4

  5
OPEN30
  6

  7

 40
1.0
 41
5.0
 42
2.0
 43
0.38
 44
2.5
 45
0.0
 46
0.0
 47
0.0
 48
0.0
140
2.5
141
0.0
142
0.0
143
25.4
144
1.0
145
0.0
146
1.0
147
2.0
 71
     0
 72
     0
 73
     1
 74
     1
 75
     0
 76
     0
 77
     1
 78
    12
170
     0
171
     2
172
     0
173
     0
174
     0
175
     0
176
     0
177
     0
178
     0
270
     2
271
     1
272
     1
273
     2
274
     2
340
72B
275
     0
280
     0
281
     0
282
     0
283
     1
284
    12
285
    12
286
    12
287
     5
288
     0
  0
ENDTAB
  0
TABLE
  2
BLOCK_RECORD
  5
1
100
AcDbSymbolTable
 70
     3
  0
BLOCK_RECORD
  5
A
102
{ACAD_XDICTIONARY
360
7D7
102
}
100
AcDbSymbolTableRecord
100
AcDbBlockTableRecord
  2
*MODEL_SPACE
  0
BLOCK_RECORD
  5
B
102
{ACAD_XDICTIONARY
360
129A7
102
}
100
AcDbSymbolTableRecord
100
AcDbBlockTableRecord
  2
*PAPER_SPACE
  0
BLOCK_RECORD
  5
6FA
100
AcDbSymbolTableRecord
100
AcDbBlockTableRecord
  2
_OPEN30
  0
BLOCK_RECORD
  5
128D0
100
AcDbSymbolTableRecord
100
AcDbBlockTableRecord
  2
*D1
  0
BLOCK_RECORD
  5
128DD
100
AcDbSymbolTableRecord
100
AcDbBlockTableRecord
  2
*D2
  0
ENDTAB
  0
ENDSEC
  0
SECTION
  2
BLOCKS
  0
BLOCK
  5
D
100
AcDbEntity
  8
0
100
AcDbBlockBegin
  2
*MODEL_SPACE
 70
     0
 10
0.0
 20
0.0
 30
0.0
  3
*MODEL_SPACE
  1

  0
ENDBLK
  5
E
100
AcDbEntity
  8
0
100
AcDbBlockEnd
  0
BLOCK
  5
F
100
AcDbEntity
 67
     1
  8
0
100
AcDbBlockBegin
  2
*PAPER_SPACE
 70
     0
 10
0.0
 20
0.0
 30
0.0
  3
*PAPER_SPACE
  1

  0
ENDBLK
  5
10
100
AcDbEntity
 67
     1
  8
0
100
AcDbBlockEnd
  0
BLOCK
  5
6FB
100
AcDbEntity
  8
0
100
AcDbBlockBegin
  2
_OPEN30
 70
     0
 10
0.0
 20
0.0
 30
0.0
  3
_OPEN30
  1

  0
LINE
  5
6FC
100
AcDbEntity
  8
COTATION1
 62
     0
100
AcDbLine
 10
-1.0
 20
0.267949
 30
0.0
 11
0.0
 21
0.0
 31
0.0
1001
ACAD
1000
RTLwPs
1070
   158
  0
LINE
  5
6FD
100
AcDbEntity
  8
COTATION1
 62
     0
100
AcDbLine
 10
0.0
 20
0.0
 30
0.0
 11
-1.0
 21
-0.267949
 31
0.0
1001
ACAD
1000
RTLwPs
1070
   158
  0
LINE
  5
6FE
100
AcDbEntity
  8
COTATION1
 62
     0
100
AcDbLine
 10
0.0
 20
0.0
 30
0.0
 11
-1.0
 21
0.0
 31
0.0
1001
ACAD
1000
RTLwPs
1070
   158
  0
ENDBLK
  5
6FF
100
AcDbEntity
  8
0
100
AcDbBlockEnd
  0
BLOCK
  5
128DB
100
AcDbEntity
  8
0
100
AcDbBlockBegin
  2
*D1
 70
     1
 10
0.0
 20
0.0
 30
0.0
  3
*D1
  1

1001
ACAD
1000
RTLwPs
1070
   128
  0
LINE
  5
12940
100
AcDbEntity
  8
COTATION1
 62
     0
100
AcDbLine
 10
75.422406
 20
106.612172
 30
0.0
 11
103.922406
 21
106.612172
 31
0.0
1001
ACAD
1000
RTLwPs
1070
   158
  0
LINE
  5
12941
100
AcDbEntity
  8
COTATION1
 62
     0
100
AcDbLine
 10
78.422406
 20
17.612172
 30
0.0
 11
103.922406
 21
17.612172
 31
0.0
1001
ACAD
1000
RTLwPs
1070
   158
  0
LINE
  5
12942
100
AcDbEntity
  8
COTATION1
 62
     0
100
AcDbLine
 10
101.422406
 20
101.612172
 30
0.0
 11
101.422406
 21
65.362172
 31
0.0
1001
ACAD
1000
RTLwPs
1070
   158
  0
LINE
  5
12943
100
AcDbEntity
  8
COTATION1
 62
     0
100
AcDbLine
 10
101.422406
 20
22.612172
 30
0.0
 11
101.422406
 21
58.862172
 31
0.0
1001
ACAD
1000
RTLwPs
1070
   158
  0
INSERT
  5
12944
100
AcDbEntity
  8
COTATION1
 62
     0
100
AcDbBlockReference
  2
_OPEN30
 10
101.422406
 20
106.612172
 30
0.0
 41
5.0
 42
5.0
 43
5.0
 50
90.0
1001
ACAD
1000
RTLwPs
1070
   158
  0
INSERT
  5
12945
100
AcDbEntity
  8
COTATION1
 62
     0
100
AcDbBlockReference
  2
_OPEN30
 10
101.422406
 20
17.612172
 30
0.0
 41
5.0
 42
5.0
 43
5.0
 50
270.0
1001
ACAD
1000
RTLwPs
1070
   158
  0
MTEXT
  5
12946
100
AcDbEntity
  8
COTATION1
 62
     0
100
AcDbMText
 10
101.422406
 20
62.112172
 30
0.0
 40
2.5
 41
0.0
 71
     5
 72
     1
  1
\A1;89
  7
ROMANS
1001
ACAD
1000
MTEXTBEGIN
1070
    73
1070
     1
1070
    44
1040
1.0
1070
    74
1070
     0
1000
MTEXTEND
1000
MTEXTBEGIN
1070
    73
1070
     1
1070
    44
1040
1.0
1070
    74
1070
     0
1000
MTEXTEND
  0
POINT
  5
12947
100
AcDbEntity
  8
DEFPOINTS
 62
     0
100
AcDbPoint
 10
73.422406
 20
106.612172
 30
0.0
1001
ACAD
1000
RTLwPs
1070
   128
  0
POINT
  5
12948
100
AcDbEntity
  8
DEFPOINTS
 62
     0
100
AcDbPoint
 10
76.422406
 20
17.612172
 30
0.0
1001
ACAD
1000
RTLwPs
1070
   128
  0
POINT
  5
12949
100
AcDbEntity
  8
DEFPOINTS
 62
     0
100
AcDbPoint
 10
101.422406
 20
17.612172
 30
0.0
1001
ACAD
1000
RTLwPs
1070
   128
  0
ENDBLK
  5
128DC
100
AcDbEntity
  8
0
100
AcDbBlockEnd
1001
ACAD
1000
RTLwPs
1070
   128
  0
BLOCK
  5
128E7
100
AcDbEntity
  8
0
100
AcDbBlockBegin
  2
*D2
 70
     1
 10
0.0
 20
0.0
 30
0.0
  3
*D2
  1

1001
ACAD
1000
RTLwPs
1070
   128
  0
LINE
  5
1295F
100
AcDbEntity
  8
COTATION1
 62
     0
100
AcDbLine
 10
76.422406
 20
97.612172
 30
0.0
 11
76.422406
 21
124.112172
 31
0.0
1001
ACAD
1000
RTLwPs
1070
   158
  0
LINE
  5
12960
100
AcDbEntity
  8
COTATION1
 62
     0
100
AcDbLine
 10
9.222406
 20
97.612172
 30
0.0
 11
9.222406
 21
124.112172
 31
0.0
1001
ACAD
1000
RTLwPs
1070
   158
  0
LINE
  5
12961
100
AcDbEntity
  8
COTATION1
 62
     0
100
AcDbLine
 10
71.422406
 20
121.612172
 30
0.0
 11
14.222406
 21
121.612172
 31
0.0
1001
ACAD
1000
RTLwPs
1070
   158
  0
INSERT
  5
12962
100
AcDbEntity
  8
COTATION1
 62
     0
100
AcDbBlockReference
  2
_OPEN30
 10
76.422406
 20
121.612172
 30
0.0
 41
5.0
 42
5.0
 43
5.0
1001
ACAD
1000
RTLwPs
1070
   158
  0
INSERT
  5
12963
100
AcDbEntity
  8
COTATION1
 62
     0
100
AcDbBlockReference
  2
_OPEN30
 10
9.222406
 20
121.612172
 30
0.0
 41
5.0
 42
5.0
 43
5.0
 50
180.0
1001
ACAD
1000
RTLwPs
1070
   158
  0
MTEXT
  5
12964
100
AcDbEntity
  8
COTATION1
 62
     0
100
AcDbMText
 10
42.822406
 20
124.862172
 30
0.0
 40
2.5
 41
0.0
 71
     5
 72
     1
  1
\A1;67.2
  7
ROMANS
1001
ACAD
1000
MTEXTBEGIN
1070
    73
1070
     1
1070
    44
1040
1.0
1070
    74
1070
     0
1000
MTEXTEND
1000
MTEXTBEGIN
1070
    73
1070
     1
1070
    44
1040
1.0
1070
    74
1070
     0
1000
MTEXTEND
  0
POINT
  5
12965
100
AcDbEntity
  8
DEFPOINTS
 62
     0
100
AcDbPoint
 10
76.422406
 20
95.612172
 30
0.0
1001
ACAD
1000
RTLwPs
1070
   128
  0
POINT
  5
12966
100
AcDbEntity
  8
DEFPOINTS
 62
     0
100
AcDbPoint
 10
9.222406
 20
95.612172
 30
0.0
1001
ACAD
1000
RTLwPs
1070
   128
  0
POINT
  5
12967
100
AcDbEntity
  8
DEFPOINTS
 62
     0
100
AcDbPoint
 10
9.222406
 20
121.612172
 30
0.0
1001
ACAD
1000
RTLwPs
1070
   128
  0
ENDBLK
  5
128E8
100
AcDbEntity
  8
0
100
AcDbBlockEnd
1001
ACAD
1000
RTLwPs
1070
   128
  0
ENDSEC
  0
SECTION
  2
ENTITIES
  0
LINE
  5
128AF
100
AcDbEntity
  8
ALPHA
  6
CONTINUOUS
100
AcDbLine
 10
73.422406
 20
106.612172
 30
0.0
 11
24.922406
 21
106.612172
 31
0.0
1001
ACAD
1000
RTLwPs
1070
   128
  0
LINE
  5
128B0
100
AcDbEntity
  8
ALPHA
  6
CONTINUOUS
100
AcDbLine
 10
76.422406
 20
17.612172
 30
0.0
 11
24.922406
 21
17.612172
 31
0.0
1001
ACAD
1000
RTLwPs
1070
   128
  0
LINE
  5
128B1
100
AcDbEntity
  8
ALPHA
  6
CONTINUOUS
100
AcDbLine
 10
9.222406
 20
95.612172
 30
0.0
 11
9.222406
 21
28.612172
 31
0.0
1001
ACAD
1000
RTLwPs
1070
   128
  0
LINE
  5
128B2
100
AcDbEntity
  8
ALPHA
  6
CONTINUOUS
100
AcDbLine
 10
76.422406
 20
95.612172
 30
0.0
 11
76.422406
 21
77.612172
 31
0.0
1001
ACAD
1000
RTLwPs
1070
   128
  0
LINE
  5
128B3
100
AcDbEntity
  8
ALPHA
  6
CONTINUOUS
100
AcDbLine
 10
73.422406
 20
106.612172
 30
0.0
 11
76.422406
 21
95.612172
 31
0.0
1001
ACAD
1000
RTLwPs
1070
   128
  0
LINE
  5
128B4
100
AcDbEntity
  8
ALPHA
  6
CONTINUOUS
100
AcDbLine
 10
71.690355
 20
80.612172
 30
0.0
 11
73.422406
 21
77.612172
 31
0.0
1001
ACAD
1000
RTLwPs
1070
   128
  0
LINE
  5
128B5
100
AcDbEntity
  8
ALPHA
  6
CONTINUOUS
100
AcDbLine
 10
76.422406
 20
43.362172
 30
0.0
 11
76.422406
 21
17.612172
 31
0.0
1001
ACAD
1000
RTLwPs
1070
   128
  0
LINE
  5
128B6
100
AcDbEntity
  8
ALPHA
  6
CONTINUOUS
100
AcDbLine
 10
24.922406
 20
106.612172
 30
0.0
 11
24.922406
 21
84.612172
 31
0.0
1001
ACAD
1000
RTLwPs
1070
   128
  0
LINE
  5
128B7
100
AcDbEntity
  8
ALPHA
  6
CONTINUOUS
100
AcDbLine
 10
40.922406
 20
106.612172
 30
0.0
 11
40.922406
 21
17.612172
 31
0.0
1001
ACAD
1000
RTLwPs
1070
   128
  0
LINE
  5
128B8
100
AcDbEntity
  8
ALPHA
  6
CONTINUOUS
100
AcDbLine
 10
24.922406
 20
84.612172
 30
0.0
 11
9.222406
 21
84.612172
 31
0.0
1001
ACAD
1000
RTLwPs
1070
   128
  0
LINE
  5
128B9
100
AcDbEntity
  8
ALPHA
  6
CONTINUOUS
100
AcDbLine
 10
24.922406
 20
39.612172
 30
0.0
 11
9.222406
 21
39.612172
 31
0.0
1001
ACAD
1000
RTLwPs
1070
   128
  0
LINE
  5
128BA
100
AcDbEntity
  8
ALPHA
  6
CONTINUOUS
100
AcDbLine
 10
24.922406
 20
17.612172
 30
0.0
 11
24.922406
 21
39.612172
 31
0.0
1001
ACAD
1000
RTLwPs
1070
   128
  0
LINE
  5
128BB
100
AcDbEntity
  8
ALPHA
  6
CONTINUOUS
100
AcDbLine
 10
70.922406
 20
74.612172
 30
0.0
 11
70.922406
 21
80.612172
 31
0.0
1001
ACAD
1000
RTLwPs
1070
   128
  0
LINE
  5
128BC
100
AcDbEntity
  8
ALPHA
  6
CONTINUOUS
100
AcDbLine
 10
70.922406
 20
74.612172
 30
0.0
 11
76.422406
 21
69.112172
 31
0.0
1001
ACAD
1000
RTLwPs
1070
   128
  0
LINE
  5
128BD
100
AcDbEntity
  8
ALPHA
  6
CONTINUOUS
100
AcDbLine
 10
70.922406
 20
80.612172
 30
0.0
 11
76.422406
 21
80.612172
 31
0.0
1001
ACAD
1000
RTLwPs
1070
   128
  0
LINE
  5
128BE
100
AcDbEntity
  8
ALPHA
  6
CONTINUOUS
100
AcDbLine
 10
73.422406
 20
77.612172
 30
0.0
 11
76.422406
 21
77.612172
 31
0.0
1001
ACAD
1000
RTLwPs
1070
   128
  0
LINE
  5
128BF
100
AcDbEntity
  8
ALPHA
  6
CONTINUOUS
100
AcDbLine
 10
70.922406
 20
49.612172
 30
0.0
 11
70.922406
 21
43.612172
 31
0.0
1001
ACAD
1000
RTLwPs
1070
   128
  0
LINE
  5
128C0
100
AcDbEntity
  8
ALPHA
  6
CONTINUOUS
100
AcDbLine
 10
70.922406
 20
49.612172
 30
0.0
 11
76.422406
 21
55.112172
 31
0.0
1001
ACAD
1000
RTLwPs
1070
   128
  0
LINE
  5
128C1
100
AcDbEntity
  8
ALPHA
  6
CONTINUOUS
100
AcDbLine
 10
70.922406
 20
43.612172
 30
0.0
 11
76.422406
 21
43.612172
 31
0.0
1001
ACAD
1000
RTLwPs
1070
   128
  0
LINE
  5
128C2
100
AcDbEntity
  8
ALPHA
  6
CONTINUOUS
100
AcDbLine
 10
76.422406
 20
69.112172
 30
0.0
 11
76.422406
 21
55.112172
 31
0.0
1001
ACAD
1000
RTLwPs
1070
   128
  0
LINE
  5
128C8
100
AcDbEntity
  8
AXE
100
AcDbLine
 10
91.422406
 20
62.112172
 30
0.0
 11
4.222406
 21
62.112172
 31
0.0
  0
TEXT
  5
128C9
100
AcDbEntity
  8
AXE
100
AcDbText
 10
84.906534
 20
63.116442
 30
0.0
 40
8.0
  1
Z
  7
ROMANS
 72
     2
 11
91.382724
 21
63.116442
 31
0.0
100
AcDbText
  0
DIMENSION
  5
128CA
100
AcDbEntity
  8
COTATION1
100
AcDbDimension
  2
*D1
 10
101.422406
 20
17.612172
 30
0.0
 11
101.422406
 21
62.112172
 31
0.0
 70
    32
  3
SC_DEFAUT
100
AcDbAlignedDimension
 13
73.422406
 23
106.612172
 33
0.0
 14
76.422406
 24
17.612172
 34
0.0
 50
90.0
100
AcDbRotatedDimension
  0
LINE
  5
128CB
100
AcDbEntity
  8
AXE
100
AcDbLine
 10
50.672406
 20
111.612172
 30
0.0
 11
50.672406
 21
2.612172
 31
0.0
  0
TEXT
  5
128CC
100
AcDbEntity
  8
AXE
100
AcDbText
 10
43.196215
 20
2.612172
 30
0.0
 40
8.0
  1
Y
  7
ROMANS
 72
     2
 11
49.672406
 21
2.612172
 31
0.0
100
AcDbText
  0
DIMENSION
  5
128CD
100
AcDbEntity
  8
COTATION1
100
AcDbDimension
  2
*D2
 10
9.222406
 20
121.612172
 30
0.0
 11
42.822406
 21
124.862172
 31
0.0
 70
    32
  3
SC_DEFAUT
100
AcDbAlignedDimension
 13
76.422406
 23
95.612172
 33
0.0
 14
9.222406
 24
95.612172
 34
0.0
100
AcDbRotatedDimension
  0
LINE
  5
1295D
100
AcDbEntity
  8
ALPHA
  6
CONTINUOUS
100
AcDbLine
 10
24.922406
 20
95.612172
 30
0.0
 11
9.222406
 21
95.612172
 31
0.0
1001
ACAD
1000
RTLwPs
1070
   128
  0
LINE
  5
1295E
100
AcDbEntity
  8
ALPHA
  6
CONTINUOUS
100
AcDbLine
 10
24.922406
 20
28.612172
 30
0.0
 11
9.222406
 21
28.612172
 31
0.0
1001
ACAD
1000
RTLwPs
1070
   128
  0
ENDSEC
  0
SECTION
  2
OBJECTS
  0
DICTIONARY
  5
19
102
{ACAD_XDICTIONARY
360
129A9
102
}
100
AcDbDictionary
  3
ACAD_COLOR
350
6DB
  3
ACAD_GROUP
350
1A
  3
ACAD_LAYOUT
350
1E
  3
ACAD_MATERIAL
350
6DA
  3
ACAD_MLINESTYLE
350
1B
  3
ACAD_PLOTSETTINGS
350
22
  3
ACAD_PLOTSTYLENAME
350
1F
  3
ACAD_TABLESTYLE
350
6DC
  3
ACAD_WIPEOUT_VARS
350
23
  3
ACDBHEADERROUNDTRIPXREC
350
12985
  3
ACDBVARIABLEDICTIONARY
350
7DA
  3
ASE_INDEX_DICTIONARY
350
3571
  0
DICTIONARY
  5
12977
100
AcDbDictionary
  3
ACAD_XREC_ROUNDTRIP
360
12978
  0
DICTIONARY
  5
12979
100
AcDbDictionary
  3
ACAD_XREC_ROUNDTRIP
360
1297A
  0
DICTIONARY
  5
1297B
100
AcDbDictionary
  3
ACAD_XREC_ROUNDTRIP
360
1297C
  0
DICTIONARY
  5
26F0
100
AcDbDictionary
  3
ACAD_LAYERFILTERS
360
26F2
  3
ACAD_LAYERSTATES
360
3474
  3
ACLYDICTIONARY
360
26F1
  0
DICTIONARY
  5
12975
100
AcDbDictionary
  3
ACAD_XREC_ROUNDTRIP
360
12976
  0
DICTIONARY
  5
12981
100
AcDbDictionary
  3
ACAD_XREC_ROUNDTRIP
360
12982
  0
DICTIONARY
  5
1297D
100
AcDbDictionary
  3
ACAD_XREC_ROUNDTRIP
360
1297E
  0
DICTIONARY
  5
1297F
100
AcDbDictionary
  3
ACAD_XREC_ROUNDTRIP
360
12980
  0
DICTIONARY
  5
12973
100
AcDbDictionary
  3
ACAD_XREC_ROUNDTRIP
360
12974
  0
DICTIONARY
  5
129B1
100
AcDbDictionary
  3
ACAD_XREC_ROUNDTRIP
360
129B2
  0
DICTIONARY
  5
7D7
100
AcDbDictionary
  3
ACAD_LAYOUTSELFREF
360
129A6
  3
ACAD_SORTENTS
360
7D8
  0
DICTIONARY
  5
129A7
100
AcDbDictionary
  3
ACAD_LAYOUTSELFREF
360
129A8
  0
DICTIONARY
  5
129A9
100
AcDbDictionary
  3
ACAD_XREC_ROUNDTRIP
360
129AA
  0
DICTIONARY
  5
6DB
102
{ACAD_REACTORS
330
19
102
}
100
AcDbDictionary
  0
DICTIONARY
  5
1A
102
{ACAD_REACTORS
330
19
102
}
100
AcDbDictionary
  0
DICTIONARY
  5
1E
102
{ACAD_XDICTIONARY
360
129AD
102
}
102
{ACAD_REACTORS
330
19
102
}
100
AcDbDictionary
  3
LAYOUT1
350
21
  3
MODEL
350
20
  0
DICTIONARY
  5
6DA
102
{ACAD_REACTORS
330
19
102
}
100
AcDbDictionary
  0
DICTIONARY
  5
1B
102
{ACAD_XDICTIONARY
360
129AB
102
}
102
{ACAD_REACTORS
330
19
102
}
100
AcDbDictionary
  3
STANDARD
350
1C
  0
DICTIONARY
  5
22
102
{ACAD_REACTORS
330
19
102
}
100
AcDbDictionary
  0
ACAD_ZOMBIE_OBJECT
  5
1F
102
{ACAD_REACTORS
330
19
102
}
100
AcDbZombieObject
 90
      499
 91
      517
 93
       86
310
405010041939BDC9B585B1
350
1D
340
1D
 94
        0
  0
DICTIONARY
  5
6DC
102
{ACAD_XDICTIONARY
360
129AF
102
}
102
{ACAD_REACTORS
330
19
102
}
100
AcDbDictionary
  3
STANDARD
350
6DD
  0
ACAD_ZOMBIE_OBJECT
  5
23
102
{ACAD_REACTORS
330
19
102
}
100
AcDbZombieObject
 90
      499
 91
      521
 93
       10
310
4044
 94
        0
  0
DICTIONARY
  5
12985
102
{ACAD_REACTORS
330
19
102
}
100
AcDbDictionary
  3
CEPSNTYPE
350
1298F
  3
DIMSTYLEDATA
350
12993
  3
FINGERPRINTGUID
350
12990
  3
HYPERLINKBASE
350
12988
  3
INSUNITS
350
1298E
  3
LAYOUTDICT
350
1298A
  3
LWETCUNION
350
1298D
  3
PLOTSETDICT
350
1298B
  3
PLOTSTYLNAMDICT
350
1298C
  3
PSVPSCALE
350
12992
  3
PUCSBASE
350
12996
  3
PUCSORGBACK
350
1299C
  3
PUCSORGBOTTOM
350
12998
  3
PUCSORGFRONT
350
1299B
  3
PUCSORGLEFT
350
12999
  3
PUCSORGRIGHT
350
1299A
  3
PUCSORGTOP
350
12997
  3
PUCSORTHOREF
350
12994
  3
PUCSORTHOVIEW
350
12995
  3
STYLESHEET
350
12989
  3
TSTACKALIGN
350
12986
  3
TSTACKSIZE
350
12987
  3
UCSBASE
350
1299F
  3
UCSORGBACK
350
129A5
  3
UCSORGBOTTOM
350
129A1
  3
UCSORGFRONT
350
129A4
  3
UCSORGLEFT
350
129A2
  3
UCSORGRIGHT
350
129A3
  3
UCSORGTOP
350
129A0
  3
UCSORTHOREF
350
1299D
  3
UCSORTHOVIEW
350
1299E
  3
VERSIONGUID
350
12991
  0
DICTIONARY
  5
7DA
102
{ACAD_REACTORS
330
19
102
}
100
AcDbDictionary
  3
CTABLESTYLE
350
7DB
  3
DIMASSOC
350
1A71
  3
PROJECTNAME
350
1A72
  0
DICTIONARY
  5
3571
102
{ACAD_XDICTIONARY
360
129B3
102
}
102
{ACAD_REACTORS
330
19
102
}
100
AcDbDictionary
  3
ASEBLOCKHIERARCHYINDEXRECORD
350
3572
1001
DCO15
1040
1558939622.437
  0
XRECORD
  5
12978
102
{ACAD_REACTORS
330
12977
102
}
100
AcDbXrecord
102
EXTNAMES
  1
BYBLOCK
  2
ByBlock
  0
XRECORD
  5
1297A
102
{ACAD_REACTORS
330
12979
102
}
100
AcDbXrecord
102
EXTNAMES
  1
BYLAYER
  2
ByLayer
  0
XRECORD
  5
1297C
102
{ACAD_REACTORS
330
1297B
102
}
100
AcDbXrecord
102
EXTNAMES
  1
CONTINUOUS
  2
Continuous
  0
DICTIONARY
  5
26F2
102
{ACAD_REACTORS
330
26F0
102
}
100
AcDbDictionary
  0
DICTIONARY
  5
3474
102
{ACAD_REACTORS
330
26F0
102
}
100
AcDbDictionary
  0
DICTIONARY
  5
26F1
102
{ACAD_REACTORS
330
26F0
102
}
100
AcDbDictionary
1001
ACAD
1000
<All
  0
XRECORD
  5
12976
102
{ACAD_REACTORS
330
12975
102
}
100
AcDbXrecord
102
EXTNAMES
  1
DEFPOINTS
  2
Defpoints
102
PLOTBIT
280
     0
  0
XRECORD
  5
12982
102
{ACAD_REACTORS
330
12981
102
}
100
AcDbXrecord
102
EXTNAMES
  1
STANDARD
  2
Standard
  0
XRECORD
  5
1297E
102
{ACAD_REACTORS
330
1297D
102
}
100
AcDbXrecord
102
EXTNAMES
  1
ACAECLAYERSTANDARD
  2
AcAecLayerStandard
  0
XRECORD
  5
12980
102
{ACAD_REACTORS
330
1297F
102
}
100
AcDbXrecord
102
EXTNAMES
  1
ACAD_EXEMPT_FROM_CAD_STAND
  2
ACAD_EXEMPT_FROM_CAD_STANDARDS
  0
XRECORD
  5
12974
102
{ACAD_REACTORS
330
12973
102
}
100
AcDbXrecord
102
EXTNAMES
  1
STANDARD
  2
Standard
  0
XRECORD
  5
129B2
102
{ACAD_REACTORS
330
129B1
102
}
100
AcDbXrecord
102
ACADR14ROUNDTRIP
1000
DSTYLE
1002
{
1070
   279
 70
     2
1070
   341
340
6FA
1070
   342
340
6FA
1002
}
  0
XRECORD
  5
129A6
102
{ACAD_REACTORS
330
7D7
102
}
100
AcDbXrecord
340
A
  0
SORTENTSTABLE
  5
7D8
102
{ACAD_REACTORS
330
7D7
102
}
100
AcDbSortentsTable
330
A
331
128CC
  5
1295D
331
128B5
  5
128B6
331
128BC
  5
128BF
331
128C9
  5
128CC
331
128B2
  5
128B3
331
128B9
  5
128BB
331
128C0
  5
128C8
331
128CD
  5
1295E
331
128AF
  5
128AF
331
128B6
  5
128B7
331
128BD
  5
128C0
331
128CA
  5
128CD
331
128B3
  5
128B4
331
128BA
  5
128BD
331
128C1
  5
128C9
331
1295D
  5
128BA
331
128B0
  5
128B0
331
128B7
  5
128B8
331
128BE
  5
128C1
331
128CB
  5
128CE
331
128B4
  5
128B5
331
128BB
  5
128BE
331
128C2
  5
128CA
331
1295E
  5
128BC
331
128C8
  5
128CB
331
128B1
  5
128B1
331
128B8
  5
128B9
331
128BF
  5
128C2
  0
XRECORD
  5
129A8
102
{ACAD_REACTORS
330
129A7
102
}
100
AcDbXrecord
340
B
  0
XRECORD
  5
129AA
102
{ACAD_REACTORS
330
129A9
102
}
100
AcDbXrecord
102
EXTNAMES
  1
ACDBVARIABLEDICTIONARY
  2
AcDbVariableDictionary
  0
DICTIONARY
  5
129AD
100
AcDbDictionary
  3
ACAD_XREC_ROUNDTRIP
360
129AE
  0
ACAD_ZOMBIE_OBJECT
  5
21
102
{ACAD_XDICTIONARY
360
1296C
102
}
102
{ACAD_REACTORS
330
1E
102
}
100
AcDbZombieObject
 90
      499
 91
      515
 93
      812
310
AAAAAAAAAA5A69074C61796F757431406A800000000000000000000000000000000000000000000A1000000000000008902A6A6A10232D5E076BC5510408CB5781DAF154410232D5E076BC5510408CB5781DAF15C410232D5E076BC5710408CB5781DAF15C48
330
B
330
0
340
0
340
0
 94
        0
  0
ACAD_ZOMBIE_OBJECT
  5
20
102
{ACAD_XDICTIONARY
360
1296A
102
}
102
{ACAD_REACTORS
330
1E
102
}
100
AcDbZombieObject
 90
      499
 91
      515
 93
      420
310
A00012AAAAAAAA5A69054D6F64656CAA80000000000000000000000000000000000000000000000000000000000000002AAAAAAAA0
330
A
330
0
340
0
340
0
 94
        0
  0
DICTIONARY
  5
129AB
100
AcDbDictionary
  3
ACAD_XREC_ROUNDTRIP
360
129AC
  0
MLINESTYLE
  5
1C
102
{ACAD_REACTORS
330
1B
102
}
100
AcDbMlineStyle
  2
STANDARD
 70
     0
  3

 62
     0
 51
90.0
 52
90.0
 71
     2
 49
0.5
 62
   256
  6
BYLAYER
 49
-0.5
 62
   256
  6
BYLAYER
  0
ACAD_ZOMBIE_OBJECT
  5
1D
102
{ACAD_REACTORS
330
1F
102
}
100
AcDbZombieObject
 90
      499
 91
      518
 93
        0
 94
        0
  0
DICTIONARY
  5
129AF
100
AcDbDictionary
  3
ACAD_XREC_ROUNDTRIP
360
129B0
  0
ACAD_ZOMBIE_OBJECT
  5
6DD
102
{ACAD_REACTORS
330
6DC
102
}
100
AcDbZombieObject
 90
      499
 91
      525
 93
     1841
310
4214DD185B99185C9928000000000000F83F0000000000003E0FC00000000000004901028000000C1008070000C3001FDFF8000000C1003FBFF000000182007F7FE00000030400FEFFC00000060801FDFF8000000C1003FBFF000000182000000000000000C2020B0000001820100E000186003FBFF000000182007F7FE000
310
00030400FEFFC00000060801FDFF8000000C1003FBFF000000182007F7FE0000003040000000000000012404160000003040201C00030C007F7FE00000030400FEFFC00000060801FDFF8000000C1003FBFF000000182007F7FE00000030400FEFFC000000608024
340
17
340
17
340
17
 94
        0
1001
ACAD
1000
AcadProxyRoundTripData
1071
      524
1071
   393239
1070
     0
  0
XRECORD
  5
1298F
102
{ACAD_REACTORS
330
12985
102
}
100
AcDbXrecord
 90
        0
  0
XRECORD
  5
12993
102
{ACAD_REACTORS
330
12985
102
}
100
AcDbXrecord
1000
DSTYLE
1002
{
1070
   278
 70
     0
1070
   371
 70
     0
1070
   372
 70
     0
1002
}
  0
XRECORD
  5
12990
102
{ACAD_REACTORS
330
12985
102
}
100
AcDbXrecord
  1

  0
XRECORD
  5
12988
102
{ACAD_REACTORS
330
12985
102
}
100
AcDbXrecord
  1

  0
XRECORD
  5
1298E
102
{ACAD_REACTORS
330
12985
102
}
100
AcDbXrecord
 90
        0
  0
XRECORD
  5
1298A
102
{ACAD_REACTORS
330
12985
102
}
100
AcDbXrecord
340
1E
  0
XRECORD
  5
1298D
102
{ACAD_REACTORS
330
12985
102
}
100
AcDbXrecord
 90
    10752
  0
XRECORD
  5
1298B
102
{ACAD_REACTORS
330
12985
102
}
100
AcDbXrecord
340
22
  0
XRECORD
  5
1298C
102
{ACAD_REACTORS
330
12985
102
}
100
AcDbXrecord
340
1F
  0
XRECORD
  5
12992
102
{ACAD_REACTORS
330
12985
102
}
100
AcDbXrecord
 40
0.0
  0
XRECORD
  5
12996
102
{ACAD_REACTORS
330
12985
102
}
100
AcDbXrecord
340
0
  0
XRECORD
  5
1299C
102
{ACAD_REACTORS
330
12985
102
}
100
AcDbXrecord
 10
0.0
 20
0.0
 30
0.0
  0
XRECORD
  5
12998
102
{ACAD_REACTORS
330
12985
102
}
100
AcDbXrecord
 10
0.0
 20
0.0
 30
0.0
  0
XRECORD
  5
1299B
102
{ACAD_REACTORS
330
12985
102
}
100
AcDbXrecord
 10
0.0
 20
0.0
 30
0.0
  0
XRECORD
  5
12999
102
{ACAD_REACTORS
330
12985
102
}
100
AcDbXrecord
 10
0.0
 20
0.0
 30
0.0
  0
XRECORD
  5
1299A
102
{ACAD_REACTORS
330
12985
102
}
100
AcDbXrecord
 10
0.0
 20
0.0
 30
0.0
  0
XRECORD
  5
12997
102
{ACAD_REACTORS
330
12985
102
}
100
AcDbXrecord
 10
0.0
 20
0.0
 30
0.0
  0
XRECORD
  5
12994
102
{ACAD_REACTORS
330
12985
102
}
100
AcDbXrecord
340
0
  0
XRECORD
  5
12995
102
{ACAD_REACTORS
330
12985
102
}
100
AcDbXrecord
 70
     0
  0
XRECORD
  5
12989
102
{ACAD_REACTORS
330
12985
102
}
100
AcDbXrecord
  1

  0
XRECORD
  5
12986
102
{ACAD_REACTORS
330
12985
102
}
100
AcDbXrecord
 90
        1
  0
XRECORD
  5
12987
102
{ACAD_REACTORS
330
12985
102
}
100
AcDbXrecord
 90
       70
  0
XRECORD
  5
1299F
102
{ACAD_REACTORS
330
12985
102
}
100
AcDbXrecord
340
0
  0
XRECORD
  5
129A5
102
{ACAD_REACTORS
330
12985
102
}
100
AcDbXrecord
 10
0.0
 20
0.0
 30
0.0
  0
XRECORD
  5
129A1
102
{ACAD_REACTORS
330
12985
102
}
100
AcDbXrecord
 10
0.0
 20
0.0
 30
0.0
  0
XRECORD
  5
129A4
102
{ACAD_REACTORS
330
12985
102
}
100
AcDbXrecord
 10
0.0
 20
0.0
 30
0.0
  0
XRECORD
  5
129A2
102
{ACAD_REACTORS
330
12985
102
}
100
AcDbXrecord
 10
0.0
 20
0.0
 30
0.0
  0
XRECORD
  5
129A3
102
{ACAD_REACTORS
330
12985
102
}
100
AcDbXrecord
 10
0.0
 20
0.0
 30
0.0
  0
XRECORD
  5
129A0
102
{ACAD_REACTORS
330
12985
102
}
100
AcDbXrecord
 10
0.0
 20
0.0
 30
0.0
  0
XRECORD
  5
1299D
102
{ACAD_REACTORS
330
12985
102
}
100
AcDbXrecord
340
0
  0
XRECORD
  5
1299E
102
{ACAD_REACTORS
330
12985
102
}
100
AcDbXrecord
 70
     0
  0
XRECORD
  5
12991
102
{ACAD_REACTORS
330
12985
102
}
100
AcDbXrecord
  1
{60F097DA-9512-4042-9EF2-A72C031483D4}
  0
DICTIONARYVAR
  5
7DB
102
{ACAD_REACTORS
330
7DA
102
}
100
DictionaryVariables
280
     0
  1
STANDARD
  0
DICTIONARYVAR
  5
1A71
102
{ACAD_REACTORS
330
7DA
102
}
100
DictionaryVariables
280
     0
  1
1
  0
DICTIONARYVAR
  5
1A72
102
{ACAD_REACTORS
330
7DA
102
}
100
DictionaryVariables
280
     0
  1

  0
DICTIONARY
  5
129B3
100
AcDbDictionary
  3
ACAD_XREC_ROUNDTRIP
360
129B4
  0
XRECORD
  5
3572
102
{ACAD_REACTORS
330
3571
102
}
100
AcDbXrecord
330
0
330
0
330
0
330
0
330
0
330
0
330
0
330
0
330
0
330
0
330
0
330
0
330
0
330
0
330
0
330
0
330
0
330
0
330
0
330
0
330
0
330
0
330
0
330
0
330
0
330
0
330
0
330
0
330
0
330
0
330
0
  0
XRECORD
  5
129AE
102
{ACAD_REACTORS
330
129AD
102
}
100
AcDbXrecord
102
EXTNAMES
  1
LAYOUT1
  2
Layout1
  1
MODEL
  2
Model
  0
DICTIONARY
  5
1296C
100
AcDbDictionary
  3
ACAD_XREC_ROUNDTRIP
360
1296D
  0
DICTIONARY
  5
1296A
100
AcDbDictionary
  3
ACAD_XREC_ROUNDTRIP
360
1296B
  0
XRECORD
  5
129AC
102
{ACAD_REACTORS
330
129AB
102
}
100
AcDbXrecord
102
EXTNAMES
  1
STANDARD
  2
Standard
  0
XRECORD
  5
129B0
102
{ACAD_REACTORS
330
129AF
102
}
100
AcDbXrecord
102
EXTNAMES
  1
STANDARD
  2
Standard
  0
XRECORD
  5
129B4
102
{ACAD_REACTORS
330
129B3
102
}
100
AcDbXrecord
102
EXTNAMES
  1
ASEBLOCKHIERARCHYINDEXRECORD
  2
ASEBlockHierarchyIndexRecord
  0
XRECORD
  5
1296D
102
{ACAD_REACTORS
330
1296C
102
}
100
AcDbXrecord
102
SHADEPLOT
 70
     0
102
SHADEPLOTRESLEVEL
 70
     2
102
SHADEPLOTCUSTOMDPI
 70
   300
  0
XRECORD
  5
1296B
102
{ACAD_REACTORS
330
1296A
102
}
100
AcDbXrecord
102
SHADEPLOT
 70
     0
102
SHADEPLOTRESLEVEL
 70
     2
102
SHADEPLOTCUSTOMDPI
 70
   300
  0
ENDSEC
  0
EOF
