  0
SECTION
  2
HEADER
  9
$ACADVER
  1
AC1012
  9
$DWGCODEPAGE
  3
ANSI_1252
  9
$INSBASE
 10
0.0
 20
0.0
 30
0.0
  9
$EXTMIN
 10
-13.051326
 20
5.721084
 30
-0.001526
  9
$EXTMAX
 10
189.192095
 20
159.730484
 30
0.0
  9
$LIMMIN
 10
19.077216
 20
43.616976
  9
$LIMMAX
 10
194.084622
 20
146.65737
  9
$ORTHOMODE
 70
     1
  9
$REGENMODE
 70
     1
  9
$FILLMODE
 70
     1
  9
$QTEXTMODE
 70
     0
  9
$MIRRTEXT
 70
     1
  9
$DRAGMODE
 70
     2
  9
$LTSCALE
 40
10.0
  9
$OSMODE
 70
    39
  9
$ATTMODE
 70
     1
  9
$TEXTSIZE
 40
0.2
  9
$TRACEWID
 40
0.05
  9
$TEXTSTYLE
  7
STANDARD
  9
$CLAYER
  8
ALPHA
  9
$CELTYPE
  6
CONTINUOUS
  9
$CECOLOR
 62
   256
  9
$CELTSCALE
 40
1.0
  9
$DELOBJ
 70
     1
  9
$DISPSILH
 70
     0
  9
$DIMSCALE
 40
1.0
  9
$DIMASZ
 40
0.18
  9
$DIMEXO
 40
0.0625
  9
$DIMDLI
 40
0.38
  9
$DIMRND
 40
0.0
  9
$DIMDLE
 40
0.0
  9
$DIMEXE
 40
0.18
  9
$DIMTP
 40
0.0
  9
$DIMTM
 40
0.0
  9
$DIMTXT
 40
0.18
  9
$DIMCEN
 40
0.09
  9
$DIMTSZ
 40
0.0
  9
$DIMTOL
 70
     0
  9
$DIMLIM
 70
     0
  9
$DIMTIH
 70
     1
  9
$DIMTOH
 70
     1
  9
$DIMSE1
 70
     0
  9
$DIMSE2
 70
     0
  9
$DIMTAD
 70
     0
  9
$DIMZIN
 70
     0
  9
$DIMBLK
  1

  9
$DIMASO
 70
     1
  9
$DIMSHO
 70
     1
  9
$DIMPOST
  1

  9
$DIMAPOST
  1

  9
$DIMALT
 70
     0
  9
$DIMALTD
 70
     2
  9
$DIMALTF
 40
25.4
  9
$DIMLFAC
 40
1.0
  9
$DIMTOFL
 70
     0
  9
$DIMTVP
 40
0.0
  9
$DIMTIX
 70
     0
  9
$DIMSOXD
 70
     0
  9
$DIMSAH
 70
     0
  9
$DIMBLK1
  1

  9
$DIMBLK2
  1

  9
$DIMSTYLE
  2
STANDARD
  9
$DIMCLRD
 70
     0
  9
$DIMCLRE
 70
     0
  9
$DIMCLRT
 70
     0
  9
$DIMTFAC
 40
1.0
  9
$DIMGAP
 40
0.09
  9
$DIMJUST
 70
     0
  9
$DIMSD1
 70
     0
  9
$DIMSD2
 70
     0
  9
$DIMTOLJ
 70
     1
  9
$DIMTZIN
 70
     0
  9
$DIMALTZ
 70
     0
  9
$DIMALTTZ
 70
     0
  9
$DIMFIT
 70
     3
  9
$DIMUPT
 70
     0
  9
$DIMUNIT
 70
     2
  9
$DIMDEC
 70
     4
  9
$DIMTDEC
 70
     4
  9
$DIMALTU
 70
     2
  9
$DIMALTTD
 70
     2
  9
$DIMTXSTY
  7
STANDARD
  9
$DIMAUNIT
 70
     0
  9
$LUNITS
 70
     2
  9
$LUPREC
 70
     4
  9
$SKETCHINC
 40
0.1
  9
$FILLETRAD
 40
0.0
  9
$AUNITS
 70
     0
  9
$AUPREC
 70
     0
  9
$MENU
  1
acad
  9
$ELEVATION
 40
0.0
  9
$PELEVATION
 40
0.0
  9
$THICKNESS
 40
0.0
  9
$LIMCHECK
 70
     0
  9
$BLIPMODE
 70
     0
  9
$CHAMFERA
 40
0.0
  9
$CHAMFERB
 40
0.0
  9
$CHAMFERC
 40
0.0
  9
$CHAMFERD
 40
0.0
  9
$SKPOLY
 70
     0
  9
$TDCREATE
 40
2453634.371764132
  9
$TDUPDATE
 40
2453689.694804120
  9
$TDINDWG
 40
0.3890943519
  9
$TDUSRTIMER
 40
0.3890932639
  9
$USRTIMER
 70
     1
  9
$ANGBASE
 50
0.0
  9
$ANGDIR
 70
     0
  9
$PDMODE
 70
     0
  9
$PDSIZE
 40
0.0
  9
$PLINEWID
 40
0.0
  9
$COORDS
 70
     0
  9
$SPLFRAME
 70
     0
  9
$SPLINETYPE
 70
     6
  9
$SPLINESEGS
 70
     8
  9
$ATTDIA
 70
     0
  9
$ATTREQ
 70
     1
  9
$HANDLING
 70
     1
  9
$HANDSEED
  5
2D93
  9
$SURFTAB1
 70
     6
  9
$SURFTAB2
 70
     6
  9
$SURFTYPE
 70
     6
  9
$SURFU
 70
     6
  9
$SURFV
 70
     6
  9
$UCSNAME
  2

  9
$UCSORG
 10
0.0
 20
0.0
 30
0.0
  9
$UCSXDIR
 10
1.0
 20
0.0
 30
0.0
  9
$UCSYDIR
 10
0.0
 20
1.0
 30
0.0
  9
$PUCSNAME
  2

  9
$PUCSORG
 10
0.0
 20
0.0
 30
0.0
  9
$PUCSXDIR
 10
1.0
 20
0.0
 30
0.0
  9
$PUCSYDIR
 10
0.0
 20
1.0
 30
0.0
  9
$USERI1
 70
     0
  9
$USERI2
 70
     0
  9
$USERI3
 70
     0
  9
$USERI4
 70
     0
  9
$USERI5
 70
     0
  9
$USERR1
 40
0.0
  9
$USERR2
 40
0.0
  9
$USERR3
 40
0.0
  9
$USERR4
 40
0.0
  9
$USERR5
 40
0.0
  9
$WORLDVIEW
 70
     1
  9
$SHADEDGE
 70
     3
  9
$SHADEDIF
 70
    70
  9
$TILEMODE
 70
     1
  9
$MAXACTVP
 70
    16
  9
$PINSBASE
 10
0.0
 20
0.0
 30
0.0
  9
$PLIMCHECK
 70
     0
  9
$PEXTMIN
 10
1.000000E+20
 20
1.000000E+20
 30
1.000000E+20
  9
$PEXTMAX
 10
-1.000000E+20
 20
-1.000000E+20
 30
-1.000000E+20
  9
$PLIMMIN
 10
0.0
 20
0.0
  9
$PLIMMAX
 10
12.0
 20
9.0
  9
$UNITMODE
 70
     0
  9
$VISRETAIN
 70
     0
  9
$PLINEGEN
 70
     1
  9
$PSLTSCALE
 70
     0
  9
$TREEDEPTH
 70
  3020
  9
$PICKSTYLE
 70
     1
  9
$CMLSTYLE
  2
STANDARD
  9
$CMLJUST
 70
     0
  9
$CMLSCALE
 40
1.0
  9
$SAVEIMAGES
 70
     0
  0
ENDSEC
  0
SECTION
  2
CLASSES
  0
CLASS
  1
LWPOLYLINE
  2
AcDbPolyline
  3
"AutoCAD"
 90
    32768
280
     0
281
     1
  0
CLASS
  1
IMAGE
  2
AcDbRasterImage
  3
ISM
 90
    32895
280
     0
281
     1
  0
CLASS
  1
OLE2FRAME
  2
AcDbOle2Frame
  3
""
 90
    32768
280
     0
281
     1
  0
CLASS
  1
HATCH
  2
AcDbHatch
  3
"ACAD_SEDONA"
 90
    32768
280
     0
281
     1
  0
CLASS
  1
DICTIONARYVAR
  2
AcDbDictionaryVar
  3
"AutoCAD"
 90
    32768
280
     0
281
     0
  0
CLASS
  1
RASTERVARIABLES
  2
AcDbRasterVariables
  3
ISM
 90
    32768
280
     0
281
     0
  0
CLASS
  1
IMAGEDEF
  2
AcDbRasterImageDef
  3
ISM
 90
    32768
280
     0
281
     0
  0
CLASS
  1
IMAGEDEF_REACTOR
  2
AcDbRasterImageDefReactor
  3
ISM
 90
    32769
280
     0
281
     0
  0
CLASS
  1
SPATIAL_FILTER
  2
AcDbSpatialFilter
  3
"Acad"
 90
    32768
280
     0
281
     0
  0
CLASS
  1
XRECORD
  2
AcDbXrecord
  3
"<Built In>"
 90
    32768
280
     0
281
     0
  0
CLASS
  1
SORTENTSTABLE
  2
AcDbSortentsTable
  3
"AutoCAD"
 90
    32768
280
     0
281
     0
  0
CLASS
  1
LAYER_INDEX
  2
AcDbLayerIndex
  3
"Acad"
 90
    32768
280
     0
281
     0
  0
CLASS
  1
SPATIAL_INDEX
  2
AcDbSpatialIndex
  3
"Acad"
 90
    32768
280
     0
281
     0
  0
CLASS
  1
OBJECT_PTR
  2
CAseDLPNTableRecord
  3
"ASE-LPNTableRecord"
 90
    32769
280
     0
281
     0
  0
CLASS
  1
LAYOUT
  2
AcDbLayout
  3
AutoCAD 2000
 90
    32768
280
     0
281
     0
  0
CLASS
  1
PLOTSETTINGS
  2
AcDbPlotSettings
  3
AutoCAD 2000
 90
    32768
280
     0
281
     0
  0
CLASS
  1
ACDBDICTIONARYWDFLT
  2
AcDbDictionaryWithDefault
  3
AutoCAD 2000
 90
    32768
280
     0
281
     0
  0
CLASS
  1
ACDBPLACEHOLDER
  2
AcDbPlaceHolder
  3
AutoCAD 2000
 90
    32768
280
     0
281
     0
  0
CLASS
  1
VBA_PROJECT
  2
AcDbVbaProject
  3
acad
 90
    32768
280
     0
281
     0
  0
CLASS
  1
WIPEOUT
  2
AcDbWipeout
  3
"WipeOut|Product Desc: Object Enabler for WipeOut entity^I^I^I^I^I^I|Company: Autodesk, Inc.^I^I^I^I^I^I|WEB Address: www.autodesk.com"
 90
    32895
280
     0
281
     1
  0
CLASS
  1
WIPEOUTVARIABLES
  2
AcDbWipeoutVariables
  3
"WipeOut|Product Desc:     WipeOut Dbx Application|Company:          Autodesk, Inc.|WEB Address:      www.autodesk.com"
 90
    32768
280
     0
281
     0
  0
CLASS
  1
RTEXT
  2
RText
  3
RText|AutoCAD Express Tool|expresstools@autodesk.com
 90
    32768
280
     0
281
     1
  0
CLASS
  1
ARCALIGNEDTEXT
  2
AcDbArcAlignedText
  3
ATEXT|AutoCAD Express Tool|expresstools@autodesk.com
 90
    32768
280
     0
281
     1
  0
CLASS
  1
TABLESTYLE
  2
AcDbTableStyle
  3
ObjectDBX Classes
 90
    34815
280
     0
281
     0
  0
CLASS
  1
ACAD_PROXY_OBJECT_WRAPPER
  2
AcDbProxyObjectWrapper
  3
AutoCAD 2000
 90
    32768
280
     0
281
     0
  0
CLASS
  1
LONG_TRANSACTION
  2
AcDbLongTransaction
  3
AutoCAD 2000
 90
    32768
280
     0
281
     0
  0
CLASS
  1
LWPOLYLINE
  2
AcDbPolyline
  3
"AutoCAD"
 90
    32768
280
     0
281
     1
  0
CLASS
  1
HATCH
  2
AcDbHatch
  3
"ACAD_SEDONA"
 90
    32768
280
     0
281
     1
  0
CLASS
  1
XRECORD
  2
AcDbXrecord
  3
"<Built In>"
 90
    32768
280
     0
281
     0
  0
ENDSEC
  0
SECTION
  2
TABLES
  0
TABLE
  2
VPORT
  5
7
100
AcDbSymbolTable
 70
     2
  0
VPORT
  5
2D92
100
AcDbSymbolTableRecord
100
AcDbViewportTableRecord
  2
*ACTIVE
 70
     0
 10
0.0
 20
0.0
 11
1.0
 21
1.0
 12
88.070385
 22
82.725784
 13
0.0
 23
0.0
 14
1.0
 24
1.0
 15
0.0
 25
0.0
 16
0.0
 26
0.0
 36
1.0
 17
0.0
 27
0.0
 37
0.0
 40
155.610884
 41
1.673611
 42
50.0
 43
0.0
 44
0.0
 50
0.0
 51
0.0
 71
     0
 72
   100
 73
     1
 74
     2
 75
     0
 76
     0
 77
     0
 78
     0
  0
ENDTAB
  0
TABLE
  2
LTYPE
  5
4
100
AcDbSymbolTable
 70
     3
  0
LTYPE
  5
11
102
{ACAD_XDICTIONARY
360
2D41
102
}
100
AcDbSymbolTableRecord
100
AcDbLinetypeTableRecord
  2
BYBLOCK
 70
     0
  3

 72
    65
 73
     0
 40
0.0
  0
LTYPE
  5
12
102
{ACAD_XDICTIONARY
360
2D43
102
}
100
AcDbSymbolTableRecord
100
AcDbLinetypeTableRecord
  2
BYLAYER
 70
     0
  3

 72
    65
 73
     0
 40
0.0
  0
LTYPE
  5
13
102
{ACAD_XDICTIONARY
360
2D45
102
}
100
AcDbSymbolTableRecord
100
AcDbLinetypeTableRecord
  2
CONTINUOUS
 70
     0
  3
Solid line
 72
    65
 73
     0
 40
0.0
  0
LTYPE
  5
725
100
AcDbSymbolTableRecord
100
AcDbLinetypeTableRecord
  2
AXES2
 70
     0
  3
___ _ ___ _ ___ _ ___ _ ___ _ ___ _ ___ _ ___ _
 72
    65
 73
     4
 40
1.125
 49
0.75
 74
     0
 49
-0.125
 74
     0
 49
0.125
 74
     0
 49
-0.125
 74
     0
  0
LTYPE
  5
726
100
AcDbSymbolTableRecord
100
AcDbLinetypeTableRecord
  2
CACHE2
 70
     0
  3
Caché (x.5) _ _ _ _ _ _ _ _ _ _ _ _ _ _ _ _ _
 72
    65
 73
     2
 40
0.1875
 49
0.125
 74
     0
 49
-0.0625
 74
     0
  0
ENDTAB
  0
TABLE
  2
LAYER
  5
2
100
AcDbSymbolTable
 70
     6
  0
LAYER
  5
14
100
AcDbSymbolTableRecord
100
AcDbLayerTableRecord
  2
0
 70
     0
 62
     7
  6
CONTINUOUS
  0
LAYER
  5
6EC
102
{ACAD_XDICTIONARY
360
2D3F
102
}
100
AcDbSymbolTableRecord
100
AcDbLayerTableRecord
  2
DEFPOINTS
 70
     0
 62
     7
  6
CONTINUOUS
  0
LAYER
  5
727
100
AcDbSymbolTableRecord
100
AcDbLayerTableRecord
  2
COTATION1
 70
     0
 62
     2
  6
CONTINUOUS
  0
LAYER
  5
728
100
AcDbSymbolTableRecord
100
AcDbLayerTableRecord
  2
AXE
 70
     0
 62
    80
  6
AXES2
  0
LAYER
  5
729
100
AcDbSymbolTableRecord
100
AcDbLayerTableRecord
  2
ALPHA
 70
     0
 62
   254
  6
CONTINUOUS
  0
LAYER
  5
72A
100
AcDbSymbolTableRecord
100
AcDbLayerTableRecord
  2
POINTILLE_COURT
 70
     0
 62
    41
  6
CACHE2
  0
ENDTAB
  0
TABLE
  2
STYLE
  5
3
100
AcDbSymbolTable
 70
     2
  0
STYLE
  5
17
102
{ACAD_XDICTIONARY
360
2D47
102
}
100
AcDbSymbolTableRecord
100
AcDbTextStyleTableRecord
  2
STANDARD
 70
     0
 40
0.0
 41
1.0
 50
0.0
 71
     0
 42
0.0
  3
txt
  4

  0
STYLE
  5
72B
100
AcDbSymbolTableRecord
100
AcDbTextStyleTableRecord
  2
ROMANS
 70
     0
 40
0.0
 41
1.0
 50
0.0
 71
     0
 42
6.0
  3
romans
  4

  0
ENDTAB
  0
TABLE
  2
VIEW
  5
5
100
AcDbSymbolTable
 70
     0
  0
ENDTAB
  0
TABLE
  2
UCS
  5
6
100
AcDbSymbolTable
 70
     0
  0
ENDTAB
  0
TABLE
  2
APPID
  5
8
100
AcDbSymbolTable
 70
     1
  0
APPID
  5
16
100
AcDbSymbolTableRecord
100
AcDbRegAppTableRecord
  2
ACAD
 70
     0
  0
ENDTAB
  0
TABLE
  2
DIMSTYLE
  5
9
100
AcDbSymbolTable
 70
     2
  0
DIMSTYLE
105
18
102
{ACAD_XDICTIONARY
360
2D3D
102
}
100
AcDbSymbolTableRecord
100
AcDbDimStyleTableRecord
  2
STANDARD
 70
     0
  3

  4

  5

  6

  7

 40
1.0
 41
0.18
 42
0.0625
 43
0.38
 44
0.18
 45
0.0
 46
0.0
 47
0.0
 48
0.0
140
0.18
141
0.09
142
0.0
143
25.4
144
1.0
145
0.0
146
1.0
147
0.09
 71
     0
 72
     0
 73
     1
 74
     1
 75
     0
 76
     0
 77
     0
 78
     0
170
     0
171
     2
172
     0
173
     0
174
     0
175
     0
176
     0
177
     0
178
     0
270
     2
271
     4
272
     4
273
     2
274
     2
340
17
275
     0
280
     0
281
     0
282
     0
283
     1
284
     0
285
     0
286
     0
287
     3
288
     0
  0
DIMSTYLE
105
72C
102
{ACAD_XDICTIONARY
360
2D77
102
}
102
{ACAD_REACTORS
330
25C9
330
2661
330
2679
330
267B
330
2A3D
102
}
100
AcDbSymbolTableRecord
100
AcDbDimStyleTableRecord
  2
SC_DEFAUT
 70
     0
  3

  4

  5
OPEN30
  6

  7

 40
1.0
 41
5.0
 42
2.0
 43
0.38
 44
2.5
 45
0.0
 46
0.0
 47
0.0
 48
0.0
140
2.5
141
0.0
142
0.0
143
25.4
144
1.0
145
0.0
146
1.0
147
2.0
 71
     0
 72
     0
 73
     1
 74
     1
 75
     0
 76
     0
 77
     1
 78
    12
170
     0
171
     2
172
     0
173
     0
174
     0
175
     0
176
     0
177
     0
178
     0
270
     2
271
     1
272
     1
273
     2
274
     2
340
72B
275
     0
280
     0
281
     0
282
     0
283
     1
284
    12
285
    12
286
    12
287
     5
288
     0
  0
ENDTAB
  0
TABLE
  2
BLOCK_RECORD
  5
1
100
AcDbSymbolTable
 70
     6
  0
BLOCK_RECORD
  5
A
102
{ACAD_XDICTIONARY
360
7D7
102
}
100
AcDbSymbolTableRecord
100
AcDbBlockTableRecord
  2
*MODEL_SPACE
  0
BLOCK_RECORD
  5
B
102
{ACAD_XDICTIONARY
360
2D6D
102
}
100
AcDbSymbolTableRecord
100
AcDbBlockTableRecord
  2
*PAPER_SPACE
  0
BLOCK_RECORD
  5
6FA
100
AcDbSymbolTableRecord
100
AcDbBlockTableRecord
  2
_OPEN30
  0
BLOCK_RECORD
  5
25D9
100
AcDbSymbolTableRecord
100
AcDbBlockTableRecord
  2
*D1
  0
BLOCK_RECORD
  5
2662
100
AcDbSymbolTableRecord
100
AcDbBlockTableRecord
  2
*D2
  0
BLOCK_RECORD
  5
267C
100
AcDbSymbolTableRecord
100
AcDbBlockTableRecord
  2
*D3
  0
BLOCK_RECORD
  5
2695
100
AcDbSymbolTableRecord
100
AcDbBlockTableRecord
  2
*D4
  0
BLOCK_RECORD
  5
2A3E
100
AcDbSymbolTableRecord
100
AcDbBlockTableRecord
  2
*D5
  0
ENDTAB
  0
ENDSEC
  0
SECTION
  2
BLOCKS
  0
BLOCK
  5
D
100
AcDbEntity
  8
0
100
AcDbBlockBegin
  2
*MODEL_SPACE
 70
     0
 10
0.0
 20
0.0
 30
0.0
  3
*MODEL_SPACE
  1

  0
ENDBLK
  5
E
100
AcDbEntity
  8
0
100
AcDbBlockEnd
  0
BLOCK
  5
F
100
AcDbEntity
 67
     1
  8
0
100
AcDbBlockBegin
  2
*PAPER_SPACE
 70
     0
 10
0.0
 20
0.0
 30
0.0
  3
*PAPER_SPACE
  1

  0
ENDBLK
  5
10
100
AcDbEntity
 67
     1
  8
0
100
AcDbBlockEnd
  0
BLOCK
  5
6FB
100
AcDbEntity
  8
0
100
AcDbBlockBegin
  2
_OPEN30
 70
     0
 10
0.0
 20
0.0
 30
0.0
  3
_OPEN30
  1

  0
LINE
  5
6FC
100
AcDbEntity
  8
COTATION1
 62
     0
100
AcDbLine
 10
-1.0
 20
0.267949
 30
0.0
 11
0.0
 21
0.0
 31
0.0
1001
ACAD
1000
RTLwPs
1070
   158
  0
LINE
  5
6FD
100
AcDbEntity
  8
COTATION1
 62
     0
100
AcDbLine
 10
0.0
 20
0.0
 30
0.0
 11
-1.0
 21
-0.267949
 31
0.0
1001
ACAD
1000
RTLwPs
1070
   158
  0
LINE
  5
6FE
100
AcDbEntity
  8
COTATION1
 62
     0
100
AcDbLine
 10
0.0
 20
0.0
 30
0.0
 11
-1.0
 21
0.0
 31
0.0
1001
ACAD
1000
RTLwPs
1070
   158
  0
ENDBLK
  5
6FF
100
AcDbEntity
  8
0
100
AcDbBlockEnd
  0
BLOCK
  5
25E4
100
AcDbEntity
  8
0
100
AcDbBlockBegin
  2
*D1
 70
     1
 10
0.0
 20
0.0
 30
0.0
  3
*D1
  1

1001
ACAD
1000
RTLwPs
1070
   128
  0
LINE
  5
2D26
100
AcDbEntity
  8
COTATION1
 62
     0
100
AcDbLine
 10
162.454995
 20
131.725784
 30
0.0
 11
189.185918
 21
131.725784
 31
0.0
1001
ACAD
1000
RTLwPs
1070
   158
  0
LINE
  5
2D27
100
AcDbEntity
  8
COTATION1
 62
     0
100
AcDbLine
 10
162.454995
 20
47.725784
 30
0.0
 11
189.185918
 21
47.725784
 31
0.0
1001
ACAD
1000
RTLwPs
1070
   158
  0
LINE
  5
2D28
100
AcDbEntity
  8
COTATION1
 62
     0
100
AcDbLine
 10
186.685918
 20
126.725784
 30
0.0
 11
186.685918
 21
92.975784
 31
0.0
1001
ACAD
1000
RTLwPs
1070
   158
  0
LINE
  5
2D29
100
AcDbEntity
  8
COTATION1
 62
     0
100
AcDbLine
 10
186.685918
 20
52.725784
 30
0.0
 11
186.685918
 21
86.475784
 31
0.0
1001
ACAD
1000
RTLwPs
1070
   158
  0
INSERT
  5
2D2A
100
AcDbEntity
  8
COTATION1
 62
     0
100
AcDbBlockReference
  2
_OPEN30
 10
186.685918
 20
131.725784
 30
0.0
 41
5.0
 42
5.0
 43
5.0
 50
90.0
1001
ACAD
1000
RTLwPs
1070
   158
  0
INSERT
  5
2D2B
100
AcDbEntity
  8
COTATION1
 62
     0
100
AcDbBlockReference
  2
_OPEN30
 10
186.685918
 20
47.725784
 30
0.0
 41
5.0
 42
5.0
 43
5.0
 50
270.0
1001
ACAD
1000
RTLwPs
1070
   158
  0
MTEXT
  5
2D2C
100
AcDbEntity
  8
COTATION1
 62
     0
100
AcDbMText
 10
186.685918
 20
89.725784
 30
0.0
 40
2.5
 41
0.0
 71
     5
 72
     1
  1
\A1;84
  7
ROMANS
1001
ACAD
1000
MTEXTBEGIN
1070
    73
1070
     1
1070
    44
1040
1.0
1070
    74
1070
     0
1000
MTEXTEND
  0
POINT
  5
2D2D
100
AcDbEntity
  8
DEFPOINTS
 62
     0
100
AcDbPoint
 10
160.454995
 20
131.725784
 30
0.0
1001
ACAD
1000
RTLwPs
1070
   128
  0
POINT
  5
2D2E
100
AcDbEntity
  8
DEFPOINTS
 62
     0
100
AcDbPoint
 10
160.454995
 20
47.725784
 30
0.0
1001
ACAD
1000
RTLwPs
1070
   128
  0
POINT
  5
2D2F
100
AcDbEntity
  8
DEFPOINTS
 62
     0
100
AcDbPoint
 10
186.685918
 20
47.725784
 30
0.0
1001
ACAD
1000
RTLwPs
1070
   128
  0
ENDBLK
  5
25E5
100
AcDbEntity
  8
0
100
AcDbBlockEnd
1001
ACAD
1000
RTLwPs
1070
   128
  0
BLOCK
  5
266D
100
AcDbEntity
  8
0
100
AcDbBlockBegin
  2
*D2
 70
     1
 10
0.0
 20
0.0
 30
0.0
  3
*D2
  1

1001
ACAD
1000
RTLwPs
1070
   128
  0
LINE
  5
28E8
100
AcDbEntity
  8
COTATION1
 62
     0
100
AcDbLine
 10
39.454995
 20
28.725784
 30
0.0
 11
39.454995
 21
19.831278
 31
0.0
1001
ACAD
1000
RTLwPs
1070
   158
  0
LINE
  5
28E9
100
AcDbEntity
  8
COTATION1
 62
     0
100
AcDbLine
 10
44.954995
 20
28.725784
 30
0.0
 11
44.954995
 21
19.831278
 31
0.0
1001
ACAD
1000
RTLwPs
1070
   158
  0
LINE
  5
28EA
100
AcDbEntity
  8
COTATION1
 62
     0
100
AcDbLine
 10
34.454995
 20
22.331278
 30
0.0
 11
29.454995
 21
22.331278
 31
0.0
1001
ACAD
1000
RTLwPs
1070
   158
  0
LINE
  5
28EB
100
AcDbEntity
  8
COTATION1
 62
     0
100
AcDbLine
 10
49.954995
 20
22.331278
 30
0.0
 11
54.954995
 21
22.331278
 31
0.0
1001
ACAD
1000
RTLwPs
1070
   158
  0
MTEXT
  5
28EC
100
AcDbEntity
  8
COTATION1
 62
     0
100
AcDbMText
 10
59.34165
 20
26.25309
 30
0.0
 40
2.5
 41
0.0
 71
     5
 72
     1
  1
\A1;0.5...5.5
  7
ROMANS
1001
ACAD
1000
MTEXTBEGIN
1070
    73
1070
     1
1070
    44
1040
1.0
1070
    74
1070
     0
1000
MTEXTEND
  0
INSERT
  5
28ED
100
AcDbEntity
  8
COTATION1
 62
     0
100
AcDbBlockReference
  2
_OPEN30
 10
39.454995
 20
22.331278
 30
0.0
 41
5.0
 42
5.0
 43
5.0
1001
ACAD
1000
RTLwPs
1070
   158
  0
INSERT
  5
28EE
100
AcDbEntity
  8
COTATION1
 62
     0
100
AcDbBlockReference
  2
_OPEN30
 10
44.954995
 20
22.331278
 30
0.0
 41
5.0
 42
5.0
 43
5.0
 50
180.0
1001
ACAD
1000
RTLwPs
1070
   158
  0
POINT
  5
28EF
100
AcDbEntity
  8
DEFPOINTS
 62
     0
100
AcDbPoint
 10
39.454995
 20
30.725784
 30
0.0
1001
ACAD
1000
RTLwPs
1070
   128
  0
POINT
  5
28F0
100
AcDbEntity
  8
DEFPOINTS
 62
     0
100
AcDbPoint
 10
44.954995
 20
30.725784
 30
0.0
1001
ACAD
1000
RTLwPs
1070
   128
  0
POINT
  5
28F1
100
AcDbEntity
  8
DEFPOINTS
 62
     0
100
AcDbPoint
 10
44.954995
 20
22.331278
 30
0.0
1001
ACAD
1000
RTLwPs
1070
   128
  0
ENDBLK
  5
266E
100
AcDbEntity
  8
0
100
AcDbBlockEnd
1001
ACAD
1000
RTLwPs
1070
   128
  0
BLOCK
  5
2686
100
AcDbEntity
  8
0
100
AcDbBlockBegin
  2
*D3
 70
     1
 10
0.0
 20
0.0
 30
0.0
  3
*D3
  1

1001
ACAD
1000
RTLwPs
1070
   128
  0
LINE
  5
28F2
100
AcDbEntity
  8
COTATION1
 62
     0
100
AcDbLine
 10
38.454995
 20
135.725784
 30
0.0
 11
38.454995
 21
157.725784
 31
0.0
1001
ACAD
1000
RTLwPs
1070
   158
  0
LINE
  5
28F3
100
AcDbEntity
  8
COTATION1
 62
     0
100
AcDbLine
 10
4.454995
 20
105.639602
 30
0.0
 11
4.454995
 21
157.725784
 31
0.0
1001
ACAD
1000
RTLwPs
1070
   158
  0
LINE
  5
28F4
100
AcDbEntity
  8
COTATION1
 62
     0
100
AcDbLine
 10
33.454995
 20
155.225784
 30
0.0
 11
9.454995
 21
155.225784
 31
0.0
1001
ACAD
1000
RTLwPs
1070
   158
  0
INSERT
  5
28F5
100
AcDbEntity
  8
COTATION1
 62
     0
100
AcDbBlockReference
  2
_OPEN30
 10
38.454995
 20
155.225784
 30
0.0
 41
5.0
 42
5.0
 43
5.0
1001
ACAD
1000
RTLwPs
1070
   158
  0
INSERT
  5
28F6
100
AcDbEntity
  8
COTATION1
 62
     0
100
AcDbBlockReference
  2
_OPEN30
 10
4.454995
 20
155.225784
 30
0.0
 41
5.0
 42
5.0
 43
5.0
 50
180.0
1001
ACAD
1000
RTLwPs
1070
   158
  0
MTEXT
  5
28F7
100
AcDbEntity
  8
COTATION1
 62
     0
100
AcDbMText
 10
21.454995
 20
158.475784
 30
0.0
 40
2.5
 41
0.0
 71
     5
 72
     1
  1
\A1;34
  7
ROMANS
1001
ACAD
1000
MTEXTBEGIN
1070
    73
1070
     1
1070
    44
1040
1.0
1070
    74
1070
     0
1000
MTEXTEND
  0
POINT
  5
28F8
100
AcDbEntity
  8
DEFPOINTS
 62
     0
100
AcDbPoint
 10
38.454995
 20
133.725784
 30
0.0
1001
ACAD
1000
RTLwPs
1070
   128
  0
POINT
  5
28F9
100
AcDbEntity
  8
DEFPOINTS
 62
     0
100
AcDbPoint
 10
4.454995
 20
103.639602
 30
0.0
1001
ACAD
1000
RTLwPs
1070
   128
  0
POINT
  5
28FA
100
AcDbEntity
  8
DEFPOINTS
 62
     0
100
AcDbPoint
 10
4.454995
 20
155.225784
 30
0.0
1001
ACAD
1000
RTLwPs
1070
   128
  0
ENDBLK
  5
2687
100
AcDbEntity
  8
0
100
AcDbBlockEnd
1001
ACAD
1000
RTLwPs
1070
   128
  0
BLOCK
  5
269F
100
AcDbEntity
  8
0
100
AcDbBlockBegin
  2
*D4
 70
     1
 10
0.0
 20
0.0
 30
0.0
  3
*D4
  1

1001
ACAD
1000
RTLwPs
1070
   128
  0
LINE
  5
2D1D
100
AcDbEntity
  8
COTATION1
 62
     0
100
AcDbLine
 10
45.954995
 20
135.725784
 30
0.0
 11
45.954995
 21
157.725784
 31
0.0
1001
ACAD
1000
RTLwPs
1070
   158
  0
LINE
  5
2D1E
100
AcDbEntity
  8
COTATION1
 62
     0
100
AcDbLine
 10
160.454995
 20
133.725784
 30
0.0
 11
160.454995
 21
157.725784
 31
0.0
1001
ACAD
1000
RTLwPs
1070
   158
  0
LINE
  5
2D1F
100
AcDbEntity
  8
COTATION1
 62
     0
100
AcDbLine
 10
50.954995
 20
155.225784
 30
0.0
 11
155.454995
 21
155.225784
 31
0.0
1001
ACAD
1000
RTLwPs
1070
   158
  0
INSERT
  5
2D20
100
AcDbEntity
  8
COTATION1
 62
     0
100
AcDbBlockReference
  2
_OPEN30
 10
45.954995
 20
155.225784
 30
0.0
 41
5.0
 42
5.0
 43
5.0
 50
180.0
1001
ACAD
1000
RTLwPs
1070
   158
  0
INSERT
  5
2D21
100
AcDbEntity
  8
COTATION1
 62
     0
100
AcDbBlockReference
  2
_OPEN30
 10
160.454995
 20
155.225784
 30
0.0
 41
5.0
 42
5.0
 43
5.0
1001
ACAD
1000
RTLwPs
1070
   158
  0
MTEXT
  5
2D22
100
AcDbEntity
  8
COTATION1
 62
     0
100
AcDbMText
 10
103.204995
 20
158.475784
 30
0.0
 40
2.5
 41
0.0
 71
     5
 72
     1
  1
\A1;114.5
  7
ROMANS
1001
ACAD
1000
MTEXTBEGIN
1070
    73
1070
     1
1070
    44
1040
1.0
1070
    74
1070
     0
1000
MTEXTEND
  0
POINT
  5
2D23
100
AcDbEntity
  8
DEFPOINTS
 62
     0
100
AcDbPoint
 10
45.954995
 20
133.725784
 30
0.0
1001
ACAD
1000
RTLwPs
1070
   128
  0
POINT
  5
2D24
100
AcDbEntity
  8
DEFPOINTS
 62
     0
100
AcDbPoint
 10
160.454995
 20
131.725784
 30
0.0
1001
ACAD
1000
RTLwPs
1070
   128
  0
POINT
  5
2D25
100
AcDbEntity
  8
DEFPOINTS
 62
     0
100
AcDbPoint
 10
160.454995
 20
155.225784
 30
0.0
1001
ACAD
1000
RTLwPs
1070
   128
  0
ENDBLK
  5
26A0
100
AcDbEntity
  8
0
100
AcDbBlockEnd
1001
ACAD
1000
RTLwPs
1070
   128
  0
BLOCK
  5
2A49
100
AcDbEntity
  8
0
100
AcDbBlockBegin
  2
*D5
 70
     1
 10
0.0
 20
0.0
 30
0.0
  3
*D5
  1

1001
ACAD
1000
RTLwPs
1070
   128
  0
LINE
  5
2A5F
100
AcDbEntity
  8
COTATION1
 62
     0
100
AcDbLine
 10
30.454995
 20
133.725784
 30
0.0
 11
-13.045005
 21
133.725784
 31
0.0
1001
ACAD
1000
RTLwPs
1070
   158
  0
LINE
  5
2A60
100
AcDbEntity
  8
COTATION1
 62
     0
100
AcDbLine
 10
30.454995
 20
45.725784
 30
0.0
 11
-13.045005
 21
45.725784
 31
0.0
1001
ACAD
1000
RTLwPs
1070
   158
  0
LINE
  5
2A61
100
AcDbEntity
  8
COTATION1
 62
     0
100
AcDbLine
 10
-10.545005
 20
128.725784
 30
0.0
 11
-10.545005
 21
92.975784
 31
0.0
1001
ACAD
1000
RTLwPs
1070
   158
  0
LINE
  5
2A62
100
AcDbEntity
  8
COTATION1
 62
     0
100
AcDbLine
 10
-10.545005
 20
50.725784
 30
0.0
 11
-10.545005
 21
86.475784
 31
0.0
1001
ACAD
1000
RTLwPs
1070
   158
  0
INSERT
  5
2A63
100
AcDbEntity
  8
COTATION1
 62
     0
100
AcDbBlockReference
  2
_OPEN30
 10
-10.545005
 20
133.725784
 30
0.0
 41
5.0
 42
5.0
 43
5.0
 50
90.0
1001
ACAD
1000
RTLwPs
1070
   158
  0
INSERT
  5
2A64
100
AcDbEntity
  8
COTATION1
 62
     0
100
AcDbBlockReference
  2
_OPEN30
 10
-10.545005
 20
45.725784
 30
0.0
 41
5.0
 42
5.0
 43
5.0
 50
270.0
1001
ACAD
1000
RTLwPs
1070
   158
  0
MTEXT
  5
2A65
100
AcDbEntity
  8
COTATION1
 62
     0
100
AcDbMText
 10
-10.545005
 20
89.725784
 30
0.0
 40
2.5
 41
0.0
 71
     5
 72
     1
  1
\A1;88
  7
ROMANS
1001
ACAD
1000
MTEXTBEGIN
1070
    73
1070
     1
1070
    44
1040
1.0
1070
    74
1070
     0
1000
MTEXTEND
  0
POINT
  5
2A66
100
AcDbEntity
  8
DEFPOINTS
 62
     0
100
AcDbPoint
 10
32.454995
 20
133.725784
 30
0.0
1001
ACAD
1000
RTLwPs
1070
   128
  0
POINT
  5
2A67
100
AcDbEntity
  8
DEFPOINTS
 62
     0
100
AcDbPoint
 10
32.454995
 20
45.725784
 30
0.0
1001
ACAD
1000
RTLwPs
1070
   128
  0
POINT
  5
2A68
100
AcDbEntity
  8
DEFPOINTS
 62
     0
100
AcDbPoint
 10
-10.545005
 20
45.725784
 30
0.0
1001
ACAD
1000
RTLwPs
1070
   128
  0
ENDBLK
  5
2A4A
100
AcDbEntity
  8
0
100
AcDbBlockEnd
1001
ACAD
1000
RTLwPs
1070
   128
  0
ENDSEC
  0
SECTION
  2
ENTITIES
  0
LINE
  5
259F
100
AcDbEntity
  8
ALPHA
  6
CONTINUOUS
100
AcDbLine
 10
38.454995
 20
133.725784
 30
0.0
 11
32.454995
 21
133.725784
 31
0.0
1001
ACAD
1000
RTLwPs
1070
   128
  0
LINE
  5
25A0
100
AcDbEntity
  8
ALPHA
  6
CONTINUOUS
100
AcDbLine
 10
38.454995
 20
45.725784
 30
0.0
 11
32.454995
 21
45.725784
 31
0.0
1001
ACAD
1000
RTLwPs
1070
   128
  0
LINE
  5
25A1
100
AcDbEntity
  8
ALPHA
  6
CONTINUOUS
100
AcDbLine
 10
32.454995
 20
133.725784
 30
0.0
 11
32.454995
 21
45.725784
 31
0.0
1001
ACAD
1000
RTLwPs
1070
   128
  0
LINE
  5
25A2
100
AcDbEntity
  8
ALPHA
  6
CONTINUOUS
100
AcDbLine
 10
24.454995
 20
114.725784
 30
0.0
 11
4.454995
 21
103.639602
 31
0.0
1001
ACAD
1000
RTLwPs
1070
   128
  0
LINE
  5
25A3
100
AcDbEntity
  8
ALPHA
  6
CONTINUOUS
100
AcDbLine
 10
25.954995
 20
114.725784
 30
0.0
 11
25.954995
 21
64.725784
 31
0.0
1001
ACAD
1000
RTLwPs
1070
   128
  0
LINE
  5
25A4
100
AcDbEntity
  8
ALPHA
  6
CONTINUOUS
100
AcDbLine
 10
38.454995
 20
133.725784
 30
0.0
 11
38.454995
 21
45.725784
 31
0.0
1001
ACAD
1000
RTLwPs
1070
   128
  0
LINE
  5
25A5
100
AcDbEntity
  8
ALPHA
  6
CONTINUOUS
100
AcDbLine
 10
45.954995
 20
133.725784
 30
0.0
 11
45.954995
 21
45.725784
 31
0.0
1001
ACAD
1000
RTLwPs
1070
   128
  0
LINE
  5
25A7
100
AcDbEntity
  8
ALPHA
  6
CONTINUOUS
100
AcDbLine
 10
160.454995
 20
131.725784
 30
0.0
 11
160.454995
 21
47.725784
 31
0.0
1001
ACAD
1000
RTLwPs
1070
   128
  0
LINE
  5
25A9
100
AcDbEntity
  8
ALPHA
  6
CONTINUOUS
100
AcDbLine
 10
49.454995
 20
133.725784
 30
0.0
 11
49.454995
 21
89.725784
 31
0.0
1001
ACAD
1000
RTLwPs
1070
   128
  0
LINE
  5
25AA
100
AcDbEntity
  8
ALPHA
  6
CONTINUOUS
100
AcDbLine
 10
51.954995
 20
122.225784
 30
0.0
 11
51.954995
 21
89.725784
 31
0.0
1001
ACAD
1000
RTLwPs
1070
   128
  0
LINE
  5
25AD
100
AcDbEntity
  8
ALPHA
  6
CONTINUOUS
100
AcDbLine
 10
4.454995
 20
103.639602
 30
0.0
 11
4.454995
 21
48.987833
 31
0.0
1001
ACAD
1000
RTLwPs
1070
   128
  0
LINE
  5
25AE
100
AcDbEntity
  8
ALPHA
  6
CONTINUOUS
100
AcDbLine
 10
22.954995
 20
64.725784
 30
0.0
 11
22.954995
 21
45.725784
 31
0.0
1001
ACAD
1000
RTLwPs
1070
   128
  0
LINE
  5
25B0
100
AcDbEntity
  8
ALPHA
  6
CONTINUOUS
100
AcDbLine
 10
61.954995
 20
122.225784
 30
0.0
 11
51.954995
 21
122.225784
 31
0.0
1001
ACAD
1000
RTLwPs
1070
   128
  0
LINE
  5
25B3
100
AcDbEntity
  8
ALPHA
  6
CONTINUOUS
100
AcDbLine
 10
45.954995
 20
84.725784
 30
0.0
 11
38.454995
 21
84.725784
 31
0.0
1001
ACAD
1000
RTLwPs
1070
   128
  0
LINE
  5
25B4
100
AcDbEntity
  8
ALPHA
  6
CONTINUOUS
100
AcDbLine
 10
22.954995
 20
45.725784
 30
0.0
 11
4.454995
 21
48.987833
 31
0.0
1001
ACAD
1000
RTLwPs
1070
   128
  0
LINE
  5
25B5
100
AcDbEntity
  8
ALPHA
  6
CONTINUOUS
100
AcDbLine
 10
32.454995
 20
114.725784
 30
0.0
 11
24.454995
 21
114.725784
 31
0.0
1001
ACAD
1000
RTLwPs
1070
   128
  0
LINE
  5
25B6
100
AcDbEntity
  8
ALPHA
  6
CONTINUOUS
100
AcDbLine
 10
32.454995
 20
64.725784
 30
0.0
 11
22.954995
 21
64.725784
 31
0.0
1001
ACAD
1000
RTLwPs
1070
   128
  0
LINE
  5
25B7
100
AcDbEntity
  8
AXE
100
AcDbLine
 10
42.204995
 20
5.725784
 30
0.0
 11
42.204995
 21
153.725784
 31
0.0
  0
TEXT
  5
25B8
100
AcDbEntity
  8
AXE
100
AcDbText
 10
34.728804
 20
5.725784
 30
0.0
 40
8.0
  1
Y
  7
ROMANS
 72
     2
 11
41.204995
 21
5.725784
 31
0.0
100
AcDbText
  0
LINE
  5
25B9
100
AcDbEntity
  8
ALPHA
  6
CONTINUOUS
100
AcDbLine
 10
45.954995
 20
94.725784
 30
0.0
 11
38.454995
 21
94.725784
 31
0.0
1001
ACAD
1000
RTLwPs
1070
   128
  0
LINE
  5
25BA
100
AcDbEntity
  8
ALPHA
  6
CONTINUOUS
100
AcDbLine
 10
49.454995
 20
133.725784
 30
0.0
 11
45.954995
 21
133.725784
 31
0.0
1001
ACAD
1000
RTLwPs
1070
   128
  0
LINE
  5
25BC
100
AcDbEntity
  8
ALPHA
  6
CONTINUOUS
100
AcDbLine
 10
51.954995
 20
122.225784
 30
0.0
 11
49.454995
 21
124.725784
 31
0.0
1001
ACAD
1000
RTLwPs
1070
   128
  0
LINE
  5
25BF
100
AcDbEntity
  8
ALPHA
  6
CONTINUOUS
100
AcDbLine
 10
49.454995
 20
45.725784
 30
0.0
 11
49.454995
 21
89.725784
 31
0.0
1001
ACAD
1000
RTLwPs
1070
   128
  0
LINE
  5
25C0
100
AcDbEntity
  8
ALPHA
  6
CONTINUOUS
100
AcDbLine
 10
51.954995
 20
57.225784
 30
0.0
 11
51.954995
 21
89.725784
 31
0.0
1001
ACAD
1000
RTLwPs
1070
   128
  0
LINE
  5
25C2
100
AcDbEntity
  8
ALPHA
  6
CONTINUOUS
100
AcDbLine
 10
61.954995
 20
57.225784
 30
0.0
 11
51.954995
 21
57.225784
 31
0.0
1001
ACAD
1000
RTLwPs
1070
   128
  0
LINE
  5
25C3
100
AcDbEntity
  8
ALPHA
  6
CONTINUOUS
100
AcDbLine
 10
49.454995
 20
45.725784
 30
0.0
 11
45.954995
 21
45.725784
 31
0.0
1001
ACAD
1000
RTLwPs
1070
   128
  0
LINE
  5
25C5
100
AcDbEntity
  8
ALPHA
  6
CONTINUOUS
100
AcDbLine
 10
51.954995
 20
57.225784
 30
0.0
 11
49.454995
 21
54.725784
 31
0.0
1001
ACAD
1000
RTLwPs
1070
   128
  0
DIMENSION
  5
25C9
100
AcDbEntity
  8
COTATION1
100
AcDbDimension
  2
*D1
 10
186.685918
 20
47.725784
 30
0.0
 11
186.685918
 21
89.725784
 31
0.0
 70
    32
  3
SC_DEFAUT
100
AcDbAlignedDimension
 13
160.454995
 23
131.725784
 33
0.0
 14
160.454995
 24
47.725784
 34
0.0
 50
90.0
100
AcDbRotatedDimension
  0
TEXT
  5
25CA
100
AcDbEntity
  8
AXE
100
AcDbText
 10
168.939123
 20
90.730053
 30
0.0
 40
8.0
  1
Z
  7
ROMANS
 72
     2
 11
175.415313
 21
90.730053
 31
0.0
100
AcDbText
  0
POLYLINE
  5
25CB
100
AcDbEntity
  8
POINTILLE_COURT
100
AcDb2dPolyline
 66
     1
 10
0.0
 20
0.0
 30
0.0
 70
   128
  0
VERTEX
  5
2D88
100
AcDbEntity
  8
POINTILLE_COURT
100
AcDbVertex
100
AcDb2dVertex
 10
44.954995
 20
148.725784
 30
0.0
  0
VERTEX
  5
2D89
100
AcDbEntity
  8
POINTILLE_COURT
100
AcDbVertex
100
AcDb2dVertex
 10
44.954995
 20
95.225784
 30
0.0
  0
VERTEX
  5
2D8A
100
AcDbEntity
  8
POINTILLE_COURT
100
AcDbVertex
100
AcDb2dVertex
 10
39.454995
 20
95.225784
 30
0.0
  0
VERTEX
  5
2D8B
100
AcDbEntity
  8
POINTILLE_COURT
100
AcDbVertex
100
AcDb2dVertex
 10
39.454995
 20
148.725784
 30
0.0
  0
SEQEND
  5
2D8C
100
AcDbEntity
  8
POINTILLE_COURT
  0
LINE
  5
25CD
100
AcDbEntity
  8
AXE
100
AcDbLine
 10
175.454995
 20
89.725784
 30
0.0
 11
-0.545005
 21
89.725784
 31
0.0
  0
POLYLINE
  5
260A
100
AcDbEntity
  8
POINTILLE_COURT
100
AcDb2dPolyline
 66
     1
 10
0.0
 20
0.0
 30
0.0
 70
   128
  0
VERTEX
  5
2D8D
100
AcDbEntity
  8
POINTILLE_COURT
100
AcDbVertex
100
AcDb2dVertex
 10
44.954995
 20
30.725784
 30
0.0
  0
VERTEX
  5
2D8E
100
AcDbEntity
  8
POINTILLE_COURT
100
AcDbVertex
100
AcDb2dVertex
 10
44.954995
 20
84.225784
 30
0.0
  0
VERTEX
  5
2D8F
100
AcDbEntity
  8
POINTILLE_COURT
100
AcDbVertex
100
AcDb2dVertex
 10
39.454995
 20
84.225784
 30
0.0
  0
VERTEX
  5
2D90
100
AcDbEntity
  8
POINTILLE_COURT
100
AcDbVertex
100
AcDb2dVertex
 10
39.454995
 20
30.725784
 30
0.0
  0
SEQEND
  5
2D91
100
AcDbEntity
  8
POINTILLE_COURT
  0
DIMENSION
  5
2661
100
AcDbEntity
  8
COTATION1
100
AcDbDimension
  2
*D2
 10
44.954995
 20
22.331278
 30
0.0
 11
59.34165
 21
26.25309
 31
0.0
 70
   160
  1
0.5...5.5
  3
SC_DEFAUT
100
AcDbAlignedDimension
 13
39.454995
 23
30.725784
 33
0.0
 14
44.954995
 24
30.725784
 34
0.0
100
AcDbRotatedDimension
  0
DIMENSION
  5
2679
100
AcDbEntity
  8
COTATION1
100
AcDbDimension
  2
*D3
 10
4.454995
 20
155.225784
 30
0.0
 11
21.454995
 21
158.475784
 31
0.0
 70
    32
  3
SC_DEFAUT
100
AcDbAlignedDimension
 13
38.454995
 23
133.725784
 33
0.0
 14
4.454995
 24
103.639602
 34
0.0
100
AcDbRotatedDimension
  0
DIMENSION
  5
267B
100
AcDbEntity
  8
COTATION1
100
AcDbDimension
  2
*D4
 10
160.454995
 20
155.225784
 30
0.0
 11
103.204995
 21
158.475784
 31
0.0
 70
    32
  1
<>
  3
SC_DEFAUT
100
AcDbAlignedDimension
 13
45.954995
 23
133.725784
 33
0.0
 14
160.454995
 24
131.725784
 34
0.0
100
AcDbRotatedDimension
  0
DIMENSION
  5
2A3D
100
AcDbEntity
  8
COTATION1
100
AcDbDimension
  2
*D5
 10
-10.545005
 20
45.725784
 30
0.0
 11
-10.545005
 21
89.725784
 31
0.0
 70
    32
  3
SC_DEFAUT
100
AcDbAlignedDimension
 13
32.454995
 23
133.725784
 33
0.0
 14
32.454995
 24
45.725784
 34
0.0
 50
90.0
100
AcDbRotatedDimension
  0
LINE
  5
2C49
100
AcDbEntity
  8
ALPHA
  6
CONTINUOUS
100
AcDbLine
 10
156.454995
 20
124.725784
 30
0.0
 11
156.454995
 21
95.725784
 31
0.0
1001
ACAD
1000
RTLwPs
1070
   128
  0
LINE
  5
2C4C
100
AcDbEntity
  8
ALPHA
  6
CONTINUOUS
100
AcDbLine
 10
61.954995
 20
131.725784
 30
0.0
 11
61.954995
 21
89.725784
 31
0.0
1001
ACAD
1000
RTLwPs
1070
   128
  0
LINE
  5
2C4D
100
AcDbEntity
  8
ALPHA
  6
CONTINUOUS
100
AcDbLine
 10
65.954995
 20
124.725784
 30
0.0
 11
65.954995
 21
95.725784
 31
0.0
1001
ACAD
1000
RTLwPs
1070
   128
  0
LINE
  5
2C50
100
AcDbEntity
  8
ALPHA
  6
CONTINUOUS
100
AcDbLine
 10
109.204995
 20
95.725784
 30
0.0
 11
65.954995
 21
95.725784
 31
0.0
1001
ACAD
1000
RTLwPs
1070
   128
  0
LINE
  5
2C52
100
AcDbEntity
  8
ALPHA
  6
CONTINUOUS
100
AcDbLine
 10
156.454995
 20
124.725784
 30
0.0
 11
113.204995
 21
124.725784
 31
0.0
1001
ACAD
1000
RTLwPs
1070
   128
  0
LINE
  5
2C53
100
AcDbEntity
  8
ALPHA
  6
CONTINUOUS
100
AcDbLine
 10
109.204995
 20
124.725784
 30
0.0
 11
65.954995
 21
124.725784
 31
0.0
1001
ACAD
1000
RTLwPs
1070
   128
  0
LINE
  5
2C62
100
AcDbEntity
  8
ALPHA
  6
CONTINUOUS
100
AcDbLine
 10
61.954995
 20
47.725784
 30
0.0
 11
61.954995
 21
89.725784
 31
0.0
1001
ACAD
1000
RTLwPs
1070
   128
  0
LINE
  5
2C67
100
AcDbEntity
  8
ALPHA
  6
CONTINUOUS
100
AcDbLine
 10
113.204995
 20
124.725784
 30
0.0
 11
113.204995
 21
95.725784
 31
0.0
1001
ACAD
1000
RTLwPs
1070
   128
  0
LINE
  5
2C68
100
AcDbEntity
  8
ALPHA
  6
CONTINUOUS
100
AcDbLine
 10
109.204995
 20
124.725784
 30
0.0
 11
109.204995
 21
95.725784
 31
0.0
1001
ACAD
1000
RTLwPs
1070
   128
  0
LINE
  5
2C69
100
AcDbEntity
  8
ALPHA
  6
CONTINUOUS
100
AcDbLine
 10
156.454995
 20
95.725784
 30
0.0
 11
113.204995
 21
95.725784
 31
0.0
1001
ACAD
1000
RTLwPs
1070
   128
  0
LINE
  5
2C6F
100
AcDbEntity
  8
ALPHA
  6
CONTINUOUS
100
AcDbLine
 10
160.454995
 20
131.725784
 30
0.0
 11
61.954995
 21
131.725784
 31
0.0
1001
ACAD
1000
RTLwPs
1070
   128
  0
LINE
  5
2C70
100
AcDbEntity
  8
ALPHA
  6
CONTINUOUS
100
AcDbLine
 10
160.454995
 20
47.725784
 30
0.0
 11
61.954995
 21
47.725784
 31
0.0
1001
ACAD
1000
RTLwPs
1070
   128
  0
LINE
  5
2C72
100
AcDbEntity
  8
ALPHA
  6
CONTINUOUS
100
AcDbLine
 10
156.454995
 20
54.725784
 30
0.0
 11
156.454995
 21
83.725784
 31
0.0
1001
ACAD
1000
RTLwPs
1070
   128
  0
LINE
  5
2C73
100
AcDbEntity
  8
ALPHA
  6
CONTINUOUS
100
AcDbLine
 10
65.954995
 20
54.725784
 30
0.0
 11
65.954995
 21
83.725784
 31
0.0
1001
ACAD
1000
RTLwPs
1070
   128
  0
LINE
  5
2C74
100
AcDbEntity
  8
ALPHA
  6
CONTINUOUS
100
AcDbLine
 10
109.204995
 20
83.725784
 30
0.0
 11
65.954995
 21
83.725784
 31
0.0
1001
ACAD
1000
RTLwPs
1070
   128
  0
LINE
  5
2C75
100
AcDbEntity
  8
ALPHA
  6
CONTINUOUS
100
AcDbLine
 10
156.454995
 20
54.725784
 30
0.0
 11
113.204995
 21
54.725784
 31
0.0
1001
ACAD
1000
RTLwPs
1070
   128
  0
LINE
  5
2C76
100
AcDbEntity
  8
ALPHA
  6
CONTINUOUS
100
AcDbLine
 10
109.204995
 20
54.725784
 30
0.0
 11
65.954995
 21
54.725784
 31
0.0
1001
ACAD
1000
RTLwPs
1070
   128
  0
LINE
  5
2C77
100
AcDbEntity
  8
ALPHA
  6
CONTINUOUS
100
AcDbLine
 10
113.204995
 20
54.725784
 30
0.0
 11
113.204995
 21
83.725784
 31
0.0
1001
ACAD
1000
RTLwPs
1070
   128
  0
LINE
  5
2C78
100
AcDbEntity
  8
ALPHA
  6
CONTINUOUS
100
AcDbLine
 10
109.204995
 20
54.725784
 30
0.0
 11
109.204995
 21
83.725784
 31
0.0
1001
ACAD
1000
RTLwPs
1070
   128
  0
LINE
  5
2C79
100
AcDbEntity
  8
ALPHA
  6
CONTINUOUS
100
AcDbLine
 10
156.454995
 20
83.725784
 30
0.0
 11
113.204995
 21
83.725784
 31
0.0
1001
ACAD
1000
RTLwPs
1070
   128
  0
ENDSEC
  0
SECTION
  2
OBJECTS
  0
DICTIONARY
  5
19
102
{ACAD_XDICTIONARY
360
2D6F
102
}
100
AcDbDictionary
  3
ACAD_COLOR
350
6DB
  3
ACAD_GROUP
350
1A
  3
ACAD_LAYOUT
350
1E
  3
ACAD_MATERIAL
350
6DA
  3
ACAD_MLINESTYLE
350
1B
  3
ACAD_PLOTSETTINGS
350
22
  3
ACAD_PLOTSTYLENAME
350
1F
  3
ACAD_TABLESTYLE
350
6DC
  3
ACAD_WIPEOUT_VARS
350
23
  3
ACDBHEADERROUNDTRIPXREC
350
2D4B
  3
ACDBVARIABLEDICTIONARY
350
7DA
  0
DICTIONARY
  5
2D41
100
AcDbDictionary
  3
ACAD_XREC_ROUNDTRIP
360
2D42
  0
DICTIONARY
  5
2D43
100
AcDbDictionary
  3
ACAD_XREC_ROUNDTRIP
360
2D44
  0
DICTIONARY
  5
2D45
100
AcDbDictionary
  3
ACAD_XREC_ROUNDTRIP
360
2D46
  0
DICTIONARY
  5
2D3F
100
AcDbDictionary
  3
ACAD_XREC_ROUNDTRIP
360
2D40
  0
DICTIONARY
  5
2D47
100
AcDbDictionary
  3
ACAD_XREC_ROUNDTRIP
360
2D48
  0
DICTIONARY
  5
2D3D
100
AcDbDictionary
  3
ACAD_XREC_ROUNDTRIP
360
2D3E
  0
DICTIONARY
  5
2D77
100
AcDbDictionary
  3
ACAD_XREC_ROUNDTRIP
360
2D78
  0
DICTIONARY
  5
7D7
100
AcDbDictionary
  3
ACAD_LAYOUTSELFREF
360
2D6C
  3
ACAD_SORTENTS
360
7D8
  0
DICTIONARY
  5
2D6D
100
AcDbDictionary
  3
ACAD_LAYOUTSELFREF
360
2D6E
  0
DICTIONARY
  5
2D6F
100
AcDbDictionary
  3
ACAD_XREC_ROUNDTRIP
360
2D70
  0
DICTIONARY
  5
6DB
102
{ACAD_REACTORS
330
19
102
}
100
AcDbDictionary
  0
DICTIONARY
  5
1A
102
{ACAD_REACTORS
330
19
102
}
100
AcDbDictionary
  0
DICTIONARY
  5
1E
102
{ACAD_XDICTIONARY
360
2D73
102
}
102
{ACAD_REACTORS
330
19
102
}
100
AcDbDictionary
  3
LAYOUT1
350
21
  3
MODEL
350
20
  0
DICTIONARY
  5
6DA
102
{ACAD_REACTORS
330
19
102
}
100
AcDbDictionary
  0
DICTIONARY
  5
1B
102
{ACAD_XDICTIONARY
360
2D71
102
}
102
{ACAD_REACTORS
330
19
102
}
100
AcDbDictionary
  3
STANDARD
350
1C
  0
DICTIONARY
  5
22
102
{ACAD_REACTORS
330
19
102
}
100
AcDbDictionary
  0
ACAD_ZOMBIE_OBJECT
  5
1F
102
{ACAD_REACTORS
330
19
102
}
100
AcDbZombieObject
 90
      499
 91
      517
 93
       86
310
405010041939BDC9B585B0
350
1D
340
1D
 94
        0
  0
DICTIONARY
  5
6DC
102
{ACAD_XDICTIONARY
360
2D75
102
}
102
{ACAD_REACTORS
330
19
102
}
100
AcDbDictionary
  3
STANDARD
350
6DD
  0
ACAD_ZOMBIE_OBJECT
  5
23
102
{ACAD_REACTORS
330
19
102
}
100
AcDbZombieObject
 90
      499
 91
      525
 93
       10
310
405E
 94
        0
1001
ACAD
1000
AcadProxyRoundTripData
1071
      521
1071
   851991
1070
     0
  0
DICTIONARY
  5
2D4B
102
{ACAD_REACTORS
330
19
102
}
100
AcDbDictionary
  3
CEPSNTYPE
350
2D55
  3
DIMSTYLEDATA
350
2D59
  3
FINGERPRINTGUID
350
2D56
  3
HYPERLINKBASE
350
2D4E
  3
INSUNITS
350
2D54
  3
LAYOUTDICT
350
2D50
  3
LWETCUNION
350
2D53
  3
PLOTSETDICT
350
2D51
  3
PLOTSTYLNAMDICT
350
2D52
  3
PSVPSCALE
350
2D58
  3
PUCSBASE
350
2D5C
  3
PUCSORGBACK
350
2D62
  3
PUCSORGBOTTOM
350
2D5E
  3
PUCSORGFRONT
350
2D61
  3
PUCSORGLEFT
350
2D5F
  3
PUCSORGRIGHT
350
2D60
  3
PUCSORGTOP
350
2D5D
  3
PUCSORTHOREF
350
2D5A
  3
PUCSORTHOVIEW
350
2D5B
  3
STYLESHEET
350
2D4F
  3
TSTACKALIGN
350
2D4C
  3
TSTACKSIZE
350
2D4D
  3
UCSBASE
350
2D65
  3
UCSORGBACK
350
2D6B
  3
UCSORGBOTTOM
350
2D67
  3
UCSORGFRONT
350
2D6A
  3
UCSORGLEFT
350
2D68
  3
UCSORGRIGHT
350
2D69
  3
UCSORGTOP
350
2D66
  3
UCSORTHOREF
350
2D63
  3
UCSORTHOVIEW
350
2D64
  3
VERSIONGUID
350
2D57
  0
DICTIONARY
  5
7DA
102
{ACAD_REACTORS
330
19
102
}
100
AcDbDictionary
  3
CTABLESTYLE
350
7DB
  3
DIMASSOC
350
1A71
  3
PROJECTNAME
350
1A72
  0
XRECORD
  5
2D42
102
{ACAD_REACTORS
330
2D41
102
}
100
AcDbXrecord
102
EXTNAMES
  1
BYBLOCK
  2
ByBlock
  0
XRECORD
  5
2D44
102
{ACAD_REACTORS
330
2D43
102
}
100
AcDbXrecord
102
EXTNAMES
  1
BYLAYER
  2
ByLayer
  0
XRECORD
  5
2D46
102
{ACAD_REACTORS
330
2D45
102
}
100
AcDbXrecord
102
EXTNAMES
  1
CONTINUOUS
  2
Continuous
  0
XRECORD
  5
2D40
102
{ACAD_REACTORS
330
2D3F
102
}
100
AcDbXrecord
102
EXTNAMES
  1
DEFPOINTS
  2
Defpoints
102
PLOTBIT
280
     0
  0
XRECORD
  5
2D48
102
{ACAD_REACTORS
330
2D47
102
}
100
AcDbXrecord
102
EXTNAMES
  1
STANDARD
  2
Standard
  0
XRECORD
  5
2D3E
102
{ACAD_REACTORS
330
2D3D
102
}
100
AcDbXrecord
102
EXTNAMES
  1
STANDARD
  2
Standard
  0
XRECORD
  5
2D78
102
{ACAD_REACTORS
330
2D77
102
}
100
AcDbXrecord
102
ACADR14ROUNDTRIP
1000
DSTYLE
1002
{
1070
   279
 70
     2
1070
   341
340
6FA
1070
   342
340
6FA
1002
}
  0
XRECORD
  5
2D6C
102
{ACAD_REACTORS
330
7D7
102
}
100
AcDbXrecord
340
A
  0
SORTENTSTABLE
  5
7D8
102
{ACAD_REACTORS
330
7D7
102
}
100
AcDbSortentsTable
330
A
331
2679
  5
2720
331
25B4
  5
25BC
331
25A7
  5
25AE
331
25C9
  5
25D7
331
25B0
  5
25B8
331
25A3
  5
25A8
331
25C2
  5
25CB
331
25B9
  5
25C1
331
25B5
  5
25BD
331
25CA
  5
25D8
331
259F
  5
25A4
331
25A4
  5
25AA
331
25C3
  5
25CD
331
25BA
  5
25C2
331
25B6
  5
25BE
331
25AD
  5
25B5
331
25CB
  5
2607
331
2661
  5
267B
331
25A0
  5
25A5
331
267B
  5
2A3D
331
25BF
  5
25C8
331
25A5
  5
25AB
331
25A9
  5
25B1
331
260A
  5
265B
331
2A3D
  5
2A6A
331
25B7
  5
25BF
331
25AE
  5
25B6
331
25A1
  5
25A6
331
25C0
  5
25C9
331
25C5
  5
25CE
331
25BC
  5
25C4
331
25B3
  5
25BB
331
25AA
  5
25B2
331
25CD
  5
2658
331
25A2
  5
25A7
331
25B8
  5
25C0
  0
XRECORD
  5
2D6E
102
{ACAD_REACTORS
330
2D6D
102
}
100
AcDbXrecord
340
B
  0
XRECORD
  5
2D70
102
{ACAD_REACTORS
330
2D6F
102
}
100
AcDbXrecord
102
EXTNAMES
  1
ACDBVARIABLEDICTIONARY
  2
AcDbVariableDictionary
  0
DICTIONARY
  5
2D73
100
AcDbDictionary
  3
ACAD_XREC_ROUNDTRIP
360
2D74
  0
ACAD_ZOMBIE_OBJECT
  5
21
102
{ACAD_XDICTIONARY
360
2D36
102
}
102
{ACAD_REACTORS
330
1E
102
}
100
AcDbZombieObject
 90
      499
 91
      515
 93
      812
310
AAAAAAAAAA5A69074C61796F757431406A800000000000000000000000000000000000000000000A1000000000000008902A6A6A10232D5E076BC5510408CB5781DAF154410232D5E076BC5510408CB5781DAF15C410232D5E076BC5710408CB5781DAF15C40
330
B
330
0
340
0
340
0
 94
        0
  0
ACAD_ZOMBIE_OBJECT
  5
20
102
{ACAD_XDICTIONARY
360
2D34
102
}
102
{ACAD_REACTORS
330
1E
102
}
100
AcDbZombieObject
 90
      499
 91
      515
 93
      420
310
A00012AAAAAAAA5A69054D6F64656CAA80000000000000000000000000000000000000000000000000000000000000002AAAAAAAA0
330
A
330
0
340
0
340
0
 94
        0
  0
DICTIONARY
  5
2D71
100
AcDbDictionary
  3
ACAD_XREC_ROUNDTRIP
360
2D72
  0
MLINESTYLE
  5
1C
102
{ACAD_REACTORS
330
1B
102
}
100
AcDbMlineStyle
  2
STANDARD
 70
     0
  3

 62
     0
 51
90.0
 52
90.0
 71
     2
 49
0.5
 62
   256
  6
BYLAYER
 49
-0.5
 62
   256
  6
BYLAYER
  0
ACAD_ZOMBIE_OBJECT
  5
1D
102
{ACAD_REACTORS
330
1F
102
}
100
AcDbZombieObject
 90
      499
 91
      518
 93
        0
 94
        0
  0
DICTIONARY
  5
2D75
100
AcDbDictionary
  3
ACAD_XREC_ROUNDTRIP
360
2D76
  0
ACAD_ZOMBIE_OBJECT
  5
6DD
102
{ACAD_REACTORS
330
6DC
102
}
100
AcDbZombieObject
 90
      499
 91
      525
 93
     1841
310
4214DD185B99185C9928000000000000F83F0000000000003E0FC00000000000004901028000000C1008070000C3001FDFF8000000C1003FBFF000000182007F7FE00000030400FEFFC00000060801FDFF8000000C1003FBFF000000182000000000000000C2020B0000001820100E000186003FBFF000000182007F7FE000
310
00030400FEFFC00000060801FDFF8000000C1003FBFF000000182007F7FE0000003040000000000000012404160000003040201C00030C007F7FE00000030400FEFFC00000060801FDFF8000000C1003FBFF000000182007F7FE00000030400FEFFC000000608001
340
17
340
17
340
17
 94
        0
1001
ACAD
1000
AcadProxyRoundTripData
1071
      524
1071
   851991
1070
     0
  0
XRECORD
  5
2D55
102
{ACAD_REACTORS
330
2D4B
102
}
100
AcDbXrecord
 90
        0
  0
XRECORD
  5
2D59
102
{ACAD_REACTORS
330
2D4B
102
}
100
AcDbXrecord
1000
DSTYLE
1002
{
1070
   278
 70
     0
1070
   371
 70
     0
1070
   372
 70
     0
1002
}
  0
XRECORD
  5
2D56
102
{ACAD_REACTORS
330
2D4B
102
}
100
AcDbXrecord
  1

  0
XRECORD
  5
2D4E
102
{ACAD_REACTORS
330
2D4B
102
}
100
AcDbXrecord
  1

  0
XRECORD
  5
2D54
102
{ACAD_REACTORS
330
2D4B
102
}
100
AcDbXrecord
 90
        0
  0
XRECORD
  5
2D50
102
{ACAD_REACTORS
330
2D4B
102
}
100
AcDbXrecord
340
1E
  0
XRECORD
  5
2D53
102
{ACAD_REACTORS
330
2D4B
102
}
100
AcDbXrecord
 90
    10752
  0
XRECORD
  5
2D51
102
{ACAD_REACTORS
330
2D4B
102
}
100
AcDbXrecord
340
22
  0
XRECORD
  5
2D52
102
{ACAD_REACTORS
330
2D4B
102
}
100
AcDbXrecord
340
1F
  0
XRECORD
  5
2D58
102
{ACAD_REACTORS
330
2D4B
102
}
100
AcDbXrecord
 40
0.0
  0
XRECORD
  5
2D5C
102
{ACAD_REACTORS
330
2D4B
102
}
100
AcDbXrecord
340
0
  0
XRECORD
  5
2D62
102
{ACAD_REACTORS
330
2D4B
102
}
100
AcDbXrecord
 10
0.0
 20
0.0
 30
0.0
  0
XRECORD
  5
2D5E
102
{ACAD_REACTORS
330
2D4B
102
}
100
AcDbXrecord
 10
0.0
 20
0.0
 30
0.0
  0
XRECORD
  5
2D61
102
{ACAD_REACTORS
330
2D4B
102
}
100
AcDbXrecord
 10
0.0
 20
0.0
 30
0.0
  0
XRECORD
  5
2D5F
102
{ACAD_REACTORS
330
2D4B
102
}
100
AcDbXrecord
 10
0.0
 20
0.0
 30
0.0
  0
XRECORD
  5
2D60
102
{ACAD_REACTORS
330
2D4B
102
}
100
AcDbXrecord
 10
0.0
 20
0.0
 30
0.0
  0
XRECORD
  5
2D5D
102
{ACAD_REACTORS
330
2D4B
102
}
100
AcDbXrecord
 10
0.0
 20
0.0
 30
0.0
  0
XRECORD
  5
2D5A
102
{ACAD_REACTORS
330
2D4B
102
}
100
AcDbXrecord
340
0
  0
XRECORD
  5
2D5B
102
{ACAD_REACTORS
330
2D4B
102
}
100
AcDbXrecord
 70
     0
  0
XRECORD
  5
2D4F
102
{ACAD_REACTORS
330
2D4B
102
}
100
AcDbXrecord
  1

  0
XRECORD
  5
2D4C
102
{ACAD_REACTORS
330
2D4B
102
}
100
AcDbXrecord
 90
        1
  0
XRECORD
  5
2D4D
102
{ACAD_REACTORS
330
2D4B
102
}
100
AcDbXrecord
 90
       70
  0
XRECORD
  5
2D65
102
{ACAD_REACTORS
330
2D4B
102
}
100
AcDbXrecord
340
0
  0
XRECORD
  5
2D6B
102
{ACAD_REACTORS
330
2D4B
102
}
100
AcDbXrecord
 10
0.0
 20
0.0
 30
0.0
  0
XRECORD
  5
2D67
102
{ACAD_REACTORS
330
2D4B
102
}
100
AcDbXrecord
 10
0.0
 20
0.0
 30
0.0
  0
XRECORD
  5
2D6A
102
{ACAD_REACTORS
330
2D4B
102
}
100
AcDbXrecord
 10
0.0
 20
0.0
 30
0.0
  0
XRECORD
  5
2D68
102
{ACAD_REACTORS
330
2D4B
102
}
100
AcDbXrecord
 10
0.0
 20
0.0
 30
0.0
  0
XRECORD
  5
2D69
102
{ACAD_REACTORS
330
2D4B
102
}
100
AcDbXrecord
 10
0.0
 20
0.0
 30
0.0
  0
XRECORD
  5
2D66
102
{ACAD_REACTORS
330
2D4B
102
}
100
AcDbXrecord
 10
0.0
 20
0.0
 30
0.0
  0
XRECORD
  5
2D63
102
{ACAD_REACTORS
330
2D4B
102
}
100
AcDbXrecord
340
0
  0
XRECORD
  5
2D64
102
{ACAD_REACTORS
330
2D4B
102
}
100
AcDbXrecord
 70
     0
  0
XRECORD
  5
2D57
102
{ACAD_REACTORS
330
2D4B
102
}
100
AcDbXrecord
  1
{E1450704-95BF-40F0-980F-CD153636F74D}
  0
DICTIONARYVAR
  5
7DB
102
{ACAD_REACTORS
330
7DA
102
}
100
DictionaryVariables
280
     0
  1
STANDARD
  0
DICTIONARYVAR
  5
1A71
102
{ACAD_REACTORS
330
7DA
102
}
100
DictionaryVariables
280
     0
  1
1
  0
DICTIONARYVAR
  5
1A72
102
{ACAD_REACTORS
330
7DA
102
}
100
DictionaryVariables
280
     0
  1

  0
XRECORD
  5
2D74
102
{ACAD_REACTORS
330
2D73
102
}
100
AcDbXrecord
102
EXTNAMES
  1
LAYOUT1
  2
Layout1
  1
MODEL
  2
Model
  0
DICTIONARY
  5
2D36
100
AcDbDictionary
  3
ACAD_XREC_ROUNDTRIP
360
2D37
  0
DICTIONARY
  5
2D34
100
AcDbDictionary
  3
ACAD_XREC_ROUNDTRIP
360
2D35
  0
XRECORD
  5
2D72
102
{ACAD_REACTORS
330
2D71
102
}
100
AcDbXrecord
102
EXTNAMES
  1
STANDARD
  2
Standard
  0
XRECORD
  5
2D76
102
{ACAD_REACTORS
330
2D75
102
}
100
AcDbXrecord
102
EXTNAMES
  1
STANDARD
  2
Standard
  0
XRECORD
  5
2D37
102
{ACAD_REACTORS
330
2D36
102
}
100
AcDbXrecord
102
SHADEPLOT
 70
     0
102
SHADEPLOTRESLEVEL
 70
     2
102
SHADEPLOTCUSTOMDPI
 70
   300
  0
XRECORD
  5
2D35
102
{ACAD_REACTORS
330
2D34
102
}
100
AcDbXrecord
102
SHADEPLOT
 70
     0
102
SHADEPLOTRESLEVEL
 70
     2
102
SHADEPLOTCUSTOMDPI
 70
   300
  0
ENDSEC
  0
EOF
