  0
SECTION
  2
HEADER
  9
$ACADVER
  1
AC1014
  9
$ACADMAINTVER
 70
     9
  9
$DWGCODEPAGE
  3
ANSI_1252
  9
$INSBASE
 10
0.0
 20
0.0
 30
0.0
  9
$EXTMIN
 10
0.0
 20
0.0
 30
0.0
  9
$EXTMAX
 10
131.200008
 20
82.0
 30
0.0
  9
$LIMMIN
 10
0.0
 20
0.0
  9
$LIMMAX
 10
16.40000099999999
 20
10.25
  9
$ORTHOMODE
 70
     1
  9
$REGENMODE
 70
     1
  9
$FILLMODE
 70
     1
  9
$QTEXTMODE
 70
     0
  9
$MIRRTEXT
 70
     1
  9
$DRAGMODE
 70
     2
  9
$LTSCALE
 40
1.0
  9
$OSMODE
 70
   195
  9
$ATTMODE
 70
     1
  9
$TEXTSIZE
 40
0.2
  9
$TRACEWID
 40
0.05
  9
$TEXTSTYLE
  7
ROMANS
  9
$CLAYER
  8
0
  9
$CELTYPE
  6
BYLAYER
  9
$CECOLOR
 62
   256
  9
$CELTSCALE
 40
1.0
  9
$DELOBJ
 70
     1
  9
$DISPSILH
 70
     0
  9
$DIMSCALE
 40
0.0
  9
$DIMASZ
 40
0.07
  9
$DIMEXO
 40
0.0625
  9
$DIMDLI
 40
0.38
  9
$DIMRND
 40
0.001
  9
$DIMDLE
 40
0.0
  9
$DIMEXE
 40
0.0625
  9
$DIMTP
 40
0.0
  9
$DIMTM
 40
0.0
  9
$DIMTXT
 40
0.1
  9
$DIMCEN
 40
0.09
  9
$DIMTSZ
 40
0.0
  9
$DIMTOL
 70
     0
  9
$DIMLIM
 70
     0
  9
$DIMTIH
 70
     1
  9
$DIMTOH
 70
     1
  9
$DIMSE1
 70
     0
  9
$DIMSE2
 70
     0
  9
$DIMTAD
 70
     0
  9
$DIMZIN
 70
     4
  9
$DIMBLK
  1
SEARROW
  9
$DIMASO
 70
     1
  9
$DIMSHO
 70
     1
  9
$DIMPOST
  1
\P
  9
$DIMAPOST
  1

  9
$DIMALT
 70
     1
  9
$DIMALTD
 70
     0
  9
$DIMALTF
 40
25.4
  9
$DIMLFAC
 40
1.0
  9
$DIMTOFL
 70
     0
  9
$DIMTVP
 40
0.0
  9
$DIMTIX
 70
     0
  9
$DIMSOXD
 70
     0
  9
$DIMSAH
 70
     0
  9
$DIMBLK1
  1

  9
$DIMBLK2
  1

  9
$DIMSTYLE
  2
SCHNEIDERELECTRIC_DUAL_BEL
  9
$DIMCLRD
 70
   256
  9
$DIMCLRE
 70
   256
  9
$DIMCLRT
 70
   256
  9
$DIMTFAC
 40
1.0
  9
$DIMGAP
 40
0.04
  9
$DIMJUST
 70
     0
  9
$DIMSD1
 70
     0
  9
$DIMSD2
 70
     0
  9
$DIMTOLJ
 70
     1
  9
$DIMTZIN
 70
     0
  9
$DIMALTZ
 70
     4
  9
$DIMALTTZ
 70
     0
  9
$DIMFIT
 70
     3
  9
$DIMUPT
 70
     0
  9
$DIMUNIT
 70
     2
  9
$DIMDEC
 70
     2
  9
$DIMTDEC
 70
     2
  9
$DIMALTU
 70
     2
  9
$DIMALTTD
 70
     0
  9
$DIMTXSTY
  7
ROMANS
  9
$DIMAUNIT
 70
     0
  9
$LUNITS
 70
     2
  9
$LUPREC
 70
     4
  9
$SKETCHINC
 40
0.1
  9
$FILLETRAD
 40
0.5
  9
$AUNITS
 70
     0
  9
$AUPREC
 70
     0
  9
$MENU
  1
.
  9
$ELEVATION
 40
0.0
  9
$PELEVATION
 40
0.0
  9
$THICKNESS
 40
0.0
  9
$LIMCHECK
 70
     0
  9
$BLIPMODE
 70
     0
  9
$CHAMFERA
 40
0.5
  9
$CHAMFERB
 40
0.5
  9
$CHAMFERC
 40
1.0
  9
$CHAMFERD
 40
0.0
  9
$SKPOLY
 70
     0
  9
$TDCREATE
 40
2451764.576708576
  9
$TDUPDATE
 40
2452598.350799595
  9
$TDINDWG
 40
1.5549526620
  9
$TDUSRTIMER
 40
1.5549524306
  9
$USRTIMER
 70
     1
  9
$ANGBASE
 50
0.0
  9
$ANGDIR
 70
     0
  9
$PDMODE
 70
     0
  9
$PDSIZE
 40
0.0
  9
$PLINEWID
 40
0.0
  9
$COORDS
 70
     2
  9
$SPLFRAME
 70
     0
  9
$SPLINETYPE
 70
     6
  9
$SPLINESEGS
 70
     8
  9
$ATTDIA
 70
     0
  9
$ATTREQ
 70
     1
  9
$HANDLING
 70
 22529
  9
$HANDSEED
  5
64DF7
  9
$SURFTAB1
 70
     6
  9
$SURFTAB2
 70
     6
  9
$SURFTYPE
 70
     6
  9
$SURFU
 70
     6
  9
$SURFV
 70
     6
  9
$UCSNAME
  2

  9
$UCSORG
 10
0.0
 20
0.0
 30
0.0
  9
$UCSXDIR
 10
1.0
 20
0.0
 30
0.0
  9
$UCSYDIR
 10
0.0
 20
1.0
 30
0.0
  9
$PUCSNAME
  2

  9
$PUCSORG
 10
0.0
 20
0.0
 30
0.0
  9
$PUCSXDIR
 10
1.0
 20
0.0
 30
0.0
  9
$PUCSYDIR
 10
0.0
 20
1.0
 30
0.0
  9
$USERI1
 70
     0
  9
$USERI2
 70
     0
  9
$USERI3
 70
     0
  9
$USERI4
 70
     0
  9
$USERI5
 70
     0
  9
$USERR1
 40
0.0
  9
$USERR2
 40
0.0
  9
$USERR3
 40
0.0
  9
$USERR4
 40
0.0
  9
$USERR5
 40
0.0
  9
$WORLDVIEW
 70
     1
  9
$SHADEDGE
 70
     3
  9
$SHADEDIF
 70
    70
  9
$TILEMODE
 70
     0
  9
$MAXACTVP
 70
    48
  9
$PINSBASE
 10
0.0
 20
0.0
 30
0.0
  9
$PLIMCHECK
 70
     0
  9
$PEXTMIN
 10
-0.0000655310141582
 20
-0.1515033994983028
 30
-0.000000000000013
  9
$PEXTMAX
 10
16.40067136126441
 20
10.25087326728776
 30
0.0000000000000023
  9
$PLIMMIN
 10
-0.4420008003671537
 20
-1.630515943860539
  9
$PLIMMAX
 10
16.84260778106769
 20
11.72577241961554
  9
$UNITMODE
 70
     0
  9
$VISRETAIN
 70
     1
  9
$PLINEGEN
 70
     0
  9
$PSLTSCALE
 70
     1
  9
$TREEDEPTH
 70
  3020
  9
$PICKSTYLE
 70
     1
  9
$CMLSTYLE
  2
STANDARD
  9
$CMLJUST
 70
     0
  9
$CMLSCALE
 40
1.0
  9
$PROXYGRAPHICS
 70
     1
  9
$MEASUREMENT
 70
     0
  0
ENDSEC
  0
SECTION
  2
CLASSES
  0
CLASS
  1
ACDBDICTIONARYWDFLT
  2
AcDbDictionaryWithDefault
  3
AutoCAD 2000
 90
        0
280
     0
281
     0
  0
CLASS
  1
ACDBPLACEHOLDER
  2
AcDbPlaceHolder
  3
AutoCAD 2000
 90
        0
280
     0
281
     0
  0
CLASS
  1
LAYOUT
  2
AcDbLayout
  3
AutoCAD 2000
 90
        0
280
     0
281
     0
  0
CLASS
  1
LONG_TRANSACTION
  2
AcDbLongTransaction
  3
AutoCAD 2000
 90
        0
280
     0
281
     0
  0
CLASS
  1
LWPOLYLINE
  2
AcDbPolyline
  3
AutoCAD 2000
 90
        0
280
     0
281
     1
  0
CLASS
  1
HATCH
  2
AcDbHatch
  3
AutoCAD 2000
 90
        0
280
     0
281
     1
  0
CLASS
  1
XRECORD
  2
AcDbXrecord
  3
AutoCAD 2000
 90
        0
280
     0
281
     0
  0
CLASS
  1
LONG_TRANSACTION
  2
AcDbLongTransaction
  3
AutoCAD 2000
 90
        0
280
     0
281
     0
  0
CLASS
  1
LWPOLYLINE
  2
AcDbPolyline
  3
AutoCAD 2000
 90
        0
280
     0
281
     1
  0
CLASS
  1
HATCH
  2
AcDbHatch
  3
AutoCAD 2000
 90
        0
280
     0
281
     1
  0
CLASS
  1
XRECORD
  2
AcDbXrecord
  3
AutoCAD 2000
 90
        0
280
     0
281
     0
  0
CLASS
  1
LONG_TRANSACTION
  2
AcDbLongTransaction
  3
AutoCAD 2000
 90
        0
280
     0
281
     0
  0
CLASS
  1
LWPOLYLINE
  2
AcDbPolyline
  3
AutoCAD 2000
 90
        0
280
     0
281
     1
  0
CLASS
  1
HATCH
  2
AcDbHatch
  3
AutoCAD 2000
 90
        0
280
     0
281
     1
  0
CLASS
  1
XRECORD
  2
AcDbXrecord
  3
AutoCAD 2000
 90
        0
280
     0
281
     0
  0
CLASS
  1
PLOTSETTINGS
  2
AcDbPlotSettings
  3
AutoCAD 2000
 90
        0
280
     0
281
     0
  0
CLASS
  1
ACME_DOCUMENT
  2
AcMeDbDoc
  3
AcMeServices
 90
        0
280
     0
281
     0
  0
CLASS
  1
AMGSETTINGSOBJ
  2
AmgSettingsObj
  3
"AcadM|Product Description: AutoCAD Mechanical 2000|Company: Autodesk"
 90
        0
280
     0
281
     0
  0
CLASS
  1
ACMESCOPE
  2
AcMeScope
  3
AcMeServices
 90
        0
280
     0
281
     0
  0
CLASS
  1
ACMECOMMANDHISTORY
  2
AcMeCommandHistory
  3
AcMeServices
 90
        0
280
     0
281
     0
  0
CLASS
  1
DICTIONARYVAR
  2
AcDbDictionaryVar
  3
AutoCAD 2000
 90
        0
280
     0
281
     0
  0
CLASS
  1
ACIMSYSVARMAN
  2
AcImSysVarManager
  3
AcMeServices
 90
        0
280
     0
281
     0
  0
CLASS
  1
ACIMREALSYSVAR
  2
AcImRealSysVar
  3
AcMeServices
 90
        0
280
     0
281
     0
  0
CLASS
  1
ACIMINTSYSVAR
  2
AcImIntSysVar
  3
AcMeServices
 90
        0
280
     0
281
     0
  0
CLASS
  1
ACMEDRAWINGMAN
  2
AcMeDrawingMan
  3
AcMeServices
 90
        0
280
     0
281
     0
  0
CLASS
  1
ACMEVIEW
  2
AcMeView
  3
AcMeServices
 90
        0
280
     0
281
     0
  0
CLASS
  1
ACDBENTITYCACHE
  2
AcMeEntityCache
  3
AcMeServices
 90
        0
280
     0
281
     0
  0
CLASS
  1
GSMANAGER
  2
AcMeGSManager
  3
AcMeServices
 90
        0
280
     0
281
     0
  0
CLASS
  1
AmdtInternalReactor
  2
AmdtInternalReactor
  3
AcMeServices
 90
        0
280
     0
281
     0
  0
CLASS
  1
ACMESTATEMGR
  2
AcMeStateMgr
  3
AcMeServices
 90
        0
280
     0
281
     0
  0
CLASS
  1
ACME_DATABASE
  2
AcMeDbDatabase
  3
AcMeServices
 90
        0
280
     0
281
     0
  0
CLASS
  1
ACRFINSADJUSTERMGR
  2
AcRfInsAdjusterMgr
  3
AcMeServices
 90
        0
280
     0
281
     0
  0
CLASS
  1
ACMDATADICTIONARY
  2
AcmDataDictionary
  3
"AcmSymBB|Product Description: AutoCAD Mechanical 2000|Company: Autodesk"
 90
        0
280
     0
281
     0
  0
CLASS
  1
ACMDATAENTRYBLOCK
  2
AcmDataEntryBlock
  3
"AcmSymBB|Product Description: AutoCAD Mechanical 2000|Company: Autodesk"
 90
        0
280
     0
281
     0
  0
CLASS
  1
AMGOBJPROPCFG
  2
AmgObjPropCfg
  3
"AmgLay|Product Description: AutoCAD Mechanical 2000|Company: Autodesk"
 90
        1
280
     0
281
     0
  0
CLASS
  1
ACAMGFILTERDAT
  2
AcAmgFilterDat
  3
"AcadM|Product Description: AutoCAD Mechanical 2000|Company: Autodesk"
 90
        0
280
     0
281
     0
  0
CLASS
  1
LAYER_INDEX
  2
AcDbLayerIndex
  3
AutoCAD 2000
 90
        0
280
     0
281
     0
  0
CLASS
  1
IDBUFFER
  2
AcDbIdBuffer
  3
AutoCAD 2000
 90
        0
280
     0
281
     0
  0
CLASS
  1
LONG_TRANSACTION
  2
AcDbLongTransaction
  3
AutoCAD 2000
 90
        0
280
     0
281
     0
  0
CLASS
  1
LWPOLYLINE
  2
AcDbPolyline
  3
AutoCAD 2000
 90
        0
280
     0
281
     1
  0
CLASS
  1
HATCH
  2
AcDbHatch
  3
AutoCAD 2000
 90
        0
280
     0
281
     1
  0
CLASS
  1
XRECORD
  2
AcDbXrecord
  3
AutoCAD 2000
 90
        0
280
     0
281
     0
  0
CLASS
  1
LONG_TRANSACTION
  2
AcDbLongTransaction
  3
AutoCAD 2000
 90
        0
280
     0
281
     0
  0
CLASS
  1
LWPOLYLINE
  2
AcDbPolyline
  3
AutoCAD 2000
 90
        0
280
     0
281
     1
  0
CLASS
  1
HATCH
  2
AcDbHatch
  3
AutoCAD 2000
 90
        0
280
     0
281
     1
  0
CLASS
  1
XRECORD
  2
AcDbXrecord
  3
AutoCAD 2000
 90
        0
280
     0
281
     0
  0
CLASS
  1
LONG_TRANSACTION
  2
AcDbLongTransaction
  3
AutoCAD 2000
 90
        0
280
     0
281
     0
  0
CLASS
  1
LWPOLYLINE
  2
AcDbPolyline
  3
AutoCAD 2000
 90
        0
280
     0
281
     1
  0
CLASS
  1
HATCH
  2
AcDbHatch
  3
AutoCAD 2000
 90
        0
280
     0
281
     1
  0
CLASS
  1
XRECORD
  2
AcDbXrecord
  3
AutoCAD 2000
 90
        0
280
     0
281
     0
  0
CLASS
  1
LONG_TRANSACTION
  2
AcDbLongTransaction
  3
AutoCAD 2000
 90
        0
280
     0
281
     0
  0
CLASS
  1
LWPOLYLINE
  2
AcDbPolyline
  3
AutoCAD 2000
 90
        0
280
     0
281
     1
  0
CLASS
  1
HATCH
  2
AcDbHatch
  3
AutoCAD 2000
 90
        0
280
     0
281
     1
  0
CLASS
  1
XRECORD
  2
AcDbXrecord
  3
AutoCAD 2000
 90
        0
280
     0
281
     0
  0
CLASS
  1
LONG_TRANSACTION
  2
AcDbLongTransaction
  3
AutoCAD 2000
 90
        0
280
     0
281
     0
  0
CLASS
  1
LWPOLYLINE
  2
AcDbPolyline
  3
AutoCAD 2000
 90
        0
280
     0
281
     1
  0
CLASS
  1
HATCH
  2
AcDbHatch
  3
AutoCAD 2000
 90
        0
280
     0
281
     1
  0
CLASS
  1
XRECORD
  2
AcDbXrecord
  3
AutoCAD 2000
 90
        0
280
     0
281
     0
  0
CLASS
  1
LONG_TRANSACTION
  2
AcDbLongTransaction
  3
AutoCAD 2000
 90
        0
280
     0
281
     0
  0
CLASS
  1
LWPOLYLINE
  2
AcDbPolyline
  3
AutoCAD 2000
 90
        0
280
     0
281
     1
  0
CLASS
  1
HATCH
  2
AcDbHatch
  3
AutoCAD 2000
 90
        0
280
     0
281
     1
  0
CLASS
  1
XRECORD
  2
AcDbXrecord
  3
AutoCAD 2000
 90
        0
280
     0
281
     0
  0
CLASS
  1
LONG_TRANSACTION
  2
AcDbLongTransaction
  3
AutoCAD 2000
 90
        0
280
     0
281
     0
  0
CLASS
  1
LWPOLYLINE
  2
AcDbPolyline
  3
AutoCAD 2000
 90
        0
280
     0
281
     1
  0
CLASS
  1
HATCH
  2
AcDbHatch
  3
AutoCAD 2000
 90
        0
280
     0
281
     1
  0
CLASS
  1
XRECORD
  2
AcDbXrecord
  3
AutoCAD 2000
 90
        0
280
     0
281
     0
  0
CLASS
  1
LONG_TRANSACTION
  2
AcDbLongTransaction
  3
AutoCAD 2000
 90
        0
280
     0
281
     0
  0
CLASS
  1
LWPOLYLINE
  2
AcDbPolyline
  3
AutoCAD 2000
 90
        0
280
     0
281
     1
  0
CLASS
  1
HATCH
  2
AcDbHatch
  3
AutoCAD 2000
 90
        0
280
     0
281
     1
  0
CLASS
  1
XRECORD
  2
AcDbXrecord
  3
AutoCAD 2000
 90
        0
280
     0
281
     0
  0
CLASS
  1
LONG_TRANSACTION
  2
AcDbLongTransaction
  3
AutoCAD 2000
 90
        0
280
     0
281
     0
  0
CLASS
  1
LWPOLYLINE
  2
AcDbPolyline
  3
AutoCAD 2000
 90
        0
280
     0
281
     1
  0
CLASS
  1
HATCH
  2
AcDbHatch
  3
AutoCAD 2000
 90
        0
280
     0
281
     1
  0
CLASS
  1
XRECORD
  2
AcDbXrecord
  3
AutoCAD 2000
 90
        0
280
     0
281
     0
  0
CLASS
  1
LONG_TRANSACTION
  2
AcDbLongTransaction
  3
AutoCAD 2000
 90
        0
280
     0
281
     0
  0
CLASS
  1
LWPOLYLINE
  2
AcDbPolyline
  3
AutoCAD 2000
 90
        0
280
     0
281
     1
  0
CLASS
  1
HATCH
  2
AcDbHatch
  3
AutoCAD 2000
 90
        0
280
     0
281
     1
  0
CLASS
  1
XRECORD
  2
AcDbXrecord
  3
AutoCAD 2000
 90
        0
280
     0
281
     0
  0
CLASS
  1
LONG_TRANSACTION
  2
AcDbLongTransaction
  3
AutoCAD 2000
 90
        0
280
     0
281
     0
  0
CLASS
  1
LWPOLYLINE
  2
AcDbPolyline
  3
AutoCAD 2000
 90
        0
280
     0
281
     1
  0
CLASS
  1
HATCH
  2
AcDbHatch
  3
AutoCAD 2000
 90
        0
280
     0
281
     1
  0
CLASS
  1
XRECORD
  2
AcDbXrecord
  3
AutoCAD 2000
 90
        0
280
     0
281
     0
  0
CLASS
  1
LONG_TRANSACTION
  2
AcDbLongTransaction
  3
AutoCAD 2000
 90
        0
280
     0
281
     0
  0
CLASS
  1
LWPOLYLINE
  2
AcDbPolyline
  3
AutoCAD 2000
 90
        0
280
     0
281
     1
  0
CLASS
  1
HATCH
  2
AcDbHatch
  3
AutoCAD 2000
 90
        0
280
     0
281
     1
  0
CLASS
  1
XRECORD
  2
AcDbXrecord
  3
AutoCAD 2000
 90
        0
280
     0
281
     0
  0
CLASS
  1
LONG_TRANSACTION
  2
AcDbLongTransaction
  3
AutoCAD 2000
 90
        0
280
     0
281
     0
  0
CLASS
  1
LWPOLYLINE
  2
AcDbPolyline
  3
AutoCAD 2000
 90
        0
280
     0
281
     1
  0
CLASS
  1
HATCH
  2
AcDbHatch
  3
AutoCAD 2000
 90
        0
280
     0
281
     1
  0
CLASS
  1
XRECORD
  2
AcDbXrecord
  3
AutoCAD 2000
 90
        0
280
     0
281
     0
  0
CLASS
  1
LONG_TRANSACTION
  2
AcDbLongTransaction
  3
AutoCAD 2000
 90
        0
280
     0
281
     0
  0
CLASS
  1
LWPOLYLINE
  2
AcDbPolyline
  3
AutoCAD 2000
 90
        0
280
     0
281
     1
  0
CLASS
  1
HATCH
  2
AcDbHatch
  3
AutoCAD 2000
 90
        0
280
     0
281
     1
  0
CLASS
  1
XRECORD
  2
AcDbXrecord
  3
AutoCAD 2000
 90
        0
280
     0
281
     0
  0
CLASS
  1
LONG_TRANSACTION
  2
AcDbLongTransaction
  3
AutoCAD 2000
 90
        0
280
     0
281
     0
  0
CLASS
  1
LWPOLYLINE
  2
AcDbPolyline
  3
AutoCAD 2000
 90
        0
280
     0
281
     1
  0
CLASS
  1
HATCH
  2
AcDbHatch
  3
AutoCAD 2000
 90
        0
280
     0
281
     1
  0
CLASS
  1
XRECORD
  2
AcDbXrecord
  3
AutoCAD 2000
 90
        0
280
     0
281
     0
  0
CLASS
  1
LONG_TRANSACTION
  2
AcDbLongTransaction
  3
AutoCAD 2000
 90
        0
280
     0
281
     0
  0
CLASS
  1
LWPOLYLINE
  2
AcDbPolyline
  3
AutoCAD 2000
 90
        0
280
     0
281
     1
  0
CLASS
  1
HATCH
  2
AcDbHatch
  3
AutoCAD 2000
 90
        0
280
     0
281
     1
  0
CLASS
  1
XRECORD
  2
AcDbXrecord
  3
AutoCAD 2000
 90
        0
280
     0
281
     0
  0
CLASS
  1
LONG_TRANSACTION
  2
AcDbLongTransaction
  3
AutoCAD 2000
 90
        0
280
     0
281
     0
  0
CLASS
  1
LWPOLYLINE
  2
AcDbPolyline
  3
AutoCAD 2000
 90
        0
280
     0
281
     1
  0
CLASS
  1
HATCH
  2
AcDbHatch
  3
AutoCAD 2000
 90
        0
280
     0
281
     1
  0
CLASS
  1
XRECORD
  2
AcDbXrecord
  3
AutoCAD 2000
 90
        0
280
     0
281
     0
  0
CLASS
  1
LONG_TRANSACTION
  2
AcDbLongTransaction
  3
AutoCAD 2000
 90
        0
280
     0
281
     0
  0
CLASS
  1
LWPOLYLINE
  2
AcDbPolyline
  3
AutoCAD 2000
 90
        0
280
     0
281
     1
  0
CLASS
  1
HATCH
  2
AcDbHatch
  3
AutoCAD 2000
 90
        0
280
     0
281
     1
  0
CLASS
  1
XRECORD
  2
AcDbXrecord
  3
AutoCAD 2000
 90
        0
280
     0
281
     0
  0
CLASS
  1
LONG_TRANSACTION
  2
AcDbLongTransaction
  3
AutoCAD 2000
 90
        0
280
     0
281
     0
  0
CLASS
  1
LWPOLYLINE
  2
AcDbPolyline
  3
AutoCAD 2000
 90
        0
280
     0
281
     1
  0
CLASS
  1
HATCH
  2
AcDbHatch
  3
AutoCAD 2000
 90
        0
280
     0
281
     1
  0
CLASS
  1
XRECORD
  2
AcDbXrecord
  3
AutoCAD 2000
 90
        0
280
     0
281
     0
  0
CLASS
  1
LONG_TRANSACTION
  2
AcDbLongTransaction
  3
AutoCAD 2000
 90
        0
280
     0
281
     0
  0
CLASS
  1
LWPOLYLINE
  2
AcDbPolyline
  3
AutoCAD 2000
 90
        0
280
     0
281
     1
  0
CLASS
  1
HATCH
  2
AcDbHatch
  3
AutoCAD 2000
 90
        0
280
     0
281
     1
  0
CLASS
  1
XRECORD
  2
AcDbXrecord
  3
AutoCAD 2000
 90
        0
280
     0
281
     0
  0
CLASS
  1
LONG_TRANSACTION
  2
AcDbLongTransaction
  3
AutoCAD 2000
 90
        0
280
     0
281
     0
  0
CLASS
  1
LWPOLYLINE
  2
AcDbPolyline
  3
AutoCAD 2000
 90
        0
280
     0
281
     1
  0
CLASS
  1
HATCH
  2
AcDbHatch
  3
AutoCAD 2000
 90
        0
280
     0
281
     1
  0
CLASS
  1
XRECORD
  2
AcDbXrecord
  3
AutoCAD 2000
 90
        0
280
     0
281
     0
  0
CLASS
  1
LONG_TRANSACTION
  2
AcDbLongTransaction
  3
AutoCAD 2000
 90
        0
280
     0
281
     0
  0
CLASS
  1
LWPOLYLINE
  2
AcDbPolyline
  3
AutoCAD 2000
 90
        0
280
     0
281
     1
  0
CLASS
  1
HATCH
  2
AcDbHatch
  3
AutoCAD 2000
 90
        0
280
     0
281
     1
  0
CLASS
  1
XRECORD
  2
AcDbXrecord
  3
AutoCAD 2000
 90
        0
280
     0
281
     0
  0
CLASS
  1
LONG_TRANSACTION
  2
AcDbLongTransaction
  3
AutoCAD 2000
 90
        0
280
     0
281
     0
  0
CLASS
  1
LWPOLYLINE
  2
AcDbPolyline
  3
AutoCAD 2000
 90
        0
280
     0
281
     1
  0
CLASS
  1
HATCH
  2
AcDbHatch
  3
AutoCAD 2000
 90
        0
280
     0
281
     1
  0
CLASS
  1
XRECORD
  2
AcDbXrecord
  3
AutoCAD 2000
 90
        0
280
     0
281
     0
  0
CLASS
  1
LONG_TRANSACTION
  2
AcDbLongTransaction
  3
AutoCAD 2000
 90
        0
280
     0
281
     0
  0
CLASS
  1
LWPOLYLINE
  2
AcDbPolyline
  3
AutoCAD 2000
 90
        0
280
     0
281
     1
  0
CLASS
  1
HATCH
  2
AcDbHatch
  3
AutoCAD 2000
 90
        0
280
     0
281
     1
  0
CLASS
  1
XRECORD
  2
AcDbXrecord
  3
AutoCAD 2000
 90
        0
280
     0
281
     0
  0
CLASS
  1
LONG_TRANSACTION
  2
AcDbLongTransaction
  3
AutoCAD 2000
 90
        0
280
     0
281
     0
  0
CLASS
  1
LWPOLYLINE
  2
AcDbPolyline
  3
AutoCAD 2000
 90
        0
280
     0
281
     1
  0
CLASS
  1
HATCH
  2
AcDbHatch
  3
AutoCAD 2000
 90
        0
280
     0
281
     1
  0
CLASS
  1
XRECORD
  2
AcDbXrecord
  3
AutoCAD 2000
 90
        0
280
     0
281
     0
  0
CLASS
  1
LONG_TRANSACTION
  2
AcDbLongTransaction
  3
AutoCAD 2000
 90
        0
280
     0
281
     0
  0
CLASS
  1
LWPOLYLINE
  2
AcDbPolyline
  3
AutoCAD 2000
 90
        0
280
     0
281
     1
  0
CLASS
  1
HATCH
  2
AcDbHatch
  3
AutoCAD 2000
 90
        0
280
     0
281
     1
  0
CLASS
  1
XRECORD
  2
AcDbXrecord
  3
AutoCAD 2000
 90
        0
280
     0
281
     0
  0
CLASS
  1
LONG_TRANSACTION
  2
AcDbLongTransaction
  3
AutoCAD 2000
 90
        0
280
     0
281
     0
  0
CLASS
  1
LWPOLYLINE
  2
AcDbPolyline
  3
AutoCAD 2000
 90
        0
280
     0
281
     1
  0
CLASS
  1
HATCH
  2
AcDbHatch
  3
AutoCAD 2000
 90
        0
280
     0
281
     1
  0
CLASS
  1
XRECORD
  2
AcDbXrecord
  3
AutoCAD 2000
 90
        0
280
     0
281
     0
  0
CLASS
  1
LONG_TRANSACTION
  2
AcDbLongTransaction
  3
AutoCAD 2000
 90
        0
280
     0
281
     0
  0
CLASS
  1
LWPOLYLINE
  2
AcDbPolyline
  3
AutoCAD 2000
 90
        0
280
     0
281
     1
  0
CLASS
  1
HATCH
  2
AcDbHatch
  3
AutoCAD 2000
 90
        0
280
     0
281
     1
  0
CLASS
  1
XRECORD
  2
AcDbXrecord
  3
AutoCAD 2000
 90
        0
280
     0
281
     0
  0
CLASS
  1
LONG_TRANSACTION
  2
AcDbLongTransaction
  3
AutoCAD 2000
 90
        0
280
     0
281
     0
  0
CLASS
  1
LWPOLYLINE
  2
AcDbPolyline
  3
AutoCAD 2000
 90
        0
280
     0
281
     1
  0
CLASS
  1
HATCH
  2
AcDbHatch
  3
AutoCAD 2000
 90
        0
280
     0
281
     1
  0
CLASS
  1
XRECORD
  2
AcDbXrecord
  3
AutoCAD 2000
 90
        0
280
     0
281
     0
  0
CLASS
  1
LONG_TRANSACTION
  2
AcDbLongTransaction
  3
AutoCAD 2000
 90
        0
280
     0
281
     0
  0
CLASS
  1
LWPOLYLINE
  2
AcDbPolyline
  3
AutoCAD 2000
 90
        0
280
     0
281
     1
  0
CLASS
  1
HATCH
  2
AcDbHatch
  3
AutoCAD 2000
 90
        0
280
     0
281
     1
  0
CLASS
  1
XRECORD
  2
AcDbXrecord
  3
AutoCAD 2000
 90
        0
280
     0
281
     0
  0
CLASS
  1
LONG_TRANSACTION
  2
AcDbLongTransaction
  3
AutoCAD 2000
 90
        0
280
     0
281
     0
  0
CLASS
  1
LWPOLYLINE
  2
AcDbPolyline
  3
AutoCAD 2000
 90
        0
280
     0
281
     1
  0
CLASS
  1
HATCH
  2
AcDbHatch
  3
AutoCAD 2000
 90
        0
280
     0
281
     1
  0
CLASS
  1
XRECORD
  2
AcDbXrecord
  3
AutoCAD 2000
 90
        0
280
     0
281
     0
  0
CLASS
  1
LONG_TRANSACTION
  2
AcDbLongTransaction
  3
AutoCAD 2000
 90
        0
280
     0
281
     0
  0
CLASS
  1
LWPOLYLINE
  2
AcDbPolyline
  3
AutoCAD 2000
 90
        0
280
     0
281
     1
  0
CLASS
  1
HATCH
  2
AcDbHatch
  3
AutoCAD 2000
 90
        0
280
     0
281
     1
  0
CLASS
  1
XRECORD
  2
AcDbXrecord
  3
AutoCAD 2000
 90
        0
280
     0
281
     0
  0
CLASS
  1
LONG_TRANSACTION
  2
AcDbLongTransaction
  3
AutoCAD 2000
 90
        0
280
     0
281
     0
  0
CLASS
  1
LWPOLYLINE
  2
AcDbPolyline
  3
AutoCAD 2000
 90
        0
280
     0
281
     1
  0
CLASS
  1
HATCH
  2
AcDbHatch
  3
AutoCAD 2000
 90
        0
280
     0
281
     1
  0
CLASS
  1
XRECORD
  2
AcDbXrecord
  3
AutoCAD 2000
 90
        0
280
     0
281
     0
  0
CLASS
  1
LONG_TRANSACTION
  2
AcDbLongTransaction
  3
AutoCAD 2000
 90
        0
280
     0
281
     0
  0
CLASS
  1
LWPOLYLINE
  2
AcDbPolyline
  3
AutoCAD 2000
 90
        0
280
     0
281
     1
  0
CLASS
  1
HATCH
  2
AcDbHatch
  3
AutoCAD 2000
 90
        0
280
     0
281
     1
  0
CLASS
  1
XRECORD
  2
AcDbXrecord
  3
AutoCAD 2000
 90
        0
280
     0
281
     0
  0
CLASS
  1
LONG_TRANSACTION
  2
AcDbLongTransaction
  3
AutoCAD 2000
 90
        0
280
     0
281
     0
  0
CLASS
  1
LWPOLYLINE
  2
AcDbPolyline
  3
AutoCAD 2000
 90
        0
280
     0
281
     1
  0
CLASS
  1
HATCH
  2
AcDbHatch
  3
AutoCAD 2000
 90
        0
280
     0
281
     1
  0
CLASS
  1
XRECORD
  2
AcDbXrecord
  3
AutoCAD 2000
 90
        0
280
     0
281
     0
  0
CLASS
  1
LONG_TRANSACTION
  2
AcDbLongTransaction
  3
AutoCAD 2000
 90
        0
280
     0
281
     0
  0
CLASS
  1
LWPOLYLINE
  2
AcDbPolyline
  3
AutoCAD 2000
 90
        0
280
     0
281
     1
  0
CLASS
  1
HATCH
  2
AcDbHatch
  3
AutoCAD 2000
 90
        0
280
     0
281
     1
  0
CLASS
  1
XRECORD
  2
AcDbXrecord
  3
AutoCAD 2000
 90
        0
280
     0
281
     0
  0
CLASS
  1
LONG_TRANSACTION
  2
AcDbLongTransaction
  3
AutoCAD 2000
 90
        0
280
     0
281
     0
  0
CLASS
  1
LWPOLYLINE
  2
AcDbPolyline
  3
AutoCAD 2000
 90
        0
280
     0
281
     1
  0
CLASS
  1
HATCH
  2
AcDbHatch
  3
AutoCAD 2000
 90
        0
280
     0
281
     1
  0
CLASS
  1
XRECORD
  2
AcDbXrecord
  3
AutoCAD 2000
 90
        0
280
     0
281
     0
  0
CLASS
  1
LONG_TRANSACTION
  2
AcDbLongTransaction
  3
AutoCAD 2000
 90
        0
280
     0
281
     0
  0
CLASS
  1
LWPOLYLINE
  2
AcDbPolyline
  3
AutoCAD 2000
 90
        0
280
     0
281
     1
  0
CLASS
  1
HATCH
  2
AcDbHatch
  3
AutoCAD 2000
 90
        0
280
     0
281
     1
  0
CLASS
  1
XRECORD
  2
AcDbXrecord
  3
AutoCAD 2000
 90
        0
280
     0
281
     0
  0
CLASS
  1
LONG_TRANSACTION
  2
AcDbLongTransaction
  3
AutoCAD 2000
 90
        0
280
     0
281
     0
  0
CLASS
  1
LWPOLYLINE
  2
AcDbPolyline
  3
AutoCAD 2000
 90
        0
280
     0
281
     1
  0
CLASS
  1
HATCH
  2
AcDbHatch
  3
AutoCAD 2000
 90
        0
280
     0
281
     1
  0
CLASS
  1
XRECORD
  2
AcDbXrecord
  3
AutoCAD 2000
 90
        0
280
     0
281
     0
  0
CLASS
  1
LONG_TRANSACTION
  2
AcDbLongTransaction
  3
AutoCAD 2000
 90
        0
280
     0
281
     0
  0
CLASS
  1
LWPOLYLINE
  2
AcDbPolyline
  3
AutoCAD 2000
 90
        0
280
     0
281
     1
  0
CLASS
  1
HATCH
  2
AcDbHatch
  3
AutoCAD 2000
 90
        0
280
     0
281
     1
  0
CLASS
  1
XRECORD
  2
AcDbXrecord
  3
AutoCAD 2000
 90
        0
280
     0
281
     0
  0
CLASS
  1
LONG_TRANSACTION
  2
AcDbLongTransaction
  3
AutoCAD 2000
 90
        0
280
     0
281
     0
  0
CLASS
  1
LWPOLYLINE
  2
AcDbPolyline
  3
AutoCAD 2000
 90
        0
280
     0
281
     1
  0
CLASS
  1
HATCH
  2
AcDbHatch
  3
AutoCAD 2000
 90
        0
280
     0
281
     1
  0
CLASS
  1
XRECORD
  2
AcDbXrecord
  3
AutoCAD 2000
 90
        0
280
     0
281
     0
  0
CLASS
  1
LONG_TRANSACTION
  2
AcDbLongTransaction
  3
AutoCAD 2000
 90
        0
280
     0
281
     0
  0
CLASS
  1
LWPOLYLINE
  2
AcDbPolyline
  3
AutoCAD 2000
 90
        0
280
     0
281
     1
  0
CLASS
  1
HATCH
  2
AcDbHatch
  3
AutoCAD 2000
 90
        0
280
     0
281
     1
  0
CLASS
  1
XRECORD
  2
AcDbXrecord
  3
AutoCAD 2000
 90
        0
280
     0
281
     0
  0
CLASS
  1
LONG_TRANSACTION
  2
AcDbLongTransaction
  3
AutoCAD 2000
 90
        0
280
     0
281
     0
  0
CLASS
  1
LWPOLYLINE
  2
AcDbPolyline
  3
AutoCAD 2000
 90
        0
280
     0
281
     1
  0
CLASS
  1
HATCH
  2
AcDbHatch
  3
AutoCAD 2000
 90
        0
280
     0
281
     1
  0
CLASS
  1
XRECORD
  2
AcDbXrecord
  3
AutoCAD 2000
 90
        0
280
     0
281
     0
  0
CLASS
  1
LONG_TRANSACTION
  2
AcDbLongTransaction
  3
AutoCAD 2000
 90
        0
280
     0
281
     0
  0
CLASS
  1
LWPOLYLINE
  2
AcDbPolyline
  3
AutoCAD 2000
 90
        0
280
     0
281
     1
  0
CLASS
  1
HATCH
  2
AcDbHatch
  3
AutoCAD 2000
 90
        0
280
     0
281
     1
  0
CLASS
  1
XRECORD
  2
AcDbXrecord
  3
AutoCAD 2000
 90
        0
280
     0
281
     0
  0
CLASS
  1
LONG_TRANSACTION
  2
AcDbLongTransaction
  3
AutoCAD 2000
 90
        0
280
     0
281
     0
  0
CLASS
  1
LWPOLYLINE
  2
AcDbPolyline
  3
AutoCAD 2000
 90
        0
280
     0
281
     1
  0
CLASS
  1
HATCH
  2
AcDbHatch
  3
AutoCAD 2000
 90
        0
280
     0
281
     1
  0
CLASS
  1
XRECORD
  2
AcDbXrecord
  3
AutoCAD 2000
 90
        0
280
     0
281
     0
  0
CLASS
  1
LONG_TRANSACTION
  2
AcDbLongTransaction
  3
AutoCAD 2000
 90
        0
280
     0
281
     0
  0
CLASS
  1
LWPOLYLINE
  2
AcDbPolyline
  3
AutoCAD 2000
 90
        0
280
     0
281
     1
  0
CLASS
  1
HATCH
  2
AcDbHatch
  3
AutoCAD 2000
 90
        0
280
     0
281
     1
  0
CLASS
  1
XRECORD
  2
AcDbXrecord
  3
AutoCAD 2000
 90
        0
280
     0
281
     0
  0
CLASS
  1
LONG_TRANSACTION
  2
AcDbLongTransaction
  3
AutoCAD 2000
 90
        0
280
     0
281
     0
  0
CLASS
  1
LWPOLYLINE
  2
AcDbPolyline
  3
AutoCAD 2000
 90
        0
280
     0
281
     1
  0
CLASS
  1
HATCH
  2
AcDbHatch
  3
AutoCAD 2000
 90
        0
280
     0
281
     1
  0
CLASS
  1
XRECORD
  2
AcDbXrecord
  3
AutoCAD 2000
 90
        0
280
     0
281
     0
  0
CLASS
  1
LONG_TRANSACTION
  2
AcDbLongTransaction
  3
AutoCAD 2000
 90
        0
280
     0
281
     0
  0
CLASS
  1
LWPOLYLINE
  2
AcDbPolyline
  3
AutoCAD 2000
 90
        0
280
     0
281
     1
  0
CLASS
  1
HATCH
  2
AcDbHatch
  3
AutoCAD 2000
 90
        0
280
     0
281
     1
  0
CLASS
  1
XRECORD
  2
AcDbXrecord
  3
AutoCAD 2000
 90
        0
280
     0
281
     0
  0
CLASS
  1
LONG_TRANSACTION
  2
AcDbLongTransaction
  3
AutoCAD 2000
 90
        0
280
     0
281
     0
  0
CLASS
  1
LWPOLYLINE
  2
AcDbPolyline
  3
AutoCAD 2000
 90
        0
280
     0
281
     1
  0
CLASS
  1
HATCH
  2
AcDbHatch
  3
AutoCAD 2000
 90
        0
280
     0
281
     1
  0
CLASS
  1
XRECORD
  2
AcDbXrecord
  3
AutoCAD 2000
 90
        0
280
     0
281
     0
  0
CLASS
  1
LONG_TRANSACTION
  2
AcDbLongTransaction
  3
AutoCAD 2000
 90
        0
280
     0
281
     0
  0
CLASS
  1
LWPOLYLINE
  2
AcDbPolyline
  3
AutoCAD 2000
 90
        0
280
     0
281
     1
  0
CLASS
  1
HATCH
  2
AcDbHatch
  3
AutoCAD 2000
 90
        0
280
     0
281
     1
  0
CLASS
  1
XRECORD
  2
AcDbXrecord
  3
AutoCAD 2000
 90
        0
280
     0
281
     0
  0
CLASS
  1
LONG_TRANSACTION
  2
AcDbLongTransaction
  3
AutoCAD 2000
 90
        0
280
     0
281
     0
  0
CLASS
  1
LWPOLYLINE
  2
AcDbPolyline
  3
AutoCAD 2000
 90
        0
280
     0
281
     1
  0
CLASS
  1
HATCH
  2
AcDbHatch
  3
AutoCAD 2000
 90
        0
280
     0
281
     1
  0
CLASS
  1
XRECORD
  2
AcDbXrecord
  3
AutoCAD 2000
 90
        0
280
     0
281
     0
  0
ENDSEC
  0
SECTION
  2
TABLES
  0
TABLE
  2
VPORT
  5
8
330
0
100
AcDbSymbolTable
 70
     1
  0
VPORT
  5
64B0A
330
8
100
AcDbSymbolTableRecord
100
AcDbViewportTableRecord
  2
*ACTIVE
 70
     0
 10
0.0
 20
0.0
 11
1.0
 21
1.0
 12
65.60000430547384
 22
41.00000019092111
 13
0.0
 23
0.0
 14
0.5
 24
0.5
 15
0.5
 25
0.5
 16
0.0
 26
0.0
 36
1.0
 17
0.0
 27
0.0
 37
0.0
 40
82.69605829475219
 41
1.763713080168776
 42
50.0
 43
0.0
 44
0.0
 50
0.0
 51
0.0
 71
     0
 72
   100
 73
     1
 74
     2
 75
     0
 76
     0
 77
     0
 78
     0
  0
ENDTAB
  0
TABLE
  2
LTYPE
  5
5
330
0
100
AcDbSymbolTable
 70
     2
  0
LTYPE
  5
14
330
5
100
AcDbSymbolTableRecord
100
AcDbLinetypeTableRecord
  2
BYBLOCK
 70
     0
  3

 72
    65
 73
     0
 40
0.0
  0
LTYPE
  5
15
330
5
100
AcDbSymbolTableRecord
100
AcDbLinetypeTableRecord
  2
BYLAYER
 70
     0
  3

 72
    65
 73
     0
 40
0.0
  0
LTYPE
  5
16
330
5
100
AcDbSymbolTableRecord
100
AcDbLinetypeTableRecord
  2
CONTINUOUS
 70
     0
  3
Solid line
 72
    65
 73
     0
 40
0.0
  0
LTYPE
  5
18747
330
5
100
AcDbSymbolTableRecord
100
AcDbLinetypeTableRecord
  2
HIDDEN2
 70
     0
  3
Hidden (.5x) _ _ _ _ _ _ _ _ _ _ _ _ _ _ _ _ _
 72
    65
 73
     2
 40
0.1875
 49
0.125
 74
     0
 49
-0.0625
 74
     0
  0
ENDTAB
  0
TABLE
  2
LAYER
  5
2
330
0
100
AcDbSymbolTable
 70
    10
  0
LAYER
  5
10
330
2
100
AcDbSymbolTableRecord
100
AcDbLayerTableRecord
  2
0
 70
     0
 62
     7
  6
CONTINUOUS
  0
LAYER
  5
47
330
2
100
AcDbSymbolTableRecord
100
AcDbLayerTableRecord
  2
CONTINUOUS1
 70
     0
 62
     7
  6
CONTINUOUS
  0
LAYER
  5
48
330
2
100
AcDbSymbolTableRecord
100
AcDbLayerTableRecord
  2
CONTINUOUS2
 70
     0
 62
   254
  6
CONTINUOUS
  0
LAYER
  5
49
330
2
100
AcDbSymbolTableRecord
100
AcDbLayerTableRecord
  2
CONTINUOUS3
 70
     0
 62
   253
  6
CONTINUOUS
  0
LAYER
  5
4D
330
2
100
AcDbSymbolTableRecord
100
AcDbLayerTableRecord
  2
DIM
 70
     0
 62
     2
  6
CONTINUOUS
  0
LAYER
  5
55
330
2
100
AcDbSymbolTableRecord
100
AcDbLayerTableRecord
  2
TEXT1
 70
     0
 62
     3
  6
CONTINUOUS
  0
LAYER
  5
58
330
2
100
AcDbSymbolTableRecord
100
AcDbLayerTableRecord
  2
TITLEBLOCK
 70
     0
 62
     9
  6
CONTINUOUS
  0
LAYER
  5
59
330
2
100
AcDbSymbolTableRecord
100
AcDbLayerTableRecord
  2
VIEWPORT
 70
     0
 62
     9
  6
CONTINUOUS
  0
LAYER
  5
1875B
330
2
100
AcDbSymbolTableRecord
100
AcDbLayerTableRecord
  2
HIDDEN1
 70
     0
 62
     5
  6
HIDDEN2
  0
LAYER
  5
63ABD
330
2
100
AcDbSymbolTableRecord
100
AcDbLayerTableRecord
  2
DEFPOINTS
 70
     0
 62
     7
  6
CONTINUOUS
  0
ENDTAB
  0
TABLE
  2
STYLE
  5
3
330
0
100
AcDbSymbolTable
 70
     3
  0
STYLE
  5
11
330
3
100
AcDbSymbolTableRecord
100
AcDbTextStyleTableRecord
  2
STANDARD
 70
     0
 40
0.0
 41
1.0
 50
0.0
 71
     0
 42
0.2
  3
txt
  4

  0
STYLE
  5
36
330
3
100
AcDbSymbolTableRecord
100
AcDbTextStyleTableRecord
  2
ROMANS
 70
     0
 40
0.0
 41
1.0
 50
0.0
 71
     0
 42
0.2
  3
romans.shx
  4

  0
STYLE
  5
6CC
330
3
100
AcDbSymbolTableRecord
100
AcDbTextStyleTableRecord
  2
M_STANDARD
 70
     0
 40
0.0
 41
0.8
 50
0.0
 71
     0
 42
0.0
  3
MEDUSA.SHX
  4

  0
ENDTAB
  0
TABLE
  2
VIEW
  5
6
330
0
100
AcDbSymbolTable
 70
     0
  0
ENDTAB
  0
TABLE
  2
UCS
  5
7
330
0
100
AcDbSymbolTable
 70
     0
  0
ENDTAB
  0
TABLE
  2
APPID
  5
9
330
0
100
AcDbSymbolTable
 70
    11
  0
APPID
  5
12
330
9
100
AcDbSymbolTableRecord
100
AcDbRegAppTableRecord
  2
ACAD
 70
     0
  0
APPID
  5
6B
330
9
100
AcDbSymbolTableRecord
100
AcDbRegAppTableRecord
  2
DCO15
 70
     0
  0
APPID
  5
370
330
9
100
AcDbSymbolTableRecord
100
AcDbRegAppTableRecord
  2
MCAD_NO_VIS
 70
     0
  0
APPID
  5
371
330
9
100
AcDbSymbolTableRecord
100
AcDbRegAppTableRecord
  2
ACAD_TEMP_GRAPHIC
 70
     0
  0
APPID
  5
387
330
9
100
AcDbSymbolTableRecord
100
AcDbRegAppTableRecord
  2
GENIUS_GENSCREG_15
 70
     0
  0
APPID
  5
389
330
9
100
AcDbSymbolTableRecord
100
AcDbRegAppTableRecord
  2
GENIUS_GENODEF_13
 70
     0
  0
APPID
  5
38A
330
9
100
AcDbSymbolTableRecord
100
AcDbRegAppTableRecord
  2
GENIUS_GENOBJ-N-SDF_13
 70
     0
  0
APPID
  5
38B
330
9
100
AcDbSymbolTableRecord
100
AcDbRegAppTableRecord
  2
GENIUS_GENOENT_13
 70
     0
  0
APPID
  5
38C
330
9
100
AcDbSymbolTableRecord
100
AcDbRegAppTableRecord
  2
GENIUS_GENOREF_13
 70
     0
  0
APPID
  5
38D
330
9
100
AcDbSymbolTableRecord
100
AcDbRegAppTableRecord
  2
GENIUS_GENOLIS_13
 70
     0
  0
APPID
  5
6CE
330
9
100
AcDbSymbolTableRecord
100
AcDbRegAppTableRecord
  2
MED_PRIMTYPE
 70
     0
  0
ENDTAB
  0
TABLE
  2
DIMSTYLE
  5
A
330
0
100
AcDbSymbolTable
 70
     1
  0
DIMSTYLE
105
63ABF
102
{ACAD_REACTORS
330
63AC4
330
63AFB
330
63B27
330
63B3F
330
63B7B
330
63B63
330
63C5E
330
63DAB
330
63DAD
330
63DB9
330
63DE5
102
}
330
A
100
AcDbSymbolTableRecord
100
AcDbDimStyleTableRecord
  2
SCHNEIDERELECTRIC_DUAL_BEL
 70
     0
  3
\P
  4

  5
SEARROW
  6

  7

 40
0.0
 41
0.07
 42
0.0625
 43
0.38
 44
0.0625
 45
0.001
 46
0.0
 47
0.0
 48
0.0
140
0.1
141
0.09
142
0.0
143
25.4
144
1.0
145
0.0
146
1.0
147
0.04
 71
     0
 72
     0
 73
     1
 74
     1
 75
     0
 76
     0
 77
     0
 78
     4
170
     1
171
     0
172
     0
173
     0
174
     0
175
     0
176
   256
177
   256
178
   256
270
     2
271
     2
272
     2
273
     2
274
     0
340
36
275
     0
280
     0
281
     0
282
     0
283
     1
284
     0
285
     4
286
     0
287
     3
288
     0
  0
ENDTAB
  0
TABLE
  2
BLOCK_RECORD
  5
1
330
0
100
AcDbSymbolTable
 70
    14
  0
BLOCK_RECORD
  5
1F
102
{ACAD_XDICTIONARY
360
73
102
}
330
1
100
AcDbSymbolTableRecord
100
AcDbBlockTableRecord
  2
*MODEL_SPACE
  0
BLOCK_RECORD
  5
1B
102
{ACAD_XDICTIONARY
360
75
102
}
330
1
100
AcDbSymbolTableRecord
100
AcDbBlockTableRecord
  2
*PAPER_SPACE
  0
BLOCK_RECORD
  5
841
330
1
100
AcDbSymbolTableRecord
100
AcDbBlockTableRecord
  2
LOGO-PAD
1001
ACAD
1000
DesignCenter Data
1002
{
1070
     1
1070
     1
1002
}
  0
BLOCK_RECORD
  5
AE5
330
1
100
AcDbSymbolTableRecord
100
AcDbBlockTableRecord
  2
TITLE-PAD
1001
ACAD
1000
DesignCenter Data
1002
{
1070
     1
1070
     1
1002
}
  0
BLOCK_RECORD
  5
61611
330
1
100
AcDbSymbolTableRecord
100
AcDbBlockTableRecord
  2
SEARROW
1001
ACAD
1000
DesignCenter Data
1002
{
1070
     1
1070
     1
1002
}
  0
BLOCK_RECORD
  5
6373D
330
1
100
AcDbSymbolTableRecord
100
AcDbBlockTableRecord
  2
M_PFN_2
  0
BLOCK_RECORD
  5
63AC5
330
1
100
AcDbSymbolTableRecord
100
AcDbBlockTableRecord
  2
*D4
  0
BLOCK_RECORD
  5
63AFC
330
1
100
AcDbSymbolTableRecord
100
AcDbBlockTableRecord
  2
*D5
  0
BLOCK_RECORD
  5
63B28
330
1
100
AcDbSymbolTableRecord
100
AcDbBlockTableRecord
  2
*D6
  0
BLOCK_RECORD
  5
63B40
330
1
100
AcDbSymbolTableRecord
100
AcDbBlockTableRecord
  2
*D7
  0
BLOCK_RECORD
  5
63B64
330
1
100
AcDbSymbolTableRecord
100
AcDbBlockTableRecord
  2
*D8
  0
BLOCK_RECORD
  5
63B7C
330
1
100
AcDbSymbolTableRecord
100
AcDbBlockTableRecord
  2
*D9
  0
BLOCK_RECORD
  5
63C5F
330
1
100
AcDbSymbolTableRecord
100
AcDbBlockTableRecord
  2
*D10
  0
BLOCK_RECORD
  5
63DAE
330
1
100
AcDbSymbolTableRecord
100
AcDbBlockTableRecord
  2
*D11
  0
BLOCK_RECORD
  5
63DBA
330
1
100
AcDbSymbolTableRecord
100
AcDbBlockTableRecord
  2
*D12
  0
BLOCK_RECORD
  5
63DE6
330
1
100
AcDbSymbolTableRecord
100
AcDbBlockTableRecord
  2
*D13
  0
ENDTAB
  0
ENDSEC
  0
SECTION
  2
BLOCKS
  0
BLOCK
  5
20
330
1F
100
AcDbEntity
  8
0
100
AcDbBlockBegin
  2
*MODEL_SPACE
 70
     0
 10
0.0
 20
0.0
 30
0.0
  3
*MODEL_SPACE
  1

  0
ENDBLK
  5
21
330
1F
100
AcDbEntity
  8
0
100
AcDbBlockEnd
  0
BLOCK
  5
1C
330
1B
100
AcDbEntity
 67
     1
  8
0
100
AcDbBlockBegin
  2
*PAPER_SPACE
 70
     0
 10
0.0
 20
0.0
 30
0.0
  3
*PAPER_SPACE
  1

  0
ENDBLK
  5
1D
330
1B
100
AcDbEntity
 67
     1
  8
0
100
AcDbBlockEnd
  0
BLOCK
  5
852
330
841
100
AcDbEntity
  8
0
100
AcDbBlockBegin
  2
LOGO-PAD
 70
     0
 10
0.0
 20
0.0
 30
0.0
  3
LOGO-PAD
  1

  0
HATCH
  5
842
330
841
100
AcDbEntity
  8
TITLEBLOCK
 62
     0
100
AcDbHatch
 10
0.0
 20
0.0
 30
0.0
210
0.0
220
0.0
230
1.0
  2
SOLID
 70
     1
 71
     0
 91
        2
 92
        1
 93
       11
 72
     2
 10
1.203771209334867
 20
0.3650136751459491
 40
0.021562648149145
 50
90.00000747299615
 51
179.9997683268519
 73
     1
 72
     1
 10
1.182208561185898
 20
0.3650137623336376
 11
1.182208392435807
 21
0.2795138227272444
 72
     2
 10
1.203771079023129
 20
0.2795136821032751
 40
0.0215626865877801
 50
179.9996263378447
 51
269.9998903896797
 73
     1
 72
     1
 10
1.203771037772394
 20
0.2579509955155343
 11
1.330521045577125
 21
0.2579511736405264
 72
     2
 10
1.330521265257171
 20
0.2795136382789064
 40
0.021562464639499
 50
269.9994162661957
 51
311.7040125634689
 73
     1
 72
     1
 10
1.344866398698837
 20
0.2634152834601535
 11
1.352083334663557
 21
0.2579511736405264
 72
     1
 10
1.352083334663557
 20
0.2579511736405264
 11
1.365099386916806
 21
0.2751416404960081
 72
     1
 10
1.365099386916806
 20
0.2751416404960081
 11
1.352083522163621
 21
0.284997066934386
 72
     1
 10
1.352083522163621
 20
0.284997066934386
 11
1.352083690913712
 21
0.3650136723335662
 72
     2
 10
1.330521042764654
 20
0.3650136751460369
 40
0.0215626481490576
 50
359.9999925267666
 51
449.9999925267678
 73
     1
 72
     1
 10
1.330521045577125
 20
0.3865763232950938
 11
1.203771206522485
 21
0.3865763232950938
 97
        0
 92
       16
 93
       10
 72
     2
 10
1.21455271481628
 20
0.3542325202904111
 40
0.0107811520434708
 50
90.00043844291294
 51
179.9999701074038
 73
     1
 72
     1
 10
1.203771562772811
 20
0.3542325259151993
 11
1.203771562772811
 21
0.2902950591455122
 72
     2
 10
1.214552849813946
 20
0.2902948416431456
 40
0.0107812870433294
 50
179.9988441113203
 51
269.9988441346395
 73
     1
 72
     1
 10
1.214552632315967
 20
0.2795135546020104
 11
1.323606134809704
 21
0.2795135546020104
 72
     1
 10
1.323606134809704
 20
0.2795135546020104
 11
1.280867956889135
 21
0.311873265117333
 72
     1
 10
1.280867956889135
 20
0.311873265117333
 11
1.293884009142384
 21
0.3290635557226322
 72
     1
 10
1.293884009142384
 20
0.3290635557226322
 11
1.330521045577125
 21
0.3013240413506308
 72
     1
 10
1.330521045577125
 20
0.3013240413506308
 11
1.330521045577125
 21
0.3542324377902786
 72
     2
 10
1.319739809158772
 20
0.3542324359152127
 40
0.0107812364183532
 50
0.0000099648460607
 51
90.00000996484372
 73
     1
 72
     1
 10
1.319739807283706
 20
0.3650136723335662
 11
1.214552632315967
 21
0.3650136723335662
 97
        0
 75
     0
 76
     1
 98
        1
 10
-7.279586802153931
 20
-0.4081141432880261
  0
HATCH
  5
843
330
841
100
AcDbEntity
  8
TITLEBLOCK
 62
     0
100
AcDbHatch
 10
0.0
 20
0.0
 30
0.0
210
0.0
220
0.0
230
1.0
  2
SOLID
 70
     1
 71
     0
 91
        1
 92
        1
 93
        4
 72
     1
 10
3.703333445713536
 20
0.1990762889281312
 11
1.018147379006204
 21
0.1990762889281312
 72
     1
 10
1.018147379006204
 20
0.1990762889281312
 11
1.018147379006204
 21
0.220706173683743
 72
     1
 10
1.018147379006204
 20
0.220706173683743
 11
3.703333445713536
 21
0.220706173683743
 72
     1
 10
3.703333445713536
 20
0.220706173683743
 11
3.703333445713536
 21
0.1990762889281312
 97
        0
 75
     0
 76
     1
 98
        1
 10
-7.279586802153931
 20
-0.4081141432880261
  0
HATCH
  5
844
330
841
100
AcDbEntity
  8
TITLEBLOCK
 62
     0
100
AcDbHatch
 10
0.0
 20
0.0
 30
0.0
210
0.0
220
0.0
230
1.0
  2
SOLID
 70
     1
 71
     0
 91
        4
 92
        1
 93
        4
 72
     1
 10
0.8306472632318495
 20
0.4814782717956759
 11
0.4556470182475714
 21
0.4814782717956759
 72
     1
 10
0.4556470182475714
 20
0.4814782717956759
 11
0.4556470182475714
 21
0.1064783844396073
 72
     1
 10
0.4556470182475714
 20
0.1064783844396073
 11
0.8306472632318495
 21
0.1064783844396073
 72
     1
 10
0.8306472632318495
 20
0.1064783844396073
 11
0.8306472632318495
 21
0.4814782717956759
 97
        0
 92
        0
 93
       10
 72
     1
 10
0.7368972019857374
 20
0.4177282462416896
 11
0.5193971779121789
 21
0.4177282462416896
 72
     1
 10
0.5193971779121789
 20
0.4177282462416896
 11
0.5193971779121789
 21
0.37460312508514
 72
     1
 10
0.5193971779121789
 20
0.37460312508514
 11
0.5531473465883146
 21
0.37460312508514
 72
     1
 10
0.5531473465883146
 20
0.37460312508514
 11
0.5531473465883146
 21
0.2133535311501431
 72
     1
 10
0.5531473465883146
 20
0.2133535311501431
 11
0.5193971779121789
 21
0.2133535311501431
 72
     1
 10
0.5193971779121789
 20
0.2133535311501431
 11
0.5193971779121789
 21
0.1702282758831428
 72
     1
 10
0.5193971779121789
 20
0.1702282758831428
 11
0.7368972019857374
 21
0.1702282758831428
 72
     1
 10
0.7368972019857374
 20
0.1702282758831428
 11
0.7668970141602749
 21
0.2002283115750982
 72
     1
 10
0.7668970141602749
 20
0.2002283115750982
 11
0.7668970141602749
 21
0.3877281658462506
 72
     1
 10
0.7668970141602749
 20
0.3877281658462506
 11
0.7368972019857374
 21
0.4177282462416896
 97
        0
 92
       16
 93
        4
 72
     1
 10
0.7987720492890098
 20
0.4496031025563197
 11
0.4875220533764768
 21
0.4496031025563197
 72
     1
 10
0.4875220533764768
 20
0.4496031025563197
 11
0.4875220533764768
 21
0.1383533301613751
 72
     1
 10
0.4875220533764768
 20
0.1383533301613751
 11
0.7987720492890098
 21
0.1383533301613751
 72
     1
 10
0.7987720492890098
 20
0.1383533301613751
 11
0.7987720492890098
 21
0.4496031025563197
 97
        0
 92
        0
 93
        4
 72
     1
 10
0.5962724677448641
 20
0.37460312508514
 11
0.5962724677448641
 21
0.2133535311501431
 72
     1
 10
0.5962724677448641
 20
0.2133535311501431
 11
0.7237719824106926
 21
0.2133535311501431
 72
     1
 10
0.7237719824106926
 20
0.2133535311501431
 11
0.7237719824106926
 21
0.37460312508514
 72
     1
 10
0.7237719824106926
 20
0.37460312508514
 11
0.5962724677448641
 21
0.37460312508514
 97
        0
 75
     0
 76
     1
 98
        1
 10
-7.279586802153931
 20
-0.313212194787444
  0
HATCH
  5
845
330
841
100
AcDbEntity
  8
TITLEBLOCK
 62
     0
100
AcDbHatch
 10
0.0
 20
0.0
 30
0.0
210
0.0
220
0.0
230
1.0
  2
SOLID
 70
     1
 71
     0
 91
        1
 92
        1
 93
       26
 72
     1
 10
1.050490193885575
 20
0.3650136723335662
 11
1.138990457951802
 21
0.3650136723335662
 72
     2
 10
1.138990281703138
 20
0.3542326140418093
 40
0.0107810582931976
 50
270.0009366709926
 51
360.0009366862294
 73
     0
 72
     1
 10
1.149771339994895
 20
0.3542324377902786
 11
1.171333797831589
 21
0.3542324377902786
 72
     1
 10
1.171333797831589
 20
0.3542324377902786
 11
1.171333797831589
 21
0.3650136723335662
 72
     2
 10
1.149771243432702
 20
0.365013768896207
 40
0.0215625543991033
 50
359.9997434148255
 51
449.9997434160159
 73
     1
 72
     1
 10
1.149771339994895
 20
0.3865763232950938
 11
1.039708786842066
 21
0.3865763232950938
 72
     2
 10
1.039709408398413
 20
0.3650142939052909
 40
0.0215620293987615
 50
90.00165163282177
 51
180.0014125206716
 73
     1
 72
     1
 10
1.018147379006204
 20
0.3650137623336376
 11
1.018147379006204
 21
0.3334199129435318
 72
     2
 10
1.039709363397143
 20
0.3334193363730153
 40
0.0215619843986475
 50
179.9984679027414
 51
269.9984679437668
 73
     1
 72
     1
 10
1.039708786842066
 20
0.3118573519820755
 11
1.138990457951802
 21
0.311857620107139
 72
     2
 10
1.138990280765661
 20
0.3010765608779043
 40
0.0107810592306907
 50
270.0009416531222
 51
360.0009416684906
 73
     0
 72
     1
 10
1.149771339994895
 20
0.3010763836888712
 11
1.149771508744986
 21
0.2902949691454408
 72
     2
 10
1.138990231076649
 20
0.2902948322713164
 40
0.0107812776692067
 50
359.9992725992319
 51
449.9997907459082
 73
     0
 72
     1
 10
1.138990270451738
 20
0.279513554602181
 11
1.050490193885575
 21
0.2795135546020104
 72
     2
 10
1.05049014888543
 20
0.2902951041454384
 40
0.0107815495435218
 50
89.99976085826782
 51
179.9997608594354
 73
     0
 72
     1
 10
1.039708599342002
 20
0.2902950591455122
 11
1.018147379006204
 21
0.2902950591455122
 72
     1
 10
1.018147379006204
 20
0.2902950591455122
 11
1.018147379006204
 21
0.2795138227272444
 72
     2
 10
1.039709273392517
 20
0.2795130680345569
 40
0.0215618943995203
 50
179.9979945776083
 51
269.9987071039827
 73
     1
 72
     1
 10
1.039708786842066
 20
0.2579511736405264
 11
1.149771339994895
 21
0.2579511736405264
 72
     2
 10
1.149771378432784
 20
0.2795135930396681
 40
0.0215624193991759
 50
269.9998978626289
 51
359.9996636967671
 73
     1
 72
     1
 10
1.171333797831589
 20
0.2795134664769192
 11
1.171333797831589
 21
0.3114825579869829
 72
     2
 10
1.149771333432362
 20
0.3114825645494808
 40
0.0215624643992288
 50
359.9999825621309
 51
449.9999825620359
 73
     1
 72
     1
 10
1.149771339994895
 20
0.3330450289487088
 11
1.050490193885575
 21
0.3330447608234748
 72
     2
 10
1.050490103885701
 20
0.3438262653667981
 40
0.0107815045436989
 50
89.99952171675776
 51
179.9999900368059
 73
     0
 72
     1
 10
1.039708599342002
 20
0.3438262634919964
 11
1.039708786842066
 21
0.3542325259151993
 72
     2
 10
1.050490107634269
 20
0.3542323515402983
 40
0.0107813207936133
 50
180.0009266903443
 51
270.0004583701697
 73
     0
 97
        0
 75
     0
 76
     1
 98
        1
 10
-7.279586802153931
 20
-0.4081141432880261
  0
HATCH
  5
846
330
841
100
AcDbEntity
  8
TITLEBLOCK
 62
     0
100
AcDbHatch
 10
0.0
 20
0.0
 30
0.0
210
0.0
220
0.0
230
1.0
  2
SOLID
 70
     1
 71
     0
 91
        1
 92
        1
 93
       18
 72
     2
 10
2.471082802883087
 20
0.3650137595211706
 40
0.021562563774099
 50
180.0000074732525
 51
269.9997683261728
 73
     0
 72
     1
 10
2.471082715695484
 20
0.3865763232950938
 11
2.586957622645552
 21
0.3865763232950938
 72
     2
 10
2.586957713583391
 20
0.3650135813961111
 40
0.0215627418991744
 50
269.9997583630888
 51
359.999758364108
 73
     0
 72
     1
 10
2.608520455482373
 20
0.3650136723335662
 11
2.608520455482373
 21
0.3542324377902786
 72
     1
 10
2.608520455482373
 20
0.3542324377902786
 11
2.586957622645552
 21
0.3542324377902786
 72
     2
 10
2.576176208103625
 20
0.3542322577916381
 40
0.0107814145434302
 50
0.0009565685814303
 51
90.00095658455173
 73
     1
 72
     1
 10
2.576176028101979
 20
0.3650136723335662
 11
2.481864141488966
 21
0.3650136723335662
 72
     2
 10
2.481864045863444
 20
0.3542323421656055
 40
0.0107813301683848
 50
89.99949181235312
 51
179.9994918168631
 73
     1
 72
     1
 10
2.471082715695484
 20
0.3542324377902786
 11
2.471082715695484
 21
0.2902950591455122
 72
     2
 10
2.481864090863785
 20
0.2902951097704553
 40
0.0107813751684203
 50
180.0002690376259
 51
270.0002690388874
 73
     1
 72
     1
 10
2.481864141488966
 20
0.2795137346021532
 11
2.576176028101979
 21
0.2795135546020104
 72
     2
 10
2.576176073102679
 20
0.2902951041456356
 40
0.010781549543719
 50
269.9997608553225
 51
359.9992825760937
 73
     1
 72
     1
 10
2.586957622645552
 20
0.2902949691454408
 11
2.608520455482373
 21
0.2902950591455122
 72
     1
 10
2.608520455482373
 20
0.2902950591455122
 11
2.608520099232048
 21
0.2795134664769192
 72
     2
 10
2.586957670458414
 20
0.2795136024145366
 40
0.0215624287740632
 50
0.0003612140281018
 51
90.00012704854281
 73
     0
 72
     1
 10
2.586957622645552
 20
0.2579511736405264
 11
2.471082715695484
 21
0.2579511736405264
 72
     2
 10
2.471082667882924
 20
0.2795136024144634
 40
0.02156242877399
 50
89.99987295225965
 51
179.9998729525419
 73
     0
 72
     1
 10
2.449520239108988
 20
0.2795135546020104
 11
2.449520239108988
 21
0.3650137623336376
 97
        0
 75
     0
 76
     1
 98
        1
 10
-7.279586802153931
 20
-0.4081141432880261
  0
HATCH
  5
847
330
841
100
AcDbEntity
  8
TITLEBLOCK
 62
     0
100
AcDbHatch
 10
0.0
 20
0.0
 30
0.0
210
0.0
220
0.0
230
1.0
  2
SOLID
 70
     1
 71
     0
 91
        1
 92
        1
 93
       12
 72
     1
 10
2.026708344139745
 20
0.3865765014202565
 11
1.890208311215626
 21
0.3865765014202565
 72
     1
 10
1.890208311215626
 20
0.3865765014202565
 11
1.890208311215626
 21
0.2579511736405264
 72
     1
 10
1.890208311215626
 20
0.2579511736405264
 11
2.026708344139745
 21
0.2579511736405264
 72
     1
 10
2.026708344139745
 20
0.2579511736405264
 11
2.026708344139745
 21
0.2795135546020104
 72
     1
 10
2.026708344139745
 20
0.2795135546020104
 11
1.911770600302059
 21
0.2795135546020104
 72
     1
 10
1.911770600302059
 20
0.2795135546020104
 11
1.911770600302059
 21
0.3114825579869829
 72
     1
 10
1.911770600302059
 20
0.3114825579869829
 11
2.026708344139745
 21
0.3114825579869829
 72
     1
 10
2.026708344139745
 20
0.3114825579869829
 11
2.026708344139745
 21
0.333044848948566
 72
     1
 10
2.026708344139745
 20
0.333044848948566
 11
1.911770600302059
 21
0.333044848948566
 72
     1
 10
1.911770600302059
 20
0.333044848948566
 11
1.911770600302059
 21
0.3650136723335662
 72
     1
 10
1.911770600302059
 20
0.3650136723335662
 11
2.026708344139745
 21
0.3650136723335662
 72
     1
 10
2.026708344139745
 20
0.3650136723335662
 11
2.026708344139745
 21
0.3865765014202565
 97
        0
 75
     0
 76
     1
 98
        1
 10
-7.279586802153931
 20
-0.4081141432880261
  0
HATCH
  5
848
330
841
100
AcDbEntity
  8
TITLEBLOCK
 62
     0
100
AcDbHatch
 10
0.0
 20
0.0
 30
0.0
210
0.0
220
0.0
230
1.0
  2
SOLID
 70
     1
 71
     0
 91
        2
 92
        1
 93
        8
 72
     1
 10
1.614830743814064
 20
0.3865765014202565
 11
1.531145595393223
 21
0.2579509955155343
 72
     1
 10
1.531145595393223
 20
0.2579509955155343
 11
1.556870855949323
 21
0.2579511736405264
 72
     1
 10
1.556870855949323
 20
0.2579511736405264
 11
1.570898996363819
 21
0.2795135546020104
 72
     1
 10
1.570898996363819
 20
0.2795135546020104
 11
1.673830432358027
 21
0.2795135546020104
 72
     1
 10
1.673830432358027
 20
0.2795135546020104
 11
1.687858760272586
 21
0.2579514417655899
 72
     1
 10
1.687858760272586
 20
0.2579514417655899
 11
1.713583120827973
 21
0.2579514417655899
 72
     1
 10
1.713583120827973
 20
0.2579514417655899
 11
1.629898141157394
 21
0.3865765014202565
 72
     1
 10
1.629898141157394
 20
0.3865765014202565
 11
1.614830743814064
 21
0.3865765014202565
 97
        0
 92
       16
 93
        3
 72
     1
 10
1.622364536235675
 20
0.3586169575295115
 11
1.659801223192726
 21
0.3010763836888712
 72
     1
 10
1.659801223192726
 20
0.3010763836888712
 11
1.584928205528949
 21
0.3010762055637086
 72
     1
 10
1.584928205528949
 20
0.3010762055637086
 11
1.622364348735612
 21
0.3586165994043766
 97
        0
 75
     0
 76
     1
 98
        1
 10
-7.279586802153931
 20
-0.4081141432880261
  0
HATCH
  5
849
330
841
100
AcDbEntity
  8
TITLEBLOCK
 62
     0
100
AcDbHatch
 10
0.0
 20
0.0
 30
0.0
210
0.0
220
0.0
230
1.0
  2
SOLID
 70
     1
 71
     0
 91
        1
 92
        1
 93
       12
 72
     1
 10
1.392021104504447
 20
0.3865765014202565
 11
1.370458815418015
 21
0.3865765014202565
 72
     1
 10
1.370458815418015
 20
0.3865765014202565
 11
1.370458627917951
 21
0.2795138227272444
 72
     2
 10
1.39202114575308
 20
0.2795135133528436
 40
0.0215625178373483
 50
179.999177932392
 51
269.9998903944058
 73
     1
 72
     1
 10
1.392021104504447
 20
0.2579509955155343
 11
1.509583287556818
 21
0.2579511736405264
 72
     2
 10
1.509583335369764
 20
0.2795136024146219
 40
0.0215624287741484
 50
269.9998729512306
 51
359.9996387857453
 73
     1
 72
     1
 10
1.531145764143484
 20
0.2795134664769192
 11
1.531146120393639
 21
0.3865765014202565
 72
     1
 10
1.531146120393639
 20
0.3865765014202565
 11
1.509583287556818
 21
0.3865765014202565
 72
     1
 10
1.509583287556818
 20
0.3865765014202565
 11
1.509583287556818
 21
0.2902950591455122
 72
     2
 10
1.498801916139266
 20
0.290294926019563
 40
0.0107813714183743
 50
359.9992925246018
 51
449.9992925333428
 73
     0
 72
     1
 10
1.49880204926357
 20
0.2795135546020104
 11
1.402802342797695
 21
0.2795135546020104
 72
     2
 10
1.402802382172719
 20
0.2902950197703451
 40
0.0107814651684066
 50
90.00020925010334
 51
180.0002092508632
 73
     0
 72
     1
 10
1.392020917004384
 20
0.2902950591455122
 11
1.392021104504447
 21
0.3865765014202565
 97
        0
 75
     0
 76
     1
 98
        1
 10
-7.279586802153931
 20
-0.4081141432880261
  0
HATCH
  5
84A
330
841
100
AcDbEntity
  8
TITLEBLOCK
 62
     0
100
AcDbHatch
 10
0.0
 20
0.0
 30
0.0
210
0.0
220
0.0
230
1.0
  2
SOLID
 70
     1
 71
     0
 91
        2
 92
        1
 93
       13
 72
     2
 10
1.851958289039648
 20
0.2899198104641797
 40
0.0215625675244637
 50
0.0002565813902296
 51
90.00070498518821
 73
     1
 72
     2
 10
1.851958289040149
 20
0.3330449455099156
 40
0.0215625675245372
 50
269.9992950134807
 51
359.9995092535441
 73
     1
 72
     1
 10
1.873520856563896
 20
0.3330447608234748
 11
1.873520856563896
 21
0.3650136657708798
 72
     2
 10
1.851957894958188
 20
0.3650135398162329
 40
0.0215629616060761
 50
0.0003346789653151
 51
89.99920945081219
 73
     1
 72
     1
 10
1.851958192477166
 20
0.3865765014202565
 11
1.720333350237904
 21
0.3865765014202565
 72
     1
 10
1.720333350237904
 20
0.3865765014202565
 11
1.720333350237904
 21
0.2579511736405264
 72
     1
 10
1.720333350237904
 20
0.2579511736405264
 11
1.741896183074725
 21
0.2579511736405264
 72
     1
 10
1.741896183074725
 20
0.2579511736405264
 11
1.741896183074725
 21
0.3007013215688856
 72
     1
 10
1.741896183074725
 20
0.3007013215688856
 11
1.841176785433827
 21
0.3007013215688856
 72
     2
 10
1.841176693559081
 20
0.2899201789011263
 40
0.0107811426681508
 50
270.0004882631974
 51
360.0004882673548
 73
     0
 72
     1
 10
1.851957836226841
 20
0.289920087025598
 11
1.851958192477166
 21
0.2579511736405264
 72
     1
 10
1.851958192477166
 20
0.2579511736405264
 11
1.873520856563896
 21
0.2579511736405264
 72
     1
 10
1.873520856563896
 20
0.2579511736405264
 11
1.873520856563896
 21
0.2899199070254552
 97
        0
 92
       16
 93
        6
 72
     2
 10
1.841176693559081
 20
0.3542325296658069
 40
0.0107811426681508
 50
270.0004882631974
 51
360.0004882673548
 73
     0
 72
     1
 10
1.851957836226841
 20
0.3542324377902786
 11
1.851958192477166
 21
0.333044848948566
 72
     2
 10
1.841176871684197
 20
0.333044935198247
 40
0.0107813207933138
 50
0.0004583615308307
 51
90.00045836519477
 73
     0
 72
     1
 10
1.841176785433827
 20
0.3222636144052784
 11
1.741896183074725
 21
0.3222638825303419
 72
     1
 10
1.741896183074725
 20
0.3222638825303419
 11
1.741896183074725
 21
0.3650136723335662
 72
     1
 10
1.741896183074725
 20
0.3650136723335662
 11
1.841176785433827
 21
0.3650136723335662
 97
        0
 75
     0
 76
     1
 98
        1
 10
-7.279586802153931
 20
-0.4081141432880261
  0
HATCH
  5
84B
330
841
100
AcDbEntity
  8
TITLEBLOCK
 62
     0
100
AcDbHatch
 10
0.0
 20
0.0
 30
0.0
210
0.0
220
0.0
230
1.0
  2
SOLID
 70
     1
 71
     0
 91
        2
 92
        1
 93
       10
 72
     1
 10
2.168832611988261
 20
0.3650136723335662
 11
2.168832611988261
 21
0.2795135546021492
 72
     1
 10
2.168832611988261
 20
0.2795135546021492
 11
2.148020079641632
 21
0.2795135546021492
 72
     1
 10
2.148020079641632
 20
0.2795135546021492
 11
2.148020079641632
 21
0.2579511736406499
 72
     1
 10
2.148020079641632
 20
0.2579511736406499
 11
2.314895263659607
 21
0.2579511736406499
 72
     2
 10
2.314895311472477
 20
0.2795136024147182
 40
0.0215624287741214
 50
269.9998729514336
 51
359.9996387859474
 73
     1
 72
     1
 10
2.336457740246171
 20
0.2795134664770916
 11
2.336457740246171
 21
0.3650136723335662
 72
     2
 10
2.314895087410214
 20
0.3650138485844006
 40
0.0215626528366775
 50
359.9995316703829
 51
449.999531674211
 73
     1
 72
     1
 10
2.314895263659607
 20
0.386576501420358
 11
2.148020079641632
 21
0.386576501420358
 72
     1
 10
2.148020079641632
 20
0.386576501420358
 11
2.148020079641632
 21
0.3650136723335662
 72
     1
 10
2.148020079641632
 20
0.3650136723335662
 11
2.168832611988261
 21
0.3650136723335662
 97
        0
 92
       16
 93
        6
 72
     1
 10
2.190395257324933
 20
0.3650136723335662
 11
2.304113856616218
 21
0.3650136723335662
 72
     2
 10
2.304113942866619
 20
0.3542323515405775
 40
0.0107813207933337
 50
269.9995416346447
 51
359.9995416383139
 73
     0
 72
     1
 10
2.314895263659607
 20
0.3542324377902877
 11
2.314895263659607
 21
0.2902949691455452
 72
     2
 10
2.304113807866077
 20
0.2902950103956483
 40
0.0107814557936096
 50
0.0002192149982456
 51
89.99974092762393
 73
     0
 72
     1
 10
2.304113856616218
 20
0.2795135546021492
 11
2.190395257324933
 21
0.2795135546021492
 72
     1
 10
2.190395257324933
 20
0.2795135546021492
 11
2.190395257324933
 21
0.3650136723335662
 97
        0
 75
     0
 76
     1
 98
        1
 10
-7.279586802153931
 20
-0.4081141432880261
  0
HATCH
  5
84C
330
841
100
AcDbEntity
  8
TITLEBLOCK
 62
     0
100
AcDbHatch
 10
0.0
 20
0.0
 30
0.0
210
0.0
220
0.0
230
1.0
  2
SOLID
 70
     1
 71
     0
 91
        2
 92
        1
 93
        8
 72
     1
 10
3.241392303571654
 20
0.3865765014202565
 11
3.157707226761072
 21
0.2579509955155343
 72
     1
 10
3.157707226761072
 20
0.2579509955155343
 11
3.183432299816939
 21
0.2579511736405264
 72
     1
 10
3.183432299816939
 20
0.2579511736405264
 11
3.197460983981823
 21
0.2795133764768478
 72
     1
 10
3.197460983981823
 20
0.2795133764768478
 11
3.30039082622498
 21
0.2795135546020104
 72
     1
 10
3.30039082622498
 20
0.2795135546020104
 11
3.314419679139785
 21
0.2579514417655899
 72
     1
 10
3.314419679139785
 20
0.2579514417655899
 11
3.340144583445731
 21
0.2579511736405264
 72
     1
 10
3.340144583445731
 20
0.2579511736405264
 11
3.256459603774981
 21
0.3865765014202565
 72
     1
 10
3.256459603774981
 20
0.3865765014202565
 11
3.241392303571654
 21
0.3865765014202565
 97
        0
 92
       16
 93
        3
 72
     1
 10
3.248925740352245
 20
0.358616778466603
 11
3.211489480646473
 21
0.3010762055637086
 72
     1
 10
3.211489480646473
 20
0.3010762055637086
 11
3.28636178580994
 21
0.3010763836888712
 72
     1
 10
3.28636178580994
 20
0.3010763836888712
 11
3.248925740352245
 21
0.358616778466603
 97
        0
 75
     0
 76
     1
 98
        1
 10
-7.279586802153931
 20
-0.4081141432880261
  0
HATCH
  5
84D
330
841
100
AcDbEntity
  8
TITLEBLOCK
 62
     0
100
AcDbHatch
 10
0.0
 20
0.0
 30
0.0
210
0.0
220
0.0
230
1.0
  2
SOLID
 70
     1
 71
     0
 91
        1
 92
        1
 93
       13
 72
     1
 10
2.838488736968525
 20
0.3865765014202565
 11
2.806145209588674
 21
0.3865765014202565
 72
     1
 10
2.806145209588674
 20
0.3865765014202565
 11
2.806145209588674
 21
0.2579511736405264
 72
     1
 10
2.806145209588674
 20
0.2579511736405264
 11
2.827707667425368
 21
0.2579511736405264
 72
     1
 10
2.827707667425368
 20
0.2579511736405264
 11
2.827707667425368
 21
0.3640633654626753
 72
     1
 10
2.827707667425368
 20
0.3640633654626753
 11
2.899718420719221
 21
0.2579514417655899
 72
     1
 10
2.899718420719221
 20
0.2579514417655899
 11
2.922570860648686
 21
0.2579511736405264
 72
     1
 10
2.922570860648686
 20
0.2579511736405264
 11
2.994582138942956
 21
0.3640642598382782
 72
     1
 10
2.994582138942956
 20
0.3640642598382782
 11
2.994582138942956
 21
0.2579511736405264
 72
     1
 10
2.994582138942956
 20
0.2579511736405264
 11
3.016144596779479
 21
0.2579511736405264
 72
     1
 10
3.016144596779479
 20
0.2579511736405264
 11
3.016144596779479
 21
0.3865765014202565
 72
     1
 10
3.016144596779479
 20
0.3865765014202565
 11
2.983801425649954
 21
0.3865765014202565
 72
     1
 10
2.983801425649954
 20
0.3865765014202565
 11
2.911144640683954
 21
0.2795135546020104
 72
     1
 10
2.911144640683954
 20
0.2795135546020104
 11
2.838488380718199
 21
0.3865765014202565
 97
        0
 75
     0
 76
     1
 98
        1
 10
-7.279586802153931
 20
-0.4081141432880261
  0
HATCH
  5
84E
330
841
100
AcDbEntity
  8
TITLEBLOCK
 62
     0
100
AcDbHatch
 10
0.0
 20
0.0
 30
0.0
210
0.0
220
0.0
230
1.0
  2
SOLID
 70
     1
 71
     0
 91
        2
 92
        1
 93
        8
 72
     1
 10
2.79358243888161
 20
0.2795134664769192
 11
2.793582795131936
 21
0.3650136723335662
 72
     2
 10
2.772020240733041
 20
0.3650137688961994
 40
0.0215625543991104
 50
359.9997434148459
 51
449.999743415997
 73
     1
 72
     1
 10
2.772020337295241
 20
0.3865763232950938
 11
2.640957676673206
 21
0.3865763232950938
 72
     2
 10
2.640957763860811
 20
0.3650137595211699
 40
0.0215625637741002
 50
90.00023167383188
 51
179.9999925267453
 73
     1
 72
     1
 10
2.61939520008671
 20
0.3650137623336376
 11
2.61939520008671
 21
0.2795135546020104
 72
     2
 10
2.640957628860649
 20
0.2795136024144641
 40
0.0215624287739915
 50
180.0001270474597
 51
270.0001270477355
 73
     1
 72
     1
 10
2.640957676673206
 20
0.2579511736405264
 11
2.772020337295241
 21
0.2579511736405264
 72
     2
 10
2.772020197607671
 20
0.2795134149140743
 40
0.0215622412740004
 50
270.000371181646
 51
360.000137014207
 73
     1
 97
        0
 92
       16
 93
        8
 72
     2
 10
2.651738913091431
 20
0.3542324359149649
 40
0.0107812364186015
 50
89.9999900344766
 51
179.999521702949
 73
     1
 72
     1
 10
2.640957676673206
 20
0.3542325259151993
 11
2.640957676673206
 21
0.2902950591455122
 72
     2
 10
2.651738958091508
 20
0.2902950160204556
 40
0.010781281418388
 50
179.9997708172488
 51
269.9997708181704
 73
     1
 72
     1
 10
2.651738914966625
 20
0.2795137346021532
 11
2.761238742751839
 21
0.2795135546020104
 72
     2
 10
2.761238956501978
 20
0.2902951041442614
 40
0.0107815495443698
 50
269.9988640797126
 51
359.9992825833961
 73
     1
 72
     1
 10
2.772020506045503
 20
0.2902949691454408
 11
2.772020337295241
 21
0.3542324377902786
 72
     2
 10
2.761239007127366
 20
0.3542323421656908
 40
0.0107813301682991
 50
0.0005081826837109
 51
90.00050818719378
 73
     1
 72
     1
 10
2.76123891150193
 20
0.3650136723335662
 11
2.651738914966625
 21
0.3650136723335662
 97
        0
 75
     0
 76
     1
 98
        1
 10
-7.279586802153931
 20
-0.4081141432880261
  0
HATCH
  5
84F
330
841
100
AcDbEntity
  8
TITLEBLOCK
 62
     0
100
AcDbHatch
 10
0.0
 20
0.0
 30
0.0
210
0.0
220
0.0
230
1.0
  2
SOLID
 70
     1
 71
     0
 91
        2
 92
        1
 93
        8
 72
     2
 10
3.162769048174736
 20
0.3650134554401196
 40
0.0215630459811904
 50
270.0005663490367
 51
359.9994236862867
 73
     0
 72
     1
 10
3.184332094154836
 20
0.3650136723335662
 11
3.184332094154836
 21
0.3222638825303419
 72
     2
 10
3.162769397256125
 20
0.3222640184675962
 40
0.0215626968991391
 50
0.0003612085718475
 51
90.00036121084693
 73
     0
 72
     1
 10
3.162769261318015
 20
0.3007013215688856
 11
3.052707420665665
 21
0.3007013215688856
 72
     1
 10
3.052707420665665
 20
0.3007013215688856
 11
3.052707420665665
 21
0.2579511736405264
 72
     1
 10
3.052707420665665
 20
0.2579511736405264
 11
3.031144250328662
 21
0.2579511736405264
 72
     1
 10
3.031144250328662
 20
0.2579511736405264
 11
3.031144250328662
 21
0.3865765014202565
 72
     1
 10
3.031144250328662
 20
0.3865765014202565
 11
3.162769261318015
 21
0.3865765014202565
 97
        0
 92
       16
 93
        6
 72
     2
 10
3.151988118650169
 20
0.3542325296657216
 40
0.0107811426682361
 50
270.0004882627443
 51
360.0004882669015
 73
     0
 72
     1
 10
3.162769261318015
 20
0.3542324377902786
 11
3.162769261318015
 21
0.333044848948566
 72
     2
 10
3.151988118650169
 20
0.333044757073123
 40
0.0107811426682367
 50
359.9995117330984
 51
449.9995117372556
 73
     0
 72
     1
 10
3.15198821052483
 20
0.3222636144052784
 11
3.052707420665665
 21
0.3222638825303419
 72
     1
 10
3.052707420665665
 20
0.3222638825303419
 11
3.052707420665665
 21
0.3650136723335662
 72
     1
 10
3.052707420665665
 20
0.3650136723335662
 11
3.15198821052483
 21
0.3650136723335662
 97
        0
 75
     0
 76
     1
 98
        1
 10
-7.279586802153931
 20
-0.4081141432880261
  0
HATCH
  5
850
330
841
100
AcDbEntity
  8
TITLEBLOCK
 62
     0
100
AcDbHatch
 10
0.0
 20
0.0
 30
0.0
210
0.0
220
0.0
230
1.0
  2
SOLID
 70
     1
 71
     0
 91
        1
 92
        1
 93
        9
 72
     1
 10
3.556847887515953
 20
0.3865763232950938
 11
3.525206566844968
 21
0.3865765014202565
 72
     1
 10
3.525206566844968
 20
0.3865765014202565
 11
3.60348814923547
 21
0.3136817019238036
 72
     1
 10
3.60348814923547
 20
0.3136817019238036
 11
3.603486349234383
 21
0.2579511736405264
 72
     1
 10
3.603486349234383
 20
0.2579511736405264
 11
3.625050607072164
 21
0.2579511736405264
 72
     1
 10
3.625050607072164
 20
0.2579511736405264
 11
3.625050607072164
 21
0.3136813437984982
 72
     1
 10
3.625050607072164
 20
0.3136813437984982
 11
3.703331833212512
 21
0.3865766795454191
 72
     1
 10
3.703331833212512
 20
0.3865766795454191
 11
3.671691225042007
 21
0.3865765014202565
 72
     1
 10
3.671691225042007
 20
0.3865765014202565
 11
3.61426955627898
 21
0.3331056458632473
 72
     1
 10
3.61426955627898
 20
0.3331056458632473
 11
3.556847887515953
 21
0.3865763232950938
 97
        0
 75
     0
 76
     1
 98
        1
 10
-7.279586802153931
 20
-0.4081141432880261
  0
HATCH
  5
851
330
841
100
AcDbEntity
  8
TITLEBLOCK
 62
     0
100
AcDbHatch
 10
0.0
 20
0.0
 30
0.0
210
0.0
220
0.0
230
1.0
  2
SOLID
 70
     1
 71
     0
 91
        1
 92
        1
 93
       10
 72
     1
 10
3.376247484495632
 20
0.3865765014202565
 11
3.345207161752892
 21
0.3865765014202565
 72
     1
 10
3.345207161752892
 20
0.3865765014202565
 11
3.345207161752892
 21
0.2579511736405264
 72
     1
 10
3.345207161752892
 20
0.2579511736405264
 11
3.366769638339558
 21
0.2579511736405264
 72
     1
 10
3.366769638339558
 20
0.2579511736405264
 11
3.366769638339558
 21
0.3659393041881229
 72
     1
 10
3.366769638339558
 20
0.3659393041881229
 11
3.48273627034943
 21
0.2579509955155343
 72
     1
 10
3.48273627034943
 20
0.2579509955155343
 11
3.515082122730785
 21
0.2579511736405264
 72
     1
 10
3.515082122730785
 20
0.2579511736405264
 11
3.515082122730785
 21
0.3865765014202565
 72
     1
 10
3.515082122730785
 20
0.3865765014202565
 11
3.49351767739277
 21
0.3865765014202565
 72
     1
 10
3.49351767739277
 20
0.3865765014202565
 11
3.49351767739277
 21
0.277374671329744
 72
     1
 10
3.49351767739277
 20
0.277374671329744
 11
3.376247484495632
 21
0.3865765014202565
 97
        0
 75
     0
 76
     1
 98
        1
 10
-7.279586802153931
 20
-0.4081141432880261
  0
ENDBLK
  5
853
330
841
100
AcDbEntity
  8
0
100
AcDbBlockEnd
  0
BLOCK
  5
AF5
330
AE5
100
AcDbEntity
  8
0
100
AcDbBlockBegin
  2
TITLE-PAD
 70
     2
 10
0.0
 20
0.0
 30
0.0
  3
TITLE-PAD
  1

  0
LWPOLYLINE
  5
B1D
330
AE5
100
AcDbEntity
  8
CONTINUOUS2
 62
     0
100
AcDbPolyline
 90
        7
 70
     1
 43
0.0
 10
16.40000099999999
 20
0.0
 10
16.40000099999999
 20
0.0
 10
16.40000099999999
 20
0.0
 10
8.002461
 20
0.0
 10
8.002461
 20
0.9120019999999993
 10
16.40000099999999
 20
0.9120019999999993
 10
16.40000099999999
 20
0.0
  0
INSERT
  5
B1E
330
AE5
100
AcDbEntity
  8
TITLEBLOCK
 62
     0
100
AcDbBlockReference
  2
LOGO-PAD
 10
12.245701
 20
0.3040000000000003
 30
0.0
  0
LINE
  5
B1F
330
AE5
100
AcDbEntity
  8
CONTINUOUS2
 62
     0
100
AcDbLine
 10
16.40000099999999
 20
0.3040000000000003
 30
0.0
 11
12.245701
 21
0.3040000000000003
 31
0.0
  0
LINE
  5
B20
330
AE5
100
AcDbEntity
  8
CONTINUOUS2
 62
     0
100
AcDbLine
 10
12.245701
 20
0.9120019999999993
 30
0.0
 11
12.245701
 21
0.0
 31
0.0
  0
TEXT
  5
B21
330
AE5
100
AcDbEntity
  8
TEXT1
  6
CONTINUOUS
 62
     0
100
AcDbText
 10
12.36897712113656
 20
0.0611566731182909
 30
0.0
 40
0.0699999951940822
  1
NO.
  7
ROMANS
 11
12.36897712113656
 21
0.096156670715332
 31
0.0
100
AcDbText
 73
     2
  0
TEXT
  5
B22
330
AE5
100
AcDbEntity
  8
TEXT1
  6
CONTINUOUS
 62
     0
100
AcDbText
 10
12.36897712113656
 20
0.1661566731182908
 30
0.0
 40
0.0699999951940822
  1
DWG#
  7
ROMANS
 11
12.36897712113656
 21
0.2011566707153319
 31
0.0
100
AcDbText
 73
     2
  0
ATTDEF
  5
B23
330
AE5
100
AcDbEntity
  8
TEXT1
 62
     0
100
AcDbText
 10
10.10183834893798
 20
0.7474460884590166
 30
0.0
 40
0.1
  1

  7
ROMANS
 72
     4
 11
10.10183834893798
 21
0.7474460884590166
 31
0.0
100
AcDbAttributeDefinition
  3
DESCRIPTION 1
  2
DESCRIPTION 1
 70
     0
  0
ATTDEF
  5
B24
330
AE5
100
AcDbEntity
  8
TEXT1
 62
     0
100
AcDbText
 10
10.10183834893798
 20
0.6017231711406717
 30
0.0
 40
0.1
  1

  7
ROMANS
 72
     4
 11
10.10183834893798
 21
0.6017231711406717
 31
0.0
100
AcDbAttributeDefinition
  3
DESCRIPTION 2
  2
DESCRIPTION 2
 70
     0
  0
ATTDEF
  5
B25
330
AE5
100
AcDbEntity
  8
TEXT1
 62
     0
100
AcDbText
 10
10.10183834893798
 20
0.4560002538223267
 30
0.0
 40
0.08
  1

  7
ROMANS
 72
     4
 11
10.10183834893798
 21
0.4560002538223267
 31
0.0
100
AcDbAttributeDefinition
  3
DESCRIPTION 3
  2
DESCRIPTION 3
 70
     0
  0
ATTDEF
  5
B26
330
AE5
100
AcDbEntity
  8
TEXT1
 62
     0
100
AcDbText
 10
10.10183834893798
 20
0.3202773365039833
 30
0.0
 40
0.08
  1

  7
ROMANS
 72
     4
 11
10.10183834893798
 21
0.3202773365039833
 31
0.0
100
AcDbAttributeDefinition
  3
DESCRIPTION 4
  2
DESCRIPTION 4
 70
     0
  0
ATTDEF
  5
B27
330
AE5
100
AcDbEntity
  8
TEXT1
 62
     0
100
AcDbText
 10
10.10183834893798
 20
0.1845544191856399
 30
0.0
 40
0.08
  1

  7
ROMANS
 72
     4
 11
10.10183834893798
 21
0.1845544191856399
 31
0.0
100
AcDbAttributeDefinition
  3
DESCRIPTION 5
  2
DESCRIPTION 5
 70
     0
  0
ATTDEF
  5
B28
330
AE5
100
AcDbEntity
  8
TEXT1
 62
     0
100
AcDbText
 10
12.74772367103195
 20
0.096540546036505
 30
0.0
 40
0.12
  1

 41
0.9512024731840066
  7
M_STANDARD
 11
12.74772367103195
 21
0.156540546036505
 31
0.0
100
AcDbAttributeDefinition
  3
DRAWING NUMBER
  2
DWGNO
 70
     0
 74
     2
  0
ATTDEF
  5
B29
330
AE5
100
AcDbEntity
  8
TEXT1
 62
     0
100
AcDbText
 10
16.35506454949325
 20
-0.1507193079929352
 30
0.0
 40
0.08
  1

  7
ROMANS
 72
     2
 11
16.35506454949325
 21
-0.1107193079929352
 31
0.0
100
AcDbAttributeDefinition
  3
REF DWG #
  2
REF
 70
     0
 74
     2
  0
ATTDEF
  5
B2A
330
AE5
100
AcDbEntity
  8
TEXT1
 62
     0
100
AcDbText
 10
0.0266402374038712
 20
-0.1507193079929352
 30
0.0
 40
0.08
  1

  7
ROMANS
 11
0.0266402374038712
 21
-0.1107193079929352
 31
0.0
100
AcDbAttributeDefinition
  3
DATE MODIFIED
  2
DATE
 70
     0
 74
     2
  0
LWPOLYLINE
  5
B2B
330
AE5
100
AcDbEntity
  8
CONTINUOUS3
 62
     0
100
AcDbPolyline
 90
        4
 70
   129
 43
0.0
 10
0.0
 20
0.0
 10
16.40000099999999
 20
0.0
 10
16.40000099999999
 20
10.25
 10
0.0
 20
10.25
  0
ENDBLK
  5
AF6
330
AE5
100
AcDbEntity
  8
0
100
AcDbBlockEnd
  0
BLOCK
  5
61613
330
61611
100
AcDbEntity
  8
0
100
AcDbBlockBegin
  2
SEARROW
 70
     0
 10
0.0
 20
0.0
 30
0.0
  3
SEARROW
  1

  0
LWPOLYLINE
  5
61612
330
61611
100
AcDbEntity
  8
0
  6
BYBLOCK
100
AcDbPolyline
 90
        2
 70
     0
 10
0.0
 20
0.0
 40
0.0
 41
0.5000000001500001
 10
-1.000000000300019
 20
0.0
 40
0.5000000001500001
 41
0.5000000001500001
  0
ENDBLK
  5
61614
330
61611
100
AcDbEntity
  8
0
100
AcDbBlockEnd
  0
BLOCK
  5
6373F
330
6373D
100
AcDbEntity
  8
0
100
AcDbBlockBegin
  2
M_PFN_2
 70
     0
 10
0.0
 20
0.0
 30
0.0
  3
M_PFN_2
  1

  0
POINT
  5
6373E
330
6373D
100
AcDbEntity
  8
0
  6
BYBLOCK
 62
     0
100
AcDbPoint
 10
0.0
 20
0.0
 30
0.0
  0
ENDBLK
  5
63740
330
6373D
100
AcDbEntity
  8
0
100
AcDbBlockEnd
  0
BLOCK
  5
63AD0
330
63AC5
100
AcDbEntity
  8
0
100
AcDbBlockBegin
  2
*D4
 70
     1
 10
0.0
 20
0.0
 30
0.0
  3
*D4
  1

  0
LINE
  5
64D00
330
63AC5
100
AcDbEntity
  8
DIM
100
AcDbLine
 10
64.17448513003939
 20
45.41772059914601
 30
0.0
 11
64.17448513003939
 21
37.75747428047358
 31
0.0
  0
LINE
  5
64D01
330
63AC5
100
AcDbEntity
  8
DIM
100
AcDbLine
 10
72.92342388618857
 20
40.68945177533808
 30
0.0
 11
72.92342388618857
 21
37.75747428047358
 31
0.0
  0
LINE
  5
64D02
330
63AC5
100
AcDbEntity
  8
DIM
100
AcDbLine
 10
64.73448513003939
 20
38.25747428047359
 30
0.0
 11
66.32419260335208
 21
38.25747428047359
 31
0.0
  0
LINE
  5
64D03
330
63AC5
100
AcDbEntity
  8
DIM
100
AcDbLine
 10
72.36342388618857
 20
38.25747428047359
 30
0.0
 11
70.77371641287588
 21
38.25747428047359
 31
0.0
  0
INSERT
  5
64D04
330
63AC5
100
AcDbEntity
  8
DIM
100
AcDbBlockReference
  2
SEARROW
 10
64.17448513003939
 20
38.25747428047359
 30
0.0
 41
0.5600000000000001
 42
0.5600000000000001
 43
0.5600000000000001
 50
180.0
  0
INSERT
  5
64D05
330
63AC5
100
AcDbEntity
  8
DIM
100
AcDbBlockReference
  2
SEARROW
 10
72.92342388618857
 20
38.25747428047359
 30
0.0
 41
0.5600000000000001
 42
0.5600000000000001
 43
0.5600000000000001
  0
MTEXT
  5
64D06
330
63AC5
100
AcDbEntity
  8
DIM
100
AcDbMText
 10
68.54895450811397
 20
38.25747428047359
 30
0.0
 40
0.8
 41
0.0
 71
     5
 72
     1
  1
\A1;8.75\P [222]
  7
ROMANS
1001
ACAD
1000
MTEXTBEGIN
1070
    73
1070
     1
1070
    44
1040
1.0
1070
    74
1070
     0
1000
MTEXTEND
  0
POINT
  5
64D07
330
63AC5
100
AcDbEntity
  8
DEFPOINTS
 62
     0
100
AcDbPoint
 10
64.17448513003939
 20
45.91772059914601
 30
0.0
  0
POINT
  5
64D08
330
63AC5
100
AcDbEntity
  8
DEFPOINTS
 62
     0
100
AcDbPoint
 10
72.92342388618857
 20
41.18945177533809
 30
0.0
  0
POINT
  5
64D09
330
63AC5
100
AcDbEntity
  8
DEFPOINTS
 62
     0
100
AcDbPoint
 10
72.92342388618857
 20
38.25747428047359
 30
0.0
  0
ENDBLK
  5
63AD1
330
63AC5
100
AcDbEntity
  8
0
100
AcDbBlockEnd
  0
BLOCK
  5
63B07
330
63AFC
100
AcDbEntity
  8
0
100
AcDbBlockBegin
  2
*D5
 70
     1
 10
0.0
 20
0.0
 30
0.0
  3
*D5
  1

  0
LINE
  5
64D0A
330
63AFC
100
AcDbEntity
  8
DIM
100
AcDbLine
 10
18.44315861986945
 20
41.75424552912676
 30
0.0
 11
18.44315861986945
 21
37.75747428047358
 31
0.0
  0
LINE
  5
64D0B
330
63AFC
100
AcDbEntity
  8
DIM
100
AcDbLine
 10
37.07179398386946
 20
59.09360542770985
 30
0.0
 11
37.07179398386946
 21
37.75747428047358
 31
0.0
  0
LINE
  5
64D0C
330
63AFC
100
AcDbEntity
  8
DIM
100
AcDbLine
 10
19.00315861986945
 20
38.25747428047359
 30
0.0
 11
25.53271439710755
 21
38.25747428047359
 31
0.0
  0
LINE
  5
64D0D
330
63AFC
100
AcDbEntity
  8
DIM
100
AcDbLine
 10
36.51179398386946
 20
38.25747428047359
 30
0.0
 11
29.98223820663136
 21
38.25747428047359
 31
0.0
  0
INSERT
  5
64D0E
330
63AFC
100
AcDbEntity
  8
DIM
100
AcDbBlockReference
  2
SEARROW
 10
18.44315861986945
 20
38.25747428047359
 30
0.0
 41
0.5600000000000001
 42
0.5600000000000001
 43
0.5600000000000001
 50
180.0
  0
INSERT
  5
64D0F
330
63AFC
100
AcDbEntity
  8
DIM
100
AcDbBlockReference
  2
SEARROW
 10
37.07179398386946
 20
38.25747428047359
 30
0.0
 41
0.5600000000000001
 42
0.5600000000000001
 43
0.5600000000000001
  0
MTEXT
  5
64D10
330
63AFC
100
AcDbEntity
  8
DIM
100
AcDbMText
 10
27.75747630186946
 20
38.25747428047359
 30
0.0
 40
0.8
 41
0.0
 71
     5
 72
     1
  1
\A1;18.63\P [473]
  7
ROMANS
1001
ACAD
1000
MTEXTBEGIN
1070
    73
1070
     1
1070
    44
1040
1.0
1070
    74
1070
     0
1000
MTEXTEND
  0
POINT
  5
64D11
330
63AFC
100
AcDbEntity
  8
DEFPOINTS
 62
     0
100
AcDbPoint
 10
18.44315861986945
 20
42.25424552912676
 30
0.0
  0
POINT
  5
64D12
330
63AFC
100
AcDbEntity
  8
DEFPOINTS
 62
     0
100
AcDbPoint
 10
37.07179398386946
 20
59.59360542770985
 30
0.0
  0
POINT
  5
64D13
330
63AFC
100
AcDbEntity
  8
DEFPOINTS
 62
     0
100
AcDbPoint
 10
37.07179398386946
 20
38.25747428047359
 30
0.0
  0
ENDBLK
  5
63B08
330
63AFC
100
AcDbEntity
  8
0
100
AcDbBlockEnd
  0
BLOCK
  5
63B33
330
63B28
100
AcDbEntity
  8
0
100
AcDbBlockBegin
  2
*D6
 70
     1
 10
0.0
 20
0.0
 30
0.0
  3
*D6
  1

  0
LINE
  5
64D14
330
63B28
100
AcDbEntity
  8
DIM
100
AcDbLine
 10
17.94315861986945
 20
42.25424552912676
 30
0.0
 11
14.25233710805739
 21
42.25424552912676
 31
0.0
  0
LINE
  5
64D15
330
63B28
100
AcDbEntity
  8
DIM
100
AcDbLine
 10
17.94315861986947
 20
71.25424552912676
 30
0.0
 11
14.25233710805739
 21
71.25424552912676
 31
0.0
  0
LINE
  5
64D16
330
63B28
100
AcDbEntity
  8
DIM
100
AcDbLine
 10
14.75233710805738
 20
42.81424552912677
 30
0.0
 11
14.75233710805739
 21
55.15805505293628
 31
0.0
  0
LINE
  5
64D17
330
63B28
100
AcDbEntity
  8
DIM
100
AcDbLine
 10
14.75233710805739
 20
70.69424552912676
 30
0.0
 11
14.75233710805739
 21
58.35043600531724
 31
0.0
  0
INSERT
  5
64D18
330
63B28
100
AcDbEntity
  8
DIM
100
AcDbBlockReference
  2
SEARROW
 10
14.75233710805738
 20
42.25424552912676
 30
0.0
 41
0.5600000000000001
 42
0.5600000000000001
 43
0.5600000000000001
 50
270.0
  0
INSERT
  5
64D19
330
63B28
100
AcDbEntity
  8
DIM
100
AcDbBlockReference
  2
SEARROW
 10
14.75233710805739
 20
71.25424552912676
 30
0.0
 41
0.5600000000000001
 42
0.5600000000000001
 43
0.5600000000000001
 50
90.0
  0
MTEXT
  5
64D1A
330
63B28
100
AcDbEntity
  8
DIM
100
AcDbMText
 10
14.75233710805738
 20
56.75424552912677
 30
0.0
 40
0.8
 41
0.0
 71
     5
 72
     1
  1
\A1;29.00\P [737]
  7
ROMANS
1001
ACAD
1000
MTEXTBEGIN
1070
    73
1070
     1
1070
    44
1040
1.0
1070
    74
1070
     0
1000
MTEXTEND
  0
POINT
  5
64D1B
330
63B28
100
AcDbEntity
  8
DEFPOINTS
 62
     0
100
AcDbPoint
 10
18.44315861986945
 20
42.25424552912676
 30
0.0
  0
POINT
  5
64D1C
330
63B28
100
AcDbEntity
  8
DEFPOINTS
 62
     0
100
AcDbPoint
 10
18.44315861986947
 20
71.25424552912676
 30
0.0
  0
POINT
  5
64D1D
330
63B28
100
AcDbEntity
  8
DEFPOINTS
 62
     0
100
AcDbPoint
 10
14.75233710805739
 20
71.25424552912676
 30
0.0
  0
ENDBLK
  5
63B34
330
63B28
100
AcDbEntity
  8
0
100
AcDbBlockEnd
  0
BLOCK
  5
63B4B
330
63B40
100
AcDbEntity
  8
0
100
AcDbBlockBegin
  2
*D7
 70
     1
 10
0.0
 20
0.0
 30
0.0
  3
*D7
  1

  0
LINE
  5
64D1E
330
63B40
100
AcDbEntity
  8
DIM
100
AcDbLine
 10
17.94315861986945
 20
42.25424552912676
 30
0.0
 11
14.25233710805739
 21
42.25424552912676
 31
0.0
  0
LINE
  5
64D1F
330
63B40
100
AcDbEntity
  8
DIM
100
AcDbLine
 10
18.96580237261279
 20
41.25036335498665
 30
0.0
 11
14.25233710805739
 21
41.25036335498666
 31
0.0
  0
LINE
  5
64D20
330
63B40
100
AcDbEntity
  8
DIM
100
AcDbLine
 10
14.75233710805739
 20
42.81424552912677
 30
0.0
 11
14.75233710805739
 21
43.37424552912676
 31
0.0
  0
LINE
  5
64D21
330
63B40
100
AcDbEntity
  8
DIM
100
AcDbLine
 10
14.75233710805739
 20
40.69036335498666
 30
0.0
 11
14.75233710805739
 21
39.56900454760369
 31
0.0
  0
LINE
  5
64D22
330
63B40
100
AcDbEntity
  8
DIM
100
AcDbLine
 10
14.75233710805739
 20
39.56900454760369
 30
0.0
 11
14.19233710805739
 21
39.56900454760369
 31
0.0
  0
INSERT
  5
64D23
330
63B40
100
AcDbEntity
  8
DIM
100
AcDbBlockReference
  2
SEARROW
 10
14.75233710805739
 20
42.25424552912676
 30
0.0
 41
0.5600000000000001
 42
0.5600000000000001
 43
0.5600000000000001
 50
270.0
  0
INSERT
  5
64D24
330
63B40
100
AcDbEntity
  8
DIM
100
AcDbBlockReference
  2
SEARROW
 10
14.75233710805739
 20
41.25036335498666
 30
0.0
 41
0.5600000000000001
 42
0.5600000000000001
 43
0.5600000000000001
 50
90.0
  0
MTEXT
  5
64D25
330
63B40
100
AcDbEntity
  8
DIM
100
AcDbMText
 10
12.34852758424786
 20
39.56900454760369
 30
0.0
 40
0.8
 41
0.0
 71
     5
 72
     1
  1
\A1;1.00\P [26]
  7
ROMANS
1001
ACAD
1000
MTEXTBEGIN
1070
    73
1070
     1
1070
    44
1040
1.0
1070
    74
1070
     0
1000
MTEXTEND
  0
POINT
  5
64D26
330
63B40
100
AcDbEntity
  8
DEFPOINTS
 62
     0
100
AcDbPoint
 10
18.44315861986945
 20
42.25424552912676
 30
0.0
  0
POINT
  5
64D27
330
63B40
100
AcDbEntity
  8
DEFPOINTS
 62
     0
100
AcDbPoint
 10
19.46580237261279
 20
41.25036335498665
 30
0.0
  0
POINT
  5
64D28
330
63B40
100
AcDbEntity
  8
DEFPOINTS
 62
     0
100
AcDbPoint
 10
14.75233710805739
 20
41.25036335498666
 30
0.0
  0
ENDBLK
  5
63B4C
330
63B40
100
AcDbEntity
  8
0
100
AcDbBlockEnd
  0
BLOCK
  5
63B6F
330
63B64
100
AcDbEntity
  8
0
100
AcDbBlockBegin
  2
*D8
 70
     1
 10
0.0
 20
0.0
 30
0.0
  3
*D8
  1

  0
LINE
  5
64D29
330
63B64
100
AcDbEntity
  8
DIM
100
AcDbLine
 10
21.23685115672588
 20
42.06603782735943
 30
0.0
 11
8.525015707744948
 21
42.06603782735944
 31
0.0
  0
LINE
  5
64D2A
330
63B64
100
AcDbEntity
  8
DIM
100
AcDbLine
 10
21.02079168246127
 20
71.44245323089409
 30
0.0
 11
8.525015707744955
 21
71.44245323089409
 31
0.0
  0
LINE
  5
64D2B
330
63B64
100
AcDbEntity
  8
DIM
100
AcDbLine
 10
9.025015707744948
 20
42.62603782735944
 30
0.0
 11
9.025015707744952
 21
55.15805505293628
 31
0.0
  0
LINE
  5
64D2C
330
63B64
100
AcDbEntity
  8
DIM
100
AcDbLine
 10
9.025015707744955
 20
70.88245323089409
 30
0.0
 11
9.025015707744952
 21
58.35043600531724
 31
0.0
  0
INSERT
  5
64D2D
330
63B64
100
AcDbEntity
  8
DIM
100
AcDbBlockReference
  2
SEARROW
 10
9.025015707744948
 20
42.06603782735944
 30
0.0
 41
0.5600000000000001
 42
0.5600000000000001
 43
0.5600000000000001
 50
270.0
  0
INSERT
  5
64D2E
330
63B64
100
AcDbEntity
  8
DIM
100
AcDbBlockReference
  2
SEARROW
 10
9.025015707744955
 20
71.44245323089409
 30
0.0
 41
0.5600000000000001
 42
0.5600000000000001
 43
0.5600000000000001
 50
90.0
  0
MTEXT
  5
64D2F
330
63B64
100
AcDbEntity
  8
DIM
100
AcDbMText
 10
9.025015707744943
 20
56.75424552912677
 30
0.0
 40
0.8
 41
0.0
 71
     5
 72
     1
  1
\A1;29.38\P [746]
  7
ROMANS
1001
ACAD
1000
MTEXTBEGIN
1070
    73
1070
     1
1070
    44
1040
1.0
1070
    74
1070
     0
1000
MTEXTEND
  0
POINT
  5
64D30
330
63B64
100
AcDbEntity
  8
DEFPOINTS
 62
     0
100
AcDbPoint
 10
21.73685115672588
 20
42.06603782735943
 30
0.0
  0
POINT
  5
64D31
330
63B64
100
AcDbEntity
  8
DEFPOINTS
 62
     0
100
AcDbPoint
 10
21.52079168246126
 20
71.44245323089409
 30
0.0
  0
POINT
  5
64D32
330
63B64
100
AcDbEntity
  8
DEFPOINTS
 62
     0
100
AcDbPoint
 10
9.025015707744955
 20
71.44245323089409
 30
0.0
  0
ENDBLK
  5
63B70
330
63B64
100
AcDbEntity
  8
0
100
AcDbBlockEnd
  0
BLOCK
  5
63B87
330
63B7C
100
AcDbEntity
  8
0
100
AcDbBlockBegin
  2
*D9
 70
     1
 10
0.0
 20
0.0
 30
0.0
  3
*D9
  1

  0
LINE
  5
64D33
330
63B7C
100
AcDbEntity
  8
DIM
100
AcDbLine
 10
18.46447837411016
 20
71.75424552912677
 30
0.0
 11
18.46447837411016
 21
78.3432534409977
 31
0.0
  0
LINE
  5
64D34
330
63B7C
100
AcDbEntity
  8
DIM
100
AcDbLine
 10
35.71198893186947
 20
71.75424552912677
 30
0.0
 11
35.71198893186947
 21
78.3432534409977
 31
0.0
  0
LINE
  5
64D35
330
63B7C
100
AcDbEntity
  8
DIM
100
AcDbLine
 10
19.02447837411016
 20
77.84325344099769
 30
0.0
 11
24.86347174822791
 21
77.84325344099769
 31
0.0
  0
LINE
  5
64D36
330
63B7C
100
AcDbEntity
  8
DIM
100
AcDbLine
 10
35.15198893186946
 20
77.84325344099769
 30
0.0
 11
29.31299555775172
 21
77.84325344099769
 31
0.0
  0
INSERT
  5
64D37
330
63B7C
100
AcDbEntity
  8
DIM
100
AcDbBlockReference
  2
SEARROW
 10
18.46447837411016
 20
77.84325344099769
 30
0.0
 41
0.5600000000000001
 42
0.5600000000000001
 43
0.5600000000000001
 50
180.0
  0
INSERT
  5
64D38
330
63B7C
100
AcDbEntity
  8
DIM
100
AcDbBlockReference
  2
SEARROW
 10
35.71198893186947
 20
77.84325344099769
 30
0.0
 41
0.5600000000000001
 42
0.5600000000000001
 43
0.5600000000000001
  0
MTEXT
  5
64D39
330
63B7C
100
AcDbEntity
  8
DIM
100
AcDbMText
 10
27.08823365298981
 20
77.84325344099769
 30
0.0
 40
0.8
 41
0.0
 71
     5
 72
     1
  1
\A1;17.25\P [438]
  7
ROMANS
1001
ACAD
1000
MTEXTBEGIN
1070
    73
1070
     1
1070
    44
1040
1.0
1070
    74
1070
     0
1000
MTEXTEND
  0
POINT
  5
64D3A
330
63B7C
100
AcDbEntity
  8
DEFPOINTS
 62
     0
100
AcDbPoint
 10
18.46447837411016
 20
71.25424552912676
 30
0.0
  0
POINT
  5
64D3B
330
63B7C
100
AcDbEntity
  8
DEFPOINTS
 62
     0
100
AcDbPoint
 10
35.71198893186947
 20
71.25424552912676
 30
0.0
  0
POINT
  5
64D3C
330
63B7C
100
AcDbEntity
  8
DEFPOINTS
 62
     0
100
AcDbPoint
 10
35.71198893186947
 20
77.84325344099769
 30
0.0
  0
ENDBLK
  5
63B88
330
63B7C
100
AcDbEntity
  8
0
100
AcDbBlockEnd
  0
BLOCK
  5
63C6A
330
63C5F
100
AcDbEntity
  8
0
100
AcDbBlockBegin
  2
*D10
 70
     1
 10
0.0
 20
0.0
 30
0.0
  3
*D10
  1

  0
LINE
  5
64D3D
330
63C5F
100
AcDbEntity
  8
DIM
100
AcDbLine
 10
21.73685115672588
 20
72.10245323089409
 30
0.0
 11
21.73685115672588
 21
74.91848325245129
 31
0.0
  0
LINE
  5
64D3E
330
63C5F
100
AcDbEntity
  8
DIM
100
AcDbLine
 10
31.985791200792
 20
72.10245323089409
 30
0.0
 11
31.985791200792
 21
74.91848325245129
 31
0.0
  0
LINE
  5
64D3F
330
63C5F
100
AcDbEntity
  8
DIM
100
AcDbLine
 10
22.29685115672588
 20
74.41848325245129
 30
0.0
 11
24.63655927399703
 21
74.41848325245129
 31
0.0
  0
LINE
  5
64D40
330
63C5F
100
AcDbEntity
  8
DIM
100
AcDbLine
 10
31.425791200792
 20
74.41848325245129
 30
0.0
 11
29.08608308352084
 21
74.41848325245129
 31
0.0
  0
INSERT
  5
64D41
330
63C5F
100
AcDbEntity
  8
DIM
100
AcDbBlockReference
  2
SEARROW
 10
21.73685115672588
 20
74.41848325245129
 30
0.0
 41
0.5600000000000001
 42
0.5600000000000001
 43
0.5600000000000001
 50
180.0
  0
INSERT
  5
64D42
330
63C5F
100
AcDbEntity
  8
DIM
100
AcDbBlockReference
  2
SEARROW
 10
31.985791200792
 20
74.41848325245129
 30
0.0
 41
0.5600000000000001
 42
0.5600000000000001
 43
0.5600000000000001
  0
MTEXT
  5
64D43
330
63C5F
100
AcDbEntity
  8
DIM
100
AcDbMText
 10
26.86132117875894
 20
74.41848325245129
 30
0.0
 40
0.8
 41
0.0
 71
     5
 72
     1
  1
\A1;10.25\P [260]
  7
ROMANS
1001
ACAD
1000
MTEXTBEGIN
1070
    73
1070
     1
1070
    44
1040
1.0
1070
    74
1070
     0
1000
MTEXTEND
  0
POINT
  5
64D44
330
63C5F
100
AcDbEntity
  8
DEFPOINTS
 62
     0
100
AcDbPoint
 10
21.73685115672588
 20
71.60245323089409
 30
0.0
  0
POINT
  5
64D45
330
63C5F
100
AcDbEntity
  8
DEFPOINTS
 62
     0
100
AcDbPoint
 10
31.985791200792
 20
71.6024532308941
 30
0.0
  0
POINT
  5
64D46
330
63C5F
100
AcDbEntity
  8
DEFPOINTS
 62
     0
100
AcDbPoint
 10
31.985791200792
 20
74.41848325245129
 30
0.0
  0
ENDBLK
  5
63C6B
330
63C5F
100
AcDbEntity
  8
0
100
AcDbBlockEnd
  0
BLOCK
  5
63DB7
330
63DAE
100
AcDbEntity
  8
0
100
AcDbBlockBegin
  2
*D11
 70
     1
 10
0.0
 20
0.0
 30
0.0
  3
*D11
  1

  0
LINE
  5
64D47
330
63DAE
100
AcDbEntity
  8
DIM
100
AcDbLine
 10
47.72801974284074
 20
77.90748248601179
 30
0.0
 11
46.46325783807864
 21
77.90748248601179
 31
0.0
  0
LINE
  5
64D48
330
63DAE
100
AcDbEntity
  8
DIM
100
AcDbLine
 10
46.46325783807864
 20
77.90748248601179
 30
0.0
 11
44.86686231286123
 21
76.2310107151994
 31
0.0
  0
MTEXT
  5
64D49
330
63DAE
100
AcDbEntity
  8
DIM
100
AcDbMText
 10
49.26706736188837
 20
77.90748248601179
 30
0.0
 40
0.8
 41
0.0
 71
     5
 72
     1
  1
\A1;R.16\P[4]
  7
ROMANS
1001
ACAD
1000
MTEXTBEGIN
1070
    73
1070
     1
1070
    44
1040
1.0
1070
    74
1070
     0
1000
MTEXTEND
  0
INSERT
  5
64D4A
330
63DAE
100
AcDbEntity
  8
DIM
100
AcDbBlockReference
  2
SEARROW
 10
44.48068640114669
 20
75.82546396670863
 30
0.0
 41
0.5600000000000001
 42
0.5600000000000001
 43
0.5600000000000001
 50
226.4015587346558
  0
LINE
  5
64D4B
330
63DAE
100
AcDbEntity
  8
DIM
100
AcDbLine
 10
43.75107372222394
 20
75.26928556877845
 30
0.0
 11
44.15107372222394
 21
75.26928556877847
 31
0.0
  0
LINE
  5
64D4C
330
63DAE
100
AcDbEntity
  8
DIM
100
AcDbLine
 10
43.95107372222393
 20
75.06928556877847
 30
0.0
 11
43.95107372222394
 21
75.46928556877846
 31
0.0
  0
POINT
  5
64D4D
330
63DAE
100
AcDbEntity
  8
DEFPOINTS
 62
     0
100
AcDbPoint
 10
44.48068640114669
 20
75.82546396670863
 30
0.0
  0
POINT
  5
64D4E
330
63DAE
100
AcDbEntity
  8
DEFPOINTS
 62
     0
100
AcDbPoint
 10
43.95107372222393
 20
75.26928556877845
 30
0.0
  0
ENDBLK
  5
63DB8
330
63DAE
100
AcDbEntity
  8
0
100
AcDbBlockEnd
  0
BLOCK
  5
63DC3
330
63DBA
100
AcDbEntity
  8
0
100
AcDbBlockBegin
  2
*D12
 70
     1
 10
0.0
 20
0.0
 30
0.0
  3
*D12
  1

  0
LINE
  5
64D4F
330
63DBA
100
AcDbEntity
  8
DIM
100
AcDbLine
 10
47.99055604806937
 20
71.94408600545985
 30
0.0
 11
46.72579414330743
 21
71.94408600545985
 31
0.0
  0
LINE
  5
64D50
330
63DBA
100
AcDbEntity
  8
DIM
100
AcDbLine
 10
46.72579414330743
 20
71.94408600545985
 30
0.0
 11
45.8137281369581
 21
72.47961263238369
 31
0.0
  0
MTEXT
  5
64D51
330
63DBA
100
AcDbEntity
  8
DIM
100
AcDbMText
 10
49.529603667117
 20
71.94408600545985
 30
0.0
 40
0.8
 41
0.0
 71
     5
 72
     1
  1
\A1;R.25\P[6]
  7
ROMANS
1001
ACAD
1000
MTEXTBEGIN
1070
    73
1070
     1
1070
    44
1040
1.0
1070
    74
1070
     0
1000
MTEXTEND
  0
INSERT
  5
64D52
330
63DBA
100
AcDbEntity
  8
DIM
100
AcDbBlockReference
  2
SEARROW
 10
45.33081772643448
 20
72.76315722395249
 30
0.0
 41
0.5600000000000001
 42
0.5600000000000001
 43
0.5600000000000001
 50
149.5803441414858
  0
LINE
  5
64D53
330
63DBA
100
AcDbEntity
  8
DIM
100
AcDbLine
 10
43.75107372222387
 20
73.57328461325273
 30
0.0
 11
44.15107372222388
 21
73.57328461325273
 31
0.0
  0
LINE
  5
64D54
330
63DBA
100
AcDbEntity
  8
DIM
100
AcDbLine
 10
43.95107372222387
 20
73.37328461325274
 30
0.0
 11
43.95107372222388
 21
73.77328461325274
 31
0.0
  0
POINT
  5
64D55
330
63DBA
100
AcDbEntity
  8
DEFPOINTS
 62
     0
100
AcDbPoint
 10
45.33081772643448
 20
72.76315722395249
 30
0.0
  0
POINT
  5
64D56
330
63DBA
100
AcDbEntity
  8
DEFPOINTS
 62
     0
100
AcDbPoint
 10
43.95107372222388
 20
73.57328461325273
 30
0.0
  0
ENDBLK
  5
63DC4
330
63DBA
100
AcDbEntity
  8
0
100
AcDbBlockEnd
  0
BLOCK
  5
63DF1
330
63DE6
100
AcDbEntity
  8
0
100
AcDbBlockBegin
  2
*D13
 70
     1
 10
0.0
 20
0.0
 30
0.0
  3
*D13
  1

  0
LINE
  5
64DEB
330
63DE6
100
AcDbEntity
  8
DIM
100
AcDbLine
 10
43.25107372222389
 20
73.57328461325275
 30
0.0
 11
40.52159554703497
 21
73.57328461325275
 31
0.0
  0
LINE
  5
64DEC
330
63DE6
100
AcDbEntity
  8
DIM
100
AcDbLine
 10
43.25107372222392
 20
75.26928556877845
 30
0.0
 11
40.52159554703497
 21
75.26928556877845
 31
0.0
  0
LINE
  5
64DED
330
63DE6
100
AcDbEntity
  8
DIM
100
AcDbLine
 10
41.02159554703497
 20
73.01328461325275
 30
0.0
 11
41.02159554703497
 21
72.45328461325275
 31
0.0
  0
LINE
  5
64DEE
330
63DE6
100
AcDbEntity
  8
DIM
100
AcDbLine
 10
41.02159554703497
 20
75.82928556877845
 30
0.0
 11
41.02159554703497
 21
76.38928556877846
 31
0.0
  0
LINE
  5
64DEF
330
63DE6
100
AcDbEntity
  8
DIM
100
AcDbLine
 10
40.46159554703497
 20
77.64509311189453
 30
0.0
 11
41.02159554703497
 21
77.64509311189453
 31
0.0
  0
LINE
  5
64DF0
330
63DE6
100
AcDbEntity
  8
DIM
100
AcDbLine
 10
41.02159554703497
 20
77.64509311189453
 30
0.0
 11
41.02159554703497
 21
76.38928556877846
 31
0.0
  0
MTEXT
  5
64DF1
330
63DE6
100
AcDbEntity
  8
DIM
100
AcDbMText
 10
39.32254792798735
 20
77.64509311189454
 30
0.0
 40
0.8
 41
0.0
 71
     5
 72
     1
  1
\A1;.25\P[6]
  7
ROMANS
  0
INSERT
  5
64DF2
330
63DE6
100
AcDbEntity
  8
DIM
100
AcDbBlockReference
  2
SEARROW
 10
41.02159554703497
 20
73.57328461325275
 30
0.0
 41
0.5600000000000001
 42
0.5600000000000001
 43
0.5600000000000001
 50
90.0
  0
INSERT
  5
64DF3
330
63DE6
100
AcDbEntity
  8
DIM
100
AcDbBlockReference
  2
SEARROW
 10
41.02159554703497
 20
75.26928556877845
 30
0.0
 41
0.5600000000000001
 42
0.5600000000000001
 43
0.5600000000000001
 50
270.0
  0
POINT
  5
64DF4
330
63DE6
100
AcDbEntity
  8
DEFPOINTS
 62
     0
100
AcDbPoint
 10
43.75107372222389
 20
73.57328461325275
 30
0.0
  0
POINT
  5
64DF5
330
63DE6
100
AcDbEntity
  8
DEFPOINTS
 62
     0
100
AcDbPoint
 10
43.75107372222392
 20
75.26928556877845
 30
0.0
  0
POINT
  5
64DF6
330
63DE6
100
AcDbEntity
  8
DEFPOINTS
 62
     0
100
AcDbPoint
 10
41.02159554703497
 20
75.26928556877845
 30
0.0
  0
ENDBLK
  5
63DF2
330
63DE6
100
AcDbEntity
  8
0
100
AcDbBlockEnd
  0
ENDSEC
  0
SECTION
  2
ENTITIES
  0
LWPOLYLINE
  5
BF7
330
1F
100
AcDbEntity
  8
VIEWPORT
100
AcDbPolyline
 90
        6
 70
     1
 43
0.0
 10
131.200008
 20
82.0
 10
131.200008
 20
7.296015999999994
 10
64.019688
 20
7.296015999999994
 10
64.019688
 20
0.0
 10
0.0
 20
0.0
 10
0.0
 20
82.0
1001
GENIUS_GENOREF_13
1005
0
1005
0
1005
0
1005
0
1005
0
1005
0
1005
0
1005
0
1005
0
1005
0
1005
0
1005
0
1005
0
1005
0
1005
0
1005
0
1005
0
1005
0
1005
0
1005
0
1005
0
1005
0
1005
0
1005
0
1005
0
1005
0
1005
0
1005
0
1005
0
1005
0
1005
0
1005
0
1005
0
1005
0
  0
VIEWPORT
  5
BF8
330
1F
100
AcDbEntity
  8
VIEWPORT
100
AcDbViewport
 10
65.60000399999999
 20
41.0
 30
0.0
 40
131.200008
 41
82.0
 69
     0
1001
ACAD
1000
MVIEW
1002
{
1070
    16
1010
0.0
1020
0.0
1030
0.0
1010
0.0
1020
0.0
1030
1.0
1040
0.0
1040
10.25
1040
8.193386135163109
1040
5.146330469914573
1040
50.0
1040
0.0
1040
0.0
1070
     0
1070
   100
1070
     1
1070
     2
1070
     0
1070
     0
1070
     0
1070
     0
1040
0.0
1040
0.0
1040
0.0
1040
0.5
1040
0.5
1040
0.5
1040
0.5
1070
     0
1002
{
1002
}
1002
}
1001
GENIUS_GENOREF_13
1005
0
1005
0
1005
0
1005
0
1005
0
1005
0
1005
0
1005
0
1005
0
1005
0
1005
0
1005
0
1005
0
1005
0
1005
0
1005
0
1005
0
1005
0
1005
0
1005
0
1005
0
1005
0
1005
0
1005
0
1005
0
1005
0
1005
0
1005
0
1005
0
1005
0
1005
0
1005
0
1005
0
1005
0
1001
GENIUS_GENSCREG_15
1000
PF
1040
0.0
1000
DF
1040
0.0
1000
MIN
1011
0.0
1021
0.0
1031
0.0
1000
MAX
1011
131.200008
1021
82.0
1031
0.0
1000
FLAGS
1070
     2
  0
TEXT
  5
EB24
330
1F
100
AcDbEntity
  8
TEXT1
100
AcDbText
 10
0.9929114833239971
 20
8.355836932141698
 30
0.0
 40
0.08
  1
 
  7
ROMANS
100
AcDbText
  0
TEXT
  5
EC02
330
1F
100
AcDbEntity
  8
TEXT1
 62
     6
100
AcDbText
 10
0.9754463221616305
 20
9.254997076848782
 30
0.0
 40
0.08
  1

  7
ROMANS
100
AcDbText
  0
TEXT
  5
EC03
330
1F
100
AcDbEntity
  8
TEXT1
 62
     6
100
AcDbText
 10
2.118646984089988
 20
9.259465931843973
 30
0.0
 40
0.08
  1

  7
ROMANS
100
AcDbText
  0
TEXT
  5
EC04
330
1F
100
AcDbEntity
  8
TEXT1
 62
     6
100
AcDbText
 10
2.106949392570278
 20
8.378941526820112
 30
0.0
 40
0.08
  1

  7
ROMANS
100
AcDbText
  0
TEXT
  5
EC05
330
1F
100
AcDbEntity
  8
TEXT1
 62
     6
100
AcDbText
 10
0.9699281936766688
 20
8.377949075304496
 30
0.0
 40
0.08
  1

  7
ROMANS
100
AcDbText
  0
TEXT
  5
115F3
330
1F
100
AcDbEntity
  8
TEXT1
 62
     6
100
AcDbText
 10
1.119620495505483
 20
7.657703590579114
 30
0.0
 40
0.08
  1

  7
ROMANS
100
AcDbText
  0
TEXT
  5
115F4
330
1F
100
AcDbEntity
  8
TEXT1
 62
     6
100
AcDbText
 10
2.059224140393478
 20
9.266409758261859
 30
0.0
 40
0.08
  1

  7
ROMANS
100
AcDbText
  0
TEXT
  5
120A1
330
1F
100
AcDbEntity
  8
TEXT1
100
AcDbText
 10
13.20920659387706
 20
2.243736705527569
 30
0.0
 40
0.08
  1

  7
ROMANS
100
AcDbText
  0
TEXT
  5
12248
330
1F
100
AcDbEntity
  8
TEXT1
100
AcDbText
 10
13.46920659387706
 20
2.083736705527569
 30
0.0
 40
0.08
  1

  7
ROMANS
100
AcDbText
  0
TEXT
  5
12A8A
330
1F
100
AcDbEntity
  8
TEXT1
100
AcDbText
 10
10.0534983779131
 20
2.254272487233485
 30
0.0
 40
0.08
  1

  7
ROMANS
100
AcDbText
  0
TEXT
  5
12A8B
330
1F
100
AcDbEntity
  8
TEXT1
100
AcDbText
 10
10.35628222227409
 20
1.942056058821058
 30
0.0
 40
0.08
  1

  7
ROMANS
100
AcDbText
  0
TEXT
  5
14F77
330
1F
100
AcDbEntity
  8
TEXT1
100
AcDbText
 10
0.9929114833239971
 20
8.355836932141698
 30
0.0
 40
0.12
  1
 
  7
ROMANS
100
AcDbText
  0
TEXT
  5
172B0
330
1F
100
AcDbEntity
  8
TEXT1
 62
     6
100
AcDbText
 10
1.119620495505483
 20
8.220108596909749
 30
0.0
 40
0.08
  1

  7
ROMANS
100
AcDbText
  0
TEXT
  5
63782
330
1F
100
AcDbEntity
  8
TEXT1
100
AcDbText
 10
106.8631614076872
 20
77.07662193298336
 30
0.0
 40
0.8
  1
WIRING DIAGRAMS
  7
ROMANS
 72
     1
 11
112.1012566457824
 21
77.47662193298336
 31
0.0
100
AcDbText
 73
     2
  0
TEXT
  5
63783
330
1F
100
AcDbEntity
  8
TEXT1
100
AcDbText
 10
119.5737611207856
 20
73.96558586120602
 30
0.0
 40
0.8
  1
NOT FUSIBLE
  7
ROMANS
 72
     1
 11
123.5356658826904
 21
74.36558586120603
 31
0.0
100
AcDbText
 73
     2
  0
TEXT
  5
63784
330
1F
100
AcDbEntity
  8
TEXT1
100
AcDbText
 10
103.9156807827162
 20
73.96558586120601
 30
0.0
 40
0.8
  1
FUSIBLE
  7
ROMANS
 72
     1
 11
106.3347284017639
 21
74.36558586120601
 31
0.0
100
AcDbText
 73
     2
  0
TEXT
  5
63786
330
1F
100
AcDbEntity
  8
TEXT1
100
AcDbText
 10
113.4807043373366
 20
58.1816635417938
 30
0.0
 40
0.6400000000000001
  1
TERMINAL LUGS
  7
ROMANS
 72
     1
 11
117.1987995754318
 21
58.5016635417938
 31
0.0
100
AcDbText
 73
     2
  0
LINE
  5
63789
330
1F
100
AcDbEntity
  8
CONTINUOUS1
100
AcDbLine
 10
105.3191508750753
 20
57.3766635417938
 30
0.0
 11
129.200008
 21
57.3766635417938
 31
0.0
  0
TEXT
  5
63793
330
1F
100
AcDbEntity
  8
TEXT1
100
AcDbText
 10
118.5007065095285
 20
54.12484349137112
 30
0.0
 40
0.6400000000000001
  1
#6 AWG
  7
ROMANS
 72
     1
 11
120.4054684142904
 21
54.44484349137112
 31
0.0
100
AcDbText
 73
     2
  0
TEXT
  5
63794
330
1F
100
AcDbEntity
  8
TEXT1
100
AcDbText
 10
118.3352789278144
 20
54.1666841304855
 30
0.0
 40
0.9599999999999999
  1

 41
0.8
  7
M_STANDARD
 72
     1
 11
118.3352789278144
 21
54.64668413048549
 31
0.0
100
AcDbText
 73
     2
  0
TEXT
  5
63795
330
1F
100
AcDbEntity
  8
TEXT1
100
AcDbText
 10
124.6336151607896
 20
54.12484349137112
 30
0.0
 40
0.6400000000000001
  1
CU/AL
  7
ROMANS
 72
     1
 11
126.1879008750753
 21
54.44484349137112
 31
0.0
100
AcDbText
 73
     2
  0
TEXT
  5
63796
330
1F
100
AcDbEntity
  8
TEXT1
100
AcDbText
 10
125.0755199226944
 20
56.1566635417938
 30
0.0
 40
0.6400000000000001
  1
TYPE
  7
ROMANS
 72
     1
 11
126.1879008750753
 21
56.4766635417938
 31
0.0
100
AcDbText
 73
     2
  0
TEXT
  5
63797
330
1F
100
AcDbEntity
  8
TEXT1
100
AcDbText
 10
118.1349922238142
 20
56.1566635417938
 30
0.0
 40
0.6400000000000001
  1
MIN WIRE
  7
ROMANS
 72
     1
 11
120.4054684142904
 21
56.4766635417938
 31
0.0
100
AcDbText
 73
     2
  0
TEXT
  5
63798
330
1F
100
AcDbEntity
  8
TEXT1
100
AcDbText
 10
111.8705199226944
 20
56.1566635417938
 30
0.0
 40
0.6400000000000001
  1
MAX WIRE
  7
ROMANS
 72
     1
 11
114.2629008750754
 21
56.4766635417938
 31
0.0
100
AcDbText
 73
     2
  0
TEXT
  5
63799
330
1F
100
AcDbEntity
  8
TEXT1
100
AcDbText
 10
111.6114723036467
 20
54.12484349137112
 30
0.0
 40
0.6400000000000001
  1
250 KCMIL
  7
ROMANS
 72
     1
 11
114.2629008750753
 21
54.44484349137112
 31
0.0
100
AcDbText
 73
     2
  0
TEXT
  5
6379A
330
1F
100
AcDbEntity
  8
TEXT1
100
AcDbText
 10
112.2445292930441
 20
54.1666841304855
 30
0.0
 40
0.9599999999999999
  1

 41
0.8
  7
M_STANDARD
 72
     1
 11
112.2445292930441
 21
54.64668413048549
 31
0.0
100
AcDbText
 73
     2
  0
TEXT
  5
6379B
330
1F
100
AcDbEntity
  8
TEXT1
100
AcDbText
 10
107.3861151607896
 20
54.12484349137112
 30
0.0
 40
0.6400000000000001
  1
200
  7
ROMANS
 72
     1
 11
108.3004008750753
 21
54.44484349137112
 31
0.0
100
AcDbText
 73
     2
  0
TEXT
  5
6379C
330
1F
100
AcDbEntity
  8
TEXT1
100
AcDbText
 10
106.167067541742
 20
56.1566635417938
 30
0.0
 40
0.6400000000000001
  1
AMPERES
  7
ROMANS
 72
     1
 11
108.3004008750753
 21
56.4766635417938
 31
0.0
100
AcDbText
 73
     2
  0
LINE
  5
637A3
330
1F
100
AcDbEntity
  8
CONTINUOUS1
100
AcDbLine
 10
105.3191508750753
 20
55.57666354179379
 30
0.0
 11
129.200008
 21
55.57666354179379
 31
0.0
  0
LINE
  5
637A4
330
1F
100
AcDbEntity
  8
CONTINUOUS1
100
AcDbLine
 10
111.2816508750753
 20
57.3766635417938
 30
0.0
 11
111.2816508750753
 21
53.17666354179381
 31
0.0
  0
LINE
  5
637A5
330
1F
100
AcDbEntity
  8
CONTINUOUS1
100
AcDbLine
 10
123.5772286872701
 20
57.3766635417938
 30
0.0
 11
123.5772286872701
 21
53.17666354179381
 31
0.0
  0
LINE
  5
637A6
330
1F
100
AcDbEntity
  8
CONTINUOUS1
100
AcDbLine
 10
117.2441508750753
 20
57.3766635417938
 30
0.0
 11
117.2441508750753
 21
53.17666354179381
 31
0.0
  0
LINE
  5
63841
330
1F
100
AcDbEntity
  8
CONTINUOUS1
100
AcDbLine
 10
92.00250529156491
 20
75.88359870910643
 30
0.0
 11
129.200008
 21
75.88359870910642
 31
0.0
  0
LINE
  5
63842
330
1F
100
AcDbEntity
  8
CONTINUOUS1
100
AcDbLine
 10
92.00250529156503
 20
72.83626976013183
 30
0.0
 11
129.200008
 21
72.83626976013181
 31
0.0
  0
LINE
  5
63843
330
1F
100
AcDbEntity
  8
CONTINUOUS1
100
AcDbLine
 10
117.793029774292
 20
75.88359870910642
 30
0.0
 11
117.793029774292
 21
61.62666354179382
 31
0.0
  0
TEXT
  5
6385B
330
1F
100
AcDbEntity
  8
TEXT1
100
AcDbText
 10
93.24239109765771
 20
65.67803180694578
 30
0.0
 40
0.6400000000000001
  1
A
  7
ROMANS
 72
     1
 11
93.51667681194342
 21
65.99803180694578
 31
0.0
100
AcDbText
 73
     2
  0
LINE
  5
6385C
330
1F
100
AcDbEntity
  8
HIDDEN1
100
AcDbLine
 10
97.04141182323494
 20
67.88487983886716
 30
0.0
 11
98.50141182323497
 21
67.88487983886716
 31
0.0
  0
LINE
  5
6385D
330
1F
100
AcDbEntity
  8
CONTINUOUS1
100
AcDbLine
 10
96.75789804912605
 20
66.99282665251979
 30
0.0
 11
97.25899057842296
 21
68.56852245330106
 31
0.0
  0
LINE
  5
6385E
330
1F
100
AcDbEntity
  8
CONTINUOUS1
100
AcDbLine
 10
98.21745005107917
 20
66.99282665251979
 30
0.0
 11
98.71854258037608
 21
68.56852245330106
 31
0.0
  0
LWPOLYLINE
  5
6385F
330
1F
100
AcDbEntity
  8
HIDDEN1
100
AcDbPolyline
 90
        4
 70
   129
 43
0.0
 10
94.77087702251472
 20
65.08423938748497
 10
95.87285791844934
 20
65.08423938748497
 10
95.87285791844934
 20
67.71287460325102
 10
94.77087702251472
 20
67.71287460325102
  0
TEXT
  5
63860
330
1F
100
AcDbEntity
  8
TEXT1
100
AcDbText
 10
94.9962993658142
 20
65.39767813677435
 30
0.0
 40
0.6400000000000001
  1
N
  7
ROMANS
 72
     1
 11
95.33153746105231
 21
65.71767813677436
 31
0.0
100
AcDbText
 73
     2
  0
TEXT
  5
63861
330
1F
100
AcDbEntity
  8
TEXT1
100
AcDbText
 10
94.9962993658142
 20
66.03767813677436
 30
0.0
 40
0.6400000000000001
  1
/
  7
ROMANS
 72
     1
 11
95.33153746105231
 21
66.35767813677436
 31
0.0
100
AcDbText
 73
     2
  0
TEXT
  5
63862
330
1F
100
AcDbEntity
  8
TEXT1
100
AcDbText
 10
95.02677555629039
 20
66.67767813677437
 30
0.0
 40
0.6400000000000001
  1
S
  7
ROMANS
 72
     1
 11
95.33153746105231
 21
66.99767813677437
 31
0.0
100
AcDbText
 73
     2
  0
LWPOLYLINE
  5
63863
330
1F
100
AcDbEntity
  8
CONTINUOUS1
100
AcDbPolyline
 90
        5
 70
   128
 43
0.0
 10
96.76234140850105
 20
63.3843408584506
 10
96.76234140850105
 20
64.22859153746327
 42
-1.002526647105354
 10
96.76476081373644
 20
65.18856163619671
 42
0.9836376677426285
 10
96.75789804912605
 20
66.14857597350368
 10
96.75789804912605
 20
66.99282665251979
  0
LWPOLYLINE
  5
63864
330
1F
100
AcDbEntity
  8
CONTINUOUS1
100
AcDbPolyline
 90
        5
 70
   128
 43
0.0
 10
98.22189341045415
 20
63.3843408584506
 10
98.22189341045415
 20
64.22859153746327
 42
-1.002526647105324
 10
98.22431281568956
 20
65.18856163619671
 42
0.9836376677426285
 10
98.21745005107917
 20
66.14857597350368
 10
98.21745005107917
 20
66.99282665251979
  0
LINE
  5
63865
330
1F
100
AcDbEntity
  8
CONTINUOUS1
100
AcDbLine
 10
98.22189341045415
 20
69.41277313231373
 30
0.0
 11
98.22189341045415
 21
68.56852245330106
 31
0.0
  0
LINE
  5
63866
330
1F
100
AcDbEntity
  8
CONTINUOUS1
100
AcDbLine
 10
96.76234140850105
 20
69.41277313231373
 30
0.0
 11
96.76234140850105
 21
68.56852245330106
 31
0.0
  0
CIRCLE
  5
63867
330
1F
100
AcDbEntity
  8
CONTINUOUS1
100
AcDbCircle
 10
96.78138895488778
 20
69.71761741637135
 30
0.0
 40
0.3054387770830012
  0
CIRCLE
  5
63868
330
1F
100
AcDbEntity
  8
CONTINUOUS1
100
AcDbCircle
 10
98.24094095684088
 20
69.71761741637135
 30
0.0
 40
0.3054387770830012
  0
CIRCLE
  5
63869
330
1F
100
AcDbEntity
  8
CONTINUOUS1
100
AcDbCircle
 10
98.22189341045415
 20
63.07890208137222
 30
0.0
 40
0.3054387770830012
  0
CIRCLE
  5
6386A
330
1F
100
AcDbEntity
  8
CONTINUOUS1
100
AcDbCircle
 10
96.76234140850105
 20
63.07890208137222
 30
0.0
 40
0.3054387770830012
  0
CIRCLE
  5
6386B
330
1F
100
AcDbEntity
  8
HIDDEN1
100
AcDbCircle
 10
95.34091501689946
 20
69.71761741635972
 30
0.0
 40
0.3054387770830003
  0
LINE
  5
6386C
330
1F
100
AcDbEntity
  8
HIDDEN1
100
AcDbLine
 10
95.32186747051278
 20
69.41277313230212
 30
0.0
 11
95.32186747051278
 21
67.71287460325102
 31
0.0
  0
LINE
  5
6386D
330
1F
100
AcDbEntity
  8
HIDDEN1
100
AcDbLine
 10
95.32186747051278
 20
63.3843408584506
 30
0.0
 11
95.32186747051278
 21
65.08423938748497
 31
0.0
  0
CIRCLE
  5
6386E
330
1F
100
AcDbEntity
  8
HIDDEN1
100
AcDbCircle
 10
95.32186747051273
 20
63.07890208136061
 30
0.0
 40
0.3054387770830003
  0
TEXT
  5
6386F
330
1F
100
AcDbEntity
  8
TEXT1
100
AcDbText
 10
109.9089353825145
 20
65.67803180694578
 30
0.0
 40
0.6400000000000001
  1
B
  7
ROMANS
 72
     1
 11
110.2441734777526
 21
65.99803180694578
 31
0.0
100
AcDbText
 73
     2
  0
LINE
  5
63870
330
1F
100
AcDbEntity
  8
HIDDEN1
100
AcDbLine
 10
113.7880462476806
 20
67.88431983886717
 30
0.0
 11
116.7072462476806
 21
67.88431983886717
 31
0.0
  0
LINE
  5
63871
330
1F
100
AcDbEntity
  8
CONTINUOUS1
100
AcDbLine
 10
114.963994263275
 20
66.99223215950786
 30
0.0
 11
115.4650867925719
 21
68.56792796028911
 31
0.0
  0
LINE
  5
63872
330
1F
100
AcDbEntity
  8
CONTINUOUS1
100
AcDbLine
 10
116.4235462652281
 20
66.99223215950786
 30
0.0
 11
116.924638794525
 21
68.56792796028911
 31
0.0
  0
LINE
  5
63873
330
1F
100
AcDbEntity
  8
CONTINUOUS1
100
AcDbLine
 10
113.5044727789
 20
66.99223215950786
 30
0.0
 11
114.0055653081969
 21
68.56792796028911
 31
0.0
  0
LWPOLYLINE
  5
63874
330
1F
100
AcDbEntity
  8
HIDDEN1
100
AcDbPolyline
 90
        4
 70
   129
 43
0.0
 10
111.4983736883238
 20
65.08364489447304
 10
112.6003545842585
 20
65.08364489447304
 10
112.6003545842585
 20
67.71228011023909
 10
111.4983736883238
 20
67.71228011023909
  0
TEXT
  5
63875
330
1F
100
AcDbEntity
  8
TEXT1
100
AcDbText
 10
111.7237960316233
 20
65.39708364376243
 30
0.0
 40
0.6400000000000001
  1
N
  7
ROMANS
 72
     1
 11
112.0590341268614
 21
65.71708364376242
 31
0.0
100
AcDbText
 73
     2
  0
TEXT
  5
63876
330
1F
100
AcDbEntity
  8
TEXT1
100
AcDbText
 10
111.7237960316233
 20
66.03708364376243
 30
0.0
 40
0.6400000000000001
  1
/
  7
ROMANS
 72
     1
 11
112.0590341268614
 21
66.35708364376242
 31
0.0
100
AcDbText
 73
     2
  0
TEXT
  5
63877
330
1F
100
AcDbEntity
  8
TEXT1
100
AcDbText
 10
111.7542722220995
 20
66.67708364376244
 30
0.0
 40
0.6400000000000001
  1
S
  7
ROMANS
 72
     1
 11
112.0590341268614
 21
66.99708364376244
 31
0.0
100
AcDbText
 73
     2
  0
LWPOLYLINE
  5
63878
330
1F
100
AcDbEntity
  8
CONTINUOUS1
100
AcDbPolyline
 90
        5
 70
   128
 43
0.0
 10
114.96843762265
 20
63.38374636543867
 10
114.96843762265
 20
64.22799704445134
 42
-1.002526647117086
 10
114.9708570278854
 20
65.18796714318478
 42
0.9836376677425457
 10
114.963994263275
 20
66.14798148049175
 10
114.963994263275
 20
66.99223215950786
  0
LWPOLYLINE
  5
63879
330
1F
100
AcDbEntity
  8
CONTINUOUS1
100
AcDbPolyline
 90
        5
 70
   128
 43
0.0
 10
116.4279896246031
 20
63.38374636543867
 10
116.4279896246031
 20
64.22799704445134
 42
-1.002526647117086
 10
116.4304090298385
 20
65.18796714318478
 42
0.9836376677426285
 10
116.4235462652281
 20
66.14798148049175
 10
116.4235462652281
 20
66.99223215950786
  0
LWPOLYLINE
  5
6387A
330
1F
100
AcDbEntity
  8
CONTINUOUS1
100
AcDbPolyline
 90
        5
 70
   128
 43
0.0
 10
113.508916138275
 20
63.38374636543867
 10
113.508916138275
 20
64.22799704445134
 42
-1.002526647111235
 10
113.5113355435104
 20
65.18796714318476
 42
0.983637667741746
 10
113.5044727789
 20
66.14798148049175
 10
113.5044727789
 20
66.99223215950786
  0
LINE
  5
6387B
330
1F
100
AcDbEntity
  8
CONTINUOUS1
100
AcDbLine
 10
114.96843762265
 20
69.4121786393018
 30
0.0
 11
114.96843762265
 21
68.56792796028911
 31
0.0
  0
LINE
  5
6387C
330
1F
100
AcDbEntity
  8
CONTINUOUS1
100
AcDbLine
 10
116.4279896246031
 20
69.4121786393018
 30
0.0
 11
116.4279896246031
 21
68.56792796028911
 31
0.0
  0
LINE
  5
6387D
330
1F
100
AcDbEntity
  8
CONTINUOUS1
100
AcDbLine
 10
113.508916138275
 20
69.4121786393018
 30
0.0
 11
113.508916138275
 21
68.56792796028911
 31
0.0
  0
CIRCLE
  5
6387E
330
1F
100
AcDbEntity
  8
CONTINUOUS1
100
AcDbCircle
 10
114.9874851690368
 20
69.7170229233594
 30
0.0
 40
0.3054387770829719
  0
CIRCLE
  5
6387F
330
1F
100
AcDbEntity
  8
CONTINUOUS1
100
AcDbCircle
 10
113.5279636846617
 20
69.7170229233594
 30
0.0
 40
0.3054387770830003
  0
CIRCLE
  5
63880
330
1F
100
AcDbEntity
  8
CONTINUOUS1
100
AcDbCircle
 10
116.4470371709899
 20
69.7170229233594
 30
0.0
 40
0.3054387770830003
  0
CIRCLE
  5
63881
330
1F
100
AcDbEntity
  8
CONTINUOUS1
100
AcDbCircle
 10
114.96843762265
 20
63.07830758836029
 30
0.0
 40
0.3054387770829719
  0
CIRCLE
  5
63882
330
1F
100
AcDbEntity
  8
CONTINUOUS1
100
AcDbCircle
 10
116.4279896246031
 20
63.07830758836029
 30
0.0
 40
0.3054387770830003
  0
CIRCLE
  5
63883
330
1F
100
AcDbEntity
  8
CONTINUOUS1
100
AcDbCircle
 10
113.508916138275
 20
63.07830758836029
 30
0.0
 40
0.3054387770830012
  0
CIRCLE
  5
63884
330
1F
100
AcDbEntity
  8
HIDDEN1
100
AcDbCircle
 10
112.0684116827086
 20
69.7170229233478
 30
0.0
 40
0.3054387770830003
  0
LINE
  5
63885
330
1F
100
AcDbEntity
  8
HIDDEN1
100
AcDbLine
 10
112.0493641363219
 20
69.41217863929018
 30
0.0
 11
112.0493641363219
 21
67.71228011023909
 31
0.0
  0
LINE
  5
63886
330
1F
100
AcDbEntity
  8
HIDDEN1
100
AcDbLine
 10
112.0493641363219
 20
63.38374636543867
 30
0.0
 11
112.0493641363219
 21
65.08364489447304
 31
0.0
  0
CIRCLE
  5
63887
330
1F
100
AcDbEntity
  8
HIDDEN1
100
AcDbCircle
 10
112.0493641363219
 20
63.07830758834867
 30
0.0
 40
0.3054387770830003
  0
TEXT
  5
63888
330
1F
100
AcDbEntity
  8
TEXT1
100
AcDbText
 10
119.9825997053222
 20
65.94128753662108
 30
0.0
 40
0.6400000000000001
  1
C
  7
ROMANS
 72
     1
 11
120.3025997053222
 21
66.26128753662107
 31
0.0
100
AcDbText
 73
     2
  0
LINE
  5
63889
330
1F
100
AcDbEntity
  8
HIDDEN1
100
AcDbLine
 10
123.6506460371094
 20
66.48031983886717
 30
0.0
 11
126.5698460371094
 21
66.48031983886717
 31
0.0
  0
LWPOLYLINE
  5
6388A
330
1F
100
AcDbEntity
  8
HIDDEN1
100
AcDbPolyline
 90
        4
 70
   129
 43
0.0
 10
121.3564073835449
 20
65.0438959503016
 10
122.4583882794795
 20
65.0438959503016
 10
122.4583882794795
 20
67.67253116606766
 10
121.3564073835449
 20
67.67253116606766
  0
TEXT
  5
6388B
330
1F
100
AcDbEntity
  8
TEXT1
100
AcDbText
 10
121.5818297268444
 20
65.35733469959099
 30
0.0
 40
0.6400000000000001
  1
N
  7
ROMANS
 72
     1
 11
121.9170678220825
 21
65.67733469959098
 31
0.0
100
AcDbText
 73
     2
  0
TEXT
  5
6388C
330
1F
100
AcDbEntity
  8
TEXT1
100
AcDbText
 10
121.5818297268444
 20
65.99733469959099
 30
0.0
 40
0.6400000000000001
  1
/
  7
ROMANS
 72
     1
 11
121.9170678220825
 21
66.31733469959098
 31
0.0
100
AcDbText
 73
     2
  0
TEXT
  5
6388D
330
1F
100
AcDbEntity
  8
TEXT1
100
AcDbText
 10
121.6123059173206
 20
66.63733469959101
 30
0.0
 40
0.6400000000000001
  1
S
  7
ROMANS
 72
     1
 11
121.9170678220825
 21
66.957334699591
 31
0.0
100
AcDbText
 73
     2
  0
LWPOLYLINE
  5
6388E
330
1F
100
AcDbEntity
  8
CONTINUOUS1
100
AcDbPolyline
 90
        3
 70
   128
 43
0.0
 10
123.3669162641601
 20
64.74399742126724
 10
123.3669162641601
 20
65.58824810028074
 10
123.868008793457
 20
67.16394390106199
  0
LWPOLYLINE
  5
6388F
330
1F
100
AcDbEntity
  8
CONTINUOUS1
100
AcDbPolyline
 90
        3
 70
   128
 43
0.0
 10
126.2859928022461
 20
64.74399284363052
 10
126.2859928022461
 20
65.58824352264402
 10
126.7870853315429
 20
67.16393932342526
  0
LINE
  5
63890
330
1F
100
AcDbEntity
  8
CONTINUOUS1
100
AcDbLine
 10
123.3669132124023
 20
67.13060649871824
 30
0.0
 11
123.3669132124023
 21
67.97485717773175
 31
0.0
  0
LINE
  5
63891
330
1F
100
AcDbEntity
  8
CONTINUOUS1
100
AcDbLine
 10
126.2859897504882
 20
67.13060192108153
 30
0.0
 11
126.2859897504882
 21
67.97485260009503
 31
0.0
  0
LINE
  5
63892
330
1F
100
AcDbEntity
  8
CONTINUOUS1
100
AcDbLine
 10
124.8264713178711
 20
67.13060649871824
 30
0.0
 11
124.8264713178711
 21
67.97485717773175
 31
0.0
  0
LWPOLYLINE
  5
63893
330
1F
100
AcDbEntity
  8
CONTINUOUS1
100
AcDbPolyline
 90
        3
 70
   128
 43
0.0
 10
124.8264743696289
 20
64.74399742126724
 10
124.8264743696289
 20
65.58824810028074
 10
125.3275668989257
 20
67.16394390106199
  0
CIRCLE
  5
63894
330
1F
100
AcDbEntity
  8
CONTINUOUS1
100
AcDbCircle
 10
123.385960758789
 20
68.27970146178936
 30
0.0
 40
0.305438777082971
  0
CIRCLE
  5
63895
330
1F
100
AcDbEntity
  8
CONTINUOUS1
100
AcDbCircle
 10
124.8455188642578
 20
68.27970146178936
 30
0.0
 40
0.3054387770829994
  0
CIRCLE
  5
63896
330
1F
100
AcDbEntity
  8
CONTINUOUS1
100
AcDbCircle
 10
126.305037296875
 20
68.27969688415265
 30
0.0
 40
0.3054387770830012
  0
CIRCLE
  5
63897
330
1F
100
AcDbEntity
  8
CONTINUOUS1
100
AcDbCircle
 10
126.2859928022461
 20
64.43855406655214
 30
0.0
 40
0.305438777082971
  0
CIRCLE
  5
63898
330
1F
100
AcDbEntity
  8
CONTINUOUS1
100
AcDbCircle
 10
124.8264743696289
 20
64.43855864418887
 30
0.0
 40
0.3054387770830012
  0
CIRCLE
  5
63899
330
1F
100
AcDbEntity
  8
CONTINUOUS1
100
AcDbCircle
 10
123.3669162641601
 20
64.43855864418887
 30
0.0
 40
0.3054387770830012
  0
CIRCLE
  5
6389A
330
1F
100
AcDbEntity
  8
HIDDEN1
100
AcDbCircle
 10
121.9264453779296
 20
68.87727397917636
 30
0.0
 40
0.3054387770830003
  0
LINE
  5
6389B
330
1F
100
AcDbEntity
  8
HIDDEN1
100
AcDbLine
 10
121.907397831543
 20
68.57242969511876
 30
0.0
 11
121.907397831543
 21
67.67253116606766
 31
0.0
  0
LINE
  5
6389C
330
1F
100
AcDbEntity
  8
HIDDEN1
100
AcDbLine
 10
121.907397831543
 20
64.14399742126723
 30
0.0
 11
121.907397831543
 21
65.0438959503016
 31
0.0
  0
CIRCLE
  5
6389D
330
1F
100
AcDbEntity
  8
HIDDEN1
100
AcDbCircle
 10
121.9073978315429
 20
63.83855864417724
 30
0.0
 40
0.3054387770830003
  0
LWPOLYLINE
  5
6389E
330
1F
100
AcDbEntity
  8
CONTINUOUS1
100
AcDbPolyline
 90
        4
 70
   129
 43
0.0
 10
105.3191508750753
 20
53.17666354179381
 10
129.200008
 20
53.17666354179381
 10
129.200008
 20
59.6266635417938
 10
105.3191508750753
 20
59.6266635417938
  0
LWPOLYLINE
  5
6389F
330
1F
100
AcDbEntity
  8
CONTINUOUS1
100
AcDbPolyline
 90
        4
 70
   129
 43
0.0
 10
92.00250529156496
 20
79.59999999999998
 10
129.200008
 20
79.59999999999999
 10
129.200008
 20
61.6266635417938
 10
92.00250529156496
 20
61.62666354179378
  0
TEXT
  5
638A8
330
1F
100
AcDbEntity
  8
TEXT1
100
AcDbText
 10
2.058427350362762
 20
15.76
 30
0.0
 40
0.6400000000000001
  1
NOTES:
 41
1.017740901455129
  7
M_STANDARD
 11
2.058427350362762
 21
16.08
 31
0.0
100
AcDbText
 73
     2
  0
TEXT
  5
638A9
330
1F
100
AcDbEntity
  8
TEXT1
100
AcDbText
 10
2.058427350362762
 20
14.0
 30
0.0
 40
0.6400000000000001
  1
UL LISTED - FILE E-2875
  7
ROMANS
 11
2.058427350362762
 21
14.32
 31
0.0
100
AcDbText
 73
     2
  0
TEXT
  5
638AA
330
1F
100
AcDbEntity
  8
TEXT1
100
AcDbText
 10
1.999999999999999
 20
13.12
 30
0.0
 40
0.6400000000000001
  1
ALL NEUTRALS - INSULATED GROUNDABLE
  7
ROMANS
 11
1.999999999999999
 21
13.44
 31
0.0
100
AcDbText
 73
     2
  0
TEXT
  5
638AB
330
1F
100
AcDbEntity
  8
TEXT1
100
AcDbText
 10
2.058427350362762
 20
12.24
 30
0.0
 40
0.6400000000000001
  1
SUITABLE FOR USE AS SERVICE EQUIPMENT
  7
ROMANS
 11
2.058427350362762
 21
12.56
 31
0.0
100
AcDbText
 73
     2
  0
TEXT
  5
638AC
330
1F
100
AcDbEntity
  8
TEXT1
100
AcDbText
 10
2.058427350362762
 20
11.36
 30
0.0
 40
0.6400000000000001
  1
SHORT CIRCUIT CURRENT RATINGS:
  7
ROMANS
 11
2.058427350362762
 21
11.68
 31
0.0
100
AcDbText
 73
     2
  0
TEXT
  5
638AD
330
1F
100
AcDbEntity
  8
TEXT1
100
AcDbText
 10
1.999999999999999
 20
10.48
 30
0.0
 40
0.6400000000000001
  1
 10,000 AMPERES WHEN USED WITH OR PROTECTED BY CLASS H OR K FUSES.
  7
ROMANS
 11
1.999999999999999
 21
10.8
 31
0.0
100
AcDbText
 73
     2
  0
TEXT
  5
638AE
330
1F
100
AcDbEntity
  8
TEXT1
100
AcDbText
 10
1.999999999999999
 20
9.600000000000001
 30
0.0
 40
0.6400000000000001
  1
 200,000 AMPERES WHEN USED WITH OR PROTECTED BY CLASS R OR J FUSES.
  7
ROMANS
 11
1.999999999999999
 21
9.920000000000001
 31
0.0
100
AcDbText
 73
     2
  0
TEXT
  5
638AF
330
1F
100
AcDbEntity
  8
TEXT1
100
AcDbText
 10
1.999999999999999
 20
3.44
 30
0.0
 40
0.6400000000000001
  1
IF CORNER GROUNDED DELTA, USE OUTER SWITCHING POLES FOR UNGROUNDED CONDUCTORS.
  7
ROMANS
 11
1.999999999999999
 21
3.76
 31
0.0
100
AcDbText
 73
     2
  0
TEXT
  5
638B0
330
1F
100
AcDbEntity
  8
TEXT1
100
AcDbText
 10
1.999999999999999
 20
1.68
 30
0.0
 40
0.6400000000000001
  1
USE ANY TWO SWITCHING POLES.
  7
ROMANS
 11
1.999999999999999
 21
2.0
 31
0.0
100
AcDbText
 73
     2
  0
TEXT
  5
638B1
330
1F
100
AcDbEntity
  8
TEXT1
100
AcDbText
 10
1.999999999999999
 20
5.199999999999999
 30
0.0
 40
0.6400000000000001
  1
KNOCKOUT DATA APPLICABLE TO NEMA TYPE 12K SWITCHES ONLY
  7
ROMANS
 11
1.999999999999999
 21
5.519999999999999
 31
0.0
100
AcDbText
 73
     2
  0
TEXT
  5
638B2
330
1F
100
AcDbEntity
  8
TEXT1
100
AcDbText
 10
1.941572649637237
 20
2.56
 30
0.0
 40
0.6400000000000001
  1
IF CORNER GROUNDED DELTA, INSTALL NEUTRAL AND USE OUTER SWITCHING POLE FOR UNGROUNDED CONDUCTORS.
  7
ROMANS
 11
1.941572649637237
 21
2.88
 31
0.0
100
AcDbText
 73
     2
  0
TEXT
  5
638B3
330
1F
100
AcDbEntity
  8
TEXT1
100
AcDbText
 10
1.999999999999999
 20
4.32
 30
0.0
 40
0.6400000000000001
  1
LUGS SUITABLE FOR 75%%dC CONDUCTORS.
  7
ROMANS
 11
1.999999999999999
 21
4.64
 31
0.0
100
AcDbText
 73
     2
  0
TEXT
  5
638B4
330
1F
100
AcDbEntity
  8
TEXT1
100
AcDbText
 10
2.058427350362762
 20
14.88
 30
0.0
 40
0.6400000000000001
  1
FINISH - GRAY BAKED ENAMEL
  7
ROMANS
 11
2.058427350362762
 21
15.2
 31
0.0
100
AcDbText
 73
     2
  0
TEXT
  5
638B5
330
1F
100
AcDbEntity
  8
TEXT1
100
AcDbText
 10
0.3669283071935255
 20
3.596717492981216
 30
0.0
 40
0.6400000000000001
  1
#
  7
ROMANS
 72
     1
 11
0.6869283071935256
 21
3.916717492981216
 31
0.0
100
AcDbText
 73
     2
  0
LWPOLYLINE
  5
638B6
102
{ACAD_REACTORS
330
639D6
102
}
330
1F
100
AcDbEntity
  8
TEXT1
100
AcDbPolyline
 90
        3
 70
   129
 43
0.0
 10
0.6676189888122649
 20
4.399999999999998
 10
0.9076189888122739
 20
4.879999999999995
 10
1.147618988812254
 20
4.399999999999998
  0
TEXT
  5
638BB
330
1F
100
AcDbEntity
  8
TEXT1
100
AcDbText
 10
2.058427350362762
 20
6.959999999999999
 30
0.0
 40
0.6400000000000001
  1
WHEN MOUNTING THESE SWITCHES, ALLOW 4.00 [102] MIN CLEARANCE BETWEEN ENCLOSURES FOR OPENING OF
  7
ROMANS
 11
2.058427350362762
 21
7.279999999999999
 31
0.0
100
AcDbText
 73
     2
  0
TEXT
  5
638BC
330
1F
100
AcDbEntity
  8
TEXT1
100
AcDbText
 10
1.999999999999999
 20
6.08
 30
0.0
 40
0.6400000000000001
  1
   SIDE HINGED DOOR.
  7
ROMANS
 11
1.999999999999999
 21
6.4
 31
0.0
100
AcDbText
 73
     2
  0
TEXT
  5
638C9
330
1F
100
AcDbEntity
  8
DIM
100
AcDbText
 10
40.66224660879917
 20
69.58628129037778
 30
0.0
 40
0.8
  1
(4 HOLES)
 41
0.9352521345271746
  7
M_STANDARD
 11
40.66224660879917
 21
69.98628129037779
 31
0.0
100
AcDbText
 73
     2
  0
LWPOLYLINE
  5
638CF
330
1F
100
AcDbEntity
  8
CONTINUOUS1
100
AcDbPolyline
 90
        8
 70
   128
 43
0.0
 10
18.43108918623541
 20
31.93391275457177
 10
35.59082771147108
 20
31.92296419839954
 10
18.43108918623541
 20
31.93391275457177
 10
18.43108918623541
 20
31.25900048117175
 10
18.65605994403542
 20
31.25900048117175
 10
35.36585695367108
 20
31.24805192499953
 10
35.59082771147108
 20
31.24805192499953
 10
35.59082771147108
 20
31.92296419839954
  0
LWPOLYLINE
  5
638D1
330
1F
100
AcDbEntity
  8
CONTINUOUS1
100
AcDbPolyline
 90
        6
 70
   128
 43
0.0
 10
34.24400277477508
 20
31.92296419839954
 10
33.11914898577508
 20
33.05876654357175
 10
20.9049283525378
 20
33.05876654357175
 10
33.11914898577508
 20
33.05876654357175
 10
20.9049283525378
 20
33.05876654357175
 10
19.7800745635378
 20
31.93391275457177
  0
LINE
  5
638D7
330
1F
100
AcDbEntity
  8
CONTINUOUS1
100
AcDbLine
 10
35.68312601433216
 20
28.65638879514353
 30
0.0
 11
35.68312601433216
 21
29.10633031074354
 31
0.0
  0
LWPOLYLINE
  5
638D8
330
1F
100
AcDbEntity
  8
CONTINUOUS1
100
AcDbPolyline
 90
        4
 70
   128
 43
0.0
 10
35.36585695367108
 20
31.24805192499953
 10
35.36585695367108
 20
24.30876654357175
 10
18.65605994403542
 20
24.30876654357176
 10
18.65605994403542
 20
31.25900048117175
  0
LWPOLYLINE
  5
638D9
330
1F
100
AcDbEntity
  8
CONTINUOUS1
100
AcDbPolyline
 90
        5
 70
   128
 43
0.0
 10
36.95765004886041
 20
32.03095016214354
 10
36.95765004886041
 20
28.65638879514353
 10
35.68312601433216
 20
28.65638879514353
 10
35.68312601433216
 20
29.10633031074354
 10
35.36585695367108
 20
29.10633031074354
  0
LINE
  5
638DA
330
1F
100
AcDbEntity
  8
CONTINUOUS1
100
AcDbLine
 10
35.36585695367108
 20
30.90609637314353
 30
0.0
 11
36.95765004886041
 21
30.90609637314353
 31
0.0
  0
LINE
  5
638DB
330
1F
100
AcDbEntity
  8
CONTINUOUS1
100
AcDbLine
 10
35.36585695367108
 20
28.88135955294353
 30
0.0
 11
35.68312601433216
 21
28.88135955294353
 31
0.0
  0
LINE
  5
638DC
330
1F
100
AcDbEntity
  8
CONTINUOUS1
100
AcDbLine
 10
35.36585695367108
 20
30.00621334194353
 30
0.0
 11
35.36585695367108
 21
29.55627182634353
 31
0.0
  0
LINE
  5
638DD
330
1F
100
AcDbEntity
  8
CONTINUOUS1
100
AcDbLine
 10
36.07076532811109
 20
31.99139310385803
 30
0.0
 11
36.04607883691618
 21
31.99139310385803
 31
0.0
  0
LWPOLYLINE
  5
638DE
330
1F
100
AcDbEntity
  8
CONTINUOUS1
100
AcDbPolyline
 90
       16
 70
   128
 43
0.0
 10
36.84066525480442
 20
30.90609637314353
 10
36.84066525480442
 20
32.03095016214354
 10
36.95765004886041
 20
32.03095016214354
 42
0.4142135623730951
 10
37.06563601260441
 20
32.13893612588754
 10
37.06563601260441
 20
32.44133461945804
 10
36.95591417449323
 20
33.69595544105021
 10
36.95634736925573
 20
33.69489088891816
 42
0.3983738534667681
 10
36.77663658720914
 20
33.86508469671182
 10
36.77620418274081
 20
33.86614941885787
 10
36.22752585202916
 20
33.86614941885804
 42
0.3983734525194312
 10
36.0478153190929
 20
33.69595561106422
 10
35.93809287317218
 20
32.44133461945804
 10
35.93809287317218
 20
32.09937906760204
 42
0.4142123461699967
 10
36.04607838851754
 20
31.99139310385897
 10
36.07076532811109
 20
31.99139310385803
 10
35.96776561624297
 20
30.90609637314353
  0
LINE
  5
638DF
330
1F
100
AcDbEntity
  8
CONTINUOUS1
100
AcDbLine
 10
37.06563601260441
 20
30.00621334194353
 30
0.0
 11
37.06563601260441
 21
29.55627182634353
 31
0.0
  0
LINE
  5
638E0
330
1F
100
AcDbEntity
  8
CONTINUOUS1
100
AcDbLine
 10
37.06563601260441
 20
29.55627182634353
 30
0.0
 11
36.95765004886041
 21
29.55627182634353
 31
0.0
  0
LINE
  5
638E1
330
1F
100
AcDbEntity
  8
CONTINUOUS1
100
AcDbLine
 10
37.06563601260441
 20
30.00621334194353
 30
0.0
 11
36.95765004886041
 21
30.00621334194353
 31
0.0
  0
LWPOLYLINE
  5
638E2
330
1F
100
AcDbEntity
  8
CONTINUOUS1
100
AcDbPolyline
 90
       28
 70
   129
 43
0.0
 10
21.04583656577346
 20
67.8067423865955
 10
21.04583656577346
 20
46.36766211474602
 42
0.0863492256614325
 10
21.06208606088477
 20
46.27441862552609
 42
0.0410285385749437
 10
21.08229460191329
 20
46.23011571134674
 42
0.0376811684347431
 10
21.11039439076446
 20
46.18776309103604
 42
0.0336919153105464
 10
21.14619482600857
 20
46.14764804326447
 42
0.029658282803817
 10
21.18945307257748
 20
46.11004266920327
 42
0.0259467660477961
 10
21.2398757089197
 20
46.07520204685664
 42
0.0227171916257739
 10
21.2971207172846
 20
46.04336250086272
 42
0.0377617497244415
 10
21.43048103145697
 20
45.98952868976351
 42
0.030342177572957
 10
21.58592180820604
 20
45.94999938231525
 42
0.025472749826843
 10
21.75923276767441
 20
45.92584527213128
 42
0.022372386871008
 10
21.94571959697346
 20
45.91772059914601
 10
32.66536869057347
 20
45.91772059914601
 42
0.4142139852046831
 10
33.11531020617346
 20
46.36766211474602
 10
33.11531020617346
 20
67.8067423865955
 42
0.4142139852047108
 10
32.66536869057347
 20
68.25668390219552
 10
21.94571959697346
 20
68.25668390219552
 42
0.0223724194702038
 10
21.75923276767431
 20
68.24855934850967
 42
0.0254727890265476
 10
21.58592180820584
 20
68.22440532592544
 42
0.0303422249933504
 10
21.43048103145673
 20
68.18487607200444
 42
0.0377618058683447
 10
21.29712071728436
 20
68.13104227891023
 42
0.0227172218585699
 10
21.23987570891946
 20
68.09920272840739
 42
0.0259467957815641
 10
21.18945307257726
 20
68.06436209256469
 42
0.0296583089727114
 10
21.14619482600837
 20
68.02675669611172
 42
0.0336919331745751
 10
21.11039439076427
 20
67.98664161720464
 42
0.0376811720019445
 10
21.08229460191315
 20
67.94428895722581
 42
0.0410285224709993
 10
21.06208606088467
 20
67.89998599511483
 42
0.0863491335718942
  0
LWPOLYLINE
  5
638E3
330
1F
100
AcDbEntity
  8
CONTINUOUS1
100
AcDbPolyline
 90
        4
 70
   128
 43
0.0
 10
35.71198893186944
 20
66.08647919023598
 10
36.07694149452277
 20
66.08647919023598
 10
36.07694149452277
 20
65.41156691683596
 10
35.71198893186944
 20
65.41156691683596
  0
LWPOLYLINE
  5
638E4
330
1F
100
AcDbEntity
  8
CONTINUOUS1
100
AcDbPolyline
 90
        4
 70
   129
 43
0.0
 10
18.44315861986947
 20
71.25424552912676
 10
18.44315861986945
 20
42.25424552912676
 10
35.71198893186947
 20
42.25424552912676
 10
35.71198893186947
 20
71.25424552912676
  0
LWPOLYLINE
  5
638E5
330
1F
100
AcDbEntity
  8
CONTINUOUS1
100
AcDbPolyline
 90
        8
 70
   129
 43
0.0
 10
19.92098277677346
 20
68.03171314439551
 10
19.92098277677346
 20
46.14269135694601
 42
0.4142139852046939
 10
21.27080732357345
 20
44.79286681014602
 10
32.89033944837346
 20
44.79286681014602
 42
0.4142139852046939
 10
34.24016399517346
 20
46.14269135694601
 10
34.24016399517346
 20
68.03171314439551
 42
0.4142139852046955
 10
32.89033944837346
 20
69.3815376911955
 10
21.27080732357345
 20
69.3815376911955
 42
0.4142139852046986
  0
LINE
  5
638E6
330
1F
100
AcDbEntity
  8
CONTINUOUS1
100
AcDbLine
 10
36.96380802012547
 20
61.28259041039514
 30
0.0
 11
36.84682322606946
 21
61.28259041039514
 31
0.0
  0
LINE
  5
638E7
330
1F
100
AcDbEntity
  8
CONTINUOUS1
100
AcDbLine
 10
35.71198893186947
 20
66.98636222143595
 30
0.0
 11
36.84682322606946
 21
66.9863622214356
 31
0.0
  0
LINE
  5
638E8
330
1F
100
AcDbEntity
  8
CONTINUOUS1
100
AcDbLine
 10
35.71198893186944
 20
65.41156691683596
 30
0.0
 11
36.84682322606946
 21
65.4115669168356
 31
0.0
  0
LWPOLYLINE
  5
638E9
330
1F
100
AcDbEntity
  8
CONTINUOUS1
100
AcDbPolyline
 90
       29
 70
   128
 43
0.0
 10
36.84682322606946
 20
67.65660320202065
 10
36.84682322606946
 20
61.28259041039514
 10
36.96380816959168
 20
61.28259041039505
 10
37.07179398386946
 20
61.17460444665116
 10
37.07179398386946
 20
59.59360534843405
 10
37.07179398386946
 20
61.17460444665116
 10
37.07179391103732
 20
59.59360535764746
 10
37.05835807886295
 20
59.58068048166578
 10
37.04492224668858
 20
59.56775560568408
 10
37.04492617620692
 20
59.56779460337216
 10
36.86727216807045
 20
58.85718037059233
 10
36.86727211893696
 20
58.85717956657693
 10
36.85488587926943
 20
58.81628208458312
 10
36.84249963960191
 20
58.77538460258931
 10
36.64252998002725
 20
58.77538460258829
 10
36.57851075097714
 20
58.77538460258968
 42
-0.3515236501828169
 10
36.47309662964554
 20
58.8599454333703
 10
36.09601641512212
 20
60.36436056395541
 10
36.09601578394814
 20
60.36436274855979
 42
-0.0744450655522961
 10
36.07186604667076
 20
60.60865686298838
 42
-0.0775206870647123
 10
36.12076723776073
 20
60.84414231441495
 10
36.12076679801224
 20
60.84414040110394
 10
36.2085071933203
 20
61.10736068714512
 10
36.20850596580655
 20
61.10735641056883
 42
0.0132904724514726
 10
36.24372248080774
 20
61.33550243864902
 42
0.0148723332420991
 10
36.25073701520747
 20
61.41011506442257
 42
0.0260933278022042
 10
36.25157808236278
 20
61.46666005561577
 10
36.0760266216784
 20
62.71323511908441
 10
36.07694149452277
 20
65.41156691683596
  0
LWPOLYLINE
  5
638EA
330
1F
100
AcDbEntity
  8
CONTINUOUS1
100
AcDbPolyline
 90
        4
 70
   128
 43
0.0
 10
36.84682322606946
 20
64.48528941644745
 10
36.98180568074947
 20
64.48528941644745
 10
36.98180568074947
 20
63.81037714304747
 10
36.84682322606946
 20
63.81037714304747
  0
LWPOLYLINE
  5
638EB
330
1F
100
AcDbEntity
  8
CONTINUOUS1
100
AcDbPolyline
 90
        3
 70
   128
 43
0.0
 10
65.17555190915055
 20
60.81199945638896
 10
65.17555190915055
 20
42.28519276320201
 10
65.70473083816139
 20
42.28519276320201
  0
LWPOLYLINE
  5
638EC
330
1F
100
AcDbEntity
  8
CONTINUOUS1
100
AcDbPolyline
 90
        3
 70
   128
 43
0.0
 10
65.18564307382985
 20
69.15839516154786
 10
64.18457629471868
 20
68.22446575577142
 10
64.18519848298771
 20
61.30873709012615
  0
LWPOLYLINE
  5
638ED
330
1F
100
AcDbEntity
  8
CONTINUOUS1
100
AcDbPolyline
 90
        3
 70
   128
 43
0.0
 10
64.17448513003939
 20
59.61267776359436
 10
64.17448513003939
 20
45.91772059914601
 10
65.17555190915055
 20
45.00601130514998
  0
LWPOLYLINE
  5
638EE
330
1F
100
AcDbEntity
  8
CONTINUOUS1
100
AcDbPolyline
 90
        9
 70
   128
 43
0.0
 10
66.41316312434913
 20
69.3815376911955
 10
66.41316312434913
 20
69.68149870159551
 10
65.72489900379202
 20
70.63784373120262
 10
65.72489900379202
 20
70.92762105529139
 10
65.72489900379204
 20
70.6378437312026
 10
65.72489900379202
 20
70.93780474160265
 10
65.72489900379202
 20
71.22758206569141
 10
65.17555190915055
 20
71.22758206569141
 10
65.17555190915055
 20
65.97551754149115
  0
LWPOLYLINE
  5
638EF
330
1F
100
AcDbEntity
  8
CONTINUOUS1
100
AcDbPolyline
 90
        4
 70
   128
 43
0.0
 10
66.41316312434913
 20
45.55068695038198
 10
66.41316312434913
 20
45.88936357235714
 10
65.72489900379202
 20
46.53151021708902
 10
65.72489900379202
 20
61.16712208786991
  0
LWPOLYLINE
  5
638F0
330
1F
100
AcDbEntity
  8
CONTINUOUS1
100
AcDbPolyline
 90
        3
 70
   128
 43
0.0
 10
65.70473083816136
 20
42.28519276320201
 10
66.39299495871847
 20
43.21193394435852
 10
66.39299495871847
 20
43.60429154719017
  0
LINE
  5
638F1
330
1F
100
AcDbEntity
  8
CONTINUOUS1
100
AcDbLine
 10
66.25510678650147
 20
46.03682926756921
 30
0.0
 11
66.25510678650147
 21
45.55068695038198
 31
0.0
  0
LINE
  5
638F2
330
1F
100
AcDbEntity
  8
CONTINUOUS1
100
AcDbLine
 10
66.25510678650147
 20
43.60429154719017
 30
0.0
 11
66.25510678650147
 21
43.02626881411102
 31
0.0
  0
LWPOLYLINE
  5
638F3
330
1F
100
AcDbEntity
  8
CONTINUOUS1
100
AcDbPolyline
 90
        5
 70
   128
 43
0.0
 10
65.72489900379202
 20
70.92762105529139
 10
72.62360805691759
 20
70.92762105529139
 10
72.62360805691759
 20
70.9233282858212
 10
72.62360805691759
 20
42.58515377360203
 10
65.92750328555249
 20
42.58515377360203
  0
LWPOLYLINE
  5
638F4
330
1F
100
AcDbEntity
  8
CONTINUOUS1
100
AcDbPolyline
 90
        4
 70
   129
 43
0.0
 10
33.78426523568043
 20
30.43772799457298
 10
35.15216116617739
 20
30.43772799457298
 10
35.15216116617739
 20
31.09267639172684
 10
33.78426523568043
 20
31.09267639172684
  0
LWPOLYLINE
  5
638F5
330
1F
100
AcDbEntity
  8
CONTINUOUS1
100
AcDbPolyline
 90
        2
 70
   129
 43
0.0
 10
33.78426523568043
 20
30.9523312388882
 10
35.15216116617739
 20
30.9523312388882
  0
LWPOLYLINE
  5
638F9
330
1F
100
AcDbEntity
  8
CONTINUOUS1
100
AcDbPolyline
 90
       11
 70
   128
 43
0.0
 10
72.62360805691759
 20
42.58515377360203
 10
72.62360805691759
 20
42.46428606953807
 10
72.74344727994855
 20
42.2005687481027
 10
72.74344727994855
 20
41.18945177533809
 10
72.92342388618857
 20
41.18945177533809
 10
72.74344727994855
 20
41.18945177533809
 10
72.92342388618857
 20
41.18945177533809
 10
72.92342388618857
 20
42.23954328210598
 10
72.80358466315758
 20
42.50326060354137
 10
72.80358466315758
 20
44.01556595938017
 10
72.62360805691759
 20
44.01556595938017
  0
LINE
  5
638FA
330
1F
100
AcDbEntity
  8
CONTINUOUS1
100
AcDbLine
 10
72.92342388618857
 20
42.23954328210598
 30
0.0
 11
72.80358466315758
 21
42.50326060354137
 31
0.0
  0
LWPOLYLINE
  5
638FB
330
1F
100
AcDbEntity
  8
CONTINUOUS1
100
AcDbPolyline
 90
       12
 70
   128
 43
0.0
 10
72.62360805691759
 20
69.3815376911955
 10
72.80358466315758
 20
69.3815376911955
 10
72.80358466315758
 20
70.73639464485228
 10
72.80358466315758
 20
69.3815376911955
 10
72.80358466315758
 20
70.73639464485228
 10
72.92342388618857
 20
71.00011196628766
 10
72.92342388618857
 20
72.19718436815158
 10
72.74344727994855
 20
72.19718436815158
 10
72.92342388618857
 20
72.19718436815158
 10
72.74344727994855
 20
72.19718436815158
 10
72.74344727994855
 20
71.03908650029096
 10
72.62360805691759
 20
70.77536917885557
  0
LWPOLYLINE
  5
638FC
330
1F
100
AcDbEntity
  8
CONTINUOUS1
100
AcDbPolyline
 90
        4
 70
   129
 43
0.0
 10
65.94404512672253
 20
67.38909253136856
 10
65.94404512672253
 20
69.3815376911955
 10
68.68357823610935
 20
69.3815376911955
 10
68.68357823610935
 20
67.38909253136856
  0
LWPOLYLINE
  5
638FD
330
1F
100
AcDbEntity
  8
CONTINUOUS1
100
AcDbPolyline
 90
        4
 70
   129
 43
0.0
 10
65.94404512672253
 20
43.60429154719017
 10
65.94404512672253
 20
45.55068695038198
 10
68.68357823610932
 20
45.55068695038198
 10
68.68357823610932
 20
43.60429154719017
  0
LWPOLYLINE
  5
6390B
330
1F
100
AcDbEntity
  8
CONTINUOUS1
100
AcDbPolyline
 90
        4
 70
   129
 43
0.0
 10
44.71907372222388
 20
74.97691415983884
 42
-3.910975933075001
 10
43.18307372222387
 20
74.97691415983884
 10
43.18307372222387
 20
75.26928535983877
 42
-1.000000272056807
 10
44.71907372222388
 20
75.26928535983877
  0
TEXT
  5
63911
330
1F
100
AcDbEntity
  8
CONTINUOUS1
100
AcDbText
 10
33.36069724392749
 20
70.13056854533349
 30
0.0
 40
0.5999220208000001
  1
ON
 41
0.8825226431901286
  7
M_STANDARD
 72
     1
 11
33.81450704464553
 21
70.43052955573348
 31
0.0
100
AcDbText
 73
     2
  0
TEXT
  5
63912
330
1F
100
AcDbEntity
  8
CONTINUOUS1
100
AcDbText
 10
33.13842839999546
 20
43.15295175512004
 30
0.0
 40
0.5999220208000001
  1
OFF
 41
0.8930501245289244
  7
M_STANDARD
 72
     1
 11
33.81450704464555
 21
43.45291276552003
 31
0.0
100
AcDbText
 73
     2
  0
LWPOLYLINE
  5
63914
330
1F
100
AcDbEntity
  8
CONTINUOUS1
100
AcDbPolyline
 90
        3
 70
   128
 43
0.0
 10
66.06905543049936
 20
66.79413328828871
 10
66.41316312434913
 20
67.1151838769104
 10
66.41316312434913
 20
67.38909253136856
  0
LINE
  5
63915
330
1F
100
AcDbEntity
  8
CONTINUOUS1
100
AcDbLine
 10
66.25510678650147
 20
66.96771818169832
 30
0.0
 11
66.25510678650147
 21
67.38909253136856
 31
0.0
  0
LINE
  5
63916
330
1F
100
AcDbEntity
  8
CONTINUOUS1
100
AcDbLine
 10
66.25510678650147
 20
69.3815376911955
 30
0.0
 11
66.25510678650147
 21
69.9011184501539
 31
0.0
  0
LWPOLYLINE
  5
63918
330
1F
100
AcDbEntity
  8
CONTINUOUS1
100
AcDbPolyline
 90
        4
 70
   129
 43
0.0
 10
35.80766158475951
 20
67.37438940987892
 10
36.29330306081017
 20
67.37438940987892
 10
36.29330306081017
 20
69.32078481307074
 10
35.80766158475951
 20
69.32078481307074
  0
LWPOLYLINE
  5
63919
330
1F
100
AcDbEntity
  8
CONTINUOUS1
100
AcDbPolyline
 90
        4
 70
   129
 43
0.0
 10
35.80766158475951
 20
43.60225168133391
 10
36.29330306081017
 20
43.60225168133391
 10
36.29330306081017
 20
45.54864708452569
 10
35.80766158475951
 20
45.54864708452569
  0
LWPOLYLINE
  5
6391A
330
1F
100
AcDbEntity
  8
CONTINUOUS1
100
AcDbPolyline
 90
        3
 70
   128
 43
0.0
 10
35.71198893186947
 20
69.62074582347073
 10
35.96167188918581
 20
69.62074582347073
 10
35.96167188918581
 20
69.32078481307074
  0
LWPOLYLINE
  5
6391B
330
1F
100
AcDbEntity
  8
CONTINUOUS1
100
AcDbPolyline
 90
        3
 70
   128
 43
0.0
 10
35.96167188918581
 20
67.37438940987892
 10
35.96167188918581
 20
67.07442839947898
 10
35.71198893186947
 20
67.07442839947898
  0
LWPOLYLINE
  5
6391C
330
1F
100
AcDbEntity
  8
CONTINUOUS1
100
AcDbPolyline
 90
        3
 70
   128
 43
0.0
 10
35.71198893186947
 20
45.84860809492569
 10
35.96167188918581
 20
45.84860809492569
 10
35.96167188918581
 20
45.54864708452572
  0
LWPOLYLINE
  5
6391D
330
1F
100
AcDbEntity
  8
CONTINUOUS1
100
AcDbPolyline
 90
        3
 70
   128
 43
0.0
 10
35.96167188918581
 20
43.60225168133391
 10
35.96167188918581
 20
43.30229067093394
 10
35.71198893186947
 20
43.30229067093394
  0
LWPOLYLINE
  5
6391E
330
1F
100
AcDbEntity
  8
CONTINUOUS1
100
AcDbPolyline
 90
        7
 70
   128
 43
0.0
 10
66.41129347115963
 20
42.58515377360203
 10
66.41129347115963
 20
42.46122196411948
 10
65.83324581245324
 20
42.46122196411948
 10
65.83324581245324
 20
42.45823697038099
 10
65.83324581245324
 20
41.66271769083133
 10
65.67910499081978
 20
41.66271769083133
 10
65.67910499081978
 20
42.28519276320201
  0
LWPOLYLINE
  5
6391F
330
1F
100
AcDbEntity
  8
CONTINUOUS1
100
AcDbPolyline
 90
       41
 70
   129
 43
0.0
 10
64.72169116212455
 20
62.06880579017642
 10
64.71515960927812
 20
61.99387402106625
 10
64.70093343555999
 20
61.92840901156803
 10
64.6766549673676
 20
61.86449057488286
 10
64.63996783322745
 20
61.79419652463889
 10
64.58851318538953
 20
61.70960519754705
 10
64.55319021888533
 20
61.65459017365016
 42
-0.3999189512225918
 10
64.46118351227823
 20
61.63215923244758
 10
64.39812874188382
 20
61.66840723900385
 42
0.1936142276069977
 10
64.34666267465809
 20
61.67566884188909
 42
0.1960777040192691
 10
64.3049360539037
 20
61.64527466803973
 42
0.1209520821142096
 10
64.27854364400303
 20
61.62618081467872
 42
0.1199500354355643
 10
64.26387330277879
 20
61.59693970813338
 10
64.20546211385408
 20
61.34369577488986
 42
-0.1504392285135927
 10
64.18519848298771
 20
61.30873709012615
 42
-0.1614361736658364
 10
64.14966646127033
 20
61.28463848094409
 42
-0.1593532976339333
 10
64.10647357257658
 20
61.28637508957067
 10
64.02498169518088
 20
61.31661787185234
 10
64.10647447080936
 20
61.28637482645003
 10
64.02498193203658
 20
61.31661829907145
 42
0.1528003718444839
 10
63.87207184101936
 20
61.31522343782403
 10
63.8720731837663
 20
61.31522387146062
 10
63.85720717533439
 20
61.2980824015495
 10
63.84234116690248
 20
61.2809409316384
 10
63.84233663971485
 20
61.28093557808835
 42
0.1631101859129323
 10
63.82600016860783
 20
61.24046781399285
 10
63.80218589661308
 20
60.95396688529944
 42
-0.2918335742205867
 10
63.36285339995072
 20
60.71171725443806
 10
63.36285533130933
 20
60.71171633205418
 42
0.5271746362781148
 10
63.29298375738779
 20
60.62251364430735
 10
63.2929818513646
 20
60.62251912965518
 42
0.1817718841501064
 10
64.18273291846012
 20
59.60824099673273
 10
64.18273963088714
 20
59.60823761654653
 42
0.5502748582620395
 10
64.45454160526441
 20
59.70946329012697
 10
64.46755206897268
 20
59.77105489176039
 10
64.46754971285725
 20
59.7710576239384
 10
64.90722036640142
 20
60.34730554241258
 10
65.34689101994558
 20
60.92355346088675
 10
65.75174756598136
 20
61.184421900859
 10
65.69411210883913
 20
61.24331376826463
 10
64.72288611642389
 20
62.16112615654862
  0
LINE
  5
63920
330
1F
100
AcDbEntity
  8
CONTINUOUS1
100
AcDbLine
 10
64.72288611642389
 20
62.16112615654862
 30
0.0
 11
64.98614443679603
 21
62.29246309000799
 31
0.0
  0
LINE
  5
63921
330
1F
100
AcDbEntity
  8
CONTINUOUS1
100
AcDbLine
 10
65.75174756598136
 20
61.184421900859
 30
0.0
 11
65.83590443941372
 21
61.17672038504712
 31
0.0
  0
LWPOLYLINE
  5
63922
330
1F
100
AcDbEntity
  8
CONTINUOUS1
100
AcDbPolyline
 90
       13
 70
   129
 43
0.0
 10
65.73071478014128
 20
66.67102819097006
 42
-0.4142135623730671
 10
66.26021378528623
 20
66.69944830358568
 10
66.3045884886474
 20
66.65959444931061
 10
66.35443012795312
 20
66.71508990889545
 10
69.2335112603343
 20
64.12932659770762
 42
-0.4142135623731289
 10
69.26193137294996
 20
63.59982759256265
 10
66.70983852991577
 20
60.75823636080774
 10
66.53675945479347
 20
60.91368231797517
 42
0.4142135623730181
 10
66.37790975324993
 20
60.90515628419048
 10
66.37113263983309
 20
60.89761040430039
 42
-0.414213562373064
 10
66.15933303777513
 20
60.88624235925412
 10
65.83590443941372
 20
61.17672038504712
 42
-0.4142135623730907
 10
65.55170331325735
 20
66.4717104364967
  0
LWPOLYLINE
  5
63923
330
1F
100
AcDbEntity
  8
CONTINUOUS1
100
AcDbPolyline
 90
        4
 70
   129
 43
0.0
 10
66.35443012795312
 20
66.71508990889545
 10
66.66025234321245
 20
67.0556032752993
 10
67.34485890496808
 20
66.44074372511987
 10
67.03903668970872
 20
66.10023035871598
  0
CIRCLE
  5
63924
330
1F
100
AcDbEntity
  8
CONTINUOUS1
100
AcDbCircle
 10
66.83927596213266
 20
66.5922881288141
 30
0.0
 40
0.1265627998734542
  0
LWPOLYLINE
  5
63925
330
1F
100
AcDbEntity
  8
CONTINUOUS1
100
AcDbPolyline
 90
        4
 70
   129
 43
0.0
 10
67.32469808009525
 20
61.4428429225634
 10
67.6652114464992
 20
61.13702070730401
 10
67.05035189631968
 20
60.4524141455484
 10
66.70983852991577
 20
60.75823636080774
  0
CIRCLE
  5
63926
330
1F
100
AcDbEntity
  8
CONTINUOUS1
100
AcDbCircle
 10
67.16741848026638
 20
60.96911861352205
 30
0.0
 40
0.1274386774514779
  0
LWPOLYLINE
  5
63927
330
1F
100
AcDbEntity
  8
CONTINUOUS1
100
AcDbPolyline
 90
        8
 70
   129
 43
0.0
 10
65.63891082627555
 20
63.01472521945495
 42
0.2634471391023477
 10
65.4997092643556
 20
62.9754966470246
 10
65.45523286207947
 20
62.93062013983673
 42
0.4142135623731751
 10
65.45616226315792
 20
62.72306285178817
 10
66.22117545823584
 20
61.68560888132187
 42
0.4142135623730545
 10
66.42873274628442
 20
61.68653828240032
 10
67.11827501808989
 20
62.42305018014727
 42
0.5829708565575637
 10
67.04898989088281
 20
62.66890663954768
  0
CIRCLE
  5
63928
330
1F
100
AcDbEntity
  8
CONTINUOUS1
100
AcDbCircle
 10
68.06235262063115
 20
63.90748570771977
 30
0.0
 40
0.4803183778805815
  0
LINE
  5
63929
330
1F
100
AcDbEntity
  8
CONTINUOUS1
100
AcDbLine
 10
35.71198893186947
 20
62.7035705831765
 30
0.0
 11
36.07602334490515
 21
62.7035705831765
 31
0.0
  0
INSERT
  5
6392B
330
1F
100
AcDbEntity
  8
CONTINUOUS1
100
AcDbBlockReference
  2
M_PFN_2
 10
72.92342388618857
 20
41.18945177533809
 30
0.0
 41
8.0
 42
8.0
 43
8.0
 50
269.9999999999939
  0
INSERT
  5
6392D
330
1F
100
AcDbEntity
  8
CONTINUOUS1
100
AcDbBlockReference
  2
M_PFN_2
 10
64.17448513003939
 20
45.91772059914601
 30
0.0
 41
8.0
 42
8.0
 43
8.0
 50
269.9999999999939
  0
INSERT
  5
63937
330
1F
100
AcDbEntity
  8
CONTINUOUS1
100
AcDbBlockReference
  2
M_PFN_2
 10
18.44315861986945
 20
42.28519276320201
 30
0.0
 41
8.0
 42
8.0
 43
8.0
 50
269.9999999999939
  0
INSERT
  5
6393F
330
1F
100
AcDbEntity
  8
CONTINUOUS1
100
AcDbBlockReference
  2
M_PFN_2
 10
18.44315861986947
 20
71.25424552912676
 30
0.0
 41
8.0
 42
8.0
 43
8.0
 50
180.0000000000119
  0
INSERT
  5
63941
330
1F
100
AcDbEntity
  8
CONTINUOUS1
100
AcDbBlockReference
  2
M_PFN_2
 10
18.44315861986945
 20
42.25424552912676
 30
0.0
 41
8.0
 42
8.0
 43
8.0
 50
180.0000000000119
  0
INSERT
  5
63953
330
1F
100
AcDbEntity
  8
CONTINUOUS1
100
AcDbBlockReference
  2
M_PFN_2
 10
18.44315861986945
 20
42.25424552912676
 30
0.0
 41
8.0
 42
8.0
 43
8.0
 50
180.0000000000119
  0
INSERT
  5
63955
330
1F
100
AcDbEntity
  8
CONTINUOUS1
100
AcDbBlockReference
  2
M_PFN_2
 10
19.46580237261165
 20
41.25036335498665
 30
0.0
 41
8.0
 42
8.0
 43
8.0
 50
180.0000000000119
  0
INSERT
  5
63971
330
1F
100
AcDbEntity
  8
CONTINUOUS1
100
AcDbBlockReference
  2
M_PFN_2
 10
35.71198893186947
 20
71.22329829505151
 30
0.0
 41
8.0
 42
8.0
 43
8.0
 50
90.00000000000587
  0
INSERT
  5
63973
330
1F
100
AcDbEntity
  8
CONTINUOUS1
100
AcDbBlockReference
  2
M_PFN_2
 10
18.44120814616742
 20
71.22329829505151
 30
0.0
 41
8.0
 42
8.0
 43
8.0
 50
90.00000000000587
  0
LWPOLYLINE
  5
639B7
330
1F
100
AcDbEntity
  8
CONTINUOUS1
100
AcDbPolyline
 90
        5
 70
   128
 43
0.0
 10
105.9887075321946
 20
63.38374636543867
 10
105.9887075321946
 20
64.22799704445134
 42
-1.002526647117086
 10
105.99112693743
 20
65.18796714318478
 42
0.9836376677425457
 10
105.9842641728196
 20
66.14798148049175
 10
105.9842641728196
 20
66.99223215950786
  0
LWPOLYLINE
  5
639B8
330
1F
100
AcDbEntity
  8
CONTINUOUS1
100
AcDbPolyline
 90
        5
 70
   128
 43
0.0
 10
107.4482595341477
 20
63.38374636543867
 10
107.4482595341477
 20
64.22799704445134
 42
-1.002526647117086
 10
107.4506789393831
 20
65.18796714318478
 42
0.9836376677426285
 10
107.4438161747727
 20
66.14798148049175
 10
107.4438161747727
 20
66.99223215950786
  0
TEXT
  5
639B9
330
1F
100
AcDbEntity
  8
TEXT1
100
AcDbText
 10
102.7440659411679
 20
65.39708364376243
 30
0.0
 40
0.6400000000000001
  1
N
  7
ROMANS
 72
     1
 11
103.079304036406
 21
65.71708364376242
 31
0.0
100
AcDbText
 73
     2
  0
LWPOLYLINE
  5
639BA
330
1F
100
AcDbEntity
  8
CONTINUOUS1
100
AcDbPolyline
 90
        4
 70
   129
 43
0.0
 10
102.5186435978684
 20
65.08364489447304
 10
103.6206244938031
 20
65.08364489447304
 10
103.6206244938031
 20
67.71228011023909
 10
102.5186435978684
 20
67.71228011023909
  0
LWPOLYLINE
  5
639BB
330
1F
100
AcDbEntity
  8
CONTINUOUS1
100
AcDbPolyline
 90
        5
 70
   128
 43
0.0
 10
104.5291860478196
 20
63.38374636543867
 10
104.5291860478196
 20
64.22799704445134
 42
-1.002526647111235
 10
104.531605453055
 20
65.18796714318476
 42
0.983637667741746
 10
104.5247426884446
 20
66.14798148049175
 10
104.5247426884446
 20
66.99223215950786
  0
CIRCLE
  5
639BC
330
1F
100
AcDbEntity
  8
CONTINUOUS1
100
AcDbCircle
 10
104.5291860478196
 20
63.07830758836029
 30
0.0
 40
0.3054387770830012
  0
LINE
  5
639BD
330
1F
100
AcDbEntity
  8
CONTINUOUS1
100
AcDbLine
 10
103.0696340458665
 20
63.38374636543867
 30
0.0
 11
103.0696340458665
 21
65.08364489447304
 31
0.0
  0
CIRCLE
  5
639BE
330
1F
100
AcDbEntity
  8
CONTINUOUS1
100
AcDbCircle
 10
103.0696340458665
 20
63.07830758834867
 30
0.0
 40
0.3054387770830003
  0
CIRCLE
  5
639BF
330
1F
100
AcDbEntity
  8
CONTINUOUS1
100
AcDbCircle
 10
105.9887075321946
 20
63.07830758836029
 30
0.0
 40
0.3054387770829719
  0
CIRCLE
  5
639C0
330
1F
100
AcDbEntity
  8
CONTINUOUS1
100
AcDbCircle
 10
107.4482595341477
 20
63.07830758836029
 30
0.0
 40
0.3054387770830003
  0
LINE
  5
639C1
330
1F
100
AcDbEntity
  8
HIDDEN1
100
AcDbLine
 10
104.8083161572252
 20
67.88431983886717
 30
0.0
 11
107.7275161572252
 21
67.88431983886717
 31
0.0
  0
TEXT
  5
639C2
330
1F
100
AcDbEntity
  8
TEXT1
100
AcDbText
 10
100.9292052920591
 20
65.67803180694578
 30
0.0
 40
0.6400000000000001
  1
D
  7
ROMANS
 72
     1
 11
101.2644433872972
 21
65.99803180694578
 31
0.0
100
AcDbText
 73
     2
  0
LINE
  5
639C3
330
1F
100
AcDbEntity
  8
CONTINUOUS1
100
AcDbLine
 10
105.9887075321946
 20
69.4121786393018
 30
0.0
 11
105.9887075321946
 21
68.56792796028911
 31
0.0
  0
LINE
  5
639C4
330
1F
100
AcDbEntity
  8
CONTINUOUS1
100
AcDbLine
 10
104.5291860478196
 20
69.4121786393018
 30
0.0
 11
104.5291860478196
 21
68.56792796028911
 31
0.0
  0
LINE
  5
639C5
330
1F
100
AcDbEntity
  8
CONTINUOUS1
100
AcDbLine
 10
103.0696340458665
 20
69.41217863929018
 30
0.0
 11
103.0696340458665
 21
67.71228011023909
 31
0.0
  0
LINE
  5
639C6
330
1F
100
AcDbEntity
  8
CONTINUOUS1
100
AcDbLine
 10
104.5247426884446
 20
66.99223215950786
 30
0.0
 11
105.0258352177415
 21
68.56792796028911
 31
0.0
  0
TEXT
  5
639C7
330
1F
100
AcDbEntity
  8
TEXT1
100
AcDbText
 10
102.7745421316441
 20
66.67708364376244
 30
0.0
 40
0.6400000000000001
  1
S
  7
ROMANS
 72
     1
 11
103.079304036406
 21
66.99708364376244
 31
0.0
100
AcDbText
 73
     2
  0
TEXT
  5
639C8
330
1F
100
AcDbEntity
  8
TEXT1
100
AcDbText
 10
102.7440659411679
 20
66.03708364376243
 30
0.0
 40
0.6400000000000001
  1
/
  7
ROMANS
 72
     1
 11
103.079304036406
 21
66.35708364376242
 31
0.0
100
AcDbText
 73
     2
  0
LINE
  5
639C9
330
1F
100
AcDbEntity
  8
CONTINUOUS1
100
AcDbLine
 10
105.9842641728196
 20
66.99223215950786
 30
0.0
 11
106.4853567021165
 21
68.56792796028911
 31
0.0
  0
CIRCLE
  5
639CA
330
1F
100
AcDbEntity
  8
CONTINUOUS1
100
AcDbCircle
 10
104.5482335942063
 20
69.7170229233594
 30
0.0
 40
0.3054387770830003
  0
CIRCLE
  5
639CB
330
1F
100
AcDbEntity
  8
CONTINUOUS1
100
AcDbCircle
 10
103.0886815922532
 20
69.7170229233478
 30
0.0
 40
0.3054387770830003
  0
CIRCLE
  5
639CC
330
1F
100
AcDbEntity
  8
CONTINUOUS1
100
AcDbCircle
 10
106.0077550785814
 20
69.7170229233594
 30
0.0
 40
0.3054387770829719
  0
LINE
  5
639CD
330
1F
100
AcDbEntity
  8
CONTINUOUS1
100
AcDbLine
 10
107.4482595341477
 20
69.4121786393018
 30
0.0
 11
107.4482595341477
 21
68.56792796028911
 31
0.0
  0
LINE
  5
639CE
330
1F
100
AcDbEntity
  8
CONTINUOUS1
100
AcDbLine
 10
107.4438161747727
 20
66.99223215950786
 30
0.0
 11
107.9449087040696
 21
68.56792796028911
 31
0.0
  0
CIRCLE
  5
639CF
330
1F
100
AcDbEntity
  8
CONTINUOUS1
100
AcDbCircle
 10
107.4673070805345
 20
69.7170229233594
 30
0.0
 40
0.3054387770830003
  0
HATCH
  5
639D6
330
1F
100
AcDbEntity
  8
TEXT1
100
AcDbHatch
 10
0.0
 20
0.0
 30
0.0
210
0.0
220
0.0
230
1.0
  2
SOLID
 70
     1
 71
     1
 91
        1
 92
        1
 93
        3
 72
     1
 10
0.6676189888122649
 20
4.399999999999998
 11
0.9076189888122739
 21
4.879999999999995
 72
     1
 10
0.9076189888122739
 20
4.879999999999995
 11
1.147618988812254
 21
4.399999999999998
 72
     1
 10
1.147618988812254
 20
4.399999999999998
 11
0.6676189888122649
 21
4.399999999999998
 97
        1
330
638B6
 75
     0
 76
     1
 98
        1
 10
-1.927143202479541
 20
-0.8678696178022203
  0
TEXT
  5
63A71
330
1F
100
AcDbEntity
  8
TEXT1
100
AcDbText
 10
1.999999999999999
 20
7.839999999999999
 30
0.0
 40
0.6400000000000001
  1
   WHEN PROTECTED BY CLASS R OR J FUSES.
  7
ROMANS
 11
1.999999999999999
 21
8.16
 31
0.0
100
AcDbText
 73
     2
  0
TEXT
  5
63A77
330
1F
100
AcDbEntity
  8
TEXT1
100
AcDbText
 10
1.999999999999999
 20
8.719999999999998
 30
0.0
 40
0.6400000000000001
  1
 ON 600V SWITCHES, 100,000 AMPERE, MAX ON CORNER GROUNDED DELTA
  7
ROMANS
 11
1.999999999999999
 21
9.039999999999999
 31
0.0
100
AcDbText
 73
     2
  0
TEXT
  5
63A7E
330
1F
100
AcDbEntity
  8
TEXT1
100
AcDbText
 10
0.5114285126217978
 20
2.56
 30
0.0
 40
0.6400000000000001
  1
&
  7
ROMANS
 72
     1
 11
0.9076189888122739
 21
2.88
 31
0.0
100
AcDbText
 73
     2
  0
TEXT
  5
63A84
330
1F
100
AcDbEntity
  8
TEXT1
100
AcDbText
 10
0.5723808935741787
 20
1.226260025647039
 30
0.0
 40
0.6400000000000001
  1
^ 
  7
ROMANS
 72
     1
 11
0.9076189888122739
 21
1.546260025647039
 31
0.0
100
AcDbText
 73
     2
  0
MTEXT
  5
63A8C
330
1F
100
AcDbEntity
  8
TEXT1
100
AcDbMText
 10
1.004452016516964
 20
5.689632257728366
 30
0.0
 40
0.6400000000000001
 41
0.5905000000000001
 71
     2
 72
     5
  1
+
  7
ROMANS
1001
ACAD
1000
MTEXTBEGIN
1070
    73
1070
     1
1070
    44
1040
1.0
1070
    74
1070
     0
1000
MTEXTEND
  0
MTEXT
  5
63A8D
330
1F
100
AcDbEntity
  8
TEXT1
100
AcDbMText
 10
1.004965750859596
 20
5.734471661262919
 30
0.0
 40
0.6400000000000001
 41
0.5905000000000001
 71
     5
 72
     5
  1
+
  7
ROMANS
1001
ACAD
1000
MTEXTBEGIN
1070
    73
1070
     1
1070
    44
1040
1.0
1070
    74
1070
     0
1000
MTEXTEND
  0
DIMENSION
  5
63AC4
330
1F
100
AcDbEntity
  8
DIM
100
AcDbDimension
  2
*D4
 10
72.92342388618857
 20
38.25747428047359
 30
0.0
 11
68.54895450811397
 21
38.25747428047359
 31
0.0
 70
    32
  3
SCHNEIDERELECTRIC_DUAL_BEL
100
AcDbAlignedDimension
 13
64.17448513003939
 23
45.91772059914601
 33
0.0
 14
72.92342388618857
 24
41.18945177533809
 34
0.0
100
AcDbRotatedDimension
1001
ACAD
1000
DSTYLE
1002
{
1070
    40
1040
8.0
1002
}
  0
CIRCLE
  5
63AF2
330
1F
100
AcDbEntity
  8
CONTINUOUS1
100
AcDbCircle
 10
27.30554414377347
 20
26.30939340946435
 30
0.0
 40
0.625
  0
CIRCLE
  5
63AF3
330
1F
100
AcDbEntity
  8
CONTINUOUS1
100
AcDbCircle
 10
27.30554414377347
 20
26.43439340946434
 30
0.0
 40
0.75
  0
CIRCLE
  5
63AF4
330
1F
100
AcDbEntity
  8
CONTINUOUS1
100
AcDbCircle
 10
27.30554414377347
 20
26.68439340946434
 30
0.0
 40
1.0
  0
CIRCLE
  5
63AF5
330
1F
100
AcDbEntity
  8
CONTINUOUS1
100
AcDbCircle
 10
27.30554414377347
 20
26.93439340946435
 30
0.0
 40
1.25
  0
LEADER
  5
63AF6
330
1F
100
AcDbEntity
  8
TEXT1
100
AcDbLeader
  3
SCHNEIDERELECTRIC_DUAL_BEL
 73
     0
 75
     1
 40
2.133333333333332
 41
6.857142857142862
 76
     3
 10
26.05554414377347
 20
26.93439340946435
 30
0.0
 10
15.15316008047973
 20
31.51013192554561
 30
0.0
 10
14.59316008047973
 20
31.51013192554561
 30
0.0
340
63AF7
213
4.325044487456032
223
0.6077984142001953
233
0.0
1001
ACAD
1000
DSTYLE
1002
{
1070
     5
1000
SEARROW
1070
    40
1040
8.0
1070
    77
1070
     0
1070
   147
1040
0.04
1070
   342
1005
61611
1002
}
  0
MTEXT
  5
63AF7
102
{ACAD_REACTORS
330
63AF6
102
}
330
1F
100
AcDbEntity
  8
TEXT1
100
AcDbMText
 10
9.9481155930237
 20
30.90233351134542
 30
0.0
 40
0.8
 41
0.0
 71
     4
 72
     1
  1
D,E,F,G\PKNOCKOUTS
  7
ROMANS
1001
ACAD
1000
MTEXTBEGIN
1070
    73
1070
     1
1070
    44
1040
1.0
1070
    74
1070
     0
1000
MTEXTEND
  0
LWPOLYLINE
  5
63AF8
330
1F
100
AcDbEntity
  8
CONTINUOUS1
100
AcDbPolyline
 90
        4
 70
     0
 43
0.0
 10
19.40596247003542
 20
24.30876654357176
 10
19.40596247003542
 20
24.00260477124525
 10
20.66159191263668
 20
24.00260477124525
 10
20.66159191263668
 20
24.30876654357176
  0
LWPOLYLINE
  5
63AFA
330
1F
100
AcDbEntity
  8
CONTINUOUS1
100
AcDbPolyline
 90
        4
 70
     0
 43
0.0
 10
34.61595442767108
 20
24.29781798739953
 10
34.61595442767108
 20
23.99165621507302
 10
33.36032498506982
 20
23.99165621507302
 10
33.36032498506982
 20
24.29781798739953
  0
DIMENSION
  5
63AFB
330
1F
100
AcDbEntity
  8
DIM
100
AcDbDimension
  2
*D5
 10
37.07179398386946
 20
38.25747428047359
 30
0.0
 11
27.75747630186946
 21
38.25747428047359
 31
0.0
 70
    32
  3
SCHNEIDERELECTRIC_DUAL_BEL
100
AcDbAlignedDimension
 13
18.44315861986945
 23
42.25424552912676
 33
0.0
 14
37.07179398386946
 24
59.59360542770985
 34
0.0
100
AcDbRotatedDimension
1001
ACAD
1000
DSTYLE
1002
{
1070
    40
1040
8.0
1002
}
  0
DIMENSION
  5
63B27
330
1F
100
AcDbEntity
  8
DIM
100
AcDbDimension
  2
*D6
 10
14.75233710805739
 20
71.25424552912676
 30
0.0
 11
14.75233710805738
 21
56.75424552912677
 31
0.0
 70
    32
  3
SCHNEIDERELECTRIC_DUAL_BEL
100
AcDbAlignedDimension
 13
18.44315861986945
 23
42.25424552912676
 33
0.0
 14
18.44315861986947
 24
71.25424552912676
 34
0.0
 50
90.0
100
AcDbRotatedDimension
1001
ACAD
1000
DSTYLE
1002
{
1070
    40
1040
8.0
1002
}
  0
DIMENSION
  5
63B3F
330
1F
100
AcDbEntity
  8
DIM
100
AcDbDimension
  2
*D7
 10
14.75233710805739
 20
41.25036335498666
 30
0.0
 11
12.34852758424786
 21
39.56900454760369
 31
0.0
 70
   160
  3
SCHNEIDERELECTRIC_DUAL_BEL
100
AcDbAlignedDimension
 13
18.44315861986945
 23
42.25424552912676
 33
0.0
 14
19.46580237261279
 24
41.25036335498665
 34
0.0
 50
90.0
100
AcDbRotatedDimension
1001
ACAD
1000
DSTYLE
1002
{
1070
    40
1040
8.0
1002
}
  0
DIMENSION
  5
63B63
330
1F
100
AcDbEntity
  8
DIM
100
AcDbDimension
  2
*D8
 10
9.025015707744955
 20
71.44245323089409
 30
0.0
 11
9.025015707744943
 21
56.75424552912677
 31
0.0
 70
    32
  3
SCHNEIDERELECTRIC_DUAL_BEL
100
AcDbAlignedDimension
 13
21.73685115672588
 23
42.06603782735943
 33
0.0
 14
21.52079168246126
 24
71.44245323089409
 34
0.0
 50
90.0
100
AcDbRotatedDimension
1001
ACAD
1000
DSTYLE
1002
{
1070
    40
1040
8.0
1002
}
  0
DIMENSION
  5
63B7B
330
1F
100
AcDbEntity
  8
DIM
100
AcDbDimension
  2
*D9
 10
35.71198893186947
 20
77.84325344099769
 30
0.0
 11
27.08823365298981
 21
77.84325344099769
 31
0.0
 70
    32
  3
SCHNEIDERELECTRIC_DUAL_BEL
100
AcDbAlignedDimension
 13
18.46447837411016
 23
71.25424552912676
 33
0.0
 14
35.71198893186947
 24
71.25424552912676
 34
0.0
100
AcDbRotatedDimension
1001
ACAD
1000
DSTYLE
1002
{
1070
    40
1040
8.0
1002
}
  0
LWPOLYLINE
  5
63C4C
330
1F
100
AcDbEntity
  8
CONTINUOUS1
100
AcDbPolyline
 90
        4
 70
     0
 43
0.0
 10
21.979094241001
 20
71.25424552912676
 42
0.168976164002034
 10
21.88843796353967
 20
71.39125323089409
 42
1.393261092038423
 10
21.58526434991209
 20
71.39125323089409
 42
0.1689761640020314
 10
21.49460807245075
 20
71.25424552912676
 42
0.1689761640020314
  0
LWPOLYLINE
  5
63C5D
330
1F
100
AcDbEntity
  8
CONTINUOUS1
100
AcDbPolyline
 90
        4
 70
     0
 43
0.0
 10
32.22803428506711
 20
71.25424552912676
 42
0.168976164002026
 10
32.13737800760579
 20
71.39125323089409
 42
1.393261092038423
 10
31.83420439397821
 20
71.39125323089409
 42
0.1689761640020299
 10
31.74354811651687
 20
71.25424552912676
  0
DIMENSION
  5
63C5E
330
1F
100
AcDbEntity
  8
DIM
100
AcDbDimension
  2
*D10
 10
31.985791200792
 20
74.41848325245129
 30
0.0
 11
26.86132117875894
 21
74.41848325245129
 31
0.0
 70
    32
  3
SCHNEIDERELECTRIC_DUAL_BEL
100
AcDbAlignedDimension
 13
21.73685115672588
 23
71.60245323089409
 33
0.0
 14
31.985791200792
 24
71.6024532308941
 34
0.0
100
AcDbRotatedDimension
1001
ACAD
1000
DSTYLE
1002
{
1070
    40
1040
8.0
1002
}
  0
LWPOLYLINE
  5
63CE4
330
1F
100
AcDbEntity
  8
CONTINUOUS1
100
AcDbPolyline
 90
        4
 70
     0
 43
0.0
 10
32.22803428506711
 20
42.25424552912676
 42
-0.168976164002026
 10
32.13737800760579
 20
42.11723782735943
 42
-1.393261092038423
 10
31.83420439397821
 20
42.11723782735943
 42
-0.1689761640020299
 10
31.74354811651687
 20
42.25424552912676
  0
LWPOLYLINE
  5
63CE5
330
1F
100
AcDbEntity
  8
CONTINUOUS1
100
AcDbPolyline
 90
        4
 70
     0
 43
0.0
 10
21.979094241001
 20
42.25424552912676
 42
-0.1689761640020319
 10
21.88843796353967
 20
42.11723782735943
 42
-1.393261092038423
 10
21.58526434991209
 20
42.11723782735943
 42
-0.1689761640020314
 10
21.49460807245075
 20
42.25424552912676
 42
-0.1689761640020314
  0
LEADER
  5
63DAB
330
1F
100
AcDbEntity
  8
DIM
100
AcDbLeader
  3
SCHNEIDERELECTRIC_DUAL_BEL
 73
     0
 40
0.2
 76
     3
 10
32.41773912266077
 20
71.52875335301384
 30
0.0
 10
39.91117116184401
 20
74.3750446163216
 30
0.0
 10
40.77038085456777
 20
74.3750446163216
 30
0.0
340
63DAC
213
0.5109355939069431
223
-0.1
233
0.0
1001
ACAD
1000
DSTYLE
1002
{
1070
     5
1000
SEARROW
1070
    40
1040
8.0
1070
   342
1005
61611
1002
}
  0
MTEXT
  5
63DAC
102
{ACAD_REACTORS
330
63DAB
102
}
330
1F
100
AcDbEntity
  8
0
100
AcDbMText
 10
49.83470743436857
 20
71.82341852615232
 30
0.0
 40
0.2
 41
0.0
 71
     1
 72
     1
  1

  7
ROMANS
1001
ACAD
1000
MTEXTBEGIN
1070
    73
1070
     1
1070
    44
1040
1.0
1070
    74
1070
     0
1000
MTEXTEND
  0
DIMENSION
  5
63DAD
330
1F
100
AcDbEntity
  8
DIM
100
AcDbDimension
  2
*D11
 10
43.95107372222393
 20
75.26928556877845
 30
0.0
 11
49.26706736188837
 21
77.90748248601179
 31
0.0
 70
   164
  1
R.16\P[4]
  3
SCHNEIDERELECTRIC_DUAL_BEL
100
AcDbRadialDimension
 15
44.48068640114669
 25
75.82546396670863
 35
0.0
 40
0.0
1001
ACAD
1000
DSTYLE
1002
{
1070
   141
1040
0.025
1070
    40
1040
8.0
1002
}
  0
DIMENSION
  5
63DB9
330
1F
100
AcDbEntity
  8
DIM
100
AcDbDimension
  2
*D12
 10
43.95107372222388
 20
73.57328461325273
 30
0.0
 11
49.529603667117
 21
71.94408600545985
 31
0.0
 70
   164
  1
R.25\P[6]
  3
SCHNEIDERELECTRIC_DUAL_BEL
100
AcDbRadialDimension
 15
45.33081772643448
 25
72.76315722395249
 35
0.0
 40
0.0
1001
ACAD
1000
DSTYLE
1002
{
1070
   141
1040
0.025
1070
    40
1040
8.0
1002
}
  0
DIMENSION
  5
63DE5
330
1F
100
AcDbEntity
  8
DIM
100
AcDbDimension
  2
*D13
 10
41.02159554703497
 20
75.26928556877845
 30
0.0
 11
40.85452701798546
 21
77.64509311189454
 31
0.0
 70
   160
  1
.25\P[6]
  3
SCHNEIDERELECTRIC_DUAL_BEL
100
AcDbAlignedDimension
 13
43.75107372222389
 23
73.57328461325275
 33
0.0
 14
43.75107372222392
 24
75.26928556877845
 34
0.0
 50
90.0
100
AcDbRotatedDimension
1001
ACAD
1000
DSTYLE
1002
{
1070
   287
1070
     4
1070
   287
1070
     4
1070
   287
1070
     4
1070
   287
1070
     4
1070
   287
1070
     4
1070
   287
1070
     4
1070
   287
1070
     4
1070
   287
1070
     4
1070
   287
1070
     4
1070
   287
1070
     4
1070
   287
1070
     4
1070
   287
1070
     4
1070
    40
1040
8.0
1070
   279
1070
     1
1002
}
  0
ARC
  5
63E26
330
1F
100
AcDbEntity
  8
CONTINUOUS1
100
AcDbCircle
 10
21.75089304295412
 20
71.25424552912676
 30
0.0
 40
0.5
100
AcDbArc
 50
0.0
 51
180.0
  0
ARC
  5
63E2D
330
1F
100
AcDbEntity
  8
CONTINUOUS1
100
AcDbCircle
 10
31.99983308702024
 20
71.25424552912676
 30
0.0
 40
0.5
100
AcDbArc
 50
0.0
 51
180.0
  0
ARC
  5
63E33
330
1F
100
AcDbEntity
  8
CONTINUOUS1
100
AcDbCircle
 10
21.72280927049764
 20
42.25424552912675
 30
0.0
 40
0.5
100
AcDbArc
 50
179.9999999999991
 51
359.9999999999992
  0
ARC
  5
63E39
330
1F
100
AcDbEntity
  8
CONTINUOUS1
100
AcDbCircle
 10
31.97174931456376
 20
42.25424552912676
 30
0.0
 40
0.5
100
AcDbArc
 50
180.0
 51
0.0
  0
LINE
  5
64008
330
1F
100
AcDbEntity
  8
CONTINUOUS1
100
AcDbLine
 10
42.74284452249682
 20
18.09601599999999
 30
0.0
 11
129.4500079999999
 21
18.09601599999998
 31
0.0
  0
LWPOLYLINE
  5
64009
330
1F
100
AcDbEntity
  8
CONTINUOUS1
100
AcDbPolyline
 90
        4
 70
   129
 43
0.0
 10
129.4500079999999
 20
9.296015999999994
 10
42.74284452249688
 20
9.296015999999976
 10
42.74284452249688
 20
25.96266221207823
 10
129.4500079999999
 20
25.96266221207825
  0
LWPOLYLINE
  5
6400A
330
1F
100
AcDbEntity
  8
CONTINUOUS1
100
AcDbPolyline
 90
        2
 70
     0
 43
0.0
 10
42.74284452249688
 20
11.05601599999997
 10
129.4500079999999
 20
11.05601599999997
  0
LWPOLYLINE
  5
6400B
330
1F
100
AcDbEntity
  8
CONTINUOUS1
100
AcDbPolyline
 90
        2
 70
     0
 43
0.0
 10
42.74284452249688
 20
12.81601599999997
 10
129.4500079999999
 20
12.81601599999997
  0
LWPOLYLINE
  5
6400C
330
1F
100
AcDbEntity
  8
CONTINUOUS1
100
AcDbPolyline
 90
        2
 70
     0
 43
0.0
 10
42.74284452249688
 20
14.57601599999998
 10
129.4500079999999
 20
14.57601599999998
  0
LWPOLYLINE
  5
6400D
330
1F
100
AcDbEntity
  8
CONTINUOUS1
100
AcDbPolyline
 90
        2
 70
     0
 43
0.0
 10
42.74284452249688
 20
16.33601599999997
 10
129.4500079999999
 20
16.33601599999997
  0
LINE
  5
6400E
330
1F
100
AcDbEntity
  8
CONTINUOUS1
100
AcDbLine
 10
55.54284452249686
 20
25.96266221207823
 30
0.0
 11
55.54284452249686
 21
9.296016000000026
 31
0.0
  0
LINE
  5
6400F
330
1F
100
AcDbEntity
  8
CONTINUOUS1
100
AcDbLine
 10
49.14284452249686
 20
23.37601599999998
 30
0.0
 11
49.14284452249686
 21
9.296016000000026
 31
0.0
  0
TEXT
  5
64010
330
1F
100
AcDbEntity
  8
TEXT1
100
AcDbText
 10
49.78284452249685
 20
9.856015999999991
 30
0.0
 40
0.6400000000000001
  1
HU364AWK
  7
ROMANS
 72
     1
 11
52.34284452249685
 21
10.17601599999999
 31
0.0
100
AcDbText
 73
     2
  0
TEXT
  5
64011
330
1F
100
AcDbEntity
  8
TEXT1
100
AcDbText
 10
44.03808261773496
 20
9.856015999999991
 30
0.0
 40
0.6400000000000001
  1
HU364A
  7
ROMANS
 72
     1
 11
45.94284452249687
 21
10.17601599999999
 31
0.0
100
AcDbText
 73
     2
  0
TEXT
  5
64012
330
1F
100
AcDbEntity
  8
TEXT1
100
AcDbText
 10
44.03808261773496
 20
11.61601599999999
 30
0.0
 40
0.6400000000000001
  1
H364NA
  7
ROMANS
 72
     1
 11
45.94284452249687
 21
11.93601599999999
 31
0.0
100
AcDbText
 73
     2
  0
TEXT
  5
64013
330
1F
100
AcDbEntity
  8
TEXT1
100
AcDbText
 10
44.37332071297306
 20
13.37601599999997
 30
0.0
 40
0.6400000000000001
  1
H364A
  7
ROMANS
 72
     1
 11
45.94284452249687
 21
13.69601599999997
 31
0.0
100
AcDbText
 73
     2
  0
TEXT
  5
64014
330
1F
100
AcDbEntity
  8
TEXT1
100
AcDbText
 10
44.37332071297306
 20
15.13601599999998
 30
0.0
 40
0.6400000000000001
  1
H324A
  7
ROMANS
 72
     1
 11
45.94284452249687
 21
15.45601599999998
 31
0.0
100
AcDbText
 73
     2
  0
TEXT
  5
64015
330
1F
100
AcDbEntity
  8
TEXT1
100
AcDbText
 10
49.78284452249685
 20
11.61601599999999
 30
0.0
 40
0.6400000000000001
  1
H364NAWK
  7
ROMANS
 72
     1
 11
52.34284452249685
 21
11.93601599999999
 31
0.0
100
AcDbText
 73
     2
  0
TEXT
  5
64016
330
1F
100
AcDbEntity
  8
TEXT1
100
AcDbText
 10
50.11808261773494
 20
15.13601599999998
 30
0.0
 40
0.6400000000000001
  1
H324AWK
  7
ROMANS
 72
     1
 11
52.34284452249685
 21
15.45601599999998
 31
0.0
100
AcDbText
 73
     2
  0
TEXT
  5
64017
330
1F
100
AcDbEntity
  8
TEXT1
100
AcDbText
 10
50.11808261773494
 20
13.37601599999997
 30
0.0
 40
0.6400000000000001
  1
H364AWK
  7
ROMANS
 72
     1
 11
52.34284452249685
 21
13.69601599999997
 31
0.0
100
AcDbText
 73
     2
  0
TEXT
  5
64018
330
1F
100
AcDbEntity
  8
TEXT1
100
AcDbText
 10
56.36379690344924
 20
9.856015999999991
 30
0.0
 40
0.6400000000000001
  1
600VAC;600VDC
  7
ROMANS
 72
     1
 11
60.14284452249686
 21
10.17601599999999
 31
0.0
100
AcDbText
 73
     2
  0
TEXT
  5
64019
330
1F
100
AcDbEntity
  8
TEXT1
100
AcDbText
 10
56.36379690344924
 20
11.61601599999998
 30
0.0
 40
0.6400000000000001
  1
600VAC;600VDC
  7
ROMANS
 72
     1
 11
60.14284452249686
 21
11.93601599999998
 31
0.0
100
AcDbText
 73
     2
  0
TEXT
  5
6401A
330
1F
100
AcDbEntity
  8
TEXT1
100
AcDbText
 10
56.36379690344924
 20
13.37601599999997
 30
0.0
 40
0.6400000000000001
  1
600VAC;600VDC
  7
ROMANS
 72
     1
 11
60.14284452249686
 21
13.69601599999997
 31
0.0
100
AcDbText
 73
     2
  0
TEXT
  5
6401B
330
1F
100
AcDbEntity
  8
TEXT1
100
AcDbText
 10
56.37903499868733
 20
15.13601599999998
 30
0.0
 40
0.6400000000000001
  1
240VAC,250VDC
  7
ROMANS
 72
     1
 11
60.14284452249686
 21
15.45601599999998
 31
0.0
100
AcDbText
 73
     2
  0
TEXT
  5
6401D
330
1F
100
AcDbEntity
  8
TEXT1
100
AcDbText
 10
44.8304635701159
 20
23.93601599999998
 30
0.0
 40
0.6400000000000001
  1
CATALOG NUMBER
  7
ROMANS
 72
     1
 11
49.14284452249686
 21
24.25601599999998
 31
0.0
100
AcDbText
 73
     2
  0
TEXT
  5
6401E
330
1F
100
AcDbEntity
  8
TEXT1
100
AcDbText
 10
44.37332071297306
 20
16.89601599999998
 30
0.0
 40
0.6400000000000001
  1
H224A
  7
ROMANS
 72
     1
 11
45.94284452249687
 21
17.21601599999998
 31
0.0
100
AcDbText
 73
     2
  0
TEXT
  5
6401F
330
1F
100
AcDbEntity
  8
TEXT1
100
AcDbText
 10
43.07808261773496
 20
18.62933974603159
 30
0.0
 40
0.6400000000000001
  1
KNOCKOUTS
  7
ROMANS
 72
     1
 11
45.94284452249687
 21
18.94933974603159
 31
0.0
100
AcDbText
 73
     2
  0
TEXT
  5
64020
330
1F
100
AcDbEntity
  8
TEXT1
100
AcDbText
 10
44.63236833202068
 20
22.17601599999998
 30
0.0
 40
0.6400000000000001
  1
NEMA
  7
ROMANS
 72
     1
 11
45.94284452249687
 21
22.49601599999998
 31
0.0
100
AcDbText
 73
     2
  0
TEXT
  5
64021
330
1F
100
AcDbEntity
  8
TEXT1
100
AcDbText
 10
50.11808261773494
 20
16.89601599999998
 30
0.0
 40
0.6400000000000001
  1
H224AWK
  7
ROMANS
 72
     1
 11
52.34284452249685
 21
17.21601599999998
 31
0.0
100
AcDbText
 73
     2
  0
TEXT
  5
64022
330
1F
100
AcDbEntity
  8
TEXT1
100
AcDbText
 10
49.47808261773494
 20
18.62933974603159
 30
0.0
 40
0.6400000000000001
  1
KNOCKOUTS
  7
ROMANS
 72
     1
 11
52.34284452249685
 21
18.94933974603159
 31
0.0
100
AcDbText
 73
     2
  0
TEXT
  5
64023
330
1F
100
AcDbEntity
  8
TEXT1
100
AcDbText
 10
51.03236833202066
 20
22.17601599999998
 30
0.0
 40
0.6400000000000001
  1
NEMA
  7
ROMANS
 72
     1
 11
52.34284452249685
 21
22.49601599999998
 31
0.0
100
AcDbText
 73
     2
  0
TEXT
  5
64024
330
1F
100
AcDbEntity
  8
TEXT1
100
AcDbText
 10
56.37903499868733
 20
16.89601599999998
 30
0.0
 40
0.6400000000000001
  1
240VAC;250VDC
  7
ROMANS
 72
     1
 11
60.14284452249686
 21
17.21601599999998
 31
0.0
100
AcDbText
 73
     2
  0
TEXT
  5
64025
330
1F
100
AcDbEntity
  8
TEXT1
100
AcDbText
 10
55.93713023678257
 20
22.08529790949489
 30
0.0
 40
0.6400000000000001
  1
VOLTAGE RATINGS
  7
ROMANS
 72
     1
 11
60.14284452249686
 21
22.40529790949489
 31
0.0
100
AcDbText
 73
     2
  0
LINE
  5
64026
330
1F
100
AcDbEntity
  8
CONTINUOUS1
100
AcDbLine
 10
68.90847531438865
 20
24.25601599999998
 30
0.0
 11
129.4500079999999
 21
24.25601599999999
 31
0.0
  0
LINE
  5
64027
330
1F
100
AcDbEntity
  8
CONTINUOUS1
100
AcDbLine
 10
68.90847531438865
 20
21.61601599999998
 30
0.0
 11
129.4500079999999
 21
21.61601599999998
 31
0.0
  0
LINE
  5
64028
330
1F
100
AcDbEntity
  8
CONTINUOUS1
100
AcDbLine
 10
68.90847531438865
 20
19.85601599999998
 30
0.0
 11
129.4500079999999
 21
19.85601599999998
 31
0.0
  0
LINE
  5
64029
330
1F
100
AcDbEntity
  8
CONTINUOUS1
100
AcDbLine
 10
86.50847531438865
 20
24.25601599999998
 30
0.0
 11
86.50847531438865
 21
9.235932963769045
 31
0.0
  0
LINE
  5
6402A
330
1F
100
AcDbEntity
  8
CONTINUOUS1
100
AcDbLine
 10
104.1084753143886
 20
24.25601599999998
 30
0.0
 11
104.1084753143886
 21
9.235932963769045
 31
0.0
  0
LINE
  5
6402B
330
1F
100
AcDbEntity
  8
CONTINUOUS1
100
AcDbLine
 10
104.1084753143886
 20
24.25601599999998
 30
0.0
 11
104.1084753143886
 21
9.296016000000037
 31
0.0
  0
LINE
  5
6402C
330
1F
100
AcDbEntity
  8
CONTINUOUS1
100
AcDbLine
 10
95.30847531438864
 20
21.61601599999999
 30
0.0
 11
95.30847531438864
 21
9.265974481884544
 31
0.0
  0
LINE
  5
6402D
330
1F
100
AcDbEntity
  8
CONTINUOUS1
100
AcDbLine
 10
77.70847531438864
 20
21.61601599999999
 30
0.0
 11
77.70847531438864
 21
9.265974481884537
 31
0.0
  0
LINE
  5
6402E
330
1F
100
AcDbEntity
  8
CONTINUOUS1
100
AcDbLine
 10
68.90847531438865
 20
25.96266221207823
 30
0.0
 11
68.90847531438865
 21
9.296016000000026
 31
0.0
  0
LINE
  5
6402F
330
1F
100
AcDbEntity
  8
CONTINUOUS1
100
AcDbLine
 10
64.74284452249688
 20
25.96266221207823
 30
0.0
 11
64.74284452249688
 21
9.29601600000003
 31
0.0
  0
TEXT
  5
64030
330
1F
100
AcDbEntity
  8
TEXT1
100
AcDbText
 10
73.96518454172097
 20
15.13601599999998
 30
0.0
 40
0.6400000000000001
  1
25&
  7
ROMANS
 72
     1
 11
74.97089882743527
 21
15.45601599999998
 31
0.0
100
AcDbText
 73
     2
  0
TEXT
  5
64031
330
1F
100
AcDbEntity
  8
TEXT1
100
AcDbText
 10
73.96518454172097
 20
13.37601599999997
 30
0.0
 40
0.6400000000000001
  1
25&
  7
ROMANS
 72
     1
 11
74.97089882743527
 21
13.69601599999997
 31
0.0
100
AcDbText
 73
     2
  0
TEXT
  5
64032
330
1F
100
AcDbEntity
  8
TEXT1
100
AcDbText
 10
74.04137501791145
 20
11.61601599999997
 30
0.0
 40
0.6400000000000001
  1
25#
  7
ROMANS
 72
     1
 11
74.97089882743527
 21
11.93601599999997
 31
0.0
100
AcDbText
 73
     2
  0
TEXT
  5
64033
330
1F
100
AcDbEntity
  8
TEXT1
100
AcDbText
 10
74.57470835124479
 20
9.856015999999977
 30
0.0
 40
0.6400000000000001
  1
-
  7
ROMANS
 72
     1
 11
74.97089882743527
 21
10.17601599999997
 31
0.0
100
AcDbText
 73
     2
  0
TEXT
  5
64034
330
1F
100
AcDbEntity
  8
TEXT1
100
AcDbText
 10
66.54980452673314
 20
9.856015999999977
 30
0.0
 40
0.6400000000000001
  1
C
  7
ROMANS
 72
     1
 11
66.86980452673314
 21
10.17601599999997
 31
0.0
100
AcDbText
 73
     2
  0
TEXT
  5
64035
330
1F
100
AcDbEntity
  8
TEXT1
100
AcDbText
 10
70.37439604389692
 20
9.856015999999977
 30
0.0
 40
0.6400000000000001
  1
-
  7
ROMANS
 72
     1
 11
70.77058652008739
 21
10.17601599999997
 31
0.0
100
AcDbText
 73
     2
  0
TEXT
  5
64036
330
1F
100
AcDbEntity
  8
TEXT1
100
AcDbText
 10
66.53456643149503
 20
11.61601599999997
 30
0.0
 40
0.6400000000000001
  1
D
  7
ROMANS
 72
     1
 11
66.86980452673314
 21
11.93601599999997
 31
0.0
100
AcDbText
 73
     2
  0
TEXT
  5
64037
330
1F
100
AcDbEntity
  8
TEXT1
100
AcDbText
 10
66.53456643149503
 20
13.37601599999997
 30
0.0
 40
0.6400000000000001
  1
B
  7
ROMANS
 72
     1
 11
66.86980452673314
 21
13.69601599999997
 31
0.0
100
AcDbText
 73
     2
  0
TEXT
  5
64038
330
1F
100
AcDbEntity
  8
TEXT1
100
AcDbText
 10
66.53456643149503
 20
15.13601599999998
 30
0.0
 40
0.6400000000000001
  1
B
  7
ROMANS
 72
     1
 11
66.86980452673314
 21
15.45601599999998
 31
0.0
100
AcDbText
 73
     2
  0
TEXT
  5
64039
330
1F
100
AcDbEntity
  8
TEXT1
100
AcDbText
 10
69.7801103296112
 20
11.61601599999997
 30
0.0
 40
0.6400000000000001
  1
15^ 
  7
ROMANS
 72
     1
 11
70.77058652008739
 21
11.93601599999997
 31
0.0
100
AcDbText
 73
     2
  0
TEXT
  5
6403A
330
1F
100
AcDbEntity
  8
TEXT1
100
AcDbText
 10
69.7801103296112
 20
13.37601599999997
 30
0.0
 40
0.6400000000000001
  1
15^ 
  7
ROMANS
 72
     1
 11
70.77058652008739
 21
13.69601599999997
 31
0.0
100
AcDbText
 73
     2
  0
TEXT
  5
6403B
330
1F
100
AcDbEntity
  8
TEXT1
100
AcDbText
 10
69.7801103296112
 20
15.13601599999998
 30
0.0
 40
0.6400000000000001
  1
15^ 
  7
ROMANS
 72
     1
 11
70.77058652008739
 21
15.45601599999998
 31
0.0
100
AcDbText
 73
     2
  0
TEXT
  5
6403C
330
1F
100
AcDbEntity
  8
TEXT1
100
AcDbText
 10
82.74994644648284
 20
9.856015999999977
 30
0.0
 40
0.6400000000000001
  1
60&
  7
ROMANS
 72
     1
 11
83.77089882743522
 21
10.17601599999997
 31
0.0
100
AcDbText
 73
     2
  0
TEXT
  5
6403D
330
1F
100
AcDbEntity
  8
TEXT1
100
AcDbText
 10
78.58011032961119
 20
9.856015999999977
 30
0.0
 40
0.6400000000000001
  1
15^ 
  7
ROMANS
 72
     1
 11
79.57058652008737
 21
10.17601599999997
 31
0.0
100
AcDbText
 73
     2
  0
TEXT
  5
6403E
330
1F
100
AcDbEntity
  8
TEXT1
100
AcDbText
 10
79.17439604389691
 20
11.61601599999997
 30
0.0
 40
0.6400000000000001
  1
-
  7
ROMANS
 72
     1
 11
79.57058652008737
 21
11.93601599999997
 31
0.0
100
AcDbText
 73
     2
  0
TEXT
  5
6403F
330
1F
100
AcDbEntity
  8
TEXT1
100
AcDbText
 10
79.17439604389691
 20
13.37601599999997
 30
0.0
 40
0.6400000000000001
  1
-
  7
ROMANS
 72
     1
 11
79.57058652008737
 21
13.69601599999997
 31
0.0
100
AcDbText
 73
     2
  0
TEXT
  5
64040
330
1F
100
AcDbEntity
  8
TEXT1
100
AcDbText
 10
79.17439604389691
 20
15.13601599999998
 30
0.0
 40
0.6400000000000001
  1
-
  7
ROMANS
 72
     1
 11
79.57058652008737
 21
15.45601599999998
 31
0.0
100
AcDbText
 73
     2
  0
TEXT
  5
64041
330
1F
100
AcDbEntity
  8
TEXT1
100
AcDbText
 10
82.82613692267331
 20
11.61601599999997
 30
0.0
 40
0.6400000000000001
  1
60#
  7
ROMANS
 72
     1
 11
83.77089882743522
 21
11.93601599999997
 31
0.0
100
AcDbText
 73
     2
  0
TEXT
  5
64042
330
1F
100
AcDbEntity
  8
TEXT1
100
AcDbText
 10
82.74994644648284
 20
13.37601599999997
 30
0.0
 40
0.6400000000000001
  1
60&
  7
ROMANS
 72
     1
 11
83.77089882743522
 21
13.69601599999997
 31
0.0
100
AcDbText
 73
     2
  0
TEXT
  5
64043
330
1F
100
AcDbEntity
  8
TEXT1
100
AcDbText
 10
82.74994644648284
 20
15.13601599999998
 30
0.0
 40
0.6400000000000001
  1
60&
  7
ROMANS
 72
     1
 11
83.77089882743522
 21
15.45601599999998
 31
0.0
100
AcDbText
 73
     2
  0
TEXT
  5
64044
330
1F
100
AcDbEntity
  8
TEXT1
100
AcDbText
 10
92.17470835124476
 20
9.856015999999973
 30
0.0
 40
0.6400000000000001
  1
-
  7
ROMANS
 72
     1
 11
92.57089882743523
 21
10.17601599999997
 31
0.0
100
AcDbText
 73
     2
  0
TEXT
  5
64045
330
1F
100
AcDbEntity
  8
TEXT1
100
AcDbText
 10
87.97439604389692
 20
9.856015999999973
 30
0.0
 40
0.6400000000000001
  1
-
  7
ROMANS
 72
     1
 11
88.37058652008739
 21
10.17601599999997
 31
0.0
100
AcDbText
 73
     2
  0
TEXT
  5
64046
330
1F
100
AcDbEntity
  8
TEXT1
100
AcDbText
 10
87.42582461532547
 20
11.61601599999997
 30
0.0
 40
0.6400000000000001
  1
25^ 
  7
ROMANS
 72
     1
 11
88.37058652008739
 21
11.93601599999997
 31
0.0
100
AcDbText
 73
     2
  0
TEXT
  5
64047
330
1F
100
AcDbEntity
  8
TEXT1
100
AcDbText
 10
87.42582461532547
 20
13.37601599999997
 30
0.0
 40
0.6400000000000001
  1
25^ 
  7
ROMANS
 72
     1
 11
88.37058652008739
 21
13.69601599999997
 31
0.0
100
AcDbText
 73
     2
  0
TEXT
  5
64048
330
1F
100
AcDbEntity
  8
TEXT1
100
AcDbText
 10
87.97439604389692
 20
15.13601599999997
 30
0.0
 40
0.6400000000000001
  1
-
  7
ROMANS
 72
     1
 11
88.37058652008739
 21
15.45601599999997
 31
0.0
100
AcDbText
 73
     2
  0
TEXT
  5
64049
330
1F
100
AcDbEntity
  8
TEXT1
100
AcDbText
 10
91.64137501791142
 20
11.61601599999997
 30
0.0
 40
0.6400000000000001
  1
50#
  7
ROMANS
 72
     1
 11
92.57089882743523
 21
11.93601599999997
 31
0.0
100
AcDbText
 73
     2
  0
TEXT
  5
6404A
330
1F
100
AcDbEntity
  8
TEXT1
100
AcDbText
 10
91.56518454172093
 20
13.37601599999997
 30
0.0
 40
0.6400000000000001
  1
50&
  7
ROMANS
 72
     1
 11
92.57089882743523
 21
13.69601599999997
 31
0.0
100
AcDbText
 73
     2
  0
TEXT
  5
6404B
330
1F
100
AcDbEntity
  8
TEXT1
100
AcDbText
 10
92.17470835124476
 20
15.13601599999997
 30
0.0
 40
0.6400000000000001
  1
-
  7
ROMANS
 72
     1
 11
92.57089882743523
 21
15.45601599999997
 31
0.0
100
AcDbText
 73
     2
  0
TEXT
  5
6404E
330
1F
100
AcDbEntity
  8
TEXT1
100
AcDbText
 10
96.22582461532546
 20
11.61601599999997
 30
0.0
 40
0.6400000000000001
  1
50^ 
  7
ROMANS
 72
     1
 11
97.17058652008738
 21
11.93601599999997
 31
0.0
100
AcDbText
 73
     2
  0
TEXT
  5
6404F
330
1F
100
AcDbEntity
  8
TEXT1
100
AcDbText
 10
96.22582461532546
 20
13.37601599999997
 30
0.0
 40
0.6400000000000001
  1
50^ 
  7
ROMANS
 72
     1
 11
97.17058652008738
 21
13.69601599999997
 31
0.0
100
AcDbText
 73
     2
  0
TEXT
  5
64050
330
1F
100
AcDbEntity
  8
TEXT1
100
AcDbText
 10
96.77439604389689
 20
15.13601599999998
 30
0.0
 40
0.6400000000000001
  1
-
  7
ROMANS
 72
     1
 11
97.17058652008738
 21
15.45601599999998
 31
0.0
100
AcDbText
 73
     2
  0
TEXT
  5
64051
330
1F
100
AcDbEntity
  8
TEXT1
100
AcDbText
 10
100.0908988274352
 20
11.61601599999997
 30
0.0
 40
0.6400000000000001
  1
125#
  7
ROMANS
 72
     1
 11
101.3708988274352
 21
11.93601599999997
 31
0.0
100
AcDbText
 73
     2
  0
TEXT
  5
64052
330
1F
100
AcDbEntity
  8
TEXT1
100
AcDbText
 10
100.0147083512447
 20
13.37601599999997
 30
0.0
 40
0.6400000000000001
  1
125&
  7
ROMANS
 72
     1
 11
101.3708988274352
 21
13.69601599999997
 31
0.0
100
AcDbText
 73
     2
  0
TEXT
  5
64053
330
1F
100
AcDbEntity
  8
TEXT1
100
AcDbText
 10
100.9747083512447
 20
15.13601599999998
 30
0.0
 40
0.6400000000000001
  1
-
  7
ROMANS
 72
     1
 11
101.3708988274352
 21
15.45601599999998
 31
0.0
100
AcDbText
 73
     2
  0
TEXT
  5
64054
330
1F
100
AcDbEntity
  8
TEXT1
100
AcDbText
 10
73.96518454172097
 20
16.89601599999998
 30
0.0
 40
0.6400000000000001
  1
25&
  7
ROMANS
 72
     1
 11
74.97089882743527
 21
17.21601599999998
 31
0.0
100
AcDbText
 73
     2
  0
TEXT
  5
64055
330
1F
100
AcDbEntity
  8
TEXT1
100
AcDbText
 10
66.59551881244742
 20
16.89601599999998
 30
0.0
 40
0.6400000000000001
  1
A
  7
ROMANS
 72
     1
 11
66.86980452673314
 21
17.21601599999998
 31
0.0
100
AcDbText
 73
     2
  0
TEXT
  5
64056
330
1F
100
AcDbEntity
  8
TEXT1
100
AcDbText
 10
65.81837595530456
 20
21.01864418694412
 30
0.0
 40
0.6400000000000001
  1
DIAG
  7
ROMANS
 72
     1
 11
66.86980452673314
 21
21.33864418694412
 31
0.0
100
AcDbText
 73
     2
  0
TEXT
  5
64057
330
1F
100
AcDbEntity
  8
TEXT1
100
AcDbText
 10
65.30028071720932
 20
22.08529790949489
 30
0.0
 40
0.6400000000000001
  1
WIRING
  7
ROMANS
 72
     1
 11
66.86980452673314
 21
22.40529790949489
 31
0.0
100
AcDbText
 73
     2
  0
TEXT
  5
64058
330
1F
100
AcDbEntity
  8
TEXT1
100
AcDbText
 10
70.1153484248493
 20
16.89601599999998
 30
0.0
 40
0.6400000000000001
  1
15
  7
ROMANS
 72
     1
 11
70.77058652008739
 21
17.21601599999998
 31
0.0
100
AcDbText
 73
     2
  0
TEXT
  5
64059
330
1F
100
AcDbEntity
  8
TEXT1
100
AcDbText
 10
70.6878943060815
 20
18.62933974603159
 30
0.0
 40
0.6400000000000001
  1
Ø
  7
ROMANS
 72
     1
 11
71.0231324013196
 21
18.94933974603159
 31
0.0
100
AcDbText
 73
     2
  0
TEXT
  5
6405A
330
1F
100
AcDbEntity
  8
TEXT1
100
AcDbText
 10
69.95312094466761
 20
18.62933974603159
 30
0.0
 40
0.6400000000000001
  1
1
  7
ROMANS
 72
     1
 11
70.21216856371523
 21
18.94933974603159
 31
0.0
100
AcDbText
 73
     2
  0
TEXT
  5
6405B
330
1F
100
AcDbEntity
  8
TEXT1
100
AcDbText
 10
74.33032632960013
 20
18.5992982279161
 30
0.0
 40
0.6400000000000001
  1
3
  7
ROMANS
 72
     1
 11
74.63508823436203
 21
18.9192982279161
 31
0.0
100
AcDbText
 73
     2
  0
TEXT
  5
6405C
330
1F
100
AcDbEntity
  8
TEXT1
100
AcDbText
 10
72.4399038858172
 20
20.41601599999998
 30
0.0
 40
0.6400000000000001
  1
STD
  7
ROMANS
 72
     1
 11
73.30847531438863
 21
20.73601599999998
 31
0.0
100
AcDbText
 73
     2
  0
TEXT
  5
6405D
330
1F
100
AcDbEntity
  8
TEXT1
100
AcDbText
 10
79.48789430608148
 20
18.62933974603159
 30
0.0
 40
0.6400000000000001
  1
Ø
  7
ROMANS
 72
     1
 11
79.82313240131958
 21
18.94933974603159
 31
0.0
100
AcDbText
 73
     2
  0
TEXT
  5
6405E
330
1F
100
AcDbEntity
  8
TEXT1
100
AcDbText
 10
75.11081397672829
 20
18.5992982279161
 30
0.0
 40
0.6400000000000001
  1
Ø
  7
ROMANS
 72
     1
 11
75.44605207196639
 21
18.9192982279161
 31
0.0
100
AcDbText
 73
     2
  0
TEXT
  5
6405F
330
1F
100
AcDbEntity
  8
TEXT1
100
AcDbText
 10
79.17439604389691
 20
16.89601599999998
 30
0.0
 40
0.6400000000000001
  1
-
  7
ROMANS
 72
     1
 11
79.57058652008737
 21
17.21601599999998
 31
0.0
100
AcDbText
 73
     2
  0
TEXT
  5
64060
330
1F
100
AcDbEntity
  8
TEXT1
100
AcDbText
 10
78.75312094466766
 20
18.62933974603159
 30
0.0
 40
0.6400000000000001
  1
1
  7
ROMANS
 72
     1
 11
79.01216856371528
 21
18.94933974603159
 31
0.0
100
AcDbText
 73
     2
  0
TEXT
  5
64061
330
1F
100
AcDbEntity
  8
TEXT1
100
AcDbText
 10
75.9256181715315
 20
22.17601599999999
 30
0.0
 40
0.6400000000000001
  1
240VAC
  7
ROMANS
 72
     1
 11
77.70847531438864
 21
22.49601599999999
 31
0.0
100
AcDbText
 73
     2
  0
TEXT
  5
64062
330
1F
100
AcDbEntity
  8
TEXT1
100
AcDbText
 10
82.74994644648284
 20
16.89601599999998
 30
0.0
 40
0.6400000000000001
  1
60&
  7
ROMANS
 72
     1
 11
83.77089882743522
 21
17.21601599999998
 31
0.0
100
AcDbText
 73
     2
  0
TEXT
  5
64063
330
1F
100
AcDbEntity
  8
TEXT1
100
AcDbText
 10
83.13032632960011
 20
18.5992982279161
 30
0.0
 40
0.6400000000000001
  1
3
  7
ROMANS
 72
     1
 11
83.435088234362
 21
18.9192982279161
 31
0.0
100
AcDbText
 73
     2
  0
TEXT
  5
64064
330
1F
100
AcDbEntity
  8
TEXT1
100
AcDbText
 10
83.91081397672827
 20
18.5992982279161
 30
0.0
 40
0.6400000000000001
  1
Ø
  7
ROMANS
 72
     1
 11
84.24605207196638
 21
18.9192982279161
 31
0.0
100
AcDbText
 73
     2
  0
TEXT
  5
64065
330
1F
100
AcDbEntity
  8
TEXT1
100
AcDbText
 10
81.14847531438865
 20
20.38597448188449
 30
0.0
 40
0.6400000000000001
  1
MAX
  7
ROMANS
 72
     1
 11
82.10847531438863
 21
20.70597448188449
 31
0.0
100
AcDbText
 73
     2
  0
TEXT
  5
64066
330
1F
100
AcDbEntity
  8
TEXT1
100
AcDbText
 10
89.83799912391244
 20
24.78933974603161
 30
0.0
 40
0.6400000000000001
  1
HORSEPOWER RATINGS
  7
ROMANS
 72
     1
 11
95.30847531438864
 21
25.10933974603161
 31
0.0
100
AcDbText
 73
     2
  0
TEXT
  5
64067
330
1F
100
AcDbEntity
  8
TEXT1
100
AcDbText
 10
93.5256181715315
 20
22.17601599999999
 30
0.0
 40
0.6400000000000001
  1
480VAC
  7
ROMANS
 72
     1
 11
95.30847531438864
 21
22.49601599999999
 31
0.0
100
AcDbText
 73
     2
  0
TEXT
  5
64068
330
1F
100
AcDbEntity
  8
TEXT1
100
AcDbText
 10
90.03990388581723
 20
20.41601599999998
 30
0.0
 40
0.6400000000000001
  1
STD
  7
ROMANS
 72
     1
 11
90.90847531438866
 21
20.73601599999998
 31
0.0
100
AcDbText
 73
     2
  0
TEXT
  5
64069
330
1F
100
AcDbEntity
  8
TEXT1
100
AcDbText
 10
87.97439604389692
 20
16.89601599999997
 30
0.0
 40
0.6400000000000001
  1
-
  7
ROMANS
 72
     1
 11
88.37058652008739
 21
17.21601599999997
 31
0.0
100
AcDbText
 73
     2
  0
TEXT
  5
6406A
330
1F
100
AcDbEntity
  8
TEXT1
100
AcDbText
 10
88.28789430608152
 20
18.62933974603159
 30
0.0
 40
0.6400000000000001
  1
Ø
  7
ROMANS
 72
     1
 11
88.62313240131962
 21
18.94933974603159
 31
0.0
100
AcDbText
 73
     2
  0
TEXT
  5
6406B
330
1F
100
AcDbEntity
  8
TEXT1
100
AcDbText
 10
87.55312094466761
 20
18.62933974603159
 30
0.0
 40
0.6400000000000001
  1
1
  7
ROMANS
 72
     1
 11
87.81216856371523
 21
18.94933974603159
 31
0.0
100
AcDbText
 73
     2
  0
TEXT
  5
6406C
330
1F
100
AcDbEntity
  8
TEXT1
100
AcDbText
 10
92.17470835124476
 20
16.89601599999997
 30
0.0
 40
0.6400000000000001
  1
-
  7
ROMANS
 72
     1
 11
92.57089882743523
 21
17.21601599999997
 31
0.0
100
AcDbText
 73
     2
  0
TEXT
  5
6406D
330
1F
100
AcDbEntity
  8
TEXT1
100
AcDbText
 10
92.71081397672828
 20
18.5992982279161
 30
0.0
 40
0.6400000000000001
  1
Ø
  7
ROMANS
 72
     1
 11
93.04605207196638
 21
18.9192982279161
 31
0.0
100
AcDbText
 73
     2
  0
TEXT
  5
6406E
330
1F
100
AcDbEntity
  8
TEXT1
100
AcDbText
 10
91.93032632960012
 20
18.5992982279161
 30
0.0
 40
0.6400000000000001
  1
3
  7
ROMANS
 72
     1
 11
92.23508823436203
 21
18.9192982279161
 31
0.0
100
AcDbText
 73
     2
  0
TEXT
  5
6406F
330
1F
100
AcDbEntity
  8
TEXT1
100
AcDbText
 10
98.74847531438865
 20
20.38597448188448
 30
0.0
 40
0.6400000000000001
  1
MAX
  7
ROMANS
 72
     1
 11
99.70847531438863
 21
20.70597448188448
 31
0.0
100
AcDbText
 73
     2
  0
TEXT
  5
64070
330
1F
100
AcDbEntity
  8
TEXT1
100
AcDbText
 10
96.77439604389689
 20
16.89601599999998
 30
0.0
 40
0.6400000000000001
  1
-
  7
ROMANS
 72
     1
 11
97.17058652008738
 21
17.21601599999998
 31
0.0
100
AcDbText
 73
     2
  0
TEXT
  5
64071
330
1F
100
AcDbEntity
  8
TEXT1
100
AcDbText
 10
96.35312094466765
 20
18.62933974603159
 30
0.0
 40
0.6400000000000001
  1
1
  7
ROMANS
 72
     1
 11
96.61216856371527
 21
18.94933974603159
 31
0.0
100
AcDbText
 73
     2
  0
TEXT
  5
64072
330
1F
100
AcDbEntity
  8
TEXT1
100
AcDbText
 10
97.08789430608149
 20
18.62933974603159
 30
0.0
 40
0.6400000000000001
  1
Ø
  7
ROMANS
 72
     1
 11
97.42313240131958
 21
18.94933974603159
 31
0.0
100
AcDbText
 73
     2
  0
TEXT
  5
64073
330
1F
100
AcDbEntity
  8
TEXT1
100
AcDbText
 10
100.9747083512447
 20
16.89601599999998
 30
0.0
 40
0.6400000000000001
  1
-
  7
ROMANS
 72
     1
 11
101.3708988274352
 21
17.21601599999998
 31
0.0
100
AcDbText
 73
     2
  0
TEXT
  5
64074
330
1F
100
AcDbEntity
  8
TEXT1
100
AcDbText
 10
101.5108139767282
 20
18.5992982279161
 30
0.0
 40
0.6400000000000001
  1
Ø
  7
ROMANS
 72
     1
 11
101.8460520719663
 21
18.9192982279161
 31
0.0
100
AcDbText
 73
     2
  0
TEXT
  5
64075
330
1F
100
AcDbEntity
  8
TEXT1
100
AcDbText
 10
100.7303263296001
 20
18.5992982279161
 30
0.0
 40
0.6400000000000001
  1
3
  7
ROMANS
 72
     1
 11
101.035088234362
 21
18.9192982279161
 31
0.0
100
AcDbText
 73
     2
  0
TEXT
  5
64076
330
1F
100
AcDbEntity
  8
TEXT1
100
AcDbText
 10
105.1531209446676
 20
18.6293397460316
 30
0.0
 40
0.6400000000000001
  1
1
  7
ROMANS
 72
     1
 11
105.4121685637152
 21
18.9493397460316
 31
0.0
100
AcDbText
 73
     2
  0
LINE
  5
64077
330
1F
100
AcDbEntity
  8
CONTINUOUS1
100
AcDbLine
 10
125.5978871285216
 20
24.25601599999994
 30
0.0
 11
125.5978871285216
 21
9.296015999999994
 31
0.0
  0
LINE
  5
64078
330
1F
100
AcDbEntity
  8
CONTINUOUS1
100
AcDbLine
 10
121.7084753143886
 20
24.25601599999999
 30
0.0
 11
121.7084753143886
 21
9.235932963769055
 31
0.0
  0
LINE
  5
64079
330
1F
100
AcDbEntity
  8
CONTINUOUS1
100
AcDbLine
 10
112.9084753143886
 20
21.61601599999999
 30
0.0
 11
112.9084753143886
 21
9.265974481884544
 31
0.0
  0
TEXT
  5
6407A
330
1F
100
AcDbEntity
  8
TEXT1
100
AcDbText
 10
113.8258246153254
 20
9.856015999999973
 30
0.0
 40
0.6400000000000001
  1
50^ 
  7
ROMANS
 72
     1
 11
114.7705865200874
 21
10.17601599999997
 31
0.0
100
AcDbText
 73
     2
  0
TEXT
  5
6407B
330
1F
100
AcDbEntity
  8
TEXT1
100
AcDbText
 10
109.7747083512447
 20
9.856015999999973
 30
0.0
 40
0.6400000000000001
  1
-
  7
ROMANS
 72
     1
 11
110.1708988274352
 21
10.17601599999997
 31
0.0
100
AcDbText
 73
     2
  0
TEXT
  5
6407C
330
1F
100
AcDbEntity
  8
TEXT1
100
AcDbText
 10
105.5743960438969
 20
9.856015999999973
 30
0.0
 40
0.6400000000000001
  1
-
  7
ROMANS
 72
     1
 11
105.9705865200873
 21
10.17601599999997
 31
0.0
100
AcDbText
 73
     2
  0
TEXT
  5
6407D
330
1F
100
AcDbEntity
  8
TEXT1
100
AcDbText
 10
105.0258246153254
 20
11.61601599999997
 30
0.0
 40
0.6400000000000001
  1
30^ 
  7
ROMANS
 72
     1
 11
105.9705865200873
 21
11.93601599999997
 31
0.0
100
AcDbText
 73
     2
  0
TEXT
  5
6407E
330
1F
100
AcDbEntity
  8
TEXT1
100
AcDbText
 10
109.5461369226733
 20
11.61601599999997
 30
0.0
 40
0.6400000000000001
  1
60
  7
ROMANS
 72
     1
 11
110.1708988274352
 21
11.93601599999997
 31
0.0
100
AcDbText
 73
     2
  0
TEXT
  5
6407F
330
1F
100
AcDbEntity
  8
TEXT1
100
AcDbText
 10
105.0258246153254
 20
13.37601599999997
 30
0.0
 40
0.6400000000000001
  1
30^ 
  7
ROMANS
 72
     1
 11
105.9705865200873
 21
13.69601599999997
 31
0.0
100
AcDbText
 73
     2
  0
TEXT
  5
64080
330
1F
100
AcDbEntity
  8
TEXT1
100
AcDbText
 10
105.5743960438969
 20
15.13601599999997
 30
0.0
 40
0.6400000000000001
  1
-
  7
ROMANS
 72
     1
 11
105.9705865200873
 21
15.45601599999997
 31
0.0
100
AcDbText
 73
     2
  0
TEXT
  5
64081
330
1F
100
AcDbEntity
  8
TEXT1
100
AcDbText
 10
109.5461369226733
 20
13.37601599999997
 30
0.0
 40
0.6400000000000001
  1
60
  7
ROMANS
 72
     1
 11
110.1708988274352
 21
13.69601599999997
 31
0.0
100
AcDbText
 73
     2
  0
TEXT
  5
64082
330
1F
100
AcDbEntity
  8
TEXT1
100
AcDbText
 10
109.7747083512447
 20
15.13601599999997
 30
0.0
 40
0.6400000000000001
  1
-
  7
ROMANS
 72
     1
 11
110.1708988274352
 21
15.45601599999997
 31
0.0
100
AcDbText
 73
     2
  0
TEXT
  5
64083
330
1F
100
AcDbEntity
  8
TEXT1
100
AcDbText
 10
113.8258246153254
 20
11.61601599999997
 30
0.0
 40
0.6400000000000001
  1
50^ 
  7
ROMANS
 72
     1
 11
114.7705865200874
 21
11.93601599999997
 31
0.0
100
AcDbText
 73
     2
  0
TEXT
  5
64084
330
1F
100
AcDbEntity
  8
TEXT1
100
AcDbText
 10
113.8258246153254
 20
13.37601599999997
 30
0.0
 40
0.6400000000000001
  1
50^ 
  7
ROMANS
 72
     1
 11
114.7705865200874
 21
13.69601599999997
 31
0.0
100
AcDbText
 73
     2
  0
TEXT
  5
64085
330
1F
100
AcDbEntity
  8
TEXT1
100
AcDbText
 10
114.3743960438969
 20
15.13601599999997
 30
0.0
 40
0.6400000000000001
  1
-
  7
ROMANS
 72
     1
 11
114.7705865200874
 21
15.45601599999997
 31
0.0
100
AcDbText
 73
     2
  0
TEXT
  5
64087
330
1F
100
AcDbEntity
  8
TEXT1
100
AcDbText
 10
118.0108988274352
 20
9.856015999999973
 30
0.0
 40
0.6400000000000001
  1
150
  7
ROMANS
 72
     1
 11
118.9708988274352
 21
10.17601599999997
 31
0.0
100
AcDbText
 73
     2
  0
TEXT
  5
64088
330
1F
100
AcDbEntity
  8
TEXT1
100
AcDbText
 10
118.0108988274352
 20
11.61601599999997
 30
0.0
 40
0.6400000000000001
  1
150
  7
ROMANS
 72
     1
 11
118.9708988274352
 21
11.93601599999997
 31
0.0
100
AcDbText
 73
     2
  0
TEXT
  5
64089
330
1F
100
AcDbEntity
  8
TEXT1
100
AcDbText
 10
118.0108988274352
 20
13.37601599999997
 30
0.0
 40
0.6400000000000001
  1
150
  7
ROMANS
 72
     1
 11
118.9708988274352
 21
13.69601599999997
 31
0.0
100
AcDbText
 73
     2
  0
TEXT
  5
6408A
330
1F
100
AcDbEntity
  8
TEXT1
100
AcDbText
 10
118.7208988274352
 20
14.85209830366101
 30
0.0
 40
0.6399937636239339
  1

  7
ROMANS
 72
     1
 11
118.7208988274352
 21
15.17209518547297
 31
0.0
100
AcDbText
 73
     2
  0
TEXT
  5
6408B
330
1F
100
AcDbEntity
  8
TEXT1
100
AcDbText
 10
118.5747083512447
 20
15.13601599999997
 30
0.0
 40
0.6400000000000001
  1
-
  7
ROMANS
 72
     1
 11
118.9708988274352
 21
15.45601599999997
 31
0.0
100
AcDbText
 73
     2
  0
TEXT
  5
64090
330
1F
100
AcDbEntity
  8
TEXT1
100
AcDbText
 10
125.9906091209169
 20
9.856015999999977
 30
0.0
 40
0.6400000000000001
  1
50^ 
  7
ROMANS
 72
     1
 11
126.9353710256788
 21
10.17601599999997
 31
0.0
100
AcDbText
 73
     2
  0
TEXT
  5
64091
330
1F
100
AcDbEntity
  8
TEXT1
100
AcDbText
 10
125.9906091209169
 20
11.61601599999997
 30
0.0
 40
0.6400000000000001
  1
50^ 
  7
ROMANS
 72
     1
 11
126.9353710256788
 21
11.93601599999997
 31
0.0
100
AcDbText
 73
     2
  0
TEXT
  5
64093
330
1F
100
AcDbEntity
  8
TEXT1
100
AcDbText
 10
125.9906091209169
 20
13.37601599999997
 30
0.0
 40
0.6400000000000001
  1
50^ 
  7
ROMANS
 72
     1
 11
126.9353710256788
 21
13.69601599999997
 31
0.0
100
AcDbText
 73
     2
  0
TEXT
  5
64094
330
1F
100
AcDbEntity
  8
TEXT1
100
AcDbText
 10
126.5391805494883
 20
15.13601599999998
 30
0.0
 40
0.6400000000000001
  1
-
  7
ROMANS
 72
     1
 11
126.9353710256788
 21
15.45601599999998
 31
0.0
100
AcDbText
 73
     2
  0
TEXT
  5
64095
330
1F
100
AcDbEntity
  8
TEXT1
100
AcDbText
 10
110.3108139767282
 20
18.59929822791611
 30
0.0
 40
0.6400000000000001
  1
Ø
  7
ROMANS
 72
     1
 11
110.6460520719663
 21
18.91929822791611
 31
0.0
100
AcDbText
 73
     2
  0
TEXT
  5
64096
330
1F
100
AcDbEntity
  8
TEXT1
100
AcDbText
 10
105.5743960438969
 20
16.89601599999997
 30
0.0
 40
0.6400000000000001
  1
-
  7
ROMANS
 72
     1
 11
105.9705865200873
 21
17.21601599999997
 31
0.0
100
AcDbText
 73
     2
  0
TEXT
  5
64097
330
1F
100
AcDbEntity
  8
TEXT1
100
AcDbText
 10
105.8878943060814
 20
18.6293397460316
 30
0.0
 40
0.6400000000000001
  1
Ø
  7
ROMANS
 72
     1
 11
106.2231324013195
 21
18.9493397460316
 31
0.0
100
AcDbText
 73
     2
  0
TEXT
  5
64098
330
1F
100
AcDbEntity
  8
TEXT1
100
AcDbText
 10
109.7747083512447
 20
16.89601599999997
 30
0.0
 40
0.6400000000000001
  1
-
  7
ROMANS
 72
     1
 11
110.1708988274352
 21
17.21601599999997
 31
0.0
100
AcDbText
 73
     2
  0
TEXT
  5
64099
330
1F
100
AcDbEntity
  8
TEXT1
100
AcDbText
 10
109.5303263296001
 20
18.59929822791611
 30
0.0
 40
0.6400000000000001
  1
3
  7
ROMANS
 72
     1
 11
109.835088234362
 21
18.91929822791611
 31
0.0
100
AcDbText
 73
     2
  0
TEXT
  5
6409A
330
1F
100
AcDbEntity
  8
TEXT1
100
AcDbText
 10
107.6399038858172
 20
20.41601599999998
 30
0.0
 40
0.6400000000000001
  1
STD
  7
ROMANS
 72
     1
 11
108.5084753143886
 21
20.73601599999998
 31
0.0
100
AcDbText
 73
     2
  0
TEXT
  5
6409B
330
1F
100
AcDbEntity
  8
TEXT1
100
AcDbText
 10
114.3743960438969
 20
16.89601599999997
 30
0.0
 40
0.6400000000000001
  1
-
  7
ROMANS
 72
     1
 11
114.7705865200874
 21
17.21601599999997
 31
0.0
100
AcDbText
 73
     2
  0
TEXT
  5
6409C
330
1F
100
AcDbEntity
  8
TEXT1
100
AcDbText
 10
113.9531209446676
 20
18.6293397460316
 30
0.0
 40
0.6400000000000001
  1
1
  7
ROMANS
 72
     1
 11
114.2121685637152
 21
18.9493397460316
 31
0.0
100
AcDbText
 73
     2
  0
TEXT
  5
6409D
330
1F
100
AcDbEntity
  8
TEXT1
100
AcDbText
 10
114.6878943060815
 20
18.6293397460316
 30
0.0
 40
0.6400000000000001
  1
Ø
  7
ROMANS
 72
     1
 11
115.0231324013196
 21
18.9493397460316
 31
0.0
100
AcDbText
 73
     2
  0
TEXT
  5
6409E
330
1F
100
AcDbEntity
  8
TEXT1
100
AcDbText
 10
111.1103800762934
 20
22.17601599999999
 30
0.0
 40
0.6400000000000001
  1
600VAC
  7
ROMANS
 72
     1
 11
112.9084753143886
 21
22.49601599999999
 31
0.0
100
AcDbText
 73
     2
  0
TEXT
  5
6409F
330
1F
100
AcDbEntity
  8
TEXT1
100
AcDbText
 10
118.3303263296001
 20
18.59929822791611
 30
0.0
 40
0.6400000000000001
  1
3
  7
ROMANS
 72
     1
 11
118.635088234362
 21
18.91929822791611
 31
0.0
100
AcDbText
 73
     2
  0
TEXT
  5
640A0
330
1F
100
AcDbEntity
  8
TEXT1
100
AcDbText
 10
118.5747083512447
 20
16.89601599999997
 30
0.0
 40
0.6400000000000001
  1
-
  7
ROMANS
 72
     1
 11
118.9708988274352
 21
17.21601599999997
 31
0.0
100
AcDbText
 73
     2
  0
TEXT
  5
640A1
330
1F
100
AcDbEntity
  8
TEXT1
100
AcDbText
 10
119.1108139767282
 20
18.59929822791611
 30
0.0
 40
0.6400000000000001
  1
Ø
  7
ROMANS
 72
     1
 11
119.4460520719663
 21
18.91929822791611
 31
0.0
100
AcDbText
 73
     2
  0
TEXT
  5
640A2
330
1F
100
AcDbEntity
  8
TEXT1
100
AcDbText
 10
116.3484753143886
 20
20.38597448188449
 30
0.0
 40
0.6400000000000001
  1
MAX
  7
ROMANS
 72
     1
 11
117.3084753143886
 21
20.70597448188449
 31
0.0
100
AcDbText
 73
     2
  0
TEXT
  5
640A3
330
1F
100
AcDbEntity
  8
TEXT1
100
AcDbText
 10
122.3538916378395
 20
16.89601599999998
 30
0.0
 40
0.6400000000000001
  1
40^ 
  7
ROMANS
 72
     1
 11
123.2986535426014
 21
17.21601599999998
 31
0.0
100
AcDbText
 73
     2
  0
TEXT
  5
640A4
330
1F
100
AcDbEntity
  8
TEXT1
100
AcDbText
 10
122.43008211403
 20
20.38597448188449
 30
0.0
 40
0.6400000000000001
  1
STD
  7
ROMANS
 72
     1
 11
123.2986535426014
 21
20.70597448188449
 31
0.0
100
AcDbText
 73
     2
  0
TEXT
  5
640A5
330
1F
100
AcDbEntity
  8
TEXT1
100
AcDbText
 10
122.4158606736488
 20
22.17601599999999
 30
0.0
 40
0.6400000000000001
  1
VDC
  7
ROMANS
 72
     1
 11
123.2996701974583
 21
22.49601599999999
 31
0.0
100
AcDbText
 73
     2
  0
TEXT
  5
640A6
330
1F
100
AcDbEntity
  8
TEXT1
100
AcDbText
 10
122.3853844831726
 20
23.05601599999999
 30
0.0
 40
0.6400000000000001
  1
250
  7
ROMANS
 72
     1
 11
123.2996701974583
 21
23.37601599999999
 31
0.0
100
AcDbText
 73
     2
  0
TEXT
  5
640A7
330
1F
100
AcDbEntity
  8
TEXT1
100
AcDbText
 10
126.5478478394204
 20
16.89601599999998
 30
0.0
 40
0.6400000000000001
  1
-
  7
ROMANS
 72
     1
 11
126.9440383156109
 21
17.21601599999998
 31
0.0
100
AcDbText
 73
     2
  0
TEXT
  5
640A8
330
1F
100
AcDbEntity
  8
TEXT1
100
AcDbText
 10
126.4078668319408
 20
20.38597448188449
 30
0.0
 40
0.6400000000000001
  1
STD
  7
ROMANS
 72
     1
 11
127.2764382605122
 21
20.70597448188449
 31
0.0
100
AcDbText
 73
     2
  0
TEXT
  5
640A9
330
1F
100
AcDbEntity
  8
TEXT1
100
AcDbText
 10
126.3892987625376
 20
22.17601599999999
 30
0.0
 40
0.6400000000000001
  1
VDC
  7
ROMANS
 72
     1
 11
127.2731082863471
 21
22.49601599999999
 31
0.0
100
AcDbText
 73
     2
  0
TEXT
  5
640AA
330
1F
100
AcDbEntity
  8
TEXT1
100
AcDbText
 10
126.3435844768233
 20
23.05601599999999
 30
0.0
 40
0.6400000000000001
  1
600
  7
ROMANS
 72
     1
 11
127.2731082863471
 21
23.37601599999999
 31
0.0
100
AcDbText
 73
     2
  0
TEXT
  5
640AB
330
1F
100
AcDbEntity
  8
TEXT1
100
AcDbText
 10
122.8582161826907
 20
26.97188210005243
 30
0.0
 40
0.6400000000000001
  1
MILLIMETERS
  7
ROMANS
 11
122.8582161826907
 21
27.29188210005243
 31
0.0
100
AcDbText
 73
     2
  0
TEXT
  5
640AC
330
1F
100
AcDbEntity
  8
TEXT1
100
AcDbText
 10
122.9109293038988
 20
28.07911454439324
 30
0.0
 40
0.8
  1
INCHES
  7
ROMANS
 11
122.9109293038988
 21
28.47911454439323
 31
0.0
100
AcDbText
 73
     2
  0
TEXT
  5
640AD
330
1F
100
AcDbEntity
  8
TEXT1
100
AcDbText
 10
113.5882672233038
 20
27.66360971615085
 30
0.0
 40
0.6400000000000001
  1
DUAL DIMENSIONS:
  7
ROMANS
 11
113.5882672233038
 21
27.98360971615085
 31
0.0
100
AcDbText
 73
     2
  0
LWPOLYLINE
  5
64176
330
1F
100
AcDbEntity
  8
CONTINUOUS1
100
AcDbPolyline
 90
        2
 70
     0
 43
0.0
 10
42.74284452249688
 20
23.37601599999998
 10
55.54284452249686
 20
23.37601599999998
  0
TEXT
  5
6417D
330
1F
100
AcDbEntity
  8
TEXT1
100
AcDbText
 10
43.5961778558302
 20
21.29601599999998
 30
0.0
 40
0.6400000000000001
  1
TYPE 12K
  7
ROMANS
 72
     1
 11
45.94284452249687
 21
21.61601599999998
 31
0.0
100
AcDbText
 73
     2
  0
TEXT
  5
64183
330
1F
100
AcDbEntity
  8
TEXT1
100
AcDbText
 10
44.90665404630639
 20
19.53601599999998
 30
0.0
 40
0.6400000000000001
  1
WITH
  7
ROMANS
 72
     1
 11
45.94284452249687
 21
19.85601599999998
 31
0.0
100
AcDbText
 73
     2
  0
TEXT
  5
64189
330
1F
100
AcDbEntity
  8
TEXT1
100
AcDbText
 10
50.35926895265986
 20
19.53601599999998
 30
0.0
 40
0.6400000000000001
  1
WITHOUT
  7
ROMANS
 72
     1
 11
52.35545942885034
 21
19.85601599999998
 31
0.0
100
AcDbText
 73
     2
  0
TEXT
  5
6418F
330
1F
100
AcDbEntity
  8
TEXT1
100
AcDbText
 10
50.32879276218366
 20
21.29601599999998
 30
0.0
 40
0.6400000000000001
  1
TYPE 12
  7
ROMANS
 72
     1
 11
52.35545942885034
 21
21.61601599999998
 31
0.0
100
AcDbText
 73
     2
  0
TEXT
  5
64342
330
1F
100
AcDbEntity
  8
TEXT1
100
AcDbText
 10
122.3538916378395
 20
15.13601599999997
 30
0.0
 40
0.6400000000000001
  1
40^ 
  7
ROMANS
 72
     1
 11
123.2986535426014
 21
15.45601599999997
 31
0.0
100
AcDbText
 73
     2
  0
TEXT
  5
64348
330
1F
100
AcDbEntity
  8
TEXT1
100
AcDbText
 10
122.3538916378395
 20
13.37601599999997
 30
0.0
 40
0.6400000000000001
  1
40^ 
  7
ROMANS
 72
     1
 11
123.2986535426014
 21
13.69601599999997
 31
0.0
100
AcDbText
 73
     2
  0
TEXT
  5
6434E
330
1F
100
AcDbEntity
  8
TEXT1
100
AcDbText
 10
122.3538916378395
 20
11.61601599999997
 30
0.0
 40
0.6400000000000001
  1
40^ 
  7
ROMANS
 72
     1
 11
123.2986535426014
 21
11.93601599999997
 31
0.0
100
AcDbText
 73
     2
  0
TEXT
  5
64354
330
1F
100
AcDbEntity
  8
TEXT1
100
AcDbText
 10
122.3538916378395
 20
9.856015999999973
 30
0.0
 40
0.6400000000000001
  1
40^ 
  7
ROMANS
 72
     1
 11
123.2986535426014
 21
10.17601599999997
 31
0.0
100
AcDbText
 73
     2
  0
LWPOLYLINE
  5
64460
330
1F
100
AcDbEntity
  8
CONTINUOUS1
100
AcDbPolyline
 90
        4
 70
   129
 43
0.0
 10
115.8501426826551
 20
40.21666354179376
 10
129.2000079999997
 20
40.21666354179376
 10
129.2000079999997
 20
51.1766635417938
 10
115.8501426826551
 20
51.1766635417938
  0
LINE
  5
64461
330
1F
100
AcDbEntity
  8
CONTINUOUS1
100
AcDbLine
 10
120.841382826431
 20
49.1766635417938
 30
0.0
 11
120.841382826431
 21
40.21666354179376
 31
0.0
  0
LINE
  5
64462
330
1F
100
AcDbEntity
  8
CONTINUOUS1
100
AcDbLine
 10
124.8703635583951
 20
47.81666354179384
 30
0.0
 11
124.8703635583951
 21
40.21666354179376
 31
0.0
  0
LINE
  5
64463
330
1F
100
AcDbEntity
  8
CONTINUOUS1
100
AcDbLine
 10
115.8501426826551
 20
40.21666354179376
 30
0.0
 11
129.2000079999997
 21
40.21666354179376
 31
0.0
  0
LINE
  5
64464
330
1F
100
AcDbEntity
  8
CONTINUOUS1
100
AcDbLine
 10
115.8501426826551
 20
41.81666354179379
 30
0.0
 11
129.2000079999997
 21
41.81666354179379
 31
0.0
  0
LINE
  5
64467
330
1F
100
AcDbEntity
  8
CONTINUOUS1
100
AcDbLine
 10
115.8501426826551
 20
43.41666354179375
 30
0.0
 11
129.2000079999997
 21
43.41666354179375
 31
0.0
  0
LINE
  5
64468
330
1F
100
AcDbEntity
  8
CONTINUOUS1
100
AcDbLine
 10
115.8501426826551
 20
45.01666354179377
 30
0.0
 11
129.2000079999997
 21
45.01666354179377
 31
0.0
  0
LINE
  5
64469
330
1F
100
AcDbEntity
  8
CONTINUOUS1
100
AcDbLine
 10
115.8501426826551
 20
45.01666354179377
 30
0.0
 11
129.2000079999997
 21
45.01666354179377
 31
0.0
  0
TEXT
  5
6446A
330
1F
100
AcDbEntity
  8
TEXT1
100
AcDbText
 10
126.3955955987096
 20
45.49666354179378
 30
0.0
 40
0.6400000000000001
  1
32
  7
ROMANS
 72
     1
 11
127.0051194082334
 21
45.81666354179378
 31
0.0
100
AcDbText
 73
     2
  0
TEXT
  5
6446B
330
1F
100
AcDbEntity
  8
TEXT1
100
AcDbText
 10
126.3955955987096
 20
43.89666354179376
 30
0.0
 40
0.6400000000000001
  1
38
  7
ROMANS
 72
     1
 11
127.0051194082334
 21
44.21666354179376
 31
0.0
100
AcDbText
 73
     2
  0
TEXT
  5
6446C
330
1F
100
AcDbEntity
  8
TEXT1
100
AcDbText
 10
126.4870241701381
 20
42.29666354179374
 30
0.0
 40
0.6400000000000001
  1
51
  7
ROMANS
 72
     1
 11
127.0051194082334
 21
42.61666354179374
 31
0.0
100
AcDbText
 73
     2
  0
TEXT
  5
6446D
330
1F
100
AcDbEntity
  8
TEXT1
100
AcDbText
 10
126.3651194082334
 20
40.69666354179378
 30
0.0
 40
0.6400000000000001
  1
64
  7
ROMANS
 72
     1
 11
127.0051194082334
 21
41.01666354179378
 31
0.0
100
AcDbText
 73
     2
  0
TEXT
  5
6446F
330
1F
100
AcDbEntity
  8
TEXT1
100
AcDbText
 10
121.7728949013556
 20
45.49666354179378
 30
0.0
 40
0.6400000000000001
  1
1.25
  7
ROMANS
 72
     1
 11
122.8852758537366
 21
45.81666354179378
 31
0.0
100
AcDbText
 73
     2
  0
TEXT
  5
64470
330
1F
100
AcDbEntity
  8
TEXT1
100
AcDbText
 10
121.7728949013556
 20
43.89666354179376
 30
0.0
 40
0.6400000000000001
  1
1.50
  7
ROMANS
 72
     1
 11
122.8852758537366
 21
44.21666354179376
 31
0.0
100
AcDbText
 73
     2
  0
TEXT
  5
64471
330
1F
100
AcDbEntity
  8
TEXT1
100
AcDbText
 10
121.8186091870699
 20
42.29666354179374
 30
0.0
 40
0.6400000000000001
  1
2.00
  7
ROMANS
 72
     1
 11
122.8852758537366
 21
42.61666354179374
 31
0.0
100
AcDbText
 73
     2
  0
TEXT
  5
64472
330
1F
100
AcDbEntity
  8
TEXT1
100
AcDbText
 10
121.8186091870699
 20
40.69666354179378
 30
0.0
 40
0.6400000000000001
  1
2.50
  7
ROMANS
 72
     1
 11
122.8852758537366
 21
41.01666354179378
 31
0.0
100
AcDbText
 73
     2
  0
TEXT
  5
64474
330
1F
100
AcDbEntity
  8
TEXT1
100
AcDbText
 10
117.9909906555703
 20
45.49666354179378
 30
0.0
 40
0.6400000000000001
  1
D
  7
ROMANS
 72
     1
 11
118.3262287508084
 21
45.81666354179378
 31
0.0
100
AcDbText
 73
     2
  0
TEXT
  5
64475
330
1F
100
AcDbEntity
  8
TEXT1
100
AcDbText
 10
118.0062287508084
 20
43.89666354179376
 30
0.0
 40
0.6400000000000001
  1
E
  7
ROMANS
 72
     1
 11
118.3262287508084
 21
44.21666354179376
 31
0.0
100
AcDbText
 73
     2
  0
TEXT
  5
64476
330
1F
100
AcDbEntity
  8
TEXT1
100
AcDbText
 10
118.0062287508084
 20
42.29666354179374
 30
0.0
 40
0.6400000000000001
  1
F
  7
ROMANS
 72
     1
 11
118.3262287508084
 21
42.61666354179374
 31
0.0
100
AcDbText
 73
     2
  0
TEXT
  5
64477
330
1F
100
AcDbEntity
  8
TEXT1
100
AcDbText
 10
118.0062287508084
 20
40.69666354179378
 30
0.0
 40
0.6400000000000001
  1
G
  7
ROMANS
 72
     1
 11
118.3262287508084
 21
41.01666354179378
 31
0.0
100
AcDbText
 73
     2
  0
LINE
  5
64479
330
1F
100
AcDbEntity
  8
CONTINUOUS1
100
AcDbLine
 10
115.8501426826551
 20
49.1766635417938
 30
0.0
 11
129.2000079999997
 21
49.1766635417938
 31
0.0
  0
TEXT
  5
6447A
330
1F
100
AcDbEntity
  8
TEXT1
100
AcDbText
 10
116.4367049412846
 20
47.49666354179384
 30
0.0
 40
0.6400000000000001
  1
SYMBOL
  7
ROMANS
 72
     1
 11
118.3262287508084
 21
47.81666354179384
 31
0.0
100
AcDbText
 73
     2
  0
LINE
  5
6447C
330
1F
100
AcDbEntity
  8
CONTINUOUS1
100
AcDbLine
 10
115.8501426826551
 20
46.6166635417938
 30
0.0
 11
129.2000079999997
 21
46.6166635417938
 31
0.0
  0
TEXT
  5
6447E
330
1F
100
AcDbEntity
  8
TEXT1
100
AcDbText
 10
121.5467876941028
 20
48.20276942253116
 30
0.0
 40
0.6400000000000001
  1
CONDUIT SIZE
  7
ROMANS
 72
     1
 11
124.9144067417219
 21
48.52276942253116
 31
0.0
100
AcDbText
 73
     2
  0
LINE
  5
6447F
330
1F
100
AcDbEntity
  8
CONTINUOUS1
100
AcDbLine
 10
120.841382826431
 20
47.81666354179384
 30
0.0
 11
129.2000079999997
 21
47.81666354179384
 31
0.0
  0
TEXT
  5
64482
330
1F
100
AcDbEntity
  8
TEXT1
100
AcDbText
 10
126.2736908368048
 20
46.89666354179382
 30
0.0
 40
0.6400000000000001
  1
MM
  7
ROMANS
 72
     1
 11
127.0051194082334
 21
47.21666354179382
 31
0.0
100
AcDbText
 73
     2
  0
TEXT
  5
64483
330
1F
100
AcDbEntity
  8
TEXT1
100
AcDbText
 10
119.6603134365655
 20
49.8566635417938
 30
0.0
 40
0.6400000000000001
  1
KNOCKOUTS
  7
ROMANS
 72
     1
 11
122.5250753413274
 21
50.1766635417938
 31
0.0
100
AcDbText
 73
     2
  0
TEXT
  5
64488
330
1F
100
AcDbEntity
  8
TEXT1
100
AcDbText
 10
122.4281329965937
 20
46.89666354179382
 30
0.0
 40
0.6400000000000001
  1
IN
  7
ROMANS
 72
     1
 11
122.8852758537366
 21
47.21666354179382
 31
0.0
100
AcDbText
 73
     2
  0
MTEXT
  5
64559
330
1F
100
AcDbEntity
  8
TEXT1
100
AcDbMText
 10
125.9919196644721
 20
50.58110346116748
 30
0.0
 40
0.6400000000000001
 41
0.5905000000000001
 71
     2
 72
     5
  1
+
  7
ROMANS
1001
ACAD
1000
MTEXTBEGIN
1070
    73
1070
     1
1070
    44
1040
1.0
1070
    74
1070
     0
1000
MTEXTEND
  0
MTEXT
  5
6455A
330
1F
100
AcDbEntity
  8
TEXT1
100
AcDbMText
 10
125.9924333988147
 20
50.62594286470204
 30
0.0
 40
0.6400000000000001
 41
0.5905000000000001
 71
     5
 72
     5
  1
+
  7
ROMANS
1001
ACAD
1000
MTEXTBEGIN
1070
    73
1070
     1
1070
    44
1040
1.0
1070
    74
1070
     0
1000
MTEXTEND
  0
ARC
  5
6462B
330
1F
100
AcDbEntity
  8
0
100
AcDbCircle
 10
21.75089304295412
 20
42.14964079983518
 30
0.0
 40
0.899387067608894
100
AcDbArc
 50
173.3210015682843
 51
6.678998431715563
  0
ARC
  5
6462F
330
1F
100
AcDbEntity
  8
0
100
AcDbCircle
 10
21.75089304295412
 20
71.35885025841834
 30
0.0
 40
0.899387067608894
100
AcDbArc
 50
353.3210015682844
 51
186.6789984317156
  0
ARC
  5
64630
330
1F
100
AcDbEntity
  8
0
100
AcDbCircle
 10
31.99983308702023
 20
71.35885025841834
 30
0.0
 40
0.899387067608894
100
AcDbArc
 50
353.3210015682844
 51
186.6789984317156
  0
ARC
  5
64631
330
1F
100
AcDbEntity
  8
0
100
AcDbCircle
 10
31.99983308702023
 20
42.14964079983518
 30
0.0
 40
0.899387067608894
100
AcDbArc
 50
173.3210015682843
 51
6.678998431715563
  0
HATCH
  5
64632
330
1F
100
AcDbEntity
  8
TEXT1
100
AcDbHatch
 10
0.0
 20
0.0
 30
0.0
210
0.0
220
0.0
230
1.0
  2
SOLID
 70
     1
 71
     1
 91
        1
 92
        1
 93
        3
 72
     1
 10
121.872043716567
 20
58.20134467544
 11
122.112043716567
 21
58.68134467543999
 72
     1
 10
122.112043716567
 20
58.68134467543999
 11
122.352043716567
 21
58.20134467544
 72
     1
 10
122.352043716567
 20
58.20134467544
 11
121.872043716567
 21
58.20134467544
 97
        1
330
64633
 75
     0
 76
     1
 98
        1
 10
119.2772815252752
 20
52.93347505763778
  0
LWPOLYLINE
  5
64633
102
{ACAD_REACTORS
330
64632
102
}
330
1F
100
AcDbEntity
  8
TEXT1
100
AcDbPolyline
 90
        3
 70
   129
 43
0.0
 10
121.872043716567
 20
58.20134467544
 10
122.112043716567
 20
58.68134467543999
 10
122.352043716567
 20
58.20134467544
  0
LINE
  5
64634
330
1F
100
AcDbEntity
  8
CONTINUOUS1
100
AcDbLine
 10
73.30847531438863
 20
19.85601599999998
 30
0.0
 11
73.30847531438863
 21
9.296015999999983
 31
0.0
  0
LINE
  5
64635
330
1F
100
AcDbEntity
  8
CONTINUOUS1
100
AcDbLine
 10
82.10847531438863
 20
19.82597448188449
 30
0.0
 11
82.10847531438863
 21
9.265974481884494
 31
0.0
  0
LINE
  5
64636
330
1F
100
AcDbEntity
  8
CONTINUOUS1
100
AcDbLine
 10
90.90847531438866
 20
19.82597448188449
 30
0.0
 11
90.90847531438866
 21
9.265974481884494
 31
0.0
  0
LINE
  5
64637
330
1F
100
AcDbEntity
  8
CONTINUOUS1
100
AcDbLine
 10
99.70847531438863
 20
19.82597448188448
 30
0.0
 11
99.70847531438863
 21
9.265974481884484
 31
0.0
  0
LINE
  5
64638
330
1F
100
AcDbEntity
  8
CONTINUOUS1
100
AcDbLine
 10
108.5084753143886
 20
19.85601599999998
 30
0.0
 11
108.5084753143886
 21
9.296015999999983
 31
0.0
  0
LINE
  5
64639
330
1F
100
AcDbEntity
  8
CONTINUOUS1
100
AcDbLine
 10
117.3084753143886
 20
19.82597448188449
 30
0.0
 11
117.3084753143886
 21
9.265974481884494
 31
0.0
  0
TEXT
  5
6463A
330
1F
100
AcDbEntity
  8
TEXT1
100
AcDbText
 10
100.0147083512447
 20
9.856015999999987
 30
0.0
 40
0.6400000000000001
  1
125&
  7
ROMANS
 72
     1
 11
101.3708988274352
 21
10.17601599999998
 31
0.0
100
AcDbText
 73
     2
  0
TEXT
  5
6463B
330
1F
100
AcDbEntity
  8
TEXT1
100
AcDbText
 10
96.22582461532546
 20
9.856015999999987
 30
0.0
 40
0.6400000000000001
  1
50^ 
  7
ROMANS
 72
     1
 11
97.17058652008738
 21
10.17601599999998
 31
0.0
100
AcDbText
 73
     2
  0
VIEWPORT
  5
32
330
1B
100
AcDbEntity
 67
     1
  8
0
100
AcDbViewport
 10
8.200303490350268
 20
5.047628237877505
 30
0.0
 40
22.12794768469421
 41
14.1309530885577
 68
     1
 69
     1
1001
ACAD
1000
MVIEW
1002
{
1070
    16
1010
0.0
1020
0.0
1030
0.0
1010
0.0
1020
0.0
1030
1.0
1040
0.0
1040
14.1309530885577
1040
8.200303490350268
1040
5.047628237877505
1040
50.0
1040
0.0
1040
0.0
1070
     0
1070
   100
1070
     1
1070
     0
1070
     0
1070
     0
1070
     0
1070
     0
1040
0.0
1040
0.0
1040
0.0
1040
0.5
1040
0.5
1040
0.5
1040
0.5
1070
     0
1002
{
1002
}
1002
}
1001
GENIUS_GENOREF_13
1005
0
1005
0
1005
0
1005
0
1005
0
1005
0
1005
0
1005
0
1005
0
1005
0
1005
0
1005
0
1001
GENIUS_GENSCREG_15
1000
PF
1040
1.0
1000
DF
1040
1.0
1000
MIN
1011
-1.092313485762716
1021
-0.4872937060788445
1031
0.0
1000
MAX
1011
17.48771534209376
1021
10.6120688506603
1031
0.0
1000
FLAGS
1070
     2
  0
LWPOLYLINE
  5
175
330
1B
100
AcDbEntity
 67
     1
  8
VIEWPORT
100
AcDbPolyline
 90
        6
 70
     1
 43
0.0
 10
16.40000099999999
 20
10.25
 10
16.40000099999999
 20
0.9120019999999993
 10
8.002461
 20
0.9120019999999993
 10
8.002461
 20
0.0
 10
0.0
 20
0.0
 10
0.0
 20
10.25
1001
GENIUS_GENOREF_13
1005
0
1005
0
1005
0
1005
0
1005
0
1005
0
1005
0
1005
0
1005
0
1005
0
1005
0
1005
0
1005
0
1005
0
1005
0
1005
0
1005
0
1005
0
1005
0
1005
0
1005
0
1005
0
1005
0
1005
0
1005
0
1005
0
1005
0
1005
0
1005
0
1005
0
1005
0
1005
0
1005
0
1005
0
  0
VIEWPORT
  5
177
330
1B
100
AcDbEntity
 67
     1
  8
VIEWPORT
100
AcDbViewport
 10
8.200000499999999
 20
5.125
 30
0.0
 40
16.40000099999999
 41
10.25
 68
     2
 69
     2
1001
ACAD
1000
MVIEW
1002
{
1070
    16
1010
0.0
1020
0.0
1030
0.0
1010
0.0
1020
0.0
1030
1.0
1040
0.0
1040
82.0
1040
65.60000461096634
1040
41.00000038185387
1040
50.0
1040
0.0
1040
0.0
1070
     0
1070
   100
1070
     1
1070
     2
1070
     0
1070
     0
1070
     0
1070
     0
1040
0.0
1040
0.0
1040
0.0
1040
0.5
1040
0.5
1040
0.5
1040
0.5
1070
     0
1002
{
1002
}
1002
}
1001
GENIUS_GENOREF_13
1005
0
1005
0
1005
0
1005
0
1005
0
1005
0
1005
0
1005
0
1005
0
1005
0
1005
0
1005
0
1005
0
1005
0
1005
0
1005
0
1005
0
1005
0
1005
0
1005
0
1005
0
1005
0
1005
0
1005
0
1005
0
1005
0
1005
0
1005
0
1005
0
1005
0
1005
0
1005
0
1005
0
1005
0
1001
GENIUS_GENSCREG_15
1000
PF
1040
0.0
1000
DF
1040
0.0
1000
MIN
1011
0.0
1021
0.0
1031
0.0
1000
MAX
1011
16.40000099999999
1021
10.25
1031
0.0
1000
FLAGS
1070
     2
  0
INSERT
  5
B2C
330
1B
100
AcDbEntity
 67
     1
  8
TITLEBLOCK
100
AcDbBlockReference
 66
     1
  2
TITLE-PAD
 10
0.0
 20
0.0
 30
0.0
  0
ATTRIB
  5
B2D
330
B2C
100
AcDbEntity
 67
     1
  8
TEXT1
 62
     0
100
AcDbText
 10
10.10183834893798
 20
0.7474460884590166
 30
0.0
 40
0.1
  1

  7
ROMANS
 72
     4
 11
10.10183834893798
 21
0.7474460884590166
 31
0.0
100
AcDbAttribute
  2
DESCRIPTION 1
 70
     0
  0
ATTRIB
  5
B2E
330
B2C
100
AcDbEntity
 67
     1
  8
TEXT1
 62
     0
100
AcDbText
 10
8.878028825128465
 20
0.5517231711406715
 30
0.0
 40
0.1
  1
HEAVY DUTY SEAFETY SWITCHES
  7
ROMANS
 72
     4
 11
10.10183834893798
 21
0.6017231711406717
 31
0.0
100
AcDbAttribute
  2
DESCRIPTION 2
 70
     0
  0
ATTRIB
  5
B2F
330
B2C
100
AcDbEntity
 67
     1
  8
TEXT1
 62
     0
100
AcDbText
 10
9.488505015604655
 20
0.4160002538223267
 30
0.0
 40
0.08
  1
VISIBLE BLADE TYPE
  7
ROMANS
 72
     4
 11
10.10183834893798
 21
0.4560002538223267
 31
0.0
100
AcDbAttribute
  2
DESCRIPTION 3
 70
     0
  0
ATTRIB
  5
B30
330
B2C
100
AcDbEntity
 67
     1
  8
TEXT1
 62
     0
100
AcDbText
 10
9.269457396557037
 20
0.2802773365039832
 30
0.0
 40
0.08
  1
200 AMPERE - SERIES F6
  7
ROMANS
 72
     4
 11
10.10183834893798
 21
0.3202773365039833
 31
0.0
100
AcDbAttribute
  2
DESCRIPTION 4
 70
     0
  0
ATTRIB
  5
B31
330
B2C
100
AcDbEntity
 67
     1
  8
TEXT1
 62
     0
100
AcDbText
 10
8.618028825128465
 20
0.1521734668046874
 30
0.0
 40
0.08
  1
ENCLOSURE - NEMA TYPE 12, 12K INDUSTRIAL
  7
ROMANS
 72
     4
 11
10.10183834893798
 21
0.1845544191856399
 31
0.0
100
AcDbAttribute
  2
DESCRIPTION 5
 70
     0
  0
ATTRIB
  5
B32
330
B2C
100
AcDbEntity
 67
     1
  8
TEXT1
 62
     0
100
AcDbText
 10
12.74772367103195
 20
0.096540546036505
 30
0.0
 40
0.12
  1
3233
 41
0.9512024731840066
  7
M_STANDARD
 11
12.74772367103195
 21
0.156540546036505
 31
0.0
100
AcDbAttribute
  2
DWGNO
 70
     0
 74
     2
  0
ATTRIB
  5
B33
330
B2C
100
AcDbEntity
 67
     1
  8
TEXT1
 62
     0
100
AcDbText
 10
16.06173121615992
 20
-0.1507193079929352
 30
0.0
 40
0.08
  1
3233
  7
ROMANS
 72
     2
 11
16.35506454949325
 21
-0.1107193079929352
 31
0.0
100
AcDbAttribute
  2
REF
 70
     0
 74
     2
  0
ATTRIB
  5
B34
330
B2C
100
AcDbEntity
 67
     1
  8
TEXT1
 62
     0
100
AcDbText
 10
0.0266402374038712
 20
-0.1507193079929352
 30
0.0
 40
0.08
  1
NOVEMBER 2002
  7
ROMANS
 11
0.0266402374038712
 21
-0.1107193079929352
 31
0.0
100
AcDbAttribute
  2
DATE
 70
     0
 74
     2
  0
SEQEND
  5
B35
330
B2C
100
AcDbEntity
 67
     1
  8
0
  0
ENDSEC
  0
SECTION
  2
OBJECTS
  0
DICTIONARY
  5
C
330
0
100
AcDbDictionary
  3
ACAD_GROUP
350
D
  3
ACAD_LAYOUT
350
1A
  3
ACAD_MLINESTYLE
350
17
  3
ACAD_PLOTSETTINGS
350
19
  3
ACAD_PLOTSTYLENAME
350
E
  3
ACADDIM
350
63DAA
  3
ACDBHEADERROUNDTRIPXREC
350
64DC8
  3
ACDBVARIABLEDICTIONARY
350
374
  3
ACMDICTIONARY
350
383
  3
AMG
350
36B
  3
AMGSNAPSETTINGS
350
399
  3
ASE_INDEX_DICTIONARY
350
6A
  3
DWGPROPS
350
1265F
  0
DICTIONARY
  5
73
330
1F
100
AcDbDictionary
280
     1
  3
ACAD_INDEX
360
64355
  3
ACAD_LAYOUTSELFREF
360
64DEA
  0
DICTIONARY
  5
75
330
1B
100
AcDbDictionary
280
     1
  3
ACAD_LAYOUTSELFREF
360
64DE9
  0
DICTIONARY
  5
D
102
{ACAD_REACTORS
330
C
102
}
330
C
100
AcDbDictionary
  0
DICTIONARY
  5
1A
102
{ACAD_REACTORS
330
C
102
}
330
C
100
AcDbDictionary
  0
DICTIONARY
  5
17
102
{ACAD_REACTORS
330
C
102
}
330
C
100
AcDbDictionary
  3
STANDARD
350
18
  0
DICTIONARY
  5
19
102
{ACAD_REACTORS
330
C
102
}
330
C
100
AcDbDictionary
  3
A_SIZE_PAPER
350
2FF
  3
B_SIZE_PAPER
350
2FD
  3
D_SIZE_PAPER
350
2FE
  0
ACDBDICTIONARYWDFLT
  5
E
102
{ACAD_REACTORS
330
C
102
}
330
C
100
AcDbDictionary
281
     1
  3
Normal
350
F
100
AcDbDictionaryWithDefault
340
F
  0
XRECORD
  5
63DAA
102
{ACAD_REACTORS
330
C
102
}
330
C
100
AcDbXrecord
 90
   990106
  3

 60
     0
 61
     0
 62
     1
 63
     3
 64
     0
 65
     0
 66
     0
 67
     3
 68
     1
 69
     0
 70
     0
 71
     0
 72
     0
 40
0.0
170
     0
340
63DAC
  0
DICTIONARY
  5
64DC8
102
{ACAD_REACTORS
330
C
102
}
330
C
100
AcDbDictionary
  3
CEPSNTYPE
350
64DD2
  3
DIMSTYLEDATA
350
64DD6
  3
FINGERPRINTGUID
350
64DD3
  3
HYPERLINKBASE
350
64DCB
  3
INSUNITS
350
64DD1
  3
LAYOUTDICT
350
64DCD
  3
LWETCUNION
350
64DD0
  3
PLOTSETDICT
350
64DCE
  3
PLOTSTYLNAMDICT
350
64DCF
  3
PSVPSCALE
350
64DD5
  3
PUCSBASE
350
64DD9
  3
PUCSORGBACK
350
64DDF
  3
PUCSORGBOTTOM
350
64DDB
  3
PUCSORGFRONT
350
64DDE
  3
PUCSORGLEFT
350
64DDC
  3
PUCSORGRIGHT
350
64DDD
  3
PUCSORGTOP
350
64DDA
  3
PUCSORTHOREF
350
64DD7
  3
PUCSORTHOVIEW
350
64DD8
  3
STYLESHEET
350
64DCC
  3
TSTACKALIGN
350
64DC9
  3
TSTACKSIZE
350
64DCA
  3
UCSBASE
350
64DE2
  3
UCSORGBACK
350
64DE8
  3
UCSORGBOTTOM
350
64DE4
  3
UCSORGFRONT
350
64DE7
  3
UCSORGLEFT
350
64DE5
  3
UCSORGRIGHT
350
64DE6
  3
UCSORGTOP
350
64DE3
  3
UCSORTHOREF
350
64DE0
  3
UCSORTHOVIEW
350
64DE1
  3
VERSIONGUID
350
64DD4
  0
DICTIONARY
  5
374
102
{ACAD_REACTORS
330
C
102
}
330
C
100
AcDbDictionary
  3
DIMASSOC
350
64834
  3
INDEXCTL
350
375
  3
SORTENTS
350
18D16
  0
DICTIONARY
  5
383
102
{ACAD_REACTORS
330
C
102
}
330
C
100
AcDbDictionary
  0
DICTIONARY
  5
36B
102
{ACAD_REACTORS
330
C
102
}
330
C
100
AcDbDictionary
  3
ACMGSETTINGS
350
36C
  0
DICTIONARY
  5
399
102
{ACAD_REACTORS
330
C
102
}
330
C
100
AcDbDictionary
  0
DICTIONARY
  5
6A
102
{ACAD_REACTORS
330
C
102
}
330
C
100
AcDbDictionary
  3
ASEBLOCKHIERARCHYINDEXRECORD
350
6C
1001
DCO15
1040
1379130883.246999
  0
XRECORD
  5
1265F
102
{ACAD_REACTORS
330
C
102
}
330
C
100
AcDbXrecord
  1
DWGPROPS COOKIE
  2

  3

  4

  6

  7

  8
mgp706
  9

300
AmdtFileType=84
301
=
302
=
303
=
304
=
305
=
306
=
307
=
308
=
309
=
 40
0.486704212962963
 41
2451764.535041909
 42
2451892.488387812
  1

 90
        1
  0
DICTIONARY
  5
64355
102
{ACAD_REACTORS
330
73
102
}
330
73
100
AcDbDictionary
  3
*A1
350
64356
  0
XRECORD
  5
64DEA
102
{ACAD_REACTORS
330
73
102
}
330
73
100
AcDbXrecord
340
1F
  0
XRECORD
  5
64DE9
102
{ACAD_REACTORS
330
75
102
}
330
75
100
AcDbXrecord
340
1B
  0
MLINESTYLE
  5
18
102
{ACAD_REACTORS
330
17
102
}
330
17
100
AcDbMlineStyle
  2
STANDARD
 70
     0
  3

 62
   256
 51
90.0
 52
90.0
 71
     2
 49
0.5
 62
   256
  6
BYLAYER
 49
-0.5
 62
   256
  6
BYLAYER
  0
PLOTSETTINGS
  5
2FF
102
{ACAD_REACTORS
330
19
102
}
330
19
100
AcDbPlotSettings
  1
A Size Paper
  2
none_device
  4
ANSI_A_(8.50_x_11.00_Inches)
  6

 40
6.349999904632568
 41
19.04999923706054
 42
6.350006103515625
 43
19.04998779296875
 44
215.8999938964843
 45
279.3999938964843
 46
19.04999999999999
 47
-9.651999999999999
 48
0.0
 49
0.0
140
0.0
141
0.0
142
1.0
143
1.6
 70
   740
 72
     0
 73
     1
 74
     1
  7
monochrome.ctb
 75
     0
147
0.625
148
0.0034886547032954
149
0.0199946439100934
  0
PLOTSETTINGS
  5
2FD
102
{ACAD_REACTORS
330
19
102
}
330
19
100
AcDbPlotSettings
  1
B Size Paper
  2
none_device
  4
ANSI_B_(11.00_x_17.00_Inches)
  6

 40
6.349999904632568
 41
19.04999923706054
 42
6.350006103515625
 43
19.04998779296875
 44
279.3999938964843
 45
431.7999877929687
 46
1.27
 47
-11.43
 48
0.0
 49
0.0
140
0.0
141
0.0
142
1.0
143
1.0
 70
   756
 72
     0
 73
     1
 74
     1
  7
monochrome.ctb
 75
    16
147
1.0
148
0.0034886547032954
149
0.0199946439100934
  0
PLOTSETTINGS
  5
2FE
102
{ACAD_REACTORS
330
19
102
}
330
19
100
AcDbPlotSettings
  1
D Size Paper
  2
none_device
  4
ANSI_D_(22.00_x_34.00_Inches)
  6

 40
6.349999904632568
 41
19.04999923706054
 42
6.3499755859375
 43
19.04998779296875
 44
558.7999877929687
 45
863.5999755859375
 46
8.889999999999998
 47
-3.809999999999999
 48
0.0
 49
0.0
140
0.0
141
0.0
142
1.0
143
0.5
 70
   740
 72
     0
 73
     1
 74
     1
  7
monochrome.ctb
 75
     0
147
2.0
148
0.0034886547032954
149
0.0199946439100934
  0
ACDBPLACEHOLDER
  5
F
102
{ACAD_REACTORS
330
E
102
}
330
E
100
AcDbPlaceHolder
280
     0
  0
XRECORD
  5
64DD2
102
{ACAD_REACTORS
330
64DC8
102
}
330
64DC8
100
AcDbXrecord
 90
        0
  0
XRECORD
  5
64DD6
102
{ACAD_REACTORS
330
64DC8
102
}
330
64DC8
100
AcDbXrecord
1000
DSTYLE
1002
{
1070
    79
 70
     1
1070
   148
 40
0.1
1070
   341
340
61611
1070
   342
340
61611
1070
   371
 70
    -1
1070
   372
 70
    -1
1002
}
  0
XRECORD
  5
64DD3
102
{ACAD_REACTORS
330
64DC8
102
}
330
64DC8
100
AcDbXrecord
  1
{4E694E3A-6C64-11D4-81E3-0004AC4461C9}
  0
XRECORD
  5
64DCB
102
{ACAD_REACTORS
330
64DC8
102
}
330
64DC8
100
AcDbXrecord
  1

  0
XRECORD
  5
64DD1
102
{ACAD_REACTORS
330
64DC8
102
}
330
64DC8
100
AcDbXrecord
 90
        1
  0
XRECORD
  5
64DCD
102
{ACAD_REACTORS
330
64DC8
102
}
330
64DC8
100
AcDbXrecord
340
1A
  0
XRECORD
  5
64DD0
102
{ACAD_REACTORS
330
64DC8
102
}
330
64DC8
100
AcDbXrecord
 90
    10269
  0
XRECORD
  5
64DCE
102
{ACAD_REACTORS
330
64DC8
102
}
330
64DC8
100
AcDbXrecord
340
19
  0
XRECORD
  5
64DCF
102
{ACAD_REACTORS
330
64DC8
102
}
330
64DC8
100
AcDbXrecord
340
E
  0
XRECORD
  5
64DD5
102
{ACAD_REACTORS
330
64DC8
102
}
330
64DC8
100
AcDbXrecord
 40
1.0
  0
XRECORD
  5
64DD9
102
{ACAD_REACTORS
330
64DC8
102
}
330
64DC8
100
AcDbXrecord
340
0
  0
XRECORD
  5
64DDF
102
{ACAD_REACTORS
330
64DC8
102
}
330
64DC8
100
AcDbXrecord
 10
0.0
 20
0.0
 30
0.0
  0
XRECORD
  5
64DDB
102
{ACAD_REACTORS
330
64DC8
102
}
330
64DC8
100
AcDbXrecord
 10
0.0
 20
0.0
 30
0.0
  0
XRECORD
  5
64DDE
102
{ACAD_REACTORS
330
64DC8
102
}
330
64DC8
100
AcDbXrecord
 10
0.0
 20
0.0
 30
0.0
  0
XRECORD
  5
64DDC
102
{ACAD_REACTORS
330
64DC8
102
}
330
64DC8
100
AcDbXrecord
 10
0.0
 20
0.0
 30
0.0
  0
XRECORD
  5
64DDD
102
{ACAD_REACTORS
330
64DC8
102
}
330
64DC8
100
AcDbXrecord
 10
0.0
 20
0.0
 30
0.0
  0
XRECORD
  5
64DDA
102
{ACAD_REACTORS
330
64DC8
102
}
330
64DC8
100
AcDbXrecord
 10
0.0
 20
0.0
 30
0.0
  0
XRECORD
  5
64DD7
102
{ACAD_REACTORS
330
64DC8
102
}
330
64DC8
100
AcDbXrecord
340
0
  0
XRECORD
  5
64DD8
102
{ACAD_REACTORS
330
64DC8
102
}
330
64DC8
100
AcDbXrecord
 70
     0
  0
XRECORD
  5
64DCC
102
{ACAD_REACTORS
330
64DC8
102
}
330
64DC8
100
AcDbXrecord
  1

  0
XRECORD
  5
64DC9
102
{ACAD_REACTORS
330
64DC8
102
}
330
64DC8
100
AcDbXrecord
 90
        1
  0
XRECORD
  5
64DCA
102
{ACAD_REACTORS
330
64DC8
102
}
330
64DC8
100
AcDbXrecord
 90
       70
  0
XRECORD
  5
64DE2
102
{ACAD_REACTORS
330
64DC8
102
}
330
64DC8
100
AcDbXrecord
340
0
  0
XRECORD
  5
64DE8
102
{ACAD_REACTORS
330
64DC8
102
}
330
64DC8
100
AcDbXrecord
 10
0.0
 20
0.0
 30
0.0
  0
XRECORD
  5
64DE4
102
{ACAD_REACTORS
330
64DC8
102
}
330
64DC8
100
AcDbXrecord
 10
0.0
 20
0.0
 30
0.0
  0
XRECORD
  5
64DE7
102
{ACAD_REACTORS
330
64DC8
102
}
330
64DC8
100
AcDbXrecord
 10
0.0
 20
0.0
 30
0.0
  0
XRECORD
  5
64DE5
102
{ACAD_REACTORS
330
64DC8
102
}
330
64DC8
100
AcDbXrecord
 10
0.0
 20
0.0
 30
0.0
  0
XRECORD
  5
64DE6
102
{ACAD_REACTORS
330
64DC8
102
}
330
64DC8
100
AcDbXrecord
 10
0.0
 20
0.0
 30
0.0
  0
XRECORD
  5
64DE3
102
{ACAD_REACTORS
330
64DC8
102
}
330
64DC8
100
AcDbXrecord
 10
0.0
 20
0.0
 30
0.0
  0
XRECORD
  5
64DE0
102
{ACAD_REACTORS
330
64DC8
102
}
330
64DC8
100
AcDbXrecord
340
0
  0
XRECORD
  5
64DE1
102
{ACAD_REACTORS
330
64DC8
102
}
330
64DC8
100
AcDbXrecord
 70
     0
  0
XRECORD
  5
64DD4
102
{ACAD_REACTORS
330
64DC8
102
}
330
64DC8
100
AcDbXrecord
  1
{5E4A671E-FBC2-11D6-B162-000347E5A8BF}
  0
DICTIONARYVAR
  5
64834
102
{ACAD_REACTORS
330
374
102
}
330
374
100
DictionaryVariables
280
     0
  1
1
  0
DICTIONARYVAR
  5
375
102
{ACAD_REACTORS
330
374
102
}
330
374
100
DictionaryVariables
280
     0
  1
1
  0
DICTIONARYVAR
  5
18D16
102
{ACAD_REACTORS
330
374
102
}
330
374
100
DictionaryVariables
280
     0
  1
96
  0
DICTIONARY
  5
36C
102
{ACAD_REACTORS
330
36B
102
}
330
36B
100
AcDbDictionary
  3
DWGSETTINGS
350
1264B
  0
XRECORD
  5
6C
102
{ACAD_REACTORS
330
6A
102
}
330
6A
100
AcDbXrecord
  0
LAYER_INDEX
  5
64356
102
{ACAD_REACTORS
330
64355
102
}
330
64355
100
AcDbIndex
 40
2452598.350799595
100
AcDbLayerIndex
  8
0
360
64357
 90
        5
  8
CONTINUOUS1
360
64358
 90
      191
  8
CONTINUOUS2
360
64359
 90
        0
  8
CONTINUOUS3
360
6435A
 90
        0
  8
DIM
360
6435B
 90
       12
  8
TEXT1
360
6435C
 90
      236
  8
TITLEBLOCK
360
6435D
 90
        0
  8
VIEWPORT
360
6435E
 90
        2
  8
HIDDEN1
360
6435F
 90
       19
  8
Defpoints
360
64360
 90
        0
  0
XRECORD
  5
1264B
102
{ACAD_REACTORS
330
36C
102
}
330
36C
100
AcDbXrecord
  1
VERSION
140
15.0
  1
PRODUCT
  2
AutoCAD Mechanical 2000
  0
IDBUFFER
  5
64357
330
0
100
AcDbIdBuffer
330
63DAC
330
6462B
330
6462F
330
64630
330
64631
  0
IDBUFFER
  5
64358
330
0
100
AcDbIdBuffer
330
63789
330
637A3
330
637A4
330
637A5
330
637A6
330
63841
330
63842
330
63843
330
6385D
330
6385E
330
63863
330
63864
330
63865
330
63866
330
63867
330
63868
330
63869
330
6386A
330
63871
330
63872
330
63873
330
63878
330
63879
330
6387A
330
6387B
330
6387C
330
6387D
330
6387E
330
6387F
330
63880
330
63881
330
63882
330
63883
330
6388E
330
6388F
330
63890
330
63891
330
63892
330
63893
330
63894
330
63895
330
63896
330
63897
330
63898
330
63899
330
6389E
330
6389F
330
638CF
330
638D1
330
638D7
330
638D8
330
638D9
330
638DA
330
638DB
330
638DC
330
638DD
330
638DE
330
638DF
330
638E0
330
638E1
330
638E2
330
638E3
330
638E4
330
638E5
330
638E6
330
638E7
330
638E8
330
638E9
330
638EA
330
638EB
330
638EC
330
638ED
330
638EE
330
638EF
330
638F0
330
638F1
330
638F2
330
638F3
330
638F4
330
638F5
330
638F9
330
638FA
330
638FB
330
638FC
330
638FD
330
6390B
330
63911
330
63912
330
63914
330
63915
330
63916
330
63918
330
63919
330
6391A
330
6391B
330
6391C
330
6391D
330
6391E
330
6391F
330
63920
330
63921
330
63922
330
63923
330
63924
330
63925
330
63926
330
63927
330
63928
330
63929
330
6392B
330
6392D
330
63937
330
6393F
330
63941
330
63953
330
63955
330
63971
330
63973
330
639B7
330
639B8
330
639BA
330
639BB
330
639BC
330
639BD
330
639BE
330
639BF
330
639C0
330
639C3
330
639C4
330
639C5
330
639C6
330
639C9
330
639CA
330
639CB
330
639CC
330
639CD
330
639CE
330
639CF
330
63AF2
330
63AF3
330
63AF4
330
63AF5
330
63AF8
330
63AFA
330
63C4C
330
63C5D
330
63CE4
330
63CE5
330
63E26
330
63E2D
330
63E33
330
63E39
330
64008
330
64009
330
6400A
330
6400B
330
6400C
330
6400D
330
6400E
330
6400F
330
64026
330
64027
330
64028
330
64029
330
6402A
330
6402B
330
6402C
330
6402D
330
6402E
330
6402F
330
64077
330
64078
330
64079
330
64176
330
64460
330
64461
330
64462
330
64463
330
64464
330
64467
330
64468
330
64469
330
64479
330
6447C
330
6447F
330
64634
330
64635
330
64636
330
64637
330
64638
330
64639
  0
IDBUFFER
  5
64359
330
0
100
AcDbIdBuffer
  0
IDBUFFER
  5
6435A
330
0
100
AcDbIdBuffer
  0
IDBUFFER
  5
6435B
330
0
100
AcDbIdBuffer
330
638C9
330
63AC4
330
63AFB
330
63B27
330
63B3F
330
63B63
330
63B7B
330
63C5E
330
63DAB
330
63DAD
330
63DB9
330
63DE5
  0
IDBUFFER
  5
6435C
330
0
100
AcDbIdBuffer
330
EB24
330
EC02
330
EC03
330
EC04
330
EC05
330
115F3
330
115F4
330
120A1
330
12248
330
12A8A
330
12A8B
330
14F77
330
172B0
330
63782
330
63783
330
63784
330
63786
330
63793
330
63794
330
63795
330
63796
330
63797
330
63798
330
63799
330
6379A
330
6379B
330
6379C
330
6385B
330
63860
330
63861
330
63862
330
6386F
330
63875
330
63876
330
63877
330
63888
330
6388B
330
6388C
330
6388D
330
638A8
330
638A9
330
638AA
330
638AB
330
638AC
330
638AD
330
638AE
330
638AF
330
638B0
330
638B1
330
638B2
330
638B3
330
638B4
330
638B5
330
638B6
330
638BB
330
638BC
330
639B9
330
639C2
330
639C7
330
639C8
330
639D6
330
63A71
330
63A77
330
63A7E
330
63A84
330
63A8C
330
63A8D
330
63AF6
330
63AF7
330
64010
330
64011
330
64012
330
64013
330
64014
330
64015
330
64016
330
64017
330
64018
330
64019
330
6401A
330
6401B
330
6401D
330
6401E
330
6401F
330
64020
330
64021
330
64022
330
64023
330
64024
330
64025
330
64030
330
64031
330
64032
330
64033
330
64034
330
64035
330
64036
330
64037
330
64038
330
64039
330
6403A
330
6403B
330
6403C
330
6403D
330
6403E
330
6403F
330
64040
330
64041
330
64042
330
64043
330
64044
330
64045
330
64046
330
64047
330
64048
330
64049
330
6404A
330
6404B
330
6404E
330
6404F
330
64050
330
64051
330
64052
330
64053
330
64054
330
64055
330
64056
330
64057
330
64058
330
64059
330
6405A
330
6405B
330
6405C
330
6405D
330
6405E
330
6405F
330
64060
330
64061
330
64062
330
64063
330
64064
330
64065
330
64066
330
64067
330
64068
330
64069
330
6406A
330
6406B
330
6406C
330
6406D
330
6406E
330
6406F
330
64070
330
64071
330
64072
330
64073
330
64074
330
64075
330
64076
330
6407A
330
6407B
330
6407C
330
6407D
330
6407E
330
6407F
330
64080
330
64081
330
64082
330
64083
330
64084
330
64085
330
64087
330
64088
330
64089
330
6408A
330
6408B
330
64090
330
64091
330
64093
330
64094
330
64095
330
64096
330
64097
330
64098
330
64099
330
6409A
330
6409B
330
6409C
330
6409D
330
6409E
330
6409F
330
640A0
330
640A1
330
640A2
330
640A3
330
640A4
330
640A5
330
640A6
330
640A7
330
640A8
330
640A9
330
640AA
330
640AB
330
640AC
330
640AD
330
6417D
330
64183
330
64189
330
6418F
330
64342
330
64348
330
6434E
330
64354
330
6446A
330
6446B
330
6446C
330
6446D
330
6446F
330
64470
330
64471
330
64472
330
64474
330
64475
330
64476
330
64477
330
6447A
330
6447E
330
64482
330
64483
330
64488
330
64559
330
6455A
330
64632
330
64633
330
6463A
330
6463B
  0
IDBUFFER
  5
6435D
330
0
100
AcDbIdBuffer
  0
IDBUFFER
  5
6435E
330
0
100
AcDbIdBuffer
330
BF7
330
BF8
  0
IDBUFFER
  5
6435F
330
0
100
AcDbIdBuffer
330
6385C
330
6385F
330
6386B
330
6386C
330
6386D
330
6386E
330
63870
330
63874
330
63884
330
63885
330
63886
330
63887
330
63889
330
6388A
330
6389A
330
6389B
330
6389C
330
6389D
330
639C1
  0
IDBUFFER
  5
64360
330
0
100
AcDbIdBuffer
  0
ENDSEC
  0
EOF
