  0
SECTION
  2
HEADER
  9
$ACADVER
  1
AC1009
  9
$INSBASE
 10
-146.27124
 20
-153.796096
 30
0.0
  9
$EXTMIN
 10
293.761164
 20
-104.495408
 30
0.0
  9
$EXTMAX
 10
393.420089
 20
-14.190409
 30
0.0
  9
$LIMMIN
 10
-407.970438
 20
-367.832444
  9
$LIMMAX
 10
429.804077
 20
234.370848
  9
$ORTHOMODE
 70
     1
  9
$REGENMODE
 70
     1
  9
$FILLMODE
 70
     1
  9
$QTEXTMODE
 70
     0
  9
$MIRRTEXT
 70
     1
  9
$DRAGMODE
 70
     2
  9
$LTSCALE
 40
10.0
  9
$OSMODE
 70
    37
  9
$ATTMODE
 70
     1
  9
$TEXTSIZE
 40
6.0
  9
$TRACEWID
 40
1.0
  9
$TEXTSTYLE
  7
ROMANS
  9
$CLAYER
  8
ALPHA
  9
$CELTYPE
  6
BYLAYER
  9
$CECOLOR
 62
   256
  9
$DIMSCALE
 40
1.0
  9
$DIMASZ
 40
2.0
  9
$DIMEXO
 40
0.3
  9
$DIMDLI
 40
0.1
  9
$DIMRND
 40
0.0
  9
$DIMDLE
 40
0.0
  9
$DIMEXE
 40
0.5
  9
$DIMTP
 40
0.0
  9
$DIMTM
 40
0.0
  9
$DIMTXT
 40
2.0
  9
$DIMCEN
 40
0.0
  9
$DIMTSZ
 40
0.0
  9
$DIMTOL
 70
     0
  9
$DIMLIM
 70
     0
  9
$DIMTIH
 70
     0
  9
$DIMTOH
 70
     0
  9
$DIMSE1
 70
     0
  9
$DIMSE2
 70
     0
  9
$DIMTAD
 70
     1
  9
$DIMZIN
 70
    12
  9
$DIMBLK
  1
OPEN30
  9
$DIMASO
 70
     1
  9
$DIMSHO
 70
     1
  9
$DIMPOST
  1

  9
$DIMAPOST
  1

  9
$DIMALT
 70
     0
  9
$DIMALTD
 70
     2
  9
$DIMALTF
 40
25.4
  9
$DIMLFAC
 40
1.0
  9
$DIMTOFL
 70
     0
  9
$DIMTVP
 40
0.0
  9
$DIMTIX
 70
     0
  9
$DIMSOXD
 70
     0
  9
$DIMSAH
 70
     0
  9
$DIMBLK1
  1

  9
$DIMBLK2
  1

  9
$DIMSTYLE
  2
SC_DEFAUT
  9
$DIMCLRD
 70
     0
  9
$DIMCLRE
 70
     0
  9
$DIMCLRT
 70
     0
  9
$DIMTFAC
 40
1.0
  9
$DIMGAP
 40
0.6
  9
$LUNITS
 70
     2
  9
$LUPREC
 70
     1
  9
$SKETCHINC
 40
0.1
  9
$FILLETRAD
 40
0.0
  9
$AUNITS
 70
     0
  9
$AUPREC
 70
     0
  9
$MENU
  1
acad
  9
$ELEVATION
 40
0.0
  9
$PELEVATION
 40
0.0
  9
$THICKNESS
 40
0.0
  9
$LIMCHECK
 70
     0
  9
$BLIPMODE
 70
     0
  9
$CHAMFERA
 40
0.0
  9
$CHAMFERB
 40
0.0
  9
$SKPOLY
 70
     0
  9
$TDCREATE
 40
2450365.355314
  9
$TDUPDATE
 40
2452618.473725
  9
$TDINDWG
 40
0.895979
  9
$TDUSRTIMER
 40
0.895979
  9
$USRTIMER
 70
     1
  9
$ANGBASE
 50
0.0
  9
$ANGDIR
 70
     0
  9
$PDMODE
 70
    32
  9
$PDSIZE
 40
0.0
  9
$PLINEWID
 40
0.0
  9
$COORDS
 70
     2
  9
$SPLFRAME
 70
     0
  9
$SPLINETYPE
 70
     6
  9
$SPLINESEGS
 70
     8
  9
$ATTDIA
 70
     0
  9
$ATTREQ
 70
     1
  9
$HANDLING
 70
     1
  9
$HANDSEED
  5
43CE
  9
$SURFTAB1
 70
     6
  9
$SURFTAB2
 70
     6
  9
$SURFTYPE
 70
     6
  9
$SURFU
 70
     6
  9
$SURFV
 70
     6
  9
$UCSNAME
  2

  9
$UCSORG
 10
0.0
 20
0.0
 30
0.0
  9
$UCSXDIR
 10
1.0
 20
0.0
 30
0.0
  9
$UCSYDIR
 10
0.0
 20
1.0
 30
0.0
  9
$PUCSNAME
  2

  9
$PUCSORG
 10
0.0
 20
0.0
 30
0.0
  9
$PUCSXDIR
 10
1.0
 20
0.0
 30
0.0
  9
$PUCSYDIR
 10
0.0
 20
1.0
 30
0.0
  9
$USERI1
 70
     0
  9
$USERI2
 70
     0
  9
$USERI3
 70
     0
  9
$USERI4
 70
     0
  9
$USERI5
 70
     0
  9
$USERR1
 40
0.0
  9
$USERR2
 40
0.0
  9
$USERR3
 40
0.0
  9
$USERR4
 40
0.0
  9
$USERR5
 40
0.0
  9
$WORLDVIEW
 70
     1
  9
$SHADEDGE
 70
     3
  9
$SHADEDIF
 70
    70
  9
$TILEMODE
 70
     1
  9
$MAXACTVP
 70
    16
  9
$PLIMCHECK
 70
     0
  9
$PEXTMIN
 10
1.000000E+020
 20
1.000000E+020
 30
1.000000E+020
  9
$PEXTMAX
 10
-1.000000E+020
 20
-1.000000E+020
 30
-1.000000E+020
  9
$PLIMMIN
 10
0.0
 20
0.0
  9
$PLIMMAX
 10
12.0
 20
9.0
  9
$UNITMODE
 70
     0
  9
$VISRETAIN
 70
     0
  9
$PLINEGEN
 70
     0
  9
$PSLTSCALE
 70
     0
  0
ENDSEC
  0
SECTION
  2
TABLES
  0
TABLE
  2
VPORT
 70
     2
  0
VPORT
  2
*ACTIVE
 70
     0
 10
0.0
 20
0.0
 11
1.0
 21
1.0
 12
343.605447
 22
-59.333738
 13
0.0
 23
0.0
 14
1.0
 24
1.0
 15
10.0
 25
10.0
 16
0.0
 26
0.0
 36
1.0
 17
0.0
 27
0.0
 37
0.0
 40
91.144255
 41
1.63142
 42
50.0
 43
0.0
 44
0.0
 50
0.0
 51
0.0
 71
     0
 72
   100
 73
     1
 74
     0
 75
     0
 76
     0
 77
     0
 78
     0
  0
ENDTAB
  0
TABLE
  2
LTYPE
 70
    23
  0
LTYPE
  2
CONTINUOUS
 70
     0
  3
Solid line
 72
    65
 73
     0
 40
0.0
  0
LTYPE
  2
AXES2
 70
     0
  3
___ _ ___ _ ___ _ ___ _ ___ _ ___ _ ___ _ ___ _
 72
    65
 73
     4
 40
1.125
 49
0.75
 49
-0.125
 49
0.125
 49
-0.125
  0
LTYPE
  2
AXES
 70
     0
  3
____ _ ____ _ ____ _ ____ _ ____ _ ____ _ ____ 
 72
    65
 73
     4
 40
2.0
 49
1.25
 49
-0.25
 49
0.25
 49
-0.25
  0
LTYPE
  2
AXESX2
 70
     0
  3
________  __  ________  __  ________  __  _____
 72
    65
 73
     4
 40
4.0
 49
2.5
 49
-0.5
 49
0.5
 49
-0.5
  0
LTYPE
  2
TIRETPT
 70
     0
  3
__ . __ . __ . __ . __ . __ . __ . __ . __ . __
 72
    65
 73
     4
 40
1.0
 49
0.5
 49
-0.25
 49
0.0
 49
-0.25
  0
LTYPE
  2
TIRETPT2
 70
     0
  3
_._._._._._._._._._._._._._._._._._._._._._._._
 72
    65
 73
     4
 40
0.5
 49
0.25
 49
-0.125
 49
0.0
 49
-0.125
  0
LTYPE
  2
TIRETPTX2
 70
     0
  3
____  .  ____  .  ____  .  ____  .  ____  .  __
 72
    65
 73
     4
 40
2.0
 49
1.0
 49
-0.5
 49
0.0
 49
-0.5
  0
LTYPE
  2
DISCONTINU
 70
     0
  3
__ __ __ __ __ __ __ __ __ __ __ __ __ __ __ __
 72
    65
 73
     2
 40
0.75
 49
0.5
 49
-0.25
  0
LTYPE
  2
DISCONTINU2
 70
     0
  3
_ _ _ _ _ _ _ _ _ _ _ _ _ _ _ _ _ _ _ _ _ _ _ _
 72
    65
 73
     2
 40
0.375
 49
0.25
 49
-0.125
  0
LTYPE
  2
DISCONTINUX2
 70
     0
  3
____  ____  ____  ____  ____  ____  ____  ____ 
 72
    65
 73
     2
 40
1.5
 49
1.0
 49
-0.5
  0
LTYPE
  2
DIVISE
 70
     0
  3
____ . . ____ . . ____ . . ____ . . ____ . . __
 72
    65
 73
     6
 40
1.25
 49
0.5
 49
-0.25
 49
0.0
 49
-0.25
 49
0.0
 49
-0.25
  0
LTYPE
  2
DIVISE2
 70
     0
  3
__..__..__..__..__..__..__..__..__..__..__..__.
 72
    65
 73
     6
 40
0.625
 49
0.25
 49
-0.125
 49
0.0
 49
-0.125
 49
0.0
 49
-0.125
  0
LTYPE
  2
DIVISEX2
 70
     0
  3
________  .  .  ________  .  .  ________  .  . 
 72
    65
 73
     6
 40
2.5
 49
1.0
 49
-0.5
 49
0.0
 49
-0.5
 49
0.0
 49
-0.5
  0
LTYPE
  2
POINTILLE
 70
     0
  3
. . . . . . . . . . . . . . . . . . . . . . . .
 72
    65
 73
     2
 40
0.25
 49
0.0
 49
-0.25
  0
LTYPE
  2
POINTILLE2
 70
     0
  3
...............................................
 72
    65
 73
     2
 40
0.125
 49
0.0
 49
-0.125
  0
LTYPE
  2
POINTILLEX2
 70
     0
  3
.  .  .  .  .  .  .  .  .  .  .  .  .  .  .  . 
 72
    65
 73
     2
 40
0.5
 49
0.0
 49
-0.5
  0
LTYPE
  2
CACHE
 70
     0
  3
__ __ __ __ __ __ __ __ __ __ __ __ __ __ __ __
 72
    65
 73
     2
 40
0.375
 49
0.25
 49
-0.125
  0
LTYPE
  2
CACHE2
 70
     0
  3
_ _ _ _ _ _ _ _ _ _ _ _ _ _ _ _ _ _ _ _ _ _ _ _
 72
    65
 73
     2
 40
0.1875
 49
0.125
 49
-0.0625
  0
LTYPE
  2
CACHEX2
 70
     0
  3
____ ____ ____ ____ ____ ____ ____ ____ ____ __
 72
    65
 73
     2
 40
0.75
 49
0.5
 49
-0.25
  0
LTYPE
  2
FANTOME
 70
     0
  3
______  __  __  ______  __  __  ______  __  __ 
 72
    65
 73
     6
 40
2.5
 49
1.25
 49
-0.25
 49
0.25
 49
-0.25
 49
0.25
 49
-0.25
  0
LTYPE
  2
FANTOME2
 70
     0
  3
___ _ _ ___ _ _ ___ _ _ ___ _ _ ___ _ _ ___ _ _
 72
    65
 73
     6
 40
1.25
 49
0.625
 49
-0.125
 49
0.125
 49
-0.125
 49
0.125
 49
-0.125
  0
LTYPE
  2
FANTOMEX2
 70
     0
  3
____________    ____    ____    ____________   
 72
    65
 73
     6
 40
5.0
 49
2.5
 49
-0.5
 49
0.5
 49
-0.5
 49
0.5
 49
-0.5
  0
LTYPE
  2
0
 70
     0
  3
MEDUSA PEN 0
 72
    65
 73
     0
 40
0.0
  0
ENDTAB
  0
TABLE
  2
LAYER
 70
    17
  0
LAYER
  2
0
 70
     0
 62
     7
  6
CONTINUOUS
  0
LAYER
  2
TEXTE_MOYEN
 70
     0
 62
   131
  6
CONTINUOUS
  0
LAYER
  2
ALPHA
 70
     0
 62
   254
  6
CONTINUOUS
  0
LAYER
  2
COTATION1
 70
     0
 62
    50
  6
CONTINUOUS
  0
LAYER
  2
AXE
 70
     0
 62
    80
  6
AXES2
  0
LAYER
  2
DEFPOINTS
 70
     0
 62
     7
  6
CONTINUOUS
  0
LAYER
  2
HACHURES1
 70
     0
 62
   130
  6
CONTINUOUS
  0
LAYER
  2
FMULT
 70
     0
 62
   210
  6
CONTINUOUS
  0
LAYER
  2
FDP_CARTOUCHE
 70
     0
 62
   136
  6
CONTINUOUS
  0
LAYER
  2
FDP_TEXTES
 70
     0
 62
   171
  6
CONTINUOUS
  0
LAYER
  2
FDP_LOGO_MG
 70
     0
 62
    30
  6
CONTINUOUS
  0
LAYER
  2
FDP_LOGO_SCH
 70
     0
 62
    90
  6
CONTINUOUS
  0
LAYER
  2
FDP_FDP
 70
     0
 62
   170
  6
CONTINUOUS
  0
LAYER
  2
POINTILLE_COURT2
 70
     0
 62
    41
  6
CACHE2
  0
LAYER
  2
POINTILLE_MOYEN2
 70
     0
 62
   141
  6
CACHE
  0
LAYER
  2
POINTILLE_LONG2
 70
     0
 62
   241
  6
CACHEX2
  0
LAYER
  2
ALPHA_FIN
 70
     0
 62
   255
  6
CONTINUOUS
  0
ENDTAB
  0
TABLE
  2
STYLE
 70
     5
  0
STYLE
  2
ROMANS
 70
     0
 40
0.0
 41
1.0
 50
0.0
 71
     0
 42
6.0
  3
romans
  4

  0
STYLE
  2
STANDARD
 70
     0
 40
0.2
 41
1.0
 50
0.0
 71
     0
 42
0.2
  3
txt
  4

  0
STYLE
  2
STD
 70
     0
 40
0.0
 41
1.0
 50
0.0
 71
     0
 42
0.0
  3
txt
  4

  0
STYLE
  2
INFOCAR
 70
     0
 40
0.0
 41
1.34
 50
0.0
 71
     0
 42
2.0
  3
ROMANS.SHX
  4

  0
STYLE
  2
CARTOUCHE
 70
     0
 40
0.0
 41
1.0
 50
0.0
 71
     0
 42
0.2
  3
ROMANS.SHX
  4

  0
ENDTAB
  0
TABLE
  2
VIEW
 70
     0
  0
ENDTAB
  0
TABLE
  2
UCS
 70
     0
  0
ENDTAB
  0
TABLE
  2
APPID
 70
     4
  0
APPID
  2
ACAD
 70
     0
  0
APPID
  2
AVE_RENDER
 70
     0
  0
APPID
  2
AVE_MATERIAL
 70
     0
  0
APPID
  2
CONTENTBLOCKICON
 70
     0
  0
ENDTAB
  0
TABLE
  2
DIMSTYLE
 70
     1
  0
DIMSTYLE
  2
SC_DEFAUT
 70
     0
  3

  4

  5
OPEN30
  6

  7

 40
1.0
 41
2.0
 42
0.3
 43
0.1
 44
0.5
 45
0.0
 46
0.0
 47
0.0
 48
0.0
140
2.0
141
0.0
142
0.0
143
25.4
144
1.0
145
0.0
146
1.0
147
0.6
 71
     0
 72
     0
 73
     0
 74
     0
 75
     0
 76
     0
 77
     1
 78
    12
170
     0
171
     2
172
     0
173
     0
174
     0
175
     0
176
     0
177
     0
178
     0
  0
ENDTAB
  0
ENDSEC
  0
SECTION
  2
BLOCKS
  0
BLOCK
  8
0
  2
$MODEL_SPACE
 70
     0
 10
0.0
 20
0.0
 30
0.0
  3
$MODEL_SPACE
  1

  0
ENDBLK
  5
43BD
  8
0
  0
BLOCK
 67
     1
  8
0
  2
$PAPER_SPACE
 70
     0
 10
0.0
 20
0.0
 30
0.0
  3
$PAPER_SPACE
  1

  0
ENDBLK
  5
43BB
 67
     1
  8
0
  0
BLOCK
  8
0
  2
COTE
 70
     0
 10
0.0
 20
0.0
 30
0.0
  3
COTE
  1

  0
ENDBLK
  5
35
  8
0
  0
BLOCK
  8
0
  2
FOND
 70
     0
 10
0.0
 20
0.0
 30
0.0
  3
FOND
  1

  0
ENDBLK
  5
39
  8
0
  0
BLOCK
  8
0
  2
SCH_ISO
 70
     0
 10
0.0
 20
0.0
 30
0.0
  3
SCH_ISO
  1

  0
ENDBLK
  5
24AD
  8
0
  0
BLOCK
  8
0
  2
_OPEN30
 70
     0
 10
0.0
 20
0.0
 30
0.0
  3
_OPEN30
  1

  0
LINE
  5
27E1
  8
COTATION1
 62
     0
 10
-1.0
 20
0.267949
 30
0.0
 11
0.0
 21
0.0
 31
0.0
1001
ACAD
1000
RTLwPs
1070
   158
  0
LINE
  5
27E2
  8
COTATION1
 62
     0
 10
0.0
 20
0.0
 30
0.0
 11
-1.0
 21
-0.267949
 31
0.0
1001
ACAD
1000
RTLwPs
1070
   158
  0
LINE
  5
27E3
  8
COTATION1
 62
     0
 10
0.0
 20
0.0
 30
0.0
 11
-1.0
 21
0.0
 31
0.0
1001
ACAD
1000
RTLwPs
1070
   158
  0
ENDBLK
  5
27E5
  8
0
  0
BLOCK
  8
0
  2
*D4
 70
     1
 10
0.0
 20
0.0
 30
0.0
  3
*D4
  1

  0
LINE
  5
425B
  8
COTATION1
 62
     0
 10
370.720089
 20
-48.040146
 30
0.0
 11
383.920089
 21
-48.040146
 31
0.0
1001
ACAD
1000
RTLwPs
1070
   158
  0
LINE
  5
425C
  8
COTATION1
 62
     0
 10
370.720089
 20
-78.040146
 30
0.0
 11
383.920089
 21
-78.040146
 31
0.0
1001
ACAD
1000
RTLwPs
1070
   158
  0
LINE
  5
425D
  8
COTATION1
 62
     0
 10
383.420089
 20
-76.040146
 30
0.0
 11
383.420089
 21
-50.040146
 31
0.0
1001
ACAD
1000
RTLwPs
1070
   158
  0
LINE
  5
425E
  8
COTATION1
 62
     0
 10
383.420089
 20
-48.040146
 30
0.0
 11
383.420089
 21
-33.030622
 31
0.0
1001
ACAD
1000
RTLwPs
1070
   158
  0
INSERT
  5
425F
  8
COTATION1
 62
     0
  2
_OPEN30
 10
383.420089
 20
-78.040146
 30
0.0
 41
2.0
 42
2.0
 43
2.0
 50
270.0
1001
ACAD
1000
RTLwPs
1070
   158
  0
INSERT
  5
4260
  8
COTATION1
 62
     0
  2
_OPEN30
 10
383.420089
 20
-48.040146
 30
0.0
 41
2.0
 42
2.0
 43
2.0
 50
90.0
1001
ACAD
1000
RTLwPs
1070
   158
  0
TEXT
  5
4261
  8
COTATION1
 62
     0
 10
382.820089
 20
-45.821098
 30
0.0
 40
2.0
  1
M30x1.5
 50
90.0
1001
ACAD
1000
MTEXTBEGIN
1070
    73
1070
     1
1070
    44
1040
1.0
1070
    74
1070
     0
1000
MTEXTEND
1000
MTEXTBEGIN
1070
    73
1070
     1
1070
    44
1040
1.0
1070
    74
1070
     0
1000
MTEXTEND
  0
POINT
  5
4262
  8
DEFPOINTS
 62
     0
 10
370.420089
 20
-48.040146
 30
0.0
  0
POINT
  5
4263
  8
DEFPOINTS
 62
     0
 10
370.420089
 20
-78.040146
 30
0.0
  0
POINT
  5
4264
  8
DEFPOINTS
 62
     0
 10
383.420089
 20
-78.040146
 30
0.0
  0
ENDBLK
  5
3D5E
  8
0
  0
BLOCK
  8
0
  2
*D5
 70
     1
 10
0.0
 20
0.0
 30
0.0
  3
*D5
  1

  0
LINE
  5
42B7
  8
COTATION1
 62
     0
 10
321.920089
 20
-50.740146
 30
0.0
 11
321.920089
 21
-26.290409
 31
0.0
1001
ACAD
1000
RTLwPs
1070
   158
  0
LINE
  5
42B8
  8
COTATION1
 62
     0
 10
373.420089
 20
-50.740146
 30
0.0
 11
373.420089
 21
-26.290409
 31
0.0
1001
ACAD
1000
RTLwPs
1070
   158
  0
LINE
  5
42B9
  8
COTATION1
 62
     0
 10
323.920089
 20
-26.790409
 30
0.0
 11
371.420089
 21
-26.790409
 31
0.0
1001
ACAD
1000
RTLwPs
1070
   158
  0
INSERT
  5
42BA
  8
COTATION1
 62
     0
  2
_OPEN30
 10
321.920089
 20
-26.790409
 30
0.0
 41
2.0
 42
2.0
 43
2.0
 50
180.0
1001
ACAD
1000
RTLwPs
1070
   158
  0
INSERT
  5
42BB
  8
COTATION1
 62
     0
  2
_OPEN30
 10
373.420089
 20
-26.790409
 30
0.0
 41
2.0
 42
2.0
 43
2.0
1001
ACAD
1000
RTLwPs
1070
   158
  0
TEXT
  5
42BC
  8
COTATION1
 62
     0
 10
344.336756
 20
-26.190409
 30
0.0
 40
2.0
  1
51.5
1001
ACAD
1000
MTEXTBEGIN
1070
    73
1070
     1
1070
    44
1040
1.0
1070
    74
1070
     0
1000
MTEXTEND
  0
POINT
  5
42BD
  8
DEFPOINTS
 62
     0
 10
321.920089
 20
-51.040146
 30
0.0
  0
POINT
  5
42BE
  8
DEFPOINTS
 62
     0
 10
373.420089
 20
-51.040146
 30
0.0
  0
POINT
  5
42BF
  8
DEFPOINTS
 62
     0
 10
373.420089
 20
-26.790409
 30
0.0
  0
ENDBLK
  5
3DD8
  8
0
  0
BLOCK
  8
0
  2
*D6
 70
     1
 10
0.0
 20
0.0
 30
0.0
  3
*D6
  1

  0
LINE
  5
4236
  8
COTATION1
 62
     0
 10
313.420089
 20
-50.740146
 30
0.0
 11
313.420089
 21
-16.290409
 31
0.0
1001
ACAD
1000
RTLwPs
1070
   158
  0
LINE
  5
4237
  8
COTATION1
 62
     0
 10
373.420089
 20
-50.740146
 30
0.0
 11
373.420089
 21
-16.290409
 31
0.0
1001
ACAD
1000
RTLwPs
1070
   158
  0
LINE
  5
4238
  8
COTATION1
 62
     0
 10
315.420089
 20
-16.790409
 30
0.0
 11
371.420089
 21
-16.790409
 31
0.0
1001
ACAD
1000
RTLwPs
1070
   158
  0
INSERT
  5
4239
  8
COTATION1
 62
     0
  2
_OPEN30
 10
313.420089
 20
-16.790409
 30
0.0
 41
2.0
 42
2.0
 43
2.0
 50
180.0
1001
ACAD
1000
RTLwPs
1070
   158
  0
INSERT
  5
423A
  8
COTATION1
 62
     0
  2
_OPEN30
 10
373.420089
 20
-16.790409
 30
0.0
 41
2.0
 42
2.0
 43
2.0
1001
ACAD
1000
RTLwPs
1070
   158
  0
TEXT
  5
423B
  8
COTATION1
 62
     0
 10
341.467708
 20
-16.190409
 30
0.0
 40
2.0
  1
60
1001
ACAD
1000
MTEXTBEGIN
1070
    73
1070
     1
1070
    44
1040
1.0
1070
    74
1070
     0
1000
MTEXTEND
1000
MTEXTBEGIN
1070
    73
1070
     1
1070
    44
1040
1.0
1070
    74
1070
     0
1000
MTEXTEND
  0
POINT
  5
423C
  8
DEFPOINTS
 62
     0
 10
313.420089
 20
-51.040146
 30
0.0
  0
POINT
  5
423D
  8
DEFPOINTS
 62
     0
 10
373.420089
 20
-51.040146
 30
0.0
  0
POINT
  5
423E
  8
DEFPOINTS
 62
     0
 10
373.420089
 20
-16.790409
 30
0.0
  0
ENDBLK
  5
3DE5
  8
0
  0
BLOCK
  8
0
  2
CABLE
 70
     0
 10
0.0
 20
0.0
 30
0.0
  3
CABLE
  1

  0
POLYLINE
  5
429E
  8
ALPHA
 66
     1
 10
0.0
 20
0.0
 30
0.0
 70
   128
210
0.0
220
0.0
230
-1.0
  0
VERTEX
  5
43C3
  8
ALPHA
 10
-5.0
 20
1.7
 30
0.0
  0
VERTEX
  5
43C4
  8
ALPHA
 10
-5.24238
 20
1.290404
 30
0.0
  0
VERTEX
  5
43C5
  8
ALPHA
 10
-5.147654
 20
0.830277
 30
0.0
  0
SEQEND
  5
43C6
  8
ALPHA
  0
POLYLINE
  5
429F
  8
ALPHA
 66
     1
 10
0.0
 20
0.0
 30
0.0
 70
   128
  0
VERTEX
  5
43C7
  8
ALPHA
 10
5.0
 20
1.7
 30
0.0
  0
VERTEX
  5
43C8
  8
ALPHA
 10
4.898014
 20
1.359825
 30
0.0
  0
VERTEX
  5
43C9
  8
ALPHA
 10
4.992591
 20
1.072607
 30
0.0
  0
VERTEX
  5
43CA
  8
ALPHA
 10
5.14701
 20
0.814062
 30
0.0
  0
VERTEX
  5
43CB
  8
ALPHA
 10
5.0
 20
0.5
 30
0.0
  0
SEQEND
  5
43CC
  8
ALPHA
  0
LINE
  5
42A0
  8
ALPHA
 10
0.0
 20
1.7
 30
0.0
 11
5.0
 21
1.7
 31
0.0
  0
LINE
  5
42A1
  8
ALPHA
 10
0.0
 20
0.5
 30
0.0
 11
5.0
 21
0.5
 31
0.0
  0
ENDBLK
  5
42A3
  8
0
  0
ENDSEC
  0
SECTION
  2
ENTITIES
  0
INSERT
  5
32
  8
0
  2
COTE
 10
0.0
 20
0.0
 30
0.0
  0
INSERT
  5
36
  8
0
  2
FOND
 10
0.0
 20
0.0
 30
0.0
  0
INSERT
  5
24AE
  8
ALPHA
  2
SCH_ISO
 10
-66.27012
 20
-238.940658
 30
0.0
  0
LINE
  5
308B
  8
ALPHA
 10
370.420089
 20
-48.040146
 30
0.0
 11
359.170089
 21
-48.040146
 31
0.0
  0
LINE
  5
308C
  8
ALPHA
 10
370.420089
 20
-78.040146
 30
0.0
 11
359.170089
 21
-78.040146
 31
0.0
  0
LINE
  5
309D
  8
ALPHA
 10
324.920089
 20
-48.040146
 30
0.0
 11
324.920089
 21
-78.040146
 31
0.0
  0
LINE
  5
309E
  8
ALPHA
 10
370.420089
 20
-48.040146
 30
0.0
 11
370.420089
 21
-78.040146
 31
0.0
  0
LINE
  5
30F9
  8
ALPHA
 10
321.920089
 20
-51.040146
 30
0.0
 11
321.920089
 21
-75.040146
 31
0.0
  0
LINE
  5
30FA
  8
ALPHA
 10
373.420089
 20
-51.040146
 30
0.0
 11
373.420089
 21
-75.040146
 31
0.0
  0
LINE
  5
30FB
  8
ALPHA_FIN
 10
373.420089
 20
-51.040146
 30
0.0
 11
359.170089
 21
-51.040146
 31
0.0
  0
LINE
  5
30FC
  8
ALPHA_FIN
 10
373.420089
 20
-75.040146
 30
0.0
 11
359.170089
 21
-75.040146
 31
0.0
  0
LINE
  5
30FD
  8
ALPHA
 10
370.420089
 20
-48.040146
 30
0.0
 11
373.420089
 21
-51.040146
 31
0.0
  0
LINE
  5
30FE
  8
ALPHA
 10
373.420089
 20
-75.040146
 30
0.0
 11
370.420089
 21
-78.040146
 31
0.0
  0
LINE
  5
30FF
  8
ALPHA
 10
324.920089
 20
-48.040146
 30
0.0
 11
321.920089
 21
-51.040146
 31
0.0
  0
LINE
  5
3100
  8
ALPHA
 10
321.920089
 20
-75.040146
 30
0.0
 11
324.920089
 21
-78.040146
 31
0.0
  0
LINE
  5
3107
  8
ALPHA
 10
350.836906
 20
-78.040146
 30
0.0
 11
344.836909
 21
-78.040146
 31
0.0
  0
LINE
  5
3108
  8
ALPHA_FIN
 10
350.836906
 20
-75.040146
 30
0.0
 11
344.836909
 21
-75.040146
 31
0.0
  0
LINE
  5
3109
  8
ALPHA_FIN
 10
350.836906
 20
-51.040146
 30
0.0
 11
344.836909
 21
-51.040146
 31
0.0
  0
LINE
  5
310A
  8
ALPHA
 10
350.836906
 20
-48.040146
 30
0.0
 11
344.836909
 21
-48.040146
 31
0.0
  0
LINE
  5
310F
  8
ALPHA
 10
321.920089
 20
-51.040146
 30
0.0
 11
313.420089
 21
-51.040146
 31
0.0
  0
LINE
  5
3110
  8
ALPHA
 10
313.420089
 20
-51.040146
 30
0.0
 11
313.420089
 21
-75.040146
 31
0.0
  0
LINE
  5
3111
  8
ALPHA
 10
321.920089
 20
-75.040146
 30
0.0
 11
313.420089
 21
-75.040146
 31
0.0
  0
LINE
  5
3D2A
  8
AXE
 10
347.67009
 20
-31.790409
 30
0.0
 11
347.670088
 21
-104.289884
 31
0.0
  0
TEXT
  5
3D2B
  8
AXE
 10
342.766938
 20
-104.495408
 30
0.0
 40
5.0
  1
Y
 72
     2
 11
346.814557
 21
-104.495408
 31
0.0
  0
LINE
  5
3D2C
  8
AXE
 10
305.514404
 20
-63.040146
 30
0.0
 11
393.420089
 21
-63.040146
 31
0.0
  0
TEXT
  5
3D2D
  8
AXE
 10
389.37247
 20
-62.040146
 30
0.0
 40
5.0
  1
X
 72
     2
 11
393.420089
 21
-62.040146
 31
0.0
  0
DIMENSION
  5
3D52
  8
COTATION1
  2
*D4
 10
383.420089
 20
-78.040146
 30
0.0
 11
383.420089
 21
-39.535384
 31
0.0
 70
   128
  1
M<>x1.5
 13
370.420089
 23
-48.040146
 33
0.0
 14
370.420089
 24
-78.040146
 34
0.0
 50
90.0
  0
DIMENSION
  5
3DCC
  8
COTATION1
  2
*D5
 10
373.420089
 20
-26.790409
 30
0.0
 11
347.670089
 21
-25.190409
 31
0.0
 13
321.920089
 23
-51.040146
 33
0.0
 14
373.420089
 24
-51.040146
 34
0.0
  0
DIMENSION
  5
3DD9
  8
COTATION1
  2
*D6
 10
373.420089
 20
-16.790409
 30
0.0
 11
343.420089
 21
-15.190409
 31
0.0
 13
313.420089
 23
-51.040146
 33
0.0
 14
373.420089
 24
-51.040146
 34
0.0
  0
ARC
  5
3F7A
  8
ALPHA
 10
390.211212
 20
-63.040146
 30
0.0
 40
39.374302
 50
160.528633
 51
199.471366
  0
LINE
  5
3F7B
  8
ALPHA
 10
350.836906
 20
-82.727449
 30
0.0
 11
350.836906
 21
-43.352843
 31
0.0
  0
ARC
  5
3F7C
  8
ALPHA
 10
319.795783
 20
-63.040146
 30
0.0
 40
39.374302
 50
340.528624
 51
19.471378
  0
LINE
  5
3F7D
  8
ALPHA
 10
359.170089
 20
-43.352843
 30
0.0
 11
359.170089
 21
-82.727449
 31
0.0
  0
LINE
  5
3F7E
  8
ALPHA
 10
353.088794
 20
-89.289884
 30
0.0
 11
356.918201
 21
-89.289884
 31
0.0
  0
LINE
  5
3F7F
  8
ALPHA
 10
353.088794
 20
-76.165015
 30
0.0
 11
356.918201
 21
-76.165015
 31
0.0
  0
ARC
  5
3F80
  8
ALPHA
 10
361.524951
 20
-82.727449
 30
0.0
 40
10.688039
 50
142.120863
 51
217.879136
  0
ARC
  5
3F81
  8
ALPHA
 10
348.482043
 20
-82.727449
 30
0.0
 40
10.688039
 50
322.120854
 51
37.879148
  0
LINE
  5
3F82
  8
ALPHA
 10
353.088794
 20
-36.790409
 30
0.0
 11
356.918201
 21
-36.790409
 31
0.0
  0
LINE
  5
3F83
  8
ALPHA
 10
353.088794
 20
-49.915277
 30
0.0
 11
356.918201
 21
-49.915277
 31
0.0
  0
ARC
  5
3F84
  8
ALPHA
 10
361.524951
 20
-43.352843
 30
0.0
 40
10.688039
 50
142.120863
 51
217.879136
  0
ARC
  5
3F85
  8
ALPHA
 10
348.482043
 20
-43.352843
 30
0.0
 40
10.688039
 50
322.120854
 51
37.879148
  0
ARC
  5
3F87
  8
ALPHA
 10
375.878032
 20
-63.040146
 30
0.0
 40
39.374302
 50
160.528633
 51
199.471366
  0
LINE
  5
3F88
  8
ALPHA
 10
336.503726
 20
-82.727449
 30
0.0
 11
336.503726
 21
-43.352843
 31
0.0
  0
LINE
  5
3F89
  8
ALPHA
 10
344.836909
 20
-43.352843
 30
0.0
 11
344.836909
 21
-82.727449
 31
0.0
  0
ARC
  5
3F8A
  8
ALPHA
 10
305.462604
 20
-63.040146
 30
0.0
 40
39.374302
 50
340.528624
 51
19.471378
  0
LINE
  5
3F8B
  8
ALPHA
 10
338.755615
 20
-89.289884
 30
0.0
 11
342.585021
 21
-89.289884
 31
0.0
  0
LINE
  5
3F8C
  8
ALPHA
 10
338.755615
 20
-76.165015
 30
0.0
 11
342.585021
 21
-76.165015
 31
0.0
  0
ARC
  5
3F8D
  8
ALPHA
 10
347.191772
 20
-82.727449
 30
0.0
 40
10.688039
 50
142.120863
 51
217.879136
  0
ARC
  5
3F8E
  8
ALPHA
 10
334.148864
 20
-82.727449
 30
0.0
 40
10.688039
 50
322.120854
 51
37.879148
  0
LINE
  5
3F8F
  8
ALPHA
 10
338.755615
 20
-36.790409
 30
0.0
 11
342.585021
 21
-36.790409
 31
0.0
  0
LINE
  5
3F90
  8
ALPHA
 10
338.755615
 20
-49.915277
 30
0.0
 11
342.585021
 21
-49.915277
 31
0.0
  0
ARC
  5
3F91
  8
ALPHA
 10
347.191772
 20
-43.352843
 30
0.0
 40
10.688039
 50
142.120863
 51
217.879136
  0
ARC
  5
3F92
  8
ALPHA
 10
334.148864
 20
-43.352843
 30
0.0
 40
10.688039
 50
322.120854
 51
37.879148
  0
LINE
  5
3F94
  8
ALPHA
 10
321.920089
 20
-51.040146
 30
0.0
 11
321.920089
 21
-75.040146
 31
0.0
  0
LINE
  5
3F95
  8
ALPHA
 10
313.420089
 20
-51.040146
 30
0.0
 11
313.420089
 21
-75.040146
 31
0.0
  0
LINE
  5
3F9F
  8
ALPHA_FIN
 10
336.503726
 20
-51.040146
 30
0.0
 11
321.920089
 21
-51.040146
 31
0.0
  0
LINE
  5
3FA0
  8
ALPHA
 10
336.503726
 20
-48.040146
 30
0.0
 11
324.920089
 21
-48.040146
 31
0.0
  0
LINE
  5
3FA1
  8
ALPHA_FIN
 10
336.503726
 20
-75.040146
 30
0.0
 11
321.920089
 21
-75.040146
 31
0.0
  0
LINE
  5
3FA2
  8
ALPHA
 10
336.503726
 20
-78.040146
 30
0.0
 11
324.920089
 21
-78.040146
 31
0.0
  0
INSERT
  5
42AB
  8
ALPHA
  2
CABLE
 10
313.420089
 20
-75.665146
 30
0.0
 41
-3.75
 42
3.75
 43
3.75
  0
ENDSEC
  0
EOF
