  0
SECTION
  2
HEADER
  9
$ACADVER
  1
AC1014
  9
$ACADMAINTVER
 70
     0
  9
$DWGCODEPAGE
  3
ANSI_1252
  9
$INSBASE
 10
93.894301
 20
236.06014
 30
0.0
  9
$EXTMIN
 10
0.121766
 20
0.444123
 30
-0.001526
  9
$EXTMAX
 10
60.13916
 20
87.002655
 30
0.0
  9
$LIMMIN
 10
0.0
 20
0.0
  9
$LIMMAX
 10
210.0
 20
297.0
  9
$ORTHOMODE
 70
     0
  9
$REGENMODE
 70
     1
  9
$FILLMODE
 70
     1
  9
$QTEXTMODE
 70
     0
  9
$MIRRTEXT
 70
     0
  9
$DRAGMODE
 70
     1
  9
$LTSCALE
 40
7.0
  9
$OSMODE
 70
  4095
  9
$ATTMODE
 70
     1
  9
$TEXTSIZE
 40
2.5
  9
$TRACEWID
 40
0.05
  9
$TEXTSTYLE
  7
STANDARD
  9
$CLAYER
  8
COTATION1
  9
$CELTYPE
  6
BYLAYER
  9
$CECOLOR
 62
   256
  9
$CELTSCALE
 40
1.0
  9
$DELOBJ
 70
     1
  9
$DISPSILH
 70
     0
  9
$DIMSCALE
 40
1.0
  9
$DIMASZ
 40
3.0
  9
$DIMEXO
 40
0.0625
  9
$DIMDLI
 40
0.38
  9
$DIMRND
 40
0.01
  9
$DIMDLE
 40
0.0
  9
$DIMEXE
 40
0.18
  9
$DIMTP
 40
0.0
  9
$DIMTM
 40
0.0
  9
$DIMTXT
 40
2.5
  9
$DIMCEN
 40
0.09
  9
$DIMTSZ
 40
0.0
  9
$DIMTOL
 70
     0
  9
$DIMLIM
 70
     0
  9
$DIMTIH
 70
     0
  9
$DIMTOH
 70
     0
  9
$DIMSE1
 70
     0
  9
$DIMSE2
 70
     0
  9
$DIMTAD
 70
     1
  9
$DIMZIN
 70
    12
  9
$DIMBLK
  1

  9
$DIMASO
 70
     1
  9
$DIMSHO
 70
     0
  9
$DIMPOST
  1

  9
$DIMAPOST
  1

  9
$DIMALT
 70
     0
  9
$DIMALTD
 70
     2
  9
$DIMALTF
 40
25.4
  9
$DIMLFAC
 40
1.0
  9
$DIMTOFL
 70
     1
  9
$DIMTVP
 40
0.0
  9
$DIMTIX
 70
     0
  9
$DIMSOXD
 70
     0
  9
$DIMSAH
 70
     0
  9
$DIMBLK1
  1

  9
$DIMBLK2
  1

  9
$DIMSTYLE
  2
SC_STAND
  9
$DIMCLRD
 70
     0
  9
$DIMCLRE
 70
     0
  9
$DIMCLRT
 70
     0
  9
$DIMTFAC
 40
1.0
  9
$DIMGAP
 40
1.0
  9
$DIMJUST
 70
     0
  9
$DIMSD1
 70
     0
  9
$DIMSD2
 70
     0
  9
$DIMTOLJ
 70
     1
  9
$DIMTZIN
 70
    12
  9
$DIMALTZ
 70
    12
  9
$DIMALTTZ
 70
    12
  9
$DIMFIT
 70
     5
  9
$DIMUPT
 70
     0
  9
$DIMUNIT
 70
     2
  9
$DIMDEC
 70
     3
  9
$DIMTDEC
 70
     3
  9
$DIMALTU
 70
     2
  9
$DIMALTTD
 70
     2
  9
$DIMTXSTY
  7
STANDARD
  9
$DIMAUNIT
 70
     0
  9
$LUNITS
 70
     2
  9
$LUPREC
 70
     3
  9
$SKETCHINC
 40
0.1
  9
$FILLETRAD
 40
0.0625
  9
$AUNITS
 70
     0
  9
$AUPREC
 70
     0
  9
$MENU
  1
ACAD
  9
$ELEVATION
 40
0.0
  9
$PELEVATION
 40
0.0
  9
$THICKNESS
 40
0.0
  9
$LIMCHECK
 70
     0
  9
$BLIPMODE
 70
     1
  9
$CHAMFERA
 40
0.0
  9
$CHAMFERB
 40
0.0
  9
$CHAMFERC
 40
0.0
  9
$CHAMFERD
 40
0.0
  9
$SKPOLY
 70
     0
  9
$TDCREATE
 40
2450953.590960648
  9
$TDUPDATE
 40
2453877.886756898
  9
$TDINDWG
 40
0.0036236690
  9
$TDUSRTIMER
 40
0.0036236690
  9
$USRTIMER
 70
     1
  9
$ANGBASE
 50
0.0
  9
$ANGDIR
 70
     0
  9
$PDMODE
 70
     0
  9
$PDSIZE
 40
0.0
  9
$PLINEWID
 40
0.0
  9
$COORDS
 70
     0
  9
$SPLFRAME
 70
     0
  9
$SPLINETYPE
 70
     6
  9
$SPLINESEGS
 70
     8
  9
$ATTDIA
 70
     0
  9
$ATTREQ
 70
     1
  9
$HANDLING
 70
     1
  9
$HANDSEED
  5
1081
  9
$SURFTAB1
 70
     6
  9
$SURFTAB2
 70
     6
  9
$SURFTYPE
 70
     6
  9
$SURFU
 70
     6
  9
$SURFV
 70
     6
  9
$UCSNAME
  2

  9
$UCSORG
 10
0.0
 20
0.0
 30
0.0
  9
$UCSXDIR
 10
1.0
 20
0.0
 30
0.0
  9
$UCSYDIR
 10
0.0
 20
1.0
 30
0.0
  9
$PUCSNAME
  2

  9
$PUCSORG
 10
0.0
 20
0.0
 30
0.0
  9
$PUCSXDIR
 10
1.0
 20
0.0
 30
0.0
  9
$PUCSYDIR
 10
0.0
 20
1.0
 30
0.0
  9
$USERI1
 70
     0
  9
$USERI2
 70
     0
  9
$USERI3
 70
     0
  9
$USERI4
 70
     0
  9
$USERI5
 70
     0
  9
$USERR1
 40
0.0
  9
$USERR2
 40
0.0
  9
$USERR3
 40
0.0
  9
$USERR4
 40
0.0
  9
$USERR5
 40
0.0
  9
$WORLDVIEW
 70
     1
  9
$SHADEDGE
 70
     3
  9
$SHADEDIF
 70
    70
  9
$TILEMODE
 70
     1
  9
$MAXACTVP
 70
    32
  9
$PINSBASE
 10
0.0
 20
0.0
 30
0.0
  9
$PLIMCHECK
 70
     0
  9
$PEXTMIN
 10
-3.174999
 20
-3.175
 30
0.0
  9
$PEXTMAX
 10
203.812116
 20
370.276807
 30
0.0
  9
$PLIMMIN
 10
-3.175
 20
-3.175
  9
$PLIMMAX
 10
203.812115
 20
370.276807
  9
$UNITMODE
 70
     0
  9
$VISRETAIN
 70
     0
  9
$PLINEGEN
 70
     0
  9
$PSLTSCALE
 70
     1
  9
$TREEDEPTH
 70
  3020
  9
$PICKSTYLE
 70
     1
  9
$CMLSTYLE
  2
STANDARD
  9
$CMLJUST
 70
     0
  9
$CMLSCALE
 40
1.0
  9
$PROXYGRAPHICS
 70
     1
  9
$MEASUREMENT
 70
     0
  0
ENDSEC
  0
SECTION
  2
CLASSES
  0
CLASS
  1
DICTIONARYVAR
  2
AcDbDictionaryVar
  3
"AutoCAD"
 90
        0
280
     0
281
     0
  0
CLASS
  1
HATCH
  2
AcDbHatch
  3
"ACAD_SEDONA"
 90
        0
280
     0
281
     1
  0
ENDSEC
  0
SECTION
  2
TABLES
  0
TABLE
  2
VPORT
  5
F4
100
AcDbSymbolTable
 70
     2
  0
VPORT
  5
1080
100
AcDbSymbolTableRecord
100
AcDbViewportTableRecord
  2
*ACTIVE
 70
     0
 10
0.0
 20
0.0
 11
1.0
 21
1.0
 12
30.130463
 22
43.723389
 13
0.0
 23
0.0
 14
1.0
 24
1.0
 15
10.0
 25
10.0
 16
0.0
 26
0.0
 36
1.0
 17
0.0
 27
0.0
 37
0.0
 40
87.574875
 41
1.966667
 42
50.0
 43
0.0
 44
0.0
 50
0.0
 51
0.0
 71
     0
 72
   100
 73
     1
 74
     1
 75
     0
 76
     1
 77
     0
 78
     0
  0
ENDTAB
  0
TABLE
  2
LTYPE
  5
F1
100
AcDbSymbolTable
 70
     5
  0
LTYPE
  5
FD
100
AcDbSymbolTableRecord
100
AcDbLinetypeTableRecord
  2
BYBLOCK
 70
     0
  3

 72
    65
 73
     0
 40
0.0
  0
LTYPE
  5
FE
100
AcDbSymbolTableRecord
100
AcDbLinetypeTableRecord
  2
BYLAYER
 70
     0
  3

 72
    65
 73
     0
 40
0.0
  0
LTYPE
  5
FF
100
AcDbSymbolTableRecord
100
AcDbLinetypeTableRecord
  2
CONTINUOUS
 70
     0
  3
Solid line
 72
    65
 73
     0
 40
0.0
  0
ENDTAB
  0
TABLE
  2
LAYER
  5
EE
100
AcDbSymbolTable
 70
     5
  0
LAYER
  5
FA
100
AcDbSymbolTableRecord
100
AcDbLayerTableRecord
  2
0
 70
     0
 62
     7
  6
CONTINUOUS
  0
LAYER
  5
12C
100
AcDbSymbolTableRecord
100
AcDbLayerTableRecord
  2
ALPHA
 70
     0
 62
   255
  6
CONTINUOUS
  0
LAYER
  5
12F
100
AcDbSymbolTableRecord
100
AcDbLayerTableRecord
  2
COTATION1
 70
     0
 62
     2
  6
CONTINUOUS
  0
LAYER
  5
13B
100
AcDbSymbolTableRecord
100
AcDbLayerTableRecord
  2
ASHADE
 70
     0
 62
     7
  6
CONTINUOUS
  0
LAYER
  5
13E
100
AcDbSymbolTableRecord
100
AcDbLayerTableRecord
  2
DEFPOINTS
 70
     0
 62
     7
  6
CONTINUOUS
  0
ENDTAB
  0
TABLE
  2
STYLE
  5
EF
100
AcDbSymbolTable
 70
     2
  0
STYLE
  5
FB
100
AcDbSymbolTableRecord
100
AcDbTextStyleTableRecord
  2
STANDARD
 70
     0
 40
0.0
 41
1.0
 50
0.0
 71
     0
 42
2.5
  3
txt
  4

  0
ENDTAB
  0
TABLE
  2
VIEW
  5
F2
100
AcDbSymbolTable
 70
     0
  0
ENDTAB
  0
TABLE
  2
UCS
  5
F3
100
AcDbSymbolTable
 70
     0
  0
ENDTAB
  0
TABLE
  2
APPID
  5
F5
100
AcDbSymbolTable
 70
     3
  0
APPID
  5
FC
100
AcDbSymbolTableRecord
100
AcDbRegAppTableRecord
  2
ACAD
 70
     0
  0
APPID
  5
127
100
AcDbSymbolTableRecord
100
AcDbRegAppTableRecord
  2
AVE_RENDER
 70
     0
  0
APPID
  5
128
100
AcDbSymbolTableRecord
100
AcDbRegAppTableRecord
  2
AVE_MATERIAL
 70
     0
  0
ENDTAB
  0
TABLE
  2
DIMSTYLE
  5
F6
100
AcDbSymbolTable
 70
     2
  0
DIMSTYLE
105
129
100
AcDbSymbolTableRecord
100
AcDbDimStyleTableRecord
  2
STANDARD
 70
     0
  3

  4

  5

  6

  7

 40
1.0
 41
0.18
 42
0.0625
 43
0.38
 44
0.18
 45
0.0
 46
0.0
 47
0.0
 48
0.0
140
0.18
141
0.09
142
0.0
143
25.4
144
1.0
145
0.0
146
1.0
147
0.09
 71
     0
 72
     0
 73
     1
 74
     1
 75
     0
 76
     0
 77
     0
 78
     0
170
     0
171
     2
172
     0
173
     0
174
     0
175
     0
176
     0
177
     0
178
     0
270
     2
271
     3
272
     3
273
     2
274
     2
340
FB
275
     0
280
     0
281
     0
282
     0
283
     1
284
    12
285
    12
286
    12
287
     5
288
     0
  0
DIMSTYLE
105
12A
102
{ACAD_REACTORS
330
1079
102
}
100
AcDbSymbolTableRecord
100
AcDbDimStyleTableRecord
  2
SC_STAND
 70
     0
  3

  4

  5

  6

  7

 40
1.0
 41
3.0
 42
0.0625
 43
0.38
 44
0.18
 45
0.01
 46
0.0
 47
0.0
 48
0.0
140
2.5
141
0.09
142
0.0
143
25.4
144
1.0
145
0.0
146
1.0
147
1.0
 71
     0
 72
     0
 73
     0
 74
     0
 75
     0
 76
     0
 77
     1
 78
    12
170
     0
171
     2
172
     1
173
     0
174
     0
175
     0
176
     0
177
     0
178
     0
270
     2
271
     3
272
     3
273
     2
274
     2
340
FB
275
     0
280
     0
281
     0
282
     0
283
     1
284
    12
285
    12
286
    12
287
     5
288
     0
  0
ENDTAB
  0
TABLE
  2
BLOCK_RECORD
  5
ED
100
AcDbSymbolTable
 70
     8
  0
BLOCK_RECORD
  5
103
100
AcDbSymbolTableRecord
100
AcDbBlockTableRecord
  2
*MODEL_SPACE
  0
BLOCK_RECORD
  5
100
100
AcDbSymbolTableRecord
100
AcDbBlockTableRecord
  2
*PAPER_SPACE
  0
BLOCK_RECORD
  5
108
100
AcDbSymbolTableRecord
100
AcDbBlockTableRecord
  2
AVE_RENDER
  0
BLOCK_RECORD
  5
109
100
AcDbSymbolTableRecord
100
AcDbBlockTableRecord
  2
AVE_GLOBAL
  0
BLOCK_RECORD
  5
10A
100
AcDbSymbolTableRecord
100
AcDbBlockTableRecord
  2
SCH_IS
  0
BLOCK_RECORD
  5
106D
100
AcDbSymbolTableRecord
100
AcDbBlockTableRecord
  2
*D7
  0
ENDTAB
  0
ENDSEC
  0
SECTION
  2
BLOCKS
  0
BLOCK
  5
141
100
AcDbEntity
  8
0
100
AcDbBlockBegin
  2
*MODEL_SPACE
 70
     0
 10
0.0
 20
0.0
 30
0.0
  3
*MODEL_SPACE
  1

  0
ENDBLK
  5
142
100
AcDbEntity
  8
0
100
AcDbBlockEnd
  0
BLOCK
  5
13F
100
AcDbEntity
 67
     1
  8
0
100
AcDbBlockBegin
  2
*PAPER_SPACE
 70
     0
 10
0.0
 20
0.0
 30
0.0
  3
*PAPER_SPACE
  1

  0
ENDBLK
  5
140
100
AcDbEntity
 67
     1
  8
0
100
AcDbBlockEnd
  0
BLOCK
  5
8D
100
AcDbEntity
  8
0
100
AcDbBlockBegin
  2
AVE_RENDER
 70
     0
 10
0.0
 20
0.0
 30
0.0
  3
AVE_RENDER
  1
AVE_RENDER
  0
ENDBLK
  5
8E
100
AcDbEntity
  8
0
100
AcDbBlockEnd
  0
BLOCK
  5
90
100
AcDbEntity
  8
0
100
AcDbBlockBegin
  2
AVE_GLOBAL
 70
     0
 10
0.0
 20
0.0
 30
0.0
  3
AVE_GLOBAL
  1
AVE_GLOBAL
  0
ENDBLK
  5
91
100
AcDbEntity
  8
0
100
AcDbBlockEnd
  0
BLOCK
  5
C9
100
AcDbEntity
  8
0
100
AcDbBlockBegin
  2
SCH_IS
 70
     0
 10
0.0
 20
0.0
 30
0.0
  3
SCH_IS
  1

  0
INSERT
  5
C0
100
AcDbEntity
  8
ASHADE
 62
     1
100
AcDbBlockReference
  2
AVE_RENDER
 10
0.0
 20
0.0
 30
0.0
1001
AVE_RENDER
1002
{
1070
     6
1000
Pref
1070
    50
1070
    20
1070
     1
1070
     0
1000

1070
    10
1070
     1
1070
    30
1040
25.4
1070
     1
1040
0.3
1040
0.7
1040
0.0
1040
10.0
1010
-1.0
1020
-1.0
1030
-1.0
1040
0.3
1070
    49
1070
     0
1070
     0
1010
1.0
1020
1.0
1030
1.0
1040
45.0
1070
     1
1070
     0
1000
WCS
1040
0.0
1002
}
  0
INSERT
  5
C1
100
AcDbEntity
  8
ASHADE
 62
     3
100
AcDbBlockReference
  2
AVE_RENDER
 10
0.0
 20
0.0
 30
0.0
1001
AVE_RENDER
1002
{
1070
     0
1000
Full Opt
1070
     0
1070
     1
1070
     1
1070
     1
1070
     0
1070
     0
1070
     0
1070
     1
1070
     1
1040
0.0001
1040
0.0001
1002
}
  0
INSERT
  5
C2
100
AcDbEntity
  8
ASHADE
 62
     4
100
AcDbBlockReference
  2
AVE_RENDER
 10
0.0
 20
0.0
 30
0.0
1001
AVE_RENDER
1002
{
1070
     0
1000
Quick Opt
1070
     0
1070
     1
1070
     1
1070
     1
1070
     0
1070
     0
1070
     1
1002
}
  0
INSERT
  5
C3
100
AcDbEntity
  8
ASHADE
 62
     5
100
AcDbBlockReference
  2
AVE_RENDER
 10
0.0
 20
0.0
 30
0.0
1001
AVE_RENDER
1002
{
1070
     1
1000
Scanl Opt
1070
     2
1070
     0
1070
     2
1040
2.0
1040
4.0
1070
     0
1070
     1
1070
     0
1040
0.03
1002
}
  0
INSERT
  5
C4
100
AcDbEntity
  8
ASHADE
 62
     6
100
AcDbBlockReference
  2
AVE_RENDER
 10
0.0
 20
0.0
 30
0.0
1001
AVE_RENDER
1002
{
1070
     2
1000
Raytr Opt
1070
     2
1070
     0
1070
     2
1040
2.0
1040
4.0
1070
     0
1070
     1
1070
     1
1040
0.03
1070
     3
1040
0.03
1002
}
  0
INSERT
  5
C5
100
AcDbEntity
  8
ASHADE
 62
     7
100
AcDbBlockReference
  2
AVE_RENDER
 10
0.0
 20
0.0
 30
0.0
1001
AVE_RENDER
1002
{
1070
     0
1000
RFile Opt
1070
     5
1070
   640
1070
   480
1070
 10000
1070
     3
1070
    32
1070
    24
1070
     0
1070
     0
1070
     0
1070
     1
1070
     0
1070
     0
1070
     0
1002
}
  0
INSERT
  5
C6
100
AcDbEntity
  8
ASHADE
 62
     8
100
AcDbBlockReference
  2
AVE_RENDER
 10
0.0
 20
0.0
 30
0.0
1001
AVE_RENDER
1002
{
1070
     0
1000
Fog Opt
1070
     0
1070
     0
1040
0.0
1040
1.0
1040
0.0
1040
1.0
1010
0.5
1020
0.5
1030
0.5
1002
}
  0
INSERT
  5
C7
100
AcDbEntity
  8
ASHADE
 62
     9
100
AcDbBlockReference
  2
AVE_RENDER
 10
0.0
 20
0.0
 30
0.0
1001
AVE_RENDER
1002
{
1070
     0
1000
BG Opt
1070
     0
1070
     1
1010
0.0
1020
0.0
1030
0.0
1010
1.0
1020
0.0
1030
0.0
1010
0.0
1020
1.0
1030
0.0
1010
0.0
1020
0.0
1030
1.0
1040
0.5
1040
0.33
1040
0.0
1000

1070
     1
1000

1070
     1
1070
     1
1040
1.0
1040
1.0
1040
0.0
1040
0.0
1070
     0
1002
}
  0
INSERT
  5
C8
100
AcDbEntity
  8
ASHADE
 62
     1
100
AcDbBlockReference
  2
AVE_GLOBAL
 10
0.0
 20
0.0
 30
0.0
1001
AVE_MATERIAL
1002
{
1000
*GLOBAL*
1000
1
1000
Finition globale.
1002
{
1002
}
1002
{
1070
    63
1002
{
1002
{
1010
-1.0
1020
-1.0
1030
-1.0
1002
}
1040
0.1
1000

1040
0.0
1002
{
1002
}
1040
0.0
1002
{
1002
}
1040
0.0
1002
}
1002
{
1002
{
1010
-1.0
1020
-1.0
1030
-1.0
1002
}
1040
0.7
1000

1040
0.0
1002
{
1002
}
1040
0.0
1002
{
1002
}
1040
0.0
1002
}
1002
{
1002
{
1010
-1.0
1020
-1.0
1030
-1.0
1002
}
1040
0.2
1000

1040
0.0
1002
{
1002
}
1040
0.0
1002
{
1002
}
1040
0.0
1002
}
1002
{
1070
     0
1002
{
1070
     1
1002
{
1040
1.0
1040
1.0
1000

1040
0.0
1002
{
1002
}
1040
0.0
1002
{
1002
}
1040
0.0
1002
}
1002
}
1040
1.0
1040
0.0
1040
0.0
1002
}
1002
{
1040
1.0
1040
1.0
1000

1040
0.0
1002
{
1002
}
1040
0.0
1002
{
1002
}
1040
0.0
1002
}
1002
{
1040
0.5
1040
1.0
1000

1040
0.0
1002
{
1002
}
1040
0.0
1002
{
1002
}
1040
0.0
1002
}
1002
{
1070
     0
1040
0.0
1002
{
1002
}
1040
1.0
1002
{
1002
}
1040
0.0
1002
}
1002
{
1040
0.0
1002
{
1002
{
1010
0.0
1020
0.0
1030
0.0
1002
}
1040
1.0
1000

1040
0.0
1002
{
1002
}
1040
0.0
1002
{
1002
}
1040
0.0
1002
}
1002
}
1002
{
1002
{
1070
     1
1002
{
1040
0.0
1040
1.0
1000

1040
0.0
1002
{
1002
}
1040
0.0
1002
{
1002
}
1040
0.0
1002
}
1002
}
1040
0.0
1002
{
1002
}
1010
1.0
1020
0.0
1030
0.0
1010
0.0
1020
1.0
1030
0.0
1010
0.0
1020
0.0
1030
1.0
1070
     0
1002
}
1002
{
1002
{
1040
1.0
1040
1.0
1002
{
1070
     1
1002
{
1040
1.0
1040
1.0
1000

1040
0.0
1002
{
1002
}
1040
0.0
1002
{
1002
}
1040
0.0
1002
}
1002
}
1002
}
1070
     0
1040
0.0
1002
{
1002
}
1002
}
1002
{
1002
}
1002
}
1002
{
1071
        3
1070
     3
1070
     0
1002
{
1070
     2
1070
     0
1070
     0
1040
0.0
1002
}
1070
     0
1070
     2
1002
{
1002
}
1002
}
1002
{
1040
8030.0
1040
190.300003
1040
0.305
1040
228.0
1040
545.0
1040
14.0
1040
17.4
1040
0.456
1002
}
1002
}
  0
ENDBLK
  5
CA
100
AcDbEntity
  8
0
100
AcDbBlockEnd
  0
BLOCK
  5
106E
100
AcDbEntity
  8
0
100
AcDbBlockBegin
  2
*D7
 70
     1
 10
0.0
 20
0.0
 30
0.0
  3
*D7
  1

  0
LINE
  5
106F
100
AcDbEntity
  8
0
  6
BYBLOCK
 62
     0
100
AcDbLine
 10
0.136489
 20
64.963311
 30
0.0
 11
0.136489
 21
83.677871
 31
0.0
  0
LINE
  5
1070
100
AcDbEntity
  8
0
  6
BYBLOCK
 62
     0
100
AcDbLine
 10
60.136445
 20
72.515649
 30
0.0
 11
60.136445
 21
83.677871
 31
0.0
  0
LINE
  5
1071
100
AcDbEntity
  8
0
  6
BYBLOCK
 62
     0
100
AcDbLine
 10
3.136489
 20
83.497871
 30
0.0
 11
57.136445
 21
83.497871
 31
0.0
  0
SOLID
  5
1072
100
AcDbEntity
  8
0
  6
BYBLOCK
 62
     0
100
AcDbTrace
 10
3.136489
 20
83.997871
 30
0.0
 11
3.136489
 21
82.997871
 31
0.0
 12
0.136489
 22
83.497871
 32
0.0
 13
0.136489
 23
83.497871
 33
0.0
  0
SOLID
  5
1073
100
AcDbEntity
  8
0
  6
BYBLOCK
 62
     0
100
AcDbTrace
 10
57.136445
 20
83.997871
 30
0.0
 11
57.136445
 21
82.997871
 31
0.0
 12
60.136445
 22
83.497871
 32
0.0
 13
60.136445
 23
83.497871
 33
0.0
  0
MTEXT
  5
1074
100
AcDbEntity
  8
0
  6
BYBLOCK
 62
     0
100
AcDbMText
 10
30.136467
 20
85.747871
 30
0.0
 40
2.5
 41
0.0
 71
     5
 72
     1
  1
\A1;60
  0
POINT
  5
1075
100
AcDbEntity
  8
DEFPOINTS
  6
BYBLOCK
 62
     0
100
AcDbPoint
 10
0.136489
 20
64.900811
 30
0.0
  0
POINT
  5
1076
100
AcDbEntity
  8
DEFPOINTS
  6
BYBLOCK
 62
     0
100
AcDbPoint
 10
60.136445
 20
72.453149
 30
0.0
  0
POINT
  5
1077
100
AcDbEntity
  8
DEFPOINTS
  6
BYBLOCK
 62
     0
100
AcDbPoint
 10
60.136445
 20
83.497871
 30
0.0
  0
ENDBLK
  5
1078
100
AcDbEntity
  8
0
100
AcDbBlockEnd
  0
ENDSEC
  0
SECTION
  2
ENTITIES
  0
INSERT
  5
CC
100
AcDbEntity
  8
0
100
AcDbBlockReference
  2
SCH_IS
 10
-68.718396
 20
-140.042541
 30
0.0
  0
INSERT
  5
EC
100
AcDbEntity
  8
COTATION1
100
AcDbBlockReference
  2
SCH_IS
 10
0.0
 20
0.0
 30
0.0
  0
POLYLINE
  5
E9C
100
AcDbEntity
  8
ALPHA
 62
   255
100
AcDb2dPolyline
 66
     1
 10
0.0
 20
0.0
 30
0.0
  0
VERTEX
  5
E9D
100
AcDbEntity
  8
ALPHA
 62
   255
100
AcDbVertex
100
AcDb2dVertex
 10
5.102078
 20
15.401679
 30
0.0
  0
VERTEX
  5
E9E
100
AcDbEntity
  8
ALPHA
 62
   255
100
AcDbVertex
100
AcDb2dVertex
 10
56.46604
 20
15.401679
 30
0.0
  0
SEQEND
  5
E9F
100
AcDbEntity
  8
ALPHA
  0
POLYLINE
  5
EA0
100
AcDbEntity
  8
ALPHA
 62
   255
100
AcDb2dPolyline
 66
     1
 10
0.0
 20
0.0
 30
0.0
  0
VERTEX
  5
EA1
100
AcDbEntity
  8
ALPHA
 62
   255
100
AcDbVertex
100
AcDb2dVertex
 10
17.907498
 20
1.638867
 30
0.0
  0
VERTEX
  5
EA2
100
AcDbEntity
  8
ALPHA
 62
   255
100
AcDbVertex
100
AcDb2dVertex
 10
46.918475
 20
1.638867
 30
0.0
  0
SEQEND
  5
EA3
100
AcDbEntity
  8
ALPHA
  0
POLYLINE
  5
EA4
100
AcDbEntity
  8
ALPHA
 62
   255
100
AcDb2dPolyline
 66
     1
 10
0.0
 20
0.0
 30
0.0
  0
VERTEX
  5
EA5
100
AcDbEntity
  8
ALPHA
 62
   255
100
AcDbVertex
100
AcDb2dVertex
 10
17.907498
 20
73.291513
 30
0.0
  0
VERTEX
  5
EA6
100
AcDbEntity
  8
ALPHA
 62
   255
100
AcDbVertex
100
AcDb2dVertex
 10
46.918475
 20
73.291513
 30
0.0
  0
SEQEND
  5
EA7
100
AcDbEntity
  8
ALPHA
  0
POLYLINE
  5
EA8
100
AcDbEntity
  8
ALPHA
 62
   255
100
AcDb2dPolyline
 66
     1
 10
0.0
 20
0.0
 30
0.0
  0
VERTEX
  5
EA9
100
AcDbEntity
  8
ALPHA
 62
   255
100
AcDbVertex
100
AcDb2dVertex
 10
60.136445
 20
59.833075
 30
0.0
  0
VERTEX
  5
EAA
100
AcDbEntity
  8
ALPHA
 62
   255
100
AcDbVertex
100
AcDb2dVertex
 10
5.102078
 20
59.833075
 30
0.0
  0
SEQEND
  5
EAB
100
AcDbEntity
  8
ALPHA
  0
POLYLINE
  5
EAC
100
AcDbEntity
  8
ALPHA
 62
   255
100
AcDb2dPolyline
 66
     1
 10
0.0
 20
0.0
 30
0.0
  0
VERTEX
  5
EAD
100
AcDbEntity
  8
ALPHA
 62
   255
100
AcDbVertex
100
AcDb2dVertex
 10
5.136357
 20
10.419726
 30
0.0
  0
VERTEX
  5
EAE
100
AcDbEntity
  8
ALPHA
 62
   255
100
AcDbVertex
100
AcDb2dVertex
 10
5.136357
 20
64.900811
 30
0.0
  0
SEQEND
  5
EAF
100
AcDbEntity
  8
ALPHA
  0
POLYLINE
  5
EB0
100
AcDbEntity
  8
ALPHA
 62
   255
100
AcDb2dPolyline
 66
     1
 10
0.0
 20
0.0
 30
0.0
  0
VERTEX
  5
EB1
100
AcDbEntity
  8
ALPHA
 62
   255
100
AcDbVertex
100
AcDb2dVertex
 10
0.136489
 20
64.900811
 30
0.0
  0
VERTEX
  5
EB2
100
AcDbEntity
  8
ALPHA
 62
   255
100
AcDbVertex
100
AcDb2dVertex
 10
0.136489
 20
9.903651
 30
0.0
  0
SEQEND
  5
EB3
100
AcDbEntity
  8
ALPHA
  0
POLYLINE
  5
EB4
100
AcDbEntity
  8
ALPHA
 62
   255
100
AcDb2dPolyline
 66
     1
 10
0.0
 20
0.0
 30
0.0
  0
VERTEX
  5
EB5
100
AcDbEntity
  8
ALPHA
 62
   255
100
AcDbVertex
100
AcDb2dVertex
 10
0.136489
 20
9.903651
 30
0.0
  0
VERTEX
  5
EB6
100
AcDbEntity
  8
ALPHA
 62
   255
100
AcDbVertex
100
AcDb2dVertex
 10
5.136357
 20
9.903651
 30
0.0
  0
SEQEND
  5
EB7
100
AcDbEntity
  8
ALPHA
  0
POLYLINE
  5
EB8
100
AcDbEntity
  8
ALPHA
 62
   255
100
AcDb2dPolyline
 66
     1
 10
0.0
 20
0.0
 30
0.0
  0
VERTEX
  5
EB9
100
AcDbEntity
  8
ALPHA
 62
   255
100
AcDbVertex
100
AcDb2dVertex
 10
16.907559
 20
15.401679
 30
0.0
  0
VERTEX
  5
EBA
100
AcDbEntity
  8
ALPHA
 62
   255
100
AcDbVertex
100
AcDb2dVertex
 10
16.907559
 20
2.638633
 30
0.0
  0
SEQEND
  5
EBB
100
AcDbEntity
  8
ALPHA
  0
POLYLINE
  5
EBC
100
AcDbEntity
  8
ALPHA
 62
   255
100
AcDb2dPolyline
 66
     1
 10
0.0
 20
0.0
 30
0.0
  0
VERTEX
  5
EBD
100
AcDbEntity
  8
ALPHA
 62
   255
100
AcDbVertex
100
AcDb2dVertex
 10
16.907559
 20
2.638633
 30
0.0
  0
VERTEX
  5
EBE
100
AcDbEntity
  8
ALPHA
 62
   255
100
AcDbVertex
100
AcDb2dVertex
 10
16.912721
 20
2.536398
 30
0.0
  0
VERTEX
  5
EBF
100
AcDbEntity
  8
ALPHA
 62
   255
100
AcDbVertex
100
AcDb2dVertex
 10
16.927874
 20
2.437119
 30
0.0
  0
VERTEX
  5
EC0
100
AcDbEntity
  8
ALPHA
 62
   255
100
AcDbVertex
100
AcDb2dVertex
 10
16.952514
 20
2.341299
 30
0.0
  0
VERTEX
  5
EC1
100
AcDbEntity
  8
ALPHA
 62
   255
100
AcDbVertex
100
AcDb2dVertex
 10
16.986139
 20
2.24944
 30
0.0
  0
VERTEX
  5
EC2
100
AcDbEntity
  8
ALPHA
 62
   255
100
AcDbVertex
100
AcDb2dVertex
 10
17.028246
 20
2.162044
 30
0.0
  0
VERTEX
  5
EC3
100
AcDbEntity
  8
ALPHA
 62
   255
100
AcDbVertex
100
AcDb2dVertex
 10
17.078333
 20
2.079613
 30
0.0
  0
VERTEX
  5
EC4
100
AcDbEntity
  8
ALPHA
 62
   255
100
AcDbVertex
100
AcDb2dVertex
 10
17.135897
 20
2.00265
 30
0.0
  0
VERTEX
  5
EC5
100
AcDbEntity
  8
ALPHA
 62
   255
100
AcDbVertex
100
AcDb2dVertex
 10
17.200435
 20
1.931657
 30
0.0
  0
VERTEX
  5
EC6
100
AcDbEntity
  8
ALPHA
 62
   255
100
AcDbVertex
100
AcDb2dVertex
 10
17.271445
 20
1.867135
 30
0.0
  0
VERTEX
  5
EC7
100
AcDbEntity
  8
ALPHA
 62
   255
100
AcDbVertex
100
AcDb2dVertex
 10
17.348423
 20
1.809587
 30
0.0
  0
VERTEX
  5
EC8
100
AcDbEntity
  8
ALPHA
 62
   255
100
AcDbVertex
100
AcDb2dVertex
 10
17.430868
 20
1.759514
 30
0.0
  0
VERTEX
  5
EC9
100
AcDbEntity
  8
ALPHA
 62
   255
100
AcDbVertex
100
AcDb2dVertex
 10
17.518277
 20
1.71742
 30
0.0
  0
VERTEX
  5
ECA
100
AcDbEntity
  8
ALPHA
 62
   255
100
AcDbVertex
100
AcDb2dVertex
 10
17.610147
 20
1.683806
 30
0.0
  0
VERTEX
  5
ECB
100
AcDbEntity
  8
ALPHA
 62
   255
100
AcDbVertex
100
AcDb2dVertex
 10
17.705976
 20
1.659175
 30
0.0
  0
VERTEX
  5
ECC
100
AcDbEntity
  8
ALPHA
 62
   255
100
AcDbVertex
100
AcDb2dVertex
 10
17.80526
 20
1.644027
 30
0.0
  0
VERTEX
  5
ECD
100
AcDbEntity
  8
ALPHA
 62
   255
100
AcDbVertex
100
AcDb2dVertex
 10
17.907498
 20
1.638867
 30
0.0
  0
SEQEND
  5
ECE
100
AcDbEntity
  8
ALPHA
  0
POLYLINE
  5
ECF
100
AcDbEntity
  8
ALPHA
 62
   255
100
AcDb2dPolyline
 66
     1
 10
0.0
 20
0.0
 30
0.0
  0
VERTEX
  5
ED0
100
AcDbEntity
  8
ALPHA
 62
   255
100
AcDbVertex
100
AcDb2dVertex
 10
5.136357
 20
9.903651
 30
0.0
  0
VERTEX
  5
ED1
100
AcDbEntity
  8
ALPHA
 62
   255
100
AcDbVertex
100
AcDb2dVertex
 10
5.136357
 20
10.419726
 30
0.0
  0
SEQEND
  5
ED2
100
AcDbEntity
  8
ALPHA
  0
POLYLINE
  5
ED3
100
AcDbEntity
  8
ALPHA
 62
   255
100
AcDb2dPolyline
 66
     1
 10
0.0
 20
0.0
 30
0.0
  0
VERTEX
  5
ED4
100
AcDbEntity
  8
ALPHA
 62
   255
100
AcDbVertex
100
AcDb2dVertex
 10
0.136489
 20
37.465104
 30
0.0
  0
VERTEX
  5
ED5
100
AcDbEntity
  8
ALPHA
 62
   255
100
AcDbVertex
100
AcDb2dVertex
 10
5.136357
 20
37.465104
 30
0.0
  0
SEQEND
  5
ED6
100
AcDbEntity
  8
ALPHA
  0
POLYLINE
  5
ED7
100
AcDbEntity
  8
ALPHA
 62
   255
100
AcDb2dPolyline
 66
     1
 10
0.0
 20
0.0
 30
0.0
  0
VERTEX
  5
ED8
100
AcDbEntity
  8
ALPHA
 62
   255
100
AcDbVertex
100
AcDb2dVertex
 10
16.907559
 20
59.833075
 30
0.0
  0
VERTEX
  5
ED9
100
AcDbEntity
  8
ALPHA
 62
   255
100
AcDbVertex
100
AcDb2dVertex
 10
16.907559
 20
72.291574
 30
0.0
  0
SEQEND
  5
EDA
100
AcDbEntity
  8
ALPHA
  0
POLYLINE
  5
EDB
100
AcDbEntity
  8
ALPHA
 62
   255
100
AcDb2dPolyline
 66
     1
 10
0.0
 20
0.0
 30
0.0
  0
VERTEX
  5
EDC
100
AcDbEntity
  8
ALPHA
 62
   255
100
AcDbVertex
100
AcDb2dVertex
 10
5.136357
 20
64.900811
 30
0.0
  0
VERTEX
  5
EDD
100
AcDbEntity
  8
ALPHA
 62
   255
100
AcDbVertex
100
AcDb2dVertex
 10
0.136489
 20
64.900811
 30
0.0
  0
SEQEND
  5
EDE
100
AcDbEntity
  8
ALPHA
  0
POLYLINE
  5
EDF
100
AcDbEntity
  8
ALPHA
 62
   255
100
AcDb2dPolyline
 66
     1
 10
0.0
 20
0.0
 30
0.0
  0
VERTEX
  5
EE0
100
AcDbEntity
  8
ALPHA
 62
   255
100
AcDbVertex
100
AcDb2dVertex
 10
16.907559
 20
72.291574
 30
0.0
  0
VERTEX
  5
EE1
100
AcDbEntity
  8
ALPHA
 62
   255
100
AcDbVertex
100
AcDb2dVertex
 10
16.912721
 20
72.393811
 30
0.0
  0
VERTEX
  5
EE2
100
AcDbEntity
  8
ALPHA
 62
   255
100
AcDbVertex
100
AcDb2dVertex
 10
16.927874
 20
72.493096
 30
0.0
  0
VERTEX
  5
EE3
100
AcDbEntity
  8
ALPHA
 62
   255
100
AcDbVertex
100
AcDb2dVertex
 10
16.952514
 20
72.588924
 30
0.0
  0
VERTEX
  5
EE4
100
AcDbEntity
  8
ALPHA
 62
   255
100
AcDbVertex
100
AcDb2dVertex
 10
16.986139
 20
72.680794
 30
0.0
  0
VERTEX
  5
EE5
100
AcDbEntity
  8
ALPHA
 62
   255
100
AcDbVertex
100
AcDb2dVertex
 10
17.028246
 20
72.768203
 30
0.0
  0
VERTEX
  5
EE6
100
AcDbEntity
  8
ALPHA
 62
   255
100
AcDbVertex
100
AcDb2dVertex
 10
17.078333
 20
72.850648
 30
0.0
  0
VERTEX
  5
EE7
100
AcDbEntity
  8
ALPHA
 62
   255
100
AcDbVertex
100
AcDb2dVertex
 10
17.135897
 20
72.927627
 30
0.0
  0
VERTEX
  5
EE8
100
AcDbEntity
  8
ALPHA
 62
   255
100
AcDbVertex
100
AcDb2dVertex
 10
17.200435
 20
72.998637
 30
0.0
  0
VERTEX
  5
EE9
100
AcDbEntity
  8
ALPHA
 62
   255
100
AcDbVertex
100
AcDb2dVertex
 10
17.271445
 20
73.063175
 30
0.0
  0
VERTEX
  5
EEA
100
AcDbEntity
  8
ALPHA
 62
   255
100
AcDbVertex
100
AcDb2dVertex
 10
17.348423
 20
73.120738
 30
0.0
  0
VERTEX
  5
EEB
100
AcDbEntity
  8
ALPHA
 62
   255
100
AcDbVertex
100
AcDb2dVertex
 10
17.430868
 20
73.170825
 30
0.0
  0
VERTEX
  5
EEC
100
AcDbEntity
  8
ALPHA
 62
   255
100
AcDbVertex
100
AcDb2dVertex
 10
17.518277
 20
73.212932
 30
0.0
  0
VERTEX
  5
EED
100
AcDbEntity
  8
ALPHA
 62
   255
100
AcDbVertex
100
AcDb2dVertex
 10
17.610147
 20
73.246557
 30
0.0
  0
VERTEX
  5
EEE
100
AcDbEntity
  8
ALPHA
 62
   255
100
AcDbVertex
100
AcDb2dVertex
 10
17.705976
 20
73.271198
 30
0.0
  0
VERTEX
  5
EEF
100
AcDbEntity
  8
ALPHA
 62
   255
100
AcDbVertex
100
AcDb2dVertex
 10
17.80526
 20
73.28635
 30
0.0
  0
VERTEX
  5
EF0
100
AcDbEntity
  8
ALPHA
 62
   255
100
AcDbVertex
100
AcDb2dVertex
 10
17.907498
 20
73.291513
 30
0.0
  0
SEQEND
  5
EF1
100
AcDbEntity
  8
ALPHA
  0
POLYLINE
  5
EF2
100
AcDbEntity
  8
ALPHA
 62
   255
100
AcDb2dPolyline
 66
     1
 10
0.0
 20
0.0
 30
0.0
  0
VERTEX
  5
EF3
100
AcDbEntity
  8
ALPHA
 62
   255
100
AcDbVertex
100
AcDb2dVertex
 10
28.555082
 20
44.181662
 30
0.0
  0
VERTEX
  5
EF4
100
AcDbEntity
  8
ALPHA
 62
   255
100
AcDbVertex
100
AcDb2dVertex
 10
28.555082
 20
46.165003
 30
0.0
  0
SEQEND
  5
EF5
100
AcDbEntity
  8
ALPHA
  0
POLYLINE
  5
EF6
100
AcDbEntity
  8
ALPHA
 62
   255
100
AcDb2dPolyline
 66
     1
 10
0.0
 20
0.0
 30
0.0
  0
VERTEX
  5
EF7
100
AcDbEntity
  8
ALPHA
 62
   255
100
AcDbVertex
100
AcDb2dVertex
 10
23.598623
 20
46.165003
 30
0.0
  0
VERTEX
  5
EF8
100
AcDbEntity
  8
ALPHA
 62
   255
100
AcDbVertex
100
AcDb2dVertex
 10
23.598623
 20
44.181662
 30
0.0
  0
SEQEND
  5
EF9
100
AcDbEntity
  8
ALPHA
  0
POLYLINE
  5
EFA
100
AcDbEntity
  8
ALPHA
 62
   255
100
AcDb2dPolyline
 66
     1
 10
0.0
 20
0.0
 30
0.0
  0
VERTEX
  5
EFB
100
AcDbEntity
  8
ALPHA
 62
   255
100
AcDbVertex
100
AcDb2dVertex
 10
54.171606
 20
20.309906
 30
0.0
  0
VERTEX
  5
EFC
100
AcDbEntity
  8
ALPHA
 62
   255
100
AcDbVertex
100
AcDb2dVertex
 10
54.171606
 20
56.332169
 30
0.0
  0
SEQEND
  5
EFD
100
AcDbEntity
  8
ALPHA
  0
POLYLINE
  5
EFE
100
AcDbEntity
  8
ALPHA
 62
   255
100
AcDb2dPolyline
 66
     1
 10
0.0
 20
0.0
 30
0.0
  0
VERTEX
  5
EFF
100
AcDbEntity
  8
ALPHA
 62
   255
100
AcDbVertex
100
AcDb2dVertex
 10
42.468617
 20
0.465123
 30
0.0
  0
VERTEX
  5
F00
100
AcDbEntity
  8
ALPHA
 62
   255
100
AcDbVertex
100
AcDb2dVertex
 10
29.388623
 20
0.465123
 30
0.0
  0
SEQEND
  5
F01
100
AcDbEntity
  8
ALPHA
  0
POLYLINE
  5
F02
100
AcDbEntity
  8
ALPHA
 62
   255
100
AcDb2dPolyline
 66
     1
 10
0.0
 20
0.0
 30
0.0
  0
VERTEX
  5
F03
100
AcDbEntity
  8
ALPHA
 62
   255
100
AcDbVertex
100
AcDb2dVertex
 10
29.388623
 20
0.465123
 30
0.0
  0
VERTEX
  5
F04
100
AcDbEntity
  8
ALPHA
 62
   255
100
AcDbVertex
100
AcDb2dVertex
 10
29.388623
 20
1.638867
 30
0.0
  0
SEQEND
  5
F05
100
AcDbEntity
  8
ALPHA
  0
POLYLINE
  5
F06
100
AcDbEntity
  8
ALPHA
 62
   255
100
AcDb2dPolyline
 66
     1
 10
0.0
 20
0.0
 30
0.0
  0
VERTEX
  5
F07
100
AcDbEntity
  8
ALPHA
 62
   255
100
AcDbVertex
100
AcDb2dVertex
 10
47.918414
 20
2.638633
 30
0.0
  0
VERTEX
  5
F08
100
AcDbEntity
  8
ALPHA
 62
   255
100
AcDbVertex
100
AcDb2dVertex
 10
47.918414
 20
15.401679
 30
0.0
  0
SEQEND
  5
F09
100
AcDbEntity
  8
ALPHA
  0
POLYLINE
  5
F0A
100
AcDbEntity
  8
ALPHA
 62
   255
100
AcDb2dPolyline
 66
     1
 10
0.0
 20
0.0
 30
0.0
  0
VERTEX
  5
F0B
100
AcDbEntity
  8
ALPHA
 62
   255
100
AcDbVertex
100
AcDb2dVertex
 10
42.468617
 20
1.638867
 30
0.0
  0
VERTEX
  5
F0C
100
AcDbEntity
  8
ALPHA
 62
   255
100
AcDbVertex
100
AcDb2dVertex
 10
42.468617
 20
0.465123
 30
0.0
  0
SEQEND
  5
F0D
100
AcDbEntity
  8
ALPHA
  0
POLYLINE
  5
F0E
100
AcDbEntity
  8
ALPHA
 62
   255
100
AcDb2dPolyline
 66
     1
 10
0.0
 20
0.0
 30
0.0
  0
VERTEX
  5
F0F
100
AcDbEntity
  8
ALPHA
 62
   255
100
AcDbVertex
100
AcDb2dVertex
 10
46.918475
 20
1.638867
 30
0.0
  0
VERTEX
  5
F10
100
AcDbEntity
  8
ALPHA
 62
   255
100
AcDbVertex
100
AcDb2dVertex
 10
47.020712
 20
1.644027
 30
0.0
  0
VERTEX
  5
F11
100
AcDbEntity
  8
ALPHA
 62
   255
100
AcDbVertex
100
AcDb2dVertex
 10
47.119997
 20
1.659175
 30
0.0
  0
VERTEX
  5
F12
100
AcDbEntity
  8
ALPHA
 62
   255
100
AcDbVertex
100
AcDb2dVertex
 10
47.215825
 20
1.683806
 30
0.0
  0
VERTEX
  5
F13
100
AcDbEntity
  8
ALPHA
 62
   255
100
AcDbVertex
100
AcDb2dVertex
 10
47.307695
 20
1.71742
 30
0.0
  0
VERTEX
  5
F14
100
AcDbEntity
  8
ALPHA
 62
   255
100
AcDbVertex
100
AcDb2dVertex
 10
47.395104
 20
1.759514
 30
0.0
  0
VERTEX
  5
F15
100
AcDbEntity
  8
ALPHA
 62
   255
100
AcDbVertex
100
AcDb2dVertex
 10
47.477549
 20
1.809587
 30
0.0
  0
VERTEX
  5
F16
100
AcDbEntity
  8
ALPHA
 62
   255
100
AcDbVertex
100
AcDb2dVertex
 10
47.554528
 20
1.867135
 30
0.0
  0
VERTEX
  5
F17
100
AcDbEntity
  8
ALPHA
 62
   255
100
AcDbVertex
100
AcDb2dVertex
 10
47.625537
 20
1.931657
 30
0.0
  0
VERTEX
  5
F18
100
AcDbEntity
  8
ALPHA
 62
   255
100
AcDbVertex
100
AcDb2dVertex
 10
47.690075
 20
2.00265
 30
0.0
  0
VERTEX
  5
F19
100
AcDbEntity
  8
ALPHA
 62
   255
100
AcDbVertex
100
AcDb2dVertex
 10
47.747639
 20
2.079613
 30
0.0
  0
VERTEX
  5
F1A
100
AcDbEntity
  8
ALPHA
 62
   255
100
AcDbVertex
100
AcDb2dVertex
 10
47.797726
 20
2.162044
 30
0.0
  0
VERTEX
  5
F1B
100
AcDbEntity
  8
ALPHA
 62
   255
100
AcDbVertex
100
AcDb2dVertex
 10
47.839833
 20
2.24944
 30
0.0
  0
VERTEX
  5
F1C
100
AcDbEntity
  8
ALPHA
 62
   255
100
AcDbVertex
100
AcDb2dVertex
 10
47.873458
 20
2.341299
 30
0.0
  0
VERTEX
  5
F1D
100
AcDbEntity
  8
ALPHA
 62
   255
100
AcDbVertex
100
AcDb2dVertex
 10
47.898098
 20
2.437119
 30
0.0
  0
VERTEX
  5
F1E
100
AcDbEntity
  8
ALPHA
 62
   255
100
AcDbVertex
100
AcDb2dVertex
 10
47.913251
 20
2.536398
 30
0.0
  0
VERTEX
  5
F1F
100
AcDbEntity
  8
ALPHA
 62
   255
100
AcDbVertex
100
AcDb2dVertex
 10
47.918414
 20
2.638633
 30
0.0
  0
SEQEND
  5
F20
100
AcDbEntity
  8
ALPHA
  0
POLYLINE
  5
F21
100
AcDbEntity
  8
ALPHA
 62
   255
100
AcDb2dPolyline
 66
     1
 10
0.0
 20
0.0
 30
0.0
  0
VERTEX
  5
F22
100
AcDbEntity
  8
ALPHA
 62
   255
100
AcDbVertex
100
AcDb2dVertex
 10
36.484486
 20
39.556621
 30
0.0
  0
VERTEX
  5
F23
100
AcDbEntity
  8
ALPHA
 62
   255
100
AcDbVertex
100
AcDb2dVertex
 10
18.972032
 20
39.556621
 30
0.0
  0
SEQEND
  5
F24
100
AcDbEntity
  8
ALPHA
  0
POLYLINE
  5
F25
100
AcDbEntity
  8
ALPHA
 62
   255
100
AcDb2dPolyline
 66
     1
 10
0.0
 20
0.0
 30
0.0
  0
VERTEX
  5
F26
100
AcDbEntity
  8
ALPHA
 62
   255
100
AcDbVertex
100
AcDb2dVertex
 10
18.972032
 20
34.92848
 30
0.0
  0
VERTEX
  5
F27
100
AcDbEntity
  8
ALPHA
 62
   255
100
AcDbVertex
100
AcDb2dVertex
 10
36.484486
 20
34.92848
 30
0.0
  0
SEQEND
  5
F28
100
AcDbEntity
  8
ALPHA
  0
POLYLINE
  5
F29
100
AcDbEntity
  8
ALPHA
 62
   255
100
AcDb2dPolyline
 66
     1
 10
0.0
 20
0.0
 30
0.0
  0
VERTEX
  5
F2A
100
AcDbEntity
  8
ALPHA
 62
   255
100
AcDbVertex
100
AcDb2dVertex
 10
25.851371
 20
22.090332
 30
0.0
  0
VERTEX
  5
F2B
100
AcDbEntity
  8
ALPHA
 62
   255
100
AcDbVertex
100
AcDb2dVertex
 10
26.003484
 20
22.098015
 30
0.0
  0
VERTEX
  5
F2C
100
AcDbEntity
  8
ALPHA
 62
   255
100
AcDbVertex
100
AcDb2dVertex
 10
26.151204
 20
22.120566
 30
0.0
  0
VERTEX
  5
F2D
100
AcDbEntity
  8
ALPHA
 62
   255
100
AcDbVertex
100
AcDb2dVertex
 10
26.293782
 20
22.157236
 30
0.0
  0
VERTEX
  5
F2E
100
AcDbEntity
  8
ALPHA
 62
   255
100
AcDbVertex
100
AcDb2dVertex
 10
26.43047
 20
22.207276
 30
0.0
  0
VERTEX
  5
F2F
100
AcDbEntity
  8
ALPHA
 62
   255
100
AcDbVertex
100
AcDb2dVertex
 10
26.560522
 20
22.269939
 30
0.0
  0
VERTEX
  5
F30
100
AcDbEntity
  8
ALPHA
 62
   255
100
AcDbVertex
100
AcDb2dVertex
 10
26.683188
 20
22.344477
 30
0.0
  0
VERTEX
  5
F31
100
AcDbEntity
  8
ALPHA
 62
   255
100
AcDbVertex
100
AcDb2dVertex
 10
26.797722
 20
22.430139
 30
0.0
  0
VERTEX
  5
F32
100
AcDbEntity
  8
ALPHA
 62
   255
100
AcDbVertex
100
AcDb2dVertex
 10
26.903374
 20
22.526179
 30
0.0
  0
VERTEX
  5
F33
100
AcDbEntity
  8
ALPHA
 62
   255
100
AcDbVertex
100
AcDb2dVertex
 10
26.999398
 20
22.631848
 30
0.0
  0
VERTEX
  5
F34
100
AcDbEntity
  8
ALPHA
 62
   255
100
AcDbVertex
100
AcDb2dVertex
 10
27.085045
 20
22.746397
 30
0.0
  0
VERTEX
  5
F35
100
AcDbEntity
  8
ALPHA
 62
   255
100
AcDbVertex
100
AcDb2dVertex
 10
27.159568
 20
22.869078
 30
0.0
  0
VERTEX
  5
F36
100
AcDbEntity
  8
ALPHA
 62
   255
100
AcDbVertex
100
AcDb2dVertex
 10
27.222218
 20
22.999142
 30
0.0
  0
VERTEX
  5
F37
100
AcDbEntity
  8
ALPHA
 62
   255
100
AcDbVertex
100
AcDb2dVertex
 10
27.272248
 20
23.135842
 30
0.0
  0
VERTEX
  5
F38
100
AcDbEntity
  8
ALPHA
 62
   255
100
AcDbVertex
100
AcDb2dVertex
 10
27.308909
 20
23.278429
 30
0.0
  0
VERTEX
  5
F39
100
AcDbEntity
  8
ALPHA
 62
   255
100
AcDbVertex
100
AcDb2dVertex
 10
27.331454
 20
23.426153
 30
0.0
  0
VERTEX
  5
F3A
100
AcDbEntity
  8
ALPHA
 62
   255
100
AcDbVertex
100
AcDb2dVertex
 10
27.339136
 20
23.578268
 30
0.0
  0
VERTEX
  5
F3B
100
AcDbEntity
  8
ALPHA
 62
   255
100
AcDbVertex
100
AcDb2dVertex
 10
27.331454
 20
23.729837
 30
0.0
  0
VERTEX
  5
F3C
100
AcDbEntity
  8
ALPHA
 62
   255
100
AcDbVertex
100
AcDb2dVertex
 10
27.308909
 20
23.877085
 30
0.0
  0
VERTEX
  5
F3D
100
AcDbEntity
  8
ALPHA
 62
   255
100
AcDbVertex
100
AcDb2dVertex
 10
27.272248
 20
24.019257
 30
0.0
  0
VERTEX
  5
F3E
100
AcDbEntity
  8
ALPHA
 62
   255
100
AcDbVertex
100
AcDb2dVertex
 10
27.222218
 20
24.155602
 30
0.0
  0
VERTEX
  5
F3F
100
AcDbEntity
  8
ALPHA
 62
   255
100
AcDbVertex
100
AcDb2dVertex
 10
27.159568
 20
24.285366
 30
0.0
  0
VERTEX
  5
F40
100
AcDbEntity
  8
ALPHA
 62
   255
100
AcDbVertex
100
AcDb2dVertex
 10
27.085045
 20
24.407796
 30
0.0
  0
VERTEX
  5
F41
100
AcDbEntity
  8
ALPHA
 62
   255
100
AcDbVertex
100
AcDb2dVertex
 10
26.999398
 20
24.52214
 30
0.0
  0
VERTEX
  5
F42
100
AcDbEntity
  8
ALPHA
 62
   255
100
AcDbVertex
100
AcDb2dVertex
 10
26.903374
 20
24.627644
 30
0.0
  0
VERTEX
  5
F43
100
AcDbEntity
  8
ALPHA
 62
   255
100
AcDbVertex
100
AcDb2dVertex
 10
26.797722
 20
24.723556
 30
0.0
  0
VERTEX
  5
F44
100
AcDbEntity
  8
ALPHA
 62
   255
100
AcDbVertex
100
AcDb2dVertex
 10
26.683188
 20
24.809123
 30
0.0
  0
VERTEX
  5
F45
100
AcDbEntity
  8
ALPHA
 62
   255
100
AcDbVertex
100
AcDb2dVertex
 10
26.560522
 20
24.883591
 30
0.0
  0
VERTEX
  5
F46
100
AcDbEntity
  8
ALPHA
 62
   255
100
AcDbVertex
100
AcDb2dVertex
 10
26.43047
 20
24.946208
 30
0.0
  0
VERTEX
  5
F47
100
AcDbEntity
  8
ALPHA
 62
   255
100
AcDbVertex
100
AcDb2dVertex
 10
26.293782
 20
24.996221
 30
0.0
  0
VERTEX
  5
F48
100
AcDbEntity
  8
ALPHA
 62
   255
100
AcDbVertex
100
AcDb2dVertex
 10
26.151204
 20
25.032876
 30
0.0
  0
VERTEX
  5
F49
100
AcDbEntity
  8
ALPHA
 62
   255
100
AcDbVertex
100
AcDb2dVertex
 10
26.003484
 20
25.055422
 30
0.0
  0
VERTEX
  5
F4A
100
AcDbEntity
  8
ALPHA
 62
   255
100
AcDbVertex
100
AcDb2dVertex
 10
25.851371
 20
25.063104
 30
0.0
  0
VERTEX
  5
F4B
100
AcDbEntity
  8
ALPHA
 62
   255
100
AcDbVertex
100
AcDb2dVertex
 10
25.699501
 20
25.055422
 30
0.0
  0
VERTEX
  5
F4C
100
AcDbEntity
  8
ALPHA
 62
   255
100
AcDbVertex
100
AcDb2dVertex
 10
25.551994
 20
25.032876
 30
0.0
  0
VERTEX
  5
F4D
100
AcDbEntity
  8
ALPHA
 62
   255
100
AcDbVertex
100
AcDb2dVertex
 10
25.4096
 20
24.996221
 30
0.0
  0
VERTEX
  5
F4E
100
AcDbEntity
  8
ALPHA
 62
   255
100
AcDbVertex
100
AcDb2dVertex
 10
25.273069
 20
24.946208
 30
0.0
  0
VERTEX
  5
F4F
100
AcDbEntity
  8
ALPHA
 62
   255
100
AcDbVertex
100
AcDb2dVertex
 10
25.143151
 20
24.883591
 30
0.0
  0
VERTEX
  5
F50
100
AcDbEntity
  8
ALPHA
 62
   255
100
AcDbVertex
100
AcDb2dVertex
 10
25.020596
 20
24.809123
 30
0.0
  0
VERTEX
  5
F51
100
AcDbEntity
  8
ALPHA
 62
   255
100
AcDbVertex
100
AcDb2dVertex
 10
24.906154
 20
24.723556
 30
0.0
  0
VERTEX
  5
F52
100
AcDbEntity
  8
ALPHA
 62
   255
100
AcDbVertex
100
AcDb2dVertex
 10
24.800574
 20
24.627644
 30
0.0
  0
VERTEX
  5
F53
100
AcDbEntity
  8
ALPHA
 62
   255
100
AcDbVertex
100
AcDb2dVertex
 10
24.704607
 20
24.52214
 30
0.0
  0
VERTEX
  5
F54
100
AcDbEntity
  8
ALPHA
 62
   255
100
AcDbVertex
100
AcDb2dVertex
 10
24.619003
 20
24.407796
 30
0.0
  0
VERTEX
  5
F55
100
AcDbEntity
  8
ALPHA
 62
   255
100
AcDbVertex
100
AcDb2dVertex
 10
24.544511
 20
24.285366
 30
0.0
  0
VERTEX
  5
F56
100
AcDbEntity
  8
ALPHA
 62
   255
100
AcDbVertex
100
AcDb2dVertex
 10
24.481881
 20
24.155602
 30
0.0
  0
VERTEX
  5
F57
100
AcDbEntity
  8
ALPHA
 62
   255
100
AcDbVertex
100
AcDb2dVertex
 10
24.431864
 20
24.019257
 30
0.0
  0
VERTEX
  5
F58
100
AcDbEntity
  8
ALPHA
 62
   255
100
AcDbVertex
100
AcDb2dVertex
 10
24.395209
 20
23.877085
 30
0.0
  0
VERTEX
  5
F59
100
AcDbEntity
  8
ALPHA
 62
   255
100
AcDbVertex
100
AcDb2dVertex
 10
24.372666
 20
23.729837
 30
0.0
  0
VERTEX
  5
F5A
100
AcDbEntity
  8
ALPHA
 62
   255
100
AcDbVertex
100
AcDb2dVertex
 10
24.364985
 20
23.578268
 30
0.0
  0
VERTEX
  5
F5B
100
AcDbEntity
  8
ALPHA
 62
   255
100
AcDbVertex
100
AcDb2dVertex
 10
24.372666
 20
23.426153
 30
0.0
  0
VERTEX
  5
F5C
100
AcDbEntity
  8
ALPHA
 62
   255
100
AcDbVertex
100
AcDb2dVertex
 10
24.395209
 20
23.278429
 30
0.0
  0
VERTEX
  5
F5D
100
AcDbEntity
  8
ALPHA
 62
   255
100
AcDbVertex
100
AcDb2dVertex
 10
24.431864
 20
23.135842
 30
0.0
  0
VERTEX
  5
F5E
100
AcDbEntity
  8
ALPHA
 62
   255
100
AcDbVertex
100
AcDb2dVertex
 10
24.481881
 20
22.999142
 30
0.0
  0
VERTEX
  5
F5F
100
AcDbEntity
  8
ALPHA
 62
   255
100
AcDbVertex
100
AcDb2dVertex
 10
24.544511
 20
22.869078
 30
0.0
  0
VERTEX
  5
F60
100
AcDbEntity
  8
ALPHA
 62
   255
100
AcDbVertex
100
AcDb2dVertex
 10
24.619003
 20
22.746397
 30
0.0
  0
VERTEX
  5
F61
100
AcDbEntity
  8
ALPHA
 62
   255
100
AcDbVertex
100
AcDb2dVertex
 10
24.704607
 20
22.631848
 30
0.0
  0
VERTEX
  5
F62
100
AcDbEntity
  8
ALPHA
 62
   255
100
AcDbVertex
100
AcDb2dVertex
 10
24.800574
 20
22.526179
 30
0.0
  0
VERTEX
  5
F63
100
AcDbEntity
  8
ALPHA
 62
   255
100
AcDbVertex
100
AcDb2dVertex
 10
24.906154
 20
22.430139
 30
0.0
  0
VERTEX
  5
F64
100
AcDbEntity
  8
ALPHA
 62
   255
100
AcDbVertex
100
AcDb2dVertex
 10
25.020596
 20
22.344477
 30
0.0
  0
VERTEX
  5
F65
100
AcDbEntity
  8
ALPHA
 62
   255
100
AcDbVertex
100
AcDb2dVertex
 10
25.143151
 20
22.269939
 30
0.0
  0
VERTEX
  5
F66
100
AcDbEntity
  8
ALPHA
 62
   255
100
AcDbVertex
100
AcDb2dVertex
 10
25.273069
 20
22.207276
 30
0.0
  0
VERTEX
  5
F67
100
AcDbEntity
  8
ALPHA
 62
   255
100
AcDbVertex
100
AcDb2dVertex
 10
25.4096
 20
22.157236
 30
0.0
  0
VERTEX
  5
F68
100
AcDbEntity
  8
ALPHA
 62
   255
100
AcDbVertex
100
AcDb2dVertex
 10
25.551994
 20
22.120566
 30
0.0
  0
VERTEX
  5
F69
100
AcDbEntity
  8
ALPHA
 62
   255
100
AcDbVertex
100
AcDb2dVertex
 10
25.699501
 20
22.098015
 30
0.0
  0
VERTEX
  5
F6A
100
AcDbEntity
  8
ALPHA
 62
   255
100
AcDbVertex
100
AcDb2dVertex
 10
25.851371
 20
22.090332
 30
0.0
  0
SEQEND
  5
F6B
100
AcDbEntity
  8
ALPHA
  0
POLYLINE
  5
F6C
100
AcDbEntity
  8
ALPHA
 62
   255
100
AcDb3dPolyline
 66
     1
 10
0.0
 20
0.0
 30
0.0
 70
     8
  0
VERTEX
  5
F6D
100
AcDbEntity
  8
ALPHA
 62
   255
100
AcDbVertex
100
AcDb3dPolylineVertex
 10
25.851371
 20
22.090332
 30
0.0
 70
    32
  0
VERTEX
  5
F6E
100
AcDbEntity
  8
ALPHA
 62
   255
100
AcDbVertex
100
AcDb3dPolylineVertex
 10
25.851371
 20
22.090332
 30
0.0
 70
    32
  0
SEQEND
  5
F6F
100
AcDbEntity
  8
ALPHA
  0
POLYLINE
  5
F70
100
AcDbEntity
  8
ALPHA
 62
   255
100
AcDb2dPolyline
 66
     1
 10
0.0
 20
0.0
 30
0.0
  0
VERTEX
  5
F71
100
AcDbEntity
  8
ALPHA
 62
   255
100
AcDbVertex
100
AcDb2dVertex
 10
25.851371
 20
27.444354
 30
0.0
  0
VERTEX
  5
F72
100
AcDbEntity
  8
ALPHA
 62
   255
100
AcDbVertex
100
AcDb2dVertex
 10
26.003484
 20
27.452038
 30
0.0
  0
VERTEX
  5
F73
100
AcDbEntity
  8
ALPHA
 62
   255
100
AcDbVertex
100
AcDb2dVertex
 10
26.151204
 20
27.474588
 30
0.0
  0
VERTEX
  5
F74
100
AcDbEntity
  8
ALPHA
 62
   255
100
AcDbVertex
100
AcDb2dVertex
 10
26.293782
 20
27.511258
 30
0.0
  0
VERTEX
  5
F75
100
AcDbEntity
  8
ALPHA
 62
   255
100
AcDbVertex
100
AcDb2dVertex
 10
26.43047
 20
27.561299
 30
0.0
  0
VERTEX
  5
F76
100
AcDbEntity
  8
ALPHA
 62
   255
100
AcDbVertex
100
AcDb2dVertex
 10
26.560522
 20
27.623962
 30
0.0
  0
VERTEX
  5
F77
100
AcDbEntity
  8
ALPHA
 62
   255
100
AcDbVertex
100
AcDb2dVertex
 10
26.683188
 20
27.698499
 30
0.0
  0
VERTEX
  5
F78
100
AcDbEntity
  8
ALPHA
 62
   255
100
AcDbVertex
100
AcDb2dVertex
 10
26.797722
 20
27.784162
 30
0.0
  0
VERTEX
  5
F79
100
AcDbEntity
  8
ALPHA
 62
   255
100
AcDbVertex
100
AcDb2dVertex
 10
26.903374
 20
27.880202
 30
0.0
  0
VERTEX
  5
F7A
100
AcDbEntity
  8
ALPHA
 62
   255
100
AcDbVertex
100
AcDb2dVertex
 10
26.999398
 20
27.985871
 30
0.0
  0
VERTEX
  5
F7B
100
AcDbEntity
  8
ALPHA
 62
   255
100
AcDbVertex
100
AcDb2dVertex
 10
27.085045
 20
28.10042
 30
0.0
  0
VERTEX
  5
F7C
100
AcDbEntity
  8
ALPHA
 62
   255
100
AcDbVertex
100
AcDb2dVertex
 10
27.159568
 20
28.223101
 30
0.0
  0
VERTEX
  5
F7D
100
AcDbEntity
  8
ALPHA
 62
   255
100
AcDbVertex
100
AcDb2dVertex
 10
27.222218
 20
28.353165
 30
0.0
  0
VERTEX
  5
F7E
100
AcDbEntity
  8
ALPHA
 62
   255
100
AcDbVertex
100
AcDb2dVertex
 10
27.272248
 20
28.489865
 30
0.0
  0
VERTEX
  5
F7F
100
AcDbEntity
  8
ALPHA
 62
   255
100
AcDbVertex
100
AcDb2dVertex
 10
27.308909
 20
28.632451
 30
0.0
  0
VERTEX
  5
F80
100
AcDbEntity
  8
ALPHA
 62
   255
100
AcDbVertex
100
AcDb2dVertex
 10
27.331454
 20
28.780176
 30
0.0
  0
VERTEX
  5
F81
100
AcDbEntity
  8
ALPHA
 62
   255
100
AcDbVertex
100
AcDb2dVertex
 10
27.339136
 20
28.932291
 30
0.0
  0
VERTEX
  5
F82
100
AcDbEntity
  8
ALPHA
 62
   255
100
AcDbVertex
100
AcDb2dVertex
 10
27.331454
 20
29.08386
 30
0.0
  0
VERTEX
  5
F83
100
AcDbEntity
  8
ALPHA
 62
   255
100
AcDbVertex
100
AcDb2dVertex
 10
27.308909
 20
29.231107
 30
0.0
  0
VERTEX
  5
F84
100
AcDbEntity
  8
ALPHA
 62
   255
100
AcDbVertex
100
AcDb2dVertex
 10
27.272248
 20
29.37328
 30
0.0
  0
VERTEX
  5
F85
100
AcDbEntity
  8
ALPHA
 62
   255
100
AcDbVertex
100
AcDb2dVertex
 10
27.222218
 20
29.509625
 30
0.0
  0
VERTEX
  5
F86
100
AcDbEntity
  8
ALPHA
 62
   255
100
AcDbVertex
100
AcDb2dVertex
 10
27.159568
 20
29.639389
 30
0.0
  0
VERTEX
  5
F87
100
AcDbEntity
  8
ALPHA
 62
   255
100
AcDbVertex
100
AcDb2dVertex
 10
27.085045
 20
29.761819
 30
0.0
  0
VERTEX
  5
F88
100
AcDbEntity
  8
ALPHA
 62
   255
100
AcDbVertex
100
AcDb2dVertex
 10
26.999398
 20
29.876163
 30
0.0
  0
VERTEX
  5
F89
100
AcDbEntity
  8
ALPHA
 62
   255
100
AcDbVertex
100
AcDb2dVertex
 10
26.903374
 20
29.981667
 30
0.0
  0
VERTEX
  5
F8A
100
AcDbEntity
  8
ALPHA
 62
   255
100
AcDbVertex
100
AcDb2dVertex
 10
26.797722
 20
30.077579
 30
0.0
  0
VERTEX
  5
F8B
100
AcDbEntity
  8
ALPHA
 62
   255
100
AcDbVertex
100
AcDb2dVertex
 10
26.683188
 20
30.163146
 30
0.0
  0
VERTEX
  5
F8C
100
AcDbEntity
  8
ALPHA
 62
   255
100
AcDbVertex
100
AcDb2dVertex
 10
26.560522
 20
30.237614
 30
0.0
  0
VERTEX
  5
F8D
100
AcDbEntity
  8
ALPHA
 62
   255
100
AcDbVertex
100
AcDb2dVertex
 10
26.43047
 20
30.300231
 30
0.0
  0
VERTEX
  5
F8E
100
AcDbEntity
  8
ALPHA
 62
   255
100
AcDbVertex
100
AcDb2dVertex
 10
26.293782
 20
30.350244
 30
0.0
  0
VERTEX
  5
F8F
100
AcDbEntity
  8
ALPHA
 62
   255
100
AcDbVertex
100
AcDb2dVertex
 10
26.151204
 20
30.386899
 30
0.0
  0
VERTEX
  5
F90
100
AcDbEntity
  8
ALPHA
 62
   255
100
AcDbVertex
100
AcDb2dVertex
 10
26.003484
 20
30.409445
 30
0.0
  0
VERTEX
  5
F91
100
AcDbEntity
  8
ALPHA
 62
   255
100
AcDbVertex
100
AcDb2dVertex
 10
25.851371
 20
30.417127
 30
0.0
  0
VERTEX
  5
F92
100
AcDbEntity
  8
ALPHA
 62
   255
100
AcDbVertex
100
AcDb2dVertex
 10
25.699501
 20
30.409445
 30
0.0
  0
VERTEX
  5
F93
100
AcDbEntity
  8
ALPHA
 62
   255
100
AcDbVertex
100
AcDb2dVertex
 10
25.551994
 20
30.386899
 30
0.0
  0
VERTEX
  5
F94
100
AcDbEntity
  8
ALPHA
 62
   255
100
AcDbVertex
100
AcDb2dVertex
 10
25.4096
 20
30.350244
 30
0.0
  0
VERTEX
  5
F95
100
AcDbEntity
  8
ALPHA
 62
   255
100
AcDbVertex
100
AcDb2dVertex
 10
25.273069
 20
30.300231
 30
0.0
  0
VERTEX
  5
F96
100
AcDbEntity
  8
ALPHA
 62
   255
100
AcDbVertex
100
AcDb2dVertex
 10
25.143151
 20
30.237614
 30
0.0
  0
VERTEX
  5
F97
100
AcDbEntity
  8
ALPHA
 62
   255
100
AcDbVertex
100
AcDb2dVertex
 10
25.020596
 20
30.163146
 30
0.0
  0
VERTEX
  5
F98
100
AcDbEntity
  8
ALPHA
 62
   255
100
AcDbVertex
100
AcDb2dVertex
 10
24.906154
 20
30.077579
 30
0.0
  0
VERTEX
  5
F99
100
AcDbEntity
  8
ALPHA
 62
   255
100
AcDbVertex
100
AcDb2dVertex
 10
24.800574
 20
29.981667
 30
0.0
  0
VERTEX
  5
F9A
100
AcDbEntity
  8
ALPHA
 62
   255
100
AcDbVertex
100
AcDb2dVertex
 10
24.704607
 20
29.876163
 30
0.0
  0
VERTEX
  5
F9B
100
AcDbEntity
  8
ALPHA
 62
   255
100
AcDbVertex
100
AcDb2dVertex
 10
24.619003
 20
29.761819
 30
0.0
  0
VERTEX
  5
F9C
100
AcDbEntity
  8
ALPHA
 62
   255
100
AcDbVertex
100
AcDb2dVertex
 10
24.544511
 20
29.639389
 30
0.0
  0
VERTEX
  5
F9D
100
AcDbEntity
  8
ALPHA
 62
   255
100
AcDbVertex
100
AcDb2dVertex
 10
24.481881
 20
29.509625
 30
0.0
  0
VERTEX
  5
F9E
100
AcDbEntity
  8
ALPHA
 62
   255
100
AcDbVertex
100
AcDb2dVertex
 10
24.431864
 20
29.37328
 30
0.0
  0
VERTEX
  5
F9F
100
AcDbEntity
  8
ALPHA
 62
   255
100
AcDbVertex
100
AcDb2dVertex
 10
24.395209
 20
29.231107
 30
0.0
  0
VERTEX
  5
FA0
100
AcDbEntity
  8
ALPHA
 62
   255
100
AcDbVertex
100
AcDb2dVertex
 10
24.372666
 20
29.08386
 30
0.0
  0
VERTEX
  5
FA1
100
AcDbEntity
  8
ALPHA
 62
   255
100
AcDbVertex
100
AcDb2dVertex
 10
24.364985
 20
28.932291
 30
0.0
  0
VERTEX
  5
FA2
100
AcDbEntity
  8
ALPHA
 62
   255
100
AcDbVertex
100
AcDb2dVertex
 10
24.372666
 20
28.780176
 30
0.0
  0
VERTEX
  5
FA3
100
AcDbEntity
  8
ALPHA
 62
   255
100
AcDbVertex
100
AcDb2dVertex
 10
24.395209
 20
28.632451
 30
0.0
  0
VERTEX
  5
FA4
100
AcDbEntity
  8
ALPHA
 62
   255
100
AcDbVertex
100
AcDb2dVertex
 10
24.431864
 20
28.489865
 30
0.0
  0
VERTEX
  5
FA5
100
AcDbEntity
  8
ALPHA
 62
   255
100
AcDbVertex
100
AcDb2dVertex
 10
24.481881
 20
28.353165
 30
0.0
  0
VERTEX
  5
FA6
100
AcDbEntity
  8
ALPHA
 62
   255
100
AcDbVertex
100
AcDb2dVertex
 10
24.544511
 20
28.223101
 30
0.0
  0
VERTEX
  5
FA7
100
AcDbEntity
  8
ALPHA
 62
   255
100
AcDbVertex
100
AcDb2dVertex
 10
24.619003
 20
28.10042
 30
0.0
  0
VERTEX
  5
FA8
100
AcDbEntity
  8
ALPHA
 62
   255
100
AcDbVertex
100
AcDb2dVertex
 10
24.704607
 20
27.985871
 30
0.0
  0
VERTEX
  5
FA9
100
AcDbEntity
  8
ALPHA
 62
   255
100
AcDbVertex
100
AcDb2dVertex
 10
24.800574
 20
27.880202
 30
0.0
  0
VERTEX
  5
FAA
100
AcDbEntity
  8
ALPHA
 62
   255
100
AcDbVertex
100
AcDb2dVertex
 10
24.906154
 20
27.784162
 30
0.0
  0
VERTEX
  5
FAB
100
AcDbEntity
  8
ALPHA
 62
   255
100
AcDbVertex
100
AcDb2dVertex
 10
25.020596
 20
27.698499
 30
0.0
  0
VERTEX
  5
FAC
100
AcDbEntity
  8
ALPHA
 62
   255
100
AcDbVertex
100
AcDb2dVertex
 10
25.143151
 20
27.623962
 30
0.0
  0
VERTEX
  5
FAD
100
AcDbEntity
  8
ALPHA
 62
   255
100
AcDbVertex
100
AcDb2dVertex
 10
25.273069
 20
27.561299
 30
0.0
  0
VERTEX
  5
FAE
100
AcDbEntity
  8
ALPHA
 62
   255
100
AcDbVertex
100
AcDb2dVertex
 10
25.4096
 20
27.511258
 30
0.0
  0
VERTEX
  5
FAF
100
AcDbEntity
  8
ALPHA
 62
   255
100
AcDbVertex
100
AcDb2dVertex
 10
25.551994
 20
27.474588
 30
0.0
  0
VERTEX
  5
FB0
100
AcDbEntity
  8
ALPHA
 62
   255
100
AcDbVertex
100
AcDb2dVertex
 10
25.699501
 20
27.452038
 30
0.0
  0
VERTEX
  5
FB1
100
AcDbEntity
  8
ALPHA
 62
   255
100
AcDbVertex
100
AcDb2dVertex
 10
25.851371
 20
27.444354
 30
0.0
  0
SEQEND
  5
FB2
100
AcDbEntity
  8
ALPHA
  0
POLYLINE
  5
FB3
100
AcDbEntity
  8
ALPHA
 62
   255
100
AcDb3dPolyline
 66
     1
 10
0.0
 20
0.0
 30
0.0
 70
     8
  0
VERTEX
  5
FB4
100
AcDbEntity
  8
ALPHA
 62
   255
100
AcDbVertex
100
AcDb3dPolylineVertex
 10
25.851371
 20
27.444354
 30
0.0
 70
    32
  0
VERTEX
  5
FB5
100
AcDbEntity
  8
ALPHA
 62
   255
100
AcDbVertex
100
AcDb3dPolylineVertex
 10
25.851371
 20
27.444354
 30
0.0
 70
    32
  0
SEQEND
  5
FB6
100
AcDbEntity
  8
ALPHA
  0
POLYLINE
  5
FB7
100
AcDbEntity
  8
ALPHA
 62
   255
100
AcDb2dPolyline
 66
     1
 10
0.0
 20
0.0
 30
0.0
  0
VERTEX
  5
FB8
100
AcDbEntity
  8
ALPHA
 62
   255
100
AcDbVertex
100
AcDb2dVertex
 10
23.598623
 20
44.181662
 30
0.0
  0
VERTEX
  5
FB9
100
AcDbEntity
  8
ALPHA
 62
   255
100
AcDbVertex
100
AcDb2dVertex
 10
28.555082
 20
44.181662
 30
0.0
  0
SEQEND
  5
FBA
100
AcDbEntity
  8
ALPHA
  0
POLYLINE
  5
FBB
100
AcDbEntity
  8
ALPHA
 62
   255
100
AcDb2dPolyline
 66
     1
 10
0.0
 20
0.0
 30
0.0
  0
VERTEX
  5
FBC
100
AcDbEntity
  8
ALPHA
 62
   255
100
AcDbVertex
100
AcDb2dVertex
 10
18.972032
 20
39.556621
 30
0.0
  0
VERTEX
  5
FBD
100
AcDbEntity
  8
ALPHA
 62
   255
100
AcDbVertex
100
AcDb2dVertex
 10
18.972032
 20
34.92848
 30
0.0
  0
SEQEND
  5
FBE
100
AcDbEntity
  8
ALPHA
  0
POLYLINE
  5
FBF
100
AcDbEntity
  8
ALPHA
 62
   255
100
AcDb2dPolyline
 66
     1
 10
0.0
 20
0.0
 30
0.0
  0
VERTEX
  5
FC0
100
AcDbEntity
  8
ALPHA
 62
   255
100
AcDbVertex
100
AcDb2dVertex
 10
36.484486
 20
34.92848
 30
0.0
  0
VERTEX
  5
FC1
100
AcDbEntity
  8
ALPHA
 62
   255
100
AcDbVertex
100
AcDb2dVertex
 10
36.484486
 20
39.556621
 30
0.0
  0
SEQEND
  5
FC2
100
AcDbEntity
  8
ALPHA
  0
POLYLINE
  5
FC3
100
AcDbEntity
  8
ALPHA
 62
   255
100
AcDb2dPolyline
 66
     1
 10
0.0
 20
0.0
 30
0.0
  0
VERTEX
  5
FC4
100
AcDbEntity
  8
ALPHA
 62
   255
100
AcDbVertex
100
AcDb2dVertex
 10
60.136445
 20
0.465123
 30
0.0
  0
VERTEX
  5
FC5
100
AcDbEntity
  8
ALPHA
 62
   255
100
AcDbVertex
100
AcDb2dVertex
 10
60.136445
 20
20.309906
 30
0.0
  0
SEQEND
  5
FC6
100
AcDbEntity
  8
ALPHA
  0
POLYLINE
  5
FC7
100
AcDbEntity
  8
ALPHA
 62
   255
100
AcDb2dPolyline
 66
     1
 10
0.0
 20
0.0
 30
0.0
  0
VERTEX
  5
FC8
100
AcDbEntity
  8
ALPHA
 62
   255
100
AcDbVertex
100
AcDb2dVertex
 10
56.46604
 20
15.401679
 30
0.0
  0
VERTEX
  5
FC9
100
AcDbEntity
  8
ALPHA
 62
   255
100
AcDbVertex
100
AcDb2dVertex
 10
56.46604
 20
0.465123
 30
0.0
  0
SEQEND
  5
FCA
100
AcDbEntity
  8
ALPHA
  0
POLYLINE
  5
FCB
100
AcDbEntity
  8
ALPHA
 62
   255
100
AcDb2dPolyline
 66
     1
 10
0.0
 20
0.0
 30
0.0
  0
VERTEX
  5
FCC
100
AcDbEntity
  8
ALPHA
 62
   255
100
AcDbVertex
100
AcDb2dVertex
 10
56.46604
 20
0.465123
 30
0.0
  0
VERTEX
  5
FCD
100
AcDbEntity
  8
ALPHA
 62
   255
100
AcDbVertex
100
AcDb2dVertex
 10
60.136445
 20
0.465123
 30
0.0
  0
SEQEND
  5
FCE
100
AcDbEntity
  8
ALPHA
  0
POLYLINE
  5
FCF
100
AcDbEntity
  8
ALPHA
 62
   255
100
AcDb2dPolyline
 66
     1
 10
0.0
 20
0.0
 30
0.0
  0
VERTEX
  5
FD0
100
AcDbEntity
  8
ALPHA
 62
   255
100
AcDbVertex
100
AcDb2dVertex
 10
56.46604
 20
15.401679
 30
0.0
  0
VERTEX
  5
FD1
100
AcDbEntity
  8
ALPHA
 62
   255
100
AcDbVertex
100
AcDb2dVertex
 10
60.136445
 20
15.401679
 30
0.0
  0
SEQEND
  5
FD2
100
AcDbEntity
  8
ALPHA
  0
POLYLINE
  5
FD3
100
AcDbEntity
  8
ALPHA
 62
   255
100
AcDb2dPolyline
 66
     1
 10
0.0
 20
0.0
 30
0.0
  0
VERTEX
  5
FD4
100
AcDbEntity
  8
ALPHA
 62
   255
100
AcDbVertex
100
AcDb2dVertex
 10
60.136445
 20
20.309906
 30
0.0
  0
VERTEX
  5
FD5
100
AcDbEntity
  8
ALPHA
 62
   255
100
AcDbVertex
100
AcDb2dVertex
 10
56.924927
 20
20.309906
 30
0.0
  0
SEQEND
  5
FD6
100
AcDbEntity
  8
ALPHA
  0
POLYLINE
  5
FD7
100
AcDbEntity
  8
ALPHA
 62
   255
100
AcDb2dPolyline
 66
     1
 10
0.0
 20
0.0
 30
0.0
  0
VERTEX
  5
FD8
100
AcDbEntity
  8
ALPHA
 62
   255
100
AcDbVertex
100
AcDb2dVertex
 10
60.136445
 20
20.309906
 30
0.0
  0
VERTEX
  5
FD9
100
AcDbEntity
  8
ALPHA
 62
   255
100
AcDbVertex
100
AcDb2dVertex
 10
56.694794
 20
23.291292
 30
0.0
  0
SEQEND
  5
FDA
100
AcDbEntity
  8
ALPHA
  0
POLYLINE
  5
FDB
100
AcDbEntity
  8
ALPHA
 62
   255
100
AcDb2dPolyline
 66
     1
 10
0.0
 20
0.0
 30
0.0
  0
VERTEX
  5
FDC
100
AcDbEntity
  8
ALPHA
 62
   255
100
AcDbVertex
100
AcDb2dVertex
 10
56.694794
 20
23.291292
 30
0.0
  0
VERTEX
  5
FDD
100
AcDbEntity
  8
ALPHA
 62
   255
100
AcDbVertex
100
AcDb2dVertex
 10
56.694794
 20
20.309906
 30
0.0
  0
SEQEND
  5
FDE
100
AcDbEntity
  8
ALPHA
  0
POLYLINE
  5
FDF
100
AcDbEntity
  8
ALPHA
 62
   255
100
AcDb2dPolyline
 66
     1
 10
0.0
 20
0.0
 30
0.0
  0
VERTEX
  5
FE0
100
AcDbEntity
  8
ALPHA
 62
   255
100
AcDbVertex
100
AcDb2dVertex
 10
56.694794
 20
20.309906
 30
0.0
  0
VERTEX
  5
FE1
100
AcDbEntity
  8
ALPHA
 62
   255
100
AcDbVertex
100
AcDb2dVertex
 10
54.171606
 20
20.309906
 30
0.0
  0
SEQEND
  5
FE2
100
AcDbEntity
  8
ALPHA
  0
POLYLINE
  5
FE3
100
AcDbEntity
  8
ALPHA
 62
   255
100
AcDb2dPolyline
 66
     1
 10
0.0
 20
0.0
 30
0.0
  0
VERTEX
  5
FE4
100
AcDbEntity
  8
ALPHA
 62
   255
100
AcDbVertex
100
AcDb2dVertex
 10
47.918414
 20
72.291574
 30
0.0
  0
VERTEX
  5
FE5
100
AcDbEntity
  8
ALPHA
 62
   255
100
AcDbVertex
100
AcDb2dVertex
 10
47.918414
 20
59.833075
 30
0.0
  0
SEQEND
  5
FE6
100
AcDbEntity
  8
ALPHA
  0
POLYLINE
  5
FE7
100
AcDbEntity
  8
ALPHA
 62
   255
100
AcDb2dPolyline
 66
     1
 10
0.0
 20
0.0
 30
0.0
  0
VERTEX
  5
FE8
100
AcDbEntity
  8
ALPHA
 62
   255
100
AcDbVertex
100
AcDb2dVertex
 10
28.555082
 20
46.165003
 30
0.0
  0
VERTEX
  5
FE9
100
AcDbEntity
  8
ALPHA
 62
   255
100
AcDbVertex
100
AcDb2dVertex
 10
23.598623
 20
46.165003
 30
0.0
  0
SEQEND
  5
FEA
100
AcDbEntity
  8
ALPHA
  0
POLYLINE
  5
FEB
100
AcDbEntity
  8
ALPHA
 62
   255
100
AcDb2dPolyline
 66
     1
 10
0.0
 20
0.0
 30
0.0
  0
VERTEX
  5
FEC
100
AcDbEntity
  8
ALPHA
 62
   255
100
AcDbVertex
100
AcDb2dVertex
 10
25.851371
 20
48.859757
 30
0.0
  0
VERTEX
  5
FED
100
AcDbEntity
  8
ALPHA
 62
   255
100
AcDbVertex
100
AcDb2dVertex
 10
26.003484
 20
48.86744
 30
0.0
  0
VERTEX
  5
FEE
100
AcDbEntity
  8
ALPHA
 62
   255
100
AcDbVertex
100
AcDb2dVertex
 10
26.151204
 20
48.889992
 30
0.0
  0
VERTEX
  5
FEF
100
AcDbEntity
  8
ALPHA
 62
   255
100
AcDbVertex
100
AcDb2dVertex
 10
26.293782
 20
48.926663
 30
0.0
  0
VERTEX
  5
FF0
100
AcDbEntity
  8
ALPHA
 62
   255
100
AcDbVertex
100
AcDb2dVertex
 10
26.43047
 20
48.976707
 30
0.0
  0
VERTEX
  5
FF1
100
AcDbEntity
  8
ALPHA
 62
   255
100
AcDbVertex
100
AcDb2dVertex
 10
26.560522
 20
49.039375
 30
0.0
  0
VERTEX
  5
FF2
100
AcDbEntity
  8
ALPHA
 62
   255
100
AcDbVertex
100
AcDb2dVertex
 10
26.683188
 20
49.11392
 30
0.0
  0
VERTEX
  5
FF3
100
AcDbEntity
  8
ALPHA
 62
   255
100
AcDbVertex
100
AcDb2dVertex
 10
26.797722
 20
49.199594
 30
0.0
  0
VERTEX
  5
FF4
100
AcDbEntity
  8
ALPHA
 62
   255
100
AcDbVertex
100
AcDb2dVertex
 10
26.903374
 20
49.295648
 30
0.0
  0
VERTEX
  5
FF5
100
AcDbEntity
  8
ALPHA
 62
   255
100
AcDbVertex
100
AcDb2dVertex
 10
26.999398
 20
49.401335
 30
0.0
  0
VERTEX
  5
FF6
100
AcDbEntity
  8
ALPHA
 62
   255
100
AcDbVertex
100
AcDb2dVertex
 10
27.085045
 20
49.515906
 30
0.0
  0
VERTEX
  5
FF7
100
AcDbEntity
  8
ALPHA
 62
   255
100
AcDbVertex
100
AcDb2dVertex
 10
27.159568
 20
49.638615
 30
0.0
  0
VERTEX
  5
FF8
100
AcDbEntity
  8
ALPHA
 62
   255
100
AcDbVertex
100
AcDb2dVertex
 10
27.222218
 20
49.768713
 30
0.0
  0
VERTEX
  5
FF9
100
AcDbEntity
  8
ALPHA
 62
   255
100
AcDbVertex
100
AcDb2dVertex
 10
27.272248
 20
49.905452
 30
0.0
  0
VERTEX
  5
FFA
100
AcDbEntity
  8
ALPHA
 62
   255
100
AcDbVertex
100
AcDb2dVertex
 10
27.308909
 20
50.048085
 30
0.0
  0
VERTEX
  5
FFB
100
AcDbEntity
  8
ALPHA
 62
   255
100
AcDbVertex
100
AcDb2dVertex
 10
27.331454
 20
50.195863
 30
0.0
  0
VERTEX
  5
FFC
100
AcDbEntity
  8
ALPHA
 62
   255
100
AcDbVertex
100
AcDb2dVertex
 10
27.339136
 20
50.348038
 30
0.0
  0
VERTEX
  5
FFD
100
AcDbEntity
  8
ALPHA
 62
   255
100
AcDbVertex
100
AcDb2dVertex
 10
27.331454
 20
50.499607
 30
0.0
  0
VERTEX
  5
FFE
100
AcDbEntity
  8
ALPHA
 62
   255
100
AcDbVertex
100
AcDb2dVertex
 10
27.308909
 20
50.646854
 30
0.0
  0
VERTEX
  5
FFF
100
AcDbEntity
  8
ALPHA
 62
   255
100
AcDbVertex
100
AcDb2dVertex
 10
27.272248
 20
50.789027
 30
0.0
  0
VERTEX
  5
1000
100
AcDbEntity
  8
ALPHA
 62
   255
100
AcDbVertex
100
AcDb2dVertex
 10
27.222218
 20
50.925372
 30
0.0
  0
VERTEX
  5
1001
100
AcDbEntity
  8
ALPHA
 62
   255
100
AcDbVertex
100
AcDb2dVertex
 10
27.159568
 20
51.055136
 30
0.0
  0
VERTEX
  5
1002
100
AcDbEntity
  8
ALPHA
 62
   255
100
AcDbVertex
100
AcDb2dVertex
 10
27.085045
 20
51.177566
 30
0.0
  0
VERTEX
  5
1003
100
AcDbEntity
  8
ALPHA
 62
   255
100
AcDbVertex
100
AcDb2dVertex
 10
26.999398
 20
51.29191
 30
0.0
  0
VERTEX
  5
1004
100
AcDbEntity
  8
ALPHA
 62
   255
100
AcDbVertex
100
AcDb2dVertex
 10
26.903374
 20
51.397414
 30
0.0
  0
VERTEX
  5
1005
100
AcDbEntity
  8
ALPHA
 62
   255
100
AcDbVertex
100
AcDb2dVertex
 10
26.797722
 20
51.493326
 30
0.0
  0
VERTEX
  5
1006
100
AcDbEntity
  8
ALPHA
 62
   255
100
AcDbVertex
100
AcDb2dVertex
 10
26.683188
 20
51.578893
 30
0.0
  0
VERTEX
  5
1007
100
AcDbEntity
  8
ALPHA
 62
   255
100
AcDbVertex
100
AcDb2dVertex
 10
26.560522
 20
51.653361
 30
0.0
  0
VERTEX
  5
1008
100
AcDbEntity
  8
ALPHA
 62
   255
100
AcDbVertex
100
AcDb2dVertex
 10
26.43047
 20
51.715978
 30
0.0
  0
VERTEX
  5
1009
100
AcDbEntity
  8
ALPHA
 62
   255
100
AcDbVertex
100
AcDb2dVertex
 10
26.293782
 20
51.765991
 30
0.0
  0
VERTEX
  5
100A
100
AcDbEntity
  8
ALPHA
 62
   255
100
AcDbVertex
100
AcDb2dVertex
 10
26.151204
 20
51.802646
 30
0.0
  0
VERTEX
  5
100B
100
AcDbEntity
  8
ALPHA
 62
   255
100
AcDbVertex
100
AcDb2dVertex
 10
26.003484
 20
51.825192
 30
0.0
  0
VERTEX
  5
100C
100
AcDbEntity
  8
ALPHA
 62
   255
100
AcDbVertex
100
AcDb2dVertex
 10
25.851371
 20
51.832874
 30
0.0
  0
VERTEX
  5
100D
100
AcDbEntity
  8
ALPHA
 62
   255
100
AcDbVertex
100
AcDb2dVertex
 10
25.699501
 20
51.825192
 30
0.0
  0
VERTEX
  5
100E
100
AcDbEntity
  8
ALPHA
 62
   255
100
AcDbVertex
100
AcDb2dVertex
 10
25.551994
 20
51.802646
 30
0.0
  0
VERTEX
  5
100F
100
AcDbEntity
  8
ALPHA
 62
   255
100
AcDbVertex
100
AcDb2dVertex
 10
25.4096
 20
51.765991
 30
0.0
  0
VERTEX
  5
1010
100
AcDbEntity
  8
ALPHA
 62
   255
100
AcDbVertex
100
AcDb2dVertex
 10
25.273069
 20
51.715978
 30
0.0
  0
VERTEX
  5
1011
100
AcDbEntity
  8
ALPHA
 62
   255
100
AcDbVertex
100
AcDb2dVertex
 10
25.143151
 20
51.653361
 30
0.0
  0
VERTEX
  5
1012
100
AcDbEntity
  8
ALPHA
 62
   255
100
AcDbVertex
100
AcDb2dVertex
 10
25.020596
 20
51.578893
 30
0.0
  0
VERTEX
  5
1013
100
AcDbEntity
  8
ALPHA
 62
   255
100
AcDbVertex
100
AcDb2dVertex
 10
24.906154
 20
51.493326
 30
0.0
  0
VERTEX
  5
1014
100
AcDbEntity
  8
ALPHA
 62
   255
100
AcDbVertex
100
AcDb2dVertex
 10
24.800574
 20
51.397414
 30
0.0
  0
VERTEX
  5
1015
100
AcDbEntity
  8
ALPHA
 62
   255
100
AcDbVertex
100
AcDb2dVertex
 10
24.704607
 20
51.29191
 30
0.0
  0
VERTEX
  5
1016
100
AcDbEntity
  8
ALPHA
 62
   255
100
AcDbVertex
100
AcDb2dVertex
 10
24.619003
 20
51.177566
 30
0.0
  0
VERTEX
  5
1017
100
AcDbEntity
  8
ALPHA
 62
   255
100
AcDbVertex
100
AcDb2dVertex
 10
24.544511
 20
51.055136
 30
0.0
  0
VERTEX
  5
1018
100
AcDbEntity
  8
ALPHA
 62
   255
100
AcDbVertex
100
AcDb2dVertex
 10
24.481881
 20
50.925372
 30
0.0
  0
VERTEX
  5
1019
100
AcDbEntity
  8
ALPHA
 62
   255
100
AcDbVertex
100
AcDb2dVertex
 10
24.431864
 20
50.789027
 30
0.0
  0
VERTEX
  5
101A
100
AcDbEntity
  8
ALPHA
 62
   255
100
AcDbVertex
100
AcDb2dVertex
 10
24.395209
 20
50.646854
 30
0.0
  0
VERTEX
  5
101B
100
AcDbEntity
  8
ALPHA
 62
   255
100
AcDbVertex
100
AcDb2dVertex
 10
24.372666
 20
50.499607
 30
0.0
  0
VERTEX
  5
101C
100
AcDbEntity
  8
ALPHA
 62
   255
100
AcDbVertex
100
AcDb2dVertex
 10
24.364985
 20
50.348038
 30
0.0
  0
VERTEX
  5
101D
100
AcDbEntity
  8
ALPHA
 62
   255
100
AcDbVertex
100
AcDb2dVertex
 10
24.372666
 20
50.195863
 30
0.0
  0
VERTEX
  5
101E
100
AcDbEntity
  8
ALPHA
 62
   255
100
AcDbVertex
100
AcDb2dVertex
 10
24.395209
 20
50.048085
 30
0.0
  0
VERTEX
  5
101F
100
AcDbEntity
  8
ALPHA
 62
   255
100
AcDbVertex
100
AcDb2dVertex
 10
24.431864
 20
49.905452
 30
0.0
  0
VERTEX
  5
1020
100
AcDbEntity
  8
ALPHA
 62
   255
100
AcDbVertex
100
AcDb2dVertex
 10
24.481881
 20
49.768713
 30
0.0
  0
VERTEX
  5
1021
100
AcDbEntity
  8
ALPHA
 62
   255
100
AcDbVertex
100
AcDb2dVertex
 10
24.544511
 20
49.638615
 30
0.0
  0
VERTEX
  5
1022
100
AcDbEntity
  8
ALPHA
 62
   255
100
AcDbVertex
100
AcDb2dVertex
 10
24.619003
 20
49.515906
 30
0.0
  0
VERTEX
  5
1023
100
AcDbEntity
  8
ALPHA
 62
   255
100
AcDbVertex
100
AcDb2dVertex
 10
24.704607
 20
49.401335
 30
0.0
  0
VERTEX
  5
1024
100
AcDbEntity
  8
ALPHA
 62
   255
100
AcDbVertex
100
AcDb2dVertex
 10
24.800574
 20
49.295648
 30
0.0
  0
VERTEX
  5
1025
100
AcDbEntity
  8
ALPHA
 62
   255
100
AcDbVertex
100
AcDb2dVertex
 10
24.906154
 20
49.199594
 30
0.0
  0
VERTEX
  5
1026
100
AcDbEntity
  8
ALPHA
 62
   255
100
AcDbVertex
100
AcDb2dVertex
 10
25.020596
 20
49.11392
 30
0.0
  0
VERTEX
  5
1027
100
AcDbEntity
  8
ALPHA
 62
   255
100
AcDbVertex
100
AcDb2dVertex
 10
25.143151
 20
49.039375
 30
0.0
  0
VERTEX
  5
1028
100
AcDbEntity
  8
ALPHA
 62
   255
100
AcDbVertex
100
AcDb2dVertex
 10
25.273069
 20
48.976707
 30
0.0
  0
VERTEX
  5
1029
100
AcDbEntity
  8
ALPHA
 62
   255
100
AcDbVertex
100
AcDb2dVertex
 10
25.4096
 20
48.926663
 30
0.0
  0
VERTEX
  5
102A
100
AcDbEntity
  8
ALPHA
 62
   255
100
AcDbVertex
100
AcDb2dVertex
 10
25.551994
 20
48.889992
 30
0.0
  0
VERTEX
  5
102B
100
AcDbEntity
  8
ALPHA
 62
   255
100
AcDbVertex
100
AcDb2dVertex
 10
25.699501
 20
48.86744
 30
0.0
  0
VERTEX
  5
102C
100
AcDbEntity
  8
ALPHA
 62
   255
100
AcDbVertex
100
AcDb2dVertex
 10
25.851371
 20
48.859757
 30
0.0
  0
SEQEND
  5
102D
100
AcDbEntity
  8
ALPHA
  0
POLYLINE
  5
102E
100
AcDbEntity
  8
ALPHA
 62
   255
100
AcDb3dPolyline
 66
     1
 10
0.0
 20
0.0
 30
0.0
 70
     8
  0
VERTEX
  5
102F
100
AcDbEntity
  8
ALPHA
 62
   255
100
AcDbVertex
100
AcDb3dPolylineVertex
 10
25.851371
 20
48.859757
 30
0.0
 70
    32
  0
VERTEX
  5
1030
100
AcDbEntity
  8
ALPHA
 62
   255
100
AcDbVertex
100
AcDb3dPolylineVertex
 10
25.851371
 20
48.859757
 30
0.0
 70
    32
  0
SEQEND
  5
1031
100
AcDbEntity
  8
ALPHA
  0
POLYLINE
  5
1032
100
AcDbEntity
  8
ALPHA
 62
   255
100
AcDb2dPolyline
 66
     1
 10
0.0
 20
0.0
 30
0.0
  0
VERTEX
  5
1033
100
AcDbEntity
  8
ALPHA
 62
   255
100
AcDbVertex
100
AcDb2dVertex
 10
42.468617
 20
74.465085
 30
0.0
  0
VERTEX
  5
1034
100
AcDbEntity
  8
ALPHA
 62
   255
100
AcDbVertex
100
AcDb2dVertex
 10
29.388623
 20
74.465085
 30
0.0
  0
SEQEND
  5
1035
100
AcDbEntity
  8
ALPHA
  0
POLYLINE
  5
1036
100
AcDbEntity
  8
ALPHA
 62
   255
100
AcDb2dPolyline
 66
     1
 10
0.0
 20
0.0
 30
0.0
  0
VERTEX
  5
1037
100
AcDbEntity
  8
ALPHA
 62
   255
100
AcDbVertex
100
AcDb2dVertex
 10
29.388623
 20
74.465085
 30
0.0
  0
VERTEX
  5
1038
100
AcDbEntity
  8
ALPHA
 62
   255
100
AcDbVertex
100
AcDb2dVertex
 10
29.388623
 20
73.291513
 30
0.0
  0
SEQEND
  5
1039
100
AcDbEntity
  8
ALPHA
  0
POLYLINE
  5
103A
100
AcDbEntity
  8
ALPHA
 62
   255
100
AcDb2dPolyline
 66
     1
 10
0.0
 20
0.0
 30
0.0
  0
VERTEX
  5
103B
100
AcDbEntity
  8
ALPHA
 62
   255
100
AcDbVertex
100
AcDb2dVertex
 10
42.468617
 20
73.291513
 30
0.0
  0
VERTEX
  5
103C
100
AcDbEntity
  8
ALPHA
 62
   255
100
AcDbVertex
100
AcDb2dVertex
 10
42.468617
 20
74.465085
 30
0.0
  0
SEQEND
  5
103D
100
AcDbEntity
  8
ALPHA
  0
POLYLINE
  5
103E
100
AcDbEntity
  8
ALPHA
 62
   255
100
AcDb2dPolyline
 66
     1
 10
0.0
 20
0.0
 30
0.0
  0
VERTEX
  5
103F
100
AcDbEntity
  8
ALPHA
 62
   255
100
AcDbVertex
100
AcDb2dVertex
 10
46.918475
 20
73.291513
 30
0.0
  0
VERTEX
  5
1040
100
AcDbEntity
  8
ALPHA
 62
   255
100
AcDbVertex
100
AcDb2dVertex
 10
47.020712
 20
73.28635
 30
0.0
  0
VERTEX
  5
1041
100
AcDbEntity
  8
ALPHA
 62
   255
100
AcDbVertex
100
AcDb2dVertex
 10
47.119997
 20
73.271198
 30
0.0
  0
VERTEX
  5
1042
100
AcDbEntity
  8
ALPHA
 62
   255
100
AcDbVertex
100
AcDb2dVertex
 10
47.215825
 20
73.246557
 30
0.0
  0
VERTEX
  5
1043
100
AcDbEntity
  8
ALPHA
 62
   255
100
AcDbVertex
100
AcDb2dVertex
 10
47.307695
 20
73.212932
 30
0.0
  0
VERTEX
  5
1044
100
AcDbEntity
  8
ALPHA
 62
   255
100
AcDbVertex
100
AcDb2dVertex
 10
47.395104
 20
73.170825
 30
0.0
  0
VERTEX
  5
1045
100
AcDbEntity
  8
ALPHA
 62
   255
100
AcDbVertex
100
AcDb2dVertex
 10
47.477549
 20
73.120738
 30
0.0
  0
VERTEX
  5
1046
100
AcDbEntity
  8
ALPHA
 62
   255
100
AcDbVertex
100
AcDb2dVertex
 10
47.554528
 20
73.063175
 30
0.0
  0
VERTEX
  5
1047
100
AcDbEntity
  8
ALPHA
 62
   255
100
AcDbVertex
100
AcDb2dVertex
 10
47.625537
 20
72.998637
 30
0.0
  0
VERTEX
  5
1048
100
AcDbEntity
  8
ALPHA
 62
   255
100
AcDbVertex
100
AcDb2dVertex
 10
47.690075
 20
72.927627
 30
0.0
  0
VERTEX
  5
1049
100
AcDbEntity
  8
ALPHA
 62
   255
100
AcDbVertex
100
AcDb2dVertex
 10
47.747639
 20
72.850648
 30
0.0
  0
VERTEX
  5
104A
100
AcDbEntity
  8
ALPHA
 62
   255
100
AcDbVertex
100
AcDb2dVertex
 10
47.797726
 20
72.768203
 30
0.0
  0
VERTEX
  5
104B
100
AcDbEntity
  8
ALPHA
 62
   255
100
AcDbVertex
100
AcDb2dVertex
 10
47.839833
 20
72.680794
 30
0.0
  0
VERTEX
  5
104C
100
AcDbEntity
  8
ALPHA
 62
   255
100
AcDbVertex
100
AcDb2dVertex
 10
47.873458
 20
72.588924
 30
0.0
  0
VERTEX
  5
104D
100
AcDbEntity
  8
ALPHA
 62
   255
100
AcDbVertex
100
AcDb2dVertex
 10
47.898098
 20
72.493096
 30
0.0
  0
VERTEX
  5
104E
100
AcDbEntity
  8
ALPHA
 62
   255
100
AcDbVertex
100
AcDb2dVertex
 10
47.913251
 20
72.393811
 30
0.0
  0
VERTEX
  5
104F
100
AcDbEntity
  8
ALPHA
 62
   255
100
AcDbVertex
100
AcDb2dVertex
 10
47.918414
 20
72.291574
 30
0.0
  0
SEQEND
  5
1050
100
AcDbEntity
  8
ALPHA
  0
POLYLINE
  5
1051
100
AcDbEntity
  8
ALPHA
 62
   255
100
AcDb2dPolyline
 66
     1
 10
0.0
 20
0.0
 30
0.0
  0
VERTEX
  5
1052
100
AcDbEntity
  8
ALPHA
 62
   255
100
AcDbVertex
100
AcDb2dVertex
 10
60.136445
 20
59.833075
 30
0.0
  0
VERTEX
  5
1053
100
AcDbEntity
  8
ALPHA
 62
   255
100
AcDbVertex
100
AcDb2dVertex
 10
60.136445
 20
72.453149
 30
0.0
  0
SEQEND
  5
1054
100
AcDbEntity
  8
ALPHA
  0
POLYLINE
  5
1055
100
AcDbEntity
  8
ALPHA
 62
   255
100
AcDb2dPolyline
 66
     1
 10
0.0
 20
0.0
 30
0.0
  0
VERTEX
  5
1056
100
AcDbEntity
  8
ALPHA
 62
   255
100
AcDbVertex
100
AcDb2dVertex
 10
56.00612
 20
72.453149
 30
0.0
  0
VERTEX
  5
1057
100
AcDbEntity
  8
ALPHA
 62
   255
100
AcDbVertex
100
AcDb2dVertex
 10
56.00612
 20
59.833075
 30
0.0
  0
SEQEND
  5
1058
100
AcDbEntity
  8
ALPHA
  0
POLYLINE
  5
1059
100
AcDbEntity
  8
ALPHA
 62
   255
100
AcDb2dPolyline
 66
     1
 10
0.0
 20
0.0
 30
0.0
  0
VERTEX
  5
105A
100
AcDbEntity
  8
ALPHA
 62
   255
100
AcDbVertex
100
AcDb2dVertex
 10
60.136445
 20
54.037735
 30
0.0
  0
VERTEX
  5
105B
100
AcDbEntity
  8
ALPHA
 62
   255
100
AcDbVertex
100
AcDb2dVertex
 10
60.136445
 20
59.833075
 30
0.0
  0
SEQEND
  5
105C
100
AcDbEntity
  8
ALPHA
  0
POLYLINE
  5
105D
100
AcDbEntity
  8
ALPHA
 62
   255
100
AcDb2dPolyline
 66
     1
 10
0.0
 20
0.0
 30
0.0
  0
VERTEX
  5
105E
100
AcDbEntity
  8
ALPHA
 62
   255
100
AcDbVertex
100
AcDb2dVertex
 10
56.694794
 20
56.332169
 30
0.0
  0
VERTEX
  5
105F
100
AcDbEntity
  8
ALPHA
 62
   255
100
AcDbVertex
100
AcDb2dVertex
 10
57.842011
 20
54.037735
 30
0.0
  0
SEQEND
  5
1060
100
AcDbEntity
  8
ALPHA
  0
POLYLINE
  5
1061
100
AcDbEntity
  8
ALPHA
 62
   255
100
AcDb2dPolyline
 66
     1
 10
0.0
 20
0.0
 30
0.0
  0
VERTEX
  5
1062
100
AcDbEntity
  8
ALPHA
 62
   255
100
AcDbVertex
100
AcDb2dVertex
 10
54.171606
 20
56.332169
 30
0.0
  0
VERTEX
  5
1063
100
AcDbEntity
  8
ALPHA
 62
   255
100
AcDbVertex
100
AcDb2dVertex
 10
56.694794
 20
56.332169
 30
0.0
  0
SEQEND
  5
1064
100
AcDbEntity
  8
ALPHA
  0
POLYLINE
  5
1065
100
AcDbEntity
  8
ALPHA
 62
   255
100
AcDb2dPolyline
 66
     1
 10
0.0
 20
0.0
 30
0.0
  0
VERTEX
  5
1066
100
AcDbEntity
  8
ALPHA
 62
   255
100
AcDbVertex
100
AcDb2dVertex
 10
57.842011
 20
54.037735
 30
0.0
  0
VERTEX
  5
1067
100
AcDbEntity
  8
ALPHA
 62
   255
100
AcDbVertex
100
AcDb2dVertex
 10
60.136445
 20
54.037735
 30
0.0
  0
SEQEND
  5
1068
100
AcDbEntity
  8
ALPHA
  0
POLYLINE
  5
1069
100
AcDbEntity
  8
ALPHA
 62
   255
100
AcDb2dPolyline
 66
     1
 10
0.0
 20
0.0
 30
0.0
  0
VERTEX
  5
106A
100
AcDbEntity
  8
ALPHA
 62
   255
100
AcDbVertex
100
AcDb2dVertex
 10
60.136445
 20
72.453149
 30
0.0
  0
VERTEX
  5
106B
100
AcDbEntity
  8
ALPHA
 62
   255
100
AcDbVertex
100
AcDb2dVertex
 10
56.00612
 20
72.453149
 30
0.0
  0
SEQEND
  5
106C
100
AcDbEntity
  8
ALPHA
  0
DIMENSION
  5
1079
100
AcDbEntity
  8
COTATION1
100
AcDbDimension
  2
*D7
 10
60.136445
 20
83.497871
 30
0.0
 11
30.136467
 21
85.747871
 31
0.0
 70
    32
  3
SC_STAND
100
AcDbAlignedDimension
 13
0.136489
 23
64.900811
 33
0.0
 14
60.136445
 24
72.453149
 34
0.0
100
AcDbRotatedDimension
  0
ENDSEC
  0
SECTION
  2
OBJECTS
  0
DICTIONARY
  5
F8
100
AcDbDictionary
  3
ACAD_GROUP
350
F9
  3
ACAD_MLINESTYLE
350
106
  3
ACDBVARIABLEDICTIONARY
350
143
  0
DICTIONARY
  5
F9
102
{ACAD_REACTORS
330
F8
102
}
100
AcDbDictionary
  0
DICTIONARY
  5
106
102
{ACAD_REACTORS
330
F8
102
}
100
AcDbDictionary
  3
STANDARD
350
107
  0
DICTIONARY
  5
143
102
{ACAD_REACTORS
330
F8
102
}
100
AcDbDictionary
  3
DIMADEC
350
144
  0
MLINESTYLE
  5
107
102
{ACAD_REACTORS
330
106
102
}
100
AcDbMlineStyle
  2
STANDARD
 70
     0
  3

 62
   256
 51
90.0
 52
90.0
 71
     2
 49
0.5
 62
   256
  6
BYLAYER
 49
-0.5
 62
   256
  6
BYLAYER
  0
DICTIONARYVAR
  5
144
102
{ACAD_REACTORS
330
143
102
}
100
DictionaryVariables
280
     0
  1
0
  0
ENDSEC
  0
EOF
