  0
SECTION
  2
HEADER
  9
$ACADVER
  1
AC1014
  9
$ACADMAINTVER
 70
     0
  9
$DWGCODEPAGE
  3
ANSI_1252
  9
$INSBASE
 10
-54.045488
 20
-64.381173
 30
0.0
  9
$EXTMIN
 10
81.296205
 20
127.375001
 30
0.0
  9
$EXTMAX
 10
120.185264
 20
173.997746
 30
0.0
  9
$LIMMIN
 10
0.0
 20
0.0
  9
$LIMMAX
 10
210.0
 20
297.0
  9
$ORTHOMODE
 70
     0
  9
$REGENMODE
 70
     1
  9
$FILLMODE
 70
     1
  9
$QTEXTMODE
 70
     0
  9
$MIRRTEXT
 70
     0
  9
$DRAGMODE
 70
     1
  9
$LTSCALE
 40
20.0
  9
$OSMODE
 70
     0
  9
$ATTMODE
 70
     1
  9
$TEXTSIZE
 40
2.5
  9
$TRACEWID
 40
0.05
  9
$TEXTSTYLE
  7
ROMANS
  9
$CLAYER
  8
COTATION1
  9
$CELTYPE
  6
BYLAYER
  9
$CECOLOR
 62
   256
  9
$CELTSCALE
 40
1.0
  9
$DELOBJ
 70
     1
  9
$DISPSILH
 70
     0
  9
$DIMSCALE
 40
1.0
  9
$DIMASZ
 40
3.0
  9
$DIMEXO
 40
0.0625
  9
$DIMDLI
 40
0.38
  9
$DIMRND
 40
0.01
  9
$DIMDLE
 40
0.0
  9
$DIMEXE
 40
0.18
  9
$DIMTP
 40
0.0
  9
$DIMTM
 40
0.0
  9
$DIMTXT
 40
2.5
  9
$DIMCEN
 40
0.09
  9
$DIMTSZ
 40
0.0
  9
$DIMTOL
 70
     0
  9
$DIMLIM
 70
     0
  9
$DIMTIH
 70
     0
  9
$DIMTOH
 70
     0
  9
$DIMSE1
 70
     0
  9
$DIMSE2
 70
     0
  9
$DIMTAD
 70
     1
  9
$DIMZIN
 70
    12
  9
$DIMBLK
  1

  9
$DIMASO
 70
     1
  9
$DIMSHO
 70
     1
  9
$DIMPOST
  1

  9
$DIMAPOST
  1

  9
$DIMALT
 70
     0
  9
$DIMALTD
 70
     2
  9
$DIMALTF
 40
25.4
  9
$DIMLFAC
 40
1.0
  9
$DIMTOFL
 70
     1
  9
$DIMTVP
 40
0.0
  9
$DIMTIX
 70
     0
  9
$DIMSOXD
 70
     0
  9
$DIMSAH
 70
     0
  9
$DIMBLK1
  1

  9
$DIMBLK2
  1

  9
$DIMSTYLE
  2
SC_STAND
  9
$DIMCLRD
 70
     0
  9
$DIMCLRE
 70
     0
  9
$DIMCLRT
 70
     0
  9
$DIMTFAC
 40
1.0
  9
$DIMGAP
 40
1.0
  9
$DIMJUST
 70
     0
  9
$DIMSD1
 70
     0
  9
$DIMSD2
 70
     0
  9
$DIMTOLJ
 70
     1
  9
$DIMTZIN
 70
    12
  9
$DIMALTZ
 70
    12
  9
$DIMALTTZ
 70
    12
  9
$DIMFIT
 70
     5
  9
$DIMUPT
 70
     0
  9
$DIMUNIT
 70
     2
  9
$DIMDEC
 70
     3
  9
$DIMTDEC
 70
     3
  9
$DIMALTU
 70
     2
  9
$DIMALTTD
 70
     2
  9
$DIMTXSTY
  7
ROMANS
  9
$DIMAUNIT
 70
     0
  9
$LUNITS
 70
     2
  9
$LUPREC
 70
     3
  9
$SKETCHINC
 40
0.1
  9
$FILLETRAD
 40
0.0625
  9
$AUNITS
 70
     0
  9
$AUPREC
 70
     0
  9
$MENU
  1
ACAD
  9
$ELEVATION
 40
0.0
  9
$PELEVATION
 40
0.0
  9
$THICKNESS
 40
0.0
  9
$LIMCHECK
 70
     0
  9
$BLIPMODE
 70
     1
  9
$CHAMFERA
 40
0.0
  9
$CHAMFERB
 40
0.0
  9
$CHAMFERC
 40
0.0
  9
$CHAMFERD
 40
0.0
  9
$SKPOLY
 70
     0
  9
$TDCREATE
 40
2450599.564722002
  9
$TDUPDATE
 40
2451387.883430555
  9
$TDINDWG
 40
0.0079659838
  9
$TDUSRTIMER
 40
0.0079659838
  9
$USRTIMER
 70
     1
  9
$ANGBASE
 50
0.0
  9
$ANGDIR
 70
     0
  9
$PDMODE
 70
     0
  9
$PDSIZE
 40
0.0
  9
$PLINEWID
 40
0.0
  9
$COORDS
 70
     2
  9
$SPLFRAME
 70
     0
  9
$SPLINETYPE
 70
     6
  9
$SPLINESEGS
 70
     8
  9
$ATTDIA
 70
     0
  9
$ATTREQ
 70
     1
  9
$HANDLING
 70
     1
  9
$HANDSEED
  5
3CA
  9
$SURFTAB1
 70
     6
  9
$SURFTAB2
 70
     6
  9
$SURFTYPE
 70
     6
  9
$SURFU
 70
     6
  9
$SURFV
 70
     6
  9
$UCSNAME
  2

  9
$UCSORG
 10
0.0
 20
0.0
 30
0.0
  9
$UCSXDIR
 10
1.0
 20
0.0
 30
0.0
  9
$UCSYDIR
 10
0.0
 20
1.0
 30
0.0
  9
$PUCSNAME
  2

  9
$PUCSORG
 10
0.0
 20
0.0
 30
0.0
  9
$PUCSXDIR
 10
1.0
 20
0.0
 30
0.0
  9
$PUCSYDIR
 10
0.0
 20
1.0
 30
0.0
  9
$USERI1
 70
     0
  9
$USERI2
 70
     0
  9
$USERI3
 70
     0
  9
$USERI4
 70
     0
  9
$USERI5
 70
     0
  9
$USERR1
 40
0.0
  9
$USERR2
 40
0.0
  9
$USERR3
 40
0.0
  9
$USERR4
 40
0.0
  9
$USERR5
 40
0.0
  9
$WORLDVIEW
 70
     1
  9
$SHADEDGE
 70
     3
  9
$SHADEDIF
 70
    70
  9
$TILEMODE
 70
     1
  9
$MAXACTVP
 70
    16
  9
$PINSBASE
 10
0.0
 20
0.0
 30
0.0
  9
$PLIMCHECK
 70
     0
  9
$PEXTMIN
 10
1.000000E+20
 20
1.000000E+20
 30
1.000000E+20
  9
$PEXTMAX
 10
-1.000000E+20
 20
-1.000000E+20
 30
-1.000000E+20
  9
$PLIMMIN
 10
0.0
 20
0.0
  9
$PLIMMAX
 10
12.0
 20
9.0
  9
$UNITMODE
 70
     0
  9
$VISRETAIN
 70
     0
  9
$PLINEGEN
 70
     0
  9
$PSLTSCALE
 70
     1
  9
$TREEDEPTH
 70
  3020
  9
$PICKSTYLE
 70
     1
  9
$CMLSTYLE
  2
STANDARD
  9
$CMLJUST
 70
     0
  9
$CMLSCALE
 40
1.0
  9
$PROXYGRAPHICS
 70
     1
  9
$MEASUREMENT
 70
     0
  0
ENDSEC
  0
SECTION
  2
CLASSES
  0
CLASS
  1
DICTIONARYVAR
  2
AcDbDictionaryVar
  3
"AutoCAD"
 90
        0
280
     0
281
     0
  0
CLASS
  1
LWPOLYLINE
  2
AcDbPolyline
  3
"AutoCAD"
 90
        0
280
     0
281
     1
  0
ENDSEC
  0
SECTION
  2
TABLES
  0
TABLE
  2
VPORT
  5
36F
100
AcDbSymbolTable
 70
     1
  0
VPORT
  5
3C5
100
AcDbSymbolTableRecord
100
AcDbViewportTableRecord
  2
*ACTIVE
 70
     0
 10
0.0
 20
0.0
 11
1.0
 21
1.0
 12
283.244621
 22
169.500718
 13
0.0
 23
0.0
 14
1.0
 24
1.0
 15
10.0
 25
10.0
 16
0.0
 26
0.0
 36
1.0
 17
0.0
 27
0.0
 37
0.0
 40
339.001436
 41
1.671053
 42
50.0
 43
0.0
 44
0.0
 50
0.0
 51
0.0
 71
     0
 72
   100
 73
     1
 74
     1
 75
     0
 76
     1
 77
     0
 78
     0
  0
ENDTAB
  0
TABLE
  2
LTYPE
  5
36C
100
AcDbSymbolTable
 70
    24
  0
LTYPE
  5
378
100
AcDbSymbolTableRecord
100
AcDbLinetypeTableRecord
  2
BYBLOCK
 70
     0
  3

 72
    65
 73
     0
 40
0.0
  0
LTYPE
  5
379
100
AcDbSymbolTableRecord
100
AcDbLinetypeTableRecord
  2
BYLAYER
 70
     0
  3

 72
    65
 73
     0
 40
0.0
  0
LTYPE
  5
37A
100
AcDbSymbolTableRecord
100
AcDbLinetypeTableRecord
  2
CONTINUOUS
 70
     0
  3
Solid line
 72
    65
 73
     0
 40
0.0
  0
LTYPE
  5
38B
100
AcDbSymbolTableRecord
100
AcDbLinetypeTableRecord
  2
CADRA_SOLID
 70
     0
  3
Cadra_solid
 72
    65
 73
     0
 40
0.0
  0
LTYPE
  5
38C
100
AcDbSymbolTableRecord
100
AcDbLinetypeTableRecord
  2
AXES2
 70
     0
  3
___ _ ___ _ ___ _ ___ _ ___ _ ___ _ ___ _ ___ _
 72
    65
 73
     4
 40
1.125
 49
0.75
 74
     0
 49
-0.125
 74
     0
 49
0.125
 74
     0
 49
-0.125
 74
     0
  0
LTYPE
  5
38D
100
AcDbSymbolTableRecord
100
AcDbLinetypeTableRecord
  2
AXES
 70
     0
  3
____ _ ____ _ ____ _ ____ _ ____ _ ____ _ ____ 
 72
    65
 73
     4
 40
2.0
 49
1.25
 74
     0
 49
-0.25
 74
     0
 49
0.25
 74
     0
 49
-0.25
 74
     0
  0
LTYPE
  5
38E
100
AcDbSymbolTableRecord
100
AcDbLinetypeTableRecord
  2
AXESX2
 70
     0
  3
________  __  ________  __  ________  __  _____
 72
    65
 73
     4
 40
4.0
 49
2.5
 74
     0
 49
-0.5
 74
     0
 49
0.5
 74
     0
 49
-0.5
 74
     0
  0
LTYPE
  5
38F
100
AcDbSymbolTableRecord
100
AcDbLinetypeTableRecord
  2
TIRETPT
 70
     0
  3
__ . __ . __ . __ . __ . __ . __ . __ . __ . __
 72
    65
 73
     4
 40
1.0
 49
0.5
 74
     0
 49
-0.25
 74
     0
 49
0.0
 74
     0
 49
-0.25
 74
     0
  0
LTYPE
  5
390
100
AcDbSymbolTableRecord
100
AcDbLinetypeTableRecord
  2
TIRETPT2
 70
     0
  3
_._._._._._._._._._._._._._._._._._._._._._._._
 72
    65
 73
     4
 40
0.5
 49
0.25
 74
     0
 49
-0.125
 74
     0
 49
0.0
 74
     0
 49
-0.125
 74
     0
  0
LTYPE
  5
391
100
AcDbSymbolTableRecord
100
AcDbLinetypeTableRecord
  2
TIRETPTX2
 70
     0
  3
____  .  ____  .  ____  .  ____  .  ____  .  __
 72
    65
 73
     4
 40
2.0
 49
1.0
 74
     0
 49
-0.5
 74
     0
 49
0.0
 74
     0
 49
-0.5
 74
     0
  0
LTYPE
  5
392
100
AcDbSymbolTableRecord
100
AcDbLinetypeTableRecord
  2
DISCONTINU
 70
     0
  3
__ __ __ __ __ __ __ __ __ __ __ __ __ __ __ __
 72
    65
 73
     2
 40
0.75
 49
0.5
 74
     0
 49
-0.25
 74
     0
  0
LTYPE
  5
393
100
AcDbSymbolTableRecord
100
AcDbLinetypeTableRecord
  2
DISCONTINU2
 70
     0
  3
_ _ _ _ _ _ _ _ _ _ _ _ _ _ _ _ _ _ _ _ _ _ _ _
 72
    65
 73
     2
 40
0.375
 49
0.25
 74
     0
 49
-0.125
 74
     0
  0
LTYPE
  5
394
100
AcDbSymbolTableRecord
100
AcDbLinetypeTableRecord
  2
DISCONTINUX2
 70
     0
  3
____  ____  ____  ____  ____  ____  ____  ____ 
 72
    65
 73
     2
 40
1.5
 49
1.0
 74
     0
 49
-0.5
 74
     0
  0
LTYPE
  5
395
100
AcDbSymbolTableRecord
100
AcDbLinetypeTableRecord
  2
DIVISE
 70
     0
  3
____ . . ____ . . ____ . . ____ . . ____ . . __
 72
    65
 73
     6
 40
1.25
 49
0.5
 74
     0
 49
-0.25
 74
     0
 49
0.0
 74
     0
 49
-0.25
 74
     0
 49
0.0
 74
     0
 49
-0.25
 74
     0
  0
LTYPE
  5
396
100
AcDbSymbolTableRecord
100
AcDbLinetypeTableRecord
  2
DIVISE2
 70
     0
  3
__..__..__..__..__..__..__..__..__..__..__..__.
 72
    65
 73
     6
 40
0.625
 49
0.25
 74
     0
 49
-0.125
 74
     0
 49
0.0
 74
     0
 49
-0.125
 74
     0
 49
0.0
 74
     0
 49
-0.125
 74
     0
  0
LTYPE
  5
397
100
AcDbSymbolTableRecord
100
AcDbLinetypeTableRecord
  2
DIVISEX2
 70
     0
  3
________  .  .  ________  .  .  ________  .  . 
 72
    65
 73
     6
 40
2.5
 49
1.0
 74
     0
 49
-0.5
 74
     0
 49
0.0
 74
     0
 49
-0.5
 74
     0
 49
0.0
 74
     0
 49
-0.5
 74
     0
  0
LTYPE
  5
398
100
AcDbSymbolTableRecord
100
AcDbLinetypeTableRecord
  2
POINTILLE
 70
     0
  3
. . . . . . . . . . . . . . . . . . . . . . . .
 72
    65
 73
     2
 40
0.25
 49
0.0
 74
     0
 49
-0.25
 74
     0
  0
LTYPE
  5
399
100
AcDbSymbolTableRecord
100
AcDbLinetypeTableRecord
  2
POINTILLE2
 70
     0
  3
...............................................
 72
    65
 73
     2
 40
0.125
 49
0.0
 74
     0
 49
-0.125
 74
     0
  0
LTYPE
  5
39A
100
AcDbSymbolTableRecord
100
AcDbLinetypeTableRecord
  2
POINTILLEX2
 70
     0
  3
.  .  .  .  .  .  .  .  .  .  .  .  .  .  .  . 
 72
    65
 73
     2
 40
0.5
 49
0.0
 74
     0
 49
-0.5
 74
     0
  0
LTYPE
  5
39B
100
AcDbSymbolTableRecord
100
AcDbLinetypeTableRecord
  2
CACHE
 70
     0
  3
__ __ __ __ __ __ __ __ __ __ __ __ __ __ __ __
 72
    65
 73
     2
 40
0.375
 49
0.25
 74
     0
 49
-0.125
 74
     0
  0
LTYPE
  5
39C
100
AcDbSymbolTableRecord
100
AcDbLinetypeTableRecord
  2
CACHE2
 70
     0
  3
_ _ _ _ _ _ _ _ _ _ _ _ _ _ _ _ _ _ _ _ _ _ _ _
 72
    65
 73
     2
 40
0.1875
 49
0.125
 74
     0
 49
-0.0625
 74
     0
  0
LTYPE
  5
39D
100
AcDbSymbolTableRecord
100
AcDbLinetypeTableRecord
  2
CACHEX2
 70
     0
  3
____ ____ ____ ____ ____ ____ ____ ____ ____ __
 72
    65
 73
     2
 40
0.75
 49
0.5
 74
     0
 49
-0.25
 74
     0
  0
LTYPE
  5
39E
100
AcDbSymbolTableRecord
100
AcDbLinetypeTableRecord
  2
FANTOME
 70
     0
  3
______  __  __  ______  __  __  ______  __  __ 
 72
    65
 73
     6
 40
2.5
 49
1.25
 74
     0
 49
-0.25
 74
     0
 49
0.25
 74
     0
 49
-0.25
 74
     0
 49
0.25
 74
     0
 49
-0.25
 74
     0
  0
LTYPE
  5
39F
100
AcDbSymbolTableRecord
100
AcDbLinetypeTableRecord
  2
FANTOME2
 70
     0
  3
___ _ _ ___ _ _ ___ _ _ ___ _ _ ___ _ _ ___ _ _
 72
    65
 73
     6
 40
1.25
 49
0.625
 74
     0
 49
-0.125
 74
     0
 49
0.125
 74
     0
 49
-0.125
 74
     0
 49
0.125
 74
     0
 49
-0.125
 74
     0
  0
LTYPE
  5
3A0
100
AcDbSymbolTableRecord
100
AcDbLinetypeTableRecord
  2
FANTOMEX2
 70
     0
  3
____________    ____    ____    ____________   
 72
    65
 73
     6
 40
5.0
 49
2.5
 74
     0
 49
-0.5
 74
     0
 49
0.5
 74
     0
 49
-0.5
 74
     0
 49
0.5
 74
     0
 49
-0.5
 74
     0
  0
LTYPE
  5
3A1
100
AcDbSymbolTableRecord
100
AcDbLinetypeTableRecord
  2
0
 70
     0
  3
MEDUSA PEN 0
 72
    65
 73
     0
 40
0.0
  0
ENDTAB
  0
TABLE
  2
LAYER
  5
369
100
AcDbSymbolTable
 70
    21
  0
LAYER
  5
375
100
AcDbSymbolTableRecord
100
AcDbLayerTableRecord
  2
0
 70
     0
 62
   102
  6
CADRA_SOLID
  0
LAYER
  5
3A8
100
AcDbSymbolTableRecord
100
AcDbLayerTableRecord
  2
AXE
 70
     0
 62
    80
  6
AXES2
  0
LAYER
  5
3A9
100
AcDbSymbolTableRecord
100
AcDbLayerTableRecord
  2
ALPHA
 70
     0
 62
   255
  6
CONTINUOUS
  0
LAYER
  5
3AA
100
AcDbSymbolTableRecord
100
AcDbLayerTableRecord
  2
DEFPOINTS
 70
     0
 62
     7
  6
CONTINUOUS
  0
LAYER
  5
3AB
100
AcDbSymbolTableRecord
100
AcDbLayerTableRecord
  2
CONSTRUCTION
 70
     0
 62
     6
  6
CONTINUOUS
  0
LAYER
  5
3AC
100
AcDbSymbolTableRecord
100
AcDbLayerTableRecord
  2
COTATION1
 70
     0
 62
     2
  6
CONTINUOUS
  0
LAYER
  5
3AD
100
AcDbSymbolTableRecord
100
AcDbLayerTableRecord
  2
HACHURES
 70
     0
 62
     9
  6
CONTINUOUS
  0
LAYER
  5
3AE
100
AcDbSymbolTableRecord
100
AcDbLayerTableRecord
  2
FMULT
 70
     0
 62
     6
  6
CONTINUOUS
  0
LAYER
  5
3AF
100
AcDbSymbolTableRecord
100
AcDbLayerTableRecord
  2
TEXTE
 70
     0
 62
   131
  6
CONTINUOUS
  0
LAYER
  5
3B0
100
AcDbSymbolTableRecord
100
AcDbLayerTableRecord
  2
FDP_CARTOUCHE
 70
     0
 62
     4
  6
CONTINUOUS
  0
LAYER
  5
3B1
100
AcDbSymbolTableRecord
100
AcDbLayerTableRecord
  2
FDP_TEXTES
 70
     0
 62
     5
  6
CONTINUOUS
  0
LAYER
  5
3B2
100
AcDbSymbolTableRecord
100
AcDbLayerTableRecord
  2
FDP_LOGO_MG
 70
     0
 62
    30
  6
CONTINUOUS
  0
LAYER
  5
3B3
100
AcDbSymbolTableRecord
100
AcDbLayerTableRecord
  2
FDP_LOGO_SCH
 70
     0
 62
     3
  6
CONTINUOUS
  0
LAYER
  5
3B4
100
AcDbSymbolTableRecord
100
AcDbLayerTableRecord
  2
FDP_FDP
 70
     0
 62
     5
  6
CONTINUOUS
  0
LAYER
  5
3B5
100
AcDbSymbolTableRecord
100
AcDbLayerTableRecord
  2
COTATION2
 70
     0
 62
     2
  6
CONTINUOUS
  0
LAYER
  5
3B6
100
AcDbSymbolTableRecord
100
AcDbLayerTableRecord
  2
COTATION3
 70
     0
 62
     2
  6
CONTINUOUS
  0
LAYER
  5
3B7
100
AcDbSymbolTableRecord
100
AcDbLayerTableRecord
  2
COTATION4
 70
     0
 62
     2
  6
CONTINUOUS
  0
LAYER
  5
3B8
100
AcDbSymbolTableRecord
100
AcDbLayerTableRecord
  2
ASHADE
 70
     0
 62
     7
  6
CONTINUOUS
  0
LAYER
  5
3B9
100
AcDbSymbolTableRecord
100
AcDbLayerTableRecord
  2
POINTILLE_COURT
 70
     0
 62
    40
  6
CACHE2
  0
LAYER
  5
3BA
100
AcDbSymbolTableRecord
100
AcDbLayerTableRecord
  2
POINTILLE_MOYEN
 70
     0
 62
   140
  6
CACHE
  0
LAYER
  5
3BB
100
AcDbSymbolTableRecord
100
AcDbLayerTableRecord
  2
POINTILLE_LONG
 70
     0
 62
   240
  6
CACHEX2
  0
ENDTAB
  0
TABLE
  2
STYLE
  5
36A
100
AcDbSymbolTable
 70
     4
  0
STYLE
  5
376
100
AcDbSymbolTableRecord
100
AcDbTextStyleTableRecord
  2
STANDARD
 70
     0
 40
0.0
 41
1.0
 50
0.0
 71
     0
 42
5.0
  3
txt
  4

  0
STYLE
  5
388
100
AcDbSymbolTableRecord
100
AcDbTextStyleTableRecord
  2
ROMANS
 70
     0
 40
0.0
 41
1.0
 50
0.0
 71
     0
 42
2.9
  3
romans.shx
  4

  0
STYLE
  5
389
100
AcDbSymbolTableRecord
100
AcDbTextStyleTableRecord
  2
INFOCAR
 70
     0
 40
0.0
 41
1.34
 50
0.0
 71
     0
 42
2.0
  3
ROMANS.SHX
  4

  0
STYLE
  5
38A
100
AcDbSymbolTableRecord
100
AcDbTextStyleTableRecord
  2
CARTOUCHE
 70
     0
 40
0.0
 41
1.0
 50
0.0
 71
     0
 42
0.2
  3
ROMANS.SHX
  4

  0
ENDTAB
  0
TABLE
  2
VIEW
  5
36D
100
AcDbSymbolTable
 70
     0
  0
ENDTAB
  0
TABLE
  2
UCS
  5
36E
100
AcDbSymbolTable
 70
     0
  0
ENDTAB
  0
TABLE
  2
APPID
  5
370
100
AcDbSymbolTable
 70
     3
  0
APPID
  5
377
100
AcDbSymbolTableRecord
100
AcDbRegAppTableRecord
  2
ACAD
 70
     0
  0
APPID
  5
3A4
100
AcDbSymbolTableRecord
100
AcDbRegAppTableRecord
  2
AVE_RENDER
 70
     0
  0
APPID
  5
3A5
100
AcDbSymbolTableRecord
100
AcDbRegAppTableRecord
  2
AVE_MATERIAL
 70
     0
  0
ENDTAB
  0
TABLE
  2
DIMSTYLE
  5
371
100
AcDbSymbolTable
 70
     2
  0
DIMSTYLE
105
3A6
100
AcDbSymbolTableRecord
100
AcDbDimStyleTableRecord
  2
STANDARD
 70
     0
  3

  4

  5

  6

  7

 40
1.0
 41
0.18
 42
0.0625
 43
0.38
 44
0.18
 45
0.0
 46
0.0
 47
0.0
 48
0.0
140
0.18
141
0.09
142
0.0
143
25.4
144
1.0
145
0.0
146
1.0
147
0.09
 71
     0
 72
     0
 73
     1
 74
     1
 75
     0
 76
     0
 77
     0
 78
     0
170
     0
171
     2
172
     0
173
     0
174
     0
175
     0
176
     0
177
     0
178
     0
270
     2
271
     3
272
     3
273
     2
274
     2
340
388
275
     0
280
     0
281
     0
282
     0
283
     1
284
    12
285
    12
286
    12
287
     5
288
     0
  0
DIMSTYLE
105
3A7
102
{ACAD_REACTORS
330
357
102
}
100
AcDbSymbolTableRecord
100
AcDbDimStyleTableRecord
  2
SC_STAND
 70
     0
  3

  4

  5

  6

  7

 40
1.0
 41
3.0
 42
0.0625
 43
0.38
 44
0.18
 45
0.01
 46
0.0
 47
0.0
 48
0.0
140
2.5
141
0.09
142
0.0
143
25.4
144
1.0
145
0.0
146
1.0
147
1.0
 71
     0
 72
     0
 73
     0
 74
     0
 75
     0
 76
     0
 77
     1
 78
    12
170
     0
171
     2
172
     1
173
     0
174
     0
175
     0
176
     0
177
     0
178
     0
270
     2
271
     3
272
     3
273
     2
274
     2
340
388
275
     0
280
     0
281
     0
282
     0
283
     1
284
    12
285
    12
286
    12
287
     5
288
     0
  0
ENDTAB
  0
TABLE
  2
BLOCK_RECORD
  5
368
100
AcDbSymbolTable
 70
     5
  0
BLOCK_RECORD
  5
37E
100
AcDbSymbolTableRecord
100
AcDbBlockTableRecord
  2
*MODEL_SPACE
  0
BLOCK_RECORD
  5
37B
100
AcDbSymbolTableRecord
100
AcDbBlockTableRecord
  2
*PAPER_SPACE
  0
BLOCK_RECORD
  5
383
100
AcDbSymbolTableRecord
100
AcDbBlockTableRecord
  2
AVE_RENDER
  0
BLOCK_RECORD
  5
384
100
AcDbSymbolTableRecord
100
AcDbBlockTableRecord
  2
AVE_GLOBAL
  0
BLOCK_RECORD
  5
385
100
AcDbSymbolTableRecord
100
AcDbBlockTableRecord
  2
SCH_ISO
  0
BLOCK_RECORD
  5
387
100
AcDbSymbolTableRecord
100
AcDbBlockTableRecord
  2
*D4
  0
ENDTAB
  0
ENDSEC
  0
SECTION
  2
BLOCKS
  0
BLOCK
  5
3BE
100
AcDbEntity
  8
0
100
AcDbBlockBegin
  2
*MODEL_SPACE
 70
     0
 10
0.0
 20
0.0
 30
0.0
  3
*MODEL_SPACE
  1

  0
ENDBLK
  5
3BF
100
AcDbEntity
  8
0
100
AcDbBlockEnd
  0
BLOCK
  5
3BC
100
AcDbEntity
 67
     1
  8
0
100
AcDbBlockBegin
  2
*PAPER_SPACE
 70
     0
 10
0.0
 20
0.0
 30
0.0
  3
*PAPER_SPACE
  1

  0
ENDBLK
  5
3BD
100
AcDbEntity
 67
     1
  8
0
100
AcDbBlockEnd
  0
BLOCK
  5
30C
100
AcDbEntity
  8
0
100
AcDbBlockBegin
  2
AVE_RENDER
 70
     0
 10
0.0
 20
0.0
 30
0.0
  3
AVE_RENDER
  1
AVE_RENDER
  0
ENDBLK
  5
30D
100
AcDbEntity
  8
0
100
AcDbBlockEnd
  0
BLOCK
  5
30F
100
AcDbEntity
  8
0
100
AcDbBlockBegin
  2
AVE_GLOBAL
 70
     0
 10
0.0
 20
0.0
 30
0.0
  3
AVE_GLOBAL
  1
AVE_GLOBAL
  0
ENDBLK
  5
310
100
AcDbEntity
  8
0
100
AcDbBlockEnd
  0
BLOCK
  5
347
100
AcDbEntity
  8
0
100
AcDbBlockBegin
  2
SCH_ISO
 70
     0
 10
0.0
 20
0.0
 30
0.0
  3
SCH_ISO
  1

  0
INSERT
  5
33E
100
AcDbEntity
  8
ASHADE
 62
     1
100
AcDbBlockReference
  2
AVE_RENDER
 10
0.0
 20
0.0
 30
0.0
1001
AVE_RENDER
1002
{
1070
     6
1000
Pref
1070
    50
1070
    20
1070
     1
1070
     0
1000

1070
    10
1070
     1
1070
    30
1040
25.4
1070
     1
1040
0.3
1040
0.7
1040
0.0
1040
10.0
1010
-1.0
1020
-1.0
1030
-1.0
1040
0.3
1070
    49
1070
     0
1070
     0
1010
1.0
1020
1.0
1030
1.0
1040
45.0
1070
     1
1070
     0
1000
WCS
1040
0.0
1002
}
  0
INSERT
  5
33F
100
AcDbEntity
  8
ASHADE
 62
     3
100
AcDbBlockReference
  2
AVE_RENDER
 10
0.0
 20
0.0
 30
0.0
1001
AVE_RENDER
1002
{
1070
     0
1000
Full Opt
1070
     0
1070
     1
1070
     1
1070
     1
1070
     0
1070
     0
1070
     0
1070
     1
1070
     1
1040
0.0001
1040
0.0001
1002
}
  0
INSERT
  5
340
100
AcDbEntity
  8
ASHADE
 62
     4
100
AcDbBlockReference
  2
AVE_RENDER
 10
0.0
 20
0.0
 30
0.0
1001
AVE_RENDER
1002
{
1070
     0
1000
Quick Opt
1070
     0
1070
     1
1070
     1
1070
     1
1070
     0
1070
     0
1070
     1
1002
}
  0
INSERT
  5
341
100
AcDbEntity
  8
ASHADE
 62
     5
100
AcDbBlockReference
  2
AVE_RENDER
 10
0.0
 20
0.0
 30
0.0
1001
AVE_RENDER
1002
{
1070
     1
1000
Scanl Opt
1070
     2
1070
     0
1070
     2
1040
2.0
1040
4.0
1070
     0
1070
     1
1070
     0
1040
0.03
1002
}
  0
INSERT
  5
342
100
AcDbEntity
  8
ASHADE
 62
     6
100
AcDbBlockReference
  2
AVE_RENDER
 10
0.0
 20
0.0
 30
0.0
1001
AVE_RENDER
1002
{
1070
     2
1000
Raytr Opt
1070
     2
1070
     0
1070
     2
1040
2.0
1040
4.0
1070
     0
1070
     1
1070
     1
1040
0.03
1070
     3
1040
0.03
1002
}
  0
INSERT
  5
343
100
AcDbEntity
  8
ASHADE
 62
     7
100
AcDbBlockReference
  2
AVE_RENDER
 10
0.0
 20
0.0
 30
0.0
1001
AVE_RENDER
1002
{
1070
     0
1000
RFile Opt
1070
     5
1070
   640
1070
   480
1070
 10000
1070
     3
1070
    32
1070
    24
1070
     0
1070
     0
1070
     0
1070
     1
1070
     0
1070
     0
1070
     0
1002
}
  0
INSERT
  5
344
100
AcDbEntity
  8
ASHADE
 62
     8
100
AcDbBlockReference
  2
AVE_RENDER
 10
0.0
 20
0.0
 30
0.0
1001
AVE_RENDER
1002
{
1070
     0
1000
Fog Opt
1070
     0
1070
     0
1040
0.0
1040
1.0
1040
0.0
1040
1.0
1010
0.5
1020
0.5
1030
0.5
1002
}
  0
INSERT
  5
345
100
AcDbEntity
  8
ASHADE
 62
     9
100
AcDbBlockReference
  2
AVE_RENDER
 10
0.0
 20
0.0
 30
0.0
1001
AVE_RENDER
1002
{
1070
     0
1000
BG Opt
1070
     0
1070
     1
1010
0.0
1020
0.0
1030
0.0
1010
1.0
1020
0.0
1030
0.0
1010
0.0
1020
1.0
1030
0.0
1010
0.0
1020
0.0
1030
1.0
1040
0.5
1040
0.33
1040
0.0
1000

1070
     1
1000

1070
     1
1070
     1
1040
1.0
1040
1.0
1040
0.0
1040
0.0
1070
     0
1002
}
  0
INSERT
  5
346
100
AcDbEntity
  8
ASHADE
 62
     1
100
AcDbBlockReference
  2
AVE_GLOBAL
 10
0.0
 20
0.0
 30
0.0
1001
AVE_MATERIAL
1002
{
1000
*GLOBAL*
1000
1
1000
Finition globale.
1002
{
1002
}
1002
{
1070
    63
1002
{
1002
{
1010
-1.0
1020
-1.0
1030
-1.0
1002
}
1040
0.1
1000

1040
0.0
1002
{
1002
}
1040
0.0
1002
{
1002
}
1040
0.0
1002
}
1002
{
1002
{
1010
-1.0
1020
-1.0
1030
-1.0
1002
}
1040
0.7
1000

1040
0.0
1002
{
1002
}
1040
0.0
1002
{
1002
}
1040
0.0
1002
}
1002
{
1002
{
1010
-1.0
1020
-1.0
1030
-1.0
1002
}
1040
0.2
1000

1040
0.0
1002
{
1002
}
1040
0.0
1002
{
1002
}
1040
0.0
1002
}
1002
{
1070
     0
1002
{
1070
     1
1002
{
1040
1.0
1040
1.0
1000

1040
0.0
1002
{
1002
}
1040
0.0
1002
{
1002
}
1040
0.0
1002
}
1002
}
1040
1.0
1040
0.0
1040
0.0
1002
}
1002
{
1040
1.0
1040
1.0
1000

1040
0.0
1002
{
1002
}
1040
0.0
1002
{
1002
}
1040
0.0
1002
}
1002
{
1040
0.5
1040
1.0
1000

1040
0.0
1002
{
1002
}
1040
0.0
1002
{
1002
}
1040
0.0
1002
}
1002
{
1070
     0
1040
0.0
1002
{
1002
}
1040
1.0
1002
{
1002
}
1040
0.0
1002
}
1002
{
1040
0.0
1002
{
1002
{
1010
0.0
1020
0.0
1030
0.0
1002
}
1040
1.0
1000

1040
0.0
1002
{
1002
}
1040
0.0
1002
{
1002
}
1040
0.0
1002
}
1002
}
1002
{
1002
{
1070
     1
1002
{
1040
0.0
1040
1.0
1000

1040
0.0
1002
{
1002
}
1040
0.0
1002
{
1002
}
1040
0.0
1002
}
1002
}
1040
0.0
1002
{
1002
}
1010
1.0
1020
0.0
1030
0.0
1010
0.0
1020
1.0
1030
0.0
1010
0.0
1020
0.0
1030
1.0
1070
     0
1002
}
1002
{
1002
{
1040
1.0
1040
1.0
1002
{
1070
     1
1002
{
1040
1.0
1040
1.0
1000

1040
0.0
1002
{
1002
}
1040
0.0
1002
{
1002
}
1040
0.0
1002
}
1002
}
1002
}
1070
     0
1040
0.0
1002
{
1002
}
1002
}
1002
{
1002
}
1002
}
1002
{
1071
        3
1070
     3
1070
     0
1002
{
1070
     2
1070
     0
1070
     0
1040
0.0
1002
}
1070
     0
1070
     2
1002
{
1002
}
1002
}
1002
{
1040
8030.0
1040
190.300003
1040
0.305
1040
228.0
1040
545.0
1040
14.0
1040
17.4
1040
0.456
1002
}
1002
}
  0
ENDBLK
  5
348
100
AcDbEntity
  8
0
100
AcDbBlockEnd
  0
BLOCK
  5
35D
100
AcDbEntity
  8
0
100
AcDbBlockBegin
  2
*D4
 70
     1
 10
0.0
 20
0.0
 30
0.0
  3
*D4
  1

  0
LINE
  5
35E
100
AcDbEntity
  8
0
  6
BYBLOCK
 62
     0
100
AcDbLine
 10
81.343828
 20
144.335255
 30
0.0
 11
81.343828
 21
127.695001
 31
0.0
  0
LINE
  5
35F
100
AcDbEntity
  8
0
  6
BYBLOCK
 62
     0
100
AcDbLine
 10
120.135965
 20
144.335255
 30
0.0
 11
120.135965
 21
127.695001
 31
0.0
  0
LINE
  5
360
100
AcDbEntity
  8
0
  6
BYBLOCK
 62
     0
100
AcDbLine
 10
84.343828
 20
127.875001
 30
0.0
 11
117.135965
 21
127.875001
 31
0.0
  0
SOLID
  5
361
100
AcDbEntity
  8
0
  6
BYBLOCK
 62
     0
100
AcDbTrace
 10
84.343828
 20
128.375001
 30
0.0
 11
84.343828
 21
127.375001
 31
0.0
 12
81.343828
 22
127.875001
 32
0.0
 13
81.343828
 23
127.875001
 33
0.0
  0
SOLID
  5
362
100
AcDbEntity
  8
0
  6
BYBLOCK
 62
     0
100
AcDbTrace
 10
117.135965
 20
128.375001
 30
0.0
 11
117.135965
 21
127.375001
 31
0.0
 12
120.135965
 22
127.875001
 32
0.0
 13
120.135965
 23
127.875001
 33
0.0
  0
TEXT
  5
363
100
AcDbEntity
  8
0
  6
BYBLOCK
 62
     0
100
AcDbText
 10
95.442278
 20
129.125001
 30
0.0
 40
2.5
  1
38.79
  7
ROMANS
 72
     1
 11
100.739897
 21
130.375001
 31
0.0
100
AcDbText
 73
     2
  0
POINT
  5
364
100
AcDbEntity
  8
DEFPOINTS
  6
BYBLOCK
 62
     0
100
AcDbPoint
 10
81.343828
 20
144.397755
 30
0.0
  0
POINT
  5
365
100
AcDbEntity
  8
DEFPOINTS
  6
BYBLOCK
 62
     0
100
AcDbPoint
 10
120.135965
 20
144.397755
 30
0.0
  0
POINT
  5
366
100
AcDbEntity
  8
DEFPOINTS
  6
BYBLOCK
 62
     0
100
AcDbPoint
 10
120.135965
 20
127.875001
 30
0.0
  0
ENDBLK
  5
367
100
AcDbEntity
  8
0
100
AcDbBlockEnd
  0
ENDSEC
  0
SECTION
  2
ENTITIES
  0
LINE
  5
1E
100
AcDbEntity
  8
ALPHA
100
AcDbLine
 10
82.881487
 20
141.947819
 30
0.0
 11
84.077532
 21
141.947819
 31
0.0
  0
LINE
  5
20
100
AcDbEntity
  8
ALPHA
100
AcDbLine
 10
81.343828
 20
144.397755
 30
0.0
 11
82.838762
 21
144.397755
 31
0.0
  0
LINE
  5
21
100
AcDbEntity
  8
ALPHA
100
AcDbLine
 10
81.343828
 20
170.997792
 30
0.0
 11
82.838762
 21
170.997792
 31
0.0
  0
LINE
  5
22
100
AcDbEntity
  8
ALPHA
100
AcDbLine
 10
91.77083
 20
144.197804
 30
0.0
 11
92.716814
 21
144.197804
 31
0.0
  0
LINE
  5
23
100
AcDbEntity
  8
ALPHA
100
AcDbLine
 10
108.970903
 20
171.197743
 30
0.0
 11
109.916826
 21
171.197743
 31
0.0
  0
LINE
  5
24
100
AcDbEntity
  8
ALPHA
100
AcDbLine
 10
100.370867
 20
171.197743
 30
0.0
 11
101.316789
 21
171.197743
 31
0.0
  0
LINE
  5
25
100
AcDbEntity
  8
ALPHA
100
AcDbLine
 10
91.770891
 20
171.197743
 30
0.0
 11
92.716814
 21
171.197743
 31
0.0
  0
LINE
  5
26
100
AcDbEntity
  8
ALPHA
100
AcDbLine
 10
100.370867
 20
144.197804
 30
0.0
 11
101.316789
 21
144.197804
 31
0.0
  0
LINE
  5
27
100
AcDbEntity
  8
ALPHA
100
AcDbLine
 10
108.970903
 20
144.197804
 30
0.0
 11
109.916826
 21
144.197804
 31
0.0
  0
LINE
  5
28
100
AcDbEntity
  8
ALPHA
100
AcDbLine
 10
84.077516
 20
141.947788
 30
0.0
 11
84.140352
 21
145.547779
 31
0.0
  0
LINE
  5
29
100
AcDbEntity
  8
ALPHA
100
AcDbLine
 10
108.967455
 20
144.392979
 30
0.0
 11
109.019731
 21
141.39777
 31
0.0
  0
LINE
  5
2A
100
AcDbEntity
  8
ALPHA
100
AcDbLine
 10
109.867937
 20
141.39774
 30
0.0
 11
109.919725
 21
144.364521
 31
0.0
  0
LINE
  5
2B
100
AcDbEntity
  8
ALPHA
100
AcDbLine
 10
91.766741
 20
144.434086
 30
0.0
 11
91.819734
 21
141.39774
 31
0.0
  0
LINE
  5
2C
100
AcDbEntity
  8
ALPHA
100
AcDbLine
 10
92.667925
 20
141.397755
 30
0.0
 11
92.720705
 21
144.421665
 31
0.0
  0
LINE
  5
2D
100
AcDbEntity
  8
ALPHA
100
AcDbLine
 10
100.367571
 20
144.386387
 30
0.0
 11
100.419741
 21
141.397755
 31
0.0
  0
LINE
  5
2E
100
AcDbEntity
  8
ALPHA
100
AcDbLine
 10
101.267931
 20
141.397755
 30
0.0
 11
101.320406
 21
144.404286
 31
0.0
  0
LINE
  5
2F
100
AcDbEntity
  8
ALPHA
100
AcDbLine
 10
84.140337
 20
169.847721
 30
0.0
 11
84.077501
 21
173.447666
 31
0.0
  0
LINE
  5
30
100
AcDbEntity
  8
ALPHA
100
AcDbLine
 10
109.019762
 20
173.997715
 30
0.0
 11
108.967821
 21
171.021961
 31
0.0
  0
LINE
  5
31
100
AcDbEntity
  8
ALPHA
100
AcDbLine
 10
109.919878
 20
171.021351
 30
0.0
 11
109.867906
 21
173.9977
 31
0.0
  0
LINE
  5
32
100
AcDbEntity
  8
ALPHA
100
AcDbLine
 10
91.81975
 20
173.99773
 30
0.0
 11
91.768175
 21
171.043308
 31
0.0
  0
LINE
  5
33
100
AcDbEntity
  8
ALPHA
100
AcDbLine
 10
92.719835
 20
171.023258
 30
0.0
 11
92.667909
 21
173.9977
 31
0.0
  0
LINE
  5
34
100
AcDbEntity
  8
ALPHA
100
AcDbLine
 10
100.419756
 20
173.997715
 30
0.0
 11
100.368273
 21
171.048893
 31
0.0
  0
LINE
  5
35
100
AcDbEntity
  8
ALPHA
100
AcDbLine
 10
101.318895
 20
171.07732
 30
0.0
 11
101.2679
 21
173.9977
 31
0.0
  0
LINE
  5
36
100
AcDbEntity
  8
ALPHA
100
AcDbLine
 10
101.5179
 20
173.99773
 30
0.0
 11
100.169756
 21
173.99773
 31
0.0
  0
LINE
  5
37
100
AcDbEntity
  8
ALPHA
100
AcDbLine
 10
91.81978
 20
173.99773
 30
0.0
 11
92.667925
 21
173.99773
 31
0.0
  0
LINE
  5
38
100
AcDbEntity
  8
ALPHA
100
AcDbLine
 10
109.019792
 20
173.99773
 30
0.0
 11
109.867937
 21
173.99773
 31
0.0
  0
LINE
  5
39
100
AcDbEntity
  8
ALPHA
100
AcDbLine
 10
91.81978
 20
141.39777
 30
0.0
 11
92.667925
 21
141.39777
 31
0.0
  0
LINE
  5
3A
100
AcDbEntity
  8
ALPHA
100
AcDbLine
 10
100.169756
 20
141.39777
 30
0.0
 11
101.5179
 21
141.39777
 31
0.0
  0
LINE
  5
3B
100
AcDbEntity
  8
ALPHA
100
AcDbLine
 10
109.019731
 20
141.39777
 30
0.0
 11
109.867937
 21
141.39777
 31
0.0
  0
LINE
  5
3C
100
AcDbEntity
  8
ALPHA
100
AcDbLine
 10
82.881456
 20
141.947834
 30
0.0
 11
82.838701
 21
144.39777
 31
0.0
  0
LINE
  5
3D
100
AcDbEntity
  8
ALPHA
100
AcDbLine
 10
84.140398
 20
145.547779
 30
0.0
 11
81.343828
 21
145.547779
 31
0.0
  0
LINE
  5
3E
100
AcDbEntity
  8
ALPHA
100
AcDbLine
 10
82.881487
 20
173.447682
 30
0.0
 11
84.077532
 21
173.447682
 31
0.0
  0
LINE
  5
3F
100
AcDbEntity
  8
ALPHA
100
AcDbLine
 10
82.881471
 20
173.447636
 30
0.0
 11
82.838701
 21
170.9977
 31
0.0
  0
LINE
  5
40
100
AcDbEntity
  8
ALPHA
100
AcDbLine
 10
84.140337
 20
169.847706
 30
0.0
 11
81.343828
 21
169.847706
 31
0.0
  0
LINE
  5
41
100
AcDbEntity
  8
ALPHA
100
AcDbLine
 10
91.772722
 20
171.302723
 30
0.0
 11
92.714922
 21
171.302723
 31
0.0
  0
LINE
  5
42
100
AcDbEntity
  8
ALPHA
100
AcDbLine
 10
81.343828
 20
169.952748
 30
0.0
 11
84.143877
 21
169.952748
 31
0.0
  0
LINE
  5
43
100
AcDbEntity
  8
ALPHA
100
AcDbLine
 10
81.343828
 20
145.442829
 30
0.0
 11
84.143877
 21
145.442829
 31
0.0
  0
LINE
  5
44
100
AcDbEntity
  8
ALPHA
100
AcDbLine
 10
91.772661
 20
144.092762
 30
0.0
 11
92.714983
 21
144.092762
 31
0.0
  0
LINE
  5
45
100
AcDbEntity
  8
ALPHA
100
AcDbLine
 10
100.372698
 20
144.092762
 30
0.0
 11
101.314958
 21
144.092762
 31
0.0
  0
LINE
  5
46
100
AcDbEntity
  8
ALPHA
100
AcDbLine
 10
108.972673
 20
144.092762
 30
0.0
 11
109.914995
 21
144.092762
 31
0.0
  0
LINE
  5
47
100
AcDbEntity
  8
ALPHA
100
AcDbLine
 10
108.972734
 20
171.302723
 30
0.0
 11
109.914934
 21
171.302723
 31
0.0
  0
LINE
  5
48
100
AcDbEntity
  8
ALPHA
100
AcDbLine
 10
100.372698
 20
171.302723
 30
0.0
 11
101.314958
 21
171.302723
 31
0.0
  0
LINE
  5
49
100
AcDbEntity
  8
ALPHA
100
AcDbLine
 10
101.568804
 20
171.081684
 30
0.0
 11
101.517931
 21
173.997746
 31
0.0
  0
LINE
  5
4A
100
AcDbEntity
  8
ALPHA
100
AcDbLine
 10
100.118364
 20
171.053242
 30
0.0
 11
100.169786
 21
173.99773
 31
0.0
  0
LINE
  5
4B
100
AcDbEntity
  8
ALPHA
100
AcDbLine
 10
101.56975
 20
144.367771
 30
0.0
 11
101.517916
 21
141.397785
 31
0.0
  0
LINE
  5
4C
100
AcDbEntity
  8
ALPHA
100
AcDbLine
 10
100.117616
 20
144.386219
 30
0.0
 11
100.169786
 21
141.397785
 31
0.0
  0
LINE
  5
4D
100
AcDbEntity
  8
ALPHA
100
AcDbLine
 10
100.12874
 20
171.648793
 30
0.0
 11
100.37874
 21
171.648793
 31
0.0
  0
LINE
  5
4E
100
AcDbEntity
  8
ALPHA
100
AcDbLine
 10
101.308916
 20
171.648793
 30
0.0
 11
101.558916
 21
171.648793
 31
0.0
  0
LINE
  5
4F
100
AcDbEntity
  8
ALPHA
100
AcDbLine
 10
100.12874
 20
143.746693
 30
0.0
 11
100.37874
 21
143.746693
 31
0.0
  0
LINE
  5
50
100
AcDbEntity
  8
ALPHA
100
AcDbLine
 10
101.308916
 20
143.746693
 30
0.0
 11
101.558916
 21
143.746693
 31
0.0
  0
LINE
  5
51
100
AcDbEntity
  8
ALPHA
100
AcDbLine
 10
118.806177
 20
141.947819
 30
0.0
 11
117.610132
 21
141.947819
 31
0.0
  0
LINE
  5
52
100
AcDbEntity
  8
ALPHA
100
AcDbLine
 10
120.135965
 20
144.397755
 30
0.0
 11
118.848902
 21
144.397755
 31
0.0
  0
LINE
  5
53
100
AcDbEntity
  8
ALPHA
100
AcDbLine
 10
120.135965
 20
170.997792
 30
0.0
 11
118.848902
 21
170.997792
 31
0.0
  0
LINE
  5
54
100
AcDbEntity
  8
ALPHA
100
AcDbLine
 10
117.610163
 20
141.947788
 30
0.0
 11
117.547327
 21
145.547795
 31
0.0
  0
LINE
  5
55
100
AcDbEntity
  8
ALPHA
100
AcDbLine
 10
117.547335
 20
169.847721
 30
0.0
 11
117.61017
 21
173.447666
 31
0.0
  0
LINE
  5
56
100
AcDbEntity
  8
ALPHA
100
AcDbLine
 10
118.806215
 20
141.94785
 30
0.0
 11
118.848978
 21
144.397785
 31
0.0
  0
LINE
  5
57
100
AcDbEntity
  8
ALPHA
100
AcDbLine
 10
117.547266
 20
145.547779
 30
0.0
 11
120.135965
 21
145.547779
 31
0.0
  0
LINE
  5
58
100
AcDbEntity
  8
ALPHA
100
AcDbLine
 10
118.806177
 20
173.447682
 30
0.0
 11
117.610132
 21
173.447682
 31
0.0
  0
LINE
  5
59
100
AcDbEntity
  8
ALPHA
100
AcDbLine
 10
118.806208
 20
173.447651
 30
0.0
 11
118.84897
 21
170.9977
 31
0.0
  0
LINE
  5
5A
100
AcDbEntity
  8
ALPHA
100
AcDbLine
 10
117.547327
 20
169.847706
 30
0.0
 11
120.135965
 21
169.847706
 31
0.0
  0
LINE
  5
5B
100
AcDbEntity
  8
ALPHA
100
AcDbLine
 10
120.135965
 20
169.952748
 30
0.0
 11
117.543787
 21
169.952748
 31
0.0
  0
LINE
  5
5C
100
AcDbEntity
  8
ALPHA
100
AcDbLine
 10
120.135965
 20
145.442829
 30
0.0
 11
117.543787
 21
145.442829
 31
0.0
  0
LINE
  5
5D
100
AcDbEntity
  8
ALPHA
100
AcDbLine
 10
120.135965
 20
170.997792
 30
0.0
 11
120.135965
 21
144.397755
 31
0.0
  0
LINE
  5
5E
100
AcDbEntity
  8
ALPHA
100
AcDbLine
 10
83.649217
 20
145.897755
 30
0.0
 11
83.649217
 21
145.592366
 31
0.0
  0
LINE
  5
5F
100
AcDbEntity
  8
ALPHA
100
AcDbLine
 10
84.150499
 20
144.047779
 30
0.0
 11
85.248339
 21
144.047779
 31
0.0
  0
LINE
  5
60
100
AcDbEntity
  8
ALPHA
100
AcDbLine
 10
85.248323
 20
144.047749
 30
0.0
 11
85.598314
 21
144.39774
 31
0.0
  0
LINE
  5
61
100
AcDbEntity
  8
ALPHA
100
AcDbLine
 10
84.248339
 20
146.091664
 30
0.0
 11
84.248339
 21
144.047779
 31
0.0
  0
LINE
  5
62
100
AcDbEntity
  8
ALPHA
100
AcDbLine
 10
118.038446
 20
145.897755
 30
0.0
 11
118.038446
 21
145.591694
 31
0.0
  0
LINE
  5
63
100
AcDbEntity
  8
ALPHA
100
AcDbLine
 10
116.089365
 20
144.397755
 30
0.0
 11
85.598314
 21
144.397755
 31
0.0
  0
LINE
  5
64
100
AcDbEntity
  8
ALPHA
100
AcDbLine
 10
117.488809
 20
144.047779
 30
0.0
 11
116.43934
 21
144.047779
 31
0.0
  0
LINE
  5
65
100
AcDbEntity
  8
ALPHA
100
AcDbLine
 10
116.439333
 20
144.047764
 30
0.0
 11
116.089365
 21
144.397724
 31
0.0
  0
LINE
  5
66
100
AcDbEntity
  8
ALPHA
100
AcDbLine
 10
117.439325
 20
146.091664
 30
0.0
 11
117.439325
 21
144.047779
 31
0.0
  0
LINE
  5
67
100
AcDbEntity
  8
ALPHA
100
AcDbLine
 10
81.343859
 20
144.397755
 30
0.0
 11
81.343859
 21
170.997792
 31
0.0
  0
LINE
  5
68
100
AcDbEntity
  8
ALPHA
100
AcDbLine
 10
83.649217
 20
169.49773
 30
0.0
 11
83.649217
 21
169.719105
 31
0.0
  0
LINE
  5
69
100
AcDbEntity
  8
ALPHA
100
AcDbLine
 10
84.15938
 20
171.347706
 30
0.0
 11
85.248339
 21
171.347706
 31
0.0
  0
LINE
  5
6A
100
AcDbEntity
  8
ALPHA
100
AcDbLine
 10
85.2484
 20
171.347676
 30
0.0
 11
85.598375
 21
170.9977
 31
0.0
  0
LINE
  5
6B
100
AcDbEntity
  8
ALPHA
100
AcDbLine
 10
120.143839
 20
146.234028
 30
0.0
 11
120.143839
 21
169.161457
 31
0.0
  0
LINE
  5
6C
100
AcDbEntity
  8
ALPHA
100
AcDbLine
 10
118.038446
 20
169.49773
 30
0.0
 11
118.038446
 21
169.776112
 31
0.0
  0
LINE
  5
6D
100
AcDbEntity
  8
ALPHA
100
AcDbLine
 10
116.089365
 20
170.99773
 30
0.0
 11
85.598314
 21
170.99773
 31
0.0
  0
LINE
  5
6E
100
AcDbEntity
  8
ALPHA
100
AcDbLine
 10
117.504724
 20
171.347706
 30
0.0
 11
116.43934
 21
171.347706
 31
0.0
  0
LINE
  5
6F
100
AcDbEntity
  8
ALPHA
100
AcDbLine
 10
116.439356
 20
171.347721
 30
0.0
 11
116.089388
 21
170.997761
 31
0.0
  0
LINE
  5
70
100
AcDbEntity
  8
ALPHA
100
AcDbLine
 10
117.439325
 20
169.303822
 30
0.0
 11
117.439325
 21
171.347706
 31
0.0
  0
LINE
  5
71
100
AcDbEntity
  8
ALPHA
100
AcDbLine
 10
118.543833
 20
158.647755
 30
0.0
 11
118.543833
 21
156.74773
 31
0.0
  0
LINE
  5
72
100
AcDbEntity
  8
ALPHA
100
AcDbLine
 10
113.143823
 20
158.647755
 30
0.0
 11
113.143823
 21
156.74773
 31
0.0
  0
LINE
  5
73
100
AcDbEntity
  8
ALPHA
100
AcDbLine
 10
113.143823
 20
156.74773
 30
0.0
 11
118.543833
 21
156.74773
 31
0.0
  0
LINE
  5
74
100
AcDbEntity
  8
ALPHA
100
AcDbLine
 10
113.143823
 20
158.647755
 30
0.0
 11
118.543833
 21
158.647755
 31
0.0
  0
LINE
  5
75
100
AcDbEntity
  8
ALPHA
100
AcDbLine
 10
110.643785
 20
163.879078
 30
0.0
 11
110.643785
 21
165.46648
 31
0.0
  0
LINE
  5
76
100
AcDbEntity
  8
ALPHA
100
AcDbLine
 10
116.843805
 20
163.879078
 30
0.0
 11
116.843805
 21
165.46648
 31
0.0
  0
ARC
  5
77
100
AcDbEntity
  8
ALPHA
100
AcDbCircle
 10
113.743799
 20
164.672779
 30
0.0
 40
3.2
100
AcDbArc
 50
14.361624
 51
165.638371
  0
ARC
  5
78
100
AcDbEntity
  8
ALPHA
100
AcDbCircle
 10
113.743799
 20
164.672779
 30
0.0
 40
3.2
100
AcDbArc
 50
194.361625
 51
345.63839
  0
LINE
  5
79
100
AcDbEntity
  8
ALPHA
100
AcDbLine
 10
84.843859
 20
163.879078
 30
0.0
 11
84.843859
 21
165.46648
 31
0.0
  0
LINE
  5
7A
100
AcDbEntity
  8
ALPHA
100
AcDbLine
 10
91.043871
 20
163.879078
 30
0.0
 11
91.043871
 21
165.46648
 31
0.0
  0
ARC
  5
7B
100
AcDbEntity
  8
ALPHA
100
AcDbCircle
 10
87.943865
 20
164.672779
 30
0.0
 40
3.2
100
AcDbArc
 50
14.361624
 51
165.638371
  0
ARC
  5
7C
100
AcDbEntity
  8
ALPHA
100
AcDbCircle
 10
87.943865
 20
164.672779
 30
0.0
 40
3.2
100
AcDbArc
 50
194.361625
 51
248.387943
  0
LINE
  5
7D
100
AcDbEntity
  8
ALPHA
100
AcDbLine
 10
84.843859
 20
149.929005
 30
0.0
 11
84.843859
 21
151.516407
 31
0.0
  0
LINE
  5
7E
100
AcDbEntity
  8
ALPHA
100
AcDbLine
 10
91.043871
 20
149.929005
 30
0.0
 11
91.043871
 21
151.516407
 31
0.0
  0
ARC
  5
7F
100
AcDbEntity
  8
ALPHA
100
AcDbCircle
 10
87.943865
 20
150.722706
 30
0.0
 40
3.2
100
AcDbArc
 50
14.361624
 51
68.387952
  0
ARC
  5
80
100
AcDbEntity
  8
ALPHA
100
AcDbCircle
 10
87.943865
 20
150.722706
 30
0.0
 40
3.2
100
AcDbArc
 50
194.361625
 51
345.63839
  0
LINE
  5
81
100
AcDbEntity
  8
ALPHA
100
AcDbLine
 10
110.643785
 20
149.929005
 30
0.0
 11
110.643785
 21
151.516407
 31
0.0
  0
LINE
  5
82
100
AcDbEntity
  8
ALPHA
100
AcDbLine
 10
116.843805
 20
149.929005
 30
0.0
 11
116.843805
 21
151.516407
 31
0.0
  0
ARC
  5
83
100
AcDbEntity
  8
ALPHA
100
AcDbCircle
 10
113.743799
 20
150.722706
 30
0.0
 40
3.2
100
AcDbArc
 50
14.361624
 51
165.638371
  0
ARC
  5
84
100
AcDbEntity
  8
ALPHA
100
AcDbCircle
 10
113.743799
 20
150.722706
 30
0.0
 40
3.2
100
AcDbArc
 50
194.361625
 51
345.63839
  0
LINE
  5
85
100
AcDbEntity
  8
ALPHA
100
AcDbLine
 10
81.573839
 20
146.091664
 30
0.0
 11
84.248339
 21
146.091664
 31
0.0
  0
LINE
  5
86
100
AcDbEntity
  8
ALPHA
100
AcDbLine
 10
81.543871
 20
146.034016
 30
0.0
 11
83.045702
 21
146.034016
 31
0.0
  0
LINE
  5
87
100
AcDbEntity
  8
ALPHA
100
AcDbLine
 10
83.048326
 20
146.034016
 30
0.0
 11
83.048326
 21
145.897755
 31
0.0
  0
ARC
  5
88
100
AcDbEntity
  8
ALPHA
100
AcDbCircle
 10
81.573839
 20
146.321675
 30
0.0
 40
0.23
100
AcDbArc
 50
180.000032
 51
270.000028
  0
ARC
  5
89
100
AcDbEntity
  8
ALPHA
100
AcDbCircle
 10
81.543871
 20
146.234028
 30
0.0
 40
0.2
100
AcDbArc
 50
180.000032
 51
270.000028
  0
LINE
  5
8A
100
AcDbEntity
  8
ALPHA
100
AcDbLine
 10
83.048326
 20
145.897755
 30
0.0
 11
83.649217
 21
145.897755
 31
0.0
  0
ARC
  5
8B
100
AcDbEntity
  8
ALPHA
100
AcDbCircle
 10
84.228197
 20
142.177342
 30
0.0
 40
3.765213
100
AcDbArc
 50
89.693498
 51
98.845514
  0
LINE
  5
8C
100
AcDbEntity
  8
ALPHA
100
AcDbLine
 10
84.248339
 20
169.303822
 30
0.0
 11
84.248339
 21
171.347706
 31
0.0
  0
LINE
  5
8D
100
AcDbEntity
  8
ALPHA
100
AcDbLine
 10
81.573839
 20
169.303822
 30
0.0
 11
84.248339
 21
169.303822
 31
0.0
  0
LINE
  5
8E
100
AcDbEntity
  8
ALPHA
100
AcDbLine
 10
81.543871
 20
169.36147
 30
0.0
 11
83.045702
 21
169.36147
 31
0.0
  0
LINE
  5
8F
100
AcDbEntity
  8
ALPHA
100
AcDbLine
 10
83.048326
 20
169.36147
 30
0.0
 11
83.048326
 21
169.49773
 31
0.0
  0
ARC
  5
90
100
AcDbEntity
  8
ALPHA
100
AcDbCircle
 10
81.573839
 20
169.073811
 30
0.0
 40
0.23
100
AcDbArc
 50
89.999982
 51
179.999964
  0
ARC
  5
91
100
AcDbEntity
  8
ALPHA
100
AcDbCircle
 10
81.543871
 20
169.161457
 30
0.0
 40
0.2
100
AcDbArc
 50
89.999982
 51
179.999964
  0
LINE
  5
92
100
AcDbEntity
  8
ALPHA
100
AcDbLine
 10
83.048326
 20
169.49773
 30
0.0
 11
83.649217
 21
169.49773
 31
0.0
  0
ARC
  5
93
100
AcDbEntity
  8
ALPHA
100
AcDbCircle
 10
84.228197
 20
173.218159
 30
0.0
 40
3.765213
100
AcDbArc
 50
261.154496
 51
270.306512
  0
LINE
  5
94
100
AcDbEntity
  8
ALPHA
100
AcDbLine
 10
119.943842
 20
146.091664
 30
0.0
 11
117.439325
 21
146.091664
 31
0.0
  0
LINE
  5
95
100
AcDbEntity
  8
ALPHA
100
AcDbLine
 10
119.943842
 20
146.034016
 30
0.0
 11
118.641962
 21
146.034016
 31
0.0
  0
LINE
  5
96
100
AcDbEntity
  8
ALPHA
100
AcDbLine
 10
118.639337
 20
146.034016
 30
0.0
 11
118.639337
 21
145.897755
 31
0.0
  0
LINE
  5
97
100
AcDbEntity
  8
ALPHA
100
AcDbLine
 10
118.639337
 20
145.897755
 30
0.0
 11
118.038446
 21
145.897755
 31
0.0
  0
ARC
  5
98
100
AcDbEntity
  8
ALPHA
100
AcDbCircle
 10
117.459467
 20
142.177342
 30
0.0
 40
3.765213
100
AcDbArc
 50
81.154505
 51
90.306521
  0
LINE
  5
99
100
AcDbEntity
  8
ALPHA
100
AcDbLine
 10
119.943842
 20
169.303822
 30
0.0
 11
117.439325
 21
169.303822
 31
0.0
  0
LINE
  5
9A
100
AcDbEntity
  8
ALPHA
100
AcDbLine
 10
119.943842
 20
169.36147
 30
0.0
 11
118.641962
 21
169.36147
 31
0.0
  0
LINE
  5
9B
100
AcDbEntity
  8
ALPHA
100
AcDbLine
 10
118.639337
 20
169.36147
 30
0.0
 11
118.639337
 21
169.49773
 31
0.0
  0
LINE
  5
9C
100
AcDbEntity
  8
ALPHA
100
AcDbLine
 10
118.639337
 20
169.49773
 30
0.0
 11
118.038446
 21
169.49773
 31
0.0
  0
ARC
  5
9D
100
AcDbEntity
  8
ALPHA
100
AcDbCircle
 10
117.459467
 20
173.218159
 30
0.0
 40
3.765213
100
AcDbArc
 50
269.693489
 51
278.845505
  0
ARC
  5
9E
100
AcDbEntity
  8
ALPHA
100
AcDbCircle
 10
119.943842
 20
169.161457
 30
0.0
 40
0.2
100
AcDbArc
 50
0.0
 51
89.999982
  0
ARC
  5
9F
100
AcDbEntity
  8
ALPHA
100
AcDbCircle
 10
119.943842
 20
169.10381
 30
0.0
 40
0.2
100
AcDbArc
 50
0.0
 51
89.999982
  0
ARC
  5
A0
100
AcDbEntity
  8
ALPHA
100
AcDbCircle
 10
119.943842
 20
146.291676
 30
0.0
 40
0.2
100
AcDbArc
 50
270.000028
 51
0.00001
  0
ARC
  5
A1
100
AcDbEntity
  8
ALPHA
100
AcDbCircle
 10
119.943842
 20
146.234028
 30
0.0
 40
0.2
100
AcDbArc
 50
270.000028
 51
0.00001
  0
LINE
  5
A2
100
AcDbEntity
  8
ALPHA
100
AcDbLine
 10
82.343859
 20
161.697743
 30
0.0
 11
99.343859
 21
161.697743
 31
0.0
  0
LINE
  5
A3
100
AcDbEntity
  8
ALPHA
100
AcDbLine
 10
82.343859
 20
153.697743
 30
0.0
 11
99.343859
 21
153.697743
 31
0.0
  0
LINE
  5
A4
100
AcDbEntity
  8
ALPHA
100
AcDbLine
 10
82.343859
 20
161.697743
 30
0.0
 11
82.343859
 21
153.697743
 31
0.0
  0
LINE
  5
A5
100
AcDbEntity
  8
ALPHA
100
AcDbLine
 10
99.343859
 20
161.697743
 30
0.0
 11
99.343859
 21
153.697743
 31
0.0
  0
ARC
  5
A6
100
AcDbEntity
  8
ALPHA
100
AcDbCircle
 10
87.943865
 20
164.672779
 30
0.0
 40
3.2
100
AcDbArc
 50
291.612058
 51
345.63839
  0
ARC
  5
A7
100
AcDbEntity
  8
ALPHA
100
AcDbCircle
 10
87.943865
 20
150.722706
 30
0.0
 40
3.2
100
AcDbArc
 50
111.612067
 51
165.638371
  0
LINE
  5
A8
100
AcDbEntity
  8
ALPHA
100
AcDbLine
 10
116.543833
 20
158.447743
 30
0.0
 11
118.043833
 21
158.447743
 31
0.0
  0
LINE
  5
A9
100
AcDbEntity
  8
ALPHA
100
AcDbLine
 10
116.543833
 20
156.947743
 30
0.0
 11
118.043833
 21
156.947743
 31
0.0
  0
LINE
  5
AA
100
AcDbEntity
  8
ALPHA
100
AcDbLine
 10
118.043833
 20
158.447743
 30
0.0
 11
118.043833
 21
156.947743
 31
0.0
  0
LINE
  5
AB
100
AcDbEntity
  8
ALPHA
100
AcDbLine
 10
116.543833
 20
158.447743
 30
0.0
 11
116.543833
 21
156.947743
 31
0.0
  0
ARC
  5
AC
100
AcDbEntity
  8
ALPHA
100
AcDbCircle
 10
87.942797
 20
166.529331
 30
0.0
 40
18.606903
100
AcDbArc
 50
264.828045
 51
275.179606
  0
LINE
  5
AD
100
AcDbEntity
  8
AXE
100
AcDbLine
 10
87.943865
 20
153.697743
 30
0.0
 11
87.943865
 21
147.522709
 31
0.0
  0
LINE
  5
B0
100
AcDbEntity
  8
ALPHA
100
AcDbLine
 10
88.443849
 20
150.101277
 30
0.0
 11
88.288866
 21
150.157261
 31
0.0
  0
LINE
  5
B1
100
AcDbEntity
  8
ALPHA
100
AcDbLine
 10
87.443865
 20
150.101322
 30
0.0
 11
87.598863
 21
150.157322
 31
0.0
  0
LINE
  5
B2
100
AcDbEntity
  8
ALPHA
100
AcDbLine
 10
88.44388
 20
152.443547
 30
0.0
 11
88.288866
 21
152.387547
 31
0.0
  0
LINE
  5
B3
100
AcDbEntity
  8
ALPHA
100
AcDbLine
 10
87.443865
 20
152.443501
 30
0.0
 11
87.598863
 21
152.387501
 31
0.0
  0
LINE
  5
B4
100
AcDbEntity
  8
ALPHA
100
AcDbLine
 10
89.058992
 20
150.927418
 30
0.0
 11
89.111132
 21
150.78307
 31
0.0
  0
LINE
  5
B5
100
AcDbEntity
  8
ALPHA
100
AcDbLine
 10
89.111132
 20
151.761753
 30
0.0
 11
89.058977
 21
151.617405
 31
0.0
  0
LINE
  5
B6
100
AcDbEntity
  8
ALPHA
100
AcDbLine
 10
86.828722
 20
150.927372
 30
0.0
 11
86.776583
 21
150.783009
 31
0.0
  0
LINE
  5
B7
100
AcDbEntity
  8
ALPHA
100
AcDbLine
 10
86.776598
 20
151.761784
 30
0.0
 11
86.828752
 21
151.61742
 31
0.0
  0
LINE
  5
B8
100
AcDbEntity
  8
ALPHA
100
AcDbLine
 10
88.474199
 20
150.214085
 30
0.0
 11
88.618578
 21
150.597813
 31
0.0
  0
LINE
  5
B9
100
AcDbEntity
  8
ALPHA
100
AcDbLine
 10
88.474199
 20
152.330784
 30
0.0
 11
88.618547
 21
151.947102
 31
0.0
  0
LINE
  5
BA
100
AcDbEntity
  8
ALPHA
100
AcDbLine
 10
89.111132
 20
150.78307
 30
0.0
 11
88.618563
 21
150.597737
 31
0.0
  0
LINE
  5
BB
100
AcDbEntity
  8
ALPHA
100
AcDbLine
 10
89.111132
 20
151.761784
 30
0.0
 11
88.618547
 21
151.947117
 31
0.0
  0
LINE
  5
BC
100
AcDbEntity
  8
ALPHA
100
AcDbLine
 10
90.203325
 20
150.927449
 30
0.0
 11
89.111132
 21
150.783085
 31
0.0
  0
LINE
  5
BD
100
AcDbEntity
  8
ALPHA
100
AcDbLine
 10
89.111132
 20
151.761784
 30
0.0
 11
90.203325
 21
151.617436
 31
0.0
  0
LINE
  5
BE
100
AcDbEntity
  8
ALPHA
100
AcDbLine
 10
87.41353
 20
150.21407
 30
0.0
 11
87.269182
 21
150.597737
 31
0.0
  0
LINE
  5
BF
100
AcDbEntity
  8
ALPHA
100
AcDbLine
 10
87.4135
 20
152.330754
 30
0.0
 11
87.269182
 21
151.947193
 31
0.0
  0
LINE
  5
C0
100
AcDbEntity
  8
ALPHA
100
AcDbLine
 10
86.776598
 20
150.783055
 30
0.0
 11
87.269182
 21
150.597721
 31
0.0
  0
LINE
  5
C1
100
AcDbEntity
  8
ALPHA
100
AcDbLine
 10
86.776598
 20
151.761769
 30
0.0
 11
87.269182
 21
151.947102
 31
0.0
  0
LINE
  5
C2
100
AcDbEntity
  8
ALPHA
100
AcDbLine
 10
85.684404
 20
150.927433
 30
0.0
 11
86.776598
 21
150.783085
 31
0.0
  0
LINE
  5
C3
100
AcDbEntity
  8
ALPHA
100
AcDbLine
 10
86.776598
 20
151.761799
 30
0.0
 11
85.684404
 21
151.617436
 31
0.0
  0
ARC
  5
C4
100
AcDbEntity
  8
ALPHA
100
AcDbCircle
 10
87.943865
 20
151.272434
 30
0.0
 40
2.285645
100
AcDbArc
 50
351.318484
 51
8.681536
  0
ARC
  5
C5
100
AcDbEntity
  8
ALPHA
100
AcDbCircle
 10
87.943865
 20
151.272434
 30
0.0
 40
2.285645
100
AcDbArc
 50
171.318466
 51
188.681517
  0
LINE
  5
C6
100
AcDbEntity
  8
ALPHA
100
AcDbLine
 10
88.288866
 20
152.387547
 30
0.0
 11
88.474199
 21
151.802738
 31
0.0
  0
LINE
  5
C7
100
AcDbEntity
  8
ALPHA
100
AcDbLine
 10
88.288881
 20
150.157353
 30
0.0
 11
88.474199
 21
150.742131
 31
0.0
  0
LINE
  5
C8
100
AcDbEntity
  8
ALPHA
100
AcDbLine
 10
87.41353
 20
150.7421
 30
0.0
 11
87.598863
 21
150.157322
 31
0.0
  0
LINE
  5
C9
100
AcDbEntity
  8
ALPHA
100
AcDbLine
 10
87.598848
 20
152.387516
 30
0.0
 11
87.41353
 21
151.802723
 31
0.0
  0
LINE
  5
CA
100
AcDbEntity
  8
ALPHA
100
AcDbLine
 10
88.288866
 20
150.157322
 30
0.0
 11
88.288866
 21
149.759739
 31
0.0
  0
LINE
  5
CB
100
AcDbEntity
  8
ALPHA
100
AcDbLine
 10
87.598863
 20
150.157322
 30
0.0
 11
87.598863
 21
149.759739
 31
0.0
  0
LINE
  5
CC
100
AcDbEntity
  8
ALPHA
100
AcDbLine
 10
88.288866
 20
152.78513
 30
0.0
 11
88.288866
 21
152.387547
 31
0.0
  0
LINE
  5
CD
100
AcDbEntity
  8
ALPHA
100
AcDbLine
 10
87.598863
 20
152.78513
 30
0.0
 11
87.598863
 21
152.387547
 31
0.0
  0
LINE
  5
CE
100
AcDbEntity
  8
ALPHA
100
AcDbLine
 10
86.828752
 20
150.927433
 30
0.0
 11
87.413545
 21
150.7421
 31
0.0
  0
LINE
  5
CF
100
AcDbEntity
  8
ALPHA
100
AcDbLine
 10
86.828752
 20
151.617436
 30
0.0
 11
87.41353
 21
151.802754
 31
0.0
  0
LINE
  5
D0
100
AcDbEntity
  8
ALPHA
100
AcDbLine
 10
88.474199
 20
150.7421
 30
0.0
 11
89.058977
 21
150.927433
 31
0.0
  0
LINE
  5
D1
100
AcDbEntity
  8
ALPHA
100
AcDbLine
 10
88.474199
 20
151.802769
 30
0.0
 11
89.058977
 21
151.617436
 31
0.0
  0
ARC
  5
D2
100
AcDbEntity
  8
ALPHA
100
AcDbCircle
 10
87.943865
 20
151.272434
 30
0.0
 40
1.167265
100
AcDbArc
 50
342.808724
 51
17.191241
  0
ARC
  5
D3
100
AcDbEntity
  8
ALPHA
100
AcDbCircle
 10
87.943865
 20
151.272434
 30
0.0
 40
1.167265
100
AcDbArc
 50
162.80876
 51
197.191277
  0
LINE
  5
D4
100
AcDbEntity
  8
ALPHA
100
AcDbLine
 10
89.058977
 20
150.927433
 30
0.0
 11
90.203325
 21
150.927433
 31
0.0
  0
LINE
  5
D5
100
AcDbEntity
  8
ALPHA
100
AcDbLine
 10
89.058977
 20
151.617436
 30
0.0
 11
90.203325
 21
151.617436
 31
0.0
  0
LINE
  5
D6
100
AcDbEntity
  8
ALPHA
100
AcDbLine
 10
85.684404
 20
150.927433
 30
0.0
 11
86.828752
 21
150.927433
 31
0.0
  0
LINE
  5
D7
100
AcDbEntity
  8
ALPHA
100
AcDbLine
 10
85.684404
 20
151.617436
 30
0.0
 11
86.828752
 21
151.617436
 31
0.0
  0
ARC
  5
D8
100
AcDbEntity
  8
ALPHA
100
AcDbCircle
 10
87.943865
 20
151.272434
 30
0.0
 40
1.167265
100
AcDbArc
 50
252.80877
 51
287.191286
  0
ARC
  5
D9
100
AcDbEntity
  8
ALPHA
100
AcDbCircle
 10
87.943865
 20
151.272434
 30
0.0
 40
1.167265
100
AcDbArc
 50
72.808724
 51
107.19124
  0
ARC
  5
DA
100
AcDbEntity
  8
ALPHA
100
AcDbCircle
 10
87.943865
 20
151.272434
 30
0.0
 40
1.551542
100
AcDbArc
 50
77.152342
 51
102.847622
  0
LINE
  5
DB
100
AcDbEntity
  8
ALPHA
100
AcDbLine
 10
88.474199
 20
150.7421
 30
0.0
 11
88.474199
 21
148.46201
 31
0.0
  0
LINE
  5
DC
100
AcDbEntity
  8
ALPHA
100
AcDbLine
 10
87.41353
 20
150.7421
 30
0.0
 11
87.41353
 21
148.46201
 31
0.0
  0
LINE
  5
DD
100
AcDbEntity
  8
ALPHA
100
AcDbLine
 10
88.474199
 20
153.697743
 30
0.0
 11
88.474199
 21
151.802769
 31
0.0
  0
LINE
  5
DE
100
AcDbEntity
  8
ALPHA
100
AcDbLine
 10
87.41353
 20
153.697743
 30
0.0
 11
87.41353
 21
151.802769
 31
0.0
  0
LINE
  5
DF
100
AcDbEntity
  8
ALPHA
100
AcDbLine
 10
88.443865
 20
153.697743
 30
0.0
 11
88.443865
 21
151.898472
 31
0.0
  0
ARC
  5
E0
100
AcDbEntity
  8
ALPHA
100
AcDbCircle
 10
87.943865
 20
151.272434
 30
0.0
 40
2.763781
100
AcDbArc
 50
281.062858
 51
49.173875
  0
ARC
  5
E1
100
AcDbEntity
  8
ALPHA
100
AcDbCircle
 10
87.943865
 20
151.272434
 30
0.0
 40
2.763781
100
AcDbArc
 50
130.826099
 51
258.937116
  0
ARC
  5
E2
100
AcDbEntity
  8
ALPHA
100
AcDbCircle
 10
87.943865
 20
151.272434
 30
0.0
 40
2.860018
100
AcDbArc
 50
259.313897
 51
280.686159
  0
LINE
  5
E3
100
AcDbEntity
  8
ALPHA
100
AcDbLine
 10
88.443865
 20
150.646397
 30
0.0
 11
88.443865
 21
148.456455
 31
0.0
  0
LINE
  5
E4
100
AcDbEntity
  8
ALPHA
100
AcDbLine
 10
87.443865
 20
150.646412
 30
0.0
 11
87.443865
 21
148.456455
 31
0.0
  0
LINE
  5
E5
100
AcDbEntity
  8
ALPHA
100
AcDbLine
 10
87.443865
 20
153.697743
 30
0.0
 11
87.443865
 21
151.898472
 31
0.0
  0
ARC
  5
E6
100
AcDbEntity
  8
ALPHA
100
AcDbCircle
 10
87.943865
 20
151.272434
 30
0.0
 40
3.0
100
AcDbArc
 50
163.481397
 51
16.518604
  0
LINE
  5
E7
100
AcDbEntity
  8
ALPHA
100
AcDbLine
 10
87.606737
 20
149.752445
 30
0.0
 11
88.280992
 21
149.752445
 31
0.0
  0
LINE
  5
E8
100
AcDbEntity
  8
ALPHA
100
AcDbLine
 10
89.440538
 20
148.672428
 30
0.0
 11
90.400774
 21
148.672428
 31
0.0
  0
LINE
  5
E9
100
AcDbEntity
  8
ALPHA
100
AcDbLine
 10
90.481584
 20
149.672428
 30
0.0
 11
90.9666
 21
149.672428
 31
0.0
  0
LINE
  5
EA
100
AcDbEntity
  8
ALPHA
100
AcDbLine
 10
85.486955
 20
148.672428
 30
0.0
 11
86.447191
 21
148.672428
 31
0.0
  0
LINE
  5
EB
100
AcDbEntity
  8
ALPHA
100
AcDbLine
 10
84.921129
 20
149.672428
 30
0.0
 11
85.406145
 21
149.672428
 31
0.0
  0
LINE
  5
EC
100
AcDbEntity
  8
AXE
100
AcDbLine
 10
84.843859
 20
151.272434
 30
0.0
 11
91.043871
 21
151.272434
 31
0.0
  0
ARC
  5
ED
100
AcDbEntity
  8
ALPHA
100
AcDbCircle
 10
87.942797
 20
148.866169
 30
0.0
 40
18.606903
100
AcDbArc
 50
84.820404
 51
95.171965
  0
LINE
  5
EE
100
AcDbEntity
  8
AXE
100
AcDbLine
 10
87.943865
 20
161.697743
 30
0.0
 11
87.943865
 21
167.872776
 31
0.0
  0
LINE
  5
EF
100
AcDbEntity
  8
ALPHA
100
AcDbLine
 10
88.443849
 20
165.294209
 30
0.0
 11
88.288866
 21
165.238224
 31
0.0
  0
LINE
  5
F0
100
AcDbEntity
  8
ALPHA
100
AcDbLine
 10
87.443865
 20
165.294163
 30
0.0
 11
87.598863
 21
165.238163
 31
0.0
  0
LINE
  5
F1
100
AcDbEntity
  8
ALPHA
100
AcDbLine
 10
88.44388
 20
162.951954
 30
0.0
 11
88.288866
 21
163.007954
 31
0.0
  0
LINE
  5
F2
100
AcDbEntity
  8
ALPHA
100
AcDbLine
 10
87.443865
 20
162.952
 30
0.0
 11
87.598863
 21
163.007984
 31
0.0
  0
LINE
  5
F3
100
AcDbEntity
  8
ALPHA
100
AcDbLine
 10
89.058977
 20
164.468067
 30
0.0
 11
89.111132
 21
164.612416
 31
0.0
  0
LINE
  5
F4
100
AcDbEntity
  8
ALPHA
100
AcDbLine
 10
89.111132
 20
163.633747
 30
0.0
 11
89.058977
 21
163.778095
 31
0.0
  0
LINE
  5
F5
100
AcDbEntity
  8
ALPHA
100
AcDbLine
 10
86.828722
 20
164.468128
 30
0.0
 11
86.776583
 21
164.612461
 31
0.0
  0
LINE
  5
F6
100
AcDbEntity
  8
ALPHA
100
AcDbLine
 10
86.776598
 20
163.633702
 30
0.0
 11
86.828752
 21
163.77808
 31
0.0
  0
LINE
  5
F7
100
AcDbEntity
  8
ALPHA
100
AcDbLine
 10
88.474199
 20
165.181416
 30
0.0
 11
88.618578
 21
164.797688
 31
0.0
  0
LINE
  5
F8
100
AcDbEntity
  8
ALPHA
100
AcDbLine
 10
88.474199
 20
163.064686
 30
0.0
 11
88.618563
 21
163.448384
 31
0.0
  0
LINE
  5
F9
100
AcDbEntity
  8
ALPHA
100
AcDbLine
 10
89.111132
 20
164.612431
 30
0.0
 11
88.618563
 21
164.797764
 31
0.0
  0
LINE
  5
FA
100
AcDbEntity
  8
ALPHA
100
AcDbLine
 10
89.111132
 20
163.633717
 30
0.0
 11
88.618547
 21
163.448384
 31
0.0
  0
LINE
  5
FB
100
AcDbEntity
  8
ALPHA
100
AcDbLine
 10
90.203325
 20
164.468067
 30
0.0
 11
89.111132
 21
164.612416
 31
0.0
  0
LINE
  5
FC
100
AcDbEntity
  8
ALPHA
100
AcDbLine
 10
89.111132
 20
163.633702
 30
0.0
 11
90.203325
 21
163.778065
 31
0.0
  0
LINE
  5
FD
100
AcDbEntity
  8
ALPHA
100
AcDbLine
 10
87.413545
 20
165.181431
 30
0.0
 11
87.269182
 21
164.797764
 31
0.0
  0
LINE
  5
FE
100
AcDbEntity
  8
ALPHA
100
AcDbLine
 10
87.41353
 20
163.064732
 30
0.0
 11
87.269213
 21
163.448307
 31
0.0
  0
LINE
  5
FF
100
AcDbEntity
  8
ALPHA
100
AcDbLine
 10
86.776613
 20
164.612431
 30
0.0
 11
87.269182
 21
164.797764
 31
0.0
  0
LINE
  5
100
100
AcDbEntity
  8
ALPHA
100
AcDbLine
 10
86.776598
 20
163.633717
 30
0.0
 11
87.269182
 21
163.448384
 31
0.0
  0
LINE
  5
101
100
AcDbEntity
  8
ALPHA
100
AcDbLine
 10
85.684404
 20
164.468052
 30
0.0
 11
86.776598
 21
164.612416
 31
0.0
  0
LINE
  5
102
100
AcDbEntity
  8
ALPHA
100
AcDbLine
 10
86.776598
 20
163.633702
 30
0.0
 11
85.684404
 21
163.77805
 31
0.0
  0
ARC
  5
103
100
AcDbEntity
  8
ALPHA
100
AcDbCircle
 10
87.943865
 20
164.123066
 30
0.0
 40
2.285645
100
AcDbArc
 50
351.318457
 51
8.681508
  0
ARC
  5
104
100
AcDbEntity
  8
ALPHA
100
AcDbCircle
 10
87.943865
 20
164.123066
 30
0.0
 40
2.285645
100
AcDbArc
 50
171.318466
 51
188.681517
  0
LINE
  5
105
100
AcDbEntity
  8
ALPHA
100
AcDbLine
 10
88.288866
 20
163.007954
 30
0.0
 11
88.474199
 21
163.592747
 31
0.0
  0
LINE
  5
106
100
AcDbEntity
  8
ALPHA
100
AcDbLine
 10
88.288896
 20
165.238148
 30
0.0
 11
88.47423
 21
164.65337
 31
0.0
  0
LINE
  5
107
100
AcDbEntity
  8
ALPHA
100
AcDbLine
 10
87.413545
 20
164.653401
 30
0.0
 11
87.598863
 21
165.238163
 31
0.0
  0
LINE
  5
108
100
AcDbEntity
  8
ALPHA
100
AcDbLine
 10
87.598863
 20
163.008
 30
0.0
 11
87.41353
 21
163.592777
 31
0.0
  0
LINE
  5
109
100
AcDbEntity
  8
ALPHA
100
AcDbLine
 10
88.288866
 20
165.238178
 30
0.0
 11
88.288866
 21
165.635761
 31
0.0
  0
LINE
  5
10A
100
AcDbEntity
  8
ALPHA
100
AcDbLine
 10
87.598863
 20
165.238178
 30
0.0
 11
87.598863
 21
165.635761
 31
0.0
  0
LINE
  5
10B
100
AcDbEntity
  8
ALPHA
100
AcDbLine
 10
88.288866
 20
162.610371
 30
0.0
 11
88.288866
 21
163.007954
 31
0.0
  0
LINE
  5
10C
100
AcDbEntity
  8
ALPHA
100
AcDbLine
 10
87.598863
 20
162.610371
 30
0.0
 11
87.598863
 21
163.007954
 31
0.0
  0
LINE
  5
10D
100
AcDbEntity
  8
ALPHA
100
AcDbLine
 10
86.828768
 20
164.468083
 30
0.0
 11
87.41353
 21
164.653401
 31
0.0
  0
LINE
  5
10E
100
AcDbEntity
  8
ALPHA
100
AcDbLine
 10
86.828752
 20
163.77805
 30
0.0
 11
87.41353
 21
163.592732
 31
0.0
  0
LINE
  5
10F
100
AcDbEntity
  8
ALPHA
100
AcDbLine
 10
88.474199
 20
164.653385
 30
0.0
 11
89.058977
 21
164.468067
 31
0.0
  0
LINE
  5
110
100
AcDbEntity
  8
ALPHA
100
AcDbLine
 10
88.474199
 20
163.592732
 30
0.0
 11
89.058977
 21
163.778065
 31
0.0
  0
ARC
  5
111
100
AcDbEntity
  8
ALPHA
100
AcDbCircle
 10
87.943865
 20
164.123066
 30
0.0
 40
1.167265
100
AcDbArc
 50
342.808752
 51
17.191268
  0
ARC
  5
112
100
AcDbEntity
  8
ALPHA
100
AcDbCircle
 10
87.943865
 20
164.123066
 30
0.0
 40
1.167265
100
AcDbArc
 50
162.808706
 51
197.191222
  0
LINE
  5
113
100
AcDbEntity
  8
ALPHA
100
AcDbLine
 10
89.058977
 20
164.468067
 30
0.0
 11
90.203325
 21
164.468067
 31
0.0
  0
LINE
  5
114
100
AcDbEntity
  8
ALPHA
100
AcDbLine
 10
89.058977
 20
163.778065
 30
0.0
 11
90.203325
 21
163.778065
 31
0.0
  0
LINE
  5
115
100
AcDbEntity
  8
ALPHA
100
AcDbLine
 10
85.684404
 20
164.468067
 30
0.0
 11
86.828752
 21
164.468067
 31
0.0
  0
LINE
  5
116
100
AcDbEntity
  8
ALPHA
100
AcDbLine
 10
85.684404
 20
163.778065
 30
0.0
 11
86.828752
 21
163.778065
 31
0.0
  0
ARC
  5
117
100
AcDbEntity
  8
ALPHA
100
AcDbCircle
 10
87.943865
 20
164.123066
 30
0.0
 40
1.167265
100
AcDbArc
 50
72.808724
 51
107.19124
  0
ARC
  5
118
100
AcDbEntity
  8
ALPHA
100
AcDbCircle
 10
87.943865
 20
164.123066
 30
0.0
 40
1.167265
100
AcDbArc
 50
252.80877
 51
287.191286
  0
ARC
  5
119
100
AcDbEntity
  8
ALPHA
100
AcDbCircle
 10
87.943865
 20
164.123066
 30
0.0
 40
1.551542
100
AcDbArc
 50
257.152388
 51
282.847668
  0
LINE
  5
11A
100
AcDbEntity
  8
ALPHA
100
AcDbLine
 10
88.474199
 20
164.653401
 30
0.0
 11
88.474199
 21
166.933491
 31
0.0
  0
LINE
  5
11B
100
AcDbEntity
  8
ALPHA
100
AcDbLine
 10
87.41353
 20
164.653401
 30
0.0
 11
87.41353
 21
166.933491
 31
0.0
  0
LINE
  5
11C
100
AcDbEntity
  8
ALPHA
100
AcDbLine
 10
88.474199
 20
161.697743
 30
0.0
 11
88.474199
 21
163.592732
 31
0.0
  0
LINE
  5
11D
100
AcDbEntity
  8
ALPHA
100
AcDbLine
 10
87.41353
 20
161.697743
 30
0.0
 11
87.41353
 21
163.592732
 31
0.0
  0
LINE
  5
11E
100
AcDbEntity
  8
ALPHA
100
AcDbLine
 10
88.443865
 20
161.697743
 30
0.0
 11
88.443865
 21
163.497029
 31
0.0
  0
ARC
  5
11F
100
AcDbEntity
  8
ALPHA
100
AcDbCircle
 10
87.943865
 20
164.123066
 30
0.0
 40
2.763781
100
AcDbArc
 50
310.826118
 51
78.937162
  0
ARC
  5
120
100
AcDbEntity
  8
ALPHA
100
AcDbCircle
 10
87.943865
 20
164.123066
 30
0.0
 40
2.763781
100
AcDbArc
 50
101.062867
 51
229.173884
  0
ARC
  5
121
100
AcDbEntity
  8
ALPHA
100
AcDbCircle
 10
87.943865
 20
164.123066
 30
0.0
 40
2.860018
100
AcDbArc
 50
79.313851
 51
100.686113
  0
LINE
  5
122
100
AcDbEntity
  8
ALPHA
100
AcDbLine
 10
88.443865
 20
164.749104
 30
0.0
 11
88.443865
 21
166.939045
 31
0.0
  0
LINE
  5
123
100
AcDbEntity
  8
ALPHA
100
AcDbLine
 10
87.443865
 20
164.749073
 30
0.0
 11
87.443865
 21
166.939045
 31
0.0
  0
LINE
  5
124
100
AcDbEntity
  8
ALPHA
100
AcDbLine
 10
87.443865
 20
161.697743
 30
0.0
 11
87.443865
 21
163.497029
 31
0.0
  0
ARC
  5
125
100
AcDbEntity
  8
ALPHA
100
AcDbCircle
 10
87.943865
 20
164.123066
 30
0.0
 40
3.0
100
AcDbArc
 50
343.481416
 51
196.518568
  0
LINE
  5
126
100
AcDbEntity
  8
ALPHA
100
AcDbLine
 10
87.606737
 20
165.643055
 30
0.0
 11
88.280992
 21
165.643055
 31
0.0
  0
LINE
  5
127
100
AcDbEntity
  8
ALPHA
100
AcDbLine
 10
89.440538
 20
166.723072
 30
0.0
 11
90.400774
 21
166.723072
 31
0.0
  0
LINE
  5
128
100
AcDbEntity
  8
ALPHA
100
AcDbLine
 10
90.481584
 20
165.723072
 30
0.0
 11
90.9666
 21
165.723072
 31
0.0
  0
LINE
  5
129
100
AcDbEntity
  8
ALPHA
100
AcDbLine
 10
85.486955
 20
166.723072
 30
0.0
 11
86.447191
 21
166.723072
 31
0.0
  0
LINE
  5
12A
100
AcDbEntity
  8
ALPHA
100
AcDbLine
 10
84.921129
 20
165.723072
 30
0.0
 11
85.406145
 21
165.723072
 31
0.0
  0
LINE
  5
12B
100
AcDbEntity
  8
AXE
100
AcDbLine
 10
84.843859
 20
164.123066
 30
0.0
 11
91.043871
 21
164.123066
 31
0.0
  0
ARC
  5
12C
100
AcDbEntity
  8
ALPHA
100
AcDbCircle
 10
113.742731
 20
166.529331
 30
0.0
 40
18.606903
100
AcDbArc
 50
264.828045
 51
275.179606
  0
LINE
  5
12D
100
AcDbEntity
  8
AXE
100
AcDbLine
 10
113.743799
 20
153.922703
 30
0.0
 11
113.743799
 21
147.522709
 31
0.0
  0
LINE
  5
12E
100
AcDbEntity
  8
ALPHA
100
AcDbLine
 10
114.243776
 20
150.101277
 30
0.0
 11
114.088785
 21
150.157261
 31
0.0
  0
LINE
  5
12F
100
AcDbEntity
  8
ALPHA
100
AcDbLine
 10
113.243791
 20
150.101322
 30
0.0
 11
113.398798
 21
150.157322
 31
0.0
  0
LINE
  5
130
100
AcDbEntity
  8
ALPHA
100
AcDbLine
 10
114.243807
 20
152.443547
 30
0.0
 11
114.0888
 21
152.387547
 31
0.0
  0
LINE
  5
131
100
AcDbEntity
  8
ALPHA
100
AcDbLine
 10
113.243791
 20
152.443501
 30
0.0
 11
113.398783
 21
152.387501
 31
0.0
  0
LINE
  5
132
100
AcDbEntity
  8
ALPHA
100
AcDbLine
 10
114.858919
 20
150.927418
 30
0.0
 11
114.911066
 21
150.78307
 31
0.0
  0
LINE
  5
133
100
AcDbEntity
  8
ALPHA
100
AcDbLine
 10
114.911058
 20
151.761753
 30
0.0
 11
114.858911
 21
151.617405
 31
0.0
  0
LINE
  5
134
100
AcDbEntity
  8
ALPHA
100
AcDbLine
 10
112.628649
 20
150.927372
 30
0.0
 11
112.576509
 21
150.783009
 31
0.0
  0
LINE
  5
135
100
AcDbEntity
  8
ALPHA
100
AcDbLine
 10
112.576525
 20
151.761784
 30
0.0
 11
112.628679
 21
151.61742
 31
0.0
  0
LINE
  5
136
100
AcDbEntity
  8
ALPHA
100
AcDbLine
 10
114.274126
 20
150.214085
 30
0.0
 11
114.418505
 21
150.597813
 31
0.0
  0
LINE
  5
137
100
AcDbEntity
  8
ALPHA
100
AcDbLine
 10
114.274126
 20
152.330784
 30
0.0
 11
114.418482
 21
151.947102
 31
0.0
  0
LINE
  5
138
100
AcDbEntity
  8
ALPHA
100
AcDbLine
 10
114.911066
 20
150.78307
 30
0.0
 11
114.418489
 21
150.597737
 31
0.0
  0
LINE
  5
139
100
AcDbEntity
  8
ALPHA
100
AcDbLine
 10
114.911058
 20
151.761784
 30
0.0
 11
114.418466
 21
151.947117
 31
0.0
  0
LINE
  5
13A
100
AcDbEntity
  8
ALPHA
100
AcDbLine
 10
116.003244
 20
150.927449
 30
0.0
 11
114.911058
 21
150.783085
 31
0.0
  0
LINE
  5
13B
100
AcDbEntity
  8
ALPHA
100
AcDbLine
 10
114.911066
 20
151.761784
 30
0.0
 11
116.003252
 21
151.617436
 31
0.0
  0
LINE
  5
13C
100
AcDbEntity
  8
ALPHA
100
AcDbLine
 10
113.213465
 20
150.21407
 30
0.0
 11
113.069116
 21
150.597737
 31
0.0
  0
LINE
  5
13D
100
AcDbEntity
  8
ALPHA
100
AcDbLine
 10
113.213434
 20
152.330754
 30
0.0
 11
113.069116
 21
151.947193
 31
0.0
  0
LINE
  5
13E
100
AcDbEntity
  8
ALPHA
100
AcDbLine
 10
112.576525
 20
150.783055
 30
0.0
 11
113.069101
 21
150.597721
 31
0.0
  0
LINE
  5
13F
100
AcDbEntity
  8
ALPHA
100
AcDbLine
 10
112.576525
 20
151.761769
 30
0.0
 11
113.069109
 21
151.947102
 31
0.0
  0
LINE
  5
140
100
AcDbEntity
  8
ALPHA
100
AcDbLine
 10
111.484331
 20
150.927433
 30
0.0
 11
112.576525
 21
150.783085
 31
0.0
  0
LINE
  5
141
100
AcDbEntity
  8
ALPHA
100
AcDbLine
 10
112.576525
 20
151.761799
 30
0.0
 11
111.484331
 21
151.617436
 31
0.0
  0
ARC
  5
142
100
AcDbEntity
  8
ALPHA
100
AcDbCircle
 10
113.743799
 20
151.272434
 30
0.0
 40
2.285645
100
AcDbArc
 50
351.318484
 51
8.681536
  0
ARC
  5
143
100
AcDbEntity
  8
ALPHA
100
AcDbCircle
 10
113.743799
 20
151.272434
 30
0.0
 40
2.285645
100
AcDbArc
 50
171.318466
 51
188.681517
  0
LINE
  5
144
100
AcDbEntity
  8
ALPHA
100
AcDbLine
 10
114.088785
 20
152.387547
 30
0.0
 11
114.274118
 21
151.802738
 31
0.0
  0
LINE
  5
145
100
AcDbEntity
  8
ALPHA
100
AcDbLine
 10
114.088808
 20
150.157353
 30
0.0
 11
114.274134
 21
150.742131
 31
0.0
  0
LINE
  5
146
100
AcDbEntity
  8
ALPHA
100
AcDbLine
 10
113.213465
 20
150.7421
 30
0.0
 11
113.39879
 21
150.157322
 31
0.0
  0
LINE
  5
147
100
AcDbEntity
  8
ALPHA
100
AcDbLine
 10
113.398775
 20
152.387516
 30
0.0
 11
113.213449
 21
151.802723
 31
0.0
  0
LINE
  5
148
100
AcDbEntity
  8
ALPHA
100
AcDbLine
 10
114.0888
 20
150.157322
 30
0.0
 11
114.0888
 21
149.759739
 31
0.0
  0
LINE
  5
149
100
AcDbEntity
  8
ALPHA
100
AcDbLine
 10
113.398798
 20
150.157322
 30
0.0
 11
113.398798
 21
149.759739
 31
0.0
  0
LINE
  5
14A
100
AcDbEntity
  8
ALPHA
100
AcDbLine
 10
114.0888
 20
152.78513
 30
0.0
 11
114.0888
 21
152.387547
 31
0.0
  0
LINE
  5
14B
100
AcDbEntity
  8
ALPHA
100
AcDbLine
 10
113.398798
 20
152.78513
 30
0.0
 11
113.398798
 21
152.387547
 31
0.0
  0
LINE
  5
14C
100
AcDbEntity
  8
ALPHA
100
AcDbLine
 10
112.628679
 20
150.927433
 30
0.0
 11
113.213472
 21
150.7421
 31
0.0
  0
LINE
  5
14D
100
AcDbEntity
  8
ALPHA
100
AcDbLine
 10
112.628679
 20
151.617436
 30
0.0
 11
113.213465
 21
151.802754
 31
0.0
  0
LINE
  5
14E
100
AcDbEntity
  8
ALPHA
100
AcDbLine
 10
114.274118
 20
150.7421
 30
0.0
 11
114.858904
 21
150.927433
 31
0.0
  0
LINE
  5
14F
100
AcDbEntity
  8
ALPHA
100
AcDbLine
 10
114.274126
 20
151.802769
 30
0.0
 11
114.858911
 21
151.617436
 31
0.0
  0
ARC
  5
150
100
AcDbEntity
  8
ALPHA
100
AcDbCircle
 10
113.743799
 20
151.272434
 30
0.0
 40
1.167265
100
AcDbArc
 50
342.808724
 51
17.191241
  0
ARC
  5
151
100
AcDbEntity
  8
ALPHA
100
AcDbCircle
 10
113.743799
 20
151.272434
 30
0.0
 40
1.167265
100
AcDbArc
 50
162.80876
 51
197.191277
  0
LINE
  5
152
100
AcDbEntity
  8
ALPHA
100
AcDbLine
 10
114.858911
 20
150.927433
 30
0.0
 11
116.00326
 21
150.927433
 31
0.0
  0
LINE
  5
153
100
AcDbEntity
  8
ALPHA
100
AcDbLine
 10
114.858911
 20
151.617436
 30
0.0
 11
116.00326
 21
151.617436
 31
0.0
  0
LINE
  5
154
100
AcDbEntity
  8
ALPHA
100
AcDbLine
 10
111.484331
 20
150.927433
 30
0.0
 11
112.628679
 21
150.927433
 31
0.0
  0
LINE
  5
155
100
AcDbEntity
  8
ALPHA
100
AcDbLine
 10
111.484331
 20
151.617436
 30
0.0
 11
112.628679
 21
151.617436
 31
0.0
  0
ARC
  5
156
100
AcDbEntity
  8
ALPHA
100
AcDbCircle
 10
113.743799
 20
151.272434
 30
0.0
 40
1.167265
100
AcDbArc
 50
252.80877
 51
287.191286
  0
ARC
  5
157
100
AcDbEntity
  8
ALPHA
100
AcDbCircle
 10
113.743799
 20
151.272434
 30
0.0
 40
1.167265
100
AcDbArc
 50
72.808724
 51
107.19124
  0
ARC
  5
158
100
AcDbEntity
  8
ALPHA
100
AcDbCircle
 10
113.743799
 20
151.272434
 30
0.0
 40
1.551542
100
AcDbArc
 50
77.152342
 51
102.847622
  0
LINE
  5
159
100
AcDbEntity
  8
ALPHA
100
AcDbLine
 10
114.274134
 20
150.7421
 30
0.0
 11
114.274134
 21
148.46201
 31
0.0
  0
LINE
  5
15A
100
AcDbEntity
  8
ALPHA
100
AcDbLine
 10
113.213465
 20
150.7421
 30
0.0
 11
113.213465
 21
148.46201
 31
0.0
  0
LINE
  5
15B
100
AcDbEntity
  8
ALPHA
100
AcDbLine
 10
114.274134
 20
153.878453
 30
0.0
 11
114.274134
 21
151.802769
 31
0.0
  0
LINE
  5
15C
100
AcDbEntity
  8
ALPHA
100
AcDbLine
 10
113.213465
 20
153.878453
 30
0.0
 11
113.213465
 21
151.802769
 31
0.0
  0
LINE
  5
15D
100
AcDbEntity
  8
ALPHA
100
AcDbLine
 10
114.243799
 20
153.883396
 30
0.0
 11
114.243799
 21
151.898472
 31
0.0
  0
ARC
  5
15E
100
AcDbEntity
  8
ALPHA
100
AcDbCircle
 10
113.743799
 20
151.272434
 30
0.0
 40
2.763781
100
AcDbArc
 50
281.062858
 51
49.173875
  0
ARC
  5
15F
100
AcDbEntity
  8
ALPHA
100
AcDbCircle
 10
113.743799
 20
151.272434
 30
0.0
 40
2.763781
100
AcDbArc
 50
130.826099
 51
258.937116
  0
ARC
  5
160
100
AcDbEntity
  8
ALPHA
100
AcDbCircle
 10
113.743799
 20
151.272434
 30
0.0
 40
2.860018
100
AcDbArc
 50
259.313897
 51
280.686159
  0
LINE
  5
161
100
AcDbEntity
  8
ALPHA
100
AcDbLine
 10
114.243799
 20
150.646397
 30
0.0
 11
114.243799
 21
148.456455
 31
0.0
  0
LINE
  5
162
100
AcDbEntity
  8
ALPHA
100
AcDbLine
 10
113.243799
 20
150.646412
 30
0.0
 11
113.243799
 21
148.456455
 31
0.0
  0
LINE
  5
163
100
AcDbEntity
  8
ALPHA
100
AcDbLine
 10
113.243799
 20
153.883396
 30
0.0
 11
113.243799
 21
151.898472
 31
0.0
  0
ARC
  5
164
100
AcDbEntity
  8
ALPHA
100
AcDbCircle
 10
113.743799
 20
151.272434
 30
0.0
 40
3.0
100
AcDbArc
 50
163.481397
 51
16.518604
  0
LINE
  5
165
100
AcDbEntity
  8
ALPHA
100
AcDbLine
 10
113.406671
 20
149.752445
 30
0.0
 11
114.080927
 21
149.752445
 31
0.0
  0
LINE
  5
166
100
AcDbEntity
  8
ALPHA
100
AcDbLine
 10
115.240473
 20
148.672428
 30
0.0
 11
116.200693
 21
148.672428
 31
0.0
  0
LINE
  5
167
100
AcDbEntity
  8
ALPHA
100
AcDbLine
 10
116.281519
 20
149.672428
 30
0.0
 11
116.766535
 21
149.672428
 31
0.0
  0
LINE
  5
168
100
AcDbEntity
  8
ALPHA
100
AcDbLine
 10
111.286882
 20
148.672428
 30
0.0
 11
112.247118
 21
148.672428
 31
0.0
  0
LINE
  5
169
100
AcDbEntity
  8
ALPHA
100
AcDbLine
 10
110.721056
 20
149.672428
 30
0.0
 11
111.206072
 21
149.672428
 31
0.0
  0
LINE
  5
16A
100
AcDbEntity
  8
AXE
100
AcDbLine
 10
110.643785
 20
151.272434
 30
0.0
 11
116.843805
 21
151.272434
 31
0.0
  0
ARC
  5
16B
100
AcDbEntity
  8
ALPHA
100
AcDbCircle
 10
113.742731
 20
148.866169
 30
0.0
 40
18.606903
100
AcDbArc
 50
84.820404
 51
95.171965
  0
LINE
  5
16C
100
AcDbEntity
  8
AXE
100
AcDbLine
 10
113.743799
 20
161.472782
 30
0.0
 11
113.743799
 21
167.872776
 31
0.0
  0
LINE
  5
16D
100
AcDbEntity
  8
ALPHA
100
AcDbLine
 10
114.243776
 20
165.294209
 30
0.0
 11
114.088785
 21
165.238224
 31
0.0
  0
LINE
  5
16E
100
AcDbEntity
  8
ALPHA
100
AcDbLine
 10
113.243791
 20
165.294163
 30
0.0
 11
113.398798
 21
165.238163
 31
0.0
  0
LINE
  5
16F
100
AcDbEntity
  8
ALPHA
100
AcDbLine
 10
114.243807
 20
162.951954
 30
0.0
 11
114.0888
 21
163.007954
 31
0.0
  0
LINE
  5
170
100
AcDbEntity
  8
ALPHA
100
AcDbLine
 10
113.243791
 20
162.952
 30
0.0
 11
113.398783
 21
163.007984
 31
0.0
  0
LINE
  5
171
100
AcDbEntity
  8
ALPHA
100
AcDbLine
 10
114.858911
 20
164.468067
 30
0.0
 11
114.911058
 21
164.612416
 31
0.0
  0
LINE
  5
172
100
AcDbEntity
  8
ALPHA
100
AcDbLine
 10
114.911058
 20
163.633747
 30
0.0
 11
114.858911
 21
163.778095
 31
0.0
  0
LINE
  5
173
100
AcDbEntity
  8
ALPHA
100
AcDbLine
 10
112.628649
 20
164.468128
 30
0.0
 11
112.576509
 21
164.612461
 31
0.0
  0
LINE
  5
174
100
AcDbEntity
  8
ALPHA
100
AcDbLine
 10
112.576525
 20
163.633702
 30
0.0
 11
112.628679
 21
163.77808
 31
0.0
  0
LINE
  5
175
100
AcDbEntity
  8
ALPHA
100
AcDbLine
 10
114.274126
 20
165.181416
 30
0.0
 11
114.418505
 21
164.797688
 31
0.0
  0
LINE
  5
176
100
AcDbEntity
  8
ALPHA
100
AcDbLine
 10
114.274126
 20
163.064686
 30
0.0
 11
114.418489
 21
163.448384
 31
0.0
  0
LINE
  5
177
100
AcDbEntity
  8
ALPHA
100
AcDbLine
 10
114.911066
 20
164.612431
 30
0.0
 11
114.418489
 21
164.797764
 31
0.0
  0
LINE
  5
178
100
AcDbEntity
  8
ALPHA
100
AcDbLine
 10
114.911058
 20
163.633717
 30
0.0
 11
114.418474
 21
163.448384
 31
0.0
  0
LINE
  5
179
100
AcDbEntity
  8
ALPHA
100
AcDbLine
 10
116.003252
 20
164.468067
 30
0.0
 11
114.911066
 21
164.612416
 31
0.0
  0
LINE
  5
17A
100
AcDbEntity
  8
ALPHA
100
AcDbLine
 10
114.911066
 20
163.633702
 30
0.0
 11
116.003252
 21
163.778065
 31
0.0
  0
LINE
  5
17B
100
AcDbEntity
  8
ALPHA
100
AcDbLine
 10
113.213472
 20
165.181431
 30
0.0
 11
113.069116
 21
164.797764
 31
0.0
  0
LINE
  5
17C
100
AcDbEntity
  8
ALPHA
100
AcDbLine
 10
113.213449
 20
163.064732
 30
0.0
 11
113.069132
 21
163.448307
 31
0.0
  0
LINE
  5
17D
100
AcDbEntity
  8
ALPHA
100
AcDbLine
 10
112.57654
 20
164.612431
 30
0.0
 11
113.069116
 21
164.797764
 31
0.0
  0
LINE
  5
17E
100
AcDbEntity
  8
ALPHA
100
AcDbLine
 10
112.576525
 20
163.633717
 30
0.0
 11
113.069116
 21
163.448384
 31
0.0
  0
LINE
  5
17F
100
AcDbEntity
  8
ALPHA
100
AcDbLine
 10
111.484331
 20
164.468052
 30
0.0
 11
112.576525
 21
164.612416
 31
0.0
  0
LINE
  5
180
100
AcDbEntity
  8
ALPHA
100
AcDbLine
 10
112.576525
 20
163.633702
 30
0.0
 11
111.484331
 21
163.77805
 31
0.0
  0
ARC
  5
181
100
AcDbEntity
  8
ALPHA
100
AcDbCircle
 10
113.743799
 20
164.123066
 30
0.0
 40
2.285645
100
AcDbArc
 50
351.318457
 51
8.681508
  0
ARC
  5
182
100
AcDbEntity
  8
ALPHA
100
AcDbCircle
 10
113.743799
 20
164.123066
 30
0.0
 40
2.285645
100
AcDbArc
 50
171.318466
 51
188.681517
  0
LINE
  5
183
100
AcDbEntity
  8
ALPHA
100
AcDbLine
 10
114.088793
 20
163.007954
 30
0.0
 11
114.274126
 21
163.592747
 31
0.0
  0
LINE
  5
184
100
AcDbEntity
  8
ALPHA
100
AcDbLine
 10
114.088816
 20
165.238148
 30
0.0
 11
114.274149
 21
164.65337
 31
0.0
  0
LINE
  5
185
100
AcDbEntity
  8
ALPHA
100
AcDbLine
 10
113.213472
 20
164.653401
 30
0.0
 11
113.398798
 21
165.238163
 31
0.0
  0
LINE
  5
186
100
AcDbEntity
  8
ALPHA
100
AcDbLine
 10
113.398783
 20
163.008
 30
0.0
 11
113.213457
 21
163.592777
 31
0.0
  0
LINE
  5
187
100
AcDbEntity
  8
ALPHA
100
AcDbLine
 10
114.0888
 20
165.238178
 30
0.0
 11
114.0888
 21
165.635761
 31
0.0
  0
LINE
  5
188
100
AcDbEntity
  8
ALPHA
100
AcDbLine
 10
113.398798
 20
165.238178
 30
0.0
 11
113.398798
 21
165.635761
 31
0.0
  0
LINE
  5
189
100
AcDbEntity
  8
ALPHA
100
AcDbLine
 10
114.0888
 20
162.610371
 30
0.0
 11
114.0888
 21
163.007954
 31
0.0
  0
LINE
  5
18A
100
AcDbEntity
  8
ALPHA
100
AcDbLine
 10
113.398798
 20
162.610371
 30
0.0
 11
113.398798
 21
163.007954
 31
0.0
  0
LINE
  5
18B
100
AcDbEntity
  8
ALPHA
100
AcDbLine
 10
112.628694
 20
164.468083
 30
0.0
 11
113.213465
 21
164.653401
 31
0.0
  0
LINE
  5
18C
100
AcDbEntity
  8
ALPHA
100
AcDbLine
 10
112.628679
 20
163.77805
 30
0.0
 11
113.213465
 21
163.592732
 31
0.0
  0
LINE
  5
18D
100
AcDbEntity
  8
ALPHA
100
AcDbLine
 10
114.274126
 20
164.653385
 30
0.0
 11
114.858911
 21
164.468067
 31
0.0
  0
LINE
  5
18E
100
AcDbEntity
  8
ALPHA
100
AcDbLine
 10
114.274134
 20
163.592732
 30
0.0
 11
114.858904
 21
163.778065
 31
0.0
  0
ARC
  5
18F
100
AcDbEntity
  8
ALPHA
100
AcDbCircle
 10
113.743799
 20
164.123066
 30
0.0
 40
1.167265
100
AcDbArc
 50
342.808752
 51
17.191268
  0
ARC
  5
190
100
AcDbEntity
  8
ALPHA
100
AcDbCircle
 10
113.743799
 20
164.123066
 30
0.0
 40
1.167265
100
AcDbArc
 50
162.808706
 51
197.191222
  0
LINE
  5
191
100
AcDbEntity
  8
ALPHA
100
AcDbLine
 10
114.858911
 20
164.468067
 30
0.0
 11
116.00326
 21
164.468067
 31
0.0
  0
LINE
  5
192
100
AcDbEntity
  8
ALPHA
100
AcDbLine
 10
114.858911
 20
163.778065
 30
0.0
 11
116.00326
 21
163.778065
 31
0.0
  0
LINE
  5
193
100
AcDbEntity
  8
ALPHA
100
AcDbLine
 10
111.484331
 20
164.468067
 30
0.0
 11
112.628679
 21
164.468067
 31
0.0
  0
LINE
  5
194
100
AcDbEntity
  8
ALPHA
100
AcDbLine
 10
111.484331
 20
163.778065
 30
0.0
 11
112.628679
 21
163.778065
 31
0.0
  0
ARC
  5
195
100
AcDbEntity
  8
ALPHA
100
AcDbCircle
 10
113.743799
 20
164.123066
 30
0.0
 40
1.167265
100
AcDbArc
 50
72.808724
 51
107.19124
  0
ARC
  5
196
100
AcDbEntity
  8
ALPHA
100
AcDbCircle
 10
113.743799
 20
164.123066
 30
0.0
 40
1.167265
100
AcDbArc
 50
252.80877
 51
287.191286
  0
ARC
  5
197
100
AcDbEntity
  8
ALPHA
100
AcDbCircle
 10
113.743799
 20
164.123066
 30
0.0
 40
1.551542
100
AcDbArc
 50
257.152388
 51
282.847668
  0
LINE
  5
198
100
AcDbEntity
  8
ALPHA
100
AcDbLine
 10
114.274134
 20
164.653401
 30
0.0
 11
114.274134
 21
166.933491
 31
0.0
  0
LINE
  5
199
100
AcDbEntity
  8
ALPHA
100
AcDbLine
 10
113.213465
 20
164.653401
 30
0.0
 11
113.213465
 21
166.933491
 31
0.0
  0
LINE
  5
19A
100
AcDbEntity
  8
ALPHA
100
AcDbLine
 10
114.274134
 20
161.517033
 30
0.0
 11
114.274134
 21
163.592732
 31
0.0
  0
LINE
  5
19B
100
AcDbEntity
  8
ALPHA
100
AcDbLine
 10
113.213465
 20
161.517033
 30
0.0
 11
113.213465
 21
163.592732
 31
0.0
  0
LINE
  5
19C
100
AcDbEntity
  8
ALPHA
100
AcDbLine
 10
114.243799
 20
161.512089
 30
0.0
 11
114.243799
 21
163.497029
 31
0.0
  0
ARC
  5
19D
100
AcDbEntity
  8
ALPHA
100
AcDbCircle
 10
113.743799
 20
164.123066
 30
0.0
 40
2.763781
100
AcDbArc
 50
310.826118
 51
78.937162
  0
ARC
  5
19E
100
AcDbEntity
  8
ALPHA
100
AcDbCircle
 10
113.743799
 20
164.123066
 30
0.0
 40
2.763781
100
AcDbArc
 50
101.062867
 51
229.173884
  0
ARC
  5
19F
100
AcDbEntity
  8
ALPHA
100
AcDbCircle
 10
113.743799
 20
164.123066
 30
0.0
 40
2.860018
100
AcDbArc
 50
79.313851
 51
100.686113
  0
LINE
  5
1A0
100
AcDbEntity
  8
ALPHA
100
AcDbLine
 10
114.243799
 20
164.749104
 30
0.0
 11
114.243799
 21
166.939045
 31
0.0
  0
LINE
  5
1A1
100
AcDbEntity
  8
ALPHA
100
AcDbLine
 10
113.243799
 20
164.749073
 30
0.0
 11
113.243799
 21
166.939045
 31
0.0
  0
LINE
  5
1A2
100
AcDbEntity
  8
ALPHA
100
AcDbLine
 10
113.243799
 20
161.512089
 30
0.0
 11
113.243799
 21
163.497029
 31
0.0
  0
ARC
  5
1A3
100
AcDbEntity
  8
ALPHA
100
AcDbCircle
 10
113.743799
 20
164.123066
 30
0.0
 40
3.0
100
AcDbArc
 50
343.481416
 51
196.518568
  0
LINE
  5
1A4
100
AcDbEntity
  8
ALPHA
100
AcDbLine
 10
113.406671
 20
165.643055
 30
0.0
 11
114.080927
 21
165.643055
 31
0.0
  0
LINE
  5
1A5
100
AcDbEntity
  8
ALPHA
100
AcDbLine
 10
115.240473
 20
166.723072
 30
0.0
 11
116.200693
 21
166.723072
 31
0.0
  0
LINE
  5
1A6
100
AcDbEntity
  8
ALPHA
100
AcDbLine
 10
116.281519
 20
165.723072
 30
0.0
 11
116.766535
 21
165.723072
 31
0.0
  0
LINE
  5
1A7
100
AcDbEntity
  8
ALPHA
100
AcDbLine
 10
111.286882
 20
166.723072
 30
0.0
 11
112.247118
 21
166.723072
 31
0.0
  0
LINE
  5
1A8
100
AcDbEntity
  8
ALPHA
100
AcDbLine
 10
110.721056
 20
165.723072
 30
0.0
 11
111.206072
 21
165.723072
 31
0.0
  0
LINE
  5
1A9
100
AcDbEntity
  8
AXE
100
AcDbLine
 10
110.643785
 20
164.123066
 30
0.0
 11
116.843805
 21
164.123066
 31
0.0
  0
LINE
  5
1AA
100
AcDbEntity
  8
ALPHA
100
AcDbLine
 10
111.330965
 20
160.760853
 30
0.0
 11
111.330965
 21
158.834645
 31
0.0
  0
CIRCLE
  5
1AB
100
AcDbEntity
  8
ALPHA
100
AcDbCircle
 10
100.843859
 20
159.797749
 30
0.0
 40
0.752626
  0
LINE
  5
1AC
100
AcDbEntity
  8
ALPHA
100
AcDbLine
 10
110.929872
 20
159.645024
 30
0.0
 11
111.054231
 21
159.645024
 31
0.0
  0
LWPOLYLINE
  5
1AD
100
AcDbEntity
  8
ALPHA
100
AcDbPolyline
 90
        9
 70
     0
 43
0.0
 10
110.576336
 20
159.740871
 10
110.594922
 20
159.691846
 10
110.627064
 20
159.649198
 10
110.670414
 20
159.616041
 10
110.721809
 20
159.594795
 10
110.777496
 20
159.587011
 10
110.83341
 20
159.593257
 10
110.88547
 20
159.613078
 10
110.929876
 20
159.645026
  0
LINE
  5
1B8
100
AcDbEntity
  8
ALPHA
100
AcDbLine
 10
110.576357
 20
159.740864
 30
0.0
 11
111.091417
 21
159.740864
 31
0.0
  0
LINE
  5
1B9
100
AcDbEntity
  8
ALPHA
100
AcDbLine
 10
110.576357
 20
159.817539
 30
0.0
 11
110.98488
 21
159.817539
 31
0.0
  0
LWPOLYLINE
  5
1BA
100
AcDbEntity
  8
ALPHA
100
AcDbPolyline
 90
        9
 70
     0
 43
0.0
 10
110.984886
 20
159.817548
 10
110.959058
 20
159.878579
 10
110.9125
 20
159.928068
 10
110.850622
 20
159.960264
 10
110.780611
 20
159.971429
 10
110.7106
 20
159.960264
 10
110.648722
 20
159.928068
 10
110.602164
 20
159.878579
 10
110.576336
 20
159.817548
  0
LWPOLYLINE
  5
1C5
100
AcDbEntity
  8
ALPHA
100
AcDbPolyline
 90
        9
 70
     0
 43
0.0
 10
111.091413
 20
159.740871
 10
111.03995
 20
159.933474
 10
110.853207
 20
160.045607
 10
110.628596
 20
160.018778
 10
110.48328
 20
159.866982
 10
110.493063
 20
159.6694
 10
110.652841
 20
159.529099
 10
110.879268
 20
159.519264
 10
111.054232
 20
159.645026
  0
LINE
  5
1D0
100
AcDbEntity
  8
ALPHA
100
AcDbLine
 10
110.205538
 20
159.522816
 30
0.0
 11
110.205538
 21
159.641239
 31
0.0
  0
LINE
  5
1D1
100
AcDbEntity
  8
ALPHA
100
AcDbLine
 10
110.334917
 20
159.522816
 30
0.0
 11
110.205522
 21
159.522816
 31
0.0
  0
LINE
  5
1D2
100
AcDbEntity
  8
ALPHA
100
AcDbLine
 10
110.334917
 20
159.522816
 30
0.0
 11
110.334917
 21
160.035572
 31
0.0
  0
LINE
  5
1D3
100
AcDbEntity
  8
ALPHA
100
AcDbLine
 10
110.334917
 20
160.035588
 30
0.0
 11
110.205522
 21
160.035588
 31
0.0
  0
LINE
  5
1D4
100
AcDbEntity
  8
ALPHA
100
AcDbLine
 10
110.205538
 20
159.740742
 30
0.0
 11
110.205538
 21
160.035572
 31
0.0
  0
ARC
  5
1D5
100
AcDbEntity
  8
ALPHA
100
AcDbCircle
 10
110.066576
 20
159.740742
 30
0.0
 40
0.138976
100
AcDbArc
 50
296.387999
 51
359.999955
  0
ARC
  5
1D6
100
AcDbEntity
  8
ALPHA
100
AcDbCircle
 10
110.023439
 20
159.70113
 30
0.0
 40
0.191691
100
AcDbArc
 50
281.537256
 51
341.791545
  0
ARC
  5
1D7
100
AcDbEntity
  8
ALPHA
100
AcDbCircle
 10
110.028231
 20
159.818028
 30
0.0
 40
0.225237
100
AcDbArc
 50
243.610253
 51
296.38789
  0
ARC
  5
1D8
100
AcDbEntity
  8
ALPHA
100
AcDbCircle
 10
109.989885
 20
159.740757
 30
0.0
 40
0.138976
100
AcDbArc
 50
179.999964
 51
243.610062
  0
ARC
  5
1D9
100
AcDbEntity
  8
ALPHA
100
AcDbCircle
 10
109.985109
 20
159.888951
 30
0.0
 40
0.383381
100
AcDbArc
 50
243.612221
 51
281.537092
  0
ARC
  5
1DA
100
AcDbEntity
  8
ALPHA
100
AcDbCircle
 10
109.889253
 20
159.695759
 30
0.0
 40
0.167729
100
AcDbArc
 50
179.999964
 51
243.612357
  0
LINE
  5
1DB
100
AcDbEntity
  8
ALPHA
100
AcDbLine
 10
109.850908
 20
159.740757
 30
0.0
 11
109.850908
 21
160.035572
 31
0.0
  0
LINE
  5
1DC
100
AcDbEntity
  8
ALPHA
100
AcDbLine
 10
109.721514
 20
159.695759
 30
0.0
 11
109.721514
 21
160.035572
 31
0.0
  0
LINE
  5
1DD
100
AcDbEntity
  8
ALPHA
100
AcDbLine
 10
109.850908
 20
160.035588
 30
0.0
 11
109.721514
 21
160.035588
 31
0.0
  0
LINE
  5
1DE
100
AcDbEntity
  8
ALPHA
100
AcDbLine
 10
109.419618
 20
159.568257
 30
0.0
 11
109.419618
 21
159.286076
 31
0.0
  0
LINE
  5
1DF
100
AcDbEntity
  8
ALPHA
100
AcDbLine
 10
109.419618
 20
159.286076
 30
0.0
 11
109.549013
 21
159.286076
 31
0.0
  0
LINE
  5
1E0
100
AcDbEntity
  8
ALPHA
100
AcDbLine
 10
109.419618
 20
160.035588
 30
0.0
 11
109.419618
 21
159.990147
 31
0.0
  0
LINE
  5
1E1
100
AcDbEntity
  8
ALPHA
100
AcDbLine
 10
109.549013
 20
160.035588
 30
0.0
 11
109.549013
 21
159.286076
 31
0.0
  0
LINE
  5
1E2
100
AcDbEntity
  8
ALPHA
100
AcDbLine
 10
109.419618
 20
160.035588
 30
0.0
 11
109.549013
 21
160.035588
 31
0.0
  0
CIRCLE
  5
1E3
100
AcDbEntity
  8
ALPHA
100
AcDbCircle
 10
109.222185
 20
159.779209
 30
0.0
 40
0.195045
  0
LWPOLYLINE
  5
1E4
100
AcDbEntity
  8
ALPHA
100
AcDbPolyline
 90
        9
 70
     0
 43
0.0
 10
109.419626
 20
159.990152
 10
109.260855
 20
160.050655
 10
109.090052
 20
160.026705
 10
108.960359
 20
159.925754
 10
108.912125
 20
159.779209
 10
108.960359
 20
159.632665
 10
109.090052
 20
159.531714
 10
109.260855
 20
159.507764
 10
109.419626
 20
159.568267
  0
LINE
  5
1EF
100
AcDbEntity
  8
ALPHA
100
AcDbLine
 10
108.780336
 20
160.225849
 30
0.0
 11
108.780336
 21
160.137181
 31
0.0
  0
LINE
  5
1F0
100
AcDbEntity
  8
ALPHA
100
AcDbLine
 10
108.650957
 20
160.225849
 30
0.0
 11
108.650957
 21
160.137181
 31
0.0
  0
LINE
  5
1F1
100
AcDbEntity
  8
ALPHA
100
AcDbLine
 10
108.650957
 20
160.225849
 30
0.0
 11
108.780336
 21
160.225849
 31
0.0
  0
LINE
  5
1F2
100
AcDbEntity
  8
ALPHA
100
AcDbLine
 10
108.650957
 20
160.137181
 30
0.0
 11
108.780336
 21
160.137181
 31
0.0
  0
LINE
  5
1F3
100
AcDbEntity
  8
ALPHA
100
AcDbLine
 10
108.650957
 20
159.522816
 30
0.0
 11
108.780336
 21
159.522816
 31
0.0
  0
LINE
  5
1F4
100
AcDbEntity
  8
ALPHA
100
AcDbLine
 10
108.780336
 20
160.035588
 30
0.0
 11
108.780336
 21
159.522816
 31
0.0
  0
LINE
  5
1F5
100
AcDbEntity
  8
ALPHA
100
AcDbLine
 10
108.650957
 20
160.035588
 30
0.0
 11
108.780336
 21
160.035588
 31
0.0
  0
LINE
  5
1F6
100
AcDbEntity
  8
ALPHA
100
AcDbLine
 10
108.650957
 20
160.035588
 30
0.0
 11
108.650957
 21
159.522816
 31
0.0
  0
ARC
  5
1F7
100
AcDbEntity
  8
ALPHA
100
AcDbCircle
 10
108.166933
 20
159.740391
 30
0.0
 40
0.225237
100
AcDbArc
 50
63.612338
 51
116.387953
  0
ARC
  5
1F8
100
AcDbEntity
  8
ALPHA
100
AcDbCircle
 10
108.205263
 20
159.817662
 30
0.0
 40
0.138976
100
AcDbArc
 50
0.0
 51
63.612502
  0
LINE
  5
1F9
100
AcDbEntity
  8
ALPHA
100
AcDbLine
 10
108.34424
 20
159.817662
 30
0.0
 11
108.34424
 21
159.522816
 31
0.0
  0
LINE
  5
1FA
100
AcDbEntity
  8
ALPHA
100
AcDbLine
 10
108.34424
 20
159.522816
 30
0.0
 11
108.473635
 21
159.522816
 31
0.0
  0
LINE
  5
1FB
100
AcDbEntity
  8
ALPHA
100
AcDbLine
 10
108.473635
 20
159.862644
 30
0.0
 11
108.473635
 21
159.522816
 31
0.0
  0
ARC
  5
1FC
100
AcDbEntity
  8
ALPHA
100
AcDbCircle
 10
108.305895
 20
159.862644
 30
0.0
 40
0.167729
100
AcDbArc
 50
0.0
 51
63.612393
  0
ARC
  5
1FD
100
AcDbEntity
  8
ALPHA
100
AcDbCircle
 10
108.210054
 20
159.669468
 30
0.0
 40
0.383381
100
AcDbArc
 50
63.612284
 51
101.537155
  0
ARC
  5
1FE
100
AcDbEntity
  8
ALPHA
100
AcDbCircle
 10
108.171724
 20
159.857273
 30
0.0
 40
0.191691
100
AcDbArc
 50
101.537319
 51
161.805105
  0
LINE
  5
1FF
100
AcDbEntity
  8
ALPHA
100
AcDbLine
 10
107.989611
 20
160.035588
 30
0.0
 11
107.989611
 21
159.917134
 31
0.0
  0
ARC
  5
200
100
AcDbEntity
  8
ALPHA
100
AcDbCircle
 10
108.128588
 20
159.817662
 30
0.0
 40
0.138976
100
AcDbArc
 50
116.388063
 51
180.000019
  0
LINE
  5
201
100
AcDbEntity
  8
ALPHA
100
AcDbLine
 10
107.989611
 20
159.817662
 30
0.0
 11
107.989611
 21
159.522816
 31
0.0
  0
LINE
  5
202
100
AcDbEntity
  8
ALPHA
100
AcDbLine
 10
107.860231
 20
160.035588
 30
0.0
 11
107.989611
 21
160.035588
 31
0.0
  0
LINE
  5
203
100
AcDbEntity
  8
ALPHA
100
AcDbLine
 10
107.860231
 20
159.522816
 30
0.0
 11
107.989611
 21
159.522816
 31
0.0
  0
LINE
  5
204
100
AcDbEntity
  8
ALPHA
100
AcDbLine
 10
107.860231
 20
160.035588
 30
0.0
 11
107.860231
 21
159.522816
 31
0.0
  0
LINE
  5
205
100
AcDbEntity
  8
ALPHA
100
AcDbLine
 10
107.501146
 20
159.766056
 30
0.0
 11
107.553514
 21
159.818424
 31
0.0
  0
ARC
  5
206
100
AcDbEntity
  8
ALPHA
100
AcDbCircle
 10
107.467256
 20
159.799946
 30
0.0
 40
0.047923
100
AcDbArc
 50
285.826669
 51
315.445839
  0
ARC
  5
207
100
AcDbEntity
  8
ALPHA
100
AcDbCircle
 10
107.330675
 20
159.942143
 30
0.0
 40
0.35942
100
AcDbArc
 50
254.119838
 51
308.316132
  0
ARC
  5
208
100
AcDbEntity
  8
ALPHA
100
AcDbCircle
 10
107.251604
 20
159.664189
 30
0.0
 40
0.07044
100
AcDbArc
 50
120.410334
 51
254.119866
  0
ARC
  5
209
100
AcDbEntity
  8
ALPHA
100
AcDbCircle
 10
107.316301
 20
159.194554
 30
0.0
 40
0.551111
100
AcDbArc
 50
84.72112
 51
93.88248
  0
ARC
  5
20A
100
AcDbEntity
  8
ALPHA
100
AcDbCircle
 10
107.288713
 20
159.600956
 30
0.0
 40
0.143768
100
AcDbArc
 50
93.88248
 51
120.410388
  0
ARC
  5
20B
100
AcDbEntity
  8
ALPHA
100
AcDbCircle
 10
107.395372
 20
160.053517
 30
0.0
 40
0.311497
100
AcDbArc
 50
264.710074
 51
285.826669
  0
LINE
  5
20C
100
AcDbEntity
  8
ALPHA
100
AcDbLine
 10
107.553514
 20
159.818424
 30
0.0
 11
107.553514
 21
159.660145
 31
0.0
  0
ARC
  5
20D
100
AcDbEntity
  8
ALPHA
100
AcDbCircle
 10
107.395372
 20
159.692158
 30
0.0
 40
0.167729
100
AcDbArc
 50
289.783206
 51
340.537031
  0
ARC
  5
20E
100
AcDbEntity
  8
ALPHA
100
AcDbCircle
 10
107.289949
 20
159.985279
 30
0.0
 40
0.479227
100
AcDbArc
 50
258.372478
 51
289.783206
  0
ARC
  5
20F
100
AcDbEntity
  8
ALPHA
100
AcDbCircle
 10
107.231981
 20
159.703633
 30
0.0
 40
0.191691
100
AcDbArc
 50
226.254729
 51
258.372478
  0
ARC
  5
210
100
AcDbEntity
  8
ALPHA
100
AcDbCircle
 10
107.224031
 20
159.628178
 30
0.0
 40
0.191691
100
AcDbArc
 50
102.15832
 51
121.643156
  0
ARC
  5
211
100
AcDbEntity
  8
ALPHA
100
AcDbCircle
 10
107.1989
 20
159.66898
 30
0.0
 40
0.143768
100
AcDbArc
 50
121.643156
 51
226.388642
  0
ARC
  5
212
100
AcDbEntity
  8
ALPHA
100
AcDbCircle
 10
107.289949
 20
159.323735
 30
0.0
 40
0.503188
100
AcDbArc
 50
83.312899
 51
102.239517
  0
ARC
  5
213
100
AcDbEntity
  8
ALPHA
100
AcDbCircle
 10
107.476366
 20
159.920964
 30
0.0
 40
0.095845
100
AcDbArc
 50
278.851243
 51
298.677643
  0
ARC
  5
214
100
AcDbEntity
  8
ALPHA
100
AcDbCircle
 10
107.409746
 20
160.347096
 30
0.0
 40
0.52715
100
AcDbArc
 50
263.312453
 51
278.890038
  0
ARC
  5
215
100
AcDbEntity
  8
ALPHA
100
AcDbCircle
 10
107.493608
 20
159.889424
 30
0.0
 40
0.059903
100
AcDbArc
 50
298.677588
 51
55.411832
  0
ARC
  5
216
100
AcDbEntity
  8
ALPHA
100
AcDbCircle
 10
107.432405
 20
159.800663
 30
0.0
 40
0.167729
100
AcDbArc
 50
55.411802
 51
70.423403
  0
ARC
  5
217
100
AcDbEntity
  8
ALPHA
100
AcDbCircle
 10
107.376207
 20
159.642628
 30
0.0
 40
0.335459
100
AcDbArc
 50
70.423403
 51
109.639945
  0
ARC
  5
218
100
AcDbEntity
  8
ALPHA
100
AcDbCircle
 10
107.311785
 20
159.82317
 30
0.0
 40
0.143768
100
AcDbArc
 50
109.639945
 51
134.180924
  0
ARC
  5
219
100
AcDbEntity
  8
ALPHA
100
AcDbCircle
 10
107.268373
 20
159.867863
 30
0.0
 40
0.081469
100
AcDbArc
 50
134.09918
 51
162.895586
  0
ARC
  5
21A
100
AcDbEntity
  8
ALPHA
100
AcDbCircle
 10
107.222856
 20
159.867863
 30
0.0
 40
0.143768
100
AcDbArc
 50
123.565335
 51
170.405952
  0
LINE
  5
21B
100
AcDbEntity
  8
ALPHA
100
AcDbLine
 10
107.081102
 20
159.891819
 30
0.0
 11
107.190508
 21
159.891819
 31
0.0
  0
ARC
  5
21C
100
AcDbEntity
  8
ALPHA
100
AcDbCircle
 10
107.302339
 20
159.748066
 30
0.0
 40
0.287536
100
AcDbArc
 50
101.469509
 51
123.565335
  0
ARC
  5
21D
100
AcDbEntity
  8
ALPHA
100
AcDbCircle
 10
107.373812
 20
159.395817
 30
0.0
 40
0.646956
100
AcDbArc
 50
72.842438
 51
101.469509
  0
ARC
  5
21E
100
AcDbEntity
  8
ALPHA
100
AcDbCircle
 10
107.515184
 20
159.853718
 30
0.0
 40
0.167729
100
AcDbArc
 50
0.0
 51
72.842438
  0
LINE
  5
21F
100
AcDbEntity
  8
ALPHA
100
AcDbLine
 10
107.553514
 20
159.63628
 30
0.0
 11
107.553514
 21
159.522816
 31
0.0
  0
LINE
  5
220
100
AcDbEntity
  8
ALPHA
100
AcDbLine
 10
107.553514
 20
159.522816
 30
0.0
 11
107.682909
 21
159.522816
 31
0.0
  0
LINE
  5
221
100
AcDbEntity
  8
ALPHA
100
AcDbLine
 10
107.682909
 20
159.853718
 30
0.0
 11
107.682909
 21
159.522816
 31
0.0
  0
LINE
  5
222
100
AcDbEntity
  8
ALPHA
100
AcDbLine
 10
106.781923
 20
159.69199
 30
0.0
 11
106.914171
 21
159.69199
 31
0.0
  0
LINE
  5
223
100
AcDbEntity
  8
ALPHA
100
AcDbLine
 10
106.781923
 20
159.866429
 30
0.0
 11
106.914171
 21
159.866429
 31
0.0
  0
ARC
  5
224
100
AcDbEntity
  8
ALPHA
100
AcDbCircle
 10
106.616625
 20
159.779209
 30
0.0
 40
0.186898
100
AcDbArc
 50
27.818285
 51
332.181715
  0
LWPOLYLINE
  5
225
100
AcDbEntity
  8
ALPHA
100
AcDbPolyline
 90
        9
 70
     0
 43
0.0
 10
106.914169
 20
159.866429
 10
106.778619
 20
160.013748
 10
106.565969
 20
160.049442
 10
106.377428
 20
159.95652
 10
106.302731
 20
159.779209
 10
106.377428
 20
159.601899
 10
106.565969
 20
159.508977
 10
106.778619
 20
159.54467
 10
106.914169
 20
159.69199
  0
LINE
  5
230
100
AcDbEntity
  8
ALPHA
100
AcDbLine
 10
106.018297
 20
159.645024
 30
0.0
 11
106.142656
 21
159.645024
 31
0.0
  0
LINE
  5
231
100
AcDbEntity
  8
ALPHA
100
AcDbLine
 10
105.664766
 20
159.817539
 30
0.0
 11
106.073305
 21
159.817539
 31
0.0
  0
LINE
  5
232
100
AcDbEntity
  8
ALPHA
100
AcDbLine
 10
105.664766
 20
159.740864
 30
0.0
 11
106.179827
 21
159.740864
 31
0.0
  0
LWPOLYLINE
  5
233
100
AcDbEntity
  8
ALPHA
100
AcDbPolyline
 90
        9
 70
     0
 43
0.0
 10
105.66476
 20
159.740871
 10
105.683347
 20
159.691846
 10
105.715489
 20
159.649198
 10
105.758839
 20
159.616041
 10
105.810234
 20
159.594795
 10
105.865921
 20
159.587011
 10
105.921835
 20
159.593257
 10
105.973895
 20
159.613078
 10
106.018301
 20
159.645026
  0
LWPOLYLINE
  5
23E
100
AcDbEntity
  8
ALPHA
100
AcDbPolyline
 90
        9
 70
     0
 43
0.0
 10
106.073311
 20
159.817548
 10
106.047482
 20
159.878579
 10
106.000925
 20
159.928068
 10
105.939047
 20
159.960264
 10
105.869036
 20
159.971429
 10
105.799025
 20
159.960264
 10
105.737146
 20
159.928068
 10
105.690589
 20
159.878579
 10
105.664761
 20
159.817548
  0
LWPOLYLINE
  5
249
100
AcDbEntity
  8
ALPHA
100
AcDbPolyline
 90
        9
 70
     0
 43
0.0
 10
106.179837
 20
159.740871
 10
106.128375
 20
159.933474
 10
105.941632
 20
160.045607
 10
105.71702
 20
160.018778
 10
105.571705
 20
159.866982
 10
105.581488
 20
159.6694
 10
105.741265
 20
159.529099
 10
105.967692
 20
159.519264
 10
106.142656
 20
159.645026
  0
LINE
  5
254
100
AcDbEntity
  8
ALPHA
100
AcDbLine
 10
104.512819
 20
160.035588
 30
0.0
 11
104.512819
 21
159.976856
 31
0.0
  0
ARC
  5
255
100
AcDbEntity
  8
ALPHA
100
AcDbCircle
 10
104.752443
 20
159.833042
 30
0.0
 40
0.215652
100
AcDbArc
 50
30.405103
 51
69.512638
  0
ARC
  5
256
100
AcDbEntity
  8
ALPHA
100
AcDbCircle
 10
104.718889
 20
159.74326
 30
0.0
 40
0.311497
100
AcDbArc
 50
69.512638
 51
131.41732
  0
ARC
  5
257
100
AcDbEntity
  8
ALPHA
100
AcDbCircle
 10
105.092684
 20
159.876332
 30
0.0
 40
0.167729
100
AcDbArc
 50
108.12643
 51
156.879828
  0
ARC
  5
258
100
AcDbEntity
  8
ALPHA
100
AcDbCircle
 10
105.159777
 20
159.671376
 30
0.0
 40
0.383381
100
AcDbArc
 50
63.612284
 51
108.126375
  0
ARC
  5
259
100
AcDbEntity
  8
ALPHA
100
AcDbCircle
 10
105.255617
 20
159.864567
 30
0.0
 40
0.167729
100
AcDbArc
 50
0.0
 51
63.612393
  0
LINE
  5
25A
100
AcDbEntity
  8
ALPHA
100
AcDbLine
 10
105.423357
 20
159.864567
 30
0.0
 11
105.423357
 21
159.522816
 31
0.0
  0
LINE
  5
25B
100
AcDbEntity
  8
ALPHA
100
AcDbLine
 10
105.293962
 20
159.522816
 30
0.0
 11
105.423357
 21
159.522816
 31
0.0
  0
LINE
  5
25C
100
AcDbEntity
  8
ALPHA
100
AcDbLine
 10
105.293962
 20
159.825901
 30
0.0
 11
105.293962
 21
159.522816
 31
0.0
  0
ARC
  5
25D
100
AcDbEntity
  8
ALPHA
100
AcDbCircle
 10
105.154985
 20
159.825901
 30
0.0
 40
0.138976
100
AcDbArc
 50
0.0
 51
51.317759
  0
ARC
  5
25E
100
AcDbEntity
  8
ALPHA
100
AcDbCircle
 10
105.131029
 20
159.795979
 30
0.0
 40
0.177314
100
AcDbArc
 50
51.317783
 51
128.682567
  0
ARC
  5
25F
100
AcDbEntity
  8
ALPHA
100
AcDbCircle
 10
105.107057
 20
159.825901
 30
0.0
 40
0.138976
100
AcDbArc
 50
128.682676
 51
180.000019
  0
LINE
  5
260
100
AcDbEntity
  8
ALPHA
100
AcDbLine
 10
104.968096
 20
159.825901
 30
0.0
 11
104.968096
 21
159.522816
 31
0.0
  0
LINE
  5
261
100
AcDbEntity
  8
ALPHA
100
AcDbLine
 10
104.838701
 20
159.522816
 30
0.0
 11
104.968096
 21
159.522816
 31
0.0
  0
LINE
  5
262
100
AcDbEntity
  8
ALPHA
100
AcDbLine
 10
104.838701
 20
159.825901
 30
0.0
 11
104.838701
 21
159.522816
 31
0.0
  0
ARC
  5
263
100
AcDbEntity
  8
ALPHA
100
AcDbCircle
 10
104.699724
 20
159.825901
 30
0.0
 40
0.138976
100
AcDbArc
 50
0.0
 51
51.317759
  0
ARC
  5
264
100
AcDbEntity
  8
ALPHA
100
AcDbCircle
 10
104.675768
 20
159.795979
 30
0.0
 40
0.177314
100
AcDbArc
 50
51.317783
 51
128.682567
  0
ARC
  5
265
100
AcDbEntity
  8
ALPHA
100
AcDbCircle
 10
104.651796
 20
159.825901
 30
0.0
 40
0.138976
100
AcDbArc
 50
128.682676
 51
180.000019
  0
LINE
  5
266
100
AcDbEntity
  8
ALPHA
100
AcDbLine
 10
104.512819
 20
159.825901
 30
0.0
 11
104.512819
 21
159.522816
 31
0.0
  0
LINE
  5
267
100
AcDbEntity
  8
ALPHA
100
AcDbLine
 10
104.38344
 20
159.522816
 30
0.0
 11
104.512819
 21
159.522816
 31
0.0
  0
LINE
  5
268
100
AcDbEntity
  8
ALPHA
100
AcDbLine
 10
104.38344
 20
160.035588
 30
0.0
 11
104.512819
 21
160.035588
 31
0.0
  0
LINE
  5
269
100
AcDbEntity
  8
ALPHA
100
AcDbLine
 10
104.38344
 20
160.035588
 30
0.0
 11
104.38344
 21
159.522816
 31
0.0
  0
LINE
  5
26A
100
AcDbEntity
  8
ALPHA
100
AcDbLine
 10
104.087023
 20
159.645024
 30
0.0
 11
104.211382
 21
159.645024
 31
0.0
  0
LINE
  5
26B
100
AcDbEntity
  8
ALPHA
100
AcDbLine
 10
103.733476
 20
159.817539
 30
0.0
 11
104.142015
 21
159.817539
 31
0.0
  0
LINE
  5
26C
100
AcDbEntity
  8
ALPHA
100
AcDbLine
 10
103.733476
 20
159.740864
 30
0.0
 11
104.248552
 21
159.740864
 31
0.0
  0
LWPOLYLINE
  5
26D
100
AcDbEntity
  8
ALPHA
100
AcDbPolyline
 90
        9
 70
     0
 43
0.0
 10
103.733486
 20
159.740871
 10
103.752073
 20
159.691846
 10
103.784214
 20
159.649198
 10
103.827565
 20
159.616041
 10
103.878959
 20
159.594795
 10
103.934646
 20
159.587011
 10
103.990561
 20
159.593257
 10
104.042621
 20
159.613078
 10
104.087026
 20
159.645026
  0
LWPOLYLINE
  5
278
100
AcDbEntity
  8
ALPHA
100
AcDbPolyline
 90
        9
 70
     0
 43
0.0
 10
104.142036
 20
159.817548
 10
104.116208
 20
159.878579
 10
104.06965
 20
159.928068
 10
104.007772
 20
159.960264
 10
103.937761
 20
159.971429
 10
103.86775
 20
159.960264
 10
103.805872
 20
159.928068
 10
103.759315
 20
159.878579
 10
103.733486
 20
159.817548
  0
LWPOLYLINE
  5
283
100
AcDbEntity
  8
ALPHA
100
AcDbPolyline
 90
        9
 70
     0
 43
0.0
 10
104.248563
 20
159.740871
 10
104.1971
 20
159.933474
 10
104.010357
 20
160.045607
 10
103.785746
 20
160.018778
 10
103.640431
 20
159.866982
 10
103.650213
 20
159.6694
 10
103.809991
 20
159.529099
 10
104.036418
 20
159.519264
 10
104.211382
 20
159.645026
  0
LINE
  5
28E
100
AcDbEntity
  8
ALPHA
100
AcDbLine
 10
103.362673
 20
159.522816
 30
0.0
 11
103.492067
 21
159.522816
 31
0.0
  0
LINE
  5
28F
100
AcDbEntity
  8
ALPHA
100
AcDbLine
 10
103.492067
 20
160.21291
 30
0.0
 11
103.492067
 21
159.522816
 31
0.0
  0
LINE
  5
290
100
AcDbEntity
  8
ALPHA
100
AcDbLine
 10
103.362673
 20
160.21291
 30
0.0
 11
103.492067
 21
160.21291
 31
0.0
  0
LINE
  5
291
100
AcDbEntity
  8
ALPHA
100
AcDbLine
 10
103.362673
 20
160.21291
 30
0.0
 11
103.362673
 21
159.522816
 31
0.0
  0
LINE
  5
292
100
AcDbEntity
  8
ALPHA
100
AcDbLine
 10
103.066255
 20
159.645024
 30
0.0
 11
103.190615
 21
159.645024
 31
0.0
  0
LINE
  5
293
100
AcDbEntity
  8
ALPHA
100
AcDbLine
 10
102.712725
 20
159.740864
 30
0.0
 11
103.2278
 21
159.740864
 31
0.0
  0
LINE
  5
294
100
AcDbEntity
  8
ALPHA
100
AcDbLine
 10
102.712725
 20
159.817539
 30
0.0
 11
103.121263
 21
159.817539
 31
0.0
  0
LWPOLYLINE
  5
295
100
AcDbEntity
  8
ALPHA
100
AcDbPolyline
 90
        9
 70
     0
 43
0.0
 10
102.712719
 20
159.740871
 10
102.731305
 20
159.691846
 10
102.763447
 20
159.649198
 10
102.806797
 20
159.616041
 10
102.858192
 20
159.594795
 10
102.913879
 20
159.587011
 10
102.969793
 20
159.593257
 10
103.021853
 20
159.613078
 10
103.066259
 20
159.645026
  0
LWPOLYLINE
  5
2A0
100
AcDbEntity
  8
ALPHA
100
AcDbPolyline
 90
        9
 70
     0
 43
0.0
 10
103.121269
 20
159.817548
 10
103.095441
 20
159.878579
 10
103.048883
 20
159.928068
 10
102.987005
 20
159.960264
 10
102.916994
 20
159.971429
 10
102.846983
 20
159.960264
 10
102.785105
 20
159.928068
 10
102.738547
 20
159.878579
 10
102.712719
 20
159.817548
  0
LWPOLYLINE
  5
2AB
100
AcDbEntity
  8
ALPHA
100
AcDbPolyline
 90
        9
 70
     0
 43
0.0
 10
103.227796
 20
159.740871
 10
103.176333
 20
159.933474
 10
102.98959
 20
160.045607
 10
102.764979
 20
160.018778
 10
102.619664
 20
159.866982
 10
102.629446
 20
159.6694
 10
102.789224
 20
159.529099
 10
103.015651
 20
159.519264
 10
103.190615
 20
159.645026
  0
LINE
  5
2B6
100
AcDbEntity
  8
ALPHA
100
AcDbLine
 10
102.085543
 20
160.21291
 30
0.0
 11
102.085543
 21
160.126637
 31
0.0
  0
LINE
  5
2B7
100
AcDbEntity
  8
ALPHA
100
AcDbLine
 10
102.698946
 20
160.21291
 30
0.0
 11
102.698946
 21
160.126637
 31
0.0
  0
LINE
  5
2B8
100
AcDbEntity
  8
ALPHA
100
AcDbLine
 10
102.327547
 20
159.522816
 30
0.0
 11
102.456941
 21
159.522816
 31
0.0
  0
LINE
  5
2B9
100
AcDbEntity
  8
ALPHA
100
AcDbLine
 10
102.456941
 20
160.126637
 30
0.0
 11
102.456941
 21
159.522816
 31
0.0
  0
LINE
  5
2BA
100
AcDbEntity
  8
ALPHA
100
AcDbLine
 10
102.327547
 20
160.126637
 30
0.0
 11
102.327547
 21
159.522816
 31
0.0
  0
LINE
  5
2BB
100
AcDbEntity
  8
ALPHA
100
AcDbLine
 10
102.456941
 20
160.126637
 30
0.0
 11
102.698946
 21
160.126637
 31
0.0
  0
LINE
  5
2BC
100
AcDbEntity
  8
ALPHA
100
AcDbLine
 10
102.085543
 20
160.126637
 30
0.0
 11
102.327547
 21
160.126637
 31
0.0
  0
LINE
  5
2BD
100
AcDbEntity
  8
ALPHA
100
AcDbLine
 10
102.085543
 20
160.21291
 30
0.0
 11
102.698946
 21
160.21291
 31
0.0
  0
LINE
  5
2BE
100
AcDbEntity
  8
ALPHA
100
AcDbLine
 10
101.092897
 20
160.116642
 30
0.0
 11
101.346651
 21
160.116642
 31
0.0
  0
ARC
  5
2BF
100
AcDbEntity
  8
ALPHA
100
AcDbCircle
 10
100.843859
 20
159.797749
 30
0.0
 40
0.404611
100
AcDbArc
 50
52.013444
 51
59.178507
  0
LINE
  5
2C0
100
AcDbEntity
  8
ALPHA
100
AcDbLine
 10
100.939257
 20
160.145222
 30
0.0
 11
101.05118
 21
160.145222
 31
0.0
  0
ARC
  5
2C1
100
AcDbEntity
  8
ALPHA
100
AcDbCircle
 10
100.843859
 20
159.797749
 30
0.0
 40
0.404611
100
AcDbArc
 50
120.821511
 51
127.986653
  0
LINE
  5
2C2
100
AcDbEntity
  8
ALPHA
100
AcDbLine
 10
100.341081
 20
160.116642
 30
0.0
 11
100.594835
 21
160.116642
 31
0.0
  0
LINE
  5
2C3
100
AcDbEntity
  8
ALPHA
100
AcDbLine
 10
100.636553
 20
160.145222
 30
0.0
 11
100.748476
 21
160.145222
 31
0.0
  0
LINE
  5
2C4
100
AcDbEntity
  8
ALPHA
100
AcDbLine
 10
100.939257
 20
159.378849
 30
0.0
 11
100.967821
 21
159.378849
 31
0.0
  0
LINE
  5
2C5
100
AcDbEntity
  8
ALPHA
100
AcDbLine
 10
100.967821
 20
159.378849
 30
0.0
 11
100.967821
 21
159.202366
 31
0.0
  0
LINE
  5
2C6
100
AcDbEntity
  8
ALPHA
100
AcDbLine
 10
100.719896
 20
159.202366
 30
0.0
 11
100.967821
 21
159.202366
 31
0.0
  0
LINE
  5
2C7
100
AcDbEntity
  8
ALPHA
100
AcDbLine
 10
100.719896
 20
159.378849
 30
0.0
 11
100.719896
 21
159.202366
 31
0.0
  0
LINE
  5
2C8
100
AcDbEntity
  8
ALPHA
100
AcDbLine
 10
100.719896
 20
159.378849
 30
0.0
 11
100.748476
 21
159.378849
 31
0.0
  0
LINE
  5
2C9
100
AcDbEntity
  8
ALPHA
100
AcDbLine
 10
100.748476
 20
159.430928
 30
0.0
 11
100.748476
 21
159.378849
 31
0.0
  0
LINE
  5
2CA
100
AcDbEntity
  8
ALPHA
100
AcDbLine
 10
100.939257
 20
159.430928
 30
0.0
 11
100.939257
 21
159.378849
 31
0.0
  0
LINE
  5
2CB
100
AcDbEntity
  8
ALPHA
100
AcDbLine
 10
100.939257
 20
159.430928
 30
0.0
 11
101.312837
 21
159.430928
 31
0.0
  0
ARC
  5
2CC
100
AcDbEntity
  8
ALPHA
100
AcDbCircle
 10
100.843859
 20
159.797749
 30
0.0
 40
0.595391
100
AcDbArc
 50
321.968205
 51
345.659591
  0
LINE
  5
2CD
100
AcDbEntity
  8
ALPHA
100
AcDbLine
 10
100.374895
 20
159.430928
 30
0.0
 11
100.748476
 21
159.430928
 31
0.0
  0
ARC
  5
2CE
100
AcDbEntity
  8
ALPHA
100
AcDbCircle
 10
100.843859
 20
159.797749
 30
0.0
 40
0.595391
100
AcDbArc
 50
197.197684
 51
218.031728
  0
LINE
  5
2CF
100
AcDbEntity
  8
ALPHA
100
AcDbLine
 10
100.275102
 20
159.621708
 30
0.0
 11
100.334184
 21
159.621708
 31
0.0
  0
ARC
  5
2D0
100
AcDbEntity
  8
ALPHA
100
AcDbCircle
 10
100.843859
 20
159.797749
 30
0.0
 40
0.38065
100
AcDbArc
 50
9.336418
 51
13.726734
  0
ARC
  5
2D1
100
AcDbEntity
  8
ALPHA
100
AcDbCircle
 10
100.843859
 20
159.797749
 30
0.0
 40
0.404611
100
AcDbArc
 50
334.209407
 51
338.625179
  0
LINE
  5
2D2
100
AcDbEntity
  8
ALPHA
100
AcDbLine
 10
101.220644
 20
159.650288
 30
0.0
 11
101.420702
 21
159.650288
 31
0.0
  0
LINE
  5
2D3
100
AcDbEntity
  8
ALPHA
100
AcDbLine
 10
100.939257
 20
159.621708
 30
0.0
 11
101.208162
 21
159.621708
 31
0.0
  0
LINE
  5
2D4
100
AcDbEntity
  8
ALPHA
100
AcDbLine
 10
100.939257
 20
159.888081
 30
0.0
 11
101.21364
 21
159.888081
 31
0.0
  0
LINE
  5
2D5
100
AcDbEntity
  8
ALPHA
100
AcDbLine
 10
101.034197
 20
159.63094
 30
0.0
 11
101.21068
 21
159.63094
 31
0.0
  0
LINE
  5
2D6
100
AcDbEntity
  8
ALPHA
100
AcDbLine
 10
101.034197
 20
159.659504
 30
0.0
 11
101.034197
 21
159.63094
 31
0.0
  0
LINE
  5
2D7
100
AcDbEntity
  8
ALPHA
100
AcDbLine
 10
100.939257
 20
159.659504
 30
0.0
 11
101.034197
 21
159.659504
 31
0.0
  0
LINE
  5
2D8
100
AcDbEntity
  8
ALPHA
100
AcDbLine
 10
100.939257
 20
159.659504
 30
0.0
 11
100.939257
 21
159.621708
 31
0.0
  0
LINE
  5
2D9
100
AcDbEntity
  8
ALPHA
100
AcDbLine
 10
100.524965
 20
159.659504
 30
0.0
 11
100.524965
 21
159.621708
 31
0.0
  0
LINE
  5
2DA
100
AcDbEntity
  8
ALPHA
100
AcDbLine
 10
100.748476
 20
159.659504
 30
0.0
 11
100.748476
 21
159.621708
 31
0.0
  0
LINE
  5
2DB
100
AcDbEntity
  8
ALPHA
100
AcDbLine
 10
100.524965
 20
159.621708
 30
0.0
 11
100.748476
 21
159.621708
 31
0.0
  0
LINE
  5
2DC
100
AcDbEntity
  8
ALPHA
100
AcDbLine
 10
100.524965
 20
159.659504
 30
0.0
 11
100.748476
 21
159.659504
 31
0.0
  0
LINE
  5
2DD
100
AcDbEntity
  8
ALPHA
100
AcDbLine
 10
100.334184
 20
159.888081
 30
0.0
 11
100.334184
 21
159.621708
 31
0.0
  0
LINE
  5
2DE
100
AcDbEntity
  8
ALPHA
100
AcDbLine
 10
100.255358
 20
159.888081
 30
0.0
 11
100.334184
 21
159.888081
 31
0.0
  0
ARC
  5
2DF
100
AcDbEntity
  8
ALPHA
100
AcDbCircle
 10
100.843859
 20
159.797749
 30
0.0
 40
0.595391
100
AcDbArc
 50
151.827128
 51
171.274151
  0
LINE
  5
2E0
100
AcDbEntity
  8
ALPHA
100
AcDbLine
 10
100.319017
 20
160.078861
 30
0.0
 11
100.748476
 21
160.078861
 31
0.0
  0
ARC
  5
2E1
100
AcDbEntity
  8
ALPHA
100
AcDbCircle
 10
100.843859
 20
159.797749
 30
0.0
 40
0.595391
100
AcDbArc
 50
5.95335
 51
28.172922
  0
LINE
  5
2E2
100
AcDbEntity
  8
ALPHA
100
AcDbLine
 10
100.939257
 20
160.078861
 30
0.0
 11
101.368715
 21
160.078861
 31
0.0
  0
LINE
  5
2E3
100
AcDbEntity
  8
ALPHA
100
AcDbLine
 10
101.219469
 20
159.859501
 30
0.0
 11
101.436037
 21
159.859501
 31
0.0
  0
LINE
  5
2E4
100
AcDbEntity
  8
ALPHA
100
AcDbLine
 10
100.939257
 20
159.850285
 30
0.0
 11
101.034197
 21
159.850285
 31
0.0
  0
LINE
  5
2E5
100
AcDbEntity
  8
ALPHA
100
AcDbLine
 10
101.034197
 20
159.878849
 30
0.0
 11
101.034197
 21
159.850285
 31
0.0
  0
LINE
  5
2E6
100
AcDbEntity
  8
ALPHA
100
AcDbLine
 10
101.21068
 20
159.878849
 30
0.0
 11
101.21068
 21
159.63094
 31
0.0
  0
LINE
  5
2E7
100
AcDbEntity
  8
ALPHA
100
AcDbLine
 10
101.034197
 20
159.878849
 30
0.0
 11
101.21068
 21
159.878849
 31
0.0
  0
LINE
  5
2E8
100
AcDbEntity
  8
ALPHA
100
AcDbLine
 10
100.939257
 20
159.888081
 30
0.0
 11
100.939257
 21
159.850285
 31
0.0
  0
LINE
  5
2E9
100
AcDbEntity
  8
ALPHA
100
AcDbLine
 10
100.939257
 20
160.145222
 30
0.0
 11
100.939257
 21
160.078861
 31
0.0
  0
LINE
  5
2EA
100
AcDbEntity
  8
ALPHA
100
AcDbLine
 10
100.748476
 20
160.145222
 30
0.0
 11
100.748476
 21
160.078861
 31
0.0
  0
LINE
  5
2EB
100
AcDbEntity
  8
ALPHA
100
AcDbLine
 10
100.524965
 20
159.888081
 30
0.0
 11
100.524965
 21
159.850285
 31
0.0
  0
LINE
  5
2EC
100
AcDbEntity
  8
ALPHA
100
AcDbLine
 10
100.748476
 20
159.888081
 30
0.0
 11
100.748476
 21
159.850285
 31
0.0
  0
LINE
  5
2ED
100
AcDbEntity
  8
ALPHA
100
AcDbLine
 10
100.524965
 20
159.850285
 30
0.0
 11
100.748476
 21
159.850285
 31
0.0
  0
LINE
  5
2EE
100
AcDbEntity
  8
ALPHA
100
AcDbLine
 10
100.524965
 20
159.888081
 30
0.0
 11
100.748476
 21
159.888081
 31
0.0
  0
ARC
  5
2EF
100
AcDbEntity
  8
ALPHA
100
AcDbCircle
 10
100.843859
 20
159.797749
 30
0.0
 40
0.595391
100
AcDbArc
 50
115.308019
 51
147.614868
  0
LINE
  5
2F0
100
AcDbEntity
  8
ALPHA
100
AcDbLine
 10
100.589342
 20
160.336003
 30
0.0
 11
101.098375
 21
160.336003
 31
0.0
  0
ARC
  5
2F1
100
AcDbEntity
  8
ALPHA
100
AcDbCircle
 10
100.843859
 20
159.797749
 30
0.0
 40
0.595391
100
AcDbArc
 50
32.38514
 51
64.692055
  0
CIRCLE
  5
2F2
100
AcDbEntity
  8
ALPHA
100
AcDbCircle
 10
100.843859
 20
159.797749
 30
0.0
 40
0.611754
  0
LINE
  5
2F3
100
AcDbEntity
  8
ALPHA
100
AcDbLine
 10
99.843859
 20
158.797749
 30
0.0
 11
99.843859
 21
160.797749
 31
0.0
  0
LINE
  5
2F4
100
AcDbEntity
  8
ALPHA
100
AcDbLine
 10
111.367861
 20
160.797749
 30
0.0
 11
111.367861
 21
158.797749
 31
0.0
  0
LINE
  5
2F5
100
AcDbEntity
  8
ALPHA
100
AcDbLine
 10
101.843859
 20
160.760853
 30
0.0
 11
101.843859
 21
158.834645
 31
0.0
  0
LINE
  5
2F6
100
AcDbEntity
  8
ALPHA
100
AcDbLine
 10
99.843859
 20
160.797749
 30
0.0
 11
111.367861
 21
160.797749
 31
0.0
  0
LINE
  5
2F7
100
AcDbEntity
  8
ALPHA
100
AcDbLine
 10
99.843859
 20
158.797749
 30
0.0
 11
111.367861
 21
158.797749
 31
0.0
  0
LINE
  5
2F8
100
AcDbEntity
  8
ALPHA
100
AcDbLine
 10
101.843859
 20
158.834645
 30
0.0
 11
111.330965
 21
158.834645
 31
0.0
  0
LINE
  5
2F9
100
AcDbEntity
  8
ALPHA
100
AcDbLine
 10
101.843859
 20
160.760853
 30
0.0
 11
111.330965
 21
160.760853
 31
0.0
  0
INSERT
  5
34A
100
AcDbEntity
  8
0
100
AcDbBlockReference
  2
SCH_ISO
 10
0.0
 20
0.0
 30
0.0
  0
DIMENSION
  5
357
100
AcDbEntity
  8
COTATION1
100
AcDbDimension
  2
*D4
 10
120.135965
 20
127.875001
 30
0.0
 11
100.739897
 21
130.375001
 31
0.0
  3
SC_STAND
100
AcDbAlignedDimension
 13
81.343828
 23
144.397755
 33
0.0
 14
120.135965
 24
144.397755
 34
0.0
100
AcDbRotatedDimension
  0
ENDSEC
  0
SECTION
  2
OBJECTS
  0
DICTIONARY
  5
373
100
AcDbDictionary
  3
ACAD_GROUP
350
374
  3
ACAD_MLINESTYLE
350
381
  3
ACDBVARIABLEDICTIONARY
350
3C0
  0
DICTIONARY
  5
374
102
{ACAD_REACTORS
330
373
102
}
100
AcDbDictionary
  0
DICTIONARY
  5
381
102
{ACAD_REACTORS
330
373
102
}
100
AcDbDictionary
  3
STANDARD
350
382
  0
DICTIONARY
  5
3C0
102
{ACAD_REACTORS
330
373
102
}
100
AcDbDictionary
  3
DIMADEC
350
3C1
  0
MLINESTYLE
  5
382
102
{ACAD_REACTORS
330
381
102
}
100
AcDbMlineStyle
  2
STANDARD
 70
     0
  3

 62
   256
 51
90.0
 52
90.0
 71
     2
 49
0.5
 62
   256
  6
BYLAYER
 49
-0.5
 62
   256
  6
BYLAYER
  0
DICTIONARYVAR
  5
3C1
102
{ACAD_REACTORS
330
3C0
102
}
100
DictionaryVariables
280
     0
  1
0
  0
ENDSEC
  0
EOF
