  0
SECTION
  2
HEADER
  9
$ACADVER
  1
AC1014
  9
$ACADMAINTVER
 70
     0
  9
$DWGCODEPAGE
  3
ANSI_1252
  9
$INSBASE
 10
93.894301
 20
236.06014
 30
0.0
  9
$EXTMIN
 10
0.137787
 20
-0.060606
 30
-0.001526
  9
$EXTMAX
 10
57.046967
 20
41.95703
 30
0.0
  9
$LIMMIN
 10
0.0
 20
0.0
  9
$LIMMAX
 10
210.0
 20
297.0
  9
$ORTHOMODE
 70
     0
  9
$REGENMODE
 70
     1
  9
$FILLMODE
 70
     1
  9
$QTEXTMODE
 70
     0
  9
$MIRRTEXT
 70
     0
  9
$DRAGMODE
 70
     1
  9
$LTSCALE
 40
7.0
  9
$OSMODE
 70
  4095
  9
$ATTMODE
 70
     1
  9
$TEXTSIZE
 40
2.5
  9
$TRACEWID
 40
0.05
  9
$TEXTSTYLE
  7
STANDARD
  9
$CLAYER
  8
COTATION1
  9
$CELTYPE
  6
BYLAYER
  9
$CECOLOR
 62
   256
  9
$CELTSCALE
 40
1.0
  9
$DELOBJ
 70
     1
  9
$DISPSILH
 70
     0
  9
$DIMSCALE
 40
1.0
  9
$DIMASZ
 40
3.0
  9
$DIMEXO
 40
0.0625
  9
$DIMDLI
 40
0.38
  9
$DIMRND
 40
0.01
  9
$DIMDLE
 40
0.0
  9
$DIMEXE
 40
0.18
  9
$DIMTP
 40
0.0
  9
$DIMTM
 40
0.0
  9
$DIMTXT
 40
2.5
  9
$DIMCEN
 40
0.09
  9
$DIMTSZ
 40
0.0
  9
$DIMTOL
 70
     0
  9
$DIMLIM
 70
     0
  9
$DIMTIH
 70
     0
  9
$DIMTOH
 70
     0
  9
$DIMSE1
 70
     0
  9
$DIMSE2
 70
     0
  9
$DIMTAD
 70
     1
  9
$DIMZIN
 70
    12
  9
$DIMBLK
  1

  9
$DIMASO
 70
     1
  9
$DIMSHO
 70
     0
  9
$DIMPOST
  1

  9
$DIMAPOST
  1

  9
$DIMALT
 70
     0
  9
$DIMALTD
 70
     2
  9
$DIMALTF
 40
25.4
  9
$DIMLFAC
 40
1.0
  9
$DIMTOFL
 70
     1
  9
$DIMTVP
 40
0.0
  9
$DIMTIX
 70
     0
  9
$DIMSOXD
 70
     0
  9
$DIMSAH
 70
     0
  9
$DIMBLK1
  1

  9
$DIMBLK2
  1

  9
$DIMSTYLE
  2
SC_STAND
  9
$DIMCLRD
 70
     0
  9
$DIMCLRE
 70
     0
  9
$DIMCLRT
 70
     0
  9
$DIMTFAC
 40
1.0
  9
$DIMGAP
 40
1.0
  9
$DIMJUST
 70
     0
  9
$DIMSD1
 70
     0
  9
$DIMSD2
 70
     0
  9
$DIMTOLJ
 70
     1
  9
$DIMTZIN
 70
    12
  9
$DIMALTZ
 70
    12
  9
$DIMALTTZ
 70
    12
  9
$DIMFIT
 70
     5
  9
$DIMUPT
 70
     0
  9
$DIMUNIT
 70
     2
  9
$DIMDEC
 70
     3
  9
$DIMTDEC
 70
     3
  9
$DIMALTU
 70
     2
  9
$DIMALTTD
 70
     2
  9
$DIMTXSTY
  7
STANDARD
  9
$DIMAUNIT
 70
     0
  9
$LUNITS
 70
     2
  9
$LUPREC
 70
     3
  9
$SKETCHINC
 40
0.1
  9
$FILLETRAD
 40
0.0625
  9
$AUNITS
 70
     0
  9
$AUPREC
 70
     0
  9
$MENU
  1
ACAD
  9
$ELEVATION
 40
0.0
  9
$PELEVATION
 40
0.0
  9
$THICKNESS
 40
0.0
  9
$LIMCHECK
 70
     0
  9
$BLIPMODE
 70
     1
  9
$CHAMFERA
 40
0.0
  9
$CHAMFERB
 40
0.0
  9
$CHAMFERC
 40
0.0
  9
$CHAMFERD
 40
0.0
  9
$SKPOLY
 70
     0
  9
$TDCREATE
 40
2450953.590960648
  9
$TDUPDATE
 40
2453721.587822361
  9
$TDINDWG
 40
0.0110869676
  9
$TDUSRTIMER
 40
0.0110869676
  9
$USRTIMER
 70
     1
  9
$ANGBASE
 50
0.0
  9
$ANGDIR
 70
     0
  9
$PDMODE
 70
     0
  9
$PDSIZE
 40
0.0
  9
$PLINEWID
 40
0.0
  9
$COORDS
 70
     0
  9
$SPLFRAME
 70
     0
  9
$SPLINETYPE
 70
     6
  9
$SPLINESEGS
 70
     8
  9
$ATTDIA
 70
     0
  9
$ATTREQ
 70
     1
  9
$HANDLING
 70
     1
  9
$HANDSEED
  5
219F
  9
$SURFTAB1
 70
     6
  9
$SURFTAB2
 70
     6
  9
$SURFTYPE
 70
     6
  9
$SURFU
 70
     6
  9
$SURFV
 70
     6
  9
$UCSNAME
  2

  9
$UCSORG
 10
0.0
 20
0.0
 30
0.0
  9
$UCSXDIR
 10
1.0
 20
0.0
 30
0.0
  9
$UCSYDIR
 10
0.0
 20
1.0
 30
0.0
  9
$PUCSNAME
  2

  9
$PUCSORG
 10
0.0
 20
0.0
 30
0.0
  9
$PUCSXDIR
 10
1.0
 20
0.0
 30
0.0
  9
$PUCSYDIR
 10
0.0
 20
1.0
 30
0.0
  9
$USERI1
 70
     0
  9
$USERI2
 70
     0
  9
$USERI3
 70
     0
  9
$USERI4
 70
     0
  9
$USERI5
 70
     0
  9
$USERR1
 40
0.0
  9
$USERR2
 40
0.0
  9
$USERR3
 40
0.0
  9
$USERR4
 40
0.0
  9
$USERR5
 40
0.0
  9
$WORLDVIEW
 70
     1
  9
$SHADEDGE
 70
     3
  9
$SHADEDIF
 70
    70
  9
$TILEMODE
 70
     1
  9
$MAXACTVP
 70
    32
  9
$PINSBASE
 10
0.0
 20
0.0
 30
0.0
  9
$PLIMCHECK
 70
     0
  9
$PEXTMIN
 10
-3.174999
 20
-3.175
 30
0.0
  9
$PEXTMAX
 10
203.812116
 20
370.276807
 30
0.0
  9
$PLIMMIN
 10
-3.175
 20
-3.175
  9
$PLIMMAX
 10
203.812115
 20
370.276807
  9
$UNITMODE
 70
     0
  9
$VISRETAIN
 70
     0
  9
$PLINEGEN
 70
     0
  9
$PSLTSCALE
 70
     1
  9
$TREEDEPTH
 70
  3020
  9
$PICKSTYLE
 70
     1
  9
$CMLSTYLE
  2
STANDARD
  9
$CMLJUST
 70
     0
  9
$CMLSCALE
 40
1.0
  9
$PROXYGRAPHICS
 70
     1
  9
$MEASUREMENT
 70
     0
  0
ENDSEC
  0
SECTION
  2
CLASSES
  0
CLASS
  1
DICTIONARYVAR
  2
AcDbDictionaryVar
  3
"AutoCAD"
 90
        0
280
     0
281
     0
  0
CLASS
  1
HATCH
  2
AcDbHatch
  3
"ACAD_SEDONA"
 90
        0
280
     0
281
     1
  0
ENDSEC
  0
SECTION
  2
TABLES
  0
TABLE
  2
VPORT
  5
F4
100
AcDbSymbolTable
 70
     3
  0
VPORT
  5
219E
100
AcDbSymbolTableRecord
100
AcDbViewportTableRecord
  2
*ACTIVE
 70
     0
 10
0.0
 20
0.0
 11
1.0
 21
1.0
 12
28.592377
 22
20.948212
 13
0.0
 23
0.0
 14
1.0
 24
1.0
 15
10.0
 25
10.0
 16
0.0
 26
0.0
 36
1.0
 17
0.0
 27
0.0
 37
0.0
 40
42.346326
 41
1.643603
 42
50.0
 43
0.0
 44
0.0
 50
0.0
 51
0.0
 71
     0
 72
   100
 73
     1
 74
     1
 75
     0
 76
     1
 77
     0
 78
     0
  0
ENDTAB
  0
TABLE
  2
LTYPE
  5
F1
100
AcDbSymbolTable
 70
     5
  0
LTYPE
  5
FD
100
AcDbSymbolTableRecord
100
AcDbLinetypeTableRecord
  2
BYBLOCK
 70
     0
  3

 72
    65
 73
     0
 40
0.0
  0
LTYPE
  5
FE
100
AcDbSymbolTableRecord
100
AcDbLinetypeTableRecord
  2
BYLAYER
 70
     0
  3

 72
    65
 73
     0
 40
0.0
  0
LTYPE
  5
FF
100
AcDbSymbolTableRecord
100
AcDbLinetypeTableRecord
  2
CONTINUOUS
 70
     0
  3
Solid line
 72
    65
 73
     0
 40
0.0
  0
LTYPE
  5
112
100
AcDbSymbolTableRecord
100
AcDbLinetypeTableRecord
  2
AXES2
 70
     0
  3
___ _ ___ _ ___ _ ___ _ ___ _ ___ _ ___ _ ___ _
 72
    65
 73
     4
 40
1.125
 49
0.75
 74
     0
 49
-0.125
 74
     0
 49
0.125
 74
     0
 49
-0.125
 74
     0
  0
ENDTAB
  0
TABLE
  2
LAYER
  5
EE
100
AcDbSymbolTable
 70
     6
  0
LAYER
  5
FA
100
AcDbSymbolTableRecord
100
AcDbLayerTableRecord
  2
0
 70
     0
 62
     7
  6
CONTINUOUS
  0
LAYER
  5
12C
100
AcDbSymbolTableRecord
100
AcDbLayerTableRecord
  2
ALPHA
 70
     0
 62
   255
  6
CONTINUOUS
  0
LAYER
  5
12D
100
AcDbSymbolTableRecord
100
AcDbLayerTableRecord
  2
AXE
 70
     0
 62
    80
  6
AXES2
  0
LAYER
  5
12F
100
AcDbSymbolTableRecord
100
AcDbLayerTableRecord
  2
COTATION1
 70
     0
 62
     2
  6
CONTINUOUS
  0
LAYER
  5
13B
100
AcDbSymbolTableRecord
100
AcDbLayerTableRecord
  2
ASHADE
 70
     0
 62
     7
  6
CONTINUOUS
  0
LAYER
  5
13E
100
AcDbSymbolTableRecord
100
AcDbLayerTableRecord
  2
DEFPOINTS
 70
     0
 62
     7
  6
CONTINUOUS
  0
ENDTAB
  0
TABLE
  2
STYLE
  5
EF
100
AcDbSymbolTable
 70
     2
  0
STYLE
  5
FB
100
AcDbSymbolTableRecord
100
AcDbTextStyleTableRecord
  2
STANDARD
 70
     0
 40
0.0
 41
1.0
 50
0.0
 71
     0
 42
2.5
  3
txt
  4

  0
ENDTAB
  0
TABLE
  2
VIEW
  5
F2
100
AcDbSymbolTable
 70
     0
  0
ENDTAB
  0
TABLE
  2
UCS
  5
F3
100
AcDbSymbolTable
 70
     0
  0
ENDTAB
  0
TABLE
  2
APPID
  5
F5
100
AcDbSymbolTable
 70
     3
  0
APPID
  5
FC
100
AcDbSymbolTableRecord
100
AcDbRegAppTableRecord
  2
ACAD
 70
     0
  0
APPID
  5
127
100
AcDbSymbolTableRecord
100
AcDbRegAppTableRecord
  2
AVE_RENDER
 70
     0
  0
APPID
  5
128
100
AcDbSymbolTableRecord
100
AcDbRegAppTableRecord
  2
AVE_MATERIAL
 70
     0
  0
ENDTAB
  0
TABLE
  2
DIMSTYLE
  5
F6
100
AcDbSymbolTable
 70
     2
  0
DIMSTYLE
105
129
100
AcDbSymbolTableRecord
100
AcDbDimStyleTableRecord
  2
STANDARD
 70
     0
  3

  4

  5

  6

  7

 40
1.0
 41
0.18
 42
0.0625
 43
0.38
 44
0.18
 45
0.0
 46
0.0
 47
0.0
 48
0.0
140
0.18
141
0.09
142
0.0
143
25.4
144
1.0
145
0.0
146
1.0
147
0.09
 71
     0
 72
     0
 73
     1
 74
     1
 75
     0
 76
     0
 77
     0
 78
     0
170
     0
171
     2
172
     0
173
     0
174
     0
175
     0
176
     0
177
     0
178
     0
270
     2
271
     3
272
     3
273
     2
274
     2
340
FB
275
     0
280
     0
281
     0
282
     0
283
     1
284
    12
285
    12
286
    12
287
     5
288
     0
  0
DIMSTYLE
105
12A
102
{ACAD_REACTORS
330
2185
330
2192
102
}
100
AcDbSymbolTableRecord
100
AcDbDimStyleTableRecord
  2
SC_STAND
 70
     0
  3

  4

  5

  6

  7

 40
1.0
 41
3.0
 42
0.0625
 43
0.38
 44
0.18
 45
0.01
 46
0.0
 47
0.0
 48
0.0
140
2.5
141
0.09
142
0.0
143
25.4
144
1.0
145
0.0
146
1.0
147
1.0
 71
     0
 72
     0
 73
     0
 74
     0
 75
     0
 76
     0
 77
     1
 78
    12
170
     0
171
     2
172
     1
173
     0
174
     0
175
     0
176
     0
177
     0
178
     0
270
     2
271
     3
272
     3
273
     2
274
     2
340
FB
275
     0
280
     0
281
     0
282
     0
283
     1
284
    12
285
    12
286
    12
287
     5
288
     0
  0
ENDTAB
  0
TABLE
  2
BLOCK_RECORD
  5
ED
100
AcDbSymbolTable
 70
     9
  0
BLOCK_RECORD
  5
103
100
AcDbSymbolTableRecord
100
AcDbBlockTableRecord
  2
*MODEL_SPACE
  0
BLOCK_RECORD
  5
100
100
AcDbSymbolTableRecord
100
AcDbBlockTableRecord
  2
*PAPER_SPACE
  0
BLOCK_RECORD
  5
108
100
AcDbSymbolTableRecord
100
AcDbBlockTableRecord
  2
AVE_RENDER
  0
BLOCK_RECORD
  5
109
100
AcDbSymbolTableRecord
100
AcDbBlockTableRecord
  2
AVE_GLOBAL
  0
BLOCK_RECORD
  5
10A
100
AcDbSymbolTableRecord
100
AcDbBlockTableRecord
  2
SCH_IS
  0
BLOCK_RECORD
  5
2179
100
AcDbSymbolTableRecord
100
AcDbBlockTableRecord
  2
*D7
  0
BLOCK_RECORD
  5
2186
100
AcDbSymbolTableRecord
100
AcDbBlockTableRecord
  2
*D8
  0
ENDTAB
  0
ENDSEC
  0
SECTION
  2
BLOCKS
  0
BLOCK
  5
141
100
AcDbEntity
  8
0
100
AcDbBlockBegin
  2
*MODEL_SPACE
 70
     0
 10
0.0
 20
0.0
 30
0.0
  3
*MODEL_SPACE
  1

  0
ENDBLK
  5
142
100
AcDbEntity
  8
0
100
AcDbBlockEnd
  0
BLOCK
  5
13F
100
AcDbEntity
 67
     1
  8
0
100
AcDbBlockBegin
  2
*PAPER_SPACE
 70
     0
 10
0.0
 20
0.0
 30
0.0
  3
*PAPER_SPACE
  1

  0
ENDBLK
  5
140
100
AcDbEntity
 67
     1
  8
0
100
AcDbBlockEnd
  0
BLOCK
  5
8D
100
AcDbEntity
  8
0
100
AcDbBlockBegin
  2
AVE_RENDER
 70
     0
 10
0.0
 20
0.0
 30
0.0
  3
AVE_RENDER
  1
AVE_RENDER
  0
ENDBLK
  5
8E
100
AcDbEntity
  8
0
100
AcDbBlockEnd
  0
BLOCK
  5
90
100
AcDbEntity
  8
0
100
AcDbBlockBegin
  2
AVE_GLOBAL
 70
     0
 10
0.0
 20
0.0
 30
0.0
  3
AVE_GLOBAL
  1
AVE_GLOBAL
  0
ENDBLK
  5
91
100
AcDbEntity
  8
0
100
AcDbBlockEnd
  0
BLOCK
  5
C9
100
AcDbEntity
  8
0
100
AcDbBlockBegin
  2
SCH_IS
 70
     0
 10
0.0
 20
0.0
 30
0.0
  3
SCH_IS
  1

  0
INSERT
  5
C0
100
AcDbEntity
  8
ASHADE
 62
     1
100
AcDbBlockReference
  2
AVE_RENDER
 10
0.0
 20
0.0
 30
0.0
1001
AVE_RENDER
1002
{
1070
     6
1000
Pref
1070
    50
1070
    20
1070
     1
1070
     0
1000

1070
    10
1070
     1
1070
    30
1040
25.4
1070
     1
1040
0.3
1040
0.7
1040
0.0
1040
10.0
1010
-1.0
1020
-1.0
1030
-1.0
1040
0.3
1070
    49
1070
     0
1070
     0
1010
1.0
1020
1.0
1030
1.0
1040
45.0
1070
     1
1070
     0
1000
WCS
1040
0.0
1002
}
  0
INSERT
  5
C1
100
AcDbEntity
  8
ASHADE
 62
     3
100
AcDbBlockReference
  2
AVE_RENDER
 10
0.0
 20
0.0
 30
0.0
1001
AVE_RENDER
1002
{
1070
     0
1000
Full Opt
1070
     0
1070
     1
1070
     1
1070
     1
1070
     0
1070
     0
1070
     0
1070
     1
1070
     1
1040
0.0001
1040
0.0001
1002
}
  0
INSERT
  5
C2
100
AcDbEntity
  8
ASHADE
 62
     4
100
AcDbBlockReference
  2
AVE_RENDER
 10
0.0
 20
0.0
 30
0.0
1001
AVE_RENDER
1002
{
1070
     0
1000
Quick Opt
1070
     0
1070
     1
1070
     1
1070
     1
1070
     0
1070
     0
1070
     1
1002
}
  0
INSERT
  5
C3
100
AcDbEntity
  8
ASHADE
 62
     5
100
AcDbBlockReference
  2
AVE_RENDER
 10
0.0
 20
0.0
 30
0.0
1001
AVE_RENDER
1002
{
1070
     1
1000
Scanl Opt
1070
     2
1070
     0
1070
     2
1040
2.0
1040
4.0
1070
     0
1070
     1
1070
     0
1040
0.03
1002
}
  0
INSERT
  5
C4
100
AcDbEntity
  8
ASHADE
 62
     6
100
AcDbBlockReference
  2
AVE_RENDER
 10
0.0
 20
0.0
 30
0.0
1001
AVE_RENDER
1002
{
1070
     2
1000
Raytr Opt
1070
     2
1070
     0
1070
     2
1040
2.0
1040
4.0
1070
     0
1070
     1
1070
     1
1040
0.03
1070
     3
1040
0.03
1002
}
  0
INSERT
  5
C5
100
AcDbEntity
  8
ASHADE
 62
     7
100
AcDbBlockReference
  2
AVE_RENDER
 10
0.0
 20
0.0
 30
0.0
1001
AVE_RENDER
1002
{
1070
     0
1000
RFile Opt
1070
     5
1070
   640
1070
   480
1070
 10000
1070
     3
1070
    32
1070
    24
1070
     0
1070
     0
1070
     0
1070
     1
1070
     0
1070
     0
1070
     0
1002
}
  0
INSERT
  5
C6
100
AcDbEntity
  8
ASHADE
 62
     8
100
AcDbBlockReference
  2
AVE_RENDER
 10
0.0
 20
0.0
 30
0.0
1001
AVE_RENDER
1002
{
1070
     0
1000
Fog Opt
1070
     0
1070
     0
1040
0.0
1040
1.0
1040
0.0
1040
1.0
1010
0.5
1020
0.5
1030
0.5
1002
}
  0
INSERT
  5
C7
100
AcDbEntity
  8
ASHADE
 62
     9
100
AcDbBlockReference
  2
AVE_RENDER
 10
0.0
 20
0.0
 30
0.0
1001
AVE_RENDER
1002
{
1070
     0
1000
BG Opt
1070
     0
1070
     1
1010
0.0
1020
0.0
1030
0.0
1010
1.0
1020
0.0
1030
0.0
1010
0.0
1020
1.0
1030
0.0
1010
0.0
1020
0.0
1030
1.0
1040
0.5
1040
0.33
1040
0.0
1000

1070
     1
1000

1070
     1
1070
     1
1040
1.0
1040
1.0
1040
0.0
1040
0.0
1070
     0
1002
}
  0
INSERT
  5
C8
100
AcDbEntity
  8
ASHADE
 62
     1
100
AcDbBlockReference
  2
AVE_GLOBAL
 10
0.0
 20
0.0
 30
0.0
1001
AVE_MATERIAL
1002
{
1000
*GLOBAL*
1000
1
1000
Finition globale.
1002
{
1002
}
1002
{
1070
    63
1002
{
1002
{
1010
-1.0
1020
-1.0
1030
-1.0
1002
}
1040
0.1
1000

1040
0.0
1002
{
1002
}
1040
0.0
1002
{
1002
}
1040
0.0
1002
}
1002
{
1002
{
1010
-1.0
1020
-1.0
1030
-1.0
1002
}
1040
0.7
1000

1040
0.0
1002
{
1002
}
1040
0.0
1002
{
1002
}
1040
0.0
1002
}
1002
{
1002
{
1010
-1.0
1020
-1.0
1030
-1.0
1002
}
1040
0.2
1000

1040
0.0
1002
{
1002
}
1040
0.0
1002
{
1002
}
1040
0.0
1002
}
1002
{
1070
     0
1002
{
1070
     1
1002
{
1040
1.0
1040
1.0
1000

1040
0.0
1002
{
1002
}
1040
0.0
1002
{
1002
}
1040
0.0
1002
}
1002
}
1040
1.0
1040
0.0
1040
0.0
1002
}
1002
{
1040
1.0
1040
1.0
1000

1040
0.0
1002
{
1002
}
1040
0.0
1002
{
1002
}
1040
0.0
1002
}
1002
{
1040
0.5
1040
1.0
1000

1040
0.0
1002
{
1002
}
1040
0.0
1002
{
1002
}
1040
0.0
1002
}
1002
{
1070
     0
1040
0.0
1002
{
1002
}
1040
1.0
1002
{
1002
}
1040
0.0
1002
}
1002
{
1040
0.0
1002
{
1002
{
1010
0.0
1020
0.0
1030
0.0
1002
}
1040
1.0
1000

1040
0.0
1002
{
1002
}
1040
0.0
1002
{
1002
}
1040
0.0
1002
}
1002
}
1002
{
1002
{
1070
     1
1002
{
1040
0.0
1040
1.0
1000

1040
0.0
1002
{
1002
}
1040
0.0
1002
{
1002
}
1040
0.0
1002
}
1002
}
1040
0.0
1002
{
1002
}
1010
1.0
1020
0.0
1030
0.0
1010
0.0
1020
1.0
1030
0.0
1010
0.0
1020
0.0
1030
1.0
1070
     0
1002
}
1002
{
1002
{
1040
1.0
1040
1.0
1002
{
1070
     1
1002
{
1040
1.0
1040
1.0
1000

1040
0.0
1002
{
1002
}
1040
0.0
1002
{
1002
}
1040
0.0
1002
}
1002
}
1002
}
1070
     0
1040
0.0
1002
{
1002
}
1002
}
1002
{
1002
}
1002
}
1002
{
1071
        3
1070
     3
1070
     0
1002
{
1070
     2
1070
     0
1070
     0
1040
0.0
1002
}
1070
     0
1070
     2
1002
{
1002
}
1002
}
1002
{
1040
8030.0
1040
190.300003
1040
0.305
1040
228.0
1040
545.0
1040
14.0
1040
17.4
1040
0.456
1002
}
1002
}
  0
ENDBLK
  5
CA
100
AcDbEntity
  8
0
100
AcDbBlockEnd
  0
BLOCK
  5
217A
100
AcDbEntity
  8
0
100
AcDbBlockBegin
  2
*D7
 70
     1
 10
0.0
 20
0.0
 30
0.0
  3
*D7
  1

  0
LINE
  5
217B
100
AcDbEntity
  8
0
  6
BYBLOCK
 62
     0
100
AcDbLine
 10
43.847126
 20
25.94825
 30
0.0
 11
50.453622
 21
25.94825
 31
0.0
  0
LINE
  5
217C
100
AcDbEntity
  8
0
  6
BYBLOCK
 62
     0
100
AcDbLine
 10
43.847126
 20
15.948171
 30
0.0
 11
50.453622
 21
15.948171
 31
0.0
  0
LINE
  5
217D
100
AcDbEntity
  8
0
  6
BYBLOCK
 62
     0
100
AcDbLine
 10
50.273622
 20
22.94825
 30
0.0
 11
50.273622
 21
18.948171
 31
0.0
  0
SOLID
  5
217E
100
AcDbEntity
  8
0
  6
BYBLOCK
 62
     0
100
AcDbTrace
 10
49.773622
 20
22.94825
 30
0.0
 11
50.773622
 21
22.94825
 31
0.0
 12
50.273622
 22
25.94825
 32
0.0
 13
50.273622
 23
25.94825
 33
0.0
  0
SOLID
  5
217F
100
AcDbEntity
  8
0
  6
BYBLOCK
 62
     0
100
AcDbTrace
 10
49.773622
 20
18.948171
 30
0.0
 11
50.773622
 21
18.948171
 31
0.0
 12
50.273622
 22
15.948171
 32
0.0
 13
50.273622
 23
15.948171
 33
0.0
  0
MTEXT
  5
2180
100
AcDbEntity
  8
0
  6
BYBLOCK
 62
     0
100
AcDbMText
 10
48.023622
 20
20.94821
 30
0.0
 40
2.5
 41
0.0
 71
     5
 72
     1
  1
\A1;10
 11
0.0
 21
1.0
 31
0.0
  0
POINT
  5
2181
100
AcDbEntity
  8
DEFPOINTS
  6
BYBLOCK
 62
     0
100
AcDbPoint
 10
43.784626
 20
25.94825
 30
0.0
  0
POINT
  5
2182
100
AcDbEntity
  8
DEFPOINTS
  6
BYBLOCK
 62
     0
100
AcDbPoint
 10
43.784626
 20
15.948171
 30
0.0
  0
POINT
  5
2183
100
AcDbEntity
  8
DEFPOINTS
  6
BYBLOCK
 62
     0
100
AcDbPoint
 10
50.273622
 20
15.948171
 30
0.0
  0
ENDBLK
  5
2184
100
AcDbEntity
  8
0
100
AcDbBlockEnd
  0
BLOCK
  5
2187
100
AcDbEntity
  8
0
100
AcDbBlockBegin
  2
*D8
 70
     1
 10
0.0
 20
0.0
 30
0.0
  3
*D8
  1

  0
LINE
  5
2188
100
AcDbEntity
  8
0
  6
BYBLOCK
 62
     0
100
AcDbLine
 10
43.023748
 20
5.948092
 30
0.0
 11
56.720292
 21
5.948092
 31
0.0
  0
LINE
  5
2189
100
AcDbEntity
  8
0
  6
BYBLOCK
 62
     0
100
AcDbLine
 10
43.023748
 20
35.948156
 30
0.0
 11
56.720292
 21
35.948156
 31
0.0
  0
LINE
  5
218A
100
AcDbEntity
  8
0
  6
BYBLOCK
 62
     0
100
AcDbLine
 10
56.540292
 20
8.948092
 30
0.0
 11
56.540292
 21
32.948156
 31
0.0
  0
SOLID
  5
218B
100
AcDbEntity
  8
0
  6
BYBLOCK
 62
     0
100
AcDbTrace
 10
56.040292
 20
8.948092
 30
0.0
 11
57.040292
 21
8.948092
 31
0.0
 12
56.540292
 22
5.948092
 32
0.0
 13
56.540292
 23
5.948092
 33
0.0
  0
SOLID
  5
218C
100
AcDbEntity
  8
0
  6
BYBLOCK
 62
     0
100
AcDbTrace
 10
56.040292
 20
32.948156
 30
0.0
 11
57.040292
 21
32.948156
 31
0.0
 12
56.540292
 22
35.948156
 32
0.0
 13
56.540292
 23
35.948156
 33
0.0
  0
MTEXT
  5
218D
100
AcDbEntity
  8
0
  6
BYBLOCK
 62
     0
100
AcDbMText
 10
54.290292
 20
20.948124
 30
0.0
 40
2.5
 41
0.0
 71
     5
 72
     1
  1
\A1;30
 11
0.0
 21
1.0
 31
0.0
  0
POINT
  5
218E
100
AcDbEntity
  8
DEFPOINTS
  6
BYBLOCK
 62
     0
100
AcDbPoint
 10
42.961248
 20
5.948092
 30
0.0
  0
POINT
  5
218F
100
AcDbEntity
  8
DEFPOINTS
  6
BYBLOCK
 62
     0
100
AcDbPoint
 10
42.961248
 20
35.948156
 30
0.0
  0
POINT
  5
2190
100
AcDbEntity
  8
DEFPOINTS
  6
BYBLOCK
 62
     0
100
AcDbPoint
 10
56.540292
 20
35.948156
 30
0.0
  0
ENDBLK
  5
2191
100
AcDbEntity
  8
0
100
AcDbBlockEnd
  0
ENDSEC
  0
SECTION
  2
ENTITIES
  0
INSERT
  5
CC
100
AcDbEntity
  8
0
100
AcDbBlockReference
  2
SCH_IS
 10
-68.718396
 20
-140.042541
 30
0.0
  0
INSERT
  5
EC
100
AcDbEntity
  8
COTATION1
100
AcDbBlockReference
  2
SCH_IS
 10
0.0
 20
0.0
 30
0.0
  0
POLYLINE
  5
1D76
100
AcDbEntity
  8
AXE
100
AcDb2dPolyline
 66
     1
 10
0.0
 20
0.0
 30
0.0
  0
VERTEX
  5
1D77
100
AcDbEntity
  8
AXE
100
AcDbVertex
100
AcDb2dVertex
 10
19.228502
 20
15.948171
 30
0.0
  0
VERTEX
  5
1D78
100
AcDbEntity
  8
AXE
100
AcDbVertex
100
AcDb2dVertex
 10
43.784626
 20
15.948171
 30
0.0
  0
SEQEND
  5
1D79
100
AcDbEntity
  8
AXE
  0
POLYLINE
  5
1D7A
100
AcDbEntity
  8
AXE
100
AcDb2dPolyline
 66
     1
 10
0.0
 20
0.0
 30
0.0
  0
VERTEX
  5
1D7B
100
AcDbEntity
  8
AXE
100
AcDbVertex
100
AcDb2dVertex
 10
19.228502
 20
35.948156
 30
0.0
  0
VERTEX
  5
1D7C
100
AcDbEntity
  8
AXE
100
AcDbVertex
100
AcDb2dVertex
 10
42.961248
 20
35.948156
 30
0.0
  0
SEQEND
  5
1D7D
100
AcDbEntity
  8
AXE
  0
POLYLINE
  5
1D7E
100
AcDbEntity
  8
AXE
100
AcDb2dPolyline
 66
     1
 10
0.0
 20
0.0
 30
0.0
  0
VERTEX
  5
1D7F
100
AcDbEntity
  8
AXE
100
AcDbVertex
100
AcDb2dVertex
 10
19.228502
 20
25.94825
 30
0.0
  0
VERTEX
  5
1D80
100
AcDbEntity
  8
AXE
100
AcDbVertex
100
AcDb2dVertex
 10
43.784626
 20
25.94825
 30
0.0
  0
SEQEND
  5
1D81
100
AcDbEntity
  8
AXE
  0
POLYLINE
  5
1D82
100
AcDbEntity
  8
AXE
100
AcDb2dPolyline
 66
     1
 10
0.0
 20
0.0
 30
0.0
  0
VERTEX
  5
1D83
100
AcDbEntity
  8
AXE
100
AcDbVertex
100
AcDb2dVertex
 10
19.228502
 20
5.948092
 30
0.0
  0
VERTEX
  5
1D84
100
AcDbEntity
  8
AXE
100
AcDbVertex
100
AcDb2dVertex
 10
42.961248
 20
5.948092
 30
0.0
  0
SEQEND
  5
1D85
100
AcDbEntity
  8
AXE
  0
POLYLINE
  5
1D86
100
AcDbEntity
  8
ALPHA
100
AcDb3dPolyline
 66
     1
 10
0.0
 20
0.0
 30
0.0
 70
     8
  0
VERTEX
  5
1D87
100
AcDbEntity
  8
ALPHA
100
AcDbVertex
100
AcDb3dPolylineVertex
 10
42.46481
 20
41.948307
 30
0.0
 70
    32
  0
VERTEX
  5
1D88
100
AcDbEntity
  8
ALPHA
100
AcDbVertex
100
AcDb3dPolylineVertex
 10
42.459988
 20
41.948307
 30
0.0
 70
    32
  0
VERTEX
  5
1D89
100
AcDbEntity
  8
ALPHA
100
AcDbVertex
100
AcDb3dPolylineVertex
 10
42.44562
 20
41.948307
 30
0.0
 70
    32
  0
VERTEX
  5
1D8A
100
AcDbEntity
  8
ALPHA
100
AcDbVertex
100
AcDb3dPolylineVertex
 10
42.388838
 20
41.948307
 30
0.0
 70
    32
  0
VERTEX
  5
1D8B
100
AcDbEntity
  8
ALPHA
100
AcDbVertex
100
AcDb3dPolylineVertex
 10
42.167211
 20
41.948307
 30
0.0
 70
    32
  0
VERTEX
  5
1D8C
100
AcDbEntity
  8
ALPHA
100
AcDbVertex
100
AcDb3dPolylineVertex
 10
41.324725
 20
41.948307
 30
0.0
 70
    32
  0
VERTEX
  5
1D8D
100
AcDbEntity
  8
ALPHA
100
AcDbVertex
100
AcDb3dPolylineVertex
 10
38.306946
 20
41.948307
 30
0.0
 70
    32
  0
VERTEX
  5
1D8E
100
AcDbEntity
  8
ALPHA
100
AcDbVertex
100
AcDb3dPolylineVertex
 10
29.053139
 20
41.948307
 30
0.0
 70
    32
  0
VERTEX
  5
1D8F
100
AcDbEntity
  8
ALPHA
100
AcDbVertex
100
AcDb3dPolylineVertex
 10
14.576417
 20
41.948307
 30
0.0
 70
    32
  0
VERTEX
  5
1D90
100
AcDbEntity
  8
ALPHA
100
AcDbVertex
100
AcDb3dPolylineVertex
 10
14.088864
 20
41.916737
 30
0.0
 70
    32
  0
VERTEX
  5
1D91
100
AcDbEntity
  8
ALPHA
100
AcDbVertex
100
AcDb3dPolylineVertex
 10
13.877663
 20
41.876314
 30
0.0
 70
    32
  0
VERTEX
  5
1D92
100
AcDbEntity
  8
ALPHA
100
AcDbVertex
100
AcDb3dPolylineVertex
 10
13.687112
 20
41.81861
 30
0.0
 70
    32
  0
VERTEX
  5
1D93
100
AcDbEntity
  8
ALPHA
100
AcDbVertex
100
AcDb3dPolylineVertex
 10
13.516408
 20
41.742985
 30
0.0
 70
    32
  0
VERTEX
  5
1D94
100
AcDbEntity
  8
ALPHA
100
AcDbVertex
100
AcDb3dPolylineVertex
 10
13.364751
 20
41.648797
 30
0.0
 70
    32
  0
VERTEX
  5
1D95
100
AcDbEntity
  8
ALPHA
100
AcDbVertex
100
AcDb3dPolylineVertex
 10
13.23134
 20
41.535407
 30
0.0
 70
    32
  0
VERTEX
  5
1D96
100
AcDbEntity
  8
ALPHA
100
AcDbVertex
100
AcDb3dPolylineVertex
 10
13.115374
 20
41.402173
 30
0.0
 70
    32
  0
VERTEX
  5
1D97
100
AcDbEntity
  8
ALPHA
100
AcDbVertex
100
AcDb3dPolylineVertex
 10
13.016051
 20
41.248454
 30
0.0
 70
    32
  0
VERTEX
  5
1D98
100
AcDbEntity
  8
ALPHA
100
AcDbVertex
100
AcDb3dPolylineVertex
 10
12.93257
 20
41.073609
 30
0.0
 70
    32
  0
VERTEX
  5
1D99
100
AcDbEntity
  8
ALPHA
100
AcDbVertex
100
AcDb3dPolylineVertex
 10
12.864131
 20
40.876998
 30
0.0
 70
    32
  0
VERTEX
  5
1D9A
100
AcDbEntity
  8
ALPHA
100
AcDbVertex
100
AcDb3dPolylineVertex
 10
12.809931
 20
40.657979
 30
0.0
 70
    32
  0
VERTEX
  5
1D9B
100
AcDbEntity
  8
ALPHA
100
AcDbVertex
100
AcDb3dPolylineVertex
 10
12.741048
 20
40.150154
 30
0.0
 70
    32
  0
VERTEX
  5
1D9C
100
AcDbEntity
  8
ALPHA
100
AcDbVertex
100
AcDb3dPolylineVertex
 10
12.719511
 20
39.545008
 30
0.0
 70
    32
  0
SEQEND
  5
1D9D
100
AcDbEntity
  8
ALPHA
  0
POLYLINE
  5
1D9E
100
AcDbEntity
  8
ALPHA
100
AcDb3dPolyline
 66
     1
 10
0.0
 20
0.0
 30
0.0
 70
     8
  0
VERTEX
  5
1D9F
100
AcDbEntity
  8
ALPHA
100
AcDbVertex
100
AcDb3dPolylineVertex
 10
15.231847
 20
-0.051541
 30
0.0
 70
    32
  0
VERTEX
  5
1DA0
100
AcDbEntity
  8
ALPHA
100
AcDbVertex
100
AcDb3dPolylineVertex
 10
15.236579
 20
-0.051541
 30
0.0
 70
    32
  0
VERTEX
  5
1DA1
100
AcDbEntity
  8
ALPHA
100
AcDbVertex
100
AcDb3dPolylineVertex
 10
15.250678
 20
-0.051541
 30
0.0
 70
    32
  0
VERTEX
  5
1DA2
100
AcDbEntity
  8
ALPHA
100
AcDbVertex
100
AcDb3dPolylineVertex
 10
15.306395
 20
-0.051541
 30
0.0
 70
    32
  0
VERTEX
  5
1DA3
100
AcDbEntity
  8
ALPHA
100
AcDbVertex
100
AcDb3dPolylineVertex
 10
15.523817
 20
-0.051541
 30
0.0
 70
    32
  0
VERTEX
  5
1DA4
100
AcDbEntity
  8
ALPHA
100
AcDbVertex
100
AcDb3dPolylineVertex
 10
16.349954
 20
-0.051541
 30
0.0
 70
    32
  0
VERTEX
  5
1DA5
100
AcDbEntity
  8
ALPHA
100
AcDbVertex
100
AcDb3dPolylineVertex
 10
19.306071
 20
-0.051541
 30
0.0
 70
    32
  0
VERTEX
  5
1DA6
100
AcDbEntity
  8
ALPHA
100
AcDbVertex
100
AcDb3dPolylineVertex
 10
28.343105
 20
-0.051541
 30
0.0
 70
    32
  0
VERTEX
  5
1DA7
100
AcDbEntity
  8
ALPHA
100
AcDbVertex
100
AcDb3dPolylineVertex
 10
42.191786
 20
-0.051541
 30
0.0
 70
    32
  0
VERTEX
  5
1DA8
100
AcDbEntity
  8
ALPHA
100
AcDbVertex
100
AcDb3dPolylineVertex
 10
42.574895
 20
-0.017846
 30
0.0
 70
    32
  0
VERTEX
  5
1DA9
100
AcDbEntity
  8
ALPHA
100
AcDbVertex
100
AcDb3dPolylineVertex
 10
42.973397
 20
0.084954
 30
0.0
 70
    32
  0
VERTEX
  5
1DAA
100
AcDbEntity
  8
ALPHA
100
AcDbVertex
100
AcDb3dPolylineVertex
 10
43.366805
 20
0.259432
 30
0.0
 70
    32
  0
VERTEX
  5
1DAB
100
AcDbEntity
  8
ALPHA
100
AcDbVertex
100
AcDb3dPolylineVertex
 10
43.555196
 20
0.374353
 30
0.0
 70
    32
  0
VERTEX
  5
1DAC
100
AcDbEntity
  8
ALPHA
100
AcDbVertex
100
AcDb3dPolylineVertex
 10
43.734629
 20
0.508158
 30
0.0
 70
    32
  0
VERTEX
  5
1DAD
100
AcDbEntity
  8
ALPHA
100
AcDbVertex
100
AcDb3dPolylineVertex
 10
43.902544
 20
0.661167
 30
0.0
 70
    32
  0
VERTEX
  5
1DAE
100
AcDbEntity
  8
ALPHA
100
AcDbVertex
100
AcDb3dPolylineVertex
 10
44.05638
 20
0.833704
 30
0.0
 70
    32
  0
VERTEX
  5
1DAF
100
AcDbEntity
  8
ALPHA
100
AcDbVertex
100
AcDb3dPolylineVertex
 10
44.193575
 20
1.026088
 30
0.0
 70
    32
  0
VERTEX
  5
1DB0
100
AcDbEntity
  8
ALPHA
100
AcDbVertex
100
AcDb3dPolylineVertex
 10
44.311569
 20
1.238642
 30
0.0
 70
    32
  0
VERTEX
  5
1DB1
100
AcDbEntity
  8
ALPHA
100
AcDbVertex
100
AcDb3dPolylineVertex
 10
44.407801
 20
1.471686
 30
0.0
 70
    32
  0
VERTEX
  5
1DB2
100
AcDbEntity
  8
ALPHA
100
AcDbVertex
100
AcDb3dPolylineVertex
 10
44.479708
 20
1.725543
 30
0.0
 70
    32
  0
VERTEX
  5
1DB3
100
AcDbEntity
  8
ALPHA
100
AcDbVertex
100
AcDb3dPolylineVertex
 10
44.524731
 20
2.000534
 30
0.0
 70
    32
  0
VERTEX
  5
1DB4
100
AcDbEntity
  8
ALPHA
100
AcDbVertex
100
AcDb3dPolylineVertex
 10
44.540308
 20
2.29698
 30
0.0
 70
    32
  0
SEQEND
  5
1DB5
100
AcDbEntity
  8
ALPHA
  0
POLYLINE
  5
1DB6
100
AcDbEntity
  8
ALPHA
100
AcDb2dPolyline
 66
     1
 10
0.0
 20
0.0
 30
0.0
  0
VERTEX
  5
1DB7
100
AcDbEntity
  8
ALPHA
100
AcDbVertex
100
AcDb2dVertex
 10
6.768453
 20
10.043277
 30
0.0
  0
VERTEX
  5
1DB8
100
AcDbEntity
  8
ALPHA
100
AcDbVertex
100
AcDb2dVertex
 10
6.799009
 20
10.040933
 30
0.0
  0
VERTEX
  5
1DB9
100
AcDbEntity
  8
ALPHA
100
AcDbVertex
100
AcDb2dVertex
 10
6.828582
 20
10.035797
 30
0.0
  0
VERTEX
  5
1DBA
100
AcDbEntity
  8
ALPHA
100
AcDbVertex
100
AcDb2dVertex
 10
6.857041
 20
10.027999
 30
0.0
  0
VERTEX
  5
1DBB
100
AcDbEntity
  8
ALPHA
100
AcDbVertex
100
AcDb2dVertex
 10
6.884259
 20
10.017671
 30
0.0
  0
VERTEX
  5
1DBC
100
AcDbEntity
  8
ALPHA
100
AcDbVertex
100
AcDb2dVertex
 10
6.910108
 20
10.004942
 30
0.0
  0
VERTEX
  5
1DBD
100
AcDbEntity
  8
ALPHA
100
AcDbVertex
100
AcDb2dVertex
 10
6.934458
 20
9.989944
 30
0.0
  0
VERTEX
  5
1DBE
100
AcDbEntity
  8
ALPHA
100
AcDbVertex
100
AcDb2dVertex
 10
6.957182
 20
9.972807
 30
0.0
  0
VERTEX
  5
1DBF
100
AcDbEntity
  8
ALPHA
100
AcDbVertex
100
AcDb2dVertex
 10
6.978152
 20
9.953662
 30
0.0
  0
VERTEX
  5
1DC0
100
AcDbEntity
  8
ALPHA
100
AcDbVertex
100
AcDb2dVertex
 10
6.997237
 20
9.93264
 30
0.0
  0
VERTEX
  5
1DC1
100
AcDbEntity
  8
ALPHA
100
AcDbVertex
100
AcDb2dVertex
 10
7.014311
 20
9.909871
 30
0.0
  0
VERTEX
  5
1DC2
100
AcDbEntity
  8
ALPHA
100
AcDbVertex
100
AcDb2dVertex
 10
7.029245
 20
9.885486
 30
0.0
  0
VERTEX
  5
1DC3
100
AcDbEntity
  8
ALPHA
100
AcDbVertex
100
AcDb2dVertex
 10
7.04191
 20
9.859616
 30
0.0
  0
VERTEX
  5
1DC4
100
AcDbEntity
  8
ALPHA
100
AcDbVertex
100
AcDb2dVertex
 10
7.052178
 20
9.832392
 30
0.0
  0
VERTEX
  5
1DC5
100
AcDbEntity
  8
ALPHA
100
AcDbVertex
100
AcDb2dVertex
 10
7.05992
 20
9.803944
 30
0.0
  0
VERTEX
  5
1DC6
100
AcDbEntity
  8
ALPHA
100
AcDbVertex
100
AcDb2dVertex
 10
7.065009
 20
9.774402
 30
0.0
  0
VERTEX
  5
1DC7
100
AcDbEntity
  8
ALPHA
100
AcDbVertex
100
AcDb2dVertex
 10
7.067315
 20
9.743899
 30
0.0
  0
SEQEND
  5
1DC8
100
AcDbEntity
  8
ALPHA
  0
POLYLINE
  5
1DC9
100
AcDbEntity
  8
ALPHA
100
AcDb2dPolyline
 66
     1
 10
0.0
 20
0.0
 30
0.0
  0
VERTEX
  5
1DCA
100
AcDbEntity
  8
ALPHA
100
AcDbVertex
100
AcDb2dVertex
 10
8.192139
 20
1.095331
 30
0.0
  0
VERTEX
  5
1DCB
100
AcDbEntity
  8
ALPHA
100
AcDbVertex
100
AcDb2dVertex
 10
8.192139
 20
41.052237
 30
0.0
  0
SEQEND
  5
1DCC
100
AcDbEntity
  8
ALPHA
  0
POLYLINE
  5
1DCD
100
AcDbEntity
  8
ALPHA
100
AcDb2dPolyline
 66
     1
 10
0.0
 20
0.0
 30
0.0
  0
VERTEX
  5
1DCE
100
AcDbEntity
  8
ALPHA
100
AcDbVertex
100
AcDb2dVertex
 10
7.640407
 20
3.27022
 30
0.0
  0
VERTEX
  5
1DCF
100
AcDbEntity
  8
ALPHA
100
AcDbVertex
100
AcDb2dVertex
 10
7.640407
 20
36.772223
 30
0.0
  0
SEQEND
  5
1DD0
100
AcDbEntity
  8
ALPHA
  0
POLYLINE
  5
1DD1
100
AcDbEntity
  8
ALPHA
100
AcDb2dPolyline
 66
     1
 10
0.0
 20
0.0
 30
0.0
  0
VERTEX
  5
1DD2
100
AcDbEntity
  8
ALPHA
100
AcDbVertex
100
AcDb2dVertex
 10
0.493901
 20
8.827848
 30
0.0
  0
VERTEX
  5
1DD3
100
AcDbEntity
  8
ALPHA
100
AcDbVertex
100
AcDb2dVertex
 10
0.675995
 20
9.720752
 30
0.0
  0
VERTEX
  5
1DD4
100
AcDbEntity
  8
ALPHA
100
AcDbVertex
100
AcDb2dVertex
 10
0.958859
 20
10.558492
 30
0.0
  0
VERTEX
  5
1DD5
100
AcDbEntity
  8
ALPHA
100
AcDbVertex
100
AcDb2dVertex
 10
1.362065
 20
11.342229
 30
0.0
  0
VERTEX
  5
1DD6
100
AcDbEntity
  8
ALPHA
100
AcDbVertex
100
AcDb2dVertex
 10
1.905184
 20
12.073128
 30
0.0
  0
SEQEND
  5
1DD7
100
AcDbEntity
  8
ALPHA
  0
POLYLINE
  5
1DD8
100
AcDbEntity
  8
ALPHA
100
AcDb2dPolyline
 66
     1
 10
0.0
 20
0.0
 30
0.0
  0
VERTEX
  5
1DD9
100
AcDbEntity
  8
ALPHA
100
AcDbVertex
100
AcDb2dVertex
 10
4.013582
 20
10.043277
 30
0.0
  0
VERTEX
  5
1DDA
100
AcDbEntity
  8
ALPHA
100
AcDbVertex
100
AcDb2dVertex
 10
3.963383
 20
10.027529
 30
0.0
  0
VERTEX
  5
1DDB
100
AcDbEntity
  8
ALPHA
100
AcDbVertex
100
AcDb2dVertex
 10
3.917811
 20
10.004299
 30
0.0
  0
VERTEX
  5
1DDC
100
AcDbEntity
  8
ALPHA
100
AcDbVertex
100
AcDb2dVertex
 10
3.877444
 20
9.974344
 30
0.0
  0
VERTEX
  5
1DDD
100
AcDbEntity
  8
ALPHA
100
AcDbVertex
100
AcDb2dVertex
 10
3.842856
 20
9.938417
 30
0.0
  0
VERTEX
  5
1DDE
100
AcDbEntity
  8
ALPHA
100
AcDbVertex
100
AcDb2dVertex
 10
3.814623
 20
9.897275
 30
0.0
  0
VERTEX
  5
1DDF
100
AcDbEntity
  8
ALPHA
100
AcDbVertex
100
AcDb2dVertex
 10
3.79332
 20
9.851671
 30
0.0
  0
VERTEX
  5
1DE0
100
AcDbEntity
  8
ALPHA
100
AcDbVertex
100
AcDb2dVertex
 10
3.779521
 20
9.802361
 30
0.0
  0
VERTEX
  5
1DE1
100
AcDbEntity
  8
ALPHA
100
AcDbVertex
100
AcDb2dVertex
 10
3.773804
 20
9.7501
 30
0.0
  0
SEQEND
  5
1DE2
100
AcDbEntity
  8
ALPHA
  0
POLYLINE
  5
1DE3
100
AcDbEntity
  8
ALPHA
100
AcDb2dPolyline
 66
     1
 10
0.0
 20
0.0
 30
0.0
  0
VERTEX
  5
1DE4
100
AcDbEntity
  8
ALPHA
100
AcDbVertex
100
AcDb2dVertex
 10
10.152742
 20
7.266531
 30
0.0
  0
VERTEX
  5
1DE5
100
AcDbEntity
  8
ALPHA
100
AcDbVertex
100
AcDb2dVertex
 10
10.152742
 20
34.79336
 30
0.0
  0
SEQEND
  5
1DE6
100
AcDbEntity
  8
ALPHA
  0
POLYLINE
  5
1DE7
100
AcDbEntity
  8
ALPHA
100
AcDb2dPolyline
 66
     1
 10
0.0
 20
0.0
 30
0.0
  0
VERTEX
  5
1DE8
100
AcDbEntity
  8
ALPHA
100
AcDbVertex
100
AcDb2dVertex
 10
1.559985
 20
12.073128
 30
0.0
  0
VERTEX
  5
1DE9
100
AcDbEntity
  8
ALPHA
100
AcDbVertex
100
AcDb2dVertex
 10
1.18548
 20
11.618679
 30
0.0
  0
VERTEX
  5
1DEA
100
AcDbEntity
  8
ALPHA
100
AcDbVertex
100
AcDb2dVertex
 10
0.877498
 20
11.162368
 30
0.0
  0
VERTEX
  5
1DEB
100
AcDbEntity
  8
ALPHA
100
AcDbVertex
100
AcDb2dVertex
 10
0.630927
 20
10.712509
 30
0.0
  0
VERTEX
  5
1DEC
100
AcDbEntity
  8
ALPHA
100
AcDbVertex
100
AcDb2dVertex
 10
0.440652
 20
10.277415
 30
0.0
  0
VERTEX
  5
1DED
100
AcDbEntity
  8
ALPHA
100
AcDbVertex
100
AcDb2dVertex
 10
0.208542
 20
9.484768
 30
0.0
  0
VERTEX
  5
1DEE
100
AcDbEntity
  8
ALPHA
100
AcDbVertex
100
AcDb2dVertex
 10
0.156479
 20
9.143842
 30
0.0
  0
VERTEX
  5
1DEF
100
AcDbEntity
  8
ALPHA
100
AcDbVertex
100
AcDb2dVertex
 10
0.140261
 20
8.85093
 30
0.0
  0
VERTEX
  5
1DF0
100
AcDbEntity
  8
ALPHA
100
AcDbVertex
100
AcDb2dVertex
 10
0.140261
 20
6.338077
 30
0.0
  0
SEQEND
  5
1DF1
100
AcDbEntity
  8
ALPHA
  0
POLYLINE
  5
1DF2
100
AcDbEntity
  8
ALPHA
100
AcDb2dPolyline
 66
     1
 10
0.0
 20
0.0
 30
0.0
  0
VERTEX
  5
1DF3
100
AcDbEntity
  8
ALPHA
100
AcDbVertex
100
AcDb2dVertex
 10
10.152742
 20
10.707492
 30
0.0
  0
VERTEX
  5
1DF4
100
AcDbEntity
  8
ALPHA
100
AcDbVertex
100
AcDb2dVertex
 10
10.397591
 20
10.692241
 30
0.0
  0
VERTEX
  5
1DF5
100
AcDbEntity
  8
ALPHA
100
AcDbVertex
100
AcDb2dVertex
 10
10.639393
 20
10.646913
 30
0.0
  0
VERTEX
  5
1DF6
100
AcDbEntity
  8
ALPHA
100
AcDbVertex
100
AcDb2dVertex
 10
10.876389
 20
10.572149
 30
0.0
  0
VERTEX
  5
1DF7
100
AcDbEntity
  8
ALPHA
100
AcDbVertex
100
AcDb2dVertex
 10
11.106819
 20
10.468585
 30
0.0
  0
VERTEX
  5
1DF8
100
AcDbEntity
  8
ALPHA
100
AcDbVertex
100
AcDb2dVertex
 10
11.328924
 20
10.336862
 30
0.0
  0
VERTEX
  5
1DF9
100
AcDbEntity
  8
ALPHA
100
AcDbVertex
100
AcDb2dVertex
 10
11.540945
 20
10.177619
 30
0.0
  0
VERTEX
  5
1DFA
100
AcDbEntity
  8
ALPHA
100
AcDbVertex
100
AcDb2dVertex
 10
11.741123
 20
9.991493
 30
0.0
  0
VERTEX
  5
1DFB
100
AcDbEntity
  8
ALPHA
100
AcDbVertex
100
AcDb2dVertex
 10
11.927699
 20
9.779125
 30
0.0
  0
VERTEX
  5
1DFC
100
AcDbEntity
  8
ALPHA
100
AcDbVertex
100
AcDb2dVertex
 10
12.098913
 20
9.541152
 30
0.0
  0
VERTEX
  5
1DFD
100
AcDbEntity
  8
ALPHA
100
AcDbVertex
100
AcDb2dVertex
 10
12.253006
 20
9.278215
 30
0.0
  0
VERTEX
  5
1DFE
100
AcDbEntity
  8
ALPHA
100
AcDbVertex
100
AcDb2dVertex
 10
12.502793
 20
8.679999
 30
0.0
  0
VERTEX
  5
1DFF
100
AcDbEntity
  8
ALPHA
100
AcDbVertex
100
AcDb2dVertex
 10
12.662986
 20
7.98959
 30
0.0
  0
VERTEX
  5
1E00
100
AcDbEntity
  8
ALPHA
100
AcDbVertex
100
AcDb2dVertex
 10
12.719511
 20
7.212098
 30
0.0
  0
SEQEND
  5
1E01
100
AcDbEntity
  8
ALPHA
  0
POLYLINE
  5
1E02
100
AcDbEntity
  8
ALPHA
100
AcDb2dPolyline
 66
     1
 10
0.0
 20
0.0
 30
0.0
  0
VERTEX
  5
1E03
100
AcDbEntity
  8
ALPHA
100
AcDbVertex
100
AcDb2dVertex
 10
8.192139
 20
3.061447
 30
0.0
  0
VERTEX
  5
1E04
100
AcDbEntity
  8
ALPHA
100
AcDbVertex
100
AcDb2dVertex
 10
2.669823
 20
3.061447
 30
0.0
  0
SEQEND
  5
1E05
100
AcDbEntity
  8
ALPHA
  0
POLYLINE
  5
1E06
100
AcDbEntity
  8
ALPHA
100
AcDb2dPolyline
 66
     1
 10
0.0
 20
0.0
 30
0.0
  0
VERTEX
  5
1E07
100
AcDbEntity
  8
ALPHA
100
AcDbVertex
100
AcDb2dVertex
 10
7.257829
 20
0.384608
 30
0.0
  0
VERTEX
  5
1E08
100
AcDbEntity
  8
ALPHA
100
AcDbVertex
100
AcDb2dVertex
 10
7.367334
 20
0.389584
 30
0.0
  0
VERTEX
  5
1E09
100
AcDbEntity
  8
ALPHA
100
AcDbVertex
100
AcDb2dVertex
 10
7.470477
 20
0.403927
 30
0.0
  0
VERTEX
  5
1E0A
100
AcDbEntity
  8
ALPHA
100
AcDbVertex
100
AcDb2dVertex
 10
7.567161
 20
0.426756
 30
0.0
  0
VERTEX
  5
1E0B
100
AcDbEntity
  8
ALPHA
100
AcDbVertex
100
AcDb2dVertex
 10
7.657288
 20
0.457192
 30
0.0
  0
VERTEX
  5
1E0C
100
AcDbEntity
  8
ALPHA
100
AcDbVertex
100
AcDb2dVertex
 10
7.740761
 20
0.494353
 30
0.0
  0
VERTEX
  5
1E0D
100
AcDbEntity
  8
ALPHA
100
AcDbVertex
100
AcDb2dVertex
 10
7.817485
 20
0.53736
 30
0.0
  0
VERTEX
  5
1E0E
100
AcDbEntity
  8
ALPHA
100
AcDbVertex
100
AcDb2dVertex
 10
7.887361
 20
0.585333
 30
0.0
  0
VERTEX
  5
1E0F
100
AcDbEntity
  8
ALPHA
100
AcDbVertex
100
AcDb2dVertex
 10
7.950293
 20
0.637392
 30
0.0
  0
VERTEX
  5
1E10
100
AcDbEntity
  8
ALPHA
100
AcDbVertex
100
AcDb2dVertex
 10
8.006184
 20
0.692656
 30
0.0
  0
VERTEX
  5
1E11
100
AcDbEntity
  8
ALPHA
100
AcDbVertex
100
AcDb2dVertex
 10
8.054938
 20
0.750245
 30
0.0
  0
VERTEX
  5
1E12
100
AcDbEntity
  8
ALPHA
100
AcDbVertex
100
AcDb2dVertex
 10
8.096457
 20
0.80928
 30
0.0
  0
VERTEX
  5
1E13
100
AcDbEntity
  8
ALPHA
100
AcDbVertex
100
AcDb2dVertex
 10
8.130644
 20
0.868881
 30
0.0
  0
VERTEX
  5
1E14
100
AcDbEntity
  8
ALPHA
100
AcDbVertex
100
AcDb2dVertex
 10
8.157402
 20
0.928166
 30
0.0
  0
VERTEX
  5
1E15
100
AcDbEntity
  8
ALPHA
100
AcDbVertex
100
AcDb2dVertex
 10
8.176636
 20
0.986256
 30
0.0
  0
VERTEX
  5
1E16
100
AcDbEntity
  8
ALPHA
100
AcDbVertex
100
AcDb2dVertex
 10
8.188247
 20
1.042271
 30
0.0
  0
VERTEX
  5
1E17
100
AcDbEntity
  8
ALPHA
100
AcDbVertex
100
AcDb2dVertex
 10
8.192139
 20
1.095331
 30
0.0
  0
SEQEND
  5
1E18
100
AcDbEntity
  8
ALPHA
  0
POLYLINE
  5
1E19
100
AcDbEntity
  8
ALPHA
100
AcDb2dPolyline
 66
     1
 10
0.0
 20
0.0
 30
0.0
  0
VERTEX
  5
1E1A
100
AcDbEntity
  8
ALPHA
100
AcDbVertex
100
AcDb2dVertex
 10
1.669195
 20
3.061447
 30
0.0
  0
VERTEX
  5
1E1B
100
AcDbEntity
  8
ALPHA
100
AcDbVertex
100
AcDb2dVertex
 10
2.669823
 20
3.061447
 30
0.0
  0
SEQEND
  5
1E1C
100
AcDbEntity
  8
ALPHA
  0
POLYLINE
  5
1E1D
100
AcDbEntity
  8
ALPHA
100
AcDb2dPolyline
 66
     1
 10
0.0
 20
0.0
 30
0.0
  0
VERTEX
  5
1E1E
100
AcDbEntity
  8
ALPHA
100
AcDbVertex
100
AcDb2dVertex
 10
1.905184
 20
3.091075
 30
0.0
  0
VERTEX
  5
1E1F
100
AcDbEntity
  8
ALPHA
100
AcDbVertex
100
AcDb2dVertex
 10
1.362065
 20
3.821973
 30
0.0
  0
VERTEX
  5
1E20
100
AcDbEntity
  8
ALPHA
100
AcDbVertex
100
AcDb2dVertex
 10
0.958859
 20
4.605711
 30
0.0
  0
VERTEX
  5
1E21
100
AcDbEntity
  8
ALPHA
100
AcDbVertex
100
AcDb2dVertex
 10
0.675995
 20
5.443451
 30
0.0
  0
VERTEX
  5
1E22
100
AcDbEntity
  8
ALPHA
100
AcDbVertex
100
AcDb2dVertex
 10
0.493901
 20
6.336355
 30
0.0
  0
SEQEND
  5
1E23
100
AcDbEntity
  8
ALPHA
  0
POLYLINE
  5
1E24
100
AcDbEntity
  8
ALPHA
100
AcDb2dPolyline
 66
     1
 10
0.0
 20
0.0
 30
0.0
  0
VERTEX
  5
1E25
100
AcDbEntity
  8
ALPHA
100
AcDbVertex
100
AcDb2dVertex
 10
0.140261
 20
6.338077
 30
0.0
  0
VERTEX
  5
1E26
100
AcDbEntity
  8
ALPHA
100
AcDbVertex
100
AcDb2dVertex
 10
0.185801
 20
5.769293
 30
0.0
  0
VERTEX
  5
1E27
100
AcDbEntity
  8
ALPHA
100
AcDbVertex
100
AcDb2dVertex
 10
0.310048
 20
5.219116
 30
0.0
  0
VERTEX
  5
1E28
100
AcDbEntity
  8
ALPHA
100
AcDbVertex
100
AcDb2dVertex
 10
0.494446
 20
4.700986
 30
0.0
  0
VERTEX
  5
1E29
100
AcDbEntity
  8
ALPHA
100
AcDbVertex
100
AcDb2dVertex
 10
0.720437
 20
4.228344
 30
0.0
  0
VERTEX
  5
1E2A
100
AcDbEntity
  8
ALPHA
100
AcDbVertex
100
AcDb2dVertex
 10
0.969465
 20
3.814629
 30
0.0
  0
VERTEX
  5
1E2B
100
AcDbEntity
  8
ALPHA
100
AcDbVertex
100
AcDb2dVertex
 10
1.222972
 20
3.473281
 30
0.0
  0
VERTEX
  5
1E2C
100
AcDbEntity
  8
ALPHA
100
AcDbVertex
100
AcDb2dVertex
 10
1.462401
 20
3.217741
 30
0.0
  0
VERTEX
  5
1E2D
100
AcDbEntity
  8
ALPHA
100
AcDbVertex
100
AcDb2dVertex
 10
1.571037
 20
3.126348
 30
0.0
  0
VERTEX
  5
1E2E
100
AcDbEntity
  8
ALPHA
100
AcDbVertex
100
AcDb2dVertex
 10
1.669195
 20
3.061447
 30
0.0
  0
SEQEND
  5
1E2F
100
AcDbEntity
  8
ALPHA
  0
POLYLINE
  5
1E30
100
AcDbEntity
  8
ALPHA
100
AcDb2dPolyline
 66
     1
 10
0.0
 20
0.0
 30
0.0
  0
VERTEX
  5
1E31
100
AcDbEntity
  8
ALPHA
100
AcDbVertex
100
AcDb2dVertex
 10
0.493901
 20
6.336355
 30
0.0
  0
VERTEX
  5
1E32
100
AcDbEntity
  8
ALPHA
100
AcDbVertex
100
AcDb2dVertex
 10
0.493901
 20
8.827848
 30
0.0
  0
SEQEND
  5
1E33
100
AcDbEntity
  8
ALPHA
  0
POLYLINE
  5
1E34
100
AcDbEntity
  8
ALPHA
100
AcDb2dPolyline
 66
     1
 10
0.0
 20
0.0
 30
0.0
  0
VERTEX
  5
1E35
100
AcDbEntity
  8
ALPHA
100
AcDbVertex
100
AcDb2dVertex
 10
4.199101
 20
0.384608
 30
0.0
  0
VERTEX
  5
1E36
100
AcDbEntity
  8
ALPHA
100
AcDbVertex
100
AcDb2dVertex
 10
7.257829
 20
0.384608
 30
0.0
  0
SEQEND
  5
1E37
100
AcDbEntity
  8
ALPHA
  0
POLYLINE
  5
1E38
100
AcDbEntity
  8
ALPHA
100
AcDb2dPolyline
 66
     1
 10
0.0
 20
0.0
 30
0.0
  0
VERTEX
  5
1E39
100
AcDbEntity
  8
ALPHA
100
AcDbVertex
100
AcDb2dVertex
 10
2.669823
 20
3.061447
 30
0.0
  0
VERTEX
  5
1E3A
100
AcDbEntity
  8
ALPHA
100
AcDbVertex
100
AcDb2dVertex
 10
2.677332
 20
2.933281
 30
0.0
  0
VERTEX
  5
1E3B
100
AcDbEntity
  8
ALPHA
100
AcDbVertex
100
AcDb2dVertex
 10
2.699167
 20
2.815143
 30
0.0
  0
VERTEX
  5
1E3C
100
AcDbEntity
  8
ALPHA
100
AcDbVertex
100
AcDb2dVertex
 10
2.734287
 20
2.706791
 30
0.0
  0
VERTEX
  5
1E3D
100
AcDbEntity
  8
ALPHA
100
AcDbVertex
100
AcDb2dVertex
 10
2.781651
 20
2.607981
 30
0.0
  0
VERTEX
  5
1E3E
100
AcDbEntity
  8
ALPHA
100
AcDbVertex
100
AcDb2dVertex
 10
2.84022
 20
2.518471
 30
0.0
  0
VERTEX
  5
1E3F
100
AcDbEntity
  8
ALPHA
100
AcDbVertex
100
AcDb2dVertex
 10
2.908952
 20
2.438017
 30
0.0
  0
VERTEX
  5
1E40
100
AcDbEntity
  8
ALPHA
100
AcDbVertex
100
AcDb2dVertex
 10
2.986809
 20
2.366378
 30
0.0
  0
VERTEX
  5
1E41
100
AcDbEntity
  8
ALPHA
100
AcDbVertex
100
AcDb2dVertex
 10
3.072748
 20
2.303311
 30
0.0
  0
VERTEX
  5
1E42
100
AcDbEntity
  8
ALPHA
100
AcDbVertex
100
AcDb2dVertex
 10
3.165731
 20
2.248572
 30
0.0
  0
VERTEX
  5
1E43
100
AcDbEntity
  8
ALPHA
100
AcDbVertex
100
AcDb2dVertex
 10
3.264716
 20
2.201919
 30
0.0
  0
VERTEX
  5
1E44
100
AcDbEntity
  8
ALPHA
100
AcDbVertex
100
AcDb2dVertex
 10
3.476532
 20
2.131901
 30
0.0
  0
VERTEX
  5
1E45
100
AcDbEntity
  8
ALPHA
100
AcDbVertex
100
AcDb2dVertex
 10
3.699875
 20
2.091314
 30
0.0
  0
VERTEX
  5
1E46
100
AcDbEntity
  8
ALPHA
100
AcDbVertex
100
AcDb2dVertex
 10
3.926421
 20
2.078217
 30
0.0
  0
VERTEX
  5
1E47
100
AcDbEntity
  8
ALPHA
100
AcDbVertex
100
AcDb2dVertex
 10
7.640407
 20
2.078217
 30
0.0
  0
SEQEND
  5
1E48
100
AcDbEntity
  8
ALPHA
  0
POLYLINE
  5
1E49
100
AcDbEntity
  8
ALPHA
100
AcDb2dPolyline
 66
     1
 10
0.0
 20
0.0
 30
0.0
  0
VERTEX
  5
1E4A
100
AcDbEntity
  8
ALPHA
100
AcDbVertex
100
AcDb2dVertex
 10
7.640407
 20
1.149763
 30
0.0
  0
VERTEX
  5
1E4B
100
AcDbEntity
  8
ALPHA
100
AcDbVertex
100
AcDb2dVertex
 10
7.639459
 20
1.129762
 30
0.0
  0
VERTEX
  5
1E4C
100
AcDbEntity
  8
ALPHA
100
AcDbVertex
100
AcDb2dVertex
 10
7.63667
 20
1.110697
 30
0.0
  0
VERTEX
  5
1E4D
100
AcDbEntity
  8
ALPHA
100
AcDbVertex
100
AcDb2dVertex
 10
7.632119
 20
1.09255
 30
0.0
  0
VERTEX
  5
1E4E
100
AcDbEntity
  8
ALPHA
100
AcDbVertex
100
AcDb2dVertex
 10
7.625887
 20
1.0753
 30
0.0
  0
VERTEX
  5
1E4F
100
AcDbEntity
  8
ALPHA
100
AcDbVertex
100
AcDb2dVertex
 10
7.618054
 20
1.058927
 30
0.0
  0
VERTEX
  5
1E50
100
AcDbEntity
  8
ALPHA
100
AcDbVertex
100
AcDb2dVertex
 10
7.608699
 20
1.043412
 30
0.0
  0
VERTEX
  5
1E51
100
AcDbEntity
  8
ALPHA
100
AcDbVertex
100
AcDb2dVertex
 10
7.585745
 20
1.014877
 30
0.0
  0
VERTEX
  5
1E52
100
AcDbEntity
  8
ALPHA
100
AcDbVertex
100
AcDb2dVertex
 10
7.557668
 20
0.989535
 30
0.0
  0
VERTEX
  5
1E53
100
AcDbEntity
  8
ALPHA
100
AcDbVertex
100
AcDb2dVertex
 10
7.525107
 20
0.967229
 30
0.0
  0
VERTEX
  5
1E54
100
AcDbEntity
  8
ALPHA
100
AcDbVertex
100
AcDb2dVertex
 10
7.488703
 20
0.947798
 30
0.0
  0
VERTEX
  5
1E55
100
AcDbEntity
  8
ALPHA
100
AcDbVertex
100
AcDb2dVertex
 10
7.449096
 20
0.931086
 30
0.0
  0
VERTEX
  5
1E56
100
AcDbEntity
  8
ALPHA
100
AcDbVertex
100
AcDb2dVertex
 10
7.362839
 20
0.905182
 30
0.0
  0
VERTEX
  5
1E57
100
AcDbEntity
  8
ALPHA
100
AcDbVertex
100
AcDb2dVertex
 10
7.271461
 20
0.888248
 30
0.0
  0
VERTEX
  5
1E58
100
AcDbEntity
  8
ALPHA
100
AcDbVertex
100
AcDb2dVertex
 10
7.093842
 20
0.876223
 30
0.0
  0
VERTEX
  5
1E59
100
AcDbEntity
  8
ALPHA
100
AcDbVertex
100
AcDb2dVertex
 10
4.199101
 20
0.876223
 30
0.0
  0
SEQEND
  5
1E5A
100
AcDbEntity
  8
ALPHA
  0
POLYLINE
  5
1E5B
100
AcDbEntity
  8
ALPHA
100
AcDb2dPolyline
 66
     1
 10
0.0
 20
0.0
 30
0.0
  0
VERTEX
  5
1E5C
100
AcDbEntity
  8
ALPHA
100
AcDbVertex
100
AcDb2dVertex
 10
4.199101
 20
0.876223
 30
0.0
  0
VERTEX
  5
1E5D
100
AcDbEntity
  8
ALPHA
100
AcDbVertex
100
AcDb2dVertex
 10
4.199101
 20
0.384608
 30
0.0
  0
SEQEND
  5
1E5E
100
AcDbEntity
  8
ALPHA
  0
POLYLINE
  5
1E5F
100
AcDbEntity
  8
ALPHA
100
AcDb2dPolyline
 66
     1
 10
0.0
 20
0.0
 30
0.0
  0
VERTEX
  5
1E60
100
AcDbEntity
  8
ALPHA
100
AcDbVertex
100
AcDb2dVertex
 10
7.640407
 20
2.078217
 30
0.0
  0
VERTEX
  5
1E61
100
AcDbEntity
  8
ALPHA
100
AcDbVertex
100
AcDb2dVertex
 10
7.640407
 20
3.061447
 30
0.0
  0
SEQEND
  5
1E62
100
AcDbEntity
  8
ALPHA
  0
POLYLINE
  5
1E63
100
AcDbEntity
  8
ALPHA
100
AcDb2dPolyline
 66
     1
 10
0.0
 20
0.0
 30
0.0
  0
VERTEX
  5
1E64
100
AcDbEntity
  8
ALPHA
100
AcDbVertex
100
AcDb2dVertex
 10
7.640407
 20
2.078217
 30
0.0
  0
VERTEX
  5
1E65
100
AcDbEntity
  8
ALPHA
100
AcDbVertex
100
AcDb2dVertex
 10
7.640407
 20
1.149763
 30
0.0
  0
SEQEND
  5
1E66
100
AcDbEntity
  8
ALPHA
  0
POLYLINE
  5
1E67
100
AcDbEntity
  8
ALPHA
100
AcDb2dPolyline
 66
     1
 10
0.0
 20
0.0
 30
0.0
  0
VERTEX
  5
1E68
100
AcDbEntity
  8
ALPHA
100
AcDbVertex
100
AcDb2dVertex
 10
5.6376
 20
7.472547
 30
0.0
  0
VERTEX
  5
1E69
100
AcDbEntity
  8
ALPHA
100
AcDbVertex
100
AcDb2dVertex
 10
4.095059
 20
7.472547
 30
0.0
  0
SEQEND
  5
1E6A
100
AcDbEntity
  8
ALPHA
  0
POLYLINE
  5
1E6B
100
AcDbEntity
  8
ALPHA
100
AcDb2dPolyline
 66
     1
 10
0.0
 20
0.0
 30
0.0
  0
VERTEX
  5
1E6C
100
AcDbEntity
  8
ALPHA
100
AcDbVertex
100
AcDb2dVertex
 10
4.095059
 20
7.671674
 30
0.0
  0
VERTEX
  5
1E6D
100
AcDbEntity
  8
ALPHA
100
AcDbVertex
100
AcDb2dVertex
 10
5.845684
 20
7.671674
 30
0.0
  0
SEQEND
  5
1E6E
100
AcDbEntity
  8
ALPHA
  0
POLYLINE
  5
1E6F
100
AcDbEntity
  8
ALPHA
100
AcDb2dPolyline
 66
     1
 10
0.0
 20
0.0
 30
0.0
  0
VERTEX
  5
1E70
100
AcDbEntity
  8
ALPHA
100
AcDbVertex
100
AcDb2dVertex
 10
4.013582
 20
5.062358
 30
0.0
  0
VERTEX
  5
1E71
100
AcDbEntity
  8
ALPHA
100
AcDbVertex
100
AcDb2dVertex
 10
6.74606
 20
5.062358
 30
0.0
  0
SEQEND
  5
1E72
100
AcDbEntity
  8
ALPHA
  0
POLYLINE
  5
1E73
100
AcDbEntity
  8
ALPHA
100
AcDb2dPolyline
 66
     1
 10
0.0
 20
0.0
 30
0.0
  0
VERTEX
  5
1E74
100
AcDbEntity
  8
ALPHA
100
AcDbVertex
100
AcDb2dVertex
 10
3.773804
 20
9.7501
 30
0.0
  0
VERTEX
  5
1E75
100
AcDbEntity
  8
ALPHA
100
AcDbVertex
100
AcDb2dVertex
 10
3.773804
 20
5.355536
 30
0.0
  0
SEQEND
  5
1E76
100
AcDbEntity
  8
ALPHA
  0
POLYLINE
  5
1E77
100
AcDbEntity
  8
ALPHA
100
AcDb2dPolyline
 66
     1
 10
0.0
 20
0.0
 30
0.0
  0
VERTEX
  5
1E78
100
AcDbEntity
  8
ALPHA
100
AcDbVertex
100
AcDb2dVertex
 10
3.773804
 20
5.355536
 30
0.0
  0
VERTEX
  5
1E79
100
AcDbEntity
  8
ALPHA
100
AcDbVertex
100
AcDb2dVertex
 10
3.779521
 20
5.303275
 30
0.0
  0
VERTEX
  5
1E7A
100
AcDbEntity
  8
ALPHA
100
AcDbVertex
100
AcDb2dVertex
 10
3.79332
 20
5.253965
 30
0.0
  0
VERTEX
  5
1E7B
100
AcDbEntity
  8
ALPHA
100
AcDbVertex
100
AcDb2dVertex
 10
3.814623
 20
5.208361
 30
0.0
  0
VERTEX
  5
1E7C
100
AcDbEntity
  8
ALPHA
100
AcDbVertex
100
AcDb2dVertex
 10
3.842856
 20
5.167219
 30
0.0
  0
VERTEX
  5
1E7D
100
AcDbEntity
  8
ALPHA
100
AcDbVertex
100
AcDb2dVertex
 10
3.877444
 20
5.131292
 30
0.0
  0
VERTEX
  5
1E7E
100
AcDbEntity
  8
ALPHA
100
AcDbVertex
100
AcDb2dVertex
 10
3.917811
 20
5.101336
 30
0.0
  0
VERTEX
  5
1E7F
100
AcDbEntity
  8
ALPHA
100
AcDbVertex
100
AcDb2dVertex
 10
3.963383
 20
5.078107
 30
0.0
  0
VERTEX
  5
1E80
100
AcDbEntity
  8
ALPHA
100
AcDbVertex
100
AcDb2dVertex
 10
4.013582
 20
5.062358
 30
0.0
  0
SEQEND
  5
1E81
100
AcDbEntity
  8
ALPHA
  0
POLYLINE
  5
1E82
100
AcDbEntity
  8
ALPHA
100
AcDb2dPolyline
 66
     1
 10
0.0
 20
0.0
 30
0.0
  0
VERTEX
  5
1E83
100
AcDbEntity
  8
ALPHA
100
AcDbVertex
100
AcDb2dVertex
 10
4.095059
 20
7.671674
 30
0.0
  0
VERTEX
  5
1E84
100
AcDbEntity
  8
ALPHA
100
AcDbVertex
100
AcDb2dVertex
 10
3.995323
 20
7.572455
 30
0.0
  0
VERTEX
  5
1E85
100
AcDbEntity
  8
ALPHA
100
AcDbVertex
100
AcDb2dVertex
 10
4.095059
 20
7.472547
 30
0.0
  0
SEQEND
  5
1E86
100
AcDbEntity
  8
ALPHA
  0
POLYLINE
  5
1E87
100
AcDbEntity
  8
ALPHA
100
AcDb2dPolyline
 66
     1
 10
0.0
 20
0.0
 30
0.0
  0
VERTEX
  5
1E88
100
AcDbEntity
  8
ALPHA
100
AcDbVertex
100
AcDb2dVertex
 10
7.067315
 20
5.355881
 30
0.0
  0
VERTEX
  5
1E89
100
AcDbEntity
  8
ALPHA
100
AcDbVertex
100
AcDb2dVertex
 10
7.067315
 20
9.743899
 30
0.0
  0
SEQEND
  5
1E8A
100
AcDbEntity
  8
ALPHA
  0
POLYLINE
  5
1E8B
100
AcDbEntity
  8
ALPHA
100
AcDb2dPolyline
 66
     1
 10
0.0
 20
0.0
 30
0.0
  0
VERTEX
  5
1E8C
100
AcDbEntity
  8
ALPHA
100
AcDbVertex
100
AcDb2dVertex
 10
6.344362
 20
7.172824
 30
0.0
  0
VERTEX
  5
1E8D
100
AcDbEntity
  8
ALPHA
100
AcDbVertex
100
AcDb2dVertex
 10
6.344362
 20
5.062358
 30
0.0
  0
SEQEND
  5
1E8E
100
AcDbEntity
  8
ALPHA
  0
POLYLINE
  5
1E8F
100
AcDbEntity
  8
ALPHA
100
AcDb2dPolyline
 66
     1
 10
0.0
 20
0.0
 30
0.0
  0
VERTEX
  5
1E90
100
AcDbEntity
  8
ALPHA
100
AcDbVertex
100
AcDb2dVertex
 10
6.103377
 20
5.062358
 30
0.0
  0
VERTEX
  5
1E91
100
AcDbEntity
  8
ALPHA
100
AcDbVertex
100
AcDb2dVertex
 10
6.103377
 20
6.990234
 30
0.0
  0
SEQEND
  5
1E92
100
AcDbEntity
  8
ALPHA
  0
POLYLINE
  5
1E93
100
AcDbEntity
  8
ALPHA
100
AcDb2dPolyline
 66
     1
 10
0.0
 20
0.0
 30
0.0
  0
VERTEX
  5
1E94
100
AcDbEntity
  8
ALPHA
100
AcDbVertex
100
AcDb2dVertex
 10
5.927161
 20
5.062358
 30
0.0
  0
VERTEX
  5
1E95
100
AcDbEntity
  8
ALPHA
100
AcDbVertex
100
AcDb2dVertex
 10
5.927161
 20
6.972664
 30
0.0
  0
SEQEND
  5
1E96
100
AcDbEntity
  8
ALPHA
  0
POLYLINE
  5
1E97
100
AcDbEntity
  8
ALPHA
100
AcDb2dPolyline
 66
     1
 10
0.0
 20
0.0
 30
0.0
  0
VERTEX
  5
1E98
100
AcDbEntity
  8
ALPHA
100
AcDbVertex
100
AcDb2dVertex
 10
6.826331
 20
7.713359
 30
0.0
  0
VERTEX
  5
1E99
100
AcDbEntity
  8
ALPHA
100
AcDbVertex
100
AcDb2dVertex
 10
6.826331
 20
5.062358
 30
0.0
  0
SEQEND
  5
1E9A
100
AcDbEntity
  8
ALPHA
  0
POLYLINE
  5
1E9B
100
AcDbEntity
  8
ALPHA
100
AcDb2dPolyline
 66
     1
 10
0.0
 20
0.0
 30
0.0
  0
VERTEX
  5
1E9C
100
AcDbEntity
  8
ALPHA
100
AcDbVertex
100
AcDb2dVertex
 10
6.826331
 20
5.062358
 30
0.0
  0
VERTEX
  5
1E9D
100
AcDbEntity
  8
ALPHA
100
AcDbVertex
100
AcDb2dVertex
 10
6.74606
 20
5.062358
 30
0.0
  0
SEQEND
  5
1E9E
100
AcDbEntity
  8
ALPHA
  0
POLYLINE
  5
1E9F
100
AcDbEntity
  8
ALPHA
100
AcDb2dPolyline
 66
     1
 10
0.0
 20
0.0
 30
0.0
  0
VERTEX
  5
1EA0
100
AcDbEntity
  8
ALPHA
100
AcDbVertex
100
AcDb2dVertex
 10
7.067315
 20
5.355881
 30
0.0
  0
VERTEX
  5
1EA1
100
AcDbEntity
  8
ALPHA
100
AcDbVertex
100
AcDb2dVertex
 10
7.061689
 20
5.303633
 30
0.0
  0
VERTEX
  5
1EA2
100
AcDbEntity
  8
ALPHA
100
AcDbVertex
100
AcDb2dVertex
 10
7.04792
 20
5.254353
 30
0.0
  0
VERTEX
  5
1EA3
100
AcDbEntity
  8
ALPHA
100
AcDbVertex
100
AcDb2dVertex
 10
7.026602
 20
5.208778
 30
0.0
  0
VERTEX
  5
1EA4
100
AcDbEntity
  8
ALPHA
100
AcDbVertex
100
AcDb2dVertex
 10
6.998327
 20
5.167649
 30
0.0
  0
VERTEX
  5
1EA5
100
AcDbEntity
  8
ALPHA
100
AcDbVertex
100
AcDb2dVertex
 10
6.96369
 20
5.131704
 30
0.0
  0
VERTEX
  5
1EA6
100
AcDbEntity
  8
ALPHA
100
AcDbVertex
100
AcDb2dVertex
 10
6.923283
 20
5.101681
 30
0.0
  0
VERTEX
  5
1EA7
100
AcDbEntity
  8
ALPHA
100
AcDbVertex
100
AcDb2dVertex
 10
6.877701
 20
5.07832
 30
0.0
  0
VERTEX
  5
1EA8
100
AcDbEntity
  8
ALPHA
100
AcDbVertex
100
AcDb2dVertex
 10
6.827536
 20
5.062358
 30
0.0
  0
SEQEND
  5
1EA9
100
AcDbEntity
  8
ALPHA
  0
POLYLINE
  5
1EAA
100
AcDbEntity
  8
ALPHA
100
AcDb2dPolyline
 66
     1
 10
0.0
 20
0.0
 30
0.0
  0
VERTEX
  5
1EAB
100
AcDbEntity
  8
ALPHA
100
AcDbVertex
100
AcDb2dVertex
 10
5.6376
 20
7.472547
 30
0.0
  0
VERTEX
  5
1EAC
100
AcDbEntity
  8
ALPHA
100
AcDbVertex
100
AcDb2dVertex
 10
5.686988
 20
7.468996
 30
0.0
  0
VERTEX
  5
1EAD
100
AcDbEntity
  8
ALPHA
100
AcDbVertex
100
AcDb2dVertex
 10
5.73452
 20
7.460351
 30
0.0
  0
VERTEX
  5
1EAE
100
AcDbEntity
  8
ALPHA
100
AcDbVertex
100
AcDb2dVertex
 10
5.780015
 20
7.446914
 30
0.0
  0
VERTEX
  5
1EAF
100
AcDbEntity
  8
ALPHA
100
AcDbVertex
100
AcDb2dVertex
 10
5.823294
 20
7.428983
 30
0.0
  0
VERTEX
  5
1EB0
100
AcDbEntity
  8
ALPHA
100
AcDbVertex
100
AcDb2dVertex
 10
5.864175
 20
7.40686
 30
0.0
  0
VERTEX
  5
1EB1
100
AcDbEntity
  8
ALPHA
100
AcDbVertex
100
AcDb2dVertex
 10
5.902479
 20
7.380844
 30
0.0
  0
VERTEX
  5
1EB2
100
AcDbEntity
  8
ALPHA
100
AcDbVertex
100
AcDb2dVertex
 10
5.938026
 20
7.351236
 30
0.0
  0
VERTEX
  5
1EB3
100
AcDbEntity
  8
ALPHA
100
AcDbVertex
100
AcDb2dVertex
 10
5.970633
 20
7.318336
 30
0.0
  0
VERTEX
  5
1EB4
100
AcDbEntity
  8
ALPHA
100
AcDbVertex
100
AcDb2dVertex
 10
6.000122
 20
7.282445
 30
0.0
  0
VERTEX
  5
1EB5
100
AcDbEntity
  8
ALPHA
100
AcDbVertex
100
AcDb2dVertex
 10
6.026312
 20
7.243862
 30
0.0
  0
VERTEX
  5
1EB6
100
AcDbEntity
  8
ALPHA
100
AcDbVertex
100
AcDb2dVertex
 10
6.049023
 20
7.202889
 30
0.0
  0
VERTEX
  5
1EB7
100
AcDbEntity
  8
ALPHA
100
AcDbVertex
100
AcDb2dVertex
 10
6.068073
 20
7.159824
 30
0.0
  0
VERTEX
  5
1EB8
100
AcDbEntity
  8
ALPHA
100
AcDbVertex
100
AcDb2dVertex
 10
6.083283
 20
7.114969
 30
0.0
  0
VERTEX
  5
1EB9
100
AcDbEntity
  8
ALPHA
100
AcDbVertex
100
AcDb2dVertex
 10
6.094472
 20
7.068624
 30
0.0
  0
VERTEX
  5
1EBA
100
AcDbEntity
  8
ALPHA
100
AcDbVertex
100
AcDb2dVertex
 10
6.10146
 20
7.021089
 30
0.0
  0
VERTEX
  5
1EBB
100
AcDbEntity
  8
ALPHA
100
AcDbVertex
100
AcDb2dVertex
 10
6.104066
 20
6.972664
 30
0.0
  0
SEQEND
  5
1EBC
100
AcDbEntity
  8
ALPHA
  0
POLYLINE
  5
1EBD
100
AcDbEntity
  8
ALPHA
100
AcDb2dPolyline
 66
     1
 10
0.0
 20
0.0
 30
0.0
  0
VERTEX
  5
1EBE
100
AcDbEntity
  8
ALPHA
100
AcDbVertex
100
AcDb2dVertex
 10
6.344362
 20
7.172824
 30
0.0
  0
VERTEX
  5
1EBF
100
AcDbEntity
  8
ALPHA
100
AcDbVertex
100
AcDb2dVertex
 10
6.341789
 20
7.223845
 30
0.0
  0
VERTEX
  5
1EC0
100
AcDbEntity
  8
ALPHA
100
AcDbVertex
100
AcDb2dVertex
 10
6.334238
 20
7.273388
 30
0.0
  0
VERTEX
  5
1EC1
100
AcDbEntity
  8
ALPHA
100
AcDbVertex
100
AcDb2dVertex
 10
6.321959
 20
7.321204
 30
0.0
  0
VERTEX
  5
1EC2
100
AcDbEntity
  8
ALPHA
100
AcDbVertex
100
AcDb2dVertex
 10
6.305201
 20
7.367041
 30
0.0
  0
VERTEX
  5
1EC3
100
AcDbEntity
  8
ALPHA
100
AcDbVertex
100
AcDb2dVertex
 10
6.284213
 20
7.41065
 30
0.0
  0
VERTEX
  5
1EC4
100
AcDbEntity
  8
ALPHA
100
AcDbVertex
100
AcDb2dVertex
 10
6.259247
 20
7.45178
 30
0.0
  0
VERTEX
  5
1EC5
100
AcDbEntity
  8
ALPHA
100
AcDbVertex
100
AcDb2dVertex
 10
6.230551
 20
7.49018
 30
0.0
  0
VERTEX
  5
1EC6
100
AcDbEntity
  8
ALPHA
100
AcDbVertex
100
AcDb2dVertex
 10
6.198376
 20
7.525602
 30
0.0
  0
VERTEX
  5
1EC7
100
AcDbEntity
  8
ALPHA
100
AcDbVertex
100
AcDb2dVertex
 10
6.162971
 20
7.557793
 30
0.0
  0
VERTEX
  5
1EC8
100
AcDbEntity
  8
ALPHA
100
AcDbVertex
100
AcDb2dVertex
 10
6.124585
 20
7.586505
 30
0.0
  0
VERTEX
  5
1EC9
100
AcDbEntity
  8
ALPHA
100
AcDbVertex
100
AcDb2dVertex
 10
6.08347
 20
7.611485
 30
0.0
  0
VERTEX
  5
1ECA
100
AcDbEntity
  8
ALPHA
100
AcDbVertex
100
AcDb2dVertex
 10
6.039874
 20
7.632486
 30
0.0
  0
VERTEX
  5
1ECB
100
AcDbEntity
  8
ALPHA
100
AcDbVertex
100
AcDb2dVertex
 10
5.994048
 20
7.649255
 30
0.0
  0
VERTEX
  5
1ECC
100
AcDbEntity
  8
ALPHA
100
AcDbVertex
100
AcDb2dVertex
 10
5.946241
 20
7.661543
 30
0.0
  0
VERTEX
  5
1ECD
100
AcDbEntity
  8
ALPHA
100
AcDbVertex
100
AcDb2dVertex
 10
5.896703
 20
7.669099
 30
0.0
  0
VERTEX
  5
1ECE
100
AcDbEntity
  8
ALPHA
100
AcDbVertex
100
AcDb2dVertex
 10
5.845684
 20
7.671674
 30
0.0
  0
SEQEND
  5
1ECF
100
AcDbEntity
  8
ALPHA
  0
POLYLINE
  5
1ED0
100
AcDbEntity
  8
ALPHA
100
AcDb2dPolyline
 66
     1
 10
0.0
 20
0.0
 30
0.0
  0
VERTEX
  5
1ED1
100
AcDbEntity
  8
ALPHA
100
AcDbVertex
100
AcDb2dVertex
 10
5.927161
 20
6.972664
 30
0.0
  0
VERTEX
  5
1ED2
100
AcDbEntity
  8
ALPHA
100
AcDbVertex
100
AcDb2dVertex
 10
5.924554
 20
7.021089
 30
0.0
  0
VERTEX
  5
1ED3
100
AcDbEntity
  8
ALPHA
100
AcDbVertex
100
AcDb2dVertex
 10
5.917566
 20
7.068624
 30
0.0
  0
VERTEX
  5
1ED4
100
AcDbEntity
  8
ALPHA
100
AcDbVertex
100
AcDb2dVertex
 10
5.906377
 20
7.114969
 30
0.0
  0
VERTEX
  5
1ED5
100
AcDbEntity
  8
ALPHA
100
AcDbVertex
100
AcDb2dVertex
 10
5.891167
 20
7.159824
 30
0.0
  0
VERTEX
  5
1ED6
100
AcDbEntity
  8
ALPHA
100
AcDbVertex
100
AcDb2dVertex
 10
5.872117
 20
7.202889
 30
0.0
  0
VERTEX
  5
1ED7
100
AcDbEntity
  8
ALPHA
100
AcDbVertex
100
AcDb2dVertex
 10
5.849407
 20
7.243862
 30
0.0
  0
VERTEX
  5
1ED8
100
AcDbEntity
  8
ALPHA
100
AcDbVertex
100
AcDb2dVertex
 10
5.823217
 20
7.282445
 30
0.0
  0
VERTEX
  5
1ED9
100
AcDbEntity
  8
ALPHA
100
AcDbVertex
100
AcDb2dVertex
 10
5.793728
 20
7.318336
 30
0.0
  0
VERTEX
  5
1EDA
100
AcDbEntity
  8
ALPHA
100
AcDbVertex
100
AcDb2dVertex
 10
5.76112
 20
7.351236
 30
0.0
  0
VERTEX
  5
1EDB
100
AcDbEntity
  8
ALPHA
100
AcDbVertex
100
AcDb2dVertex
 10
5.725574
 20
7.380844
 30
0.0
  0
VERTEX
  5
1EDC
100
AcDbEntity
  8
ALPHA
100
AcDbVertex
100
AcDb2dVertex
 10
5.68727
 20
7.40686
 30
0.0
  0
VERTEX
  5
1EDD
100
AcDbEntity
  8
ALPHA
100
AcDbVertex
100
AcDb2dVertex
 10
5.646388
 20
7.428983
 30
0.0
  0
VERTEX
  5
1EDE
100
AcDbEntity
  8
ALPHA
100
AcDbVertex
100
AcDb2dVertex
 10
5.603109
 20
7.446914
 30
0.0
  0
VERTEX
  5
1EDF
100
AcDbEntity
  8
ALPHA
100
AcDbVertex
100
AcDb2dVertex
 10
5.557614
 20
7.460351
 30
0.0
  0
VERTEX
  5
1EE0
100
AcDbEntity
  8
ALPHA
100
AcDbVertex
100
AcDb2dVertex
 10
5.510082
 20
7.468996
 30
0.0
  0
VERTEX
  5
1EE1
100
AcDbEntity
  8
ALPHA
100
AcDbVertex
100
AcDb2dVertex
 10
5.460695
 20
7.472547
 30
0.0
  0
SEQEND
  5
1EE2
100
AcDbEntity
  8
ALPHA
  0
POLYLINE
  5
1EE3
100
AcDbEntity
  8
ALPHA
100
AcDb2dPolyline
 66
     1
 10
0.0
 20
0.0
 30
0.0
  0
VERTEX
  5
1EE4
100
AcDbEntity
  8
ALPHA
100
AcDbVertex
100
AcDb2dVertex
 10
7.067315
 20
9.560964
 30
0.0
  0
VERTEX
  5
1EE5
100
AcDbEntity
  8
ALPHA
100
AcDbVertex
100
AcDb2dVertex
 10
6.906774
 20
8.436829
 30
0.0
  0
SEQEND
  5
1EE6
100
AcDbEntity
  8
ALPHA
  0
POLYLINE
  5
1EE7
100
AcDbEntity
  8
ALPHA
100
AcDb2dPolyline
 66
     1
 10
0.0
 20
0.0
 30
0.0
  0
VERTEX
  5
1EE8
100
AcDbEntity
  8
ALPHA
100
AcDbVertex
100
AcDb2dVertex
 10
6.906774
 20
8.436829
 30
0.0
  0
VERTEX
  5
1EE9
100
AcDbEntity
  8
ALPHA
100
AcDbVertex
100
AcDb2dVertex
 10
6.831154
 20
7.708536
 30
0.0
  0
SEQEND
  5
1EEA
100
AcDbEntity
  8
ALPHA
  0
POLYLINE
  5
1EEB
100
AcDbEntity
  8
ALPHA
100
AcDb2dPolyline
 66
     1
 10
0.0
 20
0.0
 30
0.0
  0
VERTEX
  5
1EEC
100
AcDbEntity
  8
ALPHA
100
AcDbVertex
100
AcDb2dVertex
 10
6.831154
 20
7.708536
 30
0.0
  0
VERTEX
  5
1EED
100
AcDbEntity
  8
ALPHA
100
AcDbVertex
100
AcDb2dVertex
 10
6.826331
 20
7.713359
 30
0.0
  0
SEQEND
  5
1EEE
100
AcDbEntity
  8
ALPHA
  0
POLYLINE
  5
1EEF
100
AcDbEntity
  8
ALPHA
100
AcDb3dPolyline
 66
     1
 10
0.0
 20
0.0
 30
0.0
 70
     8
  0
VERTEX
  5
1EF0
100
AcDbEntity
  8
ALPHA
100
AcDbVertex
100
AcDb3dPolylineVertex
 10
12.719511
 20
7.212098
 30
0.0
 70
    32
  0
VERTEX
  5
1EF1
100
AcDbEntity
  8
ALPHA
100
AcDbVertex
100
AcDb3dPolylineVertex
 10
12.719511
 20
7.2094
 30
0.0
 70
    32
  0
VERTEX
  5
1EF2
100
AcDbEntity
  8
ALPHA
100
AcDbVertex
100
AcDb3dPolylineVertex
 10
12.719511
 20
7.201399
 30
0.0
 70
    32
  0
VERTEX
  5
1EF3
100
AcDbEntity
  8
ALPHA
100
AcDbVertex
100
AcDb3dPolylineVertex
 10
12.719511
 20
7.170036
 30
0.0
 70
    32
  0
VERTEX
  5
1EF4
100
AcDbEntity
  8
ALPHA
100
AcDbVertex
100
AcDb3dPolylineVertex
 10
12.719511
 20
7.049718
 30
0.0
 70
    32
  0
VERTEX
  5
1EF5
100
AcDbEntity
  8
ALPHA
100
AcDbVertex
100
AcDb3dPolylineVertex
 10
12.719511
 20
6.609529
 30
0.0
 70
    32
  0
VERTEX
  5
1EF6
100
AcDbEntity
  8
ALPHA
100
AcDbVertex
100
AcDb3dPolylineVertex
 10
12.719511
 20
5.177425
 30
0.0
 70
    32
  0
VERTEX
  5
1EF7
100
AcDbEntity
  8
ALPHA
100
AcDbVertex
100
AcDb3dPolylineVertex
 10
12.719511
 20
2.078217
 30
0.0
 70
    32
  0
VERTEX
  5
1EF8
100
AcDbEntity
  8
ALPHA
100
AcDbVertex
100
AcDb3dPolylineVertex
 10
12.760259
 20
1.578989
 30
0.0
 70
    32
  0
VERTEX
  5
1EF9
100
AcDbEntity
  8
ALPHA
100
AcDbVertex
100
AcDb3dPolylineVertex
 10
12.810955
 20
1.354346
 30
0.0
 70
    32
  0
VERTEX
  5
1EFA
100
AcDbEntity
  8
ALPHA
100
AcDbVertex
100
AcDb3dPolylineVertex
 10
12.881651
 20
1.146351
 30
0.0
 70
    32
  0
VERTEX
  5
1EFB
100
AcDbEntity
  8
ALPHA
100
AcDbVertex
100
AcDb3dPolylineVertex
 10
12.972188
 20
0.955
 30
0.0
 70
    32
  0
VERTEX
  5
1EFC
100
AcDbEntity
  8
ALPHA
100
AcDbVertex
100
AcDb3dPolylineVertex
 10
13.082407
 20
0.780294
 30
0.0
 70
    32
  0
VERTEX
  5
1EFD
100
AcDbEntity
  8
ALPHA
100
AcDbVertex
100
AcDb3dPolylineVertex
 10
13.212146
 20
0.622232
 30
0.0
 70
    32
  0
VERTEX
  5
1EFE
100
AcDbEntity
  8
ALPHA
100
AcDbVertex
100
AcDb3dPolylineVertex
 10
13.361246
 20
0.480812
 30
0.0
 70
    32
  0
VERTEX
  5
1EFF
100
AcDbEntity
  8
ALPHA
100
AcDbVertex
100
AcDb3dPolylineVertex
 10
13.529547
 20
0.356033
 30
0.0
 70
    32
  0
VERTEX
  5
1F00
100
AcDbEntity
  8
ALPHA
100
AcDbVertex
100
AcDb3dPolylineVertex
 10
13.71689
 20
0.247895
 30
0.0
 70
    32
  0
VERTEX
  5
1F01
100
AcDbEntity
  8
ALPHA
100
AcDbVertex
100
AcDb3dPolylineVertex
 10
13.923113
 20
0.156397
 30
0.0
 70
    32
  0
VERTEX
  5
1F02
100
AcDbEntity
  8
ALPHA
100
AcDbVertex
100
AcDb3dPolylineVertex
 10
14.148057
 20
0.081536
 30
0.0
 70
    32
  0
VERTEX
  5
1F03
100
AcDbEntity
  8
ALPHA
100
AcDbVertex
100
AcDb3dPolylineVertex
 10
14.65347
 20
-0.018273
 30
0.0
 70
    32
  0
VERTEX
  5
1F04
100
AcDbEntity
  8
ALPHA
100
AcDbVertex
100
AcDb3dPolylineVertex
 10
15.231847
 20
-0.051541
 30
0.0
 70
    32
  0
SEQEND
  5
1F05
100
AcDbEntity
  8
ALPHA
  0
POLYLINE
  5
1F06
100
AcDbEntity
  8
ALPHA
100
AcDb2dPolyline
 66
     1
 10
0.0
 20
0.0
 30
0.0
  0
VERTEX
  5
1F07
100
AcDbEntity
  8
ALPHA
100
AcDbVertex
100
AcDb2dVertex
 10
10.152742
 20
1.805021
 30
0.0
  0
VERTEX
  5
1F08
100
AcDbEntity
  8
ALPHA
100
AcDbVertex
100
AcDb2dVertex
 10
10.152742
 20
7.212098
 30
0.0
  0
SEQEND
  5
1F09
100
AcDbEntity
  8
ALPHA
  0
POLYLINE
  5
1F0A
100
AcDbEntity
  8
ALPHA
100
AcDb2dPolyline
 66
     1
 10
0.0
 20
0.0
 30
0.0
  0
VERTEX
  5
1F0B
100
AcDbEntity
  8
ALPHA
100
AcDbVertex
100
AcDb2dVertex
 10
11.190061
 20
1.805021
 30
0.0
  0
VERTEX
  5
1F0C
100
AcDbEntity
  8
ALPHA
100
AcDbVertex
100
AcDb2dVertex
 10
11.190061
 20
7.266531
 30
0.0
  0
SEQEND
  5
1F0D
100
AcDbEntity
  8
ALPHA
  0
POLYLINE
  5
1F0E
100
AcDbEntity
  8
ALPHA
100
AcDb2dPolyline
 66
     1
 10
0.0
 20
0.0
 30
0.0
  0
VERTEX
  5
1F0F
100
AcDbEntity
  8
ALPHA
100
AcDbVertex
100
AcDb2dVertex
 10
10.120014
 20
1.805021
 30
0.0
  0
VERTEX
  5
1F10
100
AcDbEntity
  8
ALPHA
100
AcDbVertex
100
AcDb2dVertex
 10
11.190061
 20
1.805021
 30
0.0
  0
SEQEND
  5
1F11
100
AcDbEntity
  8
ALPHA
  0
POLYLINE
  5
1F12
100
AcDbEntity
  8
ALPHA
100
AcDb2dPolyline
 66
     1
 10
0.0
 20
0.0
 30
0.0
  0
VERTEX
  5
1F13
100
AcDbEntity
  8
ALPHA
100
AcDbVertex
100
AcDb2dVertex
 10
8.192139
 20
1.095331
 30
0.0
  0
VERTEX
  5
1F14
100
AcDbEntity
  8
ALPHA
100
AcDbVertex
100
AcDb2dVertex
 10
10.120014
 20
1.095331
 30
0.0
  0
SEQEND
  5
1F15
100
AcDbEntity
  8
ALPHA
  0
POLYLINE
  5
1F16
100
AcDbEntity
  8
ALPHA
100
AcDb2dPolyline
 66
     1
 10
0.0
 20
0.0
 30
0.0
  0
VERTEX
  5
1F17
100
AcDbEntity
  8
ALPHA
100
AcDbVertex
100
AcDb2dVertex
 10
10.120014
 20
1.095331
 30
0.0
  0
VERTEX
  5
1F18
100
AcDbEntity
  8
ALPHA
100
AcDbVertex
100
AcDb2dVertex
 10
10.120014
 20
1.805021
 30
0.0
  0
SEQEND
  5
1F19
100
AcDbEntity
  8
ALPHA
  0
POLYLINE
  5
1F1A
100
AcDbEntity
  8
ALPHA
100
AcDb2dPolyline
 66
     1
 10
0.0
 20
0.0
 30
0.0
  0
VERTEX
  5
1F1B
100
AcDbEntity
  8
ALPHA
100
AcDbVertex
100
AcDb2dVertex
 10
11.190061
 20
7.266531
 30
0.0
  0
VERTEX
  5
1F1C
100
AcDbEntity
  8
ALPHA
100
AcDbVertex
100
AcDb2dVertex
 10
10.152742
 20
7.266531
 30
0.0
  0
SEQEND
  5
1F1D
100
AcDbEntity
  8
ALPHA
  0
POLYLINE
  5
1F1E
100
AcDbEntity
  8
ALPHA
100
AcDb2dPolyline
 66
     1
 10
0.0
 20
0.0
 30
0.0
  0
VERTEX
  5
1F1F
100
AcDbEntity
  8
ALPHA
100
AcDbVertex
100
AcDb2dVertex
 10
10.152742
 20
34.79336
 30
0.0
  0
VERTEX
  5
1F20
100
AcDbEntity
  8
ALPHA
100
AcDbVertex
100
AcDb2dVertex
 10
10.152742
 20
40.200438
 30
0.0
  0
SEQEND
  5
1F21
100
AcDbEntity
  8
ALPHA
  0
POLYLINE
  5
1F22
100
AcDbEntity
  8
ALPHA
100
AcDb2dPolyline
 66
     1
 10
0.0
 20
0.0
 30
0.0
  0
VERTEX
  5
1F23
100
AcDbEntity
  8
ALPHA
100
AcDbVertex
100
AcDb2dVertex
 10
4.111423
 20
32.072079
 30
0.0
  0
VERTEX
  5
1F24
100
AcDbEntity
  8
ALPHA
100
AcDbVertex
100
AcDb2dVertex
 10
4.111423
 20
37.063506
 30
0.0
  0
SEQEND
  5
1F25
100
AcDbEntity
  8
ALPHA
  0
POLYLINE
  5
1F26
100
AcDbEntity
  8
ALPHA
100
AcDb2dPolyline
 66
     1
 10
0.0
 20
0.0
 30
0.0
  0
VERTEX
  5
1F27
100
AcDbEntity
  8
ALPHA
100
AcDbVertex
100
AcDb2dVertex
 10
11.190061
 20
34.79336
 30
0.0
  0
VERTEX
  5
1F28
100
AcDbEntity
  8
ALPHA
100
AcDbVertex
100
AcDb2dVertex
 10
11.190061
 20
40.200438
 30
0.0
  0
SEQEND
  5
1F29
100
AcDbEntity
  8
ALPHA
  0
POLYLINE
  5
1F2A
100
AcDbEntity
  8
ALPHA
100
AcDb2dPolyline
 66
     1
 10
0.0
 20
0.0
 30
0.0
  0
VERTEX
  5
1F2B
100
AcDbEntity
  8
ALPHA
100
AcDbVertex
100
AcDb2dVertex
 10
3.707658
 20
40.036451
 30
0.0
  0
VERTEX
  5
1F2C
100
AcDbEntity
  8
ALPHA
100
AcDbVertex
100
AcDb2dVertex
 10
3.560388
 20
40.030174
 30
0.0
  0
VERTEX
  5
1F2D
100
AcDbEntity
  8
ALPHA
100
AcDbVertex
100
AcDb2dVertex
 10
3.425527
 20
40.011822
 30
0.0
  0
VERTEX
  5
1F2E
100
AcDbEntity
  8
ALPHA
100
AcDbVertex
100
AcDb2dVertex
 10
3.302673
 20
39.982114
 30
0.0
  0
VERTEX
  5
1F2F
100
AcDbEntity
  8
ALPHA
100
AcDbVertex
100
AcDb2dVertex
 10
3.191426
 20
39.94177
 30
0.0
  0
VERTEX
  5
1F30
100
AcDbEntity
  8
ALPHA
100
AcDbVertex
100
AcDb2dVertex
 10
3.091385
 20
39.891508
 30
0.0
  0
VERTEX
  5
1F31
100
AcDbEntity
  8
ALPHA
100
AcDbVertex
100
AcDb2dVertex
 10
3.002147
 20
39.832049
 30
0.0
  0
VERTEX
  5
1F32
100
AcDbEntity
  8
ALPHA
100
AcDbVertex
100
AcDb2dVertex
 10
2.923313
 20
39.764109
 30
0.0
  0
VERTEX
  5
1F33
100
AcDbEntity
  8
ALPHA
100
AcDbVertex
100
AcDb2dVertex
 10
2.85448
 20
39.68841
 30
0.0
  0
VERTEX
  5
1F34
100
AcDbEntity
  8
ALPHA
100
AcDbVertex
100
AcDb2dVertex
 10
2.795248
 20
39.60567
 30
0.0
  0
VERTEX
  5
1F35
100
AcDbEntity
  8
ALPHA
100
AcDbVertex
100
AcDb2dVertex
 10
2.745215
 20
39.516608
 30
0.0
  0
VERTEX
  5
1F36
100
AcDbEntity
  8
ALPHA
100
AcDbVertex
100
AcDb2dVertex
 10
2.70398
 20
39.421944
 30
0.0
  0
VERTEX
  5
1F37
100
AcDbEntity
  8
ALPHA
100
AcDbVertex
100
AcDb2dVertex
 10
2.671142
 20
39.322396
 30
0.0
  0
VERTEX
  5
1F38
100
AcDbEntity
  8
ALPHA
100
AcDbVertex
100
AcDb2dVertex
 10
2.629052
 20
39.111526
 30
0.0
  0
VERTEX
  5
1F39
100
AcDbEntity
  8
ALPHA
100
AcDbVertex
100
AcDb2dVertex
 10
2.615735
 20
38.889751
 30
0.0
  0
VERTEX
  5
1F3A
100
AcDbEntity
  8
ALPHA
100
AcDbVertex
100
AcDb2dVertex
 10
2.615735
 20
12.073128
 30
0.0
  0
SEQEND
  5
1F3B
100
AcDbEntity
  8
ALPHA
  0
POLYLINE
  5
1F3C
100
AcDbEntity
  8
ALPHA
100
AcDb3dPolyline
 66
     1
 10
0.0
 20
0.0
 30
0.0
 70
     8
  0
VERTEX
  5
1F3D
100
AcDbEntity
  8
ALPHA
100
AcDbVertex
100
AcDb3dPolylineVertex
 10
12.719511
 20
39.545008
 30
0.0
 70
    32
  0
VERTEX
  5
1F3E
100
AcDbEntity
  8
ALPHA
100
AcDbVertex
100
AcDb3dPolylineVertex
 10
12.719511
 20
39.539918
 30
0.0
 70
    32
  0
VERTEX
  5
1F3F
100
AcDbEntity
  8
ALPHA
100
AcDbVertex
100
AcDb3dPolylineVertex
 10
12.719511
 20
39.524767
 30
0.0
 70
    32
  0
VERTEX
  5
1F40
100
AcDbEntity
  8
ALPHA
100
AcDbVertex
100
AcDb3dPolylineVertex
 10
12.719511
 20
39.465005
 30
0.0
 70
    32
  0
VERTEX
  5
1F41
100
AcDbEntity
  8
ALPHA
100
AcDbVertex
100
AcDb3dPolylineVertex
 10
12.719511
 20
39.232675
 30
0.0
 70
    32
  0
VERTEX
  5
1F42
100
AcDbEntity
  8
ALPHA
100
AcDbVertex
100
AcDb3dPolylineVertex
 10
12.719511
 20
38.357118
 30
0.0
 70
    32
  0
VERTEX
  5
1F43
100
AcDbEntity
  8
ALPHA
100
AcDbVertex
100
AcDb3dPolylineVertex
 10
12.719511
 20
35.284975
 30
0.0
 70
    32
  0
VERTEX
  5
1F44
100
AcDbEntity
  8
ALPHA
100
AcDbVertex
100
AcDb3dPolylineVertex
 10
12.654013
 20
34.39939
 30
0.0
 70
    32
  0
VERTEX
  5
1F45
100
AcDbEntity
  8
ALPHA
100
AcDbVertex
100
AcDb3dPolylineVertex
 10
12.472029
 20
33.627736
 30
0.0
 70
    32
  0
VERTEX
  5
1F46
100
AcDbEntity
  8
ALPHA
100
AcDbVertex
100
AcDb3dPolylineVertex
 10
12.195324
 20
32.971293
 30
0.0
 70
    32
  0
VERTEX
  5
1F47
100
AcDbEntity
  8
ALPHA
100
AcDbVertex
100
AcDb3dPolylineVertex
 10
12.028253
 20
32.686675
 30
0.0
 70
    32
  0
VERTEX
  5
1F48
100
AcDbEntity
  8
ALPHA
100
AcDbVertex
100
AcDb3dPolylineVertex
 10
11.845662
 20
32.431338
 30
0.0
 70
    32
  0
VERTEX
  5
1F49
100
AcDbEntity
  8
ALPHA
100
AcDbVertex
100
AcDb3dPolylineVertex
 10
11.650274
 20
32.205443
 30
0.0
 70
    32
  0
VERTEX
  5
1F4A
100
AcDbEntity
  8
ALPHA
100
AcDbVertex
100
AcDb3dPolylineVertex
 10
11.444809
 20
32.009149
 30
0.0
 70
    32
  0
VERTEX
  5
1F4B
100
AcDbEntity
  8
ALPHA
100
AcDbVertex
100
AcDb3dPolylineVertex
 10
11.231986
 20
31.842616
 30
0.0
 70
    32
  0
VERTEX
  5
1F4C
100
AcDbEntity
  8
ALPHA
100
AcDbVertex
100
AcDb3dPolylineVertex
 10
11.014528
 20
31.706003
 30
0.0
 70
    32
  0
VERTEX
  5
1F4D
100
AcDbEntity
  8
ALPHA
100
AcDbVertex
100
AcDb3dPolylineVertex
 10
10.795153
 20
31.599471
 30
0.0
 70
    32
  0
VERTEX
  5
1F4E
100
AcDbEntity
  8
ALPHA
100
AcDbVertex
100
AcDb3dPolylineVertex
 10
10.576584
 20
31.523178
 30
0.0
 70
    32
  0
VERTEX
  5
1F4F
100
AcDbEntity
  8
ALPHA
100
AcDbVertex
100
AcDb3dPolylineVertex
 10
10.36154
 20
31.477286
 30
0.0
 70
    32
  0
VERTEX
  5
1F50
100
AcDbEntity
  8
ALPHA
100
AcDbVertex
100
AcDb3dPolylineVertex
 10
10.152742
 20
31.461953
 30
0.0
 70
    32
  0
SEQEND
  5
1F51
100
AcDbEntity
  8
ALPHA
  0
POLYLINE
  5
1F52
100
AcDbEntity
  8
ALPHA
100
AcDb2dPolyline
 66
     1
 10
0.0
 20
0.0
 30
0.0
  0
VERTEX
  5
1F53
100
AcDbEntity
  8
ALPHA
100
AcDbVertex
100
AcDb2dVertex
 10
2.615735
 20
12.073128
 30
0.0
  0
VERTEX
  5
1F54
100
AcDbEntity
  8
ALPHA
100
AcDbVertex
100
AcDb2dVertex
 10
1.559985
 20
12.073128
 30
0.0
  0
SEQEND
  5
1F55
100
AcDbEntity
  8
ALPHA
  0
POLYLINE
  5
1F56
100
AcDbEntity
  8
ALPHA
100
AcDb2dPolyline
 66
     1
 10
0.0
 20
0.0
 30
0.0
  0
VERTEX
  5
1F57
100
AcDbEntity
  8
ALPHA
100
AcDbVertex
100
AcDb2dVertex
 10
6.768453
 20
10.043277
 30
0.0
  0
VERTEX
  5
1F58
100
AcDbEntity
  8
ALPHA
100
AcDbVertex
100
AcDb2dVertex
 10
4.014616
 20
10.043277
 30
0.0
  0
SEQEND
  5
1F59
100
AcDbEntity
  8
ALPHA
  0
POLYLINE
  5
1F5A
100
AcDbEntity
  8
ALPHA
100
AcDb2dPolyline
 66
     1
 10
0.0
 20
0.0
 30
0.0
  0
VERTEX
  5
1F5B
100
AcDbEntity
  8
ALPHA
100
AcDbVertex
100
AcDb2dVertex
 10
7.640407
 20
12.073128
 30
0.0
  0
VERTEX
  5
1F5C
100
AcDbEntity
  8
ALPHA
100
AcDbVertex
100
AcDb2dVertex
 10
2.615735
 20
12.073128
 30
0.0
  0
SEQEND
  5
1F5D
100
AcDbEntity
  8
ALPHA
  0
POLYLINE
  5
1F5E
100
AcDbEntity
  8
ALPHA
100
AcDb2dPolyline
 66
     1
 10
0.0
 20
0.0
 30
0.0
  0
VERTEX
  5
1F5F
100
AcDbEntity
  8
ALPHA
100
AcDbVertex
100
AcDb2dVertex
 10
7.629555
 20
13.657872
 30
0.0
  0
VERTEX
  5
1F60
100
AcDbEntity
  8
ALPHA
100
AcDbVertex
100
AcDb2dVertex
 10
7.388398
 20
12.051424
 30
0.0
  0
SEQEND
  5
1F61
100
AcDbEntity
  8
ALPHA
  0
POLYLINE
  5
1F62
100
AcDbEntity
  8
ALPHA
100
AcDb2dPolyline
 66
     1
 10
0.0
 20
0.0
 30
0.0
  0
VERTEX
  5
1F63
100
AcDbEntity
  8
ALPHA
100
AcDbVertex
100
AcDb2dVertex
 10
6.106822
 20
30.075474
 30
0.0
  0
VERTEX
  5
1F64
100
AcDbEntity
  8
ALPHA
100
AcDbVertex
100
AcDb2dVertex
 10
5.90365
 20
30.088469
 30
0.0
  0
VERTEX
  5
1F65
100
AcDbEntity
  8
ALPHA
100
AcDbVertex
100
AcDb2dVertex
 10
5.706557
 20
30.120867
 30
0.0
  0
VERTEX
  5
1F66
100
AcDbEntity
  8
ALPHA
100
AcDbVertex
100
AcDb2dVertex
 10
5.516481
 20
30.171706
 30
0.0
  0
VERTEX
  5
1F67
100
AcDbEntity
  8
ALPHA
100
AcDbVertex
100
AcDb2dVertex
 10
5.334362
 20
30.240021
 30
0.0
  0
VERTEX
  5
1F68
100
AcDbEntity
  8
ALPHA
100
AcDbVertex
100
AcDb2dVertex
 10
5.161139
 20
30.324847
 30
0.0
  0
VERTEX
  5
1F69
100
AcDbEntity
  8
ALPHA
100
AcDbVertex
100
AcDb2dVertex
 10
4.997751
 20
30.425223
 30
0.0
  0
VERTEX
  5
1F6A
100
AcDbEntity
  8
ALPHA
100
AcDbVertex
100
AcDb2dVertex
 10
4.845138
 20
30.540182
 30
0.0
  0
VERTEX
  5
1F6B
100
AcDbEntity
  8
ALPHA
100
AcDbVertex
100
AcDb2dVertex
 10
4.704238
 20
30.668763
 30
0.0
  0
VERTEX
  5
1F6C
100
AcDbEntity
  8
ALPHA
100
AcDbVertex
100
AcDb2dVertex
 10
4.575991
 20
30.81
 30
0.0
  0
VERTEX
  5
1F6D
100
AcDbEntity
  8
ALPHA
100
AcDbVertex
100
AcDb2dVertex
 10
4.461335
 20
30.962929
 30
0.0
  0
VERTEX
  5
1F6E
100
AcDbEntity
  8
ALPHA
100
AcDbVertex
100
AcDb2dVertex
 10
4.361211
 20
31.126588
 30
0.0
  0
VERTEX
  5
1F6F
100
AcDbEntity
  8
ALPHA
100
AcDbVertex
100
AcDb2dVertex
 10
4.276556
 20
31.300012
 30
0.0
  0
VERTEX
  5
1F70
100
AcDbEntity
  8
ALPHA
100
AcDbVertex
100
AcDb2dVertex
 10
4.208311
 20
31.482237
 30
0.0
  0
VERTEX
  5
1F71
100
AcDbEntity
  8
ALPHA
100
AcDbVertex
100
AcDb2dVertex
 10
4.157414
 20
31.672299
 30
0.0
  0
VERTEX
  5
1F72
100
AcDbEntity
  8
ALPHA
100
AcDbVertex
100
AcDb2dVertex
 10
4.124805
 20
31.869234
 30
0.0
  0
VERTEX
  5
1F73
100
AcDbEntity
  8
ALPHA
100
AcDbVertex
100
AcDb2dVertex
 10
4.111423
 20
32.072079
 30
0.0
  0
SEQEND
  5
1F74
100
AcDbEntity
  8
ALPHA
  0
POLYLINE
  5
1F75
100
AcDbEntity
  8
ALPHA
100
AcDb2dPolyline
 66
     1
 10
0.0
 20
0.0
 30
0.0
  0
VERTEX
  5
1F76
100
AcDbEntity
  8
ALPHA
100
AcDbVertex
100
AcDb2dVertex
 10
6.106822
 20
30.075474
 30
0.0
  0
VERTEX
  5
1F77
100
AcDbEntity
  8
ALPHA
100
AcDbVertex
100
AcDb2dVertex
 10
7.640407
 20
30.075474
 30
0.0
  0
SEQEND
  5
1F78
100
AcDbEntity
  8
ALPHA
  0
POLYLINE
  5
1F79
100
AcDbEntity
  8
ALPHA
100
AcDb2dPolyline
 66
     1
 10
0.0
 20
0.0
 30
0.0
  0
VERTEX
  5
1F7A
100
AcDbEntity
  8
ALPHA
100
AcDbVertex
100
AcDb2dVertex
 10
11.877702
 20
22.779968
 30
0.0
  0
VERTEX
  5
1F7B
100
AcDbEntity
  8
ALPHA
100
AcDbVertex
100
AcDb2dVertex
 10
11.865494
 20
23.026831
 30
0.0
  0
VERTEX
  5
1F7C
100
AcDbEntity
  8
ALPHA
100
AcDbVertex
100
AcDb2dVertex
 10
11.829322
 20
23.269467
 30
0.0
  0
VERTEX
  5
1F7D
100
AcDbEntity
  8
ALPHA
100
AcDbVertex
100
AcDb2dVertex
 10
11.769869
 20
23.50625
 30
0.0
  0
VERTEX
  5
1F7E
100
AcDbEntity
  8
ALPHA
100
AcDbVertex
100
AcDb2dVertex
 10
11.687812
 20
23.735551
 30
0.0
  0
VERTEX
  5
1F7F
100
AcDbEntity
  8
ALPHA
100
AcDbVertex
100
AcDb2dVertex
 10
11.583834
 20
23.955745
 30
0.0
  0
VERTEX
  5
1F80
100
AcDbEntity
  8
ALPHA
100
AcDbVertex
100
AcDb2dVertex
 10
11.458614
 20
24.165203
 30
0.0
  0
VERTEX
  5
1F81
100
AcDbEntity
  8
ALPHA
100
AcDbVertex
100
AcDb2dVertex
 10
11.312832
 20
24.362299
 30
0.0
  0
VERTEX
  5
1F82
100
AcDbEntity
  8
ALPHA
100
AcDbVertex
100
AcDb2dVertex
 10
11.147169
 20
24.545407
 30
0.0
  0
SEQEND
  5
1F83
100
AcDbEntity
  8
ALPHA
  0
POLYLINE
  5
1F84
100
AcDbEntity
  8
ALPHA
100
AcDb2dPolyline
 66
     1
 10
0.0
 20
0.0
 30
0.0
  0
VERTEX
  5
1F85
100
AcDbEntity
  8
ALPHA
100
AcDbVertex
100
AcDb2dVertex
 10
10.152742
 20
31.461953
 30
0.0
  0
VERTEX
  5
1F86
100
AcDbEntity
  8
ALPHA
100
AcDbVertex
100
AcDb2dVertex
 10
10.152742
 20
10.707492
 30
0.0
  0
SEQEND
  5
1F87
100
AcDbEntity
  8
ALPHA
  0
POLYLINE
  5
1F88
100
AcDbEntity
  8
ALPHA
100
AcDb2dPolyline
 66
     1
 10
0.0
 20
0.0
 30
0.0
  0
VERTEX
  5
1F89
100
AcDbEntity
  8
ALPHA
100
AcDbVertex
100
AcDb2dVertex
 10
10.157393
 20
16.590681
 30
0.0
  0
VERTEX
  5
1F8A
100
AcDbEntity
  8
ALPHA
100
AcDbVertex
100
AcDb2dVertex
 10
11.147169
 20
17.635234
 30
0.0
  0
SEQEND
  5
1F8B
100
AcDbEntity
  8
ALPHA
  0
POLYLINE
  5
1F8C
100
AcDbEntity
  8
ALPHA
100
AcDb2dPolyline
 66
     1
 10
0.0
 20
0.0
 30
0.0
  0
VERTEX
  5
1F8D
100
AcDbEntity
  8
ALPHA
100
AcDbVertex
100
AcDb2dVertex
 10
10.157393
 20
11.106778
 30
0.0
  0
VERTEX
  5
1F8E
100
AcDbEntity
  8
ALPHA
100
AcDbVertex
100
AcDb2dVertex
 10
10.295291
 20
11.071281
 30
0.0
  0
VERTEX
  5
1F8F
100
AcDbEntity
  8
ALPHA
100
AcDbVertex
100
AcDb2dVertex
 10
10.429874
 20
11.013613
 30
0.0
  0
VERTEX
  5
1F90
100
AcDbEntity
  8
ALPHA
100
AcDbVertex
100
AcDb2dVertex
 10
10.560088
 20
10.93783
 30
0.0
  0
VERTEX
  5
1F91
100
AcDbEntity
  8
ALPHA
100
AcDbVertex
100
AcDb2dVertex
 10
10.684881
 20
10.847987
 30
0.0
  0
VERTEX
  5
1F92
100
AcDbEntity
  8
ALPHA
100
AcDbVertex
100
AcDb2dVertex
 10
10.913985
 20
10.642345
 30
0.0
  0
VERTEX
  5
1F93
100
AcDbEntity
  8
ALPHA
100
AcDbVertex
100
AcDb2dVertex
 10
11.108756
 20
10.429128
 30
0.0
  0
SEQEND
  5
1F94
100
AcDbEntity
  8
ALPHA
  0
POLYLINE
  5
1F95
100
AcDbEntity
  8
ALPHA
100
AcDb2dPolyline
 66
     1
 10
0.0
 20
0.0
 30
0.0
  0
VERTEX
  5
1F96
100
AcDbEntity
  8
ALPHA
100
AcDbVertex
100
AcDb2dVertex
 10
10.174791
 20
11.087141
 30
0.0
  0
VERTEX
  5
1F97
100
AcDbEntity
  8
ALPHA
100
AcDbVertex
100
AcDb2dVertex
 10
10.200457
 20
11.087141
 30
0.0
  0
SEQEND
  5
1F98
100
AcDbEntity
  8
ALPHA
  0
POLYLINE
  5
1F99
100
AcDbEntity
  8
ALPHA
100
AcDb2dPolyline
 66
     1
 10
0.0
 20
0.0
 30
0.0
  0
VERTEX
  5
1F9A
100
AcDbEntity
  8
ALPHA
100
AcDbVertex
100
AcDb2dVertex
 10
11.877702
 20
22.583597
 30
0.0
  0
VERTEX
  5
1F9B
100
AcDbEntity
  8
ALPHA
100
AcDbVertex
100
AcDb2dVertex
 10
12.19158
 20
22.255926
 30
0.0
  0
VERTEX
  5
1F9C
100
AcDbEntity
  8
ALPHA
100
AcDbVertex
100
AcDb2dVertex
 10
12.322009
 20
22.083652
 30
0.0
  0
VERTEX
  5
1F9D
100
AcDbEntity
  8
ALPHA
100
AcDbVertex
100
AcDb2dVertex
 10
12.432513
 20
21.902933
 30
0.0
  0
VERTEX
  5
1F9E
100
AcDbEntity
  8
ALPHA
100
AcDbVertex
100
AcDb2dVertex
 10
12.521401
 20
21.711652
 30
0.0
  0
VERTEX
  5
1F9F
100
AcDbEntity
  8
ALPHA
100
AcDbVertex
100
AcDb2dVertex
 10
12.586985
 20
21.507694
 30
0.0
  0
VERTEX
  5
1FA0
100
AcDbEntity
  8
ALPHA
100
AcDbVertex
100
AcDb2dVertex
 10
12.627574
 20
21.288944
 30
0.0
  0
VERTEX
  5
1FA1
100
AcDbEntity
  8
ALPHA
100
AcDbVertex
100
AcDb2dVertex
 10
12.641479
 20
21.053286
 30
0.0
  0
VERTEX
  5
1FA2
100
AcDbEntity
  8
ALPHA
100
AcDbVertex
100
AcDb2dVertex
 10
12.627574
 20
20.821683
 30
0.0
  0
VERTEX
  5
1FA3
100
AcDbEntity
  8
ALPHA
100
AcDbVertex
100
AcDb2dVertex
 10
12.586985
 20
20.604837
 30
0.0
  0
VERTEX
  5
1FA4
100
AcDbEntity
  8
ALPHA
100
AcDbVertex
100
AcDb2dVertex
 10
12.521401
 20
20.401127
 30
0.0
  0
VERTEX
  5
1FA5
100
AcDbEntity
  8
ALPHA
100
AcDbVertex
100
AcDb2dVertex
 10
12.432513
 20
20.208936
 30
0.0
  0
VERTEX
  5
1FA6
100
AcDbEntity
  8
ALPHA
100
AcDbVertex
100
AcDb2dVertex
 10
12.322009
 20
20.026644
 30
0.0
  0
VERTEX
  5
1FA7
100
AcDbEntity
  8
ALPHA
100
AcDbVertex
100
AcDb2dVertex
 10
12.19158
 20
19.852632
 30
0.0
  0
VERTEX
  5
1FA8
100
AcDbEntity
  8
ALPHA
100
AcDbVertex
100
AcDb2dVertex
 10
11.877702
 20
19.522974
 30
0.0
  0
SEQEND
  5
1FA9
100
AcDbEntity
  8
ALPHA
  0
POLYLINE
  5
1FAA
100
AcDbEntity
  8
ALPHA
100
AcDb2dPolyline
 66
     1
 10
0.0
 20
0.0
 30
0.0
  0
VERTEX
  5
1FAB
100
AcDbEntity
  8
ALPHA
100
AcDbVertex
100
AcDb2dVertex
 10
11.877702
 20
19.399985
 30
0.0
  0
VERTEX
  5
1FAC
100
AcDbEntity
  8
ALPHA
100
AcDbVertex
100
AcDb2dVertex
 10
11.877702
 20
22.779968
 30
0.0
  0
SEQEND
  5
1FAD
100
AcDbEntity
  8
ALPHA
  0
POLYLINE
  5
1FAE
100
AcDbEntity
  8
ALPHA
100
AcDb2dPolyline
 66
     1
 10
0.0
 20
0.0
 30
0.0
  0
VERTEX
  5
1FAF
100
AcDbEntity
  8
ALPHA
100
AcDbVertex
100
AcDb2dVertex
 10
11.147169
 20
17.635234
 30
0.0
  0
VERTEX
  5
1FB0
100
AcDbEntity
  8
ALPHA
100
AcDbVertex
100
AcDb2dVertex
 10
11.312832
 20
17.818192
 30
0.0
  0
VERTEX
  5
1FB1
100
AcDbEntity
  8
ALPHA
100
AcDbVertex
100
AcDb2dVertex
 10
11.458614
 20
18.01521
 30
0.0
  0
VERTEX
  5
1FB2
100
AcDbEntity
  8
ALPHA
100
AcDbVertex
100
AcDb2dVertex
 10
11.583834
 20
18.224633
 30
0.0
  0
VERTEX
  5
1FB3
100
AcDbEntity
  8
ALPHA
100
AcDbVertex
100
AcDb2dVertex
 10
11.687812
 20
18.44481
 30
0.0
  0
VERTEX
  5
1FB4
100
AcDbEntity
  8
ALPHA
100
AcDbVertex
100
AcDb2dVertex
 10
11.769869
 20
18.674087
 30
0.0
  0
VERTEX
  5
1FB5
100
AcDbEntity
  8
ALPHA
100
AcDbVertex
100
AcDb2dVertex
 10
11.829322
 20
18.910811
 30
0.0
  0
VERTEX
  5
1FB6
100
AcDbEntity
  8
ALPHA
100
AcDbVertex
100
AcDb2dVertex
 10
11.865494
 20
19.153327
 30
0.0
  0
VERTEX
  5
1FB7
100
AcDbEntity
  8
ALPHA
100
AcDbVertex
100
AcDb2dVertex
 10
11.877702
 20
19.399985
 30
0.0
  0
SEQEND
  5
1FB8
100
AcDbEntity
  8
ALPHA
  0
POLYLINE
  5
1FB9
100
AcDbEntity
  8
ALPHA
100
AcDb2dPolyline
 66
     1
 10
0.0
 20
0.0
 30
0.0
  0
VERTEX
  5
1FBA
100
AcDbEntity
  8
ALPHA
100
AcDbVertex
100
AcDb2dVertex
 10
11.147169
 20
24.545407
 30
0.0
  0
VERTEX
  5
1FBB
100
AcDbEntity
  8
ALPHA
100
AcDbVertex
100
AcDb2dVertex
 10
10.157393
 20
25.58996
 30
0.0
  0
SEQEND
  5
1FBC
100
AcDbEntity
  8
ALPHA
  0
POLYLINE
  5
1FBD
100
AcDbEntity
  8
ALPHA
100
AcDb2dPolyline
 66
     1
 10
0.0
 20
0.0
 30
0.0
  0
VERTEX
  5
1FBE
100
AcDbEntity
  8
ALPHA
100
AcDbVertex
100
AcDb2dVertex
 10
11.108756
 20
31.750824
 30
0.0
  0
VERTEX
  5
1FBF
100
AcDbEntity
  8
ALPHA
100
AcDbVertex
100
AcDb2dVertex
 10
10.912338
 20
31.536822
 30
0.0
  0
VERTEX
  5
1FC0
100
AcDbEntity
  8
ALPHA
100
AcDbVertex
100
AcDb2dVertex
 10
10.684493
 20
31.33485
 30
0.0
  0
VERTEX
  5
1FC1
100
AcDbEntity
  8
ALPHA
100
AcDbVertex
100
AcDb2dVertex
 10
10.560572
 20
31.246738
 30
0.0
  0
VERTEX
  5
1FC2
100
AcDbEntity
  8
ALPHA
100
AcDbVertex
100
AcDb2dVertex
 10
10.430939
 20
31.171669
 30
0.0
  0
VERTEX
  5
1FC3
100
AcDbEntity
  8
ALPHA
100
AcDbVertex
100
AcDb2dVertex
 10
10.296308
 20
31.112986
 30
0.0
  0
VERTEX
  5
1FC4
100
AcDbEntity
  8
ALPHA
100
AcDbVertex
100
AcDb2dVertex
 10
10.157393
 20
31.074035
 30
0.0
  0
SEQEND
  5
1FC5
100
AcDbEntity
  8
ALPHA
  0
POLYLINE
  5
1FC6
100
AcDbEntity
  8
ALPHA
100
AcDb2dPolyline
 66
     1
 10
0.0
 20
0.0
 30
0.0
  0
VERTEX
  5
1FC7
100
AcDbEntity
  8
ALPHA
100
AcDbVertex
100
AcDb2dVertex
 10
10.152742
 20
34.79336
 30
0.0
  0
VERTEX
  5
1FC8
100
AcDbEntity
  8
ALPHA
100
AcDbVertex
100
AcDb2dVertex
 10
11.190061
 20
34.79336
 30
0.0
  0
SEQEND
  5
1FC9
100
AcDbEntity
  8
ALPHA
  0
POLYLINE
  5
1FCA
100
AcDbEntity
  8
ALPHA
100
AcDb2dPolyline
 66
     1
 10
0.0
 20
0.0
 30
0.0
  0
VERTEX
  5
1FCB
100
AcDbEntity
  8
ALPHA
100
AcDbVertex
100
AcDb2dVertex
 10
8.186454
 20
41.019681
 30
0.0
  0
VERTEX
  5
1FCC
100
AcDbEntity
  8
ALPHA
100
AcDbVertex
100
AcDb2dVertex
 10
8.183238
 20
41.099116
 30
0.0
  0
VERTEX
  5
1FCD
100
AcDbEntity
  8
ALPHA
100
AcDbVertex
100
AcDb2dVertex
 10
8.173535
 20
41.173413
 30
0.0
  0
VERTEX
  5
1FCE
100
AcDbEntity
  8
ALPHA
100
AcDbVertex
100
AcDb2dVertex
 10
8.157267
 20
41.242574
 30
0.0
  0
VERTEX
  5
1FCF
100
AcDbEntity
  8
ALPHA
100
AcDbVertex
100
AcDb2dVertex
 10
8.134355
 20
41.306601
 30
0.0
  0
VERTEX
  5
1FD0
100
AcDbEntity
  8
ALPHA
100
AcDbVertex
100
AcDb2dVertex
 10
8.10472
 20
41.365496
 30
0.0
  0
VERTEX
  5
1FD1
100
AcDbEntity
  8
ALPHA
100
AcDbVertex
100
AcDb2dVertex
 10
8.068284
 20
41.41926
 30
0.0
  0
VERTEX
  5
1FD2
100
AcDbEntity
  8
ALPHA
100
AcDbVertex
100
AcDb2dVertex
 10
8.024966
 20
41.467896
 30
0.0
  0
VERTEX
  5
1FD3
100
AcDbEntity
  8
ALPHA
100
AcDbVertex
100
AcDb2dVertex
 10
7.974689
 20
41.511404
 30
0.0
  0
VERTEX
  5
1FD4
100
AcDbEntity
  8
ALPHA
100
AcDbVertex
100
AcDb2dVertex
 10
7.917372
 20
41.549787
 30
0.0
  0
VERTEX
  5
1FD5
100
AcDbEntity
  8
ALPHA
100
AcDbVertex
100
AcDb2dVertex
 10
7.852938
 20
41.583047
 30
0.0
  0
VERTEX
  5
1FD6
100
AcDbEntity
  8
ALPHA
100
AcDbVertex
100
AcDb2dVertex
 10
7.781307
 20
41.611185
 30
0.0
  0
VERTEX
  5
1FD7
100
AcDbEntity
  8
ALPHA
100
AcDbVertex
100
AcDb2dVertex
 10
7.702399
 20
41.634203
 30
0.0
  0
VERTEX
  5
1FD8
100
AcDbEntity
  8
ALPHA
100
AcDbVertex
100
AcDb2dVertex
 10
7.522442
 20
41.664886
 30
0.0
  0
VERTEX
  5
1FD9
100
AcDbEntity
  8
ALPHA
100
AcDbVertex
100
AcDb2dVertex
 10
7.312434
 20
41.675111
 30
0.0
  0
VERTEX
  5
1FDA
100
AcDbEntity
  8
ALPHA
100
AcDbVertex
100
AcDb2dVertex
 10
4.144496
 20
41.675111
 30
0.0
  0
SEQEND
  5
1FDB
100
AcDbEntity
  8
ALPHA
  0
POLYLINE
  5
1FDC
100
AcDbEntity
  8
ALPHA
100
AcDb2dPolyline
 66
     1
 10
0.0
 20
0.0
 30
0.0
  0
VERTEX
  5
1FDD
100
AcDbEntity
  8
ALPHA
100
AcDbVertex
100
AcDb2dVertex
 10
4.111423
 20
37.063506
 30
0.0
  0
VERTEX
  5
1FDE
100
AcDbEntity
  8
ALPHA
100
AcDbVertex
100
AcDb2dVertex
 10
4.124802
 20
37.266383
 30
0.0
  0
VERTEX
  5
1FDF
100
AcDbEntity
  8
ALPHA
100
AcDbVertex
100
AcDb2dVertex
 10
4.1574
 20
37.463351
 30
0.0
  0
VERTEX
  5
1FE0
100
AcDbEntity
  8
ALPHA
100
AcDbVertex
100
AcDb2dVertex
 10
4.208282
 20
37.653444
 30
0.0
  0
VERTEX
  5
1FE1
100
AcDbEntity
  8
ALPHA
100
AcDbVertex
100
AcDb2dVertex
 10
4.276508
 20
37.8357
 30
0.0
  0
VERTEX
  5
1FE2
100
AcDbEntity
  8
ALPHA
100
AcDbVertex
100
AcDb2dVertex
 10
4.361141
 20
38.009153
 30
0.0
  0
VERTEX
  5
1FE3
100
AcDbEntity
  8
ALPHA
100
AcDbVertex
100
AcDb2dVertex
 10
4.461244
 20
38.17284
 30
0.0
  0
VERTEX
  5
1FE4
100
AcDbEntity
  8
ALPHA
100
AcDbVertex
100
AcDb2dVertex
 10
4.575879
 20
38.325797
 30
0.0
  0
VERTEX
  5
1FE5
100
AcDbEntity
  8
ALPHA
100
AcDbVertex
100
AcDb2dVertex
 10
4.704109
 20
38.467059
 30
0.0
  0
VERTEX
  5
1FE6
100
AcDbEntity
  8
ALPHA
100
AcDbVertex
100
AcDb2dVertex
 10
4.844995
 20
38.595663
 30
0.0
  0
VERTEX
  5
1FE7
100
AcDbEntity
  8
ALPHA
100
AcDbVertex
100
AcDb2dVertex
 10
4.9976
 20
38.710643
 30
0.0
  0
VERTEX
  5
1FE8
100
AcDbEntity
  8
ALPHA
100
AcDbVertex
100
AcDb2dVertex
 10
5.160986
 20
38.811037
 30
0.0
  0
VERTEX
  5
1FE9
100
AcDbEntity
  8
ALPHA
100
AcDbVertex
100
AcDb2dVertex
 10
5.334217
 20
38.895879
 30
0.0
  0
VERTEX
  5
1FEA
100
AcDbEntity
  8
ALPHA
100
AcDbVertex
100
AcDb2dVertex
 10
5.516353
 20
38.964207
 30
0.0
  0
VERTEX
  5
1FEB
100
AcDbEntity
  8
ALPHA
100
AcDbVertex
100
AcDb2dVertex
 10
5.706458
 20
39.015055
 30
0.0
  0
VERTEX
  5
1FEC
100
AcDbEntity
  8
ALPHA
100
AcDbVertex
100
AcDb2dVertex
 10
5.903594
 20
39.047459
 30
0.0
  0
VERTEX
  5
1FED
100
AcDbEntity
  8
ALPHA
100
AcDbVertex
100
AcDb2dVertex
 10
6.106822
 20
39.060455
 30
0.0
  0
SEQEND
  5
1FEE
100
AcDbEntity
  8
ALPHA
  0
POLYLINE
  5
1FEF
100
AcDbEntity
  8
ALPHA
100
AcDb2dPolyline
 66
     1
 10
0.0
 20
0.0
 30
0.0
  0
VERTEX
  5
1FF0
100
AcDbEntity
  8
ALPHA
100
AcDbVertex
100
AcDb2dVertex
 10
4.144496
 20
41.183496
 30
0.0
  0
VERTEX
  5
1FF1
100
AcDbEntity
  8
ALPHA
100
AcDbVertex
100
AcDb2dVertex
 10
7.312434
 20
41.183496
 30
0.0
  0
SEQEND
  5
1FF2
100
AcDbEntity
  8
ALPHA
  0
POLYLINE
  5
1FF3
100
AcDbEntity
  8
ALPHA
100
AcDb2dPolyline
 66
     1
 10
0.0
 20
0.0
 30
0.0
  0
VERTEX
  5
1FF4
100
AcDbEntity
  8
ALPHA
100
AcDbVertex
100
AcDb2dVertex
 10
7.640407
 20
40.036451
 30
0.0
  0
VERTEX
  5
1FF5
100
AcDbEntity
  8
ALPHA
100
AcDbVertex
100
AcDb2dVertex
 10
3.707658
 20
40.036451
 30
0.0
  0
SEQEND
  5
1FF6
100
AcDbEntity
  8
ALPHA
  0
POLYLINE
  5
1FF7
100
AcDbEntity
  8
ALPHA
100
AcDb2dPolyline
 66
     1
 10
0.0
 20
0.0
 30
0.0
  0
VERTEX
  5
1FF8
100
AcDbEntity
  8
ALPHA
100
AcDbVertex
100
AcDb2dVertex
 10
4.144496
 20
41.675111
 30
0.0
  0
VERTEX
  5
1FF9
100
AcDbEntity
  8
ALPHA
100
AcDbVertex
100
AcDb2dVertex
 10
4.144496
 20
41.183496
 30
0.0
  0
SEQEND
  5
1FFA
100
AcDbEntity
  8
ALPHA
  0
POLYLINE
  5
1FFB
100
AcDbEntity
  8
ALPHA
100
AcDb2dPolyline
 66
     1
 10
0.0
 20
0.0
 30
0.0
  0
VERTEX
  5
1FFC
100
AcDbEntity
  8
ALPHA
100
AcDbVertex
100
AcDb2dVertex
 10
7.640407
 20
36.772223
 30
0.0
  0
VERTEX
  5
1FFD
100
AcDbEntity
  8
ALPHA
100
AcDbVertex
100
AcDb2dVertex
 10
7.640407
 20
40.036451
 30
0.0
  0
SEQEND
  5
1FFE
100
AcDbEntity
  8
ALPHA
  0
POLYLINE
  5
1FFF
100
AcDbEntity
  8
ALPHA
100
AcDb2dPolyline
 66
     1
 10
0.0
 20
0.0
 30
0.0
  0
VERTEX
  5
2000
100
AcDbEntity
  8
ALPHA
100
AcDbVertex
100
AcDb2dVertex
 10
6.106822
 20
39.060455
 30
0.0
  0
VERTEX
  5
2001
100
AcDbEntity
  8
ALPHA
100
AcDbVertex
100
AcDb2dVertex
 10
7.640407
 20
39.060455
 30
0.0
  0
SEQEND
  5
2002
100
AcDbEntity
  8
ALPHA
  0
POLYLINE
  5
2003
100
AcDbEntity
  8
ALPHA
100
AcDb2dPolyline
 66
     1
 10
0.0
 20
0.0
 30
0.0
  0
VERTEX
  5
2004
100
AcDbEntity
  8
ALPHA
100
AcDbVertex
100
AcDb2dVertex
 10
7.312434
 20
41.183496
 30
0.0
  0
VERTEX
  5
2005
100
AcDbEntity
  8
ALPHA
100
AcDbVertex
100
AcDb2dVertex
 10
7.478861
 20
41.179232
 30
0.0
  0
VERTEX
  5
2006
100
AcDbEntity
  8
ALPHA
100
AcDbVertex
100
AcDb2dVertex
 10
7.509483
 20
41.175169
 30
0.0
  0
VERTEX
  5
2007
100
AcDbEntity
  8
ALPHA
100
AcDbVertex
100
AcDb2dVertex
 10
7.536187
 20
41.169107
 30
0.0
  0
VERTEX
  5
2008
100
AcDbEntity
  8
ALPHA
100
AcDbVertex
100
AcDb2dVertex
 10
7.559215
 20
41.160647
 30
0.0
  0
VERTEX
  5
2009
100
AcDbEntity
  8
ALPHA
100
AcDbVertex
100
AcDb2dVertex
 10
7.569424
 20
41.155393
 30
0.0
  0
VERTEX
  5
200A
100
AcDbEntity
  8
ALPHA
100
AcDbVertex
100
AcDb2dVertex
 10
7.578804
 20
41.149389
 30
0.0
  0
VERTEX
  5
200B
100
AcDbEntity
  8
ALPHA
100
AcDbVertex
100
AcDb2dVertex
 10
7.587384
 20
41.142586
 30
0.0
  0
VERTEX
  5
200C
100
AcDbEntity
  8
ALPHA
100
AcDbVertex
100
AcDb2dVertex
 10
7.595194
 20
41.134934
 30
0.0
  0
VERTEX
  5
200D
100
AcDbEntity
  8
ALPHA
100
AcDbVertex
100
AcDb2dVertex
 10
7.602263
 20
41.126382
 30
0.0
  0
VERTEX
  5
200E
100
AcDbEntity
  8
ALPHA
100
AcDbVertex
100
AcDb2dVertex
 10
7.608623
 20
41.116881
 30
0.0
  0
VERTEX
  5
200F
100
AcDbEntity
  8
ALPHA
100
AcDbVertex
100
AcDb2dVertex
 10
7.61933
 20
41.094832
 30
0.0
  0
VERTEX
  5
2010
100
AcDbEntity
  8
ALPHA
100
AcDbVertex
100
AcDb2dVertex
 10
7.627555
 20
41.068386
 30
0.0
  0
VERTEX
  5
2011
100
AcDbEntity
  8
ALPHA
100
AcDbVertex
100
AcDb2dVertex
 10
7.637512
 20
41.000706
 30
0.0
  0
VERTEX
  5
2012
100
AcDbEntity
  8
ALPHA
100
AcDbVertex
100
AcDb2dVertex
 10
7.640407
 20
40.910644
 30
0.0
  0
VERTEX
  5
2013
100
AcDbEntity
  8
ALPHA
100
AcDbVertex
100
AcDb2dVertex
 10
7.640407
 20
40.036451
 30
0.0
  0
SEQEND
  5
2014
100
AcDbEntity
  8
ALPHA
  0
POLYLINE
  5
2015
100
AcDbEntity
  8
ALPHA
100
AcDb2dPolyline
 66
     1
 10
0.0
 20
0.0
 30
0.0
  0
VERTEX
  5
2016
100
AcDbEntity
  8
ALPHA
100
AcDbVertex
100
AcDb2dVertex
 10
11.190061
 20
40.200438
 30
0.0
  0
VERTEX
  5
2017
100
AcDbEntity
  8
ALPHA
100
AcDbVertex
100
AcDb2dVertex
 10
10.152742
 20
40.200438
 30
0.0
  0
SEQEND
  5
2018
100
AcDbEntity
  8
ALPHA
  0
POLYLINE
  5
2019
100
AcDbEntity
  8
ALPHA
100
AcDb2dPolyline
 66
     1
 10
0.0
 20
0.0
 30
0.0
  0
VERTEX
  5
201A
100
AcDbEntity
  8
ALPHA
100
AcDbVertex
100
AcDb2dVertex
 10
10.152742
 20
41.019681
 30
0.0
  0
VERTEX
  5
201B
100
AcDbEntity
  8
ALPHA
100
AcDbVertex
100
AcDb2dVertex
 10
8.186454
 20
41.019681
 30
0.0
  0
SEQEND
  5
201C
100
AcDbEntity
  8
ALPHA
  0
POLYLINE
  5
201D
100
AcDbEntity
  8
ALPHA
100
AcDb2dPolyline
 66
     1
 10
0.0
 20
0.0
 30
0.0
  0
VERTEX
  5
201E
100
AcDbEntity
  8
ALPHA
100
AcDbVertex
100
AcDb2dVertex
 10
10.152742
 20
40.200438
 30
0.0
  0
VERTEX
  5
201F
100
AcDbEntity
  8
ALPHA
100
AcDbVertex
100
AcDb2dVertex
 10
10.152742
 20
41.019681
 30
0.0
  0
SEQEND
  5
2020
100
AcDbEntity
  8
ALPHA
  0
POLYLINE
  5
2021
100
AcDbEntity
  8
AXE
100
AcDb2dPolyline
 66
     1
 10
0.0
 20
0.0
 30
0.0
  0
VERTEX
  5
2022
100
AcDbEntity
  8
AXE
100
AcDbVertex
100
AcDb2dVertex
 10
38.779591
 20
39.048914
 30
0.0
  0
VERTEX
  5
2023
100
AcDbEntity
  8
AXE
100
AcDbVertex
100
AcDb2dVertex
 10
38.779591
 20
2.550884
 30
0.0
  0
SEQEND
  5
2024
100
AcDbEntity
  8
AXE
  0
POLYLINE
  5
2025
100
AcDbEntity
  8
AXE
100
AcDb2dPolyline
 66
     1
 10
0.0
 20
0.0
 30
0.0
  0
VERTEX
  5
2026
100
AcDbEntity
  8
AXE
100
AcDbVertex
100
AcDb2dVertex
 10
22.779362
 20
39.376371
 30
0.0
  0
VERTEX
  5
2027
100
AcDbEntity
  8
AXE
100
AcDbVertex
100
AcDb2dVertex
 10
22.779362
 20
2.550884
 30
0.0
  0
SEQEND
  5
2028
100
AcDbEntity
  8
AXE
  0
POLYLINE
  5
2029
100
AcDbEntity
  8
ALPHA
100
AcDb2dPolyline
 66
     1
 10
0.0
 20
0.0
 30
0.0
  0
VERTEX
  5
202A
100
AcDbEntity
  8
ALPHA
100
AcDbVertex
100
AcDb2dVertex
 10
44.540308
 20
2.29698
 30
0.0
  0
VERTEX
  5
202B
100
AcDbEntity
  8
ALPHA
100
AcDbVertex
100
AcDb2dVertex
 10
44.540308
 20
20.975599
 30
0.0
  0
SEQEND
  5
202C
100
AcDbEntity
  8
ALPHA
  0
POLYLINE
  5
202D
100
AcDbEntity
  8
ALPHA
100
AcDb2dPolyline
 66
     1
 10
0.0
 20
0.0
 30
0.0
  0
VERTEX
  5
202E
100
AcDbEntity
  8
ALPHA
100
AcDbVertex
100
AcDb2dVertex
 10
22.779362
 20
8.448198
 30
0.0
  0
VERTEX
  5
202F
100
AcDbEntity
  8
ALPHA
100
AcDbVertex
100
AcDb2dVertex
 10
38.779591
 20
8.448198
 30
0.0
  0
SEQEND
  5
2030
100
AcDbEntity
  8
ALPHA
  0
POLYLINE
  5
2031
100
AcDbEntity
  8
ALPHA
100
AcDb2dPolyline
 66
     1
 10
0.0
 20
0.0
 30
0.0
  0
VERTEX
  5
2032
100
AcDbEntity
  8
ALPHA
100
AcDbVertex
100
AcDb2dVertex
 10
38.779591
 20
3.447987
 30
0.0
  0
VERTEX
  5
2033
100
AcDbEntity
  8
ALPHA
100
AcDbVertex
100
AcDb2dVertex
 10
22.779362
 20
3.447987
 30
0.0
  0
SEQEND
  5
2034
100
AcDbEntity
  8
ALPHA
  0
POLYLINE
  5
2035
100
AcDbEntity
  8
ALPHA
100
AcDb2dPolyline
 66
     1
 10
0.0
 20
0.0
 30
0.0
  0
VERTEX
  5
2036
100
AcDbEntity
  8
ALPHA
100
AcDbVertex
100
AcDb2dVertex
 10
22.779362
 20
3.447987
 30
0.0
  0
VERTEX
  5
2037
100
AcDbEntity
  8
ALPHA
100
AcDbVertex
100
AcDb2dVertex
 10
22.523767
 20
3.460894
 30
0.0
  0
VERTEX
  5
2038
100
AcDbEntity
  8
ALPHA
100
AcDbVertex
100
AcDb2dVertex
 10
22.275553
 20
3.498779
 30
0.0
  0
VERTEX
  5
2039
100
AcDbEntity
  8
ALPHA
100
AcDbVertex
100
AcDb2dVertex
 10
22.035978
 20
3.560384
 30
0.0
  0
VERTEX
  5
203A
100
AcDbEntity
  8
ALPHA
100
AcDbVertex
100
AcDb2dVertex
 10
21.806297
 20
3.644454
 30
0.0
  0
VERTEX
  5
203B
100
AcDbEntity
  8
ALPHA
100
AcDbVertex
100
AcDb2dVertex
 10
21.587769
 20
3.749731
 30
0.0
  0
VERTEX
  5
203C
100
AcDbEntity
  8
ALPHA
100
AcDbVertex
100
AcDb2dVertex
 10
21.381649
 20
3.874959
 30
0.0
  0
VERTEX
  5
203D
100
AcDbEntity
  8
ALPHA
100
AcDbVertex
100
AcDb2dVertex
 10
21.189194
 20
4.018882
 30
0.0
  0
VERTEX
  5
203E
100
AcDbEntity
  8
ALPHA
100
AcDbVertex
100
AcDb2dVertex
 10
21.011662
 20
4.180242
 30
0.0
  0
VERTEX
  5
203F
100
AcDbEntity
  8
ALPHA
100
AcDbVertex
100
AcDb2dVertex
 10
20.850309
 20
4.357783
 30
0.0
  0
VERTEX
  5
2040
100
AcDbEntity
  8
ALPHA
100
AcDbVertex
100
AcDb2dVertex
 10
20.706392
 20
4.550249
 30
0.0
  0
VERTEX
  5
2041
100
AcDbEntity
  8
ALPHA
100
AcDbVertex
100
AcDb2dVertex
 10
20.581168
 20
4.756383
 30
0.0
  0
VERTEX
  5
2042
100
AcDbEntity
  8
ALPHA
100
AcDbVertex
100
AcDb2dVertex
 10
20.475893
 20
4.974928
 30
0.0
  0
VERTEX
  5
2043
100
AcDbEntity
  8
ALPHA
100
AcDbVertex
100
AcDb2dVertex
 10
20.391825
 20
5.204629
 30
0.0
  0
VERTEX
  5
2044
100
AcDbEntity
  8
ALPHA
100
AcDbVertex
100
AcDb2dVertex
 10
20.33022
 20
5.444227
 30
0.0
  0
VERTEX
  5
2045
100
AcDbEntity
  8
ALPHA
100
AcDbVertex
100
AcDb2dVertex
 10
20.292336
 20
5.692467
 30
0.0
  0
VERTEX
  5
2046
100
AcDbEntity
  8
ALPHA
100
AcDbVertex
100
AcDb2dVertex
 10
20.279428
 20
5.948092
 30
0.0
  0
VERTEX
  5
2047
100
AcDbEntity
  8
ALPHA
100
AcDbVertex
100
AcDb2dVertex
 10
20.292336
 20
6.203661
 30
0.0
  0
VERTEX
  5
2048
100
AcDbEntity
  8
ALPHA
100
AcDbVertex
100
AcDb2dVertex
 10
20.33022
 20
6.451859
 30
0.0
  0
VERTEX
  5
2049
100
AcDbEntity
  8
ALPHA
100
AcDbVertex
100
AcDb2dVertex
 10
20.391825
 20
6.691428
 30
0.0
  0
VERTEX
  5
204A
100
AcDbEntity
  8
ALPHA
100
AcDbVertex
100
AcDb2dVertex
 10
20.475893
 20
6.921111
 30
0.0
  0
VERTEX
  5
204B
100
AcDbEntity
  8
ALPHA
100
AcDbVertex
100
AcDb2dVertex
 10
20.581168
 20
7.139649
 30
0.0
  0
VERTEX
  5
204C
100
AcDbEntity
  8
ALPHA
100
AcDbVertex
100
AcDb2dVertex
 10
20.706392
 20
7.345785
 30
0.0
  0
VERTEX
  5
204D
100
AcDbEntity
  8
ALPHA
100
AcDbVertex
100
AcDb2dVertex
 10
20.850309
 20
7.538259
 30
0.0
  0
VERTEX
  5
204E
100
AcDbEntity
  8
ALPHA
100
AcDbVertex
100
AcDb2dVertex
 10
21.011662
 20
7.715814
 30
0.0
  0
VERTEX
  5
204F
100
AcDbEntity
  8
ALPHA
100
AcDbVertex
100
AcDb2dVertex
 10
21.189194
 20
7.877192
 30
0.0
  0
VERTEX
  5
2050
100
AcDbEntity
  8
ALPHA
100
AcDbVertex
100
AcDb2dVertex
 10
21.381649
 20
8.021135
 30
0.0
  0
VERTEX
  5
2051
100
AcDbEntity
  8
ALPHA
100
AcDbVertex
100
AcDb2dVertex
 10
21.587769
 20
8.146384
 30
0.0
  0
VERTEX
  5
2052
100
AcDbEntity
  8
ALPHA
100
AcDbVertex
100
AcDb2dVertex
 10
21.806297
 20
8.251682
 30
0.0
  0
VERTEX
  5
2053
100
AcDbEntity
  8
ALPHA
100
AcDbVertex
100
AcDb2dVertex
 10
22.035978
 20
8.335771
 30
0.0
  0
VERTEX
  5
2054
100
AcDbEntity
  8
ALPHA
100
AcDbVertex
100
AcDb2dVertex
 10
22.275553
 20
8.397392
 30
0.0
  0
VERTEX
  5
2055
100
AcDbEntity
  8
ALPHA
100
AcDbVertex
100
AcDb2dVertex
 10
22.523767
 20
8.435287
 30
0.0
  0
VERTEX
  5
2056
100
AcDbEntity
  8
ALPHA
100
AcDbVertex
100
AcDb2dVertex
 10
22.779362
 20
8.448198
 30
0.0
  0
SEQEND
  5
2057
100
AcDbEntity
  8
ALPHA
  0
POLYLINE
  5
2058
100
AcDbEntity
  8
ALPHA
100
AcDb2dPolyline
 66
     1
 10
0.0
 20
0.0
 30
0.0
  0
VERTEX
  5
2059
100
AcDbEntity
  8
ALPHA
100
AcDbVertex
100
AcDb2dVertex
 10
38.779591
 20
8.448198
 30
0.0
  0
VERTEX
  5
205A
100
AcDbEntity
  8
ALPHA
100
AcDbVertex
100
AcDb2dVertex
 10
39.035213
 20
8.435287
 30
0.0
  0
VERTEX
  5
205B
100
AcDbEntity
  8
ALPHA
100
AcDbVertex
100
AcDb2dVertex
 10
39.283442
 20
8.397392
 30
0.0
  0
VERTEX
  5
205C
100
AcDbEntity
  8
ALPHA
100
AcDbVertex
100
AcDb2dVertex
 10
39.523023
 20
8.335771
 30
0.0
  0
VERTEX
  5
205D
100
AcDbEntity
  8
ALPHA
100
AcDbVertex
100
AcDb2dVertex
 10
39.752701
 20
8.251682
 30
0.0
  0
VERTEX
  5
205E
100
AcDbEntity
  8
ALPHA
100
AcDbVertex
100
AcDb2dVertex
 10
39.971221
 20
8.146384
 30
0.0
  0
VERTEX
  5
205F
100
AcDbEntity
  8
ALPHA
100
AcDbVertex
100
AcDb2dVertex
 10
40.177326
 20
8.021135
 30
0.0
  0
VERTEX
  5
2060
100
AcDbEntity
  8
ALPHA
100
AcDbVertex
100
AcDb2dVertex
 10
40.36976
 20
7.877192
 30
0.0
  0
VERTEX
  5
2061
100
AcDbEntity
  8
ALPHA
100
AcDbVertex
100
AcDb2dVertex
 10
40.54727
 20
7.715814
 30
0.0
  0
VERTEX
  5
2062
100
AcDbEntity
  8
ALPHA
100
AcDbVertex
100
AcDb2dVertex
 10
40.708598
 20
7.538259
 30
0.0
  0
VERTEX
  5
2063
100
AcDbEntity
  8
ALPHA
100
AcDbVertex
100
AcDb2dVertex
 10
40.852489
 20
7.345785
 30
0.0
  0
VERTEX
  5
2064
100
AcDbEntity
  8
ALPHA
100
AcDbVertex
100
AcDb2dVertex
 10
40.977688
 20
7.139649
 30
0.0
  0
VERTEX
  5
2065
100
AcDbEntity
  8
ALPHA
100
AcDbVertex
100
AcDb2dVertex
 10
41.082939
 20
6.921111
 30
0.0
  0
VERTEX
  5
2066
100
AcDbEntity
  8
ALPHA
100
AcDbVertex
100
AcDb2dVertex
 10
41.166986
 20
6.691428
 30
0.0
  0
VERTEX
  5
2067
100
AcDbEntity
  8
ALPHA
100
AcDbVertex
100
AcDb2dVertex
 10
41.228575
 20
6.451859
 30
0.0
  0
VERTEX
  5
2068
100
AcDbEntity
  8
ALPHA
100
AcDbVertex
100
AcDb2dVertex
 10
41.266449
 20
6.203661
 30
0.0
  0
VERTEX
  5
2069
100
AcDbEntity
  8
ALPHA
100
AcDbVertex
100
AcDb2dVertex
 10
41.279352
 20
5.948092
 30
0.0
  0
VERTEX
  5
206A
100
AcDbEntity
  8
ALPHA
100
AcDbVertex
100
AcDb2dVertex
 10
41.266449
 20
5.692467
 30
0.0
  0
VERTEX
  5
206B
100
AcDbEntity
  8
ALPHA
100
AcDbVertex
100
AcDb2dVertex
 10
41.228575
 20
5.444227
 30
0.0
  0
VERTEX
  5
206C
100
AcDbEntity
  8
ALPHA
100
AcDbVertex
100
AcDb2dVertex
 10
41.166986
 20
5.204629
 30
0.0
  0
VERTEX
  5
206D
100
AcDbEntity
  8
ALPHA
100
AcDbVertex
100
AcDb2dVertex
 10
41.082939
 20
4.974928
 30
0.0
  0
VERTEX
  5
206E
100
AcDbEntity
  8
ALPHA
100
AcDbVertex
100
AcDb2dVertex
 10
40.977688
 20
4.756383
 30
0.0
  0
VERTEX
  5
206F
100
AcDbEntity
  8
ALPHA
100
AcDbVertex
100
AcDb2dVertex
 10
40.852489
 20
4.550249
 30
0.0
  0
VERTEX
  5
2070
100
AcDbEntity
  8
ALPHA
100
AcDbVertex
100
AcDb2dVertex
 10
40.708598
 20
4.357783
 30
0.0
  0
VERTEX
  5
2071
100
AcDbEntity
  8
ALPHA
100
AcDbVertex
100
AcDb2dVertex
 10
40.54727
 20
4.180242
 30
0.0
  0
VERTEX
  5
2072
100
AcDbEntity
  8
ALPHA
100
AcDbVertex
100
AcDb2dVertex
 10
40.36976
 20
4.018882
 30
0.0
  0
VERTEX
  5
2073
100
AcDbEntity
  8
ALPHA
100
AcDbVertex
100
AcDb2dVertex
 10
40.177326
 20
3.874959
 30
0.0
  0
VERTEX
  5
2074
100
AcDbEntity
  8
ALPHA
100
AcDbVertex
100
AcDb2dVertex
 10
39.971221
 20
3.749731
 30
0.0
  0
VERTEX
  5
2075
100
AcDbEntity
  8
ALPHA
100
AcDbVertex
100
AcDb2dVertex
 10
39.752701
 20
3.644454
 30
0.0
  0
VERTEX
  5
2076
100
AcDbEntity
  8
ALPHA
100
AcDbVertex
100
AcDb2dVertex
 10
39.523023
 20
3.560384
 30
0.0
  0
VERTEX
  5
2077
100
AcDbEntity
  8
ALPHA
100
AcDbVertex
100
AcDb2dVertex
 10
39.283442
 20
3.498779
 30
0.0
  0
VERTEX
  5
2078
100
AcDbEntity
  8
ALPHA
100
AcDbVertex
100
AcDb2dVertex
 10
39.035213
 20
3.460894
 30
0.0
  0
VERTEX
  5
2079
100
AcDbEntity
  8
ALPHA
100
AcDbVertex
100
AcDb2dVertex
 10
38.779591
 20
3.447987
 30
0.0
  0
SEQEND
  5
207A
100
AcDbEntity
  8
ALPHA
  0
POLYLINE
  5
207B
100
AcDbEntity
  8
ALPHA
100
AcDb2dPolyline
 66
     1
 10
0.0
 20
0.0
 30
0.0
  0
VERTEX
  5
207C
100
AcDbEntity
  8
ALPHA
100
AcDbVertex
100
AcDb2dVertex
 10
44.540308
 20
39.545008
 30
0.0
  0
VERTEX
  5
207D
100
AcDbEntity
  8
ALPHA
100
AcDbVertex
100
AcDb2dVertex
 10
44.518337
 20
40.087444
 30
0.0
  0
VERTEX
  5
207E
100
AcDbEntity
  8
ALPHA
100
AcDbVertex
100
AcDb2dVertex
 10
44.446448
 20
40.565833
 30
0.0
  0
VERTEX
  5
207F
100
AcDbEntity
  8
ALPHA
100
AcDbVertex
100
AcDb2dVertex
 10
44.388982
 20
40.780213
 30
0.0
  0
VERTEX
  5
2080
100
AcDbEntity
  8
ALPHA
100
AcDbVertex
100
AcDb2dVertex
 10
44.315676
 20
40.977624
 30
0.0
  0
VERTEX
  5
2081
100
AcDbEntity
  8
ALPHA
100
AcDbVertex
100
AcDb2dVertex
 10
44.225407
 20
41.157748
 30
0.0
  0
VERTEX
  5
2082
100
AcDbEntity
  8
ALPHA
100
AcDbVertex
100
AcDb2dVertex
 10
44.117056
 20
41.320266
 30
0.0
  0
VERTEX
  5
2083
100
AcDbEntity
  8
ALPHA
100
AcDbVertex
100
AcDb2dVertex
 10
43.989502
 20
41.464858
 30
0.0
  0
VERTEX
  5
2084
100
AcDbEntity
  8
ALPHA
100
AcDbVertex
100
AcDb2dVertex
 10
43.841624
 20
41.591206
 30
0.0
  0
VERTEX
  5
2085
100
AcDbEntity
  8
ALPHA
100
AcDbVertex
100
AcDb2dVertex
 10
43.672303
 20
41.698992
 30
0.0
  0
VERTEX
  5
2086
100
AcDbEntity
  8
ALPHA
100
AcDbVertex
100
AcDb2dVertex
 10
43.480416
 20
41.787895
 30
0.0
  0
VERTEX
  5
2087
100
AcDbEntity
  8
ALPHA
100
AcDbVertex
100
AcDb2dVertex
 10
43.264844
 20
41.857596
 30
0.0
  0
VERTEX
  5
2088
100
AcDbEntity
  8
ALPHA
100
AcDbVertex
100
AcDb2dVertex
 10
43.024466
 20
41.907778
 30
0.0
  0
VERTEX
  5
2089
100
AcDbEntity
  8
ALPHA
100
AcDbVertex
100
AcDb2dVertex
 10
42.46481
 20
41.948307
 30
0.0
  0
SEQEND
  5
208A
100
AcDbEntity
  8
ALPHA
  0
POLYLINE
  5
208B
100
AcDbEntity
  8
ALPHA
100
AcDb2dPolyline
 66
     1
 10
0.0
 20
0.0
 30
0.0
  0
VERTEX
  5
208C
100
AcDbEntity
  8
ALPHA
100
AcDbVertex
100
AcDb2dVertex
 10
22.779362
 20
33.44805
 30
0.0
  0
VERTEX
  5
208D
100
AcDbEntity
  8
ALPHA
100
AcDbVertex
100
AcDb2dVertex
 10
22.523767
 20
33.460958
 30
0.0
  0
VERTEX
  5
208E
100
AcDbEntity
  8
ALPHA
100
AcDbVertex
100
AcDb2dVertex
 10
22.275553
 20
33.498843
 30
0.0
  0
VERTEX
  5
208F
100
AcDbEntity
  8
ALPHA
100
AcDbVertex
100
AcDb2dVertex
 10
22.035978
 20
33.560448
 30
0.0
  0
VERTEX
  5
2090
100
AcDbEntity
  8
ALPHA
100
AcDbVertex
100
AcDb2dVertex
 10
21.806297
 20
33.644518
 30
0.0
  0
VERTEX
  5
2091
100
AcDbEntity
  8
ALPHA
100
AcDbVertex
100
AcDb2dVertex
 10
21.587769
 20
33.749795
 30
0.0
  0
VERTEX
  5
2092
100
AcDbEntity
  8
ALPHA
100
AcDbVertex
100
AcDb2dVertex
 10
21.381649
 20
33.875023
 30
0.0
  0
VERTEX
  5
2093
100
AcDbEntity
  8
ALPHA
100
AcDbVertex
100
AcDb2dVertex
 10
21.189194
 20
34.018945
 30
0.0
  0
VERTEX
  5
2094
100
AcDbEntity
  8
ALPHA
100
AcDbVertex
100
AcDb2dVertex
 10
21.011662
 20
34.180305
 30
0.0
  0
VERTEX
  5
2095
100
AcDbEntity
  8
ALPHA
100
AcDbVertex
100
AcDb2dVertex
 10
20.850309
 20
34.357847
 30
0.0
  0
VERTEX
  5
2096
100
AcDbEntity
  8
ALPHA
100
AcDbVertex
100
AcDb2dVertex
 10
20.706392
 20
34.550313
 30
0.0
  0
VERTEX
  5
2097
100
AcDbEntity
  8
ALPHA
100
AcDbVertex
100
AcDb2dVertex
 10
20.581168
 20
34.756447
 30
0.0
  0
VERTEX
  5
2098
100
AcDbEntity
  8
ALPHA
100
AcDbVertex
100
AcDb2dVertex
 10
20.475893
 20
34.974992
 30
0.0
  0
VERTEX
  5
2099
100
AcDbEntity
  8
ALPHA
100
AcDbVertex
100
AcDb2dVertex
 10
20.391825
 20
35.204692
 30
0.0
  0
VERTEX
  5
209A
100
AcDbEntity
  8
ALPHA
100
AcDbVertex
100
AcDb2dVertex
 10
20.33022
 20
35.444291
 30
0.0
  0
VERTEX
  5
209B
100
AcDbEntity
  8
ALPHA
100
AcDbVertex
100
AcDb2dVertex
 10
20.292336
 20
35.692531
 30
0.0
  0
VERTEX
  5
209C
100
AcDbEntity
  8
ALPHA
100
AcDbVertex
100
AcDb2dVertex
 10
20.279428
 20
35.948156
 30
0.0
  0
VERTEX
  5
209D
100
AcDbEntity
  8
ALPHA
100
AcDbVertex
100
AcDb2dVertex
 10
20.292336
 20
36.203725
 30
0.0
  0
VERTEX
  5
209E
100
AcDbEntity
  8
ALPHA
100
AcDbVertex
100
AcDb2dVertex
 10
20.33022
 20
36.451923
 30
0.0
  0
VERTEX
  5
209F
100
AcDbEntity
  8
ALPHA
100
AcDbVertex
100
AcDb2dVertex
 10
20.391825
 20
36.691492
 30
0.0
  0
VERTEX
  5
20A0
100
AcDbEntity
  8
ALPHA
100
AcDbVertex
100
AcDb2dVertex
 10
20.475893
 20
36.921175
 30
0.0
  0
VERTEX
  5
20A1
100
AcDbEntity
  8
ALPHA
100
AcDbVertex
100
AcDb2dVertex
 10
20.581168
 20
37.139713
 30
0.0
  0
VERTEX
  5
20A2
100
AcDbEntity
  8
ALPHA
100
AcDbVertex
100
AcDb2dVertex
 10
20.706392
 20
37.345848
 30
0.0
  0
VERTEX
  5
20A3
100
AcDbEntity
  8
ALPHA
100
AcDbVertex
100
AcDb2dVertex
 10
20.850309
 20
37.538323
 30
0.0
  0
VERTEX
  5
20A4
100
AcDbEntity
  8
ALPHA
100
AcDbVertex
100
AcDb2dVertex
 10
21.011662
 20
37.715878
 30
0.0
  0
VERTEX
  5
20A5
100
AcDbEntity
  8
ALPHA
100
AcDbVertex
100
AcDb2dVertex
 10
21.189194
 20
37.877256
 30
0.0
  0
VERTEX
  5
20A6
100
AcDbEntity
  8
ALPHA
100
AcDbVertex
100
AcDb2dVertex
 10
21.381649
 20
38.021199
 30
0.0
  0
VERTEX
  5
20A7
100
AcDbEntity
  8
ALPHA
100
AcDbVertex
100
AcDb2dVertex
 10
21.587769
 20
38.146448
 30
0.0
  0
VERTEX
  5
20A8
100
AcDbEntity
  8
ALPHA
100
AcDbVertex
100
AcDb2dVertex
 10
21.806297
 20
38.251746
 30
0.0
  0
VERTEX
  5
20A9
100
AcDbEntity
  8
ALPHA
100
AcDbVertex
100
AcDb2dVertex
 10
22.035978
 20
38.335835
 30
0.0
  0
VERTEX
  5
20AA
100
AcDbEntity
  8
ALPHA
100
AcDbVertex
100
AcDb2dVertex
 10
22.275553
 20
38.397456
 30
0.0
  0
VERTEX
  5
20AB
100
AcDbEntity
  8
ALPHA
100
AcDbVertex
100
AcDb2dVertex
 10
22.523767
 20
38.435351
 30
0.0
  0
VERTEX
  5
20AC
100
AcDbEntity
  8
ALPHA
100
AcDbVertex
100
AcDb2dVertex
 10
22.779362
 20
38.448262
 30
0.0
  0
SEQEND
  5
20AD
100
AcDbEntity
  8
ALPHA
  0
POLYLINE
  5
20AE
100
AcDbEntity
  8
ALPHA
100
AcDb2dPolyline
 66
     1
 10
0.0
 20
0.0
 30
0.0
  0
VERTEX
  5
20AF
100
AcDbEntity
  8
ALPHA
100
AcDbVertex
100
AcDb2dVertex
 10
38.779591
 20
38.448262
 30
0.0
  0
VERTEX
  5
20B0
100
AcDbEntity
  8
ALPHA
100
AcDbVertex
100
AcDb2dVertex
 10
39.035213
 20
38.435351
 30
0.0
  0
VERTEX
  5
20B1
100
AcDbEntity
  8
ALPHA
100
AcDbVertex
100
AcDb2dVertex
 10
39.283442
 20
38.397456
 30
0.0
  0
VERTEX
  5
20B2
100
AcDbEntity
  8
ALPHA
100
AcDbVertex
100
AcDb2dVertex
 10
39.523023
 20
38.335835
 30
0.0
  0
VERTEX
  5
20B3
100
AcDbEntity
  8
ALPHA
100
AcDbVertex
100
AcDb2dVertex
 10
39.752701
 20
38.251746
 30
0.0
  0
VERTEX
  5
20B4
100
AcDbEntity
  8
ALPHA
100
AcDbVertex
100
AcDb2dVertex
 10
39.971221
 20
38.146448
 30
0.0
  0
VERTEX
  5
20B5
100
AcDbEntity
  8
ALPHA
100
AcDbVertex
100
AcDb2dVertex
 10
40.177326
 20
38.021199
 30
0.0
  0
VERTEX
  5
20B6
100
AcDbEntity
  8
ALPHA
100
AcDbVertex
100
AcDb2dVertex
 10
40.36976
 20
37.877256
 30
0.0
  0
VERTEX
  5
20B7
100
AcDbEntity
  8
ALPHA
100
AcDbVertex
100
AcDb2dVertex
 10
40.54727
 20
37.715878
 30
0.0
  0
VERTEX
  5
20B8
100
AcDbEntity
  8
ALPHA
100
AcDbVertex
100
AcDb2dVertex
 10
40.708598
 20
37.538323
 30
0.0
  0
VERTEX
  5
20B9
100
AcDbEntity
  8
ALPHA
100
AcDbVertex
100
AcDb2dVertex
 10
40.852489
 20
37.345848
 30
0.0
  0
VERTEX
  5
20BA
100
AcDbEntity
  8
ALPHA
100
AcDbVertex
100
AcDb2dVertex
 10
40.977688
 20
37.139713
 30
0.0
  0
VERTEX
  5
20BB
100
AcDbEntity
  8
ALPHA
100
AcDbVertex
100
AcDb2dVertex
 10
41.082939
 20
36.921175
 30
0.0
  0
VERTEX
  5
20BC
100
AcDbEntity
  8
ALPHA
100
AcDbVertex
100
AcDb2dVertex
 10
41.166986
 20
36.691492
 30
0.0
  0
VERTEX
  5
20BD
100
AcDbEntity
  8
ALPHA
100
AcDbVertex
100
AcDb2dVertex
 10
41.228575
 20
36.451923
 30
0.0
  0
VERTEX
  5
20BE
100
AcDbEntity
  8
ALPHA
100
AcDbVertex
100
AcDb2dVertex
 10
41.266449
 20
36.203725
 30
0.0
  0
VERTEX
  5
20BF
100
AcDbEntity
  8
ALPHA
100
AcDbVertex
100
AcDb2dVertex
 10
41.279352
 20
35.948156
 30
0.0
  0
VERTEX
  5
20C0
100
AcDbEntity
  8
ALPHA
100
AcDbVertex
100
AcDb2dVertex
 10
41.266449
 20
35.692531
 30
0.0
  0
VERTEX
  5
20C1
100
AcDbEntity
  8
ALPHA
100
AcDbVertex
100
AcDb2dVertex
 10
41.228575
 20
35.444291
 30
0.0
  0
VERTEX
  5
20C2
100
AcDbEntity
  8
ALPHA
100
AcDbVertex
100
AcDb2dVertex
 10
41.166986
 20
35.204692
 30
0.0
  0
VERTEX
  5
20C3
100
AcDbEntity
  8
ALPHA
100
AcDbVertex
100
AcDb2dVertex
 10
41.082939
 20
34.974992
 30
0.0
  0
VERTEX
  5
20C4
100
AcDbEntity
  8
ALPHA
100
AcDbVertex
100
AcDb2dVertex
 10
40.977688
 20
34.756447
 30
0.0
  0
VERTEX
  5
20C5
100
AcDbEntity
  8
ALPHA
100
AcDbVertex
100
AcDb2dVertex
 10
40.852489
 20
34.550313
 30
0.0
  0
VERTEX
  5
20C6
100
AcDbEntity
  8
ALPHA
100
AcDbVertex
100
AcDb2dVertex
 10
40.708598
 20
34.357847
 30
0.0
  0
VERTEX
  5
20C7
100
AcDbEntity
  8
ALPHA
100
AcDbVertex
100
AcDb2dVertex
 10
40.54727
 20
34.180305
 30
0.0
  0
VERTEX
  5
20C8
100
AcDbEntity
  8
ALPHA
100
AcDbVertex
100
AcDb2dVertex
 10
40.36976
 20
34.018945
 30
0.0
  0
VERTEX
  5
20C9
100
AcDbEntity
  8
ALPHA
100
AcDbVertex
100
AcDb2dVertex
 10
40.177326
 20
33.875023
 30
0.0
  0
VERTEX
  5
20CA
100
AcDbEntity
  8
ALPHA
100
AcDbVertex
100
AcDb2dVertex
 10
39.971221
 20
33.749795
 30
0.0
  0
VERTEX
  5
20CB
100
AcDbEntity
  8
ALPHA
100
AcDbVertex
100
AcDb2dVertex
 10
39.752701
 20
33.644518
 30
0.0
  0
VERTEX
  5
20CC
100
AcDbEntity
  8
ALPHA
100
AcDbVertex
100
AcDb2dVertex
 10
39.523023
 20
33.560448
 30
0.0
  0
VERTEX
  5
20CD
100
AcDbEntity
  8
ALPHA
100
AcDbVertex
100
AcDb2dVertex
 10
39.283442
 20
33.498843
 30
0.0
  0
VERTEX
  5
20CE
100
AcDbEntity
  8
ALPHA
100
AcDbVertex
100
AcDb2dVertex
 10
39.035213
 20
33.460958
 30
0.0
  0
VERTEX
  5
20CF
100
AcDbEntity
  8
ALPHA
100
AcDbVertex
100
AcDb2dVertex
 10
38.779591
 20
33.44805
 30
0.0
  0
SEQEND
  5
20D0
100
AcDbEntity
  8
ALPHA
  0
POLYLINE
  5
20D1
100
AcDbEntity
  8
ALPHA
100
AcDb2dPolyline
 66
     1
 10
0.0
 20
0.0
 30
0.0
  0
VERTEX
  5
20D2
100
AcDbEntity
  8
ALPHA
100
AcDbVertex
100
AcDb2dVertex
 10
38.779591
 20
33.44805
 30
0.0
  0
VERTEX
  5
20D3
100
AcDbEntity
  8
ALPHA
100
AcDbVertex
100
AcDb2dVertex
 10
22.779362
 20
33.44805
 30
0.0
  0
SEQEND
  5
20D4
100
AcDbEntity
  8
ALPHA
  0
POLYLINE
  5
20D5
100
AcDbEntity
  8
ALPHA
100
AcDb2dPolyline
 66
     1
 10
0.0
 20
0.0
 30
0.0
  0
VERTEX
  5
20D6
100
AcDbEntity
  8
ALPHA
100
AcDbVertex
100
AcDb2dVertex
 10
20.279256
 20
15.948171
 30
0.0
  0
VERTEX
  5
20D7
100
AcDbEntity
  8
ALPHA
100
AcDbVertex
100
AcDb2dVertex
 10
20.279256
 20
25.94825
 30
0.0
  0
SEQEND
  5
20D8
100
AcDbEntity
  8
ALPHA
  0
POLYLINE
  5
20D9
100
AcDbEntity
  8
ALPHA
100
AcDb2dPolyline
 66
     1
 10
0.0
 20
0.0
 30
0.0
  0
VERTEX
  5
20DA
100
AcDbEntity
  8
ALPHA
100
AcDbVertex
100
AcDb2dVertex
 10
25.279468
 20
25.94825
 30
0.0
  0
VERTEX
  5
20DB
100
AcDbEntity
  8
ALPHA
100
AcDbVertex
100
AcDb2dVertex
 10
25.279468
 20
15.948171
 30
0.0
  0
SEQEND
  5
20DC
100
AcDbEntity
  8
ALPHA
  0
POLYLINE
  5
20DD
100
AcDbEntity
  8
ALPHA
100
AcDb2dPolyline
 66
     1
 10
0.0
 20
0.0
 30
0.0
  0
VERTEX
  5
20DE
100
AcDbEntity
  8
ALPHA
100
AcDbVertex
100
AcDb2dVertex
 10
25.279468
 20
15.948171
 30
0.0
  0
VERTEX
  5
20DF
100
AcDbEntity
  8
ALPHA
100
AcDbVertex
100
AcDb2dVertex
 10
25.26656
 20
15.692607
 30
0.0
  0
VERTEX
  5
20E0
100
AcDbEntity
  8
ALPHA
100
AcDbVertex
100
AcDb2dVertex
 10
25.228675
 20
15.444419
 30
0.0
  0
VERTEX
  5
20E1
100
AcDbEntity
  8
ALPHA
100
AcDbVertex
100
AcDb2dVertex
 10
25.16707
 20
15.204867
 30
0.0
  0
VERTEX
  5
20E2
100
AcDbEntity
  8
ALPHA
100
AcDbVertex
100
AcDb2dVertex
 10
25.083
 20
14.975206
 30
0.0
  0
VERTEX
  5
20E3
100
AcDbEntity
  8
ALPHA
100
AcDbVertex
100
AcDb2dVertex
 10
24.977723
 20
14.756694
 30
0.0
  0
VERTEX
  5
20E4
100
AcDbEntity
  8
ALPHA
100
AcDbVertex
100
AcDb2dVertex
 10
24.852495
 20
14.550588
 30
0.0
  0
VERTEX
  5
20E5
100
AcDbEntity
  8
ALPHA
100
AcDbVertex
100
AcDb2dVertex
 10
24.708573
 20
14.358145
 30
0.0
  0
VERTEX
  5
20E6
100
AcDbEntity
  8
ALPHA
100
AcDbVertex
100
AcDb2dVertex
 10
24.547213
 20
14.180622
 30
0.0
  0
VERTEX
  5
20E7
100
AcDbEntity
  8
ALPHA
100
AcDbVertex
100
AcDb2dVertex
 10
24.369671
 20
14.019276
 30
0.0
  0
VERTEX
  5
20E8
100
AcDbEntity
  8
ALPHA
100
AcDbVertex
100
AcDb2dVertex
 10
24.177205
 20
13.875364
 30
0.0
  0
VERTEX
  5
20E9
100
AcDbEntity
  8
ALPHA
100
AcDbVertex
100
AcDb2dVertex
 10
23.971071
 20
13.750144
 30
0.0
  0
VERTEX
  5
20EA
100
AcDbEntity
  8
ALPHA
100
AcDbVertex
100
AcDb2dVertex
 10
23.752526
 20
13.644872
 30
0.0
  0
VERTEX
  5
20EB
100
AcDbEntity
  8
ALPHA
100
AcDbVertex
100
AcDb2dVertex
 10
23.522826
 20
13.560805
 30
0.0
  0
VERTEX
  5
20EC
100
AcDbEntity
  8
ALPHA
100
AcDbVertex
100
AcDb2dVertex
 10
23.283227
 20
13.499201
 30
0.0
  0
VERTEX
  5
20ED
100
AcDbEntity
  8
ALPHA
100
AcDbVertex
100
AcDb2dVertex
 10
23.034987
 20
13.461317
 30
0.0
  0
VERTEX
  5
20EE
100
AcDbEntity
  8
ALPHA
100
AcDbVertex
100
AcDb2dVertex
 10
22.779362
 20
13.44841
 30
0.0
  0
VERTEX
  5
20EF
100
AcDbEntity
  8
ALPHA
100
AcDbVertex
100
AcDb2dVertex
 10
22.523793
 20
13.461317
 30
0.0
  0
VERTEX
  5
20F0
100
AcDbEntity
  8
ALPHA
100
AcDbVertex
100
AcDb2dVertex
 10
22.275595
 20
13.499201
 30
0.0
  0
VERTEX
  5
20F1
100
AcDbEntity
  8
ALPHA
100
AcDbVertex
100
AcDb2dVertex
 10
22.036026
 20
13.560805
 30
0.0
  0
VERTEX
  5
20F2
100
AcDbEntity
  8
ALPHA
100
AcDbVertex
100
AcDb2dVertex
 10
21.806343
 20
13.644872
 30
0.0
  0
VERTEX
  5
20F3
100
AcDbEntity
  8
ALPHA
100
AcDbVertex
100
AcDb2dVertex
 10
21.587805
 20
13.750144
 30
0.0
  0
VERTEX
  5
20F4
100
AcDbEntity
  8
ALPHA
100
AcDbVertex
100
AcDb2dVertex
 10
21.38167
 20
13.875364
 30
0.0
  0
VERTEX
  5
20F5
100
AcDbEntity
  8
ALPHA
100
AcDbVertex
100
AcDb2dVertex
 10
21.189196
 20
14.019276
 30
0.0
  0
VERTEX
  5
20F6
100
AcDbEntity
  8
ALPHA
100
AcDbVertex
100
AcDb2dVertex
 10
21.01164
 20
14.180622
 30
0.0
  0
VERTEX
  5
20F7
100
AcDbEntity
  8
ALPHA
100
AcDbVertex
100
AcDb2dVertex
 10
20.850262
 20
14.358145
 30
0.0
  0
VERTEX
  5
20F8
100
AcDbEntity
  8
ALPHA
100
AcDbVertex
100
AcDb2dVertex
 10
20.706319
 20
14.550588
 30
0.0
  0
VERTEX
  5
20F9
100
AcDbEntity
  8
ALPHA
100
AcDbVertex
100
AcDb2dVertex
 10
20.58107
 20
14.756694
 30
0.0
  0
VERTEX
  5
20FA
100
AcDbEntity
  8
ALPHA
100
AcDbVertex
100
AcDb2dVertex
 10
20.475772
 20
14.975206
 30
0.0
  0
VERTEX
  5
20FB
100
AcDbEntity
  8
ALPHA
100
AcDbVertex
100
AcDb2dVertex
 10
20.391683
 20
15.204867
 30
0.0
  0
VERTEX
  5
20FC
100
AcDbEntity
  8
ALPHA
100
AcDbVertex
100
AcDb2dVertex
 10
20.330063
 20
15.444419
 30
0.0
  0
VERTEX
  5
20FD
100
AcDbEntity
  8
ALPHA
100
AcDbVertex
100
AcDb2dVertex
 10
20.292167
 20
15.692607
 30
0.0
  0
VERTEX
  5
20FE
100
AcDbEntity
  8
ALPHA
100
AcDbVertex
100
AcDb2dVertex
 10
20.279256
 20
15.948171
 30
0.0
  0
SEQEND
  5
20FF
100
AcDbEntity
  8
ALPHA
  0
POLYLINE
  5
2100
100
AcDbEntity
  8
ALPHA
100
AcDb2dPolyline
 66
     1
 10
0.0
 20
0.0
 30
0.0
  0
VERTEX
  5
2101
100
AcDbEntity
  8
ALPHA
100
AcDbVertex
100
AcDb2dVertex
 10
20.279256
 20
25.94825
 30
0.0
  0
VERTEX
  5
2102
100
AcDbEntity
  8
ALPHA
100
AcDbVertex
100
AcDb2dVertex
 10
20.292167
 20
26.203871
 30
0.0
  0
VERTEX
  5
2103
100
AcDbEntity
  8
ALPHA
100
AcDbVertex
100
AcDb2dVertex
 10
20.330063
 20
26.4521
 30
0.0
  0
VERTEX
  5
2104
100
AcDbEntity
  8
ALPHA
100
AcDbVertex
100
AcDb2dVertex
 10
20.391683
 20
26.691682
 30
0.0
  0
VERTEX
  5
2105
100
AcDbEntity
  8
ALPHA
100
AcDbVertex
100
AcDb2dVertex
 10
20.475772
 20
26.92136
 30
0.0
  0
VERTEX
  5
2106
100
AcDbEntity
  8
ALPHA
100
AcDbVertex
100
AcDb2dVertex
 10
20.58107
 20
27.139879
 30
0.0
  0
VERTEX
  5
2107
100
AcDbEntity
  8
ALPHA
100
AcDbVertex
100
AcDb2dVertex
 10
20.706319
 20
27.345984
 30
0.0
  0
VERTEX
  5
2108
100
AcDbEntity
  8
ALPHA
100
AcDbVertex
100
AcDb2dVertex
 10
20.850262
 20
27.538419
 30
0.0
  0
VERTEX
  5
2109
100
AcDbEntity
  8
ALPHA
100
AcDbVertex
100
AcDb2dVertex
 10
21.01164
 20
27.715928
 30
0.0
  0
VERTEX
  5
210A
100
AcDbEntity
  8
ALPHA
100
AcDbVertex
100
AcDb2dVertex
 10
21.189196
 20
27.877256
 30
0.0
  0
VERTEX
  5
210B
100
AcDbEntity
  8
ALPHA
100
AcDbVertex
100
AcDb2dVertex
 10
21.38167
 20
28.021148
 30
0.0
  0
VERTEX
  5
210C
100
AcDbEntity
  8
ALPHA
100
AcDbVertex
100
AcDb2dVertex
 10
21.587805
 20
28.146347
 30
0.0
  0
VERTEX
  5
210D
100
AcDbEntity
  8
ALPHA
100
AcDbVertex
100
AcDb2dVertex
 10
21.806343
 20
28.251598
 30
0.0
  0
VERTEX
  5
210E
100
AcDbEntity
  8
ALPHA
100
AcDbVertex
100
AcDb2dVertex
 10
22.036026
 20
28.335645
 30
0.0
  0
VERTEX
  5
210F
100
AcDbEntity
  8
ALPHA
100
AcDbVertex
100
AcDb2dVertex
 10
22.275595
 20
28.397234
 30
0.0
  0
VERTEX
  5
2110
100
AcDbEntity
  8
ALPHA
100
AcDbVertex
100
AcDb2dVertex
 10
22.523793
 20
28.435107
 30
0.0
  0
VERTEX
  5
2111
100
AcDbEntity
  8
ALPHA
100
AcDbVertex
100
AcDb2dVertex
 10
22.779362
 20
28.448011
 30
0.0
  0
VERTEX
  5
2112
100
AcDbEntity
  8
ALPHA
100
AcDbVertex
100
AcDb2dVertex
 10
23.034987
 20
28.435107
 30
0.0
  0
VERTEX
  5
2113
100
AcDbEntity
  8
ALPHA
100
AcDbVertex
100
AcDb2dVertex
 10
23.283227
 20
28.397234
 30
0.0
  0
VERTEX
  5
2114
100
AcDbEntity
  8
ALPHA
100
AcDbVertex
100
AcDb2dVertex
 10
23.522826
 20
28.335645
 30
0.0
  0
VERTEX
  5
2115
100
AcDbEntity
  8
ALPHA
100
AcDbVertex
100
AcDb2dVertex
 10
23.752526
 20
28.251598
 30
0.0
  0
VERTEX
  5
2116
100
AcDbEntity
  8
ALPHA
100
AcDbVertex
100
AcDb2dVertex
 10
23.971071
 20
28.146347
 30
0.0
  0
VERTEX
  5
2117
100
AcDbEntity
  8
ALPHA
100
AcDbVertex
100
AcDb2dVertex
 10
24.177205
 20
28.021148
 30
0.0
  0
VERTEX
  5
2118
100
AcDbEntity
  8
ALPHA
100
AcDbVertex
100
AcDb2dVertex
 10
24.369671
 20
27.877256
 30
0.0
  0
VERTEX
  5
2119
100
AcDbEntity
  8
ALPHA
100
AcDbVertex
100
AcDb2dVertex
 10
24.547213
 20
27.715928
 30
0.0
  0
VERTEX
  5
211A
100
AcDbEntity
  8
ALPHA
100
AcDbVertex
100
AcDb2dVertex
 10
24.708573
 20
27.538419
 30
0.0
  0
VERTEX
  5
211B
100
AcDbEntity
  8
ALPHA
100
AcDbVertex
100
AcDb2dVertex
 10
24.852495
 20
27.345984
 30
0.0
  0
VERTEX
  5
211C
100
AcDbEntity
  8
ALPHA
100
AcDbVertex
100
AcDb2dVertex
 10
24.977723
 20
27.139879
 30
0.0
  0
VERTEX
  5
211D
100
AcDbEntity
  8
ALPHA
100
AcDbVertex
100
AcDb2dVertex
 10
25.083
 20
26.92136
 30
0.0
  0
VERTEX
  5
211E
100
AcDbEntity
  8
ALPHA
100
AcDbVertex
100
AcDb2dVertex
 10
25.16707
 20
26.691682
 30
0.0
  0
VERTEX
  5
211F
100
AcDbEntity
  8
ALPHA
100
AcDbVertex
100
AcDb2dVertex
 10
25.228675
 20
26.4521
 30
0.0
  0
VERTEX
  5
2120
100
AcDbEntity
  8
ALPHA
100
AcDbVertex
100
AcDb2dVertex
 10
25.26656
 20
26.203871
 30
0.0
  0
VERTEX
  5
2121
100
AcDbEntity
  8
ALPHA
100
AcDbVertex
100
AcDb2dVertex
 10
25.279468
 20
25.94825
 30
0.0
  0
SEQEND
  5
2122
100
AcDbEntity
  8
ALPHA
  0
POLYLINE
  5
2123
100
AcDbEntity
  8
ALPHA
100
AcDb2dPolyline
 66
     1
 10
0.0
 20
0.0
 30
0.0
  0
VERTEX
  5
2124
100
AcDbEntity
  8
ALPHA
100
AcDbVertex
100
AcDb2dVertex
 10
36.279485
 20
15.948171
 30
0.0
  0
VERTEX
  5
2125
100
AcDbEntity
  8
ALPHA
100
AcDbVertex
100
AcDb2dVertex
 10
36.279485
 20
25.94825
 30
0.0
  0
SEQEND
  5
2126
100
AcDbEntity
  8
ALPHA
  0
POLYLINE
  5
2127
100
AcDbEntity
  8
ALPHA
100
AcDb2dPolyline
 66
     1
 10
0.0
 20
0.0
 30
0.0
  0
VERTEX
  5
2128
100
AcDbEntity
  8
ALPHA
100
AcDbVertex
100
AcDb2dVertex
 10
41.279697
 20
25.94825
 30
0.0
  0
VERTEX
  5
2129
100
AcDbEntity
  8
ALPHA
100
AcDbVertex
100
AcDb2dVertex
 10
41.279697
 20
15.948171
 30
0.0
  0
SEQEND
  5
212A
100
AcDbEntity
  8
ALPHA
  0
POLYLINE
  5
212B
100
AcDbEntity
  8
ALPHA
100
AcDb2dPolyline
 66
     1
 10
0.0
 20
0.0
 30
0.0
  0
VERTEX
  5
212C
100
AcDbEntity
  8
ALPHA
100
AcDbVertex
100
AcDb2dVertex
 10
41.279697
 20
15.948171
 30
0.0
  0
VERTEX
  5
212D
100
AcDbEntity
  8
ALPHA
100
AcDbVertex
100
AcDb2dVertex
 10
41.266789
 20
15.692607
 30
0.0
  0
VERTEX
  5
212E
100
AcDbEntity
  8
ALPHA
100
AcDbVertex
100
AcDb2dVertex
 10
41.228905
 20
15.444419
 30
0.0
  0
VERTEX
  5
212F
100
AcDbEntity
  8
ALPHA
100
AcDbVertex
100
AcDb2dVertex
 10
41.167299
 20
15.204867
 30
0.0
  0
VERTEX
  5
2130
100
AcDbEntity
  8
ALPHA
100
AcDbVertex
100
AcDb2dVertex
 10
41.08323
 20
14.975206
 30
0.0
  0
VERTEX
  5
2131
100
AcDbEntity
  8
ALPHA
100
AcDbVertex
100
AcDb2dVertex
 10
40.977953
 20
14.756694
 30
0.0
  0
VERTEX
  5
2132
100
AcDbEntity
  8
ALPHA
100
AcDbVertex
100
AcDb2dVertex
 10
40.852724
 20
14.550588
 30
0.0
  0
VERTEX
  5
2133
100
AcDbEntity
  8
ALPHA
100
AcDbVertex
100
AcDb2dVertex
 10
40.708802
 20
14.358145
 30
0.0
  0
VERTEX
  5
2134
100
AcDbEntity
  8
ALPHA
100
AcDbVertex
100
AcDb2dVertex
 10
40.547442
 20
14.180622
 30
0.0
  0
VERTEX
  5
2135
100
AcDbEntity
  8
ALPHA
100
AcDbVertex
100
AcDb2dVertex
 10
40.369901
 20
14.019276
 30
0.0
  0
VERTEX
  5
2136
100
AcDbEntity
  8
ALPHA
100
AcDbVertex
100
AcDb2dVertex
 10
40.177435
 20
13.875364
 30
0.0
  0
VERTEX
  5
2137
100
AcDbEntity
  8
ALPHA
100
AcDbVertex
100
AcDb2dVertex
 10
39.971301
 20
13.750144
 30
0.0
  0
VERTEX
  5
2138
100
AcDbEntity
  8
ALPHA
100
AcDbVertex
100
AcDb2dVertex
 10
39.752755
 20
13.644872
 30
0.0
  0
VERTEX
  5
2139
100
AcDbEntity
  8
ALPHA
100
AcDbVertex
100
AcDb2dVertex
 10
39.523055
 20
13.560805
 30
0.0
  0
VERTEX
  5
213A
100
AcDbEntity
  8
ALPHA
100
AcDbVertex
100
AcDb2dVertex
 10
39.283457
 20
13.499201
 30
0.0
  0
VERTEX
  5
213B
100
AcDbEntity
  8
ALPHA
100
AcDbVertex
100
AcDb2dVertex
 10
39.035216
 20
13.461317
 30
0.0
  0
VERTEX
  5
213C
100
AcDbEntity
  8
ALPHA
100
AcDbVertex
100
AcDb2dVertex
 10
38.779591
 20
13.44841
 30
0.0
  0
VERTEX
  5
213D
100
AcDbEntity
  8
ALPHA
100
AcDbVertex
100
AcDb2dVertex
 10
38.524023
 20
13.461317
 30
0.0
  0
VERTEX
  5
213E
100
AcDbEntity
  8
ALPHA
100
AcDbVertex
100
AcDb2dVertex
 10
38.275825
 20
13.499201
 30
0.0
  0
VERTEX
  5
213F
100
AcDbEntity
  8
ALPHA
100
AcDbVertex
100
AcDb2dVertex
 10
38.036255
 20
13.560805
 30
0.0
  0
VERTEX
  5
2140
100
AcDbEntity
  8
ALPHA
100
AcDbVertex
100
AcDb2dVertex
 10
37.806572
 20
13.644872
 30
0.0
  0
VERTEX
  5
2141
100
AcDbEntity
  8
ALPHA
100
AcDbVertex
100
AcDb2dVertex
 10
37.588034
 20
13.750144
 30
0.0
  0
VERTEX
  5
2142
100
AcDbEntity
  8
ALPHA
100
AcDbVertex
100
AcDb2dVertex
 10
37.381899
 20
13.875364
 30
0.0
  0
VERTEX
  5
2143
100
AcDbEntity
  8
ALPHA
100
AcDbVertex
100
AcDb2dVertex
 10
37.189425
 20
14.019276
 30
0.0
  0
VERTEX
  5
2144
100
AcDbEntity
  8
ALPHA
100
AcDbVertex
100
AcDb2dVertex
 10
37.01187
 20
14.180622
 30
0.0
  0
VERTEX
  5
2145
100
AcDbEntity
  8
ALPHA
100
AcDbVertex
100
AcDb2dVertex
 10
36.850492
 20
14.358145
 30
0.0
  0
VERTEX
  5
2146
100
AcDbEntity
  8
ALPHA
100
AcDbVertex
100
AcDb2dVertex
 10
36.706549
 20
14.550588
 30
0.0
  0
VERTEX
  5
2147
100
AcDbEntity
  8
ALPHA
100
AcDbVertex
100
AcDb2dVertex
 10
36.581299
 20
14.756694
 30
0.0
  0
VERTEX
  5
2148
100
AcDbEntity
  8
ALPHA
100
AcDbVertex
100
AcDb2dVertex
 10
36.476001
 20
14.975206
 30
0.0
  0
VERTEX
  5
2149
100
AcDbEntity
  8
ALPHA
100
AcDbVertex
100
AcDb2dVertex
 10
36.391913
 20
15.204867
 30
0.0
  0
VERTEX
  5
214A
100
AcDbEntity
  8
ALPHA
100
AcDbVertex
100
AcDb2dVertex
 10
36.330292
 20
15.444419
 30
0.0
  0
VERTEX
  5
214B
100
AcDbEntity
  8
ALPHA
100
AcDbVertex
100
AcDb2dVertex
 10
36.292397
 20
15.692607
 30
0.0
  0
VERTEX
  5
214C
100
AcDbEntity
  8
ALPHA
100
AcDbVertex
100
AcDb2dVertex
 10
36.279485
 20
15.948171
 30
0.0
  0
SEQEND
  5
214D
100
AcDbEntity
  8
ALPHA
  0
POLYLINE
  5
214E
100
AcDbEntity
  8
ALPHA
100
AcDb2dPolyline
 66
     1
 10
0.0
 20
0.0
 30
0.0
  0
VERTEX
  5
214F
100
AcDbEntity
  8
ALPHA
100
AcDbVertex
100
AcDb2dVertex
 10
36.279485
 20
25.94825
 30
0.0
  0
VERTEX
  5
2150
100
AcDbEntity
  8
ALPHA
100
AcDbVertex
100
AcDb2dVertex
 10
36.292397
 20
26.203871
 30
0.0
  0
VERTEX
  5
2151
100
AcDbEntity
  8
ALPHA
100
AcDbVertex
100
AcDb2dVertex
 10
36.330292
 20
26.4521
 30
0.0
  0
VERTEX
  5
2152
100
AcDbEntity
  8
ALPHA
100
AcDbVertex
100
AcDb2dVertex
 10
36.391913
 20
26.691682
 30
0.0
  0
VERTEX
  5
2153
100
AcDbEntity
  8
ALPHA
100
AcDbVertex
100
AcDb2dVertex
 10
36.476001
 20
26.92136
 30
0.0
  0
VERTEX
  5
2154
100
AcDbEntity
  8
ALPHA
100
AcDbVertex
100
AcDb2dVertex
 10
36.581299
 20
27.139879
 30
0.0
  0
VERTEX
  5
2155
100
AcDbEntity
  8
ALPHA
100
AcDbVertex
100
AcDb2dVertex
 10
36.706549
 20
27.345984
 30
0.0
  0
VERTEX
  5
2156
100
AcDbEntity
  8
ALPHA
100
AcDbVertex
100
AcDb2dVertex
 10
36.850492
 20
27.538419
 30
0.0
  0
VERTEX
  5
2157
100
AcDbEntity
  8
ALPHA
100
AcDbVertex
100
AcDb2dVertex
 10
37.01187
 20
27.715928
 30
0.0
  0
VERTEX
  5
2158
100
AcDbEntity
  8
ALPHA
100
AcDbVertex
100
AcDb2dVertex
 10
37.189425
 20
27.877256
 30
0.0
  0
VERTEX
  5
2159
100
AcDbEntity
  8
ALPHA
100
AcDbVertex
100
AcDb2dVertex
 10
37.381899
 20
28.021148
 30
0.0
  0
VERTEX
  5
215A
100
AcDbEntity
  8
ALPHA
100
AcDbVertex
100
AcDb2dVertex
 10
37.588034
 20
28.146347
 30
0.0
  0
VERTEX
  5
215B
100
AcDbEntity
  8
ALPHA
100
AcDbVertex
100
AcDb2dVertex
 10
37.806572
 20
28.251598
 30
0.0
  0
VERTEX
  5
215C
100
AcDbEntity
  8
ALPHA
100
AcDbVertex
100
AcDb2dVertex
 10
38.036255
 20
28.335645
 30
0.0
  0
VERTEX
  5
215D
100
AcDbEntity
  8
ALPHA
100
AcDbVertex
100
AcDb2dVertex
 10
38.275825
 20
28.397234
 30
0.0
  0
VERTEX
  5
215E
100
AcDbEntity
  8
ALPHA
100
AcDbVertex
100
AcDb2dVertex
 10
38.524023
 20
28.435107
 30
0.0
  0
VERTEX
  5
215F
100
AcDbEntity
  8
ALPHA
100
AcDbVertex
100
AcDb2dVertex
 10
38.779591
 20
28.448011
 30
0.0
  0
VERTEX
  5
2160
100
AcDbEntity
  8
ALPHA
100
AcDbVertex
100
AcDb2dVertex
 10
39.035216
 20
28.435107
 30
0.0
  0
VERTEX
  5
2161
100
AcDbEntity
  8
ALPHA
100
AcDbVertex
100
AcDb2dVertex
 10
39.283457
 20
28.397234
 30
0.0
  0
VERTEX
  5
2162
100
AcDbEntity
  8
ALPHA
100
AcDbVertex
100
AcDb2dVertex
 10
39.523055
 20
28.335645
 30
0.0
  0
VERTEX
  5
2163
100
AcDbEntity
  8
ALPHA
100
AcDbVertex
100
AcDb2dVertex
 10
39.752755
 20
28.251598
 30
0.0
  0
VERTEX
  5
2164
100
AcDbEntity
  8
ALPHA
100
AcDbVertex
100
AcDb2dVertex
 10
39.971301
 20
28.146347
 30
0.0
  0
VERTEX
  5
2165
100
AcDbEntity
  8
ALPHA
100
AcDbVertex
100
AcDb2dVertex
 10
40.177435
 20
28.021148
 30
0.0
  0
VERTEX
  5
2166
100
AcDbEntity
  8
ALPHA
100
AcDbVertex
100
AcDb2dVertex
 10
40.369901
 20
27.877256
 30
0.0
  0
VERTEX
  5
2167
100
AcDbEntity
  8
ALPHA
100
AcDbVertex
100
AcDb2dVertex
 10
40.547442
 20
27.715928
 30
0.0
  0
VERTEX
  5
2168
100
AcDbEntity
  8
ALPHA
100
AcDbVertex
100
AcDb2dVertex
 10
40.708802
 20
27.538419
 30
0.0
  0
VERTEX
  5
2169
100
AcDbEntity
  8
ALPHA
100
AcDbVertex
100
AcDb2dVertex
 10
40.852724
 20
27.345984
 30
0.0
  0
VERTEX
  5
216A
100
AcDbEntity
  8
ALPHA
100
AcDbVertex
100
AcDb2dVertex
 10
40.977953
 20
27.139879
 30
0.0
  0
VERTEX
  5
216B
100
AcDbEntity
  8
ALPHA
100
AcDbVertex
100
AcDb2dVertex
 10
41.08323
 20
26.92136
 30
0.0
  0
VERTEX
  5
216C
100
AcDbEntity
  8
ALPHA
100
AcDbVertex
100
AcDb2dVertex
 10
41.167299
 20
26.691682
 30
0.0
  0
VERTEX
  5
216D
100
AcDbEntity
  8
ALPHA
100
AcDbVertex
100
AcDb2dVertex
 10
41.228905
 20
26.4521
 30
0.0
  0
VERTEX
  5
216E
100
AcDbEntity
  8
ALPHA
100
AcDbVertex
100
AcDb2dVertex
 10
41.266789
 20
26.203871
 30
0.0
  0
VERTEX
  5
216F
100
AcDbEntity
  8
ALPHA
100
AcDbVertex
100
AcDb2dVertex
 10
41.279697
 20
25.94825
 30
0.0
  0
SEQEND
  5
2170
100
AcDbEntity
  8
ALPHA
  0
POLYLINE
  5
2171
100
AcDbEntity
  8
ALPHA
100
AcDb2dPolyline
 66
     1
 10
0.0
 20
0.0
 30
0.0
  0
VERTEX
  5
2172
100
AcDbEntity
  8
ALPHA
100
AcDbVertex
100
AcDb2dVertex
 10
22.779362
 20
38.448262
 30
0.0
  0
VERTEX
  5
2173
100
AcDbEntity
  8
ALPHA
100
AcDbVertex
100
AcDb2dVertex
 10
38.779591
 20
38.448262
 30
0.0
  0
SEQEND
  5
2174
100
AcDbEntity
  8
ALPHA
  0
POLYLINE
  5
2175
100
AcDbEntity
  8
ALPHA
100
AcDb2dPolyline
 66
     1
 10
0.0
 20
0.0
 30
0.0
  0
VERTEX
  5
2176
100
AcDbEntity
  8
ALPHA
100
AcDbVertex
100
AcDb2dVertex
 10
44.540308
 20
20.975599
 30
0.0
  0
VERTEX
  5
2177
100
AcDbEntity
  8
ALPHA
100
AcDbVertex
100
AcDb2dVertex
 10
44.540308
 20
39.545008
 30
0.0
  0
SEQEND
  5
2178
100
AcDbEntity
  8
ALPHA
  0
DIMENSION
  5
2185
100
AcDbEntity
  8
COTATION1
100
AcDbDimension
  2
*D7
 10
50.273622
 20
15.948171
 30
0.0
 11
48.023622
 21
20.94821
 31
0.0
 70
    32
  3
SC_STAND
100
AcDbAlignedDimension
 13
43.784626
 23
25.94825
 33
0.0
 14
43.784626
 24
15.948171
 34
0.0
 50
90.0
100
AcDbRotatedDimension
  0
DIMENSION
  5
2192
100
AcDbEntity
  8
COTATION1
100
AcDbDimension
  2
*D8
 10
56.540292
 20
35.948156
 30
0.0
 11
54.290292
 21
20.948124
 31
0.0
 70
    32
  3
SC_STAND
100
AcDbAlignedDimension
 13
42.961248
 23
5.948092
 33
0.0
 14
42.961248
 24
35.948156
 34
0.0
 50
90.0
100
AcDbRotatedDimension
  0
ENDSEC
  0
SECTION
  2
OBJECTS
  0
DICTIONARY
  5
F8
100
AcDbDictionary
  3
ACAD_GROUP
350
F9
  3
ACAD_MLINESTYLE
350
106
  3
ACDBVARIABLEDICTIONARY
350
143
  0
DICTIONARY
  5
F9
102
{ACAD_REACTORS
330
F8
102
}
100
AcDbDictionary
  0
DICTIONARY
  5
106
102
{ACAD_REACTORS
330
F8
102
}
100
AcDbDictionary
  3
STANDARD
350
107
  0
DICTIONARY
  5
143
102
{ACAD_REACTORS
330
F8
102
}
100
AcDbDictionary
  3
DIMADEC
350
144
  0
MLINESTYLE
  5
107
102
{ACAD_REACTORS
330
106
102
}
100
AcDbMlineStyle
  2
STANDARD
 70
     0
  3

 62
   256
 51
90.0
 52
90.0
 71
     2
 49
0.5
 62
   256
  6
BYLAYER
 49
-0.5
 62
   256
  6
BYLAYER
  0
DICTIONARYVAR
  5
144
102
{ACAD_REACTORS
330
143
102
}
100
DictionaryVariables
280
     0
  1
0
  0
ENDSEC
  0
EOF
