  0
SECTION
  2
HEADER
  9
$ACADVER
  1
AC1014
  9
$ACADMAINTVER
 70
     0
  9
$DWGCODEPAGE
  3
ANSI_1252
  9
$INSBASE
 10
93.894301
 20
236.06014
 30
0.0
  9
$EXTMIN
 10
0.165952
 20
-8.27372
 30
0.0
  9
$EXTMAX
 10
44.246612
 20
44.742601
 30
0.0
  9
$LIMMIN
 10
0.0
 20
0.0
  9
$LIMMAX
 10
210.0
 20
297.0
  9
$ORTHOMODE
 70
     0
  9
$REGENMODE
 70
     1
  9
$FILLMODE
 70
     1
  9
$QTEXTMODE
 70
     0
  9
$MIRRTEXT
 70
     0
  9
$DRAGMODE
 70
     1
  9
$LTSCALE
 40
7.0
  9
$OSMODE
 70
  4095
  9
$ATTMODE
 70
     1
  9
$TEXTSIZE
 40
2.5
  9
$TRACEWID
 40
0.05
  9
$TEXTSTYLE
  7
STANDARD
  9
$CLAYER
  8
COTATION1
  9
$CELTYPE
  6
BYLAYER
  9
$CECOLOR
 62
   256
  9
$CELTSCALE
 40
1.0
  9
$DELOBJ
 70
     1
  9
$DISPSILH
 70
     0
  9
$DIMSCALE
 40
1.0
  9
$DIMASZ
 40
3.0
  9
$DIMEXO
 40
0.0625
  9
$DIMDLI
 40
0.38
  9
$DIMRND
 40
0.01
  9
$DIMDLE
 40
0.0
  9
$DIMEXE
 40
0.18
  9
$DIMTP
 40
0.0
  9
$DIMTM
 40
0.0
  9
$DIMTXT
 40
2.5
  9
$DIMCEN
 40
0.09
  9
$DIMTSZ
 40
0.0
  9
$DIMTOL
 70
     0
  9
$DIMLIM
 70
     0
  9
$DIMTIH
 70
     0
  9
$DIMTOH
 70
     0
  9
$DIMSE1
 70
     0
  9
$DIMSE2
 70
     0
  9
$DIMTAD
 70
     1
  9
$DIMZIN
 70
    12
  9
$DIMBLK
  1

  9
$DIMASO
 70
     1
  9
$DIMSHO
 70
     0
  9
$DIMPOST
  1

  9
$DIMAPOST
  1

  9
$DIMALT
 70
     0
  9
$DIMALTD
 70
     2
  9
$DIMALTF
 40
25.4
  9
$DIMLFAC
 40
1.0
  9
$DIMTOFL
 70
     1
  9
$DIMTVP
 40
0.0
  9
$DIMTIX
 70
     0
  9
$DIMSOXD
 70
     0
  9
$DIMSAH
 70
     0
  9
$DIMBLK1
  1

  9
$DIMBLK2
  1

  9
$DIMSTYLE
  2
SC_STAND
  9
$DIMCLRD
 70
     0
  9
$DIMCLRE
 70
     0
  9
$DIMCLRT
 70
     0
  9
$DIMTFAC
 40
1.0
  9
$DIMGAP
 40
1.0
  9
$DIMJUST
 70
     0
  9
$DIMSD1
 70
     0
  9
$DIMSD2
 70
     0
  9
$DIMTOLJ
 70
     1
  9
$DIMTZIN
 70
    12
  9
$DIMALTZ
 70
    12
  9
$DIMALTTZ
 70
    12
  9
$DIMFIT
 70
     5
  9
$DIMUPT
 70
     0
  9
$DIMUNIT
 70
     2
  9
$DIMDEC
 70
     3
  9
$DIMTDEC
 70
     3
  9
$DIMALTU
 70
     2
  9
$DIMALTTD
 70
     2
  9
$DIMTXSTY
  7
STANDARD
  9
$DIMAUNIT
 70
     0
  9
$LUNITS
 70
     2
  9
$LUPREC
 70
     3
  9
$SKETCHINC
 40
0.1
  9
$FILLETRAD
 40
0.0625
  9
$AUNITS
 70
     0
  9
$AUPREC
 70
     0
  9
$MENU
  1
ACAD
  9
$ELEVATION
 40
0.0
  9
$PELEVATION
 40
0.0
  9
$THICKNESS
 40
0.0
  9
$LIMCHECK
 70
     0
  9
$BLIPMODE
 70
     1
  9
$CHAMFERA
 40
0.0
  9
$CHAMFERB
 40
0.0
  9
$CHAMFERC
 40
0.0
  9
$CHAMFERD
 40
0.0
  9
$SKPOLY
 70
     0
  9
$TDCREATE
 40
2450953.590960648
  9
$TDUPDATE
 40
2453664.509035011
  9
$TDINDWG
 40
0.0477630440
  9
$TDUSRTIMER
 40
0.0477630440
  9
$USRTIMER
 70
     1
  9
$ANGBASE
 50
0.0
  9
$ANGDIR
 70
     0
  9
$PDMODE
 70
     0
  9
$PDSIZE
 40
0.0
  9
$PLINEWID
 40
0.0
  9
$COORDS
 70
     0
  9
$SPLFRAME
 70
     0
  9
$SPLINETYPE
 70
     6
  9
$SPLINESEGS
 70
     8
  9
$ATTDIA
 70
     0
  9
$ATTREQ
 70
     1
  9
$HANDLING
 70
     1
  9
$HANDSEED
  5
A49D
  9
$SURFTAB1
 70
     6
  9
$SURFTAB2
 70
     6
  9
$SURFTYPE
 70
     6
  9
$SURFU
 70
     6
  9
$SURFV
 70
     6
  9
$UCSNAME
  2

  9
$UCSORG
 10
0.0
 20
0.0
 30
0.0
  9
$UCSXDIR
 10
1.0
 20
0.0
 30
0.0
  9
$UCSYDIR
 10
0.0
 20
1.0
 30
0.0
  9
$PUCSNAME
  2

  9
$PUCSORG
 10
0.0
 20
0.0
 30
0.0
  9
$PUCSXDIR
 10
1.0
 20
0.0
 30
0.0
  9
$PUCSYDIR
 10
0.0
 20
1.0
 30
0.0
  9
$USERI1
 70
     0
  9
$USERI2
 70
     0
  9
$USERI3
 70
     0
  9
$USERI4
 70
     0
  9
$USERI5
 70
     0
  9
$USERR1
 40
0.0
  9
$USERR2
 40
0.0
  9
$USERR3
 40
0.0
  9
$USERR4
 40
0.0
  9
$USERR5
 40
0.0
  9
$WORLDVIEW
 70
     1
  9
$SHADEDGE
 70
     3
  9
$SHADEDIF
 70
    70
  9
$TILEMODE
 70
     1
  9
$MAXACTVP
 70
    32
  9
$PINSBASE
 10
0.0
 20
0.0
 30
0.0
  9
$PLIMCHECK
 70
     0
  9
$PEXTMIN
 10
-3.174999
 20
-3.175
 30
0.0
  9
$PEXTMAX
 10
203.812116
 20
370.276807
 30
0.0
  9
$PLIMMIN
 10
-3.175
 20
-3.175
  9
$PLIMMAX
 10
203.812115
 20
370.276807
  9
$UNITMODE
 70
     0
  9
$VISRETAIN
 70
     0
  9
$PLINEGEN
 70
     0
  9
$PSLTSCALE
 70
     1
  9
$TREEDEPTH
 70
  3020
  9
$PICKSTYLE
 70
     1
  9
$CMLSTYLE
  2
STANDARD
  9
$CMLJUST
 70
     0
  9
$CMLSCALE
 40
1.0
  9
$PROXYGRAPHICS
 70
     1
  9
$MEASUREMENT
 70
     0
  0
ENDSEC
  0
SECTION
  2
CLASSES
  0
CLASS
  1
DICTIONARYVAR
  2
AcDbDictionaryVar
  3
"AutoCAD"
 90
        0
280
     0
281
     0
  0
CLASS
  1
HATCH
  2
AcDbHatch
  3
"ACAD_SEDONA"
 90
        0
280
     0
281
     1
  0
CLASS
  1
LWPOLYLINE
  2
AcDbPolyline
  3
"AutoCAD"
 90
        0
280
     0
281
     1
  0
ENDSEC
  0
SECTION
  2
TABLES
  0
TABLE
  2
VPORT
  5
F4
100
AcDbSymbolTable
 70
     2
  0
VPORT
  5
A49C
100
AcDbSymbolTableRecord
100
AcDbViewportTableRecord
  2
*ACTIVE
 70
     0
 10
0.0
 20
0.0
 11
1.0
 21
1.0
 12
22.207718
 22
18.233037
 13
0.0
 23
0.0
 14
1.0
 24
1.0
 15
10.0
 25
10.0
 16
0.0
 26
0.0
 36
1.0
 17
0.0
 27
0.0
 37
0.0
 40
53.468206
 41
1.643603
 42
50.0
 43
0.0
 44
0.0
 50
0.0
 51
0.0
 71
     0
 72
   100
 73
     1
 74
     1
 75
     0
 76
     1
 77
     0
 78
     0
  0
ENDTAB
  0
TABLE
  2
LTYPE
  5
F1
100
AcDbSymbolTable
 70
     5
  0
LTYPE
  5
FD
100
AcDbSymbolTableRecord
100
AcDbLinetypeTableRecord
  2
BYBLOCK
 70
     0
  3

 72
    65
 73
     0
 40
0.0
  0
LTYPE
  5
FE
100
AcDbSymbolTableRecord
100
AcDbLinetypeTableRecord
  2
BYLAYER
 70
     0
  3

 72
    65
 73
     0
 40
0.0
  0
LTYPE
  5
FF
100
AcDbSymbolTableRecord
100
AcDbLinetypeTableRecord
  2
CONTINUOUS
 70
     0
  3
Solid line
 72
    65
 73
     0
 40
0.0
  0
LTYPE
  5
112
100
AcDbSymbolTableRecord
100
AcDbLinetypeTableRecord
  2
AXES2
 70
     0
  3
___ _ ___ _ ___ _ ___ _ ___ _ ___ _ ___ _ ___ _
 72
    65
 73
     4
 40
1.125
 49
0.75
 74
     0
 49
-0.125
 74
     0
 49
0.125
 74
     0
 49
-0.125
 74
     0
  0
ENDTAB
  0
TABLE
  2
LAYER
  5
EE
100
AcDbSymbolTable
 70
     7
  0
LAYER
  5
FA
100
AcDbSymbolTableRecord
100
AcDbLayerTableRecord
  2
0
 70
     0
 62
     7
  6
CONTINUOUS
  0
LAYER
  5
12C
100
AcDbSymbolTableRecord
100
AcDbLayerTableRecord
  2
ALPHA
 70
     0
 62
   255
  6
CONTINUOUS
  0
LAYER
  5
12F
100
AcDbSymbolTableRecord
100
AcDbLayerTableRecord
  2
COTATION1
 70
     0
 62
     2
  6
CONTINUOUS
  0
LAYER
  5
13B
100
AcDbSymbolTableRecord
100
AcDbLayerTableRecord
  2
ASHADE
 70
     0
 62
     7
  6
CONTINUOUS
  0
LAYER
  5
13E
100
AcDbSymbolTableRecord
100
AcDbLayerTableRecord
  2
DEFPOINTS
 70
     0
 62
     7
  6
CONTINUOUS
  0
ENDTAB
  0
TABLE
  2
STYLE
  5
EF
100
AcDbSymbolTable
 70
     2
  0
STYLE
  5
FB
100
AcDbSymbolTableRecord
100
AcDbTextStyleTableRecord
  2
STANDARD
 70
     0
 40
0.0
 41
1.0
 50
0.0
 71
     0
 42
2.5
  3
txt
  4

  0
ENDTAB
  0
TABLE
  2
VIEW
  5
F2
100
AcDbSymbolTable
 70
     0
  0
ENDTAB
  0
TABLE
  2
UCS
  5
F3
100
AcDbSymbolTable
 70
     0
  0
ENDTAB
  0
TABLE
  2
APPID
  5
F5
100
AcDbSymbolTable
 70
     3
  0
APPID
  5
FC
100
AcDbSymbolTableRecord
100
AcDbRegAppTableRecord
  2
ACAD
 70
     0
  0
APPID
  5
127
100
AcDbSymbolTableRecord
100
AcDbRegAppTableRecord
  2
AVE_RENDER
 70
     0
  0
APPID
  5
128
100
AcDbSymbolTableRecord
100
AcDbRegAppTableRecord
  2
AVE_MATERIAL
 70
     0
  0
ENDTAB
  0
TABLE
  2
DIMSTYLE
  5
F6
100
AcDbSymbolTable
 70
     2
  0
DIMSTYLE
105
129
100
AcDbSymbolTableRecord
100
AcDbDimStyleTableRecord
  2
STANDARD
 70
     0
  3

  4

  5

  6

  7

 40
1.0
 41
0.18
 42
0.0625
 43
0.38
 44
0.18
 45
0.0
 46
0.0
 47
0.0
 48
0.0
140
0.18
141
0.09
142
0.0
143
25.4
144
1.0
145
0.0
146
1.0
147
0.09
 71
     0
 72
     0
 73
     1
 74
     1
 75
     0
 76
     0
 77
     0
 78
     0
170
     0
171
     2
172
     0
173
     0
174
     0
175
     0
176
     0
177
     0
178
     0
270
     2
271
     3
272
     3
273
     2
274
     2
340
FB
275
     0
280
     0
281
     0
282
     0
283
     1
284
    12
285
    12
286
    12
287
     5
288
     0
  0
DIMSTYLE
105
12A
102
{ACAD_REACTORS
330
A457
330
A46F
102
}
100
AcDbSymbolTableRecord
100
AcDbDimStyleTableRecord
  2
SC_STAND
 70
     0
  3

  4

  5

  6

  7

 40
1.0
 41
3.0
 42
0.0625
 43
0.38
 44
0.18
 45
0.01
 46
0.0
 47
0.0
 48
0.0
140
2.5
141
0.09
142
0.0
143
25.4
144
1.0
145
0.0
146
1.0
147
1.0
 71
     0
 72
     0
 73
     0
 74
     0
 75
     0
 76
     0
 77
     1
 78
    12
170
     0
171
     2
172
     1
173
     0
174
     0
175
     0
176
     0
177
     0
178
     0
270
     2
271
     3
272
     3
273
     2
274
     2
340
FB
275
     0
280
     0
281
     0
282
     0
283
     1
284
    12
285
    12
286
    12
287
     5
288
     0
  0
ENDTAB
  0
TABLE
  2
BLOCK_RECORD
  5
ED
100
AcDbSymbolTable
 70
     9
  0
BLOCK_RECORD
  5
103
100
AcDbSymbolTableRecord
100
AcDbBlockTableRecord
  2
*MODEL_SPACE
  0
BLOCK_RECORD
  5
100
100
AcDbSymbolTableRecord
100
AcDbBlockTableRecord
  2
*PAPER_SPACE
  0
BLOCK_RECORD
  5
108
100
AcDbSymbolTableRecord
100
AcDbBlockTableRecord
  2
AVE_RENDER
  0
BLOCK_RECORD
  5
109
100
AcDbSymbolTableRecord
100
AcDbBlockTableRecord
  2
AVE_GLOBAL
  0
BLOCK_RECORD
  5
10A
100
AcDbSymbolTableRecord
100
AcDbBlockTableRecord
  2
SCH_IS
  0
BLOCK_RECORD
  5
A44B
100
AcDbSymbolTableRecord
100
AcDbBlockTableRecord
  2
*D7
  0
BLOCK_RECORD
  5
A463
100
AcDbSymbolTableRecord
100
AcDbBlockTableRecord
  2
*D8
  0
ENDTAB
  0
ENDSEC
  0
SECTION
  2
BLOCKS
  0
BLOCK
  5
141
100
AcDbEntity
  8
0
100
AcDbBlockBegin
  2
*MODEL_SPACE
 70
     0
 10
0.0
 20
0.0
 30
0.0
  3
*MODEL_SPACE
  1

  0
ENDBLK
  5
142
100
AcDbEntity
  8
0
100
AcDbBlockEnd
  0
BLOCK
  5
13F
100
AcDbEntity
 67
     1
  8
0
100
AcDbBlockBegin
  2
*PAPER_SPACE
 70
     0
 10
0.0
 20
0.0
 30
0.0
  3
*PAPER_SPACE
  1

  0
ENDBLK
  5
140
100
AcDbEntity
 67
     1
  8
0
100
AcDbBlockEnd
  0
BLOCK
  5
8D
100
AcDbEntity
  8
0
100
AcDbBlockBegin
  2
AVE_RENDER
 70
     0
 10
0.0
 20
0.0
 30
0.0
  3
AVE_RENDER
  1
AVE_RENDER
  0
ENDBLK
  5
8E
100
AcDbEntity
  8
0
100
AcDbBlockEnd
  0
BLOCK
  5
90
100
AcDbEntity
  8
0
100
AcDbBlockBegin
  2
AVE_GLOBAL
 70
     0
 10
0.0
 20
0.0
 30
0.0
  3
AVE_GLOBAL
  1
AVE_GLOBAL
  0
ENDBLK
  5
91
100
AcDbEntity
  8
0
100
AcDbBlockEnd
  0
BLOCK
  5
C9
100
AcDbEntity
  8
0
100
AcDbBlockBegin
  2
SCH_IS
 70
     0
 10
0.0
 20
0.0
 30
0.0
  3
SCH_IS
  1

  0
INSERT
  5
C0
100
AcDbEntity
  8
ASHADE
 62
     1
100
AcDbBlockReference
  2
AVE_RENDER
 10
0.0
 20
0.0
 30
0.0
1001
AVE_RENDER
1002
{
1070
     6
1000
Pref
1070
    50
1070
    20
1070
     1
1070
     0
1000

1070
    10
1070
     1
1070
    30
1040
25.4
1070
     1
1040
0.3
1040
0.7
1040
0.0
1040
10.0
1010
-1.0
1020
-1.0
1030
-1.0
1040
0.3
1070
    49
1070
     0
1070
     0
1010
1.0
1020
1.0
1030
1.0
1040
45.0
1070
     1
1070
     0
1000
WCS
1040
0.0
1002
}
  0
INSERT
  5
C1
100
AcDbEntity
  8
ASHADE
 62
     3
100
AcDbBlockReference
  2
AVE_RENDER
 10
0.0
 20
0.0
 30
0.0
1001
AVE_RENDER
1002
{
1070
     0
1000
Full Opt
1070
     0
1070
     1
1070
     1
1070
     1
1070
     0
1070
     0
1070
     0
1070
     1
1070
     1
1040
0.0001
1040
0.0001
1002
}
  0
INSERT
  5
C2
100
AcDbEntity
  8
ASHADE
 62
     4
100
AcDbBlockReference
  2
AVE_RENDER
 10
0.0
 20
0.0
 30
0.0
1001
AVE_RENDER
1002
{
1070
     0
1000
Quick Opt
1070
     0
1070
     1
1070
     1
1070
     1
1070
     0
1070
     0
1070
     1
1002
}
  0
INSERT
  5
C3
100
AcDbEntity
  8
ASHADE
 62
     5
100
AcDbBlockReference
  2
AVE_RENDER
 10
0.0
 20
0.0
 30
0.0
1001
AVE_RENDER
1002
{
1070
     1
1000
Scanl Opt
1070
     2
1070
     0
1070
     2
1040
2.0
1040
4.0
1070
     0
1070
     1
1070
     0
1040
0.03
1002
}
  0
INSERT
  5
C4
100
AcDbEntity
  8
ASHADE
 62
     6
100
AcDbBlockReference
  2
AVE_RENDER
 10
0.0
 20
0.0
 30
0.0
1001
AVE_RENDER
1002
{
1070
     2
1000
Raytr Opt
1070
     2
1070
     0
1070
     2
1040
2.0
1040
4.0
1070
     0
1070
     1
1070
     1
1040
0.03
1070
     3
1040
0.03
1002
}
  0
INSERT
  5
C5
100
AcDbEntity
  8
ASHADE
 62
     7
100
AcDbBlockReference
  2
AVE_RENDER
 10
0.0
 20
0.0
 30
0.0
1001
AVE_RENDER
1002
{
1070
     0
1000
RFile Opt
1070
     5
1070
   640
1070
   480
1070
 10000
1070
     3
1070
    32
1070
    24
1070
     0
1070
     0
1070
     0
1070
     1
1070
     0
1070
     0
1070
     0
1002
}
  0
INSERT
  5
C6
100
AcDbEntity
  8
ASHADE
 62
     8
100
AcDbBlockReference
  2
AVE_RENDER
 10
0.0
 20
0.0
 30
0.0
1001
AVE_RENDER
1002
{
1070
     0
1000
Fog Opt
1070
     0
1070
     0
1040
0.0
1040
1.0
1040
0.0
1040
1.0
1010
0.5
1020
0.5
1030
0.5
1002
}
  0
INSERT
  5
C7
100
AcDbEntity
  8
ASHADE
 62
     9
100
AcDbBlockReference
  2
AVE_RENDER
 10
0.0
 20
0.0
 30
0.0
1001
AVE_RENDER
1002
{
1070
     0
1000
BG Opt
1070
     0
1070
     1
1010
0.0
1020
0.0
1030
0.0
1010
1.0
1020
0.0
1030
0.0
1010
0.0
1020
1.0
1030
0.0
1010
0.0
1020
0.0
1030
1.0
1040
0.5
1040
0.33
1040
0.0
1000

1070
     1
1000

1070
     1
1070
     1
1040
1.0
1040
1.0
1040
0.0
1040
0.0
1070
     0
1002
}
  0
INSERT
  5
C8
100
AcDbEntity
  8
ASHADE
 62
     1
100
AcDbBlockReference
  2
AVE_GLOBAL
 10
0.0
 20
0.0
 30
0.0
1001
AVE_MATERIAL
1002
{
1000
*GLOBAL*
1000
1
1000
Finition globale.
1002
{
1002
}
1002
{
1070
    63
1002
{
1002
{
1010
-1.0
1020
-1.0
1030
-1.0
1002
}
1040
0.1
1000

1040
0.0
1002
{
1002
}
1040
0.0
1002
{
1002
}
1040
0.0
1002
}
1002
{
1002
{
1010
-1.0
1020
-1.0
1030
-1.0
1002
}
1040
0.7
1000

1040
0.0
1002
{
1002
}
1040
0.0
1002
{
1002
}
1040
0.0
1002
}
1002
{
1002
{
1010
-1.0
1020
-1.0
1030
-1.0
1002
}
1040
0.2
1000

1040
0.0
1002
{
1002
}
1040
0.0
1002
{
1002
}
1040
0.0
1002
}
1002
{
1070
     0
1002
{
1070
     1
1002
{
1040
1.0
1040
1.0
1000

1040
0.0
1002
{
1002
}
1040
0.0
1002
{
1002
}
1040
0.0
1002
}
1002
}
1040
1.0
1040
0.0
1040
0.0
1002
}
1002
{
1040
1.0
1040
1.0
1000

1040
0.0
1002
{
1002
}
1040
0.0
1002
{
1002
}
1040
0.0
1002
}
1002
{
1040
0.5
1040
1.0
1000

1040
0.0
1002
{
1002
}
1040
0.0
1002
{
1002
}
1040
0.0
1002
}
1002
{
1070
     0
1040
0.0
1002
{
1002
}
1040
1.0
1002
{
1002
}
1040
0.0
1002
}
1002
{
1040
0.0
1002
{
1002
{
1010
0.0
1020
0.0
1030
0.0
1002
}
1040
1.0
1000

1040
0.0
1002
{
1002
}
1040
0.0
1002
{
1002
}
1040
0.0
1002
}
1002
}
1002
{
1002
{
1070
     1
1002
{
1040
0.0
1040
1.0
1000

1040
0.0
1002
{
1002
}
1040
0.0
1002
{
1002
}
1040
0.0
1002
}
1002
}
1040
0.0
1002
{
1002
}
1010
1.0
1020
0.0
1030
0.0
1010
0.0
1020
1.0
1030
0.0
1010
0.0
1020
0.0
1030
1.0
1070
     0
1002
}
1002
{
1002
{
1040
1.0
1040
1.0
1002
{
1070
     1
1002
{
1040
1.0
1040
1.0
1000

1040
0.0
1002
{
1002
}
1040
0.0
1002
{
1002
}
1040
0.0
1002
}
1002
}
1002
}
1070
     0
1040
0.0
1002
{
1002
}
1002
}
1002
{
1002
}
1002
}
1002
{
1071
        3
1070
     3
1070
     0
1002
{
1070
     2
1070
     0
1070
     0
1040
0.0
1002
}
1070
     0
1070
     2
1002
{
1002
}
1002
}
1002
{
1040
8030.0
1040
190.300003
1040
0.305
1040
228.0
1040
545.0
1040
14.0
1040
17.4
1040
0.456
1002
}
1002
}
  0
ENDBLK
  5
CA
100
AcDbEntity
  8
0
100
AcDbBlockEnd
  0
BLOCK
  5
A47B
100
AcDbEntity
  8
0
100
AcDbBlockBegin
  2
*D7
 70
     1
 10
0.0
 20
0.0
 30
0.0
  3
*D7
  1

  0
LINE
  5
A47C
100
AcDbEntity
  8
0
  6
BYBLOCK
 62
     0
100
AcDbLine
 10
0.165952
 20
31.161546
 30
0.0
 11
0.165952
 21
-7.95372
 31
0.0
  0
LINE
  5
A47D
100
AcDbEntity
  8
0
  6
BYBLOCK
 62
     0
100
AcDbLine
 10
35.093019
 20
31.161546
 30
0.0
 11
35.093019
 21
-7.95372
 31
0.0
  0
LINE
  5
A47E
100
AcDbEntity
  8
0
  6
BYBLOCK
 62
     0
100
AcDbLine
 10
3.165952
 20
-7.77372
 30
0.0
 11
32.093019
 21
-7.77372
 31
0.0
  0
SOLID
  5
A47F
100
AcDbEntity
  8
0
  6
BYBLOCK
 62
     0
100
AcDbTrace
 10
3.165952
 20
-7.27372
 30
0.0
 11
3.165952
 21
-8.27372
 31
0.0
 12
0.165952
 22
-7.77372
 32
0.0
 13
0.165952
 23
-7.77372
 33
0.0
  0
SOLID
  5
A480
100
AcDbEntity
  8
0
  6
BYBLOCK
 62
     0
100
AcDbTrace
 10
32.093019
 20
-7.27372
 30
0.0
 11
32.093019
 21
-8.27372
 31
0.0
 12
35.093019
 22
-7.77372
 32
0.0
 13
35.093019
 23
-7.77372
 33
0.0
  0
MTEXT
  5
A481
100
AcDbEntity
  8
0
  6
BYBLOCK
 62
     0
100
AcDbMText
 10
17.629485
 20
-5.52372
 30
0.0
 40
2.5
 41
0.0
 71
     5
 72
     1
  1
\A1;35
  0
POINT
  5
A482
100
AcDbEntity
  8
DEFPOINTS
  6
BYBLOCK
 62
     0
100
AcDbPoint
 10
0.165952
 20
31.224046
 30
0.0
  0
POINT
  5
A483
100
AcDbEntity
  8
DEFPOINTS
  6
BYBLOCK
 62
     0
100
AcDbPoint
 10
35.093019
 20
31.224046
 30
0.0
  0
POINT
  5
A484
100
AcDbEntity
  8
DEFPOINTS
  6
BYBLOCK
 62
     0
100
AcDbPoint
 10
35.093019
 20
-7.77372
 30
0.0
  0
ENDBLK
  5
A485
100
AcDbEntity
  8
0
100
AcDbBlockEnd
  0
BLOCK
  5
A486
100
AcDbEntity
  8
0
100
AcDbBlockBegin
  2
*D8
 70
     1
 10
0.0
 20
0.0
 30
0.0
  3
*D8
  1

  0
LINE
  5
A487
100
AcDbEntity
  8
0
  6
BYBLOCK
 62
     0
100
AcDbLine
 10
22.492381
 20
-0.073958
 30
0.0
 11
43.926612
 21
-0.073958
 31
0.0
  0
LINE
  5
A488
100
AcDbEntity
  8
0
  6
BYBLOCK
 62
     0
100
AcDbLine
 10
33.464666
 20
44.731576
 30
0.0
 11
43.926612
 21
44.731576
 31
0.0
  0
LINE
  5
A489
100
AcDbEntity
  8
0
  6
BYBLOCK
 62
     0
100
AcDbLine
 10
43.746612
 20
2.926042
 30
0.0
 11
43.746612
 21
41.731576
 31
0.0
  0
SOLID
  5
A48A
100
AcDbEntity
  8
0
  6
BYBLOCK
 62
     0
100
AcDbTrace
 10
43.246612
 20
2.926042
 30
0.0
 11
44.246612
 21
2.926042
 31
0.0
 12
43.746612
 22
-0.073958
 32
0.0
 13
43.746612
 23
-0.073958
 33
0.0
  0
SOLID
  5
A48B
100
AcDbEntity
  8
0
  6
BYBLOCK
 62
     0
100
AcDbTrace
 10
43.246612
 20
41.731576
 30
0.0
 11
44.246612
 21
41.731576
 31
0.0
 12
43.746612
 22
44.731576
 32
0.0
 13
43.746612
 23
44.731576
 33
0.0
  0
MTEXT
  5
A48C
100
AcDbEntity
  8
0
  6
BYBLOCK
 62
     0
100
AcDbMText
 10
41.496612
 20
22.328809
 30
0.0
 40
2.5
 41
0.0
 71
     5
 72
     1
  1
\A1;45
 11
0.0
 21
1.0
 31
0.0
  0
POINT
  5
A48D
100
AcDbEntity
  8
DEFPOINTS
  6
BYBLOCK
 62
     0
100
AcDbPoint
 10
22.429881
 20
-0.073958
 30
0.0
  0
POINT
  5
A48E
100
AcDbEntity
  8
DEFPOINTS
  6
BYBLOCK
 62
     0
100
AcDbPoint
 10
33.402166
 20
44.731576
 30
0.0
  0
POINT
  5
A48F
100
AcDbEntity
  8
DEFPOINTS
  6
BYBLOCK
 62
     0
100
AcDbPoint
 10
43.746612
 20
44.731576
 30
0.0
  0
ENDBLK
  5
A490
100
AcDbEntity
  8
0
100
AcDbBlockEnd
  0
ENDSEC
  0
SECTION
  2
ENTITIES
  0
INSERT
  5
CC
100
AcDbEntity
  8
0
100
AcDbBlockReference
  2
SCH_IS
 10
-68.718396
 20
-140.042541
 30
0.0
  0
INSERT
  5
EC
100
AcDbEntity
  8
COTATION1
100
AcDbBlockReference
  2
SCH_IS
 10
0.0
 20
0.0
 30
0.0
  0
POLYLINE
  5
A197
100
AcDbEntity
  8
ALPHA
100
AcDb2dPolyline
 66
     1
 10
0.0
 20
0.0
 30
0.0
  0
VERTEX
  5
A198
100
AcDbEntity
  8
ALPHA
100
AcDbVertex
100
AcDb2dVertex
 10
0.19868
 20
32.464969
 30
0.0
  0
VERTEX
  5
A199
100
AcDbEntity
  8
ALPHA
100
AcDbVertex
100
AcDb2dVertex
 10
14.734916
 20
32.464969
 30
0.0
  0
SEQEND
  5
A19A
100
AcDbEntity
  8
ALPHA
  0
POLYLINE
  5
A19B
100
AcDbEntity
  8
ALPHA
100
AcDb2dPolyline
 66
     1
 10
0.0
 20
0.0
 30
0.0
  0
VERTEX
  5
A19C
100
AcDbEntity
  8
ALPHA
100
AcDbVertex
100
AcDb2dVertex
 10
0.368523
 20
34.460713
 30
0.0
  0
VERTEX
  5
A19D
100
AcDbEntity
  8
ALPHA
100
AcDbVertex
100
AcDb2dVertex
 10
1.646309
 20
35.534549
 30
0.0
  0
SEQEND
  5
A19E
100
AcDbEntity
  8
ALPHA
  0
POLYLINE
  5
A19F
100
AcDbEntity
  8
ALPHA
100
AcDb2dPolyline
 66
     1
 10
0.0
 20
0.0
 30
0.0
  0
VERTEX
  5
A1A0
100
AcDbEntity
  8
ALPHA
100
AcDbVertex
100
AcDb2dVertex
 10
0.329938
 20
32.99138
 30
0.0
  0
VERTEX
  5
A1A1
100
AcDbEntity
  8
ALPHA
100
AcDbVertex
100
AcDb2dVertex
 10
3.354388
 20
35.534549
 30
0.0
  0
SEQEND
  5
A1A2
100
AcDbEntity
  8
ALPHA
  0
POLYLINE
  5
A1A3
100
AcDbEntity
  8
ALPHA
100
AcDb2dPolyline
 66
     1
 10
0.0
 20
0.0
 30
0.0
  0
VERTEX
  5
A1A4
100
AcDbEntity
  8
ALPHA
100
AcDbVertex
100
AcDb2dVertex
 10
1.567761
 20
32.595194
 30
0.0
  0
VERTEX
  5
A1A5
100
AcDbEntity
  8
ALPHA
100
AcDbVertex
100
AcDb2dVertex
 10
5.063844
 20
35.534549
 30
0.0
  0
SEQEND
  5
A1A6
100
AcDbEntity
  8
ALPHA
  0
POLYLINE
  5
A1A7
100
AcDbEntity
  8
ALPHA
100
AcDb2dPolyline
 66
     1
 10
0.0
 20
0.0
 30
0.0
  0
VERTEX
  5
A1A8
100
AcDbEntity
  8
ALPHA
100
AcDbVertex
100
AcDb2dVertex
 10
3.276184
 20
32.595194
 30
0.0
  0
VERTEX
  5
A1A9
100
AcDbEntity
  8
ALPHA
100
AcDbVertex
100
AcDb2dVertex
 10
6.772267
 20
35.534549
 30
0.0
  0
SEQEND
  5
A1AA
100
AcDbEntity
  8
ALPHA
  0
POLYLINE
  5
A1AB
100
AcDbEntity
  8
ALPHA
100
AcDb2dPolyline
 66
     1
 10
0.0
 20
0.0
 30
0.0
  0
VERTEX
  5
A1AC
100
AcDbEntity
  8
ALPHA
100
AcDbVertex
100
AcDb2dVertex
 10
4.985296
 20
32.595194
 30
0.0
  0
VERTEX
  5
A1AD
100
AcDbEntity
  8
ALPHA
100
AcDbVertex
100
AcDb2dVertex
 10
8.482068
 20
35.534549
 30
0.0
  0
SEQEND
  5
A1AE
100
AcDbEntity
  8
ALPHA
  0
POLYLINE
  5
A1AF
100
AcDbEntity
  8
ALPHA
100
AcDb2dPolyline
 66
     1
 10
0.0
 20
0.0
 30
0.0
  0
VERTEX
  5
A1B0
100
AcDbEntity
  8
ALPHA
100
AcDbVertex
100
AcDb2dVertex
 10
6.694752
 20
32.595194
 30
0.0
  0
VERTEX
  5
A1B1
100
AcDbEntity
  8
ALPHA
100
AcDbVertex
100
AcDb2dVertex
 10
10.190835
 20
35.534549
 30
0.0
  0
SEQEND
  5
A1B2
100
AcDbEntity
  8
ALPHA
  0
POLYLINE
  5
A1B3
100
AcDbEntity
  8
ALPHA
100
AcDb2dPolyline
 66
     1
 10
0.0
 20
0.0
 30
0.0
  0
VERTEX
  5
A1B4
100
AcDbEntity
  8
ALPHA
100
AcDbVertex
100
AcDb2dVertex
 10
8.403864
 20
32.595194
 30
0.0
  0
VERTEX
  5
A1B5
100
AcDbEntity
  8
ALPHA
100
AcDbVertex
100
AcDb2dVertex
 10
11.899602
 20
35.534549
 30
0.0
  0
SEQEND
  5
A1B6
100
AcDbEntity
  8
ALPHA
  0
POLYLINE
  5
A1B7
100
AcDbEntity
  8
ALPHA
100
AcDb2dPolyline
 66
     1
 10
0.0
 20
0.0
 30
0.0
  0
VERTEX
  5
A1B8
100
AcDbEntity
  8
ALPHA
100
AcDbVertex
100
AcDb2dVertex
 10
10.112287
 20
32.595194
 30
0.0
  0
VERTEX
  5
A1B9
100
AcDbEntity
  8
ALPHA
100
AcDbVertex
100
AcDb2dVertex
 10
13.608025
 20
35.534549
 30
0.0
  0
SEQEND
  5
A1BA
100
AcDbEntity
  8
ALPHA
  0
POLYLINE
  5
A1BB
100
AcDbEntity
  8
ALPHA
100
AcDb2dPolyline
 66
     1
 10
0.0
 20
0.0
 30
0.0
  0
VERTEX
  5
A1BC
100
AcDbEntity
  8
ALPHA
100
AcDbVertex
100
AcDb2dVertex
 10
11.822432
 20
32.595194
 30
0.0
  0
VERTEX
  5
A1BD
100
AcDbEntity
  8
ALPHA
100
AcDbVertex
100
AcDb2dVertex
 10
14.696331
 20
35.012273
 30
0.0
  0
SEQEND
  5
A1BE
100
AcDbEntity
  8
ALPHA
  0
POLYLINE
  5
A1BF
100
AcDbEntity
  8
ALPHA
100
AcDb2dPolyline
 66
     1
 10
0.0
 20
0.0
 30
0.0
  0
VERTEX
  5
A1C0
100
AcDbEntity
  8
ALPHA
100
AcDbVertex
100
AcDb2dVertex
 10
13.530855
 20
32.595194
 30
0.0
  0
VERTEX
  5
A1C1
100
AcDbEntity
  8
ALPHA
100
AcDbVertex
100
AcDb2dVertex
 10
14.773156
 20
33.640091
 30
0.0
  0
SEQEND
  5
A1C2
100
AcDbEntity
  8
ALPHA
  0
POLYLINE
  5
A1C3
100
AcDbEntity
  8
ALPHA
100
AcDb2dPolyline
 66
     1
 10
0.0
 20
0.0
 30
0.0
  0
VERTEX
  5
A1C4
100
AcDbEntity
  8
ALPHA
100
AcDbVertex
100
AcDb2dVertex
 10
14.696331
 20
34.226791
 30
0.0
  0
VERTEX
  5
A1C5
100
AcDbEntity
  8
ALPHA
100
AcDbVertex
100
AcDb2dVertex
 10
13.143282
 20
35.534549
 30
0.0
  0
SEQEND
  5
A1C6
100
AcDbEntity
  8
ALPHA
  0
POLYLINE
  5
A1C7
100
AcDbEntity
  8
ALPHA
100
AcDb2dPolyline
 66
     1
 10
0.0
 20
0.0
 30
0.0
  0
VERTEX
  5
A1C8
100
AcDbEntity
  8
ALPHA
100
AcDbVertex
100
AcDb2dVertex
 10
14.617783
 20
32.855988
 30
0.0
  0
VERTEX
  5
A1C9
100
AcDbEntity
  8
ALPHA
100
AcDbVertex
100
AcDb2dVertex
 10
11.433136
 20
35.534549
 30
0.0
  0
SEQEND
  5
A1CA
100
AcDbEntity
  8
ALPHA
  0
POLYLINE
  5
A1CB
100
AcDbEntity
  8
ALPHA
100
AcDb2dPolyline
 66
     1
 10
0.0
 20
0.0
 30
0.0
  0
VERTEX
  5
A1CC
100
AcDbEntity
  8
ALPHA
100
AcDbVertex
100
AcDb2dVertex
 10
13.220796
 20
32.595194
 30
0.0
  0
VERTEX
  5
A1CD
100
AcDbEntity
  8
ALPHA
100
AcDbVertex
100
AcDb2dVertex
 10
9.724714
 20
35.534549
 30
0.0
  0
SEQEND
  5
A1CE
100
AcDbEntity
  8
ALPHA
  0
POLYLINE
  5
A1CF
100
AcDbEntity
  8
ALPHA
100
AcDb2dPolyline
 66
     1
 10
0.0
 20
0.0
 30
0.0
  0
VERTEX
  5
A1D0
100
AcDbEntity
  8
ALPHA
100
AcDbVertex
100
AcDb2dVertex
 10
11.510651
 20
32.595194
 30
0.0
  0
VERTEX
  5
A1D1
100
AcDbEntity
  8
ALPHA
100
AcDbVertex
100
AcDb2dVertex
 10
8.015602
 20
35.534549
 30
0.0
  0
SEQEND
  5
A1D2
100
AcDbEntity
  8
ALPHA
  0
POLYLINE
  5
A1D3
100
AcDbEntity
  8
ALPHA
100
AcDb2dPolyline
 66
     1
 10
0.0
 20
0.0
 30
0.0
  0
VERTEX
  5
A1D4
100
AcDbEntity
  8
ALPHA
100
AcDbVertex
100
AcDb2dVertex
 10
9.802917
 20
32.595194
 30
0.0
  0
VERTEX
  5
A1D5
100
AcDbEntity
  8
ALPHA
100
AcDbVertex
100
AcDb2dVertex
 10
6.306145
 20
35.534549
 30
0.0
  0
SEQEND
  5
A1D6
100
AcDbEntity
  8
ALPHA
  0
POLYLINE
  5
A1D7
100
AcDbEntity
  8
ALPHA
100
AcDb2dPolyline
 66
     1
 10
0.0
 20
0.0
 30
0.0
  0
VERTEX
  5
A1D8
100
AcDbEntity
  8
ALPHA
100
AcDbVertex
100
AcDb2dVertex
 10
8.093116
 20
32.595194
 30
0.0
  0
VERTEX
  5
A1D9
100
AcDbEntity
  8
ALPHA
100
AcDbVertex
100
AcDb2dVertex
 10
4.597033
 20
35.534549
 30
0.0
  0
SEQEND
  5
A1DA
100
AcDbEntity
  8
ALPHA
  0
POLYLINE
  5
A1DB
100
AcDbEntity
  8
ALPHA
100
AcDb2dPolyline
 66
     1
 10
0.0
 20
0.0
 30
0.0
  0
VERTEX
  5
A1DC
100
AcDbEntity
  8
ALPHA
100
AcDbVertex
100
AcDb2dVertex
 10
6.384693
 20
32.595194
 30
0.0
  0
VERTEX
  5
A1DD
100
AcDbEntity
  8
ALPHA
100
AcDbVertex
100
AcDb2dVertex
 10
2.888611
 20
35.534549
 30
0.0
  0
SEQEND
  5
A1DE
100
AcDbEntity
  8
ALPHA
  0
POLYLINE
  5
A1DF
100
AcDbEntity
  8
ALPHA
100
AcDb2dPolyline
 66
     1
 10
0.0
 20
0.0
 30
0.0
  0
VERTEX
  5
A1E0
100
AcDbEntity
  8
ALPHA
100
AcDbVertex
100
AcDb2dVertex
 10
4.675582
 20
32.595194
 30
0.0
  0
VERTEX
  5
A1E1
100
AcDbEntity
  8
ALPHA
100
AcDbVertex
100
AcDb2dVertex
 10
1.179154
 20
35.534549
 30
0.0
  0
SEQEND
  5
A1E2
100
AcDbEntity
  8
ALPHA
  0
POLYLINE
  5
A1E3
100
AcDbEntity
  8
ALPHA
100
AcDb2dPolyline
 66
     1
 10
0.0
 20
0.0
 30
0.0
  0
VERTEX
  5
A1E4
100
AcDbEntity
  8
ALPHA
100
AcDbVertex
100
AcDb2dVertex
 10
2.966125
 20
32.595194
 30
0.0
  0
VERTEX
  5
A1E5
100
AcDbEntity
  8
ALPHA
100
AcDbVertex
100
AcDb2dVertex
 10
0.281018
 20
34.852076
 30
0.0
  0
SEQEND
  5
A1E6
100
AcDbEntity
  8
ALPHA
  0
POLYLINE
  5
A1E7
100
AcDbEntity
  8
ALPHA
100
AcDb2dPolyline
 66
     1
 10
0.0
 20
0.0
 30
0.0
  0
VERTEX
  5
A1E8
100
AcDbEntity
  8
ALPHA
100
AcDbVertex
100
AcDb2dVertex
 10
1.257702
 20
32.595194
 30
0.0
  0
VERTEX
  5
A1E9
100
AcDbEntity
  8
ALPHA
100
AcDbVertex
100
AcDb2dVertex
 10
0.217973
 20
33.468526
 30
0.0
  0
SEQEND
  5
A1EA
100
AcDbEntity
  8
ALPHA
  0
POLYLINE
  5
A1EB
100
AcDbEntity
  8
ALPHA
100
AcDb2dPolyline
 66
     1
 10
0.0
 20
0.0
 30
0.0
  0
VERTEX
  5
A1EC
100
AcDbEntity
  8
ALPHA
100
AcDbVertex
100
AcDb2dVertex
 10
20.879933
 20
42.061627
 30
0.0
  0
VERTEX
  5
A1ED
100
AcDbEntity
  8
ALPHA
100
AcDbVertex
100
AcDb2dVertex
 10
22.390263
 20
43.3308
 30
0.0
  0
SEQEND
  5
A1EE
100
AcDbEntity
  8
ALPHA
  0
POLYLINE
  5
A1EF
100
AcDbEntity
  8
ALPHA
100
AcDb2dPolyline
 66
     1
 10
0.0
 20
0.0
 30
0.0
  0
VERTEX
  5
A1F0
100
AcDbEntity
  8
ALPHA
100
AcDbVertex
100
AcDb2dVertex
 10
20.879933
 20
40.625711
 30
0.0
  0
VERTEX
  5
A1F1
100
AcDbEntity
  8
ALPHA
100
AcDbVertex
100
AcDb2dVertex
 10
24.098341
 20
43.3308
 30
0.0
  0
SEQEND
  5
A1F2
100
AcDbEntity
  8
ALPHA
  0
POLYLINE
  5
A1F3
100
AcDbEntity
  8
ALPHA
100
AcDb2dPolyline
 66
     1
 10
0.0
 20
0.0
 30
0.0
  0
VERTEX
  5
A1F4
100
AcDbEntity
  8
ALPHA
100
AcDbVertex
100
AcDb2dVertex
 10
20.893713
 20
39.199442
 30
0.0
  0
VERTEX
  5
A1F5
100
AcDbEntity
  8
ALPHA
100
AcDbVertex
100
AcDb2dVertex
 10
25.806764
 20
43.3308
 30
0.0
  0
SEQEND
  5
A1F6
100
AcDbEntity
  8
ALPHA
  0
POLYLINE
  5
A1F7
100
AcDbEntity
  8
ALPHA
100
AcDb2dPolyline
 66
     1
 10
0.0
 20
0.0
 30
0.0
  0
VERTEX
  5
A1F8
100
AcDbEntity
  8
ALPHA
100
AcDbVertex
100
AcDb2dVertex
 10
20.95228
 20
37.811757
 30
0.0
  0
VERTEX
  5
A1F9
100
AcDbEntity
  8
ALPHA
100
AcDbVertex
100
AcDb2dVertex
 10
27.51622
 20
43.3308
 30
0.0
  0
SEQEND
  5
A1FA
100
AcDbEntity
  8
ALPHA
  0
POLYLINE
  5
A1FB
100
AcDbEntity
  8
ALPHA
100
AcDb2dPolyline
 66
     1
 10
0.0
 20
0.0
 30
0.0
  0
VERTEX
  5
A1FC
100
AcDbEntity
  8
ALPHA
100
AcDbVertex
100
AcDb2dVertex
 10
20.855128
 20
36.294193
 30
0.0
  0
VERTEX
  5
A1FD
100
AcDbEntity
  8
ALPHA
100
AcDbVertex
100
AcDb2dVertex
 10
29.2932
 20
43.389023
 30
0.0
  0
SEQEND
  5
A1FE
100
AcDbEntity
  8
ALPHA
  0
POLYLINE
  5
A1FF
100
AcDbEntity
  8
ALPHA
100
AcDb2dPolyline
 66
     1
 10
0.0
 20
0.0
 30
0.0
  0
VERTEX
  5
A200
100
AcDbEntity
  8
ALPHA
100
AcDbVertex
100
AcDb2dVertex
 10
20.87511
 20
34.873091
 30
0.0
  0
VERTEX
  5
A201
100
AcDbEntity
  8
ALPHA
100
AcDbVertex
100
AcDb2dVertex
 10
30.934788
 20
43.3308
 30
0.0
  0
SEQEND
  5
A202
100
AcDbEntity
  8
ALPHA
  0
POLYLINE
  5
A203
100
AcDbEntity
  8
ALPHA
100
AcDb2dPolyline
 66
     1
 10
0.0
 20
0.0
 30
0.0
  0
VERTEX
  5
A204
100
AcDbEntity
  8
ALPHA
100
AcDbVertex
100
AcDb2dVertex
 10
20.913695
 20
33.468526
 30
0.0
  0
VERTEX
  5
A205
100
AcDbEntity
  8
ALPHA
100
AcDbVertex
100
AcDb2dVertex
 10
32.642867
 20
43.3308
 30
0.0
  0
SEQEND
  5
A206
100
AcDbEntity
  8
ALPHA
  0
POLYLINE
  5
A207
100
AcDbEntity
  8
ALPHA
100
AcDb2dPolyline
 66
     1
 10
0.0
 20
0.0
 30
0.0
  0
VERTEX
  5
A208
100
AcDbEntity
  8
ALPHA
100
AcDbVertex
100
AcDb2dVertex
 10
21.418057
 20
32.457046
 30
0.0
  0
VERTEX
  5
A209
100
AcDbEntity
  8
ALPHA
100
AcDbVertex
100
AcDb2dVertex
 10
34.352323
 20
43.3308
 30
0.0
  0
SEQEND
  5
A20A
100
AcDbEntity
  8
ALPHA
  0
POLYLINE
  5
A20B
100
AcDbEntity
  8
ALPHA
100
AcDb2dPolyline
 66
     1
 10
0.0
 20
0.0
 30
0.0
  0
VERTEX
  5
A20C
100
AcDbEntity
  8
ALPHA
100
AcDbVertex
100
AcDb2dVertex
 10
23.22432
 20
32.537661
 30
0.0
  0
VERTEX
  5
A20D
100
AcDbEntity
  8
ALPHA
100
AcDbVertex
100
AcDb2dVertex
 10
35.148829
 20
42.563922
 30
0.0
  0
SEQEND
  5
A20E
100
AcDbEntity
  8
ALPHA
  0
POLYLINE
  5
A20F
100
AcDbEntity
  8
ALPHA
100
AcDb2dPolyline
 66
     1
 10
0.0
 20
0.0
 30
0.0
  0
VERTEX
  5
A210
100
AcDbEntity
  8
ALPHA
100
AcDbVertex
100
AcDb2dVertex
 10
24.91414
 20
32.521469
 30
0.0
  0
VERTEX
  5
A211
100
AcDbEntity
  8
ALPHA
100
AcDbVertex
100
AcDb2dVertex
 10
35.148829
 20
41.127317
 30
0.0
  0
SEQEND
  5
A212
100
AcDbEntity
  8
ALPHA
  0
POLYLINE
  5
A213
100
AcDbEntity
  8
ALPHA
100
AcDb2dPolyline
 66
     1
 10
0.0
 20
0.0
 30
0.0
  0
VERTEX
  5
A214
100
AcDbEntity
  8
ALPHA
100
AcDbVertex
100
AcDb2dVertex
 10
26.525066
 20
32.440854
 30
0.0
  0
VERTEX
  5
A215
100
AcDbEntity
  8
ALPHA
100
AcDbVertex
100
AcDb2dVertex
 10
35.148829
 20
39.690024
 30
0.0
  0
SEQEND
  5
A216
100
AcDbEntity
  8
ALPHA
  0
POLYLINE
  5
A217
100
AcDbEntity
  8
ALPHA
100
AcDb2dPolyline
 66
     1
 10
0.0
 20
0.0
 30
0.0
  0
VERTEX
  5
A218
100
AcDbEntity
  8
ALPHA
100
AcDbVertex
100
AcDb2dVertex
 10
28.351311
 20
32.537661
 30
0.0
  0
VERTEX
  5
A219
100
AcDbEntity
  8
ALPHA
100
AcDbVertex
100
AcDb2dVertex
 10
35.148829
 20
38.253074
 30
0.0
  0
SEQEND
  5
A21A
100
AcDbEntity
  8
ALPHA
  0
POLYLINE
  5
A21B
100
AcDbEntity
  8
ALPHA
100
AcDb2dPolyline
 66
     1
 10
0.0
 20
0.0
 30
0.0
  0
VERTEX
  5
A21C
100
AcDbEntity
  8
ALPHA
100
AcDbVertex
100
AcDb2dVertex
 10
30.020805
 20
32.505621
 30
0.0
  0
VERTEX
  5
A21D
100
AcDbEntity
  8
ALPHA
100
AcDbVertex
100
AcDb2dVertex
 10
35.148829
 20
36.815436
 30
0.0
  0
SEQEND
  5
A21E
100
AcDbEntity
  8
ALPHA
  0
POLYLINE
  5
A21F
100
AcDbEntity
  8
ALPHA
100
AcDb2dPolyline
 66
     1
 10
0.0
 20
0.0
 30
0.0
  0
VERTEX
  5
A220
100
AcDbEntity
  8
ALPHA
100
AcDbVertex
100
AcDb2dVertex
 10
31.710624
 20
32.48874
 30
0.0
  0
VERTEX
  5
A221
100
AcDbEntity
  8
ALPHA
100
AcDbVertex
100
AcDb2dVertex
 10
35.148829
 20
35.379865
 30
0.0
  0
SEQEND
  5
A222
100
AcDbEntity
  8
ALPHA
  0
POLYLINE
  5
A223
100
AcDbEntity
  8
ALPHA
100
AcDb2dPolyline
 66
     1
 10
0.0
 20
0.0
 30
0.0
  0
VERTEX
  5
A224
100
AcDbEntity
  8
ALPHA
100
AcDbVertex
100
AcDb2dVertex
 10
33.420769
 20
32.521469
 30
0.0
  0
VERTEX
  5
A225
100
AcDbEntity
  8
ALPHA
100
AcDbVertex
100
AcDb2dVertex
 10
35.031696
 20
33.876769
 30
0.0
  0
SEQEND
  5
A226
100
AcDbEntity
  8
ALPHA
  0
POLYLINE
  5
A227
100
AcDbEntity
  8
ALPHA
100
AcDb2dPolyline
 66
     1
 10
0.0
 20
0.0
 30
0.0
  0
VERTEX
  5
A228
100
AcDbEntity
  8
ALPHA
100
AcDbVertex
100
AcDb2dVertex
 10
35.129192
 20
42.284869
 30
0.0
  0
VERTEX
  5
A229
100
AcDbEntity
  8
ALPHA
100
AcDbVertex
100
AcDb2dVertex
 10
33.886202
 20
43.3308
 30
0.0
  0
SEQEND
  5
A22A
100
AcDbEntity
  8
ALPHA
  0
POLYLINE
  5
A22B
100
AcDbEntity
  8
ALPHA
100
AcDb2dPolyline
 66
     1
 10
0.0
 20
0.0
 30
0.0
  0
VERTEX
  5
A22C
100
AcDbEntity
  8
ALPHA
100
AcDbVertex
100
AcDb2dVertex
 10
35.070626
 20
40.898219
 30
0.0
  0
VERTEX
  5
A22D
100
AcDbEntity
  8
ALPHA
100
AcDbVertex
100
AcDb2dVertex
 10
32.17709
 20
43.3308
 30
0.0
  0
SEQEND
  5
A22E
100
AcDbEntity
  8
ALPHA
  0
POLYLINE
  5
A22F
100
AcDbEntity
  8
ALPHA
100
AcDb2dPolyline
 66
     1
 10
0.0
 20
0.0
 30
0.0
  0
VERTEX
  5
A230
100
AcDbEntity
  8
ALPHA
100
AcDbVertex
100
AcDb2dVertex
 10
35.110244
 20
39.428541
 30
0.0
  0
VERTEX
  5
A231
100
AcDbEntity
  8
ALPHA
100
AcDbVertex
100
AcDb2dVertex
 10
30.467978
 20
43.3308
 30
0.0
  0
SEQEND
  5
A232
100
AcDbEntity
  8
ALPHA
  0
POLYLINE
  5
A233
100
AcDbEntity
  8
ALPHA
100
AcDb2dPolyline
 66
     1
 10
0.0
 20
0.0
 30
0.0
  0
VERTEX
  5
A234
100
AcDbEntity
  8
ALPHA
100
AcDbVertex
100
AcDb2dVertex
 10
35.089229
 20
38.008128
 30
0.0
  0
VERTEX
  5
A235
100
AcDbEntity
  8
ALPHA
100
AcDbVertex
100
AcDb2dVertex
 10
28.759555
 20
43.3308
 30
0.0
  0
SEQEND
  5
A236
100
AcDbEntity
  8
ALPHA
  0
POLYLINE
  5
A237
100
AcDbEntity
  8
ALPHA
100
AcDb2dPolyline
 66
     1
 10
0.0
 20
0.0
 30
0.0
  0
VERTEX
  5
A238
100
AcDbEntity
  8
ALPHA
100
AcDbVertex
100
AcDb2dVertex
 10
35.090263
 20
36.570834
 30
0.0
  0
VERTEX
  5
A239
100
AcDbEntity
  8
ALPHA
100
AcDbVertex
100
AcDb2dVertex
 10
27.04941
 20
43.3308
 30
0.0
  0
SEQEND
  5
A23A
100
AcDbEntity
  8
ALPHA
  0
POLYLINE
  5
A23B
100
AcDbEntity
  8
ALPHA
100
AcDb2dPolyline
 66
     1
 10
0.0
 20
0.0
 30
0.0
  0
VERTEX
  5
A23C
100
AcDbEntity
  8
ALPHA
100
AcDbVertex
100
AcDb2dVertex
 10
34.876322
 20
35.313374
 30
0.0
  0
VERTEX
  5
A23D
100
AcDbEntity
  8
ALPHA
100
AcDbVertex
100
AcDb2dVertex
 10
25.341331
 20
43.3308
 30
0.0
  0
SEQEND
  5
A23E
100
AcDbEntity
  8
ALPHA
  0
POLYLINE
  5
A23F
100
AcDbEntity
  8
ALPHA
100
AcDb2dPolyline
 66
     1
 10
0.0
 20
0.0
 30
0.0
  0
VERTEX
  5
A240
100
AcDbEntity
  8
ALPHA
100
AcDbVertex
100
AcDb2dVertex
 10
34.934889
 20
33.827849
 30
0.0
  0
VERTEX
  5
A241
100
AcDbEntity
  8
ALPHA
100
AcDbVertex
100
AcDb2dVertex
 10
23.631875
 20
43.3308
 30
0.0
  0
SEQEND
  5
A242
100
AcDbEntity
  8
ALPHA
  0
POLYLINE
  5
A243
100
AcDbEntity
  8
ALPHA
100
AcDb2dPolyline
 66
     1
 10
0.0
 20
0.0
 30
0.0
  0
VERTEX
  5
A244
100
AcDbEntity
  8
ALPHA
100
AcDbVertex
100
AcDb2dVertex
 10
34.546627
 20
32.48874
 30
0.0
  0
VERTEX
  5
A245
100
AcDbEntity
  8
ALPHA
100
AcDbVertex
100
AcDb2dVertex
 10
21.923452
 20
43.3308
 30
0.0
  0
SEQEND
  5
A246
100
AcDbEntity
  8
ALPHA
  0
POLYLINE
  5
A247
100
AcDbEntity
  8
ALPHA
100
AcDb2dPolyline
 66
     1
 10
0.0
 20
0.0
 30
0.0
  0
VERTEX
  5
A248
100
AcDbEntity
  8
ALPHA
100
AcDbVertex
100
AcDb2dVertex
 10
33.051111
 20
32.537661
 30
0.0
  0
VERTEX
  5
A249
100
AcDbEntity
  8
ALPHA
100
AcDbVertex
100
AcDb2dVertex
 10
21.024971
 20
42.649361
 30
0.0
  0
SEQEND
  5
A24A
100
AcDbEntity
  8
ALPHA
  0
POLYLINE
  5
A24B
100
AcDbEntity
  8
ALPHA
100
AcDb2dPolyline
 66
     1
 10
0.0
 20
0.0
 30
0.0
  0
VERTEX
  5
A24C
100
AcDbEntity
  8
ALPHA
100
AcDbVertex
100
AcDb2dVertex
 10
31.36198
 20
32.554886
 30
0.0
  0
VERTEX
  5
A24D
100
AcDbEntity
  8
ALPHA
100
AcDbVertex
100
AcDb2dVertex
 10
20.909216
 20
41.343669
 30
0.0
  0
SEQEND
  5
A24E
100
AcDbEntity
  8
ALPHA
  0
POLYLINE
  5
A24F
100
AcDbEntity
  8
ALPHA
100
AcDb2dPolyline
 66
     1
 10
0.0
 20
0.0
 30
0.0
  0
VERTEX
  5
A250
100
AcDbEntity
  8
ALPHA
100
AcDbVertex
100
AcDb2dVertex
 10
29.730383
 20
32.521469
 30
0.0
  0
VERTEX
  5
A251
100
AcDbEntity
  8
ALPHA
100
AcDbVertex
100
AcDb2dVertex
 10
20.830668
 20
40.004905
 30
0.0
  0
SEQEND
  5
A252
100
AcDbEntity
  8
ALPHA
  0
POLYLINE
  5
A253
100
AcDbEntity
  8
ALPHA
100
AcDb2dPolyline
 66
     1
 10
0.0
 20
0.0
 30
0.0
  0
VERTEX
  5
A254
100
AcDbEntity
  8
ALPHA
100
AcDbVertex
100
AcDb2dVertex
 10
28.098786
 20
32.48874
 30
0.0
  0
VERTEX
  5
A255
100
AcDbEntity
  8
ALPHA
100
AcDbVertex
100
AcDb2dVertex
 10
20.909216
 20
38.533849
 30
0.0
  0
SEQEND
  5
A256
100
AcDbEntity
  8
ALPHA
  0
POLYLINE
  5
A257
100
AcDbEntity
  8
ALPHA
100
AcDb2dPolyline
 66
     1
 10
0.0
 20
0.0
 30
0.0
  0
VERTEX
  5
A258
100
AcDbEntity
  8
ALPHA
100
AcDbVertex
100
AcDb2dVertex
 10
26.428948
 20
32.48874
 30
0.0
  0
VERTEX
  5
A259
100
AcDbEntity
  8
ALPHA
100
AcDbVertex
100
AcDb2dVertex
 10
20.966749
 20
37.082086
 30
0.0
  0
SEQEND
  5
A25A
100
AcDbEntity
  8
ALPHA
  0
POLYLINE
  5
A25B
100
AcDbEntity
  8
ALPHA
100
AcDb2dPolyline
 66
     1
 10
0.0
 20
0.0
 30
0.0
  0
VERTEX
  5
A25C
100
AcDbEntity
  8
ALPHA
100
AcDbVertex
100
AcDb2dVertex
 10
24.739473
 20
32.505621
 30
0.0
  0
VERTEX
  5
A25D
100
AcDbEntity
  8
ALPHA
100
AcDbVertex
100
AcDb2dVertex
 10
20.889235
 20
35.742978
 30
0.0
  0
SEQEND
  5
A25E
100
AcDbEntity
  8
ALPHA
  0
POLYLINE
  5
A25F
100
AcDbEntity
  8
ALPHA
100
AcDb2dPolyline
 66
     1
 10
0.0
 20
0.0
 30
0.0
  0
VERTEX
  5
A260
100
AcDbEntity
  8
ALPHA
100
AcDbVertex
100
AcDb2dVertex
 10
23.068946
 20
32.505621
 30
0.0
  0
VERTEX
  5
A261
100
AcDbEntity
  8
ALPHA
100
AcDbVertex
100
AcDb2dVertex
 10
20.947801
 20
34.289836
 30
0.0
  0
SEQEND
  5
A262
100
AcDbEntity
  8
ALPHA
  0
POLYLINE
  5
A263
100
AcDbEntity
  8
ALPHA
100
AcDb2dPolyline
 66
     1
 10
0.0
 20
0.0
 30
0.0
  0
VERTEX
  5
A264
100
AcDbEntity
  8
ALPHA
100
AcDbVertex
100
AcDb2dVertex
 10
21.399453
 20
32.505621
 30
0.0
  0
VERTEX
  5
A265
100
AcDbEntity
  8
ALPHA
100
AcDbVertex
100
AcDb2dVertex
 10
20.870286
 20
32.951072
 30
0.0
  0
SEQEND
  5
A266
100
AcDbEntity
  8
ALPHA
  0
POLYLINE
  5
A267
100
AcDbEntity
  8
ALPHA
100
AcDb2dPolyline
 66
     1
 10
0.0
 20
0.0
 30
0.0
  0
VERTEX
  5
A268
100
AcDbEntity
  8
ALPHA
100
AcDbVertex
100
AcDb2dVertex
 10
0.368523
 20
38.204843
 30
0.0
  0
VERTEX
  5
A269
100
AcDbEntity
  8
ALPHA
100
AcDbVertex
100
AcDb2dVertex
 10
1.646309
 20
39.277646
 30
0.0
  0
SEQEND
  5
A26A
100
AcDbEntity
  8
ALPHA
  0
POLYLINE
  5
A26B
100
AcDbEntity
  8
ALPHA
100
AcDb2dPolyline
 66
     1
 10
0.0
 20
0.0
 30
0.0
  0
VERTEX
  5
A26C
100
AcDbEntity
  8
ALPHA
100
AcDbVertex
100
AcDb2dVertex
 10
0.329938
 20
36.734132
 30
0.0
  0
VERTEX
  5
A26D
100
AcDbEntity
  8
ALPHA
100
AcDbVertex
100
AcDb2dVertex
 10
3.354388
 20
39.277646
 30
0.0
  0
SEQEND
  5
A26E
100
AcDbEntity
  8
ALPHA
  0
POLYLINE
  5
A26F
100
AcDbEntity
  8
ALPHA
100
AcDb2dPolyline
 66
     1
 10
0.0
 20
0.0
 30
0.0
  0
VERTEX
  5
A270
100
AcDbEntity
  8
ALPHA
100
AcDbVertex
100
AcDb2dVertex
 10
1.567761
 20
36.338979
 30
0.0
  0
VERTEX
  5
A271
100
AcDbEntity
  8
ALPHA
100
AcDbVertex
100
AcDb2dVertex
 10
5.063844
 20
39.277646
 30
0.0
  0
SEQEND
  5
A272
100
AcDbEntity
  8
ALPHA
  0
POLYLINE
  5
A273
100
AcDbEntity
  8
ALPHA
100
AcDb2dPolyline
 66
     1
 10
0.0
 20
0.0
 30
0.0
  0
VERTEX
  5
A274
100
AcDbEntity
  8
ALPHA
100
AcDbVertex
100
AcDb2dVertex
 10
3.276184
 20
36.338979
 30
0.0
  0
VERTEX
  5
A275
100
AcDbEntity
  8
ALPHA
100
AcDbVertex
100
AcDb2dVertex
 10
6.772267
 20
39.277646
 30
0.0
  0
SEQEND
  5
A276
100
AcDbEntity
  8
ALPHA
  0
POLYLINE
  5
A277
100
AcDbEntity
  8
ALPHA
100
AcDb2dPolyline
 66
     1
 10
0.0
 20
0.0
 30
0.0
  0
VERTEX
  5
A278
100
AcDbEntity
  8
ALPHA
100
AcDbVertex
100
AcDb2dVertex
 10
4.985296
 20
36.338979
 30
0.0
  0
VERTEX
  5
A279
100
AcDbEntity
  8
ALPHA
100
AcDbVertex
100
AcDb2dVertex
 10
8.482068
 20
39.277646
 30
0.0
  0
SEQEND
  5
A27A
100
AcDbEntity
  8
ALPHA
  0
POLYLINE
  5
A27B
100
AcDbEntity
  8
ALPHA
100
AcDb2dPolyline
 66
     1
 10
0.0
 20
0.0
 30
0.0
  0
VERTEX
  5
A27C
100
AcDbEntity
  8
ALPHA
100
AcDbVertex
100
AcDb2dVertex
 10
6.694752
 20
36.338979
 30
0.0
  0
VERTEX
  5
A27D
100
AcDbEntity
  8
ALPHA
100
AcDbVertex
100
AcDb2dVertex
 10
10.190835
 20
39.277646
 30
0.0
  0
SEQEND
  5
A27E
100
AcDbEntity
  8
ALPHA
  0
POLYLINE
  5
A27F
100
AcDbEntity
  8
ALPHA
100
AcDb2dPolyline
 66
     1
 10
0.0
 20
0.0
 30
0.0
  0
VERTEX
  5
A280
100
AcDbEntity
  8
ALPHA
100
AcDbVertex
100
AcDb2dVertex
 10
8.403864
 20
36.338979
 30
0.0
  0
VERTEX
  5
A281
100
AcDbEntity
  8
ALPHA
100
AcDbVertex
100
AcDb2dVertex
 10
11.899602
 20
39.277646
 30
0.0
  0
SEQEND
  5
A282
100
AcDbEntity
  8
ALPHA
  0
POLYLINE
  5
A283
100
AcDbEntity
  8
ALPHA
100
AcDb2dPolyline
 66
     1
 10
0.0
 20
0.0
 30
0.0
  0
VERTEX
  5
A284
100
AcDbEntity
  8
ALPHA
100
AcDbVertex
100
AcDb2dVertex
 10
10.112287
 20
36.338979
 30
0.0
  0
VERTEX
  5
A285
100
AcDbEntity
  8
ALPHA
100
AcDbVertex
100
AcDb2dVertex
 10
13.608025
 20
39.277646
 30
0.0
  0
SEQEND
  5
A286
100
AcDbEntity
  8
ALPHA
  0
POLYLINE
  5
A287
100
AcDbEntity
  8
ALPHA
100
AcDb2dPolyline
 66
     1
 10
0.0
 20
0.0
 30
0.0
  0
VERTEX
  5
A288
100
AcDbEntity
  8
ALPHA
100
AcDbVertex
100
AcDb2dVertex
 10
11.822432
 20
36.338979
 30
0.0
  0
VERTEX
  5
A289
100
AcDbEntity
  8
ALPHA
100
AcDbVertex
100
AcDb2dVertex
 10
14.696331
 20
38.756058
 30
0.0
  0
SEQEND
  5
A28A
100
AcDbEntity
  8
ALPHA
  0
POLYLINE
  5
A28B
100
AcDbEntity
  8
ALPHA
100
AcDb2dPolyline
 66
     1
 10
0.0
 20
0.0
 30
0.0
  0
VERTEX
  5
A28C
100
AcDbEntity
  8
ALPHA
100
AcDbVertex
100
AcDb2dVertex
 10
13.530855
 20
36.338979
 30
0.0
  0
VERTEX
  5
A28D
100
AcDbEntity
  8
ALPHA
100
AcDbVertex
100
AcDb2dVertex
 10
14.773156
 20
37.383877
 30
0.0
  0
SEQEND
  5
A28E
100
AcDbEntity
  8
ALPHA
  0
POLYLINE
  5
A28F
100
AcDbEntity
  8
ALPHA
100
AcDb2dPolyline
 66
     1
 10
0.0
 20
0.0
 30
0.0
  0
VERTEX
  5
A290
100
AcDbEntity
  8
ALPHA
100
AcDbVertex
100
AcDb2dVertex
 10
14.696331
 20
37.972299
 30
0.0
  0
VERTEX
  5
A291
100
AcDbEntity
  8
ALPHA
100
AcDbVertex
100
AcDb2dVertex
 10
13.143282
 20
39.277646
 30
0.0
  0
SEQEND
  5
A292
100
AcDbEntity
  8
ALPHA
  0
POLYLINE
  5
A293
100
AcDbEntity
  8
ALPHA
100
AcDb2dPolyline
 66
     1
 10
0.0
 20
0.0
 30
0.0
  0
VERTEX
  5
A294
100
AcDbEntity
  8
ALPHA
100
AcDbVertex
100
AcDb2dVertex
 10
14.617783
 20
36.600462
 30
0.0
  0
VERTEX
  5
A295
100
AcDbEntity
  8
ALPHA
100
AcDbVertex
100
AcDb2dVertex
 10
11.433136
 20
39.277646
 30
0.0
  0
SEQEND
  5
A296
100
AcDbEntity
  8
ALPHA
  0
POLYLINE
  5
A297
100
AcDbEntity
  8
ALPHA
100
AcDb2dPolyline
 66
     1
 10
0.0
 20
0.0
 30
0.0
  0
VERTEX
  5
A298
100
AcDbEntity
  8
ALPHA
100
AcDbVertex
100
AcDb2dVertex
 10
13.220796
 20
36.338979
 30
0.0
  0
VERTEX
  5
A299
100
AcDbEntity
  8
ALPHA
100
AcDbVertex
100
AcDb2dVertex
 10
9.724714
 20
39.277646
 30
0.0
  0
SEQEND
  5
A29A
100
AcDbEntity
  8
ALPHA
  0
POLYLINE
  5
A29B
100
AcDbEntity
  8
ALPHA
100
AcDb2dPolyline
 66
     1
 10
0.0
 20
0.0
 30
0.0
  0
VERTEX
  5
A29C
100
AcDbEntity
  8
ALPHA
100
AcDbVertex
100
AcDb2dVertex
 10
11.510651
 20
36.338979
 30
0.0
  0
VERTEX
  5
A29D
100
AcDbEntity
  8
ALPHA
100
AcDbVertex
100
AcDb2dVertex
 10
8.015602
 20
39.277646
 30
0.0
  0
SEQEND
  5
A29E
100
AcDbEntity
  8
ALPHA
  0
POLYLINE
  5
A29F
100
AcDbEntity
  8
ALPHA
100
AcDb2dPolyline
 66
     1
 10
0.0
 20
0.0
 30
0.0
  0
VERTEX
  5
A2A0
100
AcDbEntity
  8
ALPHA
100
AcDbVertex
100
AcDb2dVertex
 10
9.802917
 20
36.338979
 30
0.0
  0
VERTEX
  5
A2A1
100
AcDbEntity
  8
ALPHA
100
AcDbVertex
100
AcDb2dVertex
 10
6.306145
 20
39.277646
 30
0.0
  0
SEQEND
  5
A2A2
100
AcDbEntity
  8
ALPHA
  0
POLYLINE
  5
A2A3
100
AcDbEntity
  8
ALPHA
100
AcDb2dPolyline
 66
     1
 10
0.0
 20
0.0
 30
0.0
  0
VERTEX
  5
A2A4
100
AcDbEntity
  8
ALPHA
100
AcDbVertex
100
AcDb2dVertex
 10
8.093116
 20
36.338979
 30
0.0
  0
VERTEX
  5
A2A5
100
AcDbEntity
  8
ALPHA
100
AcDbVertex
100
AcDb2dVertex
 10
4.597033
 20
39.277646
 30
0.0
  0
SEQEND
  5
A2A6
100
AcDbEntity
  8
ALPHA
  0
POLYLINE
  5
A2A7
100
AcDbEntity
  8
ALPHA
100
AcDb2dPolyline
 66
     1
 10
0.0
 20
0.0
 30
0.0
  0
VERTEX
  5
A2A8
100
AcDbEntity
  8
ALPHA
100
AcDbVertex
100
AcDb2dVertex
 10
6.384693
 20
36.338979
 30
0.0
  0
VERTEX
  5
A2A9
100
AcDbEntity
  8
ALPHA
100
AcDbVertex
100
AcDb2dVertex
 10
2.888611
 20
39.277646
 30
0.0
  0
SEQEND
  5
A2AA
100
AcDbEntity
  8
ALPHA
  0
POLYLINE
  5
A2AB
100
AcDbEntity
  8
ALPHA
100
AcDb2dPolyline
 66
     1
 10
0.0
 20
0.0
 30
0.0
  0
VERTEX
  5
A2AC
100
AcDbEntity
  8
ALPHA
100
AcDbVertex
100
AcDb2dVertex
 10
4.675582
 20
36.338979
 30
0.0
  0
VERTEX
  5
A2AD
100
AcDbEntity
  8
ALPHA
100
AcDbVertex
100
AcDb2dVertex
 10
1.179154
 20
39.277646
 30
0.0
  0
SEQEND
  5
A2AE
100
AcDbEntity
  8
ALPHA
  0
POLYLINE
  5
A2AF
100
AcDbEntity
  8
ALPHA
100
AcDb2dPolyline
 66
     1
 10
0.0
 20
0.0
 30
0.0
  0
VERTEX
  5
A2B0
100
AcDbEntity
  8
ALPHA
100
AcDbVertex
100
AcDb2dVertex
 10
2.966125
 20
36.338979
 30
0.0
  0
VERTEX
  5
A2B1
100
AcDbEntity
  8
ALPHA
100
AcDbVertex
100
AcDb2dVertex
 10
0.281018
 20
38.59655
 30
0.0
  0
SEQEND
  5
A2B2
100
AcDbEntity
  8
ALPHA
  0
POLYLINE
  5
A2B3
100
AcDbEntity
  8
ALPHA
100
AcDb2dPolyline
 66
     1
 10
0.0
 20
0.0
 30
0.0
  0
VERTEX
  5
A2B4
100
AcDbEntity
  8
ALPHA
100
AcDbVertex
100
AcDb2dVertex
 10
1.257702
 20
36.338979
 30
0.0
  0
VERTEX
  5
A2B5
100
AcDbEntity
  8
ALPHA
100
AcDbVertex
100
AcDb2dVertex
 10
0.217973
 20
37.212655
 30
0.0
  0
SEQEND
  5
A2B6
100
AcDbEntity
  8
ALPHA
  0
POLYLINE
  5
A2B7
100
AcDbEntity
  8
ALPHA
100
AcDb2dPolyline
 66
     1
 10
0.0
 20
0.0
 30
0.0
  0
VERTEX
  5
A2B8
100
AcDbEntity
  8
ALPHA
100
AcDbVertex
100
AcDb2dVertex
 10
0.327182
 20
42.318287
 30
0.0
  0
VERTEX
  5
A2B9
100
AcDbEntity
  8
ALPHA
100
AcDbVertex
100
AcDb2dVertex
 10
1.603934
 20
43.392468
 30
0.0
  0
SEQEND
  5
A2BA
100
AcDbEntity
  8
ALPHA
  0
POLYLINE
  5
A2BB
100
AcDbEntity
  8
ALPHA
100
AcDb2dPolyline
 66
     1
 10
0.0
 20
0.0
 30
0.0
  0
VERTEX
  5
A2BC
100
AcDbEntity
  8
ALPHA
100
AcDbVertex
100
AcDb2dVertex
 10
0.288597
 20
40.849298
 30
0.0
  0
VERTEX
  5
A2BD
100
AcDbEntity
  8
ALPHA
100
AcDbVertex
100
AcDb2dVertex
 10
3.312702
 20
43.392468
 30
0.0
  0
SEQEND
  5
A2BE
100
AcDbEntity
  8
ALPHA
  0
POLYLINE
  5
A2BF
100
AcDbEntity
  8
ALPHA
100
AcDb2dPolyline
 66
     1
 10
0.0
 20
0.0
 30
0.0
  0
VERTEX
  5
A2C0
100
AcDbEntity
  8
ALPHA
100
AcDbVertex
100
AcDb2dVertex
 10
1.52642
 20
40.452079
 30
0.0
  0
VERTEX
  5
A2C1
100
AcDbEntity
  8
ALPHA
100
AcDbVertex
100
AcDb2dVertex
 10
5.022158
 20
43.392468
 30
0.0
  0
SEQEND
  5
A2C2
100
AcDbEntity
  8
ALPHA
  0
POLYLINE
  5
A2C3
100
AcDbEntity
  8
ALPHA
100
AcDb2dPolyline
 66
     1
 10
0.0
 20
0.0
 30
0.0
  0
VERTEX
  5
A2C4
100
AcDbEntity
  8
ALPHA
100
AcDbVertex
100
AcDb2dVertex
 10
3.234498
 20
40.452079
 30
0.0
  0
VERTEX
  5
A2C5
100
AcDbEntity
  8
ALPHA
100
AcDbVertex
100
AcDb2dVertex
 10
6.730581
 20
43.392468
 30
0.0
  0
SEQEND
  5
A2C6
100
AcDbEntity
  8
ALPHA
  0
POLYLINE
  5
A2C7
100
AcDbEntity
  8
ALPHA
100
AcDb2dPolyline
 66
     1
 10
0.0
 20
0.0
 30
0.0
  0
VERTEX
  5
A2C8
100
AcDbEntity
  8
ALPHA
100
AcDbVertex
100
AcDb2dVertex
 10
4.943955
 20
40.452079
 30
0.0
  0
VERTEX
  5
A2C9
100
AcDbEntity
  8
ALPHA
100
AcDbVertex
100
AcDb2dVertex
 10
8.439693
 20
43.392468
 30
0.0
  0
SEQEND
  5
A2CA
100
AcDbEntity
  8
ALPHA
  0
POLYLINE
  5
A2CB
100
AcDbEntity
  8
ALPHA
100
AcDb2dPolyline
 66
     1
 10
0.0
 20
0.0
 30
0.0
  0
VERTEX
  5
A2CC
100
AcDbEntity
  8
ALPHA
100
AcDbVertex
100
AcDb2dVertex
 10
6.653066
 20
40.452079
 30
0.0
  0
VERTEX
  5
A2CD
100
AcDbEntity
  8
ALPHA
100
AcDbVertex
100
AcDb2dVertex
 10
10.149149
 20
43.392468
 30
0.0
  0
SEQEND
  5
A2CE
100
AcDbEntity
  8
ALPHA
  0
POLYLINE
  5
A2CF
100
AcDbEntity
  8
ALPHA
100
AcDb2dPolyline
 66
     1
 10
0.0
 20
0.0
 30
0.0
  0
VERTEX
  5
A2D0
100
AcDbEntity
  8
ALPHA
100
AcDbVertex
100
AcDb2dVertex
 10
8.362523
 20
40.452079
 30
0.0
  0
VERTEX
  5
A2D1
100
AcDbEntity
  8
ALPHA
100
AcDbVertex
100
AcDb2dVertex
 10
11.858261
 20
43.392468
 30
0.0
  0
SEQEND
  5
A2D2
100
AcDbEntity
  8
ALPHA
  0
POLYLINE
  5
A2D3
100
AcDbEntity
  8
ALPHA
100
AcDb2dPolyline
 66
     1
 10
0.0
 20
0.0
 30
0.0
  0
VERTEX
  5
A2D4
100
AcDbEntity
  8
ALPHA
100
AcDbVertex
100
AcDb2dVertex
 10
10.070946
 20
40.452079
 30
0.0
  0
VERTEX
  5
A2D5
100
AcDbEntity
  8
ALPHA
100
AcDbVertex
100
AcDb2dVertex
 10
13.566684
 20
43.392468
 30
0.0
  0
SEQEND
  5
A2D6
100
AcDbEntity
  8
ALPHA
  0
POLYLINE
  5
A2D7
100
AcDbEntity
  8
ALPHA
100
AcDb2dPolyline
 66
     1
 10
0.0
 20
0.0
 30
0.0
  0
VERTEX
  5
A2D8
100
AcDbEntity
  8
ALPHA
100
AcDbVertex
100
AcDb2dVertex
 10
11.780058
 20
40.452079
 30
0.0
  0
VERTEX
  5
A2D9
100
AcDbEntity
  8
ALPHA
100
AcDbVertex
100
AcDb2dVertex
 10
14.653612
 20
42.869158
 30
0.0
  0
SEQEND
  5
A2DA
100
AcDbEntity
  8
ALPHA
  0
POLYLINE
  5
A2DB
100
AcDbEntity
  8
ALPHA
100
AcDb2dPolyline
 66
     1
 10
0.0
 20
0.0
 30
0.0
  0
VERTEX
  5
A2DC
100
AcDbEntity
  8
ALPHA
100
AcDbVertex
100
AcDb2dVertex
 10
13.489169
 20
40.452079
 30
0.0
  0
VERTEX
  5
A2DD
100
AcDbEntity
  8
ALPHA
100
AcDbVertex
100
AcDb2dVertex
 10
14.731815
 20
41.49801
 30
0.0
  0
SEQEND
  5
A2DE
100
AcDbEntity
  8
ALPHA
  0
POLYLINE
  5
A2DF
100
AcDbEntity
  8
ALPHA
100
AcDb2dPolyline
 66
     1
 10
0.0
 20
0.0
 30
0.0
  0
VERTEX
  5
A2E0
100
AcDbEntity
  8
ALPHA
100
AcDbVertex
100
AcDb2dVertex
 10
14.653612
 20
41.955174
 30
0.0
  0
VERTEX
  5
A2E1
100
AcDbEntity
  8
ALPHA
100
AcDbVertex
100
AcDb2dVertex
 10
13.100563
 20
43.261899
 30
0.0
  0
SEQEND
  5
A2E2
100
AcDbEntity
  8
ALPHA
  0
POLYLINE
  5
A2E3
100
AcDbEntity
  8
ALPHA
100
AcDb2dPolyline
 66
     1
 10
0.0
 20
0.0
 30
0.0
  0
VERTEX
  5
A2E4
100
AcDbEntity
  8
ALPHA
100
AcDbVertex
100
AcDb2dVertex
 10
14.576442
 20
40.58437
 30
0.0
  0
VERTEX
  5
A2E5
100
AcDbEntity
  8
ALPHA
100
AcDbVertex
100
AcDb2dVertex
 10
11.391795
 20
43.261899
 30
0.0
  0
SEQEND
  5
A2E6
100
AcDbEntity
  8
ALPHA
  0
POLYLINE
  5
A2E7
100
AcDbEntity
  8
ALPHA
100
AcDb2dPolyline
 66
     1
 10
0.0
 20
0.0
 30
0.0
  0
VERTEX
  5
A2E8
100
AcDbEntity
  8
ALPHA
100
AcDbVertex
100
AcDb2dVertex
 10
13.179111
 20
40.321854
 30
0.0
  0
VERTEX
  5
A2E9
100
AcDbEntity
  8
ALPHA
100
AcDbVertex
100
AcDb2dVertex
 10
9.683372
 20
43.261899
 30
0.0
  0
SEQEND
  5
A2EA
100
AcDbEntity
  8
ALPHA
  0
POLYLINE
  5
A2EB
100
AcDbEntity
  8
ALPHA
100
AcDb2dPolyline
 66
     1
 10
0.0
 20
0.0
 30
0.0
  0
VERTEX
  5
A2EC
100
AcDbEntity
  8
ALPHA
100
AcDbVertex
100
AcDb2dVertex
 10
11.468965
 20
40.321854
 30
0.0
  0
VERTEX
  5
A2ED
100
AcDbEntity
  8
ALPHA
100
AcDbVertex
100
AcDb2dVertex
 10
7.974261
 20
43.261899
 30
0.0
  0
SEQEND
  5
A2EE
100
AcDbEntity
  8
ALPHA
  0
POLYLINE
  5
A2EF
100
AcDbEntity
  8
ALPHA
100
AcDb2dPolyline
 66
     1
 10
0.0
 20
0.0
 30
0.0
  0
VERTEX
  5
A2F0
100
AcDbEntity
  8
ALPHA
100
AcDbVertex
100
AcDb2dVertex
 10
9.760543
 20
40.321854
 30
0.0
  0
VERTEX
  5
A2F1
100
AcDbEntity
  8
ALPHA
100
AcDbVertex
100
AcDb2dVertex
 10
6.264804
 20
43.261899
 30
0.0
  0
SEQEND
  5
A2F2
100
AcDbEntity
  8
ALPHA
  0
POLYLINE
  5
A2F3
100
AcDbEntity
  8
ALPHA
100
AcDb2dPolyline
 66
     1
 10
0.0
 20
0.0
 30
0.0
  0
VERTEX
  5
A2F4
100
AcDbEntity
  8
ALPHA
100
AcDbVertex
100
AcDb2dVertex
 10
8.051431
 20
40.321854
 30
0.0
  0
VERTEX
  5
A2F5
100
AcDbEntity
  8
ALPHA
100
AcDbVertex
100
AcDb2dVertex
 10
4.555692
 20
43.261899
 30
0.0
  0
SEQEND
  5
A2F6
100
AcDbEntity
  8
ALPHA
  0
POLYLINE
  5
A2F7
100
AcDbEntity
  8
ALPHA
100
AcDb2dPolyline
 66
     1
 10
0.0
 20
0.0
 30
0.0
  0
VERTEX
  5
A2F8
100
AcDbEntity
  8
ALPHA
100
AcDbVertex
100
AcDb2dVertex
 10
6.343008
 20
40.321854
 30
0.0
  0
VERTEX
  5
A2F9
100
AcDbEntity
  8
ALPHA
100
AcDbVertex
100
AcDb2dVertex
 10
2.847269
 20
43.261899
 30
0.0
  0
SEQEND
  5
A2FA
100
AcDbEntity
  8
ALPHA
  0
POLYLINE
  5
A2FB
100
AcDbEntity
  8
ALPHA
100
AcDb2dPolyline
 66
     1
 10
0.0
 20
0.0
 30
0.0
  0
VERTEX
  5
A2FC
100
AcDbEntity
  8
ALPHA
100
AcDbVertex
100
AcDb2dVertex
 10
4.633896
 20
40.321854
 30
0.0
  0
VERTEX
  5
A2FD
100
AcDbEntity
  8
ALPHA
100
AcDbVertex
100
AcDb2dVertex
 10
1.13678
 20
43.261899
 30
0.0
  0
SEQEND
  5
A2FE
100
AcDbEntity
  8
ALPHA
  0
POLYLINE
  5
A2FF
100
AcDbEntity
  8
ALPHA
100
AcDb2dPolyline
 66
     1
 10
0.0
 20
0.0
 30
0.0
  0
VERTEX
  5
A300
100
AcDbEntity
  8
ALPHA
100
AcDbVertex
100
AcDb2dVertex
 10
2.924784
 20
40.321854
 30
0.0
  0
VERTEX
  5
A301
100
AcDbEntity
  8
ALPHA
100
AcDbVertex
100
AcDb2dVertex
 10
0.239677
 20
42.579425
 30
0.0
  0
SEQEND
  5
A302
100
AcDbEntity
  8
ALPHA
  0
POLYLINE
  5
A303
100
AcDbEntity
  8
ALPHA
100
AcDb2dPolyline
 66
     1
 10
0.0
 20
0.0
 30
0.0
  0
VERTEX
  5
A304
100
AcDbEntity
  8
ALPHA
100
AcDbVertex
100
AcDb2dVertex
 10
1.215328
 20
40.321854
 30
0.0
  0
VERTEX
  5
A305
100
AcDbEntity
  8
ALPHA
100
AcDbVertex
100
AcDb2dVertex
 10
0.176631
 20
41.195875
 30
0.0
  0
SEQEND
  5
A306
100
AcDbEntity
  8
ALPHA
  0
POLYLINE
  5
A307
100
AcDbEntity
  8
ALPHA
100
AcDb2dPolyline
 66
     1
 10
0.0
 20
0.0
 30
0.0
  0
VERTEX
  5
A308
100
AcDbEntity
  8
ALPHA
100
AcDbVertex
100
AcDb2dVertex
 10
0.246911
 20
39.420617
 30
0.0
  0
VERTEX
  5
A309
100
AcDbEntity
  8
ALPHA
100
AcDbVertex
100
AcDb2dVertex
 10
14.851705
 20
39.420617
 30
0.0
  0
SEQEND
  5
A30A
100
AcDbEntity
  8
ALPHA
  0
POLYLINE
  5
A30B
100
AcDbEntity
  8
ALPHA
100
AcDb2dPolyline
 66
     1
 10
0.0
 20
0.0
 30
0.0
  0
VERTEX
  5
A30C
100
AcDbEntity
  8
ALPHA
100
AcDbVertex
100
AcDb2dVertex
 10
0.246911
 20
40.138919
 30
0.0
  0
VERTEX
  5
A30D
100
AcDbEntity
  8
ALPHA
100
AcDbVertex
100
AcDb2dVertex
 10
14.851705
 20
40.138919
 30
0.0
  0
SEQEND
  5
A30E
100
AcDbEntity
  8
ALPHA
  0
POLYLINE
  5
A30F
100
AcDbEntity
  8
ALPHA
100
AcDb2dPolyline
 66
     1
 10
0.0
 20
0.0
 30
0.0
  0
VERTEX
  5
A310
100
AcDbEntity
  8
ALPHA
100
AcDbVertex
100
AcDb2dVertex
 10
12.294755
 20
2.703134
 30
0.0
  0
VERTEX
  5
A311
100
AcDbEntity
  8
ALPHA
100
AcDbVertex
100
AcDb2dVertex
 10
23.488559
 20
2.703134
 30
0.0
  0
SEQEND
  5
A312
100
AcDbEntity
  8
ALPHA
  0
POLYLINE
  5
A313
100
AcDbEntity
  8
ALPHA
100
AcDb2dPolyline
 66
     1
 10
0.0
 20
0.0
 30
0.0
  0
VERTEX
  5
A314
100
AcDbEntity
  8
ALPHA
100
AcDbVertex
100
AcDb2dVertex
 10
10.895013
 20
15.861676
 30
0.0
  0
VERTEX
  5
A315
100
AcDbEntity
  8
ALPHA
100
AcDbVertex
100
AcDb2dVertex
 10
12.099418
 20
17.111901
 30
0.0
  0
SEQEND
  5
A316
100
AcDbEntity
  8
ALPHA
  0
POLYLINE
  5
A317
100
AcDbEntity
  8
ALPHA
100
AcDb2dPolyline
 66
     1
 10
0.0
 20
0.0
 30
0.0
  0
VERTEX
  5
A318
100
AcDbEntity
  8
ALPHA
100
AcDbVertex
100
AcDb2dVertex
 10
10.85815
 20
14.152909
 30
0.0
  0
VERTEX
  5
A319
100
AcDbEntity
  8
ALPHA
100
AcDbVertex
100
AcDb2dVertex
 10
13.71
 20
17.111901
 30
0.0
  0
SEQEND
  5
A31A
100
AcDbEntity
  8
ALPHA
  0
POLYLINE
  5
A31B
100
AcDbEntity
  8
ALPHA
100
AcDb2dPolyline
 66
     1
 10
0.0
 20
0.0
 30
0.0
  0
VERTEX
  5
A31C
100
AcDbEntity
  8
ALPHA
100
AcDbVertex
100
AcDb2dVertex
 10
12.026382
 20
13.689888
 30
0.0
  0
VERTEX
  5
A31D
100
AcDbEntity
  8
ALPHA
100
AcDbVertex
100
AcDb2dVertex
 10
15.322305
 20
17.111901
 30
0.0
  0
SEQEND
  5
A31E
100
AcDbEntity
  8
ALPHA
  0
POLYLINE
  5
A31F
100
AcDbEntity
  8
ALPHA
100
AcDb2dPolyline
 66
     1
 10
0.0
 20
0.0
 30
0.0
  0
VERTEX
  5
A320
100
AcDbEntity
  8
ALPHA
100
AcDbVertex
100
AcDb2dVertex
 10
13.637309
 20
13.689888
 30
0.0
  0
VERTEX
  5
A321
100
AcDbEntity
  8
ALPHA
100
AcDbVertex
100
AcDb2dVertex
 10
16.933231
 20
17.111901
 30
0.0
  0
SEQEND
  5
A322
100
AcDbEntity
  8
ALPHA
  0
POLYLINE
  5
A323
100
AcDbEntity
  8
ALPHA
100
AcDb2dPolyline
 66
     1
 10
0.0
 20
0.0
 30
0.0
  0
VERTEX
  5
A324
100
AcDbEntity
  8
ALPHA
100
AcDbVertex
100
AcDb2dVertex
 10
15.248235
 20
13.689888
 30
0.0
  0
VERTEX
  5
A325
100
AcDbEntity
  8
ALPHA
100
AcDbVertex
100
AcDb2dVertex
 10
18.544847
 20
17.111901
 30
0.0
  0
SEQEND
  5
A326
100
AcDbEntity
  8
ALPHA
  0
POLYLINE
  5
A327
100
AcDbEntity
  8
ALPHA
100
AcDb2dPolyline
 66
     1
 10
0.0
 20
0.0
 30
0.0
  0
VERTEX
  5
A328
100
AcDbEntity
  8
ALPHA
100
AcDbVertex
100
AcDb2dVertex
 10
16.859851
 20
13.689888
 30
0.0
  0
VERTEX
  5
A329
100
AcDbEntity
  8
ALPHA
100
AcDbVertex
100
AcDb2dVertex
 10
20.155774
 20
17.111901
 30
0.0
  0
SEQEND
  5
A32A
100
AcDbEntity
  8
ALPHA
  0
POLYLINE
  5
A32B
100
AcDbEntity
  8
ALPHA
100
AcDb2dPolyline
 66
     1
 10
0.0
 20
0.0
 30
0.0
  0
VERTEX
  5
A32C
100
AcDbEntity
  8
ALPHA
100
AcDbVertex
100
AcDb2dVertex
 10
18.470777
 20
13.689888
 30
0.0
  0
VERTEX
  5
A32D
100
AcDbEntity
  8
ALPHA
100
AcDbVertex
100
AcDb2dVertex
 10
21.767045
 20
17.111901
 30
0.0
  0
SEQEND
  5
A32E
100
AcDbEntity
  8
ALPHA
  0
POLYLINE
  5
A32F
100
AcDbEntity
  8
ALPHA
100
AcDb2dPolyline
 66
     1
 10
0.0
 20
0.0
 30
0.0
  0
VERTEX
  5
A330
100
AcDbEntity
  8
ALPHA
100
AcDbVertex
100
AcDb2dVertex
 10
20.082049
 20
13.689888
 30
0.0
  0
VERTEX
  5
A331
100
AcDbEntity
  8
ALPHA
100
AcDbVertex
100
AcDb2dVertex
 10
23.378316
 20
17.111901
 30
0.0
  0
SEQEND
  5
A332
100
AcDbEntity
  8
ALPHA
  0
POLYLINE
  5
A333
100
AcDbEntity
  8
ALPHA
100
AcDb2dPolyline
 66
     1
 10
0.0
 20
0.0
 30
0.0
  0
VERTEX
  5
A334
100
AcDbEntity
  8
ALPHA
100
AcDbVertex
100
AcDb2dVertex
 10
21.693664
 20
13.689888
 30
0.0
  0
VERTEX
  5
A335
100
AcDbEntity
  8
ALPHA
100
AcDbVertex
100
AcDb2dVertex
 10
24.403576
 20
16.504531
 30
0.0
  0
SEQEND
  5
A336
100
AcDbEntity
  8
ALPHA
  0
POLYLINE
  5
A337
100
AcDbEntity
  8
ALPHA
100
AcDb2dPolyline
 66
     1
 10
0.0
 20
0.0
 30
0.0
  0
VERTEX
  5
A338
100
AcDbEntity
  8
ALPHA
100
AcDbVertex
100
AcDb2dVertex
 10
23.304591
 20
13.689888
 30
0.0
  0
VERTEX
  5
A339
100
AcDbEntity
  8
ALPHA
100
AcDbVertex
100
AcDb2dVertex
 10
24.476612
 20
14.907385
 30
0.0
  0
SEQEND
  5
A33A
100
AcDbEntity
  8
ALPHA
  0
POLYLINE
  5
A33B
100
AcDbEntity
  8
ALPHA
100
AcDb2dPolyline
 66
     1
 10
0.0
 20
0.0
 30
0.0
  0
VERTEX
  5
A33C
100
AcDbEntity
  8
ALPHA
100
AcDbVertex
100
AcDb2dVertex
 10
24.403576
 20
15.591581
 30
0.0
  0
VERTEX
  5
A33D
100
AcDbEntity
  8
ALPHA
100
AcDbVertex
100
AcDb2dVertex
 10
22.938722
 20
17.111901
 30
0.0
  0
SEQEND
  5
A33E
100
AcDbEntity
  8
ALPHA
  0
POLYLINE
  5
A33F
100
AcDbEntity
  8
ALPHA
100
AcDb2dPolyline
 66
     1
 10
0.0
 20
0.0
 30
0.0
  0
VERTEX
  5
A340
100
AcDbEntity
  8
ALPHA
100
AcDbVertex
100
AcDb2dVertex
 10
24.33054
 20
13.995468
 30
0.0
  0
VERTEX
  5
A341
100
AcDbEntity
  8
ALPHA
100
AcDbVertex
100
AcDb2dVertex
 10
21.327451
 20
17.111901
 30
0.0
  0
SEQEND
  5
A342
100
AcDbEntity
  8
ALPHA
  0
POLYLINE
  5
A343
100
AcDbEntity
  8
ALPHA
100
AcDb2dPolyline
 66
     1
 10
0.0
 20
0.0
 30
0.0
  0
VERTEX
  5
A344
100
AcDbEntity
  8
ALPHA
100
AcDbVertex
100
AcDb2dVertex
 10
23.011413
 20
13.689888
 30
0.0
  0
VERTEX
  5
A345
100
AcDbEntity
  8
ALPHA
100
AcDbVertex
100
AcDb2dVertex
 10
19.716179
 20
17.111901
 30
0.0
  0
SEQEND
  5
A346
100
AcDbEntity
  8
ALPHA
  0
POLYLINE
  5
A347
100
AcDbEntity
  8
ALPHA
100
AcDb2dPolyline
 66
     1
 10
0.0
 20
0.0
 30
0.0
  0
VERTEX
  5
A348
100
AcDbEntity
  8
ALPHA
100
AcDbVertex
100
AcDb2dVertex
 10
21.401176
 20
13.689888
 30
0.0
  0
VERTEX
  5
A349
100
AcDbEntity
  8
ALPHA
100
AcDbVertex
100
AcDb2dVertex
 10
18.104564
 20
17.111901
 30
0.0
  0
SEQEND
  5
A34A
100
AcDbEntity
  8
ALPHA
  0
POLYLINE
  5
A34B
100
AcDbEntity
  8
ALPHA
100
AcDb2dPolyline
 66
     1
 10
0.0
 20
0.0
 30
0.0
  0
VERTEX
  5
A34C
100
AcDbEntity
  8
ALPHA
100
AcDbVertex
100
AcDb2dVertex
 10
19.789216
 20
13.689888
 30
0.0
  0
VERTEX
  5
A34D
100
AcDbEntity
  8
ALPHA
100
AcDbVertex
100
AcDb2dVertex
 10
16.492948
 20
17.111901
 30
0.0
  0
SEQEND
  5
A34E
100
AcDbEntity
  8
ALPHA
  0
POLYLINE
  5
A34F
100
AcDbEntity
  8
ALPHA
100
AcDb2dPolyline
 66
     1
 10
0.0
 20
0.0
 30
0.0
  0
VERTEX
  5
A350
100
AcDbEntity
  8
ALPHA
100
AcDbVertex
100
AcDb2dVertex
 10
18.1776
 20
13.689888
 30
0.0
  0
VERTEX
  5
A351
100
AcDbEntity
  8
ALPHA
100
AcDbVertex
100
AcDb2dVertex
 10
14.882022
 20
17.111901
 30
0.0
  0
SEQEND
  5
A352
100
AcDbEntity
  8
ALPHA
  0
POLYLINE
  5
A353
100
AcDbEntity
  8
ALPHA
100
AcDb2dPolyline
 66
     1
 10
0.0
 20
0.0
 30
0.0
  0
VERTEX
  5
A354
100
AcDbEntity
  8
ALPHA
100
AcDbVertex
100
AcDb2dVertex
 10
16.566673
 20
13.689888
 30
0.0
  0
VERTEX
  5
A355
100
AcDbEntity
  8
ALPHA
100
AcDbVertex
100
AcDb2dVertex
 10
13.27075
 20
17.111901
 30
0.0
  0
SEQEND
  5
A356
100
AcDbEntity
  8
ALPHA
  0
POLYLINE
  5
A357
100
AcDbEntity
  8
ALPHA
100
AcDb2dPolyline
 66
     1
 10
0.0
 20
0.0
 30
0.0
  0
VERTEX
  5
A358
100
AcDbEntity
  8
ALPHA
100
AcDbVertex
100
AcDb2dVertex
 10
14.955402
 20
13.689888
 30
0.0
  0
VERTEX
  5
A359
100
AcDbEntity
  8
ALPHA
100
AcDbVertex
100
AcDb2dVertex
 10
11.659479
 20
17.111901
 30
0.0
  0
SEQEND
  5
A35A
100
AcDbEntity
  8
ALPHA
  0
POLYLINE
  5
A35B
100
AcDbEntity
  8
ALPHA
100
AcDb2dPolyline
 66
     1
 10
0.0
 20
0.0
 30
0.0
  0
VERTEX
  5
A35C
100
AcDbEntity
  8
ALPHA
100
AcDbVertex
100
AcDb2dVertex
 10
13.344131
 20
13.689888
 30
0.0
  0
VERTEX
  5
A35D
100
AcDbEntity
  8
ALPHA
100
AcDbVertex
100
AcDb2dVertex
 10
10.812675
 20
16.318151
 30
0.0
  0
SEQEND
  5
A35E
100
AcDbEntity
  8
ALPHA
  0
POLYLINE
  5
A35F
100
AcDbEntity
  8
ALPHA
100
AcDb2dPolyline
 66
     1
 10
0.0
 20
0.0
 30
0.0
  0
VERTEX
  5
A360
100
AcDbEntity
  8
ALPHA
100
AcDbVertex
100
AcDb2dVertex
 10
11.73286
 20
13.689888
 30
0.0
  0
VERTEX
  5
A361
100
AcDbEntity
  8
ALPHA
100
AcDbVertex
100
AcDb2dVertex
 10
10.75273
 20
14.707914
 30
0.0
  0
SEQEND
  5
A362
100
AcDbEntity
  8
ALPHA
  0
POLYLINE
  5
A363
100
AcDbEntity
  8
ALPHA
100
AcDb2dPolyline
 66
     1
 10
0.0
 20
0.0
 30
0.0
  0
VERTEX
  5
A364
100
AcDbEntity
  8
ALPHA
100
AcDbVertex
100
AcDb2dVertex
 10
22.992121
 20
13.820457
 30
0.0
  0
VERTEX
  5
A365
100
AcDbEntity
  8
ALPHA
100
AcDbVertex
100
AcDb2dVertex
 10
22.992121
 20
1.513198
 30
0.0
  0
SEQEND
  5
A366
100
AcDbEntity
  8
ALPHA
  0
POLYLINE
  5
A367
100
AcDbEntity
  8
ALPHA
100
AcDb2dPolyline
 66
     1
 10
0.0
 20
0.0
 30
0.0
  0
VERTEX
  5
A368
100
AcDbEntity
  8
ALPHA
100
AcDbVertex
100
AcDb2dVertex
 10
12.633063
 20
13.820457
 30
0.0
  0
VERTEX
  5
A369
100
AcDbEntity
  8
ALPHA
100
AcDbVertex
100
AcDb2dVertex
 10
12.633063
 20
1.513198
 30
0.0
  0
SEQEND
  5
A36A
100
AcDbEntity
  8
ALPHA
  0
POLYLINE
  5
A36B
100
AcDbEntity
  8
ALPHA
100
AcDb2dPolyline
 66
     1
 10
0.0
 20
0.0
 30
0.0
  0
VERTEX
  5
A36C
100
AcDbEntity
  8
ALPHA
100
AcDbVertex
100
AcDb2dVertex
 10
0.256558
 20
36.187395
 30
0.0
  0
VERTEX
  5
A36D
100
AcDbEntity
  8
ALPHA
100
AcDbVertex
100
AcDb2dVertex
 10
14.850671
 20
36.187395
 30
0.0
  0
SEQEND
  5
A36E
100
AcDbEntity
  8
ALPHA
  0
POLYLINE
  5
A36F
100
AcDbEntity
  8
ALPHA
100
AcDb2dPolyline
 66
     1
 10
0.0
 20
0.0
 30
0.0
  0
VERTEX
  5
A370
100
AcDbEntity
  8
ALPHA
100
AcDbVertex
100
AcDb2dVertex
 10
14.850671
 20
36.187395
 30
0.0
  0
VERTEX
  5
A371
100
AcDbEntity
  8
ALPHA
100
AcDbVertex
100
AcDb2dVertex
 10
14.850671
 20
35.435675
 30
0.0
  0
SEQEND
  5
A372
100
AcDbEntity
  8
ALPHA
  0
POLYLINE
  5
A373
100
AcDbEntity
  8
ALPHA
100
AcDb2dPolyline
 66
     1
 10
0.0
 20
0.0
 30
0.0
  0
VERTEX
  5
A374
100
AcDbEntity
  8
ALPHA
100
AcDbVertex
100
AcDb2dVertex
 10
14.850671
 20
35.435675
 30
0.0
  0
VERTEX
  5
A375
100
AcDbEntity
  8
ALPHA
100
AcDbVertex
100
AcDb2dVertex
 10
0.256558
 20
35.435675
 30
0.0
  0
SEQEND
  5
A376
100
AcDbEntity
  8
ALPHA
  0
POLYLINE
  5
A377
100
AcDbEntity
  8
ALPHA
100
AcDb2dPolyline
 66
     1
 10
0.0
 20
0.0
 30
0.0
  0
VERTEX
  5
A378
100
AcDbEntity
  8
ALPHA
100
AcDbVertex
100
AcDb2dVertex
 10
0.256558
 20
35.435675
 30
0.0
  0
VERTEX
  5
A379
100
AcDbEntity
  8
ALPHA
100
AcDbVertex
100
AcDb2dVertex
 10
0.256558
 20
36.187395
 30
0.0
  0
SEQEND
  5
A37A
100
AcDbEntity
  8
ALPHA
  0
POLYLINE
  5
A37B
100
AcDbEntity
  8
ALPHA
100
AcDb2dPolyline
 66
     1
 10
0.0
 20
0.0
 30
0.0
  0
VERTEX
  5
A37C
100
AcDbEntity
  8
ALPHA
100
AcDbVertex
100
AcDb2dVertex
 10
0.985195
 20
31.224046
 30
0.0
  0
VERTEX
  5
A37D
100
AcDbEntity
  8
ALPHA
100
AcDbVertex
100
AcDb2dVertex
 10
14.854461
 20
31.224046
 30
0.0
  0
SEQEND
  5
A37E
100
AcDbEntity
  8
ALPHA
  0
POLYLINE
  5
A37F
100
AcDbEntity
  8
ALPHA
100
AcDb2dPolyline
 66
     1
 10
0.0
 20
0.0
 30
0.0
  0
VERTEX
  5
A380
100
AcDbEntity
  8
ALPHA
100
AcDbVertex
100
AcDb2dVertex
 10
14.854461
 20
31.224046
 30
0.0
  0
VERTEX
  5
A381
100
AcDbEntity
  8
ALPHA
100
AcDbVertex
100
AcDb2dVertex
 10
14.854461
 20
43.373864
 30
0.0
  0
SEQEND
  5
A382
100
AcDbEntity
  8
ALPHA
  0
POLYLINE
  5
A383
100
AcDbEntity
  8
ALPHA
100
AcDb2dPolyline
 66
     1
 10
0.0
 20
0.0
 30
0.0
  0
VERTEX
  5
A384
100
AcDbEntity
  8
ALPHA
100
AcDbVertex
100
AcDb2dVertex
 10
14.854461
 20
43.373864
 30
0.0
  0
VERTEX
  5
A385
100
AcDbEntity
  8
ALPHA
100
AcDbVertex
100
AcDb2dVertex
 10
0.165952
 20
43.373864
 30
0.0
  0
SEQEND
  5
A386
100
AcDbEntity
  8
ALPHA
  0
POLYLINE
  5
A387
100
AcDbEntity
  8
ALPHA
100
AcDb2dPolyline
 66
     1
 10
0.0
 20
0.0
 30
0.0
  0
VERTEX
  5
A388
100
AcDbEntity
  8
ALPHA
100
AcDbVertex
100
AcDb2dVertex
 10
0.165952
 20
43.373864
 30
0.0
  0
VERTEX
  5
A389
100
AcDbEntity
  8
ALPHA
100
AcDbVertex
100
AcDb2dVertex
 10
0.165952
 20
31.224046
 30
0.0
  0
SEQEND
  5
A38A
100
AcDbEntity
  8
ALPHA
  0
POLYLINE
  5
A38B
100
AcDbEntity
  8
ALPHA
100
AcDb2dPolyline
 66
     1
 10
0.0
 20
0.0
 30
0.0
  0
VERTEX
  5
A38C
100
AcDbEntity
  8
ALPHA
100
AcDbVertex
100
AcDb2dVertex
 10
0.165952
 20
31.224046
 30
0.0
  0
VERTEX
  5
A38D
100
AcDbEntity
  8
ALPHA
100
AcDbVertex
100
AcDb2dVertex
 10
0.985195
 20
31.224046
 30
0.0
  0
SEQEND
  5
A38E
100
AcDbEntity
  8
ALPHA
  0
POLYLINE
  5
A38F
100
AcDbEntity
  8
ALPHA
100
AcDb2dPolyline
 66
     1
 10
0.0
 20
0.0
 30
0.0
  0
VERTEX
  5
A390
100
AcDbEntity
  8
ALPHA
100
AcDbVertex
100
AcDb2dVertex
 10
34.128736
 20
17.303793
 30
0.0
  0
VERTEX
  5
A391
100
AcDbEntity
  8
ALPHA
100
AcDbVertex
100
AcDb2dVertex
 10
1.087859
 20
17.303793
 30
0.0
  0
SEQEND
  5
A392
100
AcDbEntity
  8
ALPHA
  0
POLYLINE
  5
A393
100
AcDbEntity
  8
ALPHA
100
AcDb2dPolyline
 66
     1
 10
0.0
 20
0.0
 30
0.0
  0
VERTEX
  5
A394
100
AcDbEntity
  8
ALPHA
100
AcDbVertex
100
AcDb2dVertex
 10
1.087859
 20
17.303793
 30
0.0
  0
VERTEX
  5
A395
100
AcDbEntity
  8
ALPHA
100
AcDbVertex
100
AcDb2dVertex
 10
1.087859
 20
31.224046
 30
0.0
  0
SEQEND
  5
A396
100
AcDbEntity
  8
ALPHA
  0
POLYLINE
  5
A397
100
AcDbEntity
  8
ALPHA
100
AcDb2dPolyline
 66
     1
 10
0.0
 20
0.0
 30
0.0
  0
VERTEX
  5
A398
100
AcDbEntity
  8
ALPHA
100
AcDbVertex
100
AcDb2dVertex
 10
1.087859
 20
31.224046
 30
0.0
  0
VERTEX
  5
A399
100
AcDbEntity
  8
ALPHA
100
AcDbVertex
100
AcDb2dVertex
 10
15.605836
 20
31.224046
 30
0.0
  0
SEQEND
  5
A39A
100
AcDbEntity
  8
ALPHA
  0
POLYLINE
  5
A39B
100
AcDbEntity
  8
ALPHA
100
AcDb2dPolyline
 66
     1
 10
0.0
 20
0.0
 30
0.0
  0
VERTEX
  5
A39C
100
AcDbEntity
  8
ALPHA
100
AcDbVertex
100
AcDb2dVertex
 10
15.605836
 20
31.224046
 30
0.0
  0
VERTEX
  5
A39D
100
AcDbEntity
  8
ALPHA
100
AcDbVertex
100
AcDb2dVertex
 10
15.605836
 20
35.144909
 30
0.0
  0
SEQEND
  5
A39E
100
AcDbEntity
  8
ALPHA
  0
POLYLINE
  5
A39F
100
AcDbEntity
  8
ALPHA
100
AcDb2dPolyline
 66
     1
 10
0.0
 20
0.0
 30
0.0
  0
VERTEX
  5
A3A0
100
AcDbEntity
  8
ALPHA
100
AcDbVertex
100
AcDb2dVertex
 10
15.605836
 20
35.144909
 30
0.0
  0
VERTEX
  5
A3A1
100
AcDbEntity
  8
ALPHA
100
AcDbVertex
100
AcDb2dVertex
 10
19.944589
 20
35.144909
 30
0.0
  0
SEQEND
  5
A3A2
100
AcDbEntity
  8
ALPHA
  0
POLYLINE
  5
A3A3
100
AcDbEntity
  8
ALPHA
100
AcDb2dPolyline
 66
     1
 10
0.0
 20
0.0
 30
0.0
  0
VERTEX
  5
A3A4
100
AcDbEntity
  8
ALPHA
100
AcDbVertex
100
AcDb2dVertex
 10
19.944589
 20
35.144909
 30
0.0
  0
VERTEX
  5
A3A5
100
AcDbEntity
  8
ALPHA
100
AcDbVertex
100
AcDb2dVertex
 10
19.944589
 20
31.278478
 30
0.0
  0
SEQEND
  5
A3A6
100
AcDbEntity
  8
ALPHA
  0
POLYLINE
  5
A3A7
100
AcDbEntity
  8
ALPHA
100
AcDb2dPolyline
 66
     1
 10
0.0
 20
0.0
 30
0.0
  0
VERTEX
  5
A3A8
100
AcDbEntity
  8
ALPHA
100
AcDbVertex
100
AcDb2dVertex
 10
19.944589
 20
31.278478
 30
0.0
  0
VERTEX
  5
A3A9
100
AcDbEntity
  8
ALPHA
100
AcDbVertex
100
AcDb2dVertex
 10
34.128736
 20
31.278478
 30
0.0
  0
SEQEND
  5
A3AA
100
AcDbEntity
  8
ALPHA
  0
POLYLINE
  5
A3AB
100
AcDbEntity
  8
ALPHA
100
AcDb2dPolyline
 66
     1
 10
0.0
 20
0.0
 30
0.0
  0
VERTEX
  5
A3AC
100
AcDbEntity
  8
ALPHA
100
AcDbVertex
100
AcDb2dVertex
 10
34.128736
 20
31.278478
 30
0.0
  0
VERTEX
  5
A3AD
100
AcDbEntity
  8
ALPHA
100
AcDbVertex
100
AcDb2dVertex
 10
34.128736
 20
17.303793
 30
0.0
  0
SEQEND
  5
A3AE
100
AcDbEntity
  8
ALPHA
  0
POLYLINE
  5
A3AF
100
AcDbEntity
  8
ALPHA
100
AcDb2dPolyline
 66
     1
 10
0.0
 20
0.0
 30
0.0
  0
VERTEX
  5
A3B0
100
AcDbEntity
  8
ALPHA
100
AcDbVertex
100
AcDb2dVertex
 10
11.467243
 20
13.582401
 30
0.0
  0
VERTEX
  5
A3B1
100
AcDbEntity
  8
ALPHA
100
AcDbVertex
100
AcDb2dVertex
 10
24.544481
 20
13.582401
 30
0.0
  0
SEQEND
  5
A3B2
100
AcDbEntity
  8
ALPHA
  0
POLYLINE
  5
A3B3
100
AcDbEntity
  8
ALPHA
100
AcDb2dPolyline
 66
     1
 10
0.0
 20
0.0
 30
0.0
  0
VERTEX
  5
A3B4
100
AcDbEntity
  8
ALPHA
100
AcDbVertex
100
AcDb2dVertex
 10
24.544481
 20
13.582401
 30
0.0
  0
VERTEX
  5
A3B5
100
AcDbEntity
  8
ALPHA
100
AcDbVertex
100
AcDb2dVertex
 10
24.544481
 20
17.289324
 30
0.0
  0
SEQEND
  5
A3B6
100
AcDbEntity
  8
ALPHA
  0
POLYLINE
  5
A3B7
100
AcDbEntity
  8
ALPHA
100
AcDb2dPolyline
 66
     1
 10
0.0
 20
0.0
 30
0.0
  0
VERTEX
  5
A3B8
100
AcDbEntity
  8
ALPHA
100
AcDbVertex
100
AcDb2dVertex
 10
24.544481
 20
17.289324
 30
0.0
  0
VERTEX
  5
A3B9
100
AcDbEntity
  8
ALPHA
100
AcDbVertex
100
AcDb2dVertex
 10
10.694852
 20
17.289324
 30
0.0
  0
SEQEND
  5
A3BA
100
AcDbEntity
  8
ALPHA
  0
POLYLINE
  5
A3BB
100
AcDbEntity
  8
ALPHA
100
AcDb2dPolyline
 66
     1
 10
0.0
 20
0.0
 30
0.0
  0
VERTEX
  5
A3BC
100
AcDbEntity
  8
ALPHA
100
AcDbVertex
100
AcDb2dVertex
 10
10.694852
 20
17.289324
 30
0.0
  0
VERTEX
  5
A3BD
100
AcDbEntity
  8
ALPHA
100
AcDbVertex
100
AcDb2dVertex
 10
10.694852
 20
13.582401
 30
0.0
  0
SEQEND
  5
A3BE
100
AcDbEntity
  8
ALPHA
  0
POLYLINE
  5
A3BF
100
AcDbEntity
  8
ALPHA
100
AcDb2dPolyline
 66
     1
 10
0.0
 20
0.0
 30
0.0
  0
VERTEX
  5
A3C0
100
AcDbEntity
  8
ALPHA
100
AcDbVertex
100
AcDb2dVertex
 10
10.694852
 20
13.582401
 30
0.0
  0
VERTEX
  5
A3C1
100
AcDbEntity
  8
ALPHA
100
AcDbVertex
100
AcDb2dVertex
 10
11.467243
 20
13.582401
 30
0.0
  0
SEQEND
  5
A3C2
100
AcDbEntity
  8
ALPHA
  0
POLYLINE
  5
A3C3
100
AcDbEntity
  8
ALPHA
100
AcDb2dPolyline
 66
     1
 10
0.0
 20
0.0
 30
0.0
  0
VERTEX
  5
A3C4
100
AcDbEntity
  8
ALPHA
100
AcDbVertex
100
AcDb2dVertex
 10
11.476545
 20
13.573788
 30
0.0
  0
VERTEX
  5
A3C5
100
AcDbEntity
  8
ALPHA
100
AcDbVertex
100
AcDb2dVertex
 10
24.552749
 20
13.573788
 30
0.0
  0
SEQEND
  5
A3C6
100
AcDbEntity
  8
ALPHA
  0
POLYLINE
  5
A3C7
100
AcDbEntity
  8
ALPHA
100
AcDb2dPolyline
 66
     1
 10
0.0
 20
0.0
 30
0.0
  0
VERTEX
  5
A3C8
100
AcDbEntity
  8
ALPHA
100
AcDbVertex
100
AcDb2dVertex
 10
24.552749
 20
13.573788
 30
0.0
  0
VERTEX
  5
A3C9
100
AcDbEntity
  8
ALPHA
100
AcDbVertex
100
AcDb2dVertex
 10
24.552749
 20
17.279677
 30
0.0
  0
SEQEND
  5
A3CA
100
AcDbEntity
  8
ALPHA
  0
POLYLINE
  5
A3CB
100
AcDbEntity
  8
ALPHA
100
AcDb2dPolyline
 66
     1
 10
0.0
 20
0.0
 30
0.0
  0
VERTEX
  5
A3CC
100
AcDbEntity
  8
ALPHA
100
AcDbVertex
100
AcDb2dVertex
 10
24.552749
 20
17.279677
 30
0.0
  0
VERTEX
  5
A3CD
100
AcDbEntity
  8
ALPHA
100
AcDbVertex
100
AcDb2dVertex
 10
10.704499
 20
17.279677
 30
0.0
  0
SEQEND
  5
A3CE
100
AcDbEntity
  8
ALPHA
  0
POLYLINE
  5
A3CF
100
AcDbEntity
  8
ALPHA
100
AcDb2dPolyline
 66
     1
 10
0.0
 20
0.0
 30
0.0
  0
VERTEX
  5
A3D0
100
AcDbEntity
  8
ALPHA
100
AcDbVertex
100
AcDb2dVertex
 10
10.704499
 20
17.279677
 30
0.0
  0
VERTEX
  5
A3D1
100
AcDbEntity
  8
ALPHA
100
AcDbVertex
100
AcDb2dVertex
 10
10.704499
 20
13.573788
 30
0.0
  0
SEQEND
  5
A3D2
100
AcDbEntity
  8
ALPHA
  0
POLYLINE
  5
A3D3
100
AcDbEntity
  8
ALPHA
100
AcDb2dPolyline
 66
     1
 10
0.0
 20
0.0
 30
0.0
  0
VERTEX
  5
A3D4
100
AcDbEntity
  8
ALPHA
100
AcDbVertex
100
AcDb2dVertex
 10
10.704499
 20
13.573788
 30
0.0
  0
VERTEX
  5
A3D5
100
AcDbEntity
  8
ALPHA
100
AcDbVertex
100
AcDb2dVertex
 10
11.476545
 20
13.573788
 30
0.0
  0
SEQEND
  5
A3D6
100
AcDbEntity
  8
ALPHA
  0
POLYLINE
  5
A3D7
100
AcDbEntity
  8
ALPHA
100
AcDb2dPolyline
 66
     1
 10
0.0
 20
0.0
 30
0.0
  0
VERTEX
  5
A3D8
100
AcDbEntity
  8
ALPHA
100
AcDbVertex
100
AcDb2dVertex
 10
13.157062
 20
-0.073958
 30
0.0
  0
VERTEX
  5
A3D9
100
AcDbEntity
  8
ALPHA
100
AcDbVertex
100
AcDb2dVertex
 10
22.429881
 20
-0.073958
 30
0.0
  0
SEQEND
  5
A3DA
100
AcDbEntity
  8
ALPHA
  0
POLYLINE
  5
A3DB
100
AcDbEntity
  8
ALPHA
100
AcDb2dPolyline
 66
     1
 10
0.0
 20
0.0
 30
0.0
  0
VERTEX
  5
A3DC
100
AcDbEntity
  8
ALPHA
100
AcDbVertex
100
AcDb2dVertex
 10
22.429881
 20
-0.073958
 30
0.0
  0
VERTEX
  5
A3DD
100
AcDbEntity
  8
ALPHA
100
AcDbVertex
100
AcDb2dVertex
 10
22.429881
 20
1.520777
 30
0.0
  0
SEQEND
  5
A3DE
100
AcDbEntity
  8
ALPHA
  0
POLYLINE
  5
A3DF
100
AcDbEntity
  8
ALPHA
100
AcDb2dPolyline
 66
     1
 10
0.0
 20
0.0
 30
0.0
  0
VERTEX
  5
A3E0
100
AcDbEntity
  8
ALPHA
100
AcDbVertex
100
AcDb2dVertex
 10
22.429881
 20
1.520777
 30
0.0
  0
VERTEX
  5
A3E1
100
AcDbEntity
  8
ALPHA
100
AcDbVertex
100
AcDb2dVertex
 10
13.157062
 20
1.520777
 30
0.0
  0
SEQEND
  5
A3E2
100
AcDbEntity
  8
ALPHA
  0
POLYLINE
  5
A3E3
100
AcDbEntity
  8
ALPHA
100
AcDb2dPolyline
 66
     1
 10
0.0
 20
0.0
 30
0.0
  0
VERTEX
  5
A3E4
100
AcDbEntity
  8
ALPHA
100
AcDbVertex
100
AcDb2dVertex
 10
13.157062
 20
1.520777
 30
0.0
  0
VERTEX
  5
A3E5
100
AcDbEntity
  8
ALPHA
100
AcDbVertex
100
AcDb2dVertex
 10
13.157062
 20
-0.073958
 30
0.0
  0
SEQEND
  5
A3E6
100
AcDbEntity
  8
ALPHA
  0
POLYLINE
  5
A3E7
100
AcDbEntity
  8
ALPHA
100
AcDb2dPolyline
 66
     1
 10
0.0
 20
0.0
 30
0.0
  0
VERTEX
  5
A3E8
100
AcDbEntity
  8
ALPHA
100
AcDbVertex
100
AcDb2dVertex
 10
12.132835
 20
1.513198
 30
0.0
  0
VERTEX
  5
A3E9
100
AcDbEntity
  8
ALPHA
100
AcDbVertex
100
AcDb2dVertex
 10
23.492349
 20
1.513198
 30
0.0
  0
SEQEND
  5
A3EA
100
AcDbEntity
  8
ALPHA
  0
POLYLINE
  5
A3EB
100
AcDbEntity
  8
ALPHA
100
AcDb2dPolyline
 66
     1
 10
0.0
 20
0.0
 30
0.0
  0
VERTEX
  5
A3EC
100
AcDbEntity
  8
ALPHA
100
AcDbVertex
100
AcDb2dVertex
 10
23.492349
 20
1.513198
 30
0.0
  0
VERTEX
  5
A3ED
100
AcDbEntity
  8
ALPHA
100
AcDbVertex
100
AcDb2dVertex
 10
23.492349
 20
13.560697
 30
0.0
  0
SEQEND
  5
A3EE
100
AcDbEntity
  8
ALPHA
  0
POLYLINE
  5
A3EF
100
AcDbEntity
  8
ALPHA
100
AcDb2dPolyline
 66
     1
 10
0.0
 20
0.0
 30
0.0
  0
VERTEX
  5
A3F0
100
AcDbEntity
  8
ALPHA
100
AcDbVertex
100
AcDb2dVertex
 10
23.492349
 20
13.560697
 30
0.0
  0
VERTEX
  5
A3F1
100
AcDbEntity
  8
ALPHA
100
AcDbVertex
100
AcDb2dVertex
 10
12.132835
 20
13.560697
 30
0.0
  0
SEQEND
  5
A3F2
100
AcDbEntity
  8
ALPHA
  0
POLYLINE
  5
A3F3
100
AcDbEntity
  8
ALPHA
100
AcDb2dPolyline
 66
     1
 10
0.0
 20
0.0
 30
0.0
  0
VERTEX
  5
A3F4
100
AcDbEntity
  8
ALPHA
100
AcDbVertex
100
AcDb2dVertex
 10
12.132835
 20
13.560697
 30
0.0
  0
VERTEX
  5
A3F5
100
AcDbEntity
  8
ALPHA
100
AcDbVertex
100
AcDb2dVertex
 10
12.132835
 20
1.513198
 30
0.0
  0
SEQEND
  5
A3F6
100
AcDbEntity
  8
ALPHA
  0
POLYLINE
  5
A3F7
100
AcDbEntity
  8
ALPHA
100
AcDb2dPolyline
 66
     1
 10
0.0
 20
0.0
 30
0.0
  0
VERTEX
  5
A3F8
100
AcDbEntity
  8
ALPHA
100
AcDbVertex
100
AcDb2dVertex
 10
20.913695
 20
32.457046
 30
0.0
  0
VERTEX
  5
A3F9
100
AcDbEntity
  8
ALPHA
100
AcDbVertex
100
AcDb2dVertex
 10
35.129192
 20
32.457046
 30
0.0
  0
SEQEND
  5
A3FA
100
AcDbEntity
  8
ALPHA
  0
POLYLINE
  5
A3FB
100
AcDbEntity
  8
ALPHA
100
AcDb2dPolyline
 66
     1
 10
0.0
 20
0.0
 30
0.0
  0
VERTEX
  5
A3FC
100
AcDbEntity
  8
ALPHA
100
AcDbVertex
100
AcDb2dVertex
 10
35.129192
 20
32.457046
 30
0.0
  0
VERTEX
  5
A3FD
100
AcDbEntity
  8
ALPHA
100
AcDbVertex
100
AcDb2dVertex
 10
35.129192
 20
43.324944
 30
0.0
  0
SEQEND
  5
A3FE
100
AcDbEntity
  8
ALPHA
  0
POLYLINE
  5
A3FF
100
AcDbEntity
  8
ALPHA
100
AcDb2dPolyline
 66
     1
 10
0.0
 20
0.0
 30
0.0
  0
VERTEX
  5
A400
100
AcDbEntity
  8
ALPHA
100
AcDbVertex
100
AcDb2dVertex
 10
35.129192
 20
43.324944
 30
0.0
  0
VERTEX
  5
A401
100
AcDbEntity
  8
ALPHA
100
AcDbVertex
100
AcDb2dVertex
 10
20.913695
 20
43.324944
 30
0.0
  0
SEQEND
  5
A402
100
AcDbEntity
  8
ALPHA
  0
POLYLINE
  5
A403
100
AcDbEntity
  8
ALPHA
100
AcDb2dPolyline
 66
     1
 10
0.0
 20
0.0
 30
0.0
  0
VERTEX
  5
A404
100
AcDbEntity
  8
ALPHA
100
AcDbVertex
100
AcDb2dVertex
 10
20.913695
 20
43.324944
 30
0.0
  0
VERTEX
  5
A405
100
AcDbEntity
  8
ALPHA
100
AcDbVertex
100
AcDb2dVertex
 10
20.913695
 20
32.457046
 30
0.0
  0
SEQEND
  5
A406
100
AcDbEntity
  8
ALPHA
  0
POLYLINE
  5
A407
100
AcDbEntity
  8
ALPHA
100
AcDb2dPolyline
 66
     1
 10
0.0
 20
0.0
 30
0.0
  0
VERTEX
  5
A408
100
AcDbEntity
  8
ALPHA
100
AcDbVertex
100
AcDb2dVertex
 10
2.577863
 20
43.378343
 30
0.0
  0
VERTEX
  5
A409
100
AcDbEntity
  8
ALPHA
100
AcDbVertex
100
AcDb2dVertex
 10
12.170387
 20
43.378343
 30
0.0
  0
SEQEND
  5
A40A
100
AcDbEntity
  8
ALPHA
  0
POLYLINE
  5
A40B
100
AcDbEntity
  8
ALPHA
100
AcDb2dPolyline
 66
     1
 10
0.0
 20
0.0
 30
0.0
  0
VERTEX
  5
A40C
100
AcDbEntity
  8
ALPHA
100
AcDbVertex
100
AcDb2dVertex
 10
12.170387
 20
43.378343
 30
0.0
  0
VERTEX
  5
A40D
100
AcDbEntity
  8
ALPHA
100
AcDbVertex
100
AcDb2dVertex
 10
12.170387
 20
44.742601
 30
0.0
  0
SEQEND
  5
A40E
100
AcDbEntity
  8
ALPHA
  0
POLYLINE
  5
A40F
100
AcDbEntity
  8
ALPHA
100
AcDb2dPolyline
 66
     1
 10
0.0
 20
0.0
 30
0.0
  0
VERTEX
  5
A410
100
AcDbEntity
  8
ALPHA
100
AcDbVertex
100
AcDb2dVertex
 10
12.170387
 20
44.742601
 30
0.0
  0
VERTEX
  5
A411
100
AcDbEntity
  8
ALPHA
100
AcDbVertex
100
AcDb2dVertex
 10
2.577863
 20
44.742601
 30
0.0
  0
SEQEND
  5
A412
100
AcDbEntity
  8
ALPHA
  0
POLYLINE
  5
A413
100
AcDbEntity
  8
ALPHA
100
AcDb2dPolyline
 66
     1
 10
0.0
 20
0.0
 30
0.0
  0
VERTEX
  5
A414
100
AcDbEntity
  8
ALPHA
100
AcDbVertex
100
AcDb2dVertex
 10
2.577863
 20
44.742601
 30
0.0
  0
VERTEX
  5
A415
100
AcDbEntity
  8
ALPHA
100
AcDbVertex
100
AcDb2dVertex
 10
2.577863
 20
43.378343
 30
0.0
  0
SEQEND
  5
A416
100
AcDbEntity
  8
ALPHA
  0
POLYLINE
  5
A417
100
AcDbEntity
  8
ALPHA
100
AcDb2dPolyline
 66
     1
 10
0.0
 20
0.0
 30
0.0
  0
VERTEX
  5
A418
100
AcDbEntity
  8
ALPHA
100
AcDbVertex
100
AcDb2dVertex
 10
0.985195
 20
31.224046
 30
0.0
  0
VERTEX
  5
A419
100
AcDbEntity
  8
ALPHA
100
AcDbVertex
100
AcDb2dVertex
 10
14.854461
 20
31.224046
 30
0.0
  0
SEQEND
  5
A41A
100
AcDbEntity
  8
ALPHA
  0
POLYLINE
  5
A41B
100
AcDbEntity
  8
ALPHA
100
AcDb2dPolyline
 66
     1
 10
0.0
 20
0.0
 30
0.0
  0
VERTEX
  5
A41C
100
AcDbEntity
  8
ALPHA
100
AcDbVertex
100
AcDb2dVertex
 10
14.854461
 20
31.224046
 30
0.0
  0
VERTEX
  5
A41D
100
AcDbEntity
  8
ALPHA
100
AcDbVertex
100
AcDb2dVertex
 10
14.854461
 20
43.373864
 30
0.0
  0
SEQEND
  5
A41E
100
AcDbEntity
  8
ALPHA
  0
POLYLINE
  5
A41F
100
AcDbEntity
  8
ALPHA
100
AcDb2dPolyline
 66
     1
 10
0.0
 20
0.0
 30
0.0
  0
VERTEX
  5
A420
100
AcDbEntity
  8
ALPHA
100
AcDbVertex
100
AcDb2dVertex
 10
14.854461
 20
43.373864
 30
0.0
  0
VERTEX
  5
A421
100
AcDbEntity
  8
ALPHA
100
AcDbVertex
100
AcDb2dVertex
 10
0.165952
 20
43.373864
 30
0.0
  0
SEQEND
  5
A422
100
AcDbEntity
  8
ALPHA
  0
POLYLINE
  5
A423
100
AcDbEntity
  8
ALPHA
100
AcDb2dPolyline
 66
     1
 10
0.0
 20
0.0
 30
0.0
  0
VERTEX
  5
A424
100
AcDbEntity
  8
ALPHA
100
AcDbVertex
100
AcDb2dVertex
 10
0.165952
 20
43.373864
 30
0.0
  0
VERTEX
  5
A425
100
AcDbEntity
  8
ALPHA
100
AcDbVertex
100
AcDb2dVertex
 10
0.165952
 20
31.224046
 30
0.0
  0
SEQEND
  5
A426
100
AcDbEntity
  8
ALPHA
  0
POLYLINE
  5
A427
100
AcDbEntity
  8
ALPHA
100
AcDb2dPolyline
 66
     1
 10
0.0
 20
0.0
 30
0.0
  0
VERTEX
  5
A428
100
AcDbEntity
  8
ALPHA
100
AcDbVertex
100
AcDb2dVertex
 10
0.165952
 20
31.224046
 30
0.0
  0
VERTEX
  5
A429
100
AcDbEntity
  8
ALPHA
100
AcDbVertex
100
AcDb2dVertex
 10
0.985195
 20
31.224046
 30
0.0
  0
SEQEND
  5
A42A
100
AcDbEntity
  8
ALPHA
  0
POLYLINE
  5
A42B
100
AcDbEntity
  8
ALPHA
100
AcDb2dPolyline
 66
     1
 10
0.0
 20
0.0
 30
0.0
  0
VERTEX
  5
A42C
100
AcDbEntity
  8
ALPHA
100
AcDbVertex
100
AcDb2dVertex
 10
20.87132
 20
31.278478
 30
0.0
  0
VERTEX
  5
A42D
100
AcDbEntity
  8
ALPHA
100
AcDbVertex
100
AcDb2dVertex
 10
35.093019
 20
31.278478
 30
0.0
  0
SEQEND
  5
A42E
100
AcDbEntity
  8
ALPHA
  0
POLYLINE
  5
A42F
100
AcDbEntity
  8
ALPHA
100
AcDb2dPolyline
 66
     1
 10
0.0
 20
0.0
 30
0.0
  0
VERTEX
  5
A430
100
AcDbEntity
  8
ALPHA
100
AcDbVertex
100
AcDb2dVertex
 10
35.093019
 20
31.278478
 30
0.0
  0
VERTEX
  5
A431
100
AcDbEntity
  8
ALPHA
100
AcDbVertex
100
AcDb2dVertex
 10
35.093019
 20
43.327355
 30
0.0
  0
SEQEND
  5
A432
100
AcDbEntity
  8
ALPHA
  0
POLYLINE
  5
A433
100
AcDbEntity
  8
ALPHA
100
AcDb2dPolyline
 66
     1
 10
0.0
 20
0.0
 30
0.0
  0
VERTEX
  5
A434
100
AcDbEntity
  8
ALPHA
100
AcDbVertex
100
AcDb2dVertex
 10
35.093019
 20
43.327355
 30
0.0
  0
VERTEX
  5
A435
100
AcDbEntity
  8
ALPHA
100
AcDbVertex
100
AcDb2dVertex
 10
20.87132
 20
43.327355
 30
0.0
  0
SEQEND
  5
A436
100
AcDbEntity
  8
ALPHA
  0
POLYLINE
  5
A437
100
AcDbEntity
  8
ALPHA
100
AcDb2dPolyline
 66
     1
 10
0.0
 20
0.0
 30
0.0
  0
VERTEX
  5
A438
100
AcDbEntity
  8
ALPHA
100
AcDbVertex
100
AcDb2dVertex
 10
20.87132
 20
43.327355
 30
0.0
  0
VERTEX
  5
A439
100
AcDbEntity
  8
ALPHA
100
AcDbVertex
100
AcDb2dVertex
 10
20.87132
 20
31.278478
 30
0.0
  0
SEQEND
  5
A43A
100
AcDbEntity
  8
ALPHA
  0
POLYLINE
  5
A43B
100
AcDbEntity
  8
ALPHA
100
AcDb2dPolyline
 66
     1
 10
0.0
 20
0.0
 30
0.0
  0
VERTEX
  5
A43C
100
AcDbEntity
  8
ALPHA
100
AcDbVertex
100
AcDb2dVertex
 10
23.808953
 20
43.345959
 30
0.0
  0
VERTEX
  5
A43D
100
AcDbEntity
  8
ALPHA
100
AcDbVertex
100
AcDb2dVertex
 10
33.402166
 20
43.345959
 30
0.0
  0
SEQEND
  5
A43E
100
AcDbEntity
  8
ALPHA
  0
POLYLINE
  5
A43F
100
AcDbEntity
  8
ALPHA
100
AcDb2dPolyline
 66
     1
 10
0.0
 20
0.0
 30
0.0
  0
VERTEX
  5
A440
100
AcDbEntity
  8
ALPHA
100
AcDbVertex
100
AcDb2dVertex
 10
33.402166
 20
43.345959
 30
0.0
  0
VERTEX
  5
A441
100
AcDbEntity
  8
ALPHA
100
AcDbVertex
100
AcDb2dVertex
 10
33.402166
 20
44.731576
 30
0.0
  0
SEQEND
  5
A442
100
AcDbEntity
  8
ALPHA
  0
POLYLINE
  5
A443
100
AcDbEntity
  8
ALPHA
100
AcDb2dPolyline
 66
     1
 10
0.0
 20
0.0
 30
0.0
  0
VERTEX
  5
A444
100
AcDbEntity
  8
ALPHA
100
AcDbVertex
100
AcDb2dVertex
 10
33.402166
 20
44.731576
 30
0.0
  0
VERTEX
  5
A445
100
AcDbEntity
  8
ALPHA
100
AcDbVertex
100
AcDb2dVertex
 10
23.808953
 20
44.731576
 30
0.0
  0
SEQEND
  5
A446
100
AcDbEntity
  8
ALPHA
  0
POLYLINE
  5
A447
100
AcDbEntity
  8
ALPHA
100
AcDb2dPolyline
 66
     1
 10
0.0
 20
0.0
 30
0.0
  0
VERTEX
  5
A448
100
AcDbEntity
  8
ALPHA
100
AcDbVertex
100
AcDb2dVertex
 10
23.808953
 20
44.731576
 30
0.0
  0
VERTEX
  5
A449
100
AcDbEntity
  8
ALPHA
100
AcDbVertex
100
AcDb2dVertex
 10
23.808953
 20
43.345959
 30
0.0
  0
SEQEND
  5
A44A
100
AcDbEntity
  8
ALPHA
  0
DIMENSION
  5
A457
100
AcDbEntity
  8
COTATION1
100
AcDbDimension
  2
*D7
 10
35.093019
 20
-7.77372
 30
0.0
 11
17.629485
 21
-5.52372
 31
0.0
 70
    32
  1
35
  3
SC_STAND
100
AcDbAlignedDimension
 13
0.165952
 23
31.224046
 33
0.0
 14
35.093019
 24
31.224046
 34
0.0
100
AcDbRotatedDimension
  0
DIMENSION
  5
A46F
100
AcDbEntity
  8
COTATION1
100
AcDbDimension
  2
*D8
 10
43.746612
 20
44.731576
 30
0.0
 11
41.496612
 21
22.328809
 31
0.0
 70
    32
  1
45
  3
SC_STAND
100
AcDbAlignedDimension
 13
22.429881
 23
-0.073958
 33
0.0
 14
33.402166
 24
44.731576
 34
0.0
 50
90.0
100
AcDbRotatedDimension
  0
ENDSEC
  0
SECTION
  2
OBJECTS
  0
DICTIONARY
  5
F8
100
AcDbDictionary
  3
ACAD_GROUP
350
F9
  3
ACAD_MLINESTYLE
350
106
  3
ACDBVARIABLEDICTIONARY
350
143
  0
DICTIONARY
  5
F9
102
{ACAD_REACTORS
330
F8
102
}
100
AcDbDictionary
  0
DICTIONARY
  5
106
102
{ACAD_REACTORS
330
F8
102
}
100
AcDbDictionary
  3
STANDARD
350
107
  0
DICTIONARY
  5
143
102
{ACAD_REACTORS
330
F8
102
}
100
AcDbDictionary
  3
DIMADEC
350
144
  0
MLINESTYLE
  5
107
102
{ACAD_REACTORS
330
106
102
}
100
AcDbMlineStyle
  2
STANDARD
 70
     0
  3

 62
   256
 51
90.0
 52
90.0
 71
     2
 49
0.5
 62
   256
  6
BYLAYER
 49
-0.5
 62
   256
  6
BYLAYER
  0
DICTIONARYVAR
  5
144
102
{ACAD_REACTORS
330
143
102
}
100
DictionaryVariables
280
     0
  1
0
  0
ENDSEC
  0
EOF
