  0
SECTION
  2
HEADER
  9
$ACADVER
  1
AC1009
  9
$INSBASE
 10
0.0
 20
0.0
 30
0.0
  9
$EXTMIN
 10
97.779756
 20
91.069587
 30
-0.001526
  9
$EXTMAX
 10
156.514982
 20
228.915681
 30
0.0
  9
$LIMMIN
 10
0.0
 20
0.0
  9
$LIMMAX
 10
150.0
 20
150.0
  9
$ORTHOMODE
 70
     0
  9
$REGENMODE
 70
     1
  9
$FILLMODE
 70
     1
  9
$QTEXTMODE
 70
     0
  9
$MIRRTEXT
 70
     1
  9
$DRAGMODE
 70
     2
  9
$LTSCALE
 40
9.777778
  9
$OSMODE
 70
   167
  9
$ATTMODE
 70
     1
  9
$TEXTSIZE
 40
0.2
  9
$TRACEWID
 40
0.05
  9
$TEXTSTYLE
  7
STANDARD
  9
$CLAYER
  8
0
  9
$CELTYPE
  6
BYLAYER
  9
$CECOLOR
 62
   256
  9
$DIMSCALE
 40
1.0
  9
$DIMASZ
 40
2.5
  9
$DIMEXO
 40
1.111111
  9
$DIMDLI
 40
2.0
  9
$DIMRND
 40
0.0
  9
$DIMDLE
 40
0.0
  9
$DIMEXE
 40
3.2
  9
$DIMTP
 40
0.0
  9
$DIMTM
 40
0.0
  9
$DIMTXT
 40
2.008929
  9
$DIMCEN
 40
1.6
  9
$DIMTSZ
 40
0.0
  9
$DIMTOL
 70
     0
  9
$DIMLIM
 70
     0
  9
$DIMTIH
 70
     0
  9
$DIMTOH
 70
     0
  9
$DIMSE1
 70
     0
  9
$DIMSE2
 70
     0
  9
$DIMTAD
 70
     1
  9
$DIMZIN
 70
     8
  9
$DIMBLK
  1

  9
$DIMASO
 70
     1
  9
$DIMSHO
 70
     1
  9
$DIMPOST
  1

  9
$DIMAPOST
  1

  9
$DIMALT
 70
     0
  9
$DIMALTD
 70
     2
  9
$DIMALTF
 40
25.4
  9
$DIMLFAC
 40
1.0
  9
$DIMTOFL
 70
     0
  9
$DIMTVP
 40
0.0
  9
$DIMTIX
 70
     0
  9
$DIMSOXD
 70
     0
  9
$DIMSAH
 70
     0
  9
$DIMBLK1
  1

  9
$DIMBLK2
  1

  9
$DIMSTYLE
  2
STANDARD
  9
$DIMCLRD
 70
     0
  9
$DIMCLRE
 70
     0
  9
$DIMCLRT
 70
     0
  9
$DIMTFAC
 40
1.0
  9
$DIMGAP
 40
1.0
  9
$LUNITS
 70
     2
  9
$LUPREC
 70
     4
  9
$SKETCHINC
 40
0.1
  9
$FILLETRAD
 40
0.0
  9
$AUNITS
 70
     0
  9
$AUPREC
 70
     0
  9
$MENU
  1
.
  9
$ELEVATION
 40
0.0
  9
$PELEVATION
 40
0.0
  9
$THICKNESS
 40
0.0
  9
$LIMCHECK
 70
     0
  9
$BLIPMODE
 70
     0
  9
$CHAMFERA
 40
0.0
  9
$CHAMFERB
 40
0.0
  9
$SKPOLY
 70
     0
  9
$TDCREATE
 40
2452282.428316
  9
$TDUPDATE
 40
2452292.362398
  9
$TDINDWG
 40
0.010379
  9
$TDUSRTIMER
 40
0.010379
  9
$USRTIMER
 70
     1
  9
$ANGBASE
 50
0.0
  9
$ANGDIR
 70
     0
  9
$PDMODE
 70
     0
  9
$PDSIZE
 40
0.0
  9
$PLINEWID
 40
0.0
  9
$COORDS
 70
     2
  9
$SPLFRAME
 70
     0
  9
$SPLINETYPE
 70
     6
  9
$SPLINESEGS
 70
     8
  9
$ATTDIA
 70
     0
  9
$ATTREQ
 70
     1
  9
$HANDLING
 70
     1
  9
$HANDSEED
  5
2A1A
  9
$SURFTAB1
 70
     6
  9
$SURFTAB2
 70
     6
  9
$SURFTYPE
 70
     6
  9
$SURFU
 70
     6
  9
$SURFV
 70
     6
  9
$UCSNAME
  2

  9
$UCSORG
 10
0.0
 20
0.0
 30
0.0
  9
$UCSXDIR
 10
1.0
 20
0.0
 30
0.0
  9
$UCSYDIR
 10
0.0
 20
1.0
 30
0.0
  9
$PUCSNAME
  2

  9
$PUCSORG
 10
0.0
 20
0.0
 30
0.0
  9
$PUCSXDIR
 10
1.0
 20
0.0
 30
0.0
  9
$PUCSYDIR
 10
0.0
 20
1.0
 30
0.0
  9
$USERI1
 70
     0
  9
$USERI2
 70
     0
  9
$USERI3
 70
     0
  9
$USERI4
 70
     0
  9
$USERI5
 70
     0
  9
$USERR1
 40
0.0
  9
$USERR2
 40
0.0
  9
$USERR3
 40
0.0
  9
$USERR4
 40
0.0
  9
$USERR5
 40
0.0
  9
$WORLDVIEW
 70
     1
  9
$SHADEDGE
 70
     3
  9
$SHADEDIF
 70
    70
  9
$TILEMODE
 70
     1
  9
$MAXACTVP
 70
    48
  9
$PLIMCHECK
 70
     0
  9
$PEXTMIN
 10
1.000000E+020
 20
1.000000E+020
 30
1.000000E+020
  9
$PEXTMAX
 10
-1.000000E+020
 20
-1.000000E+020
 30
-1.000000E+020
  9
$PLIMMIN
 10
0.0
 20
0.0
  9
$PLIMMAX
 10
12.0
 20
9.0
  9
$UNITMODE
 70
     0
  9
$VISRETAIN
 70
     1
  9
$PLINEGEN
 70
     0
  9
$PSLTSCALE
 70
     1
  0
ENDSEC
  0
SECTION
  2
TABLES
  0
TABLE
  2
VPORT
 70
     2
  0
VPORT
  2
*ACTIVE
 70
     0
 10
0.0
 20
0.0
 11
1.0
 21
1.0
 12
127.147369
 22
159.992634
 13
0.0
 23
0.0
 14
1.0
 24
1.0
 15
0.0
 25
0.0
 16
0.0
 26
0.0
 36
1.0
 17
0.0
 27
0.0
 37
0.0
 40
139.363666
 41
1.700368
 42
50.0
 43
0.0
 44
0.0
 50
0.0
 51
0.0
 71
     0
 72
   100
 73
     1
 74
     1
 75
     0
 76
     0
 77
     0
 78
     0
  0
ENDTAB
  0
TABLE
  2
LTYPE
 70
     6
  0
LTYPE
  2
CONTINUOUS
 70
     0
  3
Solid line
 72
    65
 73
     0
 40
0.0
  0
LTYPE
  2
CENTER
 70
     0
  3
____ _ ____ _ ____ _ ____ _ ____ _ ____ _ ____
 72
    65
 73
     4
 40
0.6
 49
0.375
 49
-0.075
 49
0.075
 49
-0.075
  0
LTYPE
  2
HIDDEN
 70
     0
  3
- - - - - - - - - - - - - - - - - - - -
 72
    65
 73
     2
 40
0.2
 49
0.1
 49
-0.1
  0
LTYPE
  2
PHANTOM
 70
     0
  3
_____ _ _ _____ _ _ _____ _ _ _____
 72
    65
 73
     6
 40
0.8
 49
0.45
 49
-0.05
 49
0.1
 49
-0.05
 49
0.1
 49
-0.05
  0
ENDTAB
  0
TABLE
  2
LAYER
 70
     5
  0
LAYER
  2
0
 70
     0
 62
     7
  6
CONTINUOUS
  0
LAYER
  2
DEFPOINTS
 70
     0
 62
     7
  6
CONTINUOUS
  0
ENDTAB
  0
TABLE
  2
STYLE
 70
     1
  0
STYLE
  2
STANDARD
 70
     0
 40
0.0
 41
1.0
 50
0.0
 71
     0
 42
0.2
  3
txt
  4

  0
ENDTAB
  0
TABLE
  2
VIEW
 70
     0
  0
ENDTAB
  0
TABLE
  2
UCS
 70
     0
  0
ENDTAB
  0
TABLE
  2
APPID
 70
     1
  0
APPID
  2
ACAD
 70
     0
  0
ENDTAB
  0
TABLE
  2
DIMSTYLE
 70
     1
  0
DIMSTYLE
  2
STANDARD
 70
     0
  3

  4

  5

  6

  7

 40
1.0
 41
0.18
 42
0.0625
 43
0.02
 44
0.1
 45
0.0
 46
0.0
 47
0.0
 48
0.0
140
0.18
141
0.0
142
0.0
143
25.4
144
1.0
145
0.0
146
1.0
147
1.0
 71
     0
 72
     0
 73
     0
 74
     0
 75
     0
 76
     0
 77
     1
 78
     8
170
     0
171
     2
172
     0
173
     0
174
     0
175
     0
176
     0
177
     0
178
     0
  0
ENDTAB
  0
ENDSEC
  0
SECTION
  2
BLOCKS
  0
BLOCK
  8
0
  2
$MODEL_SPACE
 70
     0
 10
0.0
 20
0.0
 30
0.0
  3
$MODEL_SPACE
  1

  0
ENDBLK
  5
20
  8
0
  0
BLOCK
 67
     1
  8
0
  2
$PAPER_SPACE
 70
     0
 10
0.0
 20
0.0
 30
0.0
  3
$PAPER_SPACE
  1

  0
ENDBLK
  5
1C
 67
     1
  8
0
  0
BLOCK
  8
0
  2
*D0
 70
     1
 10
0.0
 20
0.0
 30
0.0
  3
*D0
  1

  0
LINE
  5
2724
  8
0
 62
     0
 10
111.461192
 20
220.322023
 30
0.0
 11
111.461192
 21
226.408695
 31
0.0
1001
ACAD
1000
RTLwPs
1070
   158
  0
LINE
  5
2725
  8
0
 62
     0
 10
156.261192
 20
220.322023
 30
0.0
 11
156.261192
 21
226.408695
 31
0.0
1001
ACAD
1000
RTLwPs
1070
   158
  0
LINE
  5
2726
  8
0
 62
     0
 10
113.961192
 20
225.408695
 30
0.0
 11
153.761192
 21
225.408695
 31
0.0
1001
ACAD
1000
RTLwPs
1070
   158
  0
SOLID
  5
2727
  8
0
 62
     0
 10
113.961192
 20
225.825361
 30
0.0
 11
113.961192
 21
224.992028
 31
0.0
 12
111.461192
 22
225.408695
 32
0.0
 13
111.461192
 23
225.408695
 33
0.0
  0
SOLID
  5
2728
  8
0
 62
     0
 10
153.761192
 20
225.825361
 30
0.0
 11
153.761192
 21
224.992028
 31
0.0
 12
156.261192
 22
225.408695
 32
0.0
 13
156.261192
 23
225.408695
 33
0.0
  0
TEXT
  8
0
  40
2.5
  5
2A18
  62
0
  72
0
  71
0
 10
128.868
 20
223.234
 30
0.000000
  1
44.8
  0
POINT
  5
272A
  8
DEFPOINTS
 62
     0
 10
111.461192
 20
218.470171
 30
0.0
  0
POINT
  5
272B
  8
DEFPOINTS
 62
     0
 10
156.261192
 20
218.470171
 30
0.0
  0
POINT
  5
272C
  8
DEFPOINTS
 62
     0
 10
156.261192
 20
225.408695
 30
0.0
  0
ENDBLK
  5
2666
  8
0
  0
BLOCK
  8
0
  2
*D1
 70
     1
 10
0.0
 20
0.0
 30
0.0
  3
*D1
  1

  0
LINE
  5
271B
  8
0
 62
     0
 10
108.90934
 20
217.770171
 30
0.0
 11
100.284017
 21
217.770171
 31
0.0
1001
ACAD
1000
RTLwPs
1070
   158
  0
LINE
  5
271C
  8
0
 62
     0
 10
120.459527
 20
91.070174
 30
0.0
 11
100.284017
 21
91.070174
 31
0.0
1001
ACAD
1000
RTLwPs
1070
   158
  0
LINE
  5
271D
  8
0
 62
     0
 10
101.284017
 20
215.270171
 30
0.0
 11
101.284017
 21
93.570174
 31
0.0
1001
ACAD
1000
RTLwPs
1070
   158
  0
SOLID
  5
271E
  8
0
 62
     0
 10
100.86735
 20
215.270171
 30
0.0
 11
101.700683
 21
215.270171
 31
0.0
 12
101.284017
 22
217.770171
 32
0.0
 13
101.284017
 23
217.770171
 33
0.0
  0
SOLID
  5
271F
  8
0
 62
     0
 10
100.86735
 20
93.570174
 30
0.0
 11
101.700683
 21
93.570174
 31
0.0
 12
101.284017
 22
91.070174
 32
0.0
 13
101.284017
 23
91.070174
 33
0.0
  0
TEXT
  8
0
  40
2.5
  5
2A19
  62
0
  72
0
  71
0
 10
94.0340
 20
150.233
 30
0.000000
  1
126.7
  0
POINT
  5
2721
  8
DEFPOINTS
 62
     0
 10
110.761192
 20
217.770171
 30
0.0
  0
POINT
  5
2722
  8
DEFPOINTS
 62
     0
 10
122.311379
 20
91.070174
 30
0.0
  0
POINT
  5
2723
  8
DEFPOINTS
 62
     0
 10
101.284017
 20
91.070174
 30
0.0
  0
ENDBLK
  5
2672
  8
0
  0
ENDSEC
  0
SECTION
  2
ENTITIES
  0
ARC
  5
23DC
  8
0
 62
     0
 10
133.861192
 20
236.570171
 30
0.0
 40
129.5
 50
260.450974
 51
271.725771
  0
ARC
  5
23DD
  8
0
 62
     0
 10
133.861192
 20
236.570171
 30
0.0
 40
130.0
 50
260.450974
 51
271.719131
  0
ARC
  5
23DE
  8
0
 62
     0
 10
133.861192
 20
269.870171
 30
0.0
 40
106.0
 50
258.705216
 51
281.019833
  0
ARC
  5
23DF
  8
0
 62
     0
 10
133.861192
 20
273.413248
 30
0.0
 40
109.343077
 50
258.894324
 51
280.839284
  0
ARC
  5
23E0
  8
0
 62
     0
 10
133.861192
 20
297.610171
 30
0.0
 40
125.94
 50
259.954003
 51
280.045997
  0
ARC
  5
23E1
  8
0
 62
     0
 10
133.861192
 20
297.610171
 30
0.0
 40
126.44
 50
260.177324
 51
279.822676
  0
ARC
  5
23E2
  8
0
 62
     0
 10
133.861192
 20
297.610171
 30
0.0
 40
125.24
 50
267.80352
 51
272.19648
  0
LINE
  5
23E3
  8
0
 62
     0
 10
145.111192
 20
217.770171
 30
0.0
 11
111.761192
 21
217.770171
 31
0.0
  0
LINE
  5
23E4
  8
0
 62
     0
 10
145.011192
 20
217.470171
 30
0.0
 11
111.461192
 21
217.470171
 31
0.0
  0
LINE
  5
23E5
  8
0
 62
     0
 10
138.611192
 20
214.738917
 30
0.0
 11
129.111192
 21
214.738917
 31
0.0
  0
POLYLINE
  5
23E6
  8
0
 62
     0
 66
     1
 10
0.0
 20
0.0
 30
0.0
  0
VERTEX
  5
279F
  8
0
 62
     0
 10
138.611192
 20
213.770171
 30
0.0
  0
VERTEX
  5
27A0
  8
0
 62
     0
 10
135.469163
 20
213.617835
 30
0.0
  0
VERTEX
  5
27A1
  8
0
 62
     0
 10
132.253222
 20
213.617835
 30
0.0
  0
VERTEX
  5
27A2
  8
0
 62
     0
 10
129.111192
 20
213.770171
 30
0.0
  0
SEQEND
  5
27A3
  8
0
 62
     0
  0
LINE
  5
23E7
  8
0
 62
     0
 10
138.611192
 20
209.770171
 30
0.0
 11
129.111192
 21
209.770171
 31
0.0
  0
LINE
  5
23E8
  8
0
 62
     0
 10
129.111192
 20
208.270171
 30
0.0
 11
138.611192
 21
208.270171
 31
0.0
  0
LINE
  5
23E9
  8
0
 62
     0
 10
138.611192
 20
206.770171
 30
0.0
 11
129.111192
 21
206.770171
 31
0.0
  0
LINE
  5
23EA
  8
0
 62
     0
 10
129.111192
 20
205.270171
 30
0.0
 11
138.611192
 21
205.270171
 31
0.0
  0
LINE
  5
23EB
  8
0
 62
     0
 10
138.611192
 20
203.770171
 30
0.0
 11
129.111192
 21
203.770171
 31
0.0
  0
LINE
  5
23EC
  8
0
 62
     0
 10
129.111192
 20
202.270171
 30
0.0
 11
138.611192
 21
202.270171
 31
0.0
  0
LINE
  5
23ED
  8
0
 62
     0
 10
138.611192
 20
200.770171
 30
0.0
 11
129.111192
 21
200.770171
 31
0.0
  0
LINE
  5
23EE
  8
0
 62
     0
 10
129.111192
 20
199.270171
 30
0.0
 11
138.611192
 21
199.270171
 31
0.0
  0
LINE
  5
23EF
  8
0
 62
     0
 10
138.611192
 20
193.770171
 30
0.0
 11
129.111192
 21
193.770171
 31
0.0
  0
LINE
  5
23F0
  8
0
 62
     0
 10
128.711192
 20
189.570171
 30
0.0
 11
139.861192
 21
189.570171
 31
0.0
  0
LINE
  5
23F1
  8
0
 62
     0
 10
128.711192
 20
188.570171
 30
0.0
 11
139.011192
 21
188.570171
 31
0.0
  0
LINE
  5
23F2
  8
0
 62
     0
 10
130.861192
 20
188.270171
 30
0.0
 11
136.861192
 21
188.270171
 31
0.0
  0
LINE
  5
23F3
  8
0
 62
     0
 10
128.711192
 20
186.970171
 30
0.0
 11
139.011192
 21
186.970171
 31
0.0
  0
LINE
  5
23F4
  8
0
 62
     0
 10
129.061192
 20
183.870171
 30
0.0
 11
138.661192
 21
183.870171
 31
0.0
  0
POLYLINE
  5
23F5
  8
0
 62
     0
 66
     1
 10
0.0
 20
0.0
 30
0.0
  0
VERTEX
  5
27A4
  8
0
 62
     0
 10
129.061192
 20
183.270171
 30
0.0
  0
VERTEX
  5
27A5
  8
0
 62
     0
 10
130.983712
 20
183.591731
 30
0.0
  0
VERTEX
  5
27A6
  8
0
 62
     0
 10
132.902548
 20
183.750433
 30
0.0
  0
VERTEX
  5
27A7
  8
0
 62
     0
 10
134.819926
 20
183.750429
 30
0.0
  0
VERTEX
  5
27A8
  8
0
 62
     0
 10
136.738709
 20
183.591726
 30
0.0
  0
VERTEX
  5
27A9
  8
0
 62
     0
 10
138.661192
 20
183.270171
 30
0.0
  0
SEQEND
  5
27AA
  8
0
 62
     0
  0
POLYLINE
  5
23F6
  8
0
 62
     0
 66
     1
 10
0.0
 20
0.0
 30
0.0
  0
VERTEX
  5
27AB
  8
0
 62
     0
 10
133.376796
 20
98.366348
 30
0.0
  0
VERTEX
  5
27AC
  8
0
 62
     0
 10
133.417761
 20
98.453877
 30
0.0
  0
VERTEX
  5
27AD
  8
0
 62
     0
 10
133.578449
 20
99.0523
 30
0.0
  0
VERTEX
  5
27AE
  8
0
 62
     0
 10
133.632583
 20
99.670171
 30
0.0
  0
SEQEND
  5
27AF
  8
0
 62
     0
  0
POLYLINE
  5
23F7
  8
0
 62
     0
 66
     1
 10
0.0
 20
0.0
 30
0.0
  0
VERTEX
  5
27B0
  8
0
 62
     0
 10
133.191253
 20
100.342012
 30
0.0
  0
VERTEX
  5
27B1
  8
0
 62
     0
 10
133.381158
 20
100.988852
 30
0.0
  0
VERTEX
  5
27B2
  8
0
 62
     0
 10
133.689804
 20
101.586648
 30
0.0
  0
VERTEX
  5
27B3
  8
0
 62
     0
 10
134.105711
 20
102.113164
 30
0.0
  0
VERTEX
  5
27B4
  8
0
 62
     0
 10
134.613406
 20
102.548822
 30
0.0
  0
VERTEX
  5
27B5
  8
0
 62
     0
 10
135.194009
 20
102.877423
 30
0.0
  0
VERTEX
  5
27B6
  8
0
 62
     0
 10
135.825925
 20
103.08675
 30
0.0
  0
SEQEND
  5
27B7
  8
0
 62
     0
  0
POLYLINE
  5
23F8
  8
0
 62
     0
 66
     1
 10
0.0
 20
0.0
 30
0.0
  0
VERTEX
  5
27B8
  8
0
 62
     0
 10
139.789078
 20
99.66668
 30
0.0
  0
VERTEX
  5
27B9
  8
0
 62
     0
 10
139.725601
 20
100.349234
 30
0.0
  0
VERTEX
  5
27BA
  8
0
 62
     0
 10
139.542012
 20
101.006914
 30
0.0
  0
VERTEX
  5
27BB
  8
0
 62
     0
 10
139.245651
 20
101.616897
 30
0.0
  0
VERTEX
  5
27BC
  8
0
 62
     0
 10
138.846756
 20
102.159849
 30
0.0
  0
VERTEX
  5
27BD
  8
0
 62
     0
 10
138.358149
 20
102.618534
 30
0.0
  0
VERTEX
  5
27BE
  8
0
 62
     0
 10
137.795538
 20
102.977669
 30
0.0
  0
VERTEX
  5
27BF
  8
0
 62
     0
 10
137.177867
 20
103.224598
 30
0.0
  0
VERTEX
  5
27C0
  8
0
 62
     0
 10
136.526067
 20
103.350602
 30
0.0
  0
VERTEX
  5
27C1
  8
0
 62
     0
 10
135.862731
 20
103.351209
 30
0.0
  0
VERTEX
  5
27C2
  8
0
 62
     0
 10
135.210457
 20
103.226454
 30
0.0
  0
VERTEX
  5
27C3
  8
0
 62
     0
 10
134.591772
 20
102.980792
 30
0.0
  0
VERTEX
  5
27C4
  8
0
 62
     0
 10
134.027684
 20
102.622766
 30
0.0
  0
VERTEX
  5
27C5
  8
0
 62
     0
 10
133.53739
 20
102.16472
 30
0.0
  0
VERTEX
  5
27C6
  8
0
 62
     0
 10
133.137108
 20
101.621652
 30
0.0
  0
VERTEX
  5
27C7
  8
0
 62
     0
 10
132.840328
 20
101.010703
 30
0.0
  0
VERTEX
  5
27C8
  8
0
 62
     0
 10
132.657903
 20
100.351314
 30
0.0
  0
VERTEX
  5
27C9
  8
0
 62
     0
 10
132.597577
 20
99.66668
 30
0.0
  0
SEQEND
  5
27CA
  8
0
 62
     0
  0
POLYLINE
  5
23F9
  8
0
 62
     0
 66
     1
 10
0.0
 20
0.0
 30
0.0
  0
VERTEX
  5
27CB
  8
0
 62
     0
 10
133.632583
 20
99.670171
 30
0.0
  0
VERTEX
  5
27CC
  8
0
 62
     0
 10
133.578449
 20
100.288042
 30
0.0
  0
VERTEX
  5
27CD
  8
0
 62
     0
 10
133.417761
 20
100.886465
 30
0.0
  0
VERTEX
  5
27CE
  8
0
 62
     0
 10
133.376796
 20
100.973994
 30
0.0
  0
SEQEND
  5
27CF
  8
0
 62
     0
  0
POLYLINE
  5
23FA
  8
0
 62
     0
 66
     1
 10
0.0
 20
0.0
 30
0.0
  0
VERTEX
  5
27D0
  8
0
 62
     0
 10
132.597577
 20
99.66668
 30
0.0
  0
VERTEX
  5
27D1
  8
0
 62
     0
 10
132.662042
 20
98.982129
 30
0.0
  0
VERTEX
  5
27D2
  8
0
 62
     0
 10
132.84835
 20
98.323006
 30
0.0
  0
VERTEX
  5
27D3
  8
0
 62
     0
 10
133.148547
 20
97.712409
 30
0.0
  0
VERTEX
  5
27D4
  8
0
 62
     0
 10
133.551588
 20
97.169721
 30
0.0
  0
VERTEX
  5
27D5
  8
0
 62
     0
 10
134.043843
 20
96.711976
 30
0.0
  0
VERTEX
  5
27D6
  8
0
 62
     0
 10
134.609067
 20
96.354012
 30
0.0
  0
VERTEX
  5
27D7
  8
0
 62
     0
 10
135.228131
 20
96.108059
 30
0.0
  0
VERTEX
  5
27D8
  8
0
 62
     0
 10
135.880221
 20
95.982618
 30
0.0
  0
VERTEX
  5
27D9
  8
0
 62
     0
 10
136.543039
 20
95.98224
 30
0.0
  0
VERTEX
  5
27DA
  8
0
 62
     0
 10
137.194164
 20
96.107195
 30
0.0
  0
VERTEX
  5
27DB
  8
0
 62
     0
 10
137.811063
 20
96.353314
 30
0.0
  0
VERTEX
  5
27DC
  8
0
 62
     0
 10
138.372677
 20
96.712139
 30
0.0
  0
VERTEX
  5
27DD
  8
0
 62
     0
 10
138.85981
 20
97.171095
 30
0.0
  0
VERTEX
  5
27DE
  8
0
 62
     0
 10
139.256518
 20
97.714769
 30
0.0
  0
VERTEX
  5
27DF
  8
0
 62
     0
 10
139.549876
 20
98.325639
 30
0.0
  0
VERTEX
  5
27E0
  8
0
 62
     0
 10
139.729742
 20
98.984023
 30
0.0
  0
VERTEX
  5
27E1
  8
0
 62
     0
 10
139.789078
 20
99.66668
 30
0.0
  0
SEQEND
  5
27E2
  8
0
 62
     0
  0
POLYLINE
  5
23FB
  8
0
 62
     0
 66
     1
 10
0.0
 20
0.0
 30
0.0
  0
VERTEX
  5
27E3
  8
0
 62
     0
 10
132.836646
 20
99.670171
 30
0.0
  0
VERTEX
  5
27E4
  8
0
 62
     0
 10
132.897959
 20
99.021824
 30
0.0
  0
VERTEX
  5
27E5
  8
0
 62
     0
 10
133.0746
 20
98.398472
 30
0.0
  0
VERTEX
  5
27E6
  8
0
 62
     0
 10
133.359043
 20
97.821032
 30
0.0
  0
VERTEX
  5
27E7
  8
0
 62
     0
 10
133.740813
 20
97.307825
 30
0.0
  0
VERTEX
  5
27E8
  8
0
 62
     0
 10
134.206996
 20
96.874956
 30
0.0
  0
VERTEX
  5
27E9
  8
0
 62
     0
 10
134.742203
 20
96.536451
 30
0.0
  0
VERTEX
  5
27EA
  8
0
 62
     0
 10
135.328316
 20
96.303869
 30
0.0
  0
VERTEX
  5
27EB
  8
0
 62
     0
 10
135.945629
 20
96.185245
 30
0.0
  0
VERTEX
  5
27EC
  8
0
 62
     0
 10
136.261322
 20
96.170171
 30
0.0
  0
SEQEND
  5
27ED
  8
0
 62
     0
  0
POLYLINE
  5
23FC
  8
0
 62
     0
 66
     1
 10
0.0
 20
0.0
 30
0.0
  0
VERTEX
  5
27EE
  8
0
 62
     0
 10
132.339545
 20
105.770171
 30
0.0
  0
VERTEX
  5
27EF
  8
0
 62
     0
 10
135.714314
 20
105.223182
 30
0.0
  0
VERTEX
  5
27F0
  8
0
 62
     0
 10
139.126486
 20
104.881573
 30
0.0
  0
SEQEND
  5
27F1
  8
0
 62
     0
  0
LINE
  5
23FD
  8
0
 62
     0
 10
135.46893
 20
105.171219
 30
0.0
 11
133.367848
 21
105.480765
 31
0.0
  0
POLYLINE
  5
23FE
  8
0
 62
     0
 66
     1
 10
0.0
 20
0.0
 30
0.0
  0
VERTEX
  5
27F2
  8
0
 62
     0
 10
139.730942
 20
104.819843
 30
0.0
  0
VERTEX
  5
27F3
  8
0
 62
     0
 10
137.141879
 20
105.016495
 30
0.0
  0
VERTEX
  5
27F4
  8
0
 62
     0
 10
134.564665
 20
105.33341
 30
0.0
  0
VERTEX
  5
27F5
  8
0
 62
     0
 10
132.003259
 20
105.770171
 30
0.0
  0
SEQEND
  5
27F6
  8
0
 62
     0
  0
POLYLINE
  5
23FF
  8
0
 62
     0
 66
     1
 10
0.0
 20
0.0
 30
0.0
  0
VERTEX
  5
27F7
  8
0
 62
     0
 10
139.357598
 20
104.819843
 30
0.0
  0
VERTEX
  5
27F8
  8
0
 62
     0
 10
136.768535
 20
105.016495
 30
0.0
  0
VERTEX
  5
27F9
  8
0
 62
     0
 10
134.191322
 20
105.33341
 30
0.0
  0
VERTEX
  5
27FA
  8
0
 62
     0
 10
131.629915
 20
105.770171
 30
0.0
  0
SEQEND
  5
27FB
  8
0
 62
     0
  0
POLYLINE
  5
2400
  8
0
 62
     0
 66
     1
 10
0.0
 20
0.0
 30
0.0
  0
VERTEX
  5
27FC
  8
0
 62
     0
 10
141.288362
 20
104.745568
 30
0.0
  0
VERTEX
  5
27FD
  8
0
 62
     0
 10
137.958118
 20
104.881573
 30
0.0
  0
VERTEX
  5
27FE
  8
0
 62
     0
 10
134.623629
 20
105.223182
 30
0.0
  0
VERTEX
  5
27FF
  8
0
 62
     0
 10
131.293629
 20
105.770171
 30
0.0
  0
SEQEND
  5
2800
  8
0
 62
     0
  0
POLYLINE
  5
2401
  8
0
 62
     0
 66
     1
 10
0.0
 20
0.0
 30
0.0
  0
VERTEX
  5
2801
  8
0
 62
     0
 10
136.238886
 20
103.170171
 30
0.0
  0
VERTEX
  5
2802
  8
0
 62
     0
 10
135.927969
 20
103.155545
 30
0.0
  0
VERTEX
  5
2803
  8
0
 62
     0
 10
135.310516
 20
103.037584
 30
0.0
  0
VERTEX
  5
2804
  8
0
 62
     0
 10
134.724833
 20
102.80529
 30
0.0
  0
VERTEX
  5
2805
  8
0
 62
     0
 10
134.190807
 20
102.466736
 30
0.0
  0
VERTEX
  5
2806
  8
0
 62
     0
 10
133.726616
 20
102.033591
 30
0.0
  0
VERTEX
  5
2807
  8
0
 62
     0
 10
133.347619
 20
101.520031
 30
0.0
  0
VERTEX
  5
2808
  8
0
 62
     0
 10
133.066593
 20
100.942264
 30
0.0
  0
VERTEX
  5
2809
  8
0
 62
     0
 10
132.893826
 20
100.318661
 30
0.0
  0
VERTEX
  5
280A
  8
0
 62
     0
 10
132.836646
 20
99.670171
 30
0.0
  0
SEQEND
  5
280B
  8
0
 62
     0
  0
POLYLINE
  5
2402
  8
0
 62
     0
 66
     1
 10
0.0
 20
0.0
 30
0.0
  0
VERTEX
  5
280C
  8
0
 62
     0
 10
145.578036
 20
106.620171
 30
0.0
  0
VERTEX
  5
280D
  8
0
 62
     0
 10
141.409097
 20
106.211994
 30
0.0
  0
VERTEX
  5
280E
  8
0
 62
     0
 10
133.860989
 20
105.966509
 30
0.0
  0
VERTEX
  5
280F
  8
0
 62
     0
 10
132.011192
 20
106.026676
 30
0.0
  0
SEQEND
  5
2810
  8
0
 62
     0
  0
POLYLINE
  5
2403
  8
0
 62
     0
 66
     1
 10
0.0
 20
0.0
 30
0.0
  0
VERTEX
  5
2811
  8
0
 62
     0
 10
136.390075
 20
96.18324
 30
0.0
  0
VERTEX
  5
2812
  8
0
 62
     0
 10
135.825925
 20
96.253592
 30
0.0
  0
VERTEX
  5
2813
  8
0
 62
     0
 10
135.194009
 20
96.462919
 30
0.0
  0
VERTEX
  5
2814
  8
0
 62
     0
 10
134.613406
 20
96.79152
 30
0.0
  0
VERTEX
  5
2815
  8
0
 62
     0
 10
134.105711
 20
97.227178
 30
0.0
  0
VERTEX
  5
2816
  8
0
 62
     0
 10
133.689804
 20
97.753694
 30
0.0
  0
VERTEX
  5
2817
  8
0
 62
     0
 10
133.381158
 20
98.351489
 30
0.0
  0
SEQEND
  5
2818
  8
0
 62
     0
  0
LINE
  5
2404
  8
0
 62
     0
 10
134.517283
 20
91.833188
 30
0.0
 11
130.566341
 21
91.360965
 31
0.0
  0
POLYLINE
  5
2405
  8
0
 62
     0
 66
     1
 10
0.0
 20
0.0
 30
0.0
  0
VERTEX
  5
2819
  8
0
 62
     0
 10
113.803005
 20
91.90049
 30
0.0
  0
VERTEX
  5
281A
  8
0
 62
     0
 10
117.785033
 20
91.480434
 30
0.0
  0
VERTEX
  5
281B
  8
0
 62
     0
 10
121.756455
 20
91.283239
 30
0.0
  0
VERTEX
  5
281C
  8
0
 62
     0
 10
125.708387
 20
91.308659
 30
0.0
  0
VERTEX
  5
281D
  8
0
 62
     0
 10
129.633438
 20
91.556667
 30
0.0
  0
VERTEX
  5
281E
  8
0
 62
     0
 10
133.52406
 20
92.027594
 30
0.0
  0
VERTEX
  5
281F
  8
0
 62
     0
 10
137.372117
 20
92.721984
 30
0.0
  0
VERTEX
  5
2820
  8
0
 62
     0
 10
141.16963
 20
93.640676
 30
0.0
  0
SEQEND
  5
2821
  8
0
 62
     0
  0
POLYLINE
  5
2406
  8
0
 62
     0
 66
     1
 10
0.0
 20
0.0
 30
0.0
  0
VERTEX
  5
2822
  8
0
 62
     0
 10
123.311518
 20
91.070171
 30
0.0
  0
VERTEX
  5
2823
  8
0
 62
     0
 10
125.746698
 20
91.112269
 30
0.0
  0
VERTEX
  5
2824
  8
0
 62
     0
 10
129.688623
 20
91.360965
 30
0.0
  0
VERTEX
  5
2825
  8
0
 62
     0
 10
133.596034
 20
91.833187
 30
0.0
  0
VERTEX
  5
2826
  8
0
 62
     0
 10
137.460759
 20
92.529484
 30
0.0
  0
SEQEND
  5
2827
  8
0
 62
     0
  0
POLYLINE
  5
2407
  8
0
 62
     0
 66
     1
 10
0.0
 20
0.0
 30
0.0
  0
VERTEX
  5
2828
  8
0
 62
     0
 10
124.315077
 20
91.073478
 30
0.0
  0
VERTEX
  5
2829
  8
0
 62
     0
 10
128.594351
 20
91.208733
 30
0.0
  0
VERTEX
  5
282A
  8
0
 62
     0
 10
133.21227
 20
91.652475
 30
0.0
  0
VERTEX
  5
282B
  8
0
 62
     0
 10
137.834128
 20
92.402366
 30
0.0
  0
VERTEX
  5
282C
  8
0
 62
     0
 10
138.521155
 20
92.559679
 30
0.0
  0
SEQEND
  5
282D
  8
0
 62
     0
  0
DIMENSION
  5
2408
  8
0
 62
     0
  2
*D0
 10
156.261192
 20
225.408695
 30
0.0
 11
133.86772
 21
225.408695
 31
0.0
 70
   128
 13
111.461192
 23
218.470171
 33
0.0
 14
156.261192
 24
218.470171
 34
0.0
1001
ACAD
1000
DSTYLE
1002
{
1070
    41
1040
2.5
1070
    42
1040
1.851852
1070
    43
1040
11.259259
1070
    44
1040
1.0
1070
   140
1040
2.5
1070
   141
1040
2.666667
1070
   271
1070
     2
1002
}
  0
LINE
  5
2409
  8
0
 62
     0
 10
112.861192
 20
155.270171
 30
0.0
 11
112.861192
 21
165.727
 31
0.0
  0
LINE
  5
240A
  8
0
 62
     0
 10
112.561192
 20
155.070171
 30
0.0
 11
112.561192
 21
165.921501
 31
0.0
  0
LINE
  5
240B
  8
0
 62
     0
 10
111.861192
 20
151.570171
 30
0.0
 11
111.861192
 21
173.211452
 31
0.0
  0
LINE
  5
240C
  8
0
 62
     0
 10
111.361192
 20
151.570171
 30
0.0
 11
111.361192
 21
203.221045
 31
0.0
  0
DIMENSION
  5
240D
  8
0
 62
     0
  2
*D1
 10
101.284017
 20
91.070174
 30
0.0
 11
101.284017
 21
154.657754
 31
0.0
 70
   128
 13
110.761192
 23
217.770171
 33
0.0
 14
122.311379
 24
91.070174
 34
0.0
 50
270.0
1001
ACAD
1000
DSTYLE
1002
{
1070
    41
1040
2.5
1070
    42
1040
1.851852
1070
    43
1040
11.259259
1070
    44
1040
1.0
1070
   140
1040
2.5
1070
   141
1040
2.666667
1070
   271
1070
     2
1002
}
  0
LINE
  5
240E
  8
0
 62
     0
 10
111.461192
 20
132.070171
 30
0.0
 11
111.461192
 21
107.058583
 31
0.0
  0
LINE
  5
240F
  8
0
 62
     0
 10
111.361192
 20
134.070171
 30
0.0
 11
111.961192
 21
122.070171
 31
0.0
  0
POLYLINE
  5
2410
  8
0
 62
     0
 66
     1
 10
0.0
 20
0.0
 30
0.0
  0
VERTEX
  5
282E
  8
0
 62
     0
 10
130.226473
 20
105.446925
 30
0.0
  0
VERTEX
  5
282F
  8
0
 62
     0
 10
129.864353
 20
105.365644
 30
0.0
  0
VERTEX
  5
2830
  8
0
 62
     0
 10
129.471658
 20
105.285668
 30
0.0
  0
VERTEX
  5
2831
  8
0
 62
     0
 10
129.03622
 20
105.206645
 30
0.0
  0
VERTEX
  5
2832
  8
0
 62
     0
 10
128.546531
 20
105.129506
 30
0.0
  0
VERTEX
  5
2833
  8
0
 62
     0
 10
127.990754
 20
105.056374
 30
0.0
  0
VERTEX
  5
2834
  8
0
 62
     0
 10
127.356086
 20
104.990556
 30
0.0
  0
VERTEX
  5
2835
  8
0
 62
     0
 10
126.647743
 20
104.937559
 30
0.0
  0
VERTEX
  5
2836
  8
0
 62
     0
 10
125.927087
 20
104.903032
 30
0.0
  0
VERTEX
  5
2837
  8
0
 62
     0
 10
125.253875
 20
104.885084
 30
0.0
  0
VERTEX
  5
2838
  8
0
 62
     0
 10
124.625349
 20
104.877272
 30
0.0
  0
VERTEX
  5
2839
  8
0
 62
     0
 10
124.049691
 20
104.874657
 30
0.0
  0
VERTEX
  5
283A
  8
0
 62
     0
 10
123.542289
 20
104.874047
 30
0.0
  0
VERTEX
  5
283B
  8
0
 62
     0
 10
123.095894
 20
104.874065
 30
0.0
  0
VERTEX
  5
283C
  8
0
 62
     0
 10
122.695364
 20
104.874516
 30
0.0
  0
VERTEX
  5
283D
  8
0
 62
     0
 10
122.344251
 20
104.875572
 30
0.0
  0
VERTEX
  5
283E
  8
0
 62
     0
 10
122.031197
 20
104.877421
 30
0.0
  0
VERTEX
  5
283F
  8
0
 62
     0
 10
121.740055
 20
104.880272
 30
0.0
  0
VERTEX
  5
2840
  8
0
 62
     0
 10
121.454912
 20
104.88446
 30
0.0
  0
VERTEX
  5
2841
  8
0
 62
     0
 10
121.160432
 20
104.890583
 30
0.0
  0
VERTEX
  5
2842
  8
0
 62
     0
 10
120.841773
 20
104.899655
 30
0.0
  0
VERTEX
  5
2843
  8
0
 62
     0
 10
120.484868
 20
104.913313
 30
0.0
  0
VERTEX
  5
2844
  8
0
 62
     0
 10
120.084976
 20
104.933596
 30
0.0
  0
VERTEX
  5
2845
  8
0
 62
     0
 10
119.643159
 20
104.962818
 30
0.0
  0
VERTEX
  5
2846
  8
0
 62
     0
 10
119.149348
 20
105.004742
 30
0.0
  0
VERTEX
  5
2847
  8
0
 62
     0
 10
118.606055
 20
105.063046
 30
0.0
  0
VERTEX
  5
2848
  8
0
 62
     0
 10
118.089296
 20
105.131085
 30
0.0
  0
VERTEX
  5
2849
  8
0
 62
     0
 10
117.612497
 20
105.205274
 30
0.0
  0
VERTEX
  5
284A
  8
0
 62
     0
 10
117.173319
 20
105.283668
 30
0.0
  0
VERTEX
  5
284B
  8
0
 62
     0
 10
116.768922
 20
105.364648
 30
0.0
  0
VERTEX
  5
284C
  8
0
 62
     0
 10
116.396299
 20
105.446925
 30
0.0
  0
SEQEND
  5
284D
  8
0
 62
     0
  0
POLYLINE
  5
2411
  8
0
 62
     0
 66
     1
 10
0.0
 20
0.0
 30
0.0
  0
VERTEX
  5
284E
  8
0
 62
     0
 10
130.147845
 20
105.637463
 30
0.0
  0
VERTEX
  5
284F
  8
0
 62
     0
 10
129.789629
 20
105.557015
 30
0.0
  0
VERTEX
  5
2850
  8
0
 62
     0
 10
129.401171
 20
105.477872
 30
0.0
  0
VERTEX
  5
2851
  8
0
 62
     0
 10
128.970346
 20
105.39967
 30
0.0
  0
VERTEX
  5
2852
  8
0
 62
     0
 10
128.485716
 20
105.323333
 30
0.0
  0
VERTEX
  5
2853
  8
0
 62
     0
 10
127.935457
 20
105.250959
 30
0.0
  0
VERTEX
  5
2854
  8
0
 62
     0
 10
127.306717
 20
105.185823
 30
0.0
  0
VERTEX
  5
2855
  8
0
 62
     0
 10
126.604587
 20
105.13339
 30
0.0
  0
VERTEX
  5
2856
  8
0
 62
     0
 10
125.889581
 20
105.099237
 30
0.0
  0
VERTEX
  5
2857
  8
0
 62
     0
 10
125.2205
 20
105.081478
 30
0.0
  0
VERTEX
  5
2858
  8
0
 62
     0
 10
124.594791
 20
105.073746
 30
0.0
  0
VERTEX
  5
2859
  8
0
 62
     0
 10
124.020789
 20
105.071157
 30
0.0
  0
VERTEX
  5
285A
  8
0
 62
     0
 10
123.514314
 20
105.070552
 30
0.0
  0
VERTEX
  5
285B
  8
0
 62
     0
 10
123.0687
 20
105.07057
 30
0.0
  0
VERTEX
  5
285C
  8
0
 62
     0
 10
122.669089
 20
105.071016
 30
0.0
  0
VERTEX
  5
285D
  8
0
 62
     0
 10
122.319083
 20
105.072061
 30
0.0
  0
VERTEX
  5
285E
  8
0
 62
     0
 10
122.007298
 20
105.073891
 30
0.0
  0
VERTEX
  5
285F
  8
0
 62
     0
 10
121.717584
 20
105.076712
 30
0.0
  0
VERTEX
  5
2860
  8
0
 62
     0
 10
121.434068
 20
105.080857
 30
0.0
  0
VERTEX
  5
2861
  8
0
 62
     0
 10
121.141495
 20
105.086916
 30
0.0
  0
VERTEX
  5
2862
  8
0
 62
     0
 10
120.825141
 20
105.095894
 30
0.0
  0
VERTEX
  5
2863
  8
0
 62
     0
 10
120.471094
 20
105.10941
 30
0.0
  0
VERTEX
  5
2864
  8
0
 62
     0
 10
120.074696
 20
105.129482
 30
0.0
  0
VERTEX
  5
2865
  8
0
 62
     0
 10
119.637008
 20
105.158399
 30
0.0
  0
VERTEX
  5
2866
  8
0
 62
     0
 10
119.148121
 20
105.199883
 30
0.0
  0
VERTEX
  5
2867
  8
0
 62
     0
 10
118.610577
 20
105.257565
 30
0.0
  0
VERTEX
  5
2868
  8
0
 62
     0
 10
118.09932
 20
105.324897
 30
0.0
  0
VERTEX
  5
2869
  8
0
 62
     0
 10
117.627739
 20
105.398314
 30
0.0
  0
VERTEX
  5
286A
  8
0
 62
     0
 10
117.193454
 20
105.475892
 30
0.0
  0
VERTEX
  5
286B
  8
0
 62
     0
 10
116.793617
 20
105.556028
 30
0.0
  0
VERTEX
  5
286C
  8
0
 62
     0
 10
116.425168
 20
105.637463
 30
0.0
  0
SEQEND
  5
286D
  8
0
 62
     0
  0
LINE
  5
2412
  8
0
 62
     0
 10
113.248974
 20
105.770171
 30
0.0
 11
130.707998
 21
105.770171
 31
0.0
  0
LINE
  5
2413
  8
0
 62
     0
 10
116.425168
 20
105.637463
 30
0.0
 11
130.147845
 21
105.637463
 31
0.0
  0
POLYLINE
  5
2414
  8
0
 62
     0
 66
     1
 10
0.0
 20
0.0
 30
0.0
  0
VERTEX
  5
286E
  8
0
 62
     0
 10
113.789819
 20
91.70572
 30
0.0
  0
VERTEX
  5
286F
  8
0
 62
     0
 10
118.432196
 20
91.237589
 30
0.0
  0
VERTEX
  5
2870
  8
0
 62
     0
 10
123.311551
 20
91.070176
 30
0.0
  0
SEQEND
  5
2871
  8
0
 62
     0
  0
POLYLINE
  5
2415
  8
0
 62
     0
 66
     1
 10
0.0
 20
0.0
 30
0.0
  0
VERTEX
  5
2872
  8
0
 62
     0
 10
113.618739
 20
91.900597
 30
0.0
  0
VERTEX
  5
2873
  8
0
 62
     0
 10
113.550102
 20
96.488779
 30
0.0
  0
VERTEX
  5
2874
  8
0
 62
     0
 10
113.481364
 20
101.111923
 30
0.0
  0
VERTEX
  5
2875
  8
0
 62
     0
 10
113.412524
 20
105.770171
 30
0.0
  0
SEQEND
  5
2876
  8
0
 62
     0
  0
POLYLINE
  5
2416
  8
0
 62
     0
 66
     1
 10
0.0
 20
0.0
 30
0.0
  0
VERTEX
  5
2877
  8
0
 62
     0
 10
113.803005
 20
91.90049
 30
0.0
  0
VERTEX
  5
2878
  8
0
 62
     0
 10
113.734262
 20
96.48878
 30
0.0
  0
VERTEX
  5
2879
  8
0
 62
     0
 10
113.665412
 20
101.111924
 30
0.0
  0
VERTEX
  5
287A
  8
0
 62
     0
 10
113.596456
 20
105.770171
 30
0.0
  0
SEQEND
  5
287B
  8
0
 62
     0
  0
LINE
  5
2417
  8
0
 62
     0
 10
113.248974
 20
105.770171
 30
0.0
 11
113.490125
 21
91.954589
 31
0.0
  0
LINE
  5
2418
  8
0
 62
     0
 10
112.521192
 20
104.570171
 30
0.0
 11
112.626524
 21
99.841386
 31
0.0
  0
LINE
  5
2419
  8
0
 62
     0
 10
112.997026
 20
99.841386
 30
0.0
 11
112.890146
 21
104.570171
 31
0.0
  0
POLYLINE
  5
241A
  8
0
 62
     0
 66
     1
 10
0.0
 20
0.0
 30
0.0
  0
VERTEX
  5
287C
  8
0
 62
     0
 10
113.803005
 20
91.900478
 30
0.0
  0
VERTEX
  5
287D
  8
0
 62
     0
 10
113.794147
 20
91.825601
 30
0.0
  0
VERTEX
  5
287E
  8
0
 62
     0
 10
113.788524
 20
91.761835
 30
0.0
  0
SEQEND
  5
287F
  8
0
 62
     0
  0
LINE
  5
241B
  8
0
 62
     0
 10
113.788524
 20
91.761835
 30
0.0
 11
113.787107
 21
91.719738
 31
0.0
  0
LINE
  5
241C
  8
0
 62
     0
 10
113.490118
 20
91.955054
 30
0.0
 11
113.491919
 21
91.931181
 31
0.0
  0
POLYLINE
  5
241D
  8
0
 62
     0
 66
     1
 10
0.0
 20
0.0
 30
0.0
  0
VERTEX
  5
2880
  8
0
 62
     0
 10
113.618741
 20
91.900478
 30
0.0
  0
VERTEX
  5
2881
  8
0
 62
     0
 10
113.631534
 20
91.831862
 30
0.0
  0
VERTEX
  5
2882
  8
0
 62
     0
 10
113.667461
 20
91.771507
 30
0.0
  0
VERTEX
  5
2883
  8
0
 62
     0
 10
113.72311
 20
91.727104
 30
0.0
  0
VERTEX
  5
2884
  8
0
 62
     0
 10
113.762758
 20
91.711248
 30
0.0
  0
SEQEND
  5
2885
  8
0
 62
     0
  0
LINE
  5
241E
  8
0
 62
     0
 10
113.787107
 20
91.719738
 30
0.0
 11
113.789973
 21
91.705699
 31
0.0
  0
POLYLINE
  5
241F
  8
0
 62
     0
 66
     1
 10
0.0
 20
0.0
 30
0.0
  0
VERTEX
  5
2886
  8
0
 62
     0
 10
113.491919
 20
91.931181
 30
0.0
  0
VERTEX
  5
2887
  8
0
 62
     0
 10
113.524444
 20
91.844357
 30
0.0
  0
VERTEX
  5
2888
  8
0
 62
     0
 10
113.568048
 20
91.795748
 30
0.0
  0
SEQEND
  5
2889
  8
0
 62
     0
  0
POLYLINE
  5
2420
  8
0
 62
     0
 66
     1
 10
0.0
 20
0.0
 30
0.0
  0
VERTEX
  5
288A
  8
0
 62
     0
 10
113.49012
 20
91.954938
 30
0.0
  0
VERTEX
  5
288B
  8
0
 62
     0
 10
113.503375
 20
91.941012
 30
0.0
  0
VERTEX
  5
288C
  8
0
 62
     0
 10
113.550174
 20
91.921135
 30
0.0
  0
VERTEX
  5
288D
  8
0
 62
     0
 10
113.618739
 20
91.900597
 30
0.0
  0
SEQEND
  5
288E
  8
0
 62
     0
  0
POLYLINE
  5
2421
  8
0
 62
     0
 66
     1
 10
0.0
 20
0.0
 30
0.0
  0
VERTEX
  5
288F
  8
0
 62
     0
 10
113.568048
 20
91.795748
 30
0.0
  0
VERTEX
  5
2890
  8
0
 62
     0
 10
113.603879
 20
91.77082
 30
0.0
  0
VERTEX
  5
2891
  8
0
 62
     0
 10
113.634376
 20
91.755128
 30
0.0
  0
VERTEX
  5
2892
  8
0
 62
     0
 10
113.664056
 20
91.742755
 30
0.0
  0
VERTEX
  5
2893
  8
0
 62
     0
 10
113.695605
 20
91.731514
 30
0.0
  0
VERTEX
  5
2894
  8
0
 62
     0
 10
113.730412
 20
91.720545
 30
0.0
  0
VERTEX
  5
2895
  8
0
 62
     0
 10
113.762859
 20
91.711219
 30
0.0
  0
SEQEND
  5
2896
  8
0
 62
     0
  0
LINE
  5
2422
  8
0
 62
     0
 10
113.762758
 20
91.711248
 30
0.0
 11
113.762886
 21
91.711213
 31
0.0
  0
LINE
  5
2423
  8
0
 62
     0
 10
113.762758
 20
91.711248
 30
0.0
 11
113.789977
 21
91.705698
 31
0.0
  0
POLYLINE
  5
2424
  8
0
 62
     0
 66
     1
 10
0.0
 20
0.0
 30
0.0
  0
VERTEX
  5
2897
  8
0
 62
     0
 10
113.618741
 20
91.900478
 30
0.0
  0
VERTEX
  5
2898
  8
0
 62
     0
 10
113.640225
 20
91.899754
 30
0.0
  0
VERTEX
  5
2899
  8
0
 62
     0
 10
113.681467
 20
91.899503
 30
0.0
  0
VERTEX
  5
289A
  8
0
 62
     0
 10
113.737836
 20
91.899754
 30
0.0
  0
VERTEX
  5
289B
  8
0
 62
     0
 10
113.803005
 20
91.900478
 30
0.0
  0
SEQEND
  5
289C
  8
0
 62
     0
  0
ARC
  5
2425
  8
0
 62
     0
 10
134.121192
 20
100.320171
 30
0.0
 40
21.5
 50
181.276029
 51
193.560006
  0
POLYLINE
  5
2426
  8
0
 62
     0
 66
     1
 10
0.0
 20
0.0
 30
0.0
  0
VERTEX
  5
289D
  8
0
 62
     0
 10
112.626529
 20
99.841386
 30
0.0
  0
VERTEX
  5
289E
  8
0
 62
     0
 10
112.653091
 20
99.839641
 30
0.0
  0
VERTEX
  5
289F
  8
0
 62
     0
 10
112.729866
 20
99.838991
 30
0.0
  0
VERTEX
  5
28A0
  8
0
 62
     0
 10
112.84871
 20
99.83983
 30
0.0
  0
VERTEX
  5
28A1
  8
0
 62
     0
 10
112.997026
 20
99.841386
 30
0.0
  0
SEQEND
  5
28A2
  8
0
 62
     0
  0
POLYLINE
  5
2427
  8
0
 62
     0
 66
     1
 10
0.0
 20
0.0
 30
0.0
  0
VERTEX
  5
28A3
  8
0
 62
     0
 10
113.417299
 20
96.126801
 30
0.0
  0
VERTEX
  5
28A4
  8
0
 62
     0
 10
113.283269
 20
96.786464
 30
0.0
  0
VERTEX
  5
28A5
  8
0
 62
     0
 10
113.085733
 20
98.308823
 30
0.0
  0
VERTEX
  5
28A6
  8
0
 62
     0
 10
112.997027
 20
99.841386
 30
0.0
  0
SEQEND
  5
28A7
  8
0
 62
     0
  0
ARC
  5
2428
  8
0
 62
     0
 10
113.706569
 20
95.396435
 30
0.0
 40
0.5
 50
193.560006
 51
237.039641
  0
LINE
  5
2429
  8
0
 62
     0
 10
113.219952
 20
95.281504
 30
0.0
 11
113.220507
 21
95.279204
 31
0.0
  0
POLYLINE
  5
242A
  8
0
 62
     0
 66
     1
 10
0.0
 20
0.0
 30
0.0
  0
VERTEX
  5
28A8
  8
0
 62
     0
 10
113.220507
 20
95.279204
 30
0.0
  0
VERTEX
  5
28A9
  8
0
 62
     0
 10
113.252032
 20
95.257573
 30
0.0
  0
VERTEX
  5
28AA
  8
0
 62
     0
 10
113.33
 20
95.250137
 30
0.0
  0
VERTEX
  5
28AB
  8
0
 62
     0
 10
113.432487
 20
95.256702
 30
0.0
  0
SEQEND
  5
28AC
  8
0
 62
     0
  0
LINE
  5
242B
  8
0
 62
     0
 10
113.352461
 20
99.841386
 30
0.0
 11
112.997027
 21
99.841386
 31
0.0
  0
LINE
  5
242C
  8
0
 62
     0
 10
115.511208
 20
107.470171
 30
0.0
 11
118.984369
 21
107.470171
 31
0.0
  0
POLYLINE
  5
242D
  8
0
 62
     0
 66
     1
 10
0.0
 20
0.0
 30
0.0
  0
VERTEX
  5
28AD
  8
0
 62
     0
 10
116.396299
 20
105.446925
 30
0.0
  0
VERTEX
  5
28AE
  8
0
 62
     0
 10
115.703667
 20
105.608011
 30
0.0
  0
VERTEX
  5
28AF
  8
0
 62
     0
 10
115.015217
 20
105.770171
 30
0.0
  0
SEQEND
  5
28B0
  8
0
 62
     0
  0
LINE
  5
242E
  8
0
 62
     0
 10
111.961192
 20
122.070171
 30
0.0
 11
111.961192
 21
109.357593
 31
0.0
  0
LINE
  5
242F
  8
0
 62
     0
 10
111.211192
 20
109.639598
 30
0.0
 11
111.211192
 21
117.463553
 31
0.0
  0
LINE
  5
2430
  8
0
 62
     0
 10
112.889724
 20
104.570171
 30
0.0
 11
112.995364
 21
106.556468
 31
0.0
  0
LINE
  5
2431
  8
0
 62
     0
 10
113.046962
 20
108.270171
 30
0.0
 11
112.667071
 21
108.270171
 31
0.0
  0
LINE
  5
2432
  8
0
 62
     0
 10
115.567795
 20
107.470171
 30
0.0
 11
111.803393
 21
108.080041
 31
0.0
  0
LINE
  5
2433
  8
0
 62
     0
 10
115.511192
 20
106.619615
 30
0.0
 11
111.706962
 21
107.232577
 31
0.0
  0
LINE
  5
2434
  8
0
 62
     0
 10
111.70438
 20
106.763891
 30
0.0
 11
115.511192
 21
106.152246
 31
0.0
  0
LINE
  5
2435
  8
0
 62
     0
 10
113.26992
 20
104.570171
 30
0.0
 11
112.889724
 21
104.570171
 31
0.0
  0
ARC
  5
2436
  8
0
 62
     0
 10
112.461192
 20
109.357593
 30
0.0
 40
0.499999
 50
180.0
 51
260.450974
  0
ARC
  5
2437
  8
0
 62
     0
 10
112.461192
 20
109.357593
 30
0.0
 40
1.0
 50
180.0
 51
260.450974
  0
ARC
  5
2438
  8
0
 62
     0
 10
112.211192
 20
109.639598
 30
0.0
 40
1.0
 50
180.0
 51
220.782421
  0
ARC
  5
2439
  8
0
 62
     0
 10
111.761192
 20
107.058464
 30
0.0
 40
0.3
 50
180.0
 51
259.083755
  0
LINE
  5
243A
  8
0
 62
     0
 10
112.378246
 20
108.864521
 30
0.0
 11
112.295301
 21
108.371449
 31
0.0
  0
LINE
  5
243B
  8
0
 62
     0
 10
111.803393
 20
108.080041
 30
0.0
 11
111.782905
 21
107.901438
 31
0.0
  0
POLYLINE
  5
243C
  8
0
 62
     0
 66
     1
 10
0.0
 20
0.0
 30
0.0
  0
VERTEX
  5
28B1
  8
0
 62
     0
 10
111.782905
 20
107.901438
 30
0.0
  0
VERTEX
  5
28B2
  8
0
 62
     0
 10
111.768933
 20
107.779163
 30
0.0
  0
VERTEX
  5
28B3
  8
0
 62
     0
 10
111.754063
 20
107.648697
 30
0.0
  0
VERTEX
  5
28B4
  8
0
 62
     0
 10
111.739851
 20
107.523698
 30
0.0
  0
VERTEX
  5
28B5
  8
0
 62
     0
 10
111.717788
 20
107.328891
 30
0.0
  0
SEQEND
  5
28B6
  8
0
 62
     0
  0
LINE
  5
243D
  8
0
 62
     0
 10
111.717788
 20
107.328891
 30
0.0
 11
111.706963
 21
107.232578
 31
0.0
  0
LINE
  5
243E
  8
0
 62
     0
 10
112.62838
 20
106.615431
 30
0.0
 11
112.521192
 21
104.570171
 31
0.0
  0
LINE
  5
243F
  8
0
 62
     0
 10
111.805575
 20
108.432168
 30
0.0
 11
111.803392
 21
108.080038
 31
0.0
  0
LINE
  5
2440
  8
0
 62
     0
 10
111.706963
 20
107.232577
 30
0.0
 11
111.704381
 21
106.763892
 31
0.0
  0
LINE
  5
2441
  8
0
 62
     0
 10
111.761192
 20
108.645716
 30
0.0
 11
111.761192
 21
108.436389
 31
0.0
  0
POLYLINE
  5
2442
  8
0
 62
     0
 66
     1
 10
0.0
 20
0.0
 30
0.0
  0
VERTEX
  5
28B7
  8
0
 62
     0
 10
111.761192
 20
108.436389
 30
0.0
  0
VERTEX
  5
28B8
  8
0
 62
     0
 10
111.640015
 20
108.424128
 30
0.0
  0
VERTEX
  5
28B9
  8
0
 62
     0
 10
111.542858
 20
108.391069
 30
0.0
  0
VERTEX
  5
28BA
  8
0
 62
     0
 10
111.481652
 20
108.344194
 30
0.0
  0
VERTEX
  5
28BB
  8
0
 62
     0
 10
111.461192
 20
108.291109
 30
0.0
  0
SEQEND
  5
28BC
  8
0
 62
     0
  0
POLYLINE
  5
2443
  8
0
 62
     0
 66
     1
 10
0.0
 20
0.0
 30
0.0
  0
VERTEX
  5
28BD
  8
0
 62
     0
 10
111.761192
 20
108.436389
 30
0.0
  0
VERTEX
  5
28BE
  8
0
 62
     0
 10
111.775998
 20
108.43592
 30
0.0
  0
VERTEX
  5
28BF
  8
0
 62
     0
 10
111.790795
 20
108.434511
 30
0.0
  0
VERTEX
  5
28C0
  8
0
 62
     0
 10
111.805579
 20
108.43219
 30
0.0
  0
SEQEND
  5
28C1
  8
0
 62
     0
  0
POLYLINE
  5
2444
  8
0
 62
     0
 66
     1
 10
0.0
 20
0.0
 30
0.0
  0
VERTEX
  5
28C2
  8
0
 62
     0
 10
111.803393
 20
108.080041
 30
0.0
  0
VERTEX
  5
28C3
  8
0
 62
     0
 10
111.676314
 20
108.073177
 30
0.0
  0
VERTEX
  5
28C4
  8
0
 62
     0
 10
111.564546
 20
108.027895
 30
0.0
  0
VERTEX
  5
28C5
  8
0
 62
     0
 10
111.488251
 20
107.952365
 30
0.0
  0
VERTEX
  5
28C6
  8
0
 62
     0
 10
111.461192
 20
107.860212
 30
0.0
  0
SEQEND
  5
28C7
  8
0
 62
     0
  0
POLYLINE
  5
2445
  8
0
 62
     0
 66
     1
 10
0.0
 20
0.0
 30
0.0
  0
VERTEX
  5
28C8
  8
0
 62
     0
 10
111.706963
 20
107.232577
 30
0.0
  0
VERTEX
  5
28C9
  8
0
 62
     0
 10
111.580887
 20
107.28527
 30
0.0
  0
VERTEX
  5
28CA
  8
0
 62
     0
 10
111.492779
 20
107.386085
 30
0.0
  0
VERTEX
  5
28CB
  8
0
 62
     0
 10
111.461192
 20
107.513791
 30
0.0
  0
SEQEND
  5
28CC
  8
0
 62
     0
  0
LINE
  5
2446
  8
0
 62
     0
 10
112.092599
 20
108.377468
 30
0.0
 11
111.805579
 21
108.43219
 31
0.0
  0
LINE
  5
2447
  8
0
 62
     0
 10
112.379763
 20
108.323462
 30
0.0
 11
112.092599
 21
108.377468
 31
0.0
  0
LINE
  5
2448
  8
0
 62
     0
 10
112.667071
 20
108.270171
 30
0.0
 11
112.379763
 21
108.323462
 31
0.0
  0
POLYLINE
  5
2449
  8
0
 62
     0
 66
     1
 10
0.0
 20
0.0
 30
0.0
  0
VERTEX
  5
28CD
  8
0
 62
     0
 10
112.521206
 20
104.57017
 30
0.0
  0
VERTEX
  5
28CE
  8
0
 62
     0
 10
112.547673
 20
104.571618
 30
0.0
  0
VERTEX
  5
28CF
  8
0
 62
     0
 10
112.624014
 20
104.572115
 30
0.0
  0
VERTEX
  5
28D0
  8
0
 62
     0
 10
112.742158
 20
104.571618
 30
0.0
  0
VERTEX
  5
28D1
  8
0
 62
     0
 10
112.889724
 20
104.570171
 30
0.0
  0
SEQEND
  5
28D2
  8
0
 62
     0
  0
LINE
  5
244A
  8
0
 62
     0
 10
111.461192
 20
111.418088
 30
0.0
 11
111.211192
 21
111.418088
 31
0.0
  0
LINE
  5
244B
  8
0
 62
     0
 10
111.961192
 20
109.357593
 30
0.0
 11
111.461192
 21
109.357593
 31
0.0
  0
LINE
  5
244C
  8
0
 62
     0
 10
115.511192
 20
105.770171
 30
0.0
 11
115.511192
 21
107.470171
 31
0.0
  0
LINE
  5
244D
  8
0
 62
     0
 10
114.816296
 20
105.770171
 30
0.0
 11
114.772485
 21
106.270935
 31
0.0
  0
LINE
  5
244E
  8
0
 62
     0
 10
114.77241
 20
106.270948
 30
0.0
 11
114.816222
 21
105.770171
 31
0.0
  0
LINE
  5
244F
  8
0
 62
     0
 10
114.554037
 20
106.306034
 30
0.0
 11
114.601292
 21
105.770171
 31
0.0
  0
LINE
  5
2450
  8
0
 62
     0
 10
111.461192
 20
117.463553
 30
0.0
 11
111.211192
 21
117.463553
 31
0.0
  0
POLYLINE
  5
2451
  8
0
 62
     0
 66
     1
 10
0.0
 20
0.0
 30
0.0
  0
VERTEX
  5
28D3
  8
0
 62
     0
 10
116.425168
 20
105.637462
 30
0.0
  0
VERTEX
  5
28D4
  8
0
 62
     0
 10
116.426468
 20
105.618161
 30
0.0
  0
VERTEX
  5
28D5
  8
0
 62
     0
 10
116.421535
 20
105.575883
 30
0.0
  0
VERTEX
  5
28D6
  8
0
 62
     0
 10
116.411018
 20
105.516188
 30
0.0
  0
VERTEX
  5
28D7
  8
0
 62
     0
 10
116.396299
 20
105.446925
 30
0.0
  0
SEQEND
  5
28D8
  8
0
 62
     0
  0
LINE
  5
2452
  8
0
 62
     0
 10
116.009462
 20
107.770171
 30
0.0
 11
116.261192
 21
107.470171
 31
0.0
  0
LINE
  5
2453
  8
0
 62
     0
 10
116.009593
 20
107.770171
 30
0.0
 11
116.23848
 21
107.770171
 31
0.0
  0
POLYLINE
  5
2454
  8
0
 62
     0
 66
     1
 10
0.0
 20
0.0
 30
0.0
  0
VERTEX
  5
28D9
  8
0
 62
     0
 10
116.425168
 20
105.637463
 30
0.0
  0
VERTEX
  5
28DA
  8
0
 62
     0
 10
116.139844
 20
105.703688
 30
0.0
  0
VERTEX
  5
28DB
  8
0
 62
     0
 10
115.855119
 20
105.770171
 30
0.0
  0
SEQEND
  5
28DC
  8
0
 62
     0
  0
LINE
  5
2455
  8
0
 62
     0
 10
130.566341
 20
91.360965
 30
0.0
 11
126.624458
 21
91.112269
 31
0.0
  0
POLYLINE
  5
2456
  8
0
 62
     0
 66
     1
 10
0.0
 20
0.0
 30
0.0
  0
VERTEX
  5
28DD
  8
0
 62
     0
 10
124.096048
 20
91.071858
 30
0.0
  0
VERTEX
  5
28DE
  8
0
 62
     0
 10
124.326118
 20
91.07356
 30
0.0
  0
VERTEX
  5
28DF
  8
0
 62
     0
 10
124.517044
 20
91.075259
 30
0.0
  0
VERTEX
  5
28E0
  8
0
 62
     0
 10
124.657366
 20
91.076514
 30
0.0
  0
VERTEX
  5
28E1
  8
0
 62
     0
 10
124.735785
 20
91.076972
 30
0.0
  0
VERTEX
  5
28E2
  8
0
 62
     0
 10
124.750974
 20
91.076769
 30
0.0
  0
SEQEND
  5
28E3
  8
0
 62
     0
  0
LINE
  5
2457
  8
0
 62
     0
 10
126.624458
 20
91.112269
 30
0.0
 11
124.48779
 21
91.074999
 31
0.0
  0
LINE
  5
2458
  8
0
 62
     0
 10
123.308832
 20
91.070171
 30
0.0
 11
123.587544
 21
91.070171
 31
0.0
  0
LINE
  5
2459
  8
0
 62
     0
 10
123.587544
 20
91.070171
 30
0.0
 11
123.844828
 21
91.070623
 31
0.0
  0
LINE
  5
245A
  8
0
 62
     0
 10
123.844828
 20
91.070623
 30
0.0
 11
124.096048
 21
91.071858
 31
0.0
  0
POLYLINE
  5
245B
  8
0
 62
     0
 66
     1
 10
0.0
 20
0.0
 30
0.0
  0
VERTEX
  5
28E4
  8
0
 62
     0
 10
133.381158
 20
98.351489
 30
0.0
  0
VERTEX
  5
28E5
  8
0
 62
     0
 10
133.191253
 20
98.99833
 30
0.0
  0
VERTEX
  5
28E6
  8
0
 62
     0
 10
133.127156
 20
99.670171
 30
0.0
  0
SEQEND
  5
28E7
  8
0
 62
     0
  0
LINE
  5
245C
  8
0
 62
     0
 10
133.127156
 20
99.670171
 30
0.0
 11
133.191253
 21
100.342012
 31
0.0
  0
POLYLINE
  5
245D
  8
0
 62
     0
 66
     1
 10
0.0
 20
0.0
 30
0.0
  0
VERTEX
  5
28E8
  8
0
 62
     0
 10
130.811095
 20
105.58507
 30
0.0
  0
VERTEX
  5
28E9
  8
0
 62
     0
 10
130.515252
 20
105.514918
 30
0.0
  0
VERTEX
  5
28EA
  8
0
 62
     0
 10
130.226473
 20
105.446925
 30
0.0
  0
SEQEND
  5
28EB
  8
0
 62
     0
  0
POLYLINE
  5
245E
  8
0
 62
     0
 66
     1
 10
0.0
 20
0.0
 30
0.0
  0
VERTEX
  5
28EC
  8
0
 62
     0
 10
130.707997
 20
105.770171
 30
0.0
  0
VERTEX
  5
28ED
  8
0
 62
     0
 10
130.42461
 20
105.702814
 30
0.0
  0
VERTEX
  5
28EE
  8
0
 62
     0
 10
130.147845
 20
105.637463
 30
0.0
  0
SEQEND
  5
28EF
  8
0
 62
     0
  0
POLYLINE
  5
245F
  8
0
 62
     0
 66
     1
 10
0.0
 20
0.0
 30
0.0
  0
VERTEX
  5
28F0
  8
0
 62
     0
 10
130.147845
 20
105.637463
 30
0.0
  0
VERTEX
  5
28F1
  8
0
 62
     0
 10
130.165911
 20
105.618162
 30
0.0
  0
VERTEX
  5
28F2
  8
0
 62
     0
 10
130.18688
 20
105.575884
 30
0.0
  0
VERTEX
  5
28F3
  8
0
 62
     0
 10
130.207992
 20
105.516188
 30
0.0
  0
VERTEX
  5
28F4
  8
0
 62
     0
 10
130.226473
 20
105.446925
 30
0.0
  0
SEQEND
  5
28F5
  8
0
 62
     0
  0
LINE
  5
2460
  8
0
 62
     0
 10
133.367848
 20
105.480765
 30
0.0
 11
131.629915
 21
105.804782
 31
0.0
  0
LINE
  5
2461
  8
0
 62
     0
 10
131.629915
 20
105.770171
 30
0.0
 11
131.629915
 21
106.645906
 31
0.0
  0
LINE
  5
2462
  8
0
 62
     0
 10
130.811095
 20
105.58507
 30
0.0
 11
130.809309
 21
105.770171
 31
0.0
  0
POLYLINE
  5
2463
  8
0
 62
     0
 66
     1
 10
0.0
 20
0.0
 30
0.0
  0
VERTEX
  5
28F6
  8
0
 62
     0
 10
130.748208
 20
105.756408
 30
0.0
  0
VERTEX
  5
28F7
  8
0
 62
     0
 10
130.781512
 20
105.716471
 30
0.0
  0
VERTEX
  5
28F8
  8
0
 62
     0
 10
130.803357
 20
105.655792
 30
0.0
  0
VERTEX
  5
28F9
  8
0
 62
     0
 10
130.811095
 20
105.58507
 30
0.0
  0
SEQEND
  5
28FA
  8
0
 62
     0
  0
LINE
  5
2464
  8
0
 62
     0
 10
130.707998
 20
105.770171
 30
0.0
 11
130.748208
 21
105.756408
 31
0.0
  0
LINE
  5
2465
  8
0
 62
     0
 10
130.809309
 20
105.770171
 30
0.0
 11
131.629915
 21
105.770171
 31
0.0
  0
LINE
  5
2466
  8
0
 62
     0
 10
132.011192
 20
105.770171
 30
0.0
 11
132.011192
 21
106.644835
 31
0.0
  0
LINE
  5
2467
  8
0
 62
     0
 10
132.003259
 20
105.770171
 30
0.0
 11
132.003259
 21
106.644858
 31
0.0
  0
LINE
  5
2468
  8
0
 62
     0
 10
132.011192
 20
105.770171
 30
0.0
 11
132.339545
 21
105.770171
 31
0.0
  0
LINE
  5
2469
  8
0
 62
     0
 10
116.361192
 20
146.770171
 30
0.0
 11
116.361192
 21
136.270171
 31
0.0
  0
LINE
  5
246A
  8
0
 62
     0
 10
115.861192
 20
146.270171
 30
0.0
 11
115.861192
 21
136.770171
 31
0.0
  0
LINE
  5
246B
  8
0
 62
     0
 10
113.061192
 20
146.270171
 30
0.0
 11
113.061192
 21
137.570171
 31
0.0
  0
LINE
  5
246C
  8
0
 62
     0
 10
113.011192
 20
146.270171
 30
0.0
 11
113.011192
 21
137.570171
 31
0.0
  0
LINE
  5
246D
  8
0
 62
     0
 10
112.861192
 20
136.770171
 30
0.0
 11
112.861192
 21
146.270171
 31
0.0
  0
LINE
  5
246E
  8
0
 62
     0
 10
112.361192
 20
136.270171
 30
0.0
 11
112.361192
 21
146.770171
 31
0.0
  0
LINE
  5
246F
  8
0
 62
     0
 10
111.461192
 20
141.070171
 30
0.0
 11
111.361192
 21
145.570171
 31
0.0
  0
LINE
  5
2470
  8
0
 62
     0
 10
115.861192
 20
136.770171
 30
0.0
 11
112.861192
 21
136.770171
 31
0.0
  0
LINE
  5
2471
  8
0
 62
     0
 10
116.361192
 20
136.270171
 30
0.0
 11
112.361192
 21
136.270171
 31
0.0
  0
ARC
  5
2472
  8
0
 62
     0
 10
112.161192
 20
131.370171
 30
0.0
 40
0.8
 50
180.0
 51
207.517548
  0
LINE
  5
2473
  8
0
 62
     0
 10
111.361192
 20
132.070171
 30
0.0
 11
111.461192
 21
132.070171
 31
0.0
  0
LINE
  5
2474
  8
0
 62
     0
 10
111.361192
 20
131.370171
 30
0.0
 11
111.361192
 21
132.070171
 31
0.0
  0
LINE
  5
2475
  8
0
 62
     0
 10
113.011192
 20
140.950171
 30
0.0
 11
112.861192
 21
140.950171
 31
0.0
  0
LINE
  5
2476
  8
0
 62
     0
 10
113.011192
 20
140.570171
 30
0.0
 11
112.861192
 21
140.570171
 31
0.0
  0
LINE
  5
2477
  8
0
 62
     0
 10
113.061192
 20
137.570171
 30
0.0
 11
112.861192
 21
137.570171
 31
0.0
  0
LINE
  5
2478
  8
0
 62
     0
 10
111.461192
 20
137.070171
 30
0.0
 11
111.361192
 21
141.070171
 31
0.0
  0
LINE
  5
2479
  8
0
 62
     0
 10
111.361192
 20
137.070171
 30
0.0
 11
111.461192
 21
137.070171
 31
0.0
  0
LINE
  5
247A
  8
0
 62
     0
 10
111.361192
 20
134.070171
 30
0.0
 11
111.461192
 21
134.070171
 31
0.0
  0
LINE
  5
247B
  8
0
 62
     0
 10
111.461192
 20
134.070171
 30
0.0
 11
111.361192
 21
137.070171
 31
0.0
  0
LINE
  5
247C
  8
0
 62
     0
 10
112.361192
 20
136.270171
 30
0.0
 11
112.861192
 21
136.770171
 31
0.0
  0
LINE
  5
247D
  8
0
 62
     0
 10
111.361192
 20
141.070171
 30
0.0
 11
111.461192
 21
141.070171
 31
0.0
  0
LINE
  5
247E
  8
0
 62
     0
 10
116.361192
 20
136.270171
 30
0.0
 11
115.861192
 21
136.770171
 31
0.0
  0
LINE
  5
247F
  8
0
 62
     0
 10
112.361192
 20
146.770171
 30
0.0
 11
116.361192
 21
146.770171
 31
0.0
  0
LINE
  5
2480
  8
0
 62
     0
 10
112.861192
 20
146.270171
 30
0.0
 11
115.861192
 21
146.270171
 31
0.0
  0
LINE
  5
2481
  8
0
 62
     0
 10
114.361192
 20
151.570171
 30
0.0
 11
114.361192
 21
155.270171
 31
0.0
  0
LINE
  5
2482
  8
0
 62
     0
 10
114.061192
 20
155.070171
 30
0.0
 11
114.061192
 21
151.570171
 31
0.0
  0
LINE
  5
2483
  8
0
 62
     0
 10
112.561192
 20
151.570171
 30
0.0
 11
112.561192
 21
153.288205
 31
0.0
  0
LINE
  5
2484
  8
0
 62
     0
 10
112.561192
 20
153.064598
 30
0.0
 11
114.061192
 21
153.064598
 31
0.0
  0
LINE
  5
2485
  8
0
 62
     0
 10
114.061192
 20
151.846564
 30
0.0
 11
112.561192
 21
151.846564
 31
0.0
  0
LINE
  5
2486
  8
0
 62
     0
 10
111.361192
 20
151.570171
 30
0.0
 11
114.361192
 21
151.570171
 31
0.0
  0
LINE
  5
2487
  8
0
 62
     0
 10
111.461192
 20
145.570171
 30
0.0
 11
111.361192
 21
151.070171
 31
0.0
  0
LINE
  5
2488
  8
0
 62
     0
 10
111.361192
 20
145.570171
 30
0.0
 11
111.461192
 21
145.570171
 31
0.0
  0
LINE
  5
2489
  8
0
 62
     0
 10
112.361192
 20
146.770171
 30
0.0
 11
112.861192
 21
146.270171
 31
0.0
  0
LINE
  5
248A
  8
0
 62
     0
 10
111.361192
 20
151.070171
 30
0.0
 11
111.461192
 21
151.070171
 31
0.0
  0
LINE
  5
248B
  8
0
 62
     0
 10
111.461192
 20
151.570171
 30
0.0
 11
111.461192
 21
151.070171
 31
0.0
  0
LINE
  5
248C
  8
0
 62
     0
 10
114.361192
 20
151.970171
 30
0.0
 11
114.061192
 21
151.970171
 31
0.0
  0
LINE
  5
248D
  8
0
 62
     0
 10
114.361192
 20
155.270171
 30
0.0
 11
112.861192
 21
155.270171
 31
0.0
  0
LINE
  5
248E
  8
0
 62
     0
 10
112.561192
 20
155.070171
 30
0.0
 11
114.061192
 21
155.070171
 31
0.0
  0
LINE
  5
248F
  8
0
 62
     0
 10
112.561192
 20
153.288205
 30
0.0
 11
114.061192
 21
153.288205
 31
0.0
  0
ARC
  5
2490
  8
0
 62
     0
 10
113.061192
 20
156.770171
 30
0.0
 40
0.5
 50
113.67495
 51
180.0
  0
ARC
  5
2491
  8
0
 62
     0
 10
113.061192
 20
159.970171
 30
0.0
 40
0.5
 50
180.0
 51
246.32505
  0
LINE
  5
2492
  8
0
 62
     0
 10
114.361192
 20
153.970171
 30
0.0
 11
114.061192
 21
153.970171
 31
0.0
  0
LINE
  5
2493
  8
0
 62
     0
 10
113.061192
 20
155.270171
 30
0.0
 11
113.061192
 21
155.070171
 31
0.0
  0
LINE
  5
2494
  8
0
 62
     0
 10
113.011192
 20
155.270171
 30
0.0
 11
113.011192
 21
155.070171
 31
0.0
  0
LINE
  5
2495
  8
0
 62
     0
 10
112.961192
 20
155.270171
 30
0.0
 11
112.961192
 21
155.070171
 31
0.0
  0
LINE
  5
2496
  8
0
 62
     0
 10
116.361192
 20
146.770171
 30
0.0
 11
115.861192
 21
146.270171
 31
0.0
  0
LINE
  5
2497
  8
0
 62
     0
 10
129.111192
 20
193.770171
 30
0.0
 11
129.111192
 21
214.738917
 31
0.0
  0
LINE
  5
2498
  8
0
 62
     0
 10
127.861192
 20
173.754083
 30
0.0
 11
127.861192
 21
214.170171
 31
0.0
  0
LINE
  5
2499
  8
0
 62
     0
 10
126.361192
 20
173.858973
 30
0.0
 11
126.361192
 21
214.170171
 31
0.0
  0
LINE
  5
249A
  8
0
 62
     0
 10
125.111192
 20
214.738917
 30
0.0
 11
125.111192
 21
193.770171
 31
0.0
  0
LINE
  5
249B
  8
0
 62
     0
 10
115.611192
 20
193.770171
 30
0.0
 11
115.611192
 21
214.738917
 31
0.0
  0
LINE
  5
249C
  8
0
 62
     0
 10
111.761192
 20
174.009064
 30
0.0
 11
111.761192
 21
217.770171
 31
0.0
  0
LINE
  5
249D
  8
0
 62
     0
 10
111.461192
 20
174.009064
 30
0.0
 11
111.461192
 21
217.470171
 31
0.0
  0
ARC
  5
249E
  8
0
 62
     0
 10
133.861192
 20
297.610171
 30
0.0
 40
125.24
 50
261.59789
 51
266.016648
  0
LINE
  5
249F
  8
0
 62
     0
 10
125.111192
 20
200.770171
 30
0.0
 11
115.611192
 21
200.770171
 31
0.0
  0
LINE
  5
24A0
  8
0
 62
     0
 10
115.611192
 20
199.270171
 30
0.0
 11
125.111192
 21
199.270171
 31
0.0
  0
LINE
  5
24A1
  8
0
 62
     0
 10
125.111192
 20
193.770171
 30
0.0
 11
115.611192
 21
193.770171
 31
0.0
  0
LINE
  5
24A2
  8
0
 62
     0
 10
115.211192
 20
189.570171
 30
0.0
 11
126.361192
 21
189.570171
 31
0.0
  0
LINE
  5
24A3
  8
0
 62
     0
 10
115.211192
 20
188.570171
 30
0.0
 11
125.511192
 21
188.570171
 31
0.0
  0
LINE
  5
24A4
  8
0
 62
     0
 10
117.361192
 20
188.270171
 30
0.0
 11
123.361192
 21
188.270171
 31
0.0
  0
LINE
  5
24A5
  8
0
 62
     0
 10
115.211192
 20
186.970171
 30
0.0
 11
125.511192
 21
186.970171
 31
0.0
  0
POLYLINE
  5
24A6
  8
0
 62
     0
 66
     1
 10
0.0
 20
0.0
 30
0.0
  0
VERTEX
  5
28FB
  8
0
 62
     0
 10
115.561192
 20
183.270171
 30
0.0
  0
VERTEX
  5
28FC
  8
0
 62
     0
 10
117.483712
 20
183.591731
 30
0.0
  0
VERTEX
  5
28FD
  8
0
 62
     0
 10
119.402548
 20
183.750433
 30
0.0
  0
VERTEX
  5
28FE
  8
0
 62
     0
 10
121.319926
 20
183.750429
 30
0.0
  0
VERTEX
  5
28FF
  8
0
 62
     0
 10
123.238709
 20
183.591726
 30
0.0
  0
VERTEX
  5
2900
  8
0
 62
     0
 10
125.161192
 20
183.270171
 30
0.0
  0
SEQEND
  5
2901
  8
0
 62
     0
  0
LINE
  5
24A7
  8
0
 62
     0
 10
115.561192
 20
183.870171
 30
0.0
 11
125.161192
 21
183.870171
 31
0.0
  0
LINE
  5
24A8
  8
0
 62
     0
 10
115.561192
 20
183.870171
 30
0.0
 11
115.561192
 21
173.714386
 31
0.0
  0
LINE
  5
24A9
  8
0
 62
     0
 10
115.211192
 20
177.170171
 30
0.0
 11
115.211192
 21
189.570171
 31
0.0
  0
LINE
  5
24AA
  8
0
 62
     0
 10
114.411192
 20
198.370171
 30
0.0
 11
114.411192
 21
177.170171
 31
0.0
  0
LINE
  5
24AB
  8
0
 62
     0
 10
114.161192
 20
182.170171
 30
0.0
 11
114.161192
 21
185.670171
 31
0.0
  0
LINE
  5
24AC
  8
0
 62
     0
 10
112.661192
 20
182.170171
 30
0.0
 11
112.661192
 21
185.670171
 31
0.0
  0
LINE
  5
24AD
  8
0
 62
     0
 10
112.411192
 20
177.170171
 30
0.0
 11
112.411192
 21
198.370171
 31
0.0
  0
ARC
  5
24AE
  8
0
 62
     0
 10
113.061192
 20
165.727
 30
0.0
 40
0.2
 50
78.705216
 51
180.0
  0
ARC
  5
24AF
  8
0
 62
     0
 10
112.761192
 20
165.921501
 30
0.0
 40
0.2
 50
78.922814
 51
180.0
  0
LINE
  5
24B0
  8
0
 62
     0
 10
112.561192
 20
164.070171
 30
0.0
 11
112.861192
 21
164.070171
 31
0.0
  0
LINE
  5
24B1
  8
0
 62
     0
 10
114.161192
 20
182.370171
 30
0.0
 11
112.661192
 21
182.370171
 31
0.0
  0
LINE
  5
24B2
  8
0
 62
     0
 10
112.411192
 20
182.170171
 30
0.0
 11
114.411192
 21
182.170171
 31
0.0
  0
LINE
  5
24B3
  8
0
 62
     0
 10
112.411192
 20
178.170171
 30
0.0
 11
114.411192
 21
178.170171
 31
0.0
  0
LINE
  5
24B4
  8
0
 62
     0
 10
111.461192
 20
177.170171
 30
0.0
 11
115.561192
 21
177.170171
 31
0.0
  0
LINE
  5
24B5
  8
0
 62
     0
 10
112.661192
 20
177.170171
 30
0.0
 11
112.661192
 21
178.170171
 31
0.0
  0
ARC
  5
24B6
  8
0
 62
     0
 10
112.461192
 20
174.009064
 30
0.0
 40
1.0
 50
180.0
 51
260.177324
  0
LINE
  5
24B7
  8
0
 62
     0
 10
111.361192
 20
175.470171
 30
0.0
 11
111.461192
 21
175.470171
 31
0.0
  0
ARC
  5
24B8
  8
0
 62
     0
 10
112.461192
 20
174.009064
 30
0.0
 40
0.700001
 50
180.0
 51
215.650244
  0
LINE
  5
24B9
  8
0
 62
     0
 10
111.761192
 20
174.009064
 30
0.0
 11
111.461192
 21
174.009064
 31
0.0
  0
POLYLINE
  5
24BA
  8
0
 62
     0
 66
     1
 10
0.0
 20
0.0
 30
0.0
  0
VERTEX
  5
2902
  8
0
 62
     0
 10
111.892379
 20
173.601079
 30
0.0
  0
VERTEX
  5
2903
  8
0
 62
     0
 10
111.934469
 20
173.444076
 30
0.0
  0
VERTEX
  5
2904
  8
0
 62
     0
 10
111.994624
 20
173.294162
 30
0.0
  0
VERTEX
  5
2905
  8
0
 62
     0
 10
112.074826
 20
173.164958
 30
0.0
  0
VERTEX
  5
2906
  8
0
 62
     0
 10
112.174794
 20
173.07081
 30
0.0
  0
VERTEX
  5
2907
  8
0
 62
     0
 10
112.290593
 20
173.023724
 30
0.0
  0
SEQEND
  5
2908
  8
0
 62
     0
  0
LINE
  5
24BB
  8
0
 62
     0
 10
111.892379
 20
173.601079
 30
0.0
 11
111.648602
 21
173.426228
 31
0.0
  0
LINE
  5
24BC
  8
0
 62
     0
 10
115.361192
 20
179.370171
 30
0.0
 11
115.361192
 21
177.170171
 31
0.0
  0
LINE
  5
24BD
  8
0
 62
     0
 10
114.161192
 20
177.170171
 30
0.0
 11
114.161192
 21
178.170171
 31
0.0
  0
LINE
  5
24BE
  8
0
 62
     0
 10
115.561192
 20
179.2719
 30
0.0
 11
115.361192
 21
179.370171
 31
0.0
  0
LINE
  5
24BF
  8
0
 62
     0
 10
117.005765
 20
165.218871
 30
0.0
 11
117.006474
 21
165.300034
 31
0.0
  0
LINE
  5
24C0
  8
0
 62
     0
 10
116.011192
 20
165.458798
 30
0.0
 11
116.011192
 21
165.536995
 31
0.0
  0
LINE
  5
24C1
  8
0
 62
     0
 10
121.151266
 20
164.638867
 30
0.0
 11
121.148248
 21
164.811731
 31
0.0
  0
LINE
  5
24C2
  8
0
 62
     0
 10
115.211192
 20
187.170171
 30
0.0
 11
116.611192
 21
187.170171
 31
0.0
  0
LINE
  5
24C3
  8
0
 62
     0
 10
114.061192
 20
187.170171
 30
0.0
 11
114.061192
 21
193.170171
 31
0.0
  0
LINE
  5
24C4
  8
0
 62
     0
 10
113.861192
 20
187.070171
 30
0.0
 11
113.861192
 21
192.870171
 31
0.0
  0
LINE
  5
24C5
  8
0
 62
     0
 10
113.211192
 20
187.070171
 30
0.0
 11
113.211192
 21
196.570171
 31
0.0
  0
LINE
  5
24C6
  8
0
 62
     0
 10
112.411192
 20
187.070171
 30
0.0
 11
114.411192
 21
187.070171
 31
0.0
  0
LINE
  5
24C7
  8
0
 62
     0
 10
112.411192
 20
185.870171
 30
0.0
 11
114.411192
 21
185.870171
 31
0.0
  0
LINE
  5
24C8
  8
0
 62
     0
 10
114.161192
 20
185.670171
 30
0.0
 11
112.661192
 21
185.670171
 31
0.0
  0
LINE
  5
24C9
  8
0
 62
     0
 10
114.161192
 20
182.870171
 30
0.0
 11
112.661192
 21
182.870171
 31
0.0
  0
LINE
  5
24CA
  8
0
 62
     0
 10
114.061192
 20
187.170171
 30
0.0
 11
114.411192
 21
187.170171
 31
0.0
  0
LINE
  5
24CB
  8
0
 62
     0
 10
113.861192
 20
185.670171
 30
0.0
 11
113.861192
 21
185.870171
 31
0.0
  0
LINE
  5
24CC
  8
0
 62
     0
 10
113.211192
 20
185.670171
 30
0.0
 11
113.211192
 21
185.870171
 31
0.0
  0
LINE
  5
24CD
  8
0
 62
     0
 10
115.461192
 20
186.970171
 30
0.0
 11
115.461192
 21
187.170171
 31
0.0
  0
LINE
  5
24CE
  8
0
 62
     0
 10
114.061192
 20
188.170171
 30
0.0
 11
113.861192
 21
188.170171
 31
0.0
  0
LINE
  5
24CF
  8
0
 62
     0
 10
113.861192
 20
187.570171
 30
0.0
 11
114.061192
 21
187.570171
 31
0.0
  0
LINE
  5
24D0
  8
0
 62
     0
 10
114.411192
 20
198.370171
 30
0.0
 11
112.411192
 21
198.370171
 31
0.0
  0
LINE
  5
24D1
  8
0
 62
     0
 10
114.411192
 20
196.570171
 30
0.0
 11
112.411192
 21
196.570171
 31
0.0
  0
LINE
  5
24D2
  8
0
 62
     0
 10
111.461192
 20
198.106815
 30
0.0
 11
111.361192
 21
198.106815
 31
0.0
  0
LINE
  5
24D3
  8
0
 62
     0
 10
111.461192
 20
197.119601
 30
0.0
 11
111.361192
 21
197.119601
 31
0.0
  0
LINE
  5
24D4
  8
0
 62
     0
 10
113.211192
 20
193.170171
 30
0.0
 11
114.411192
 21
193.170171
 31
0.0
  0
LINE
  5
24D5
  8
0
 62
     0
 10
113.861192
 20
192.870171
 30
0.0
 11
113.211192
 21
192.870171
 31
0.0
  0
LINE
  5
24D6
  8
0
 62
     0
 10
117.361192
 20
186.970171
 30
0.0
 11
117.361192
 21
188.270171
 31
0.0
  0
LINE
  5
24D7
  8
0
 62
     0
 10
116.611192
 20
187.170171
 30
0.0
 11
116.611192
 21
188.570171
 31
0.0
  0
LINE
  5
24D8
  8
0
 62
     0
 10
118.361192
 20
188.270171
 30
0.0
 11
118.361192
 21
188.570171
 31
0.0
  0
LINE
  5
24D9
  8
0
 62
     0
 10
116.861192
 20
200.770171
 30
0.0
 11
116.861192
 21
199.270171
 31
0.0
  0
LINE
  5
24DA
  8
0
 62
     0
 10
129.061192
 20
172.462188
 30
0.0
 11
129.061192
 21
183.870171
 31
0.0
  0
LINE
  5
24DB
  8
0
 62
     0
 10
128.711192
 20
173.694645
 30
0.0
 11
128.711192
 21
189.570171
 31
0.0
  0
LINE
  5
24DC
  8
0
 62
     0
 10
127.711192
 20
193.570171
 30
0.0
 11
127.711192
 21
173.764572
 31
0.0
  0
LINE
  5
24DD
  8
0
 62
     0
 10
126.511192
 20
173.848484
 30
0.0
 11
126.511192
 21
193.570171
 31
0.0
  0
LINE
  5
24DE
  8
0
 62
     0
 10
125.511192
 20
173.918411
 30
0.0
 11
125.511192
 21
188.570171
 31
0.0
  0
LINE
  5
24DF
  8
0
 62
     0
 10
125.161192
 20
172.672716
 30
0.0
 11
125.161192
 21
183.870171
 31
0.0
  0
LINE
  5
24E0
  8
0
 62
     0
 10
125.161192
 20
173.942885
 30
0.0
 11
129.061192
 21
173.670171
 31
0.0
  0
LINE
  5
24E1
  8
0
 62
     0
 10
124.461192
 20
164.530081
 30
0.0
 11
124.461192
 21
164.334666
 31
0.0
  0
LINE
  5
24E2
  8
0
 62
     0
 10
123.661192
 20
164.57029
 30
0.0
 11
123.661192
 21
164.38811
 31
0.0
  0
LINE
  5
24E3
  8
0
 62
     0
 10
123.461192
 20
164.565885
 30
0.0
 11
123.461192
 21
164.401471
 31
0.0
  0
LINE
  5
24E4
  8
0
 62
     0
 10
126.758844
 20
164.233484
 30
0.0
 11
126.756037
 21
164.179927
 31
0.0
  0
LINE
  5
24E5
  8
0
 62
     0
 10
125.361192
 20
179.370171
 30
0.0
 11
125.361192
 21
173.9289
 31
0.0
  0
LINE
  5
24E6
  8
0
 62
     0
 10
126.361192
 20
174.034499
 30
0.0
 11
125.511192
 21
174.093937
 31
0.0
  0
LINE
  5
24E7
  8
0
 62
     0
 10
125.511192
 20
177.170171
 30
0.0
 11
125.361192
 21
177.170171
 31
0.0
  0
LINE
  5
24E8
  8
0
 62
     0
 10
125.361192
 20
179.370171
 30
0.0
 11
125.161192
 21
179.2719
 31
0.0
  0
LINE
  5
24E9
  8
0
 62
     0
 10
128.661192
 20
164.233484
 30
0.0
 11
128.661192
 21
164.026629
 31
0.0
  0
LINE
  5
24EA
  8
0
 62
     0
 10
128.910435
 20
179.345975
 30
0.0
 11
128.910435
 21
173.680713
 31
0.0
  0
LINE
  5
24EB
  8
0
 62
     0
 10
128.711192
 20
173.870171
 30
0.0
 11
127.861192
 21
173.929609
 31
0.0
  0
LINE
  5
24EC
  8
0
 62
     0
 10
128.711192
 20
179.443874
 30
0.0
 11
129.061192
 21
179.2719
 31
0.0
  0
LINE
  5
24ED
  8
0
 62
     0
 10
126.361192
 20
193.670171
 30
0.0
 11
127.861192
 21
193.670171
 31
0.0
  0
LINE
  5
24EE
  8
0
 62
     0
 10
126.511192
 20
193.570171
 30
0.0
 11
127.861192
 21
193.570171
 31
0.0
  0
LINE
  5
24EF
  8
0
 62
     0
 10
124.111192
 20
187.170171
 30
0.0
 11
125.511192
 21
187.170171
 31
0.0
  0
LINE
  5
24F0
  8
0
 62
     0
 10
124.111192
 20
187.170171
 30
0.0
 11
124.111192
 21
188.570171
 31
0.0
  0
LINE
  5
24F1
  8
0
 62
     0
 10
123.361192
 20
186.970171
 30
0.0
 11
123.361192
 21
188.270171
 31
0.0
  0
LINE
  5
24F2
  8
0
 62
     0
 10
122.361192
 20
188.270171
 30
0.0
 11
122.361192
 21
188.570171
 31
0.0
  0
LINE
  5
24F3
  8
0
 62
     0
 10
125.511192
 20
183.570171
 30
0.0
 11
126.361192
 21
183.570171
 31
0.0
  0
LINE
  5
24F4
  8
0
 62
     0
 10
125.211192
 20
186.970171
 30
0.0
 11
125.211192
 21
187.170171
 31
0.0
  0
LINE
  5
24F5
  8
0
 62
     0
 10
126.361192
 20
186.970171
 30
0.0
 11
126.511192
 21
186.970171
 31
0.0
  0
LINE
  5
24F6
  8
0
 62
     0
 10
125.511192
 20
188.570171
 30
0.0
 11
126.361192
 21
189.283406
 31
0.0
  0
LINE
  5
24F7
  8
0
 62
     0
 10
124.061192
 20
199.270171
 30
0.0
 11
124.061192
 21
200.770171
 31
0.0
  0
LINE
  5
24F8
  8
0
 62
     0
 10
123.861192
 20
199.270171
 30
0.0
 11
123.861192
 21
200.770171
 31
0.0
  0
LINE
  5
24F9
  8
0
 62
     0
 10
126.361192
 20
192.970171
 30
0.0
 11
126.511192
 21
192.970171
 31
0.0
  0
LINE
  5
24FA
  8
0
 62
     0
 10
126.361192
 20
192.570171
 30
0.0
 11
126.511192
 21
192.570171
 31
0.0
  0
LINE
  5
24FB
  8
0
 62
     0
 10
126.361192
 20
192.270171
 30
0.0
 11
126.511192
 21
192.270171
 31
0.0
  0
LINE
  5
24FC
  8
0
 62
     0
 10
130.111192
 20
187.170171
 30
0.0
 11
130.111192
 21
188.570171
 31
0.0
  0
LINE
  5
24FD
  8
0
 62
     0
 10
130.111192
 20
187.170171
 30
0.0
 11
128.711192
 21
187.170171
 31
0.0
  0
LINE
  5
24FE
  8
0
 62
     0
 10
129.011192
 20
186.970171
 30
0.0
 11
129.011192
 21
187.170171
 31
0.0
  0
LINE
  5
24FF
  8
0
 62
     0
 10
130.861192
 20
186.970171
 30
0.0
 11
130.861192
 21
188.270171
 31
0.0
  0
LINE
  5
2500
  8
0
 62
     0
 10
131.861192
 20
188.270171
 30
0.0
 11
131.861192
 21
188.570171
 31
0.0
  0
LINE
  5
2501
  8
0
 62
     0
 10
130.361192
 20
200.770171
 30
0.0
 11
130.361192
 21
199.270171
 31
0.0
  0
LINE
  5
2502
  8
0
 62
     0
 10
130.161192
 20
200.770171
 30
0.0
 11
130.161192
 21
199.270171
 31
0.0
  0
LINE
  5
2503
  8
0
 62
     0
 10
115.111192
 20
217.870171
 30
0.0
 11
122.611192
 21
217.870171
 31
0.0
  0
LINE
  5
2504
  8
0
 62
     0
 10
125.111192
 20
214.738917
 30
0.0
 11
115.611192
 21
214.738917
 31
0.0
  0
POLYLINE
  5
2505
  8
0
 62
     0
 66
     1
 10
0.0
 20
0.0
 30
0.0
  0
VERTEX
  5
2909
  8
0
 62
     0
 10
125.111192
 20
213.770171
 30
0.0
  0
VERTEX
  5
290A
  8
0
 62
     0
 10
121.969163
 20
213.617835
 30
0.0
  0
VERTEX
  5
290B
  8
0
 62
     0
 10
118.753222
 20
213.617835
 30
0.0
  0
VERTEX
  5
290C
  8
0
 62
     0
 10
115.611192
 20
213.770171
 30
0.0
  0
SEQEND
  5
290D
  8
0
 62
     0
  0
LINE
  5
2506
  8
0
 62
     0
 10
125.111192
 20
209.770171
 30
0.0
 11
115.611192
 21
209.770171
 31
0.0
  0
LINE
  5
2507
  8
0
 62
     0
 10
115.611192
 20
208.270171
 30
0.0
 11
125.111192
 21
208.270171
 31
0.0
  0
LINE
  5
2508
  8
0
 62
     0
 10
125.111192
 20
206.770171
 30
0.0
 11
115.611192
 21
206.770171
 31
0.0
  0
LINE
  5
2509
  8
0
 62
     0
 10
115.611192
 20
205.270171
 30
0.0
 11
125.111192
 21
205.270171
 31
0.0
  0
LINE
  5
250A
  8
0
 62
     0
 10
125.111192
 20
203.770171
 30
0.0
 11
115.611192
 21
203.770171
 31
0.0
  0
LINE
  5
250B
  8
0
 62
     0
 10
115.611192
 20
202.270171
 30
0.0
 11
125.111192
 21
202.270171
 31
0.0
  0
LINE
  5
250C
  8
0
 62
     0
 10
111.361192
 20
203.221086
 30
0.0
 11
111.461192
 21
203.221086
 31
0.0
  0
ARC
  5
250D
  8
0
 62
     0
 10
113.461192
 20
214.170171
 30
0.0
 40
3.9
 50
67.380135
 51
112.619865
  0
ARC
  5
250E
  8
0
 62
     0
 10
111.761192
 20
217.470171
 30
0.0
 40
0.3
 50
90.0
 51
180.0
  0
LINE
  5
250F
  8
0
 62
     0
 10
115.111192
 20
217.870171
 30
0.0
 11
115.111192
 21
217.770171
 31
0.0
  0
LINE
  5
2510
  8
0
 62
     0
 10
116.861192
 20
203.770171
 30
0.0
 11
116.861192
 21
202.270171
 31
0.0
  0
LINE
  5
2511
  8
0
 62
     0
 10
116.861192
 20
206.770171
 30
0.0
 11
116.861192
 21
205.270171
 31
0.0
  0
LINE
  5
2512
  8
0
 62
     0
 10
116.861192
 20
209.770171
 30
0.0
 11
116.861192
 21
208.270171
 31
0.0
  0
LINE
  5
2513
  8
0
 62
     0
 10
126.361192
 20
214.170171
 30
0.0
 11
127.861192
 21
214.170171
 31
0.0
  0
LINE
  5
2514
  8
0
 62
     0
 10
124.061192
 20
205.270171
 30
0.0
 11
124.061192
 21
206.770171
 31
0.0
  0
LINE
  5
2515
  8
0
 62
     0
 10
124.061192
 20
202.270171
 30
0.0
 11
124.061192
 21
203.770171
 31
0.0
  0
LINE
  5
2516
  8
0
 62
     0
 10
123.861192
 20
205.270171
 30
0.0
 11
123.861192
 21
206.770171
 31
0.0
  0
LINE
  5
2517
  8
0
 62
     0
 10
123.861192
 20
202.270171
 30
0.0
 11
123.861192
 21
203.770171
 31
0.0
  0
LINE
  5
2518
  8
0
 62
     0
 10
124.061192
 20
208.270171
 30
0.0
 11
124.061192
 21
209.770171
 31
0.0
  0
LINE
  5
2519
  8
0
 62
     0
 10
123.861192
 20
208.270171
 30
0.0
 11
123.861192
 21
209.770171
 31
0.0
  0
ARC
  5
251A
  8
0
 62
     0
 10
124.711192
 20
214.170171
 30
0.0
 40
3.9
 50
67.380135
 51
112.619865
  0
LINE
  5
251B
  8
0
 62
     0
 10
122.611192
 20
217.870171
 30
0.0
 11
122.611192
 21
217.770171
 31
0.0
  0
LINE
  5
251C
  8
0
 62
     0
 10
130.361192
 20
203.770171
 30
0.0
 11
130.361192
 21
202.270171
 31
0.0
  0
LINE
  5
251D
  8
0
 62
     0
 10
130.361192
 20
206.770171
 30
0.0
 11
130.361192
 21
205.270171
 31
0.0
  0
LINE
  5
251E
  8
0
 62
     0
 10
130.161192
 20
203.770171
 30
0.0
 11
130.161192
 21
202.270171
 31
0.0
  0
LINE
  5
251F
  8
0
 62
     0
 10
130.161192
 20
206.770171
 30
0.0
 11
130.161192
 21
205.270171
 31
0.0
  0
LINE
  5
2520
  8
0
 62
     0
 10
130.361192
 20
209.770171
 30
0.0
 11
130.361192
 21
208.270171
 31
0.0
  0
LINE
  5
2521
  8
0
 62
     0
 10
130.161192
 20
209.770171
 30
0.0
 11
130.161192
 21
208.270171
 31
0.0
  0
LINE
  5
2522
  8
0
 62
     0
 10
156.361192
 20
151.570171
 30
0.0
 11
156.361192
 21
203.221045
 31
0.0
  0
LINE
  5
2523
  8
0
 62
     0
 10
155.861192
 20
151.570171
 30
0.0
 11
155.861192
 21
173.21145
 31
0.0
  0
LINE
  5
2524
  8
0
 62
     0
 10
154.661192
 20
151.570171
 30
0.0
 11
154.661192
 21
165.82456
 31
0.0
  0
LINE
  5
2525
  8
0
 62
     0
 10
154.361192
 20
165.628385
 30
0.0
 11
154.361192
 21
155.270171
 31
0.0
  0
LINE
  5
2526
  8
0
 62
     0
 10
155.761192
 20
122.070171
 30
0.0
 11
156.361192
 21
134.070171
 31
0.0
  0
LINE
  5
2527
  8
0
 62
     0
 10
156.281192
 20
117.463553
 30
0.0
 11
156.281192
 21
131.035434
 31
0.0
  0
LINE
  5
2528
  8
0
 62
     0
 10
156.261192
 20
107.05858
 30
0.0
 11
156.261192
 21
132.070171
 31
0.0
  0
LINE
  5
2529
  8
0
 62
     0
 10
155.074719
 20
110.870171
 30
0.0
 11
137.761192
 21
110.870171
 31
0.0
  0
LINE
  5
252A
  8
0
 62
     0
 10
141.786192
 20
109.070171
 30
0.0
 11
151.686192
 21
109.070171
 31
0.0
  0
LINE
  5
252B
  8
0
 62
     0
 10
141.786192
 20
107.658862
 30
0.0
 11
151.686192
 21
107.658862
 31
0.0
  0
LINE
  5
252C
  8
0
 62
     0
 10
156.261192
 20
107.370171
 30
0.0
 11
137.761192
 21
107.370171
 31
0.0
  0
LINE
  5
252D
  8
0
 62
     0
 10
155.711192
 20
106.620171
 30
0.0
 11
137.761192
 21
106.620171
 31
0.0
  0
POLYLINE
  5
252E
  8
0
 62
     0
 66
     1
 10
0.0
 20
0.0
 30
0.0
  0
VERTEX
  5
290E
  8
0
 62
     0
 10
140.062391
 20
104.844585
 30
0.0
  0
VERTEX
  5
290F
  8
0
 62
     0
 10
141.317177
 20
104.884583
 30
0.0
  0
VERTEX
  5
2910
  8
0
 62
     0
 10
148.7474
 20
105.597638
 30
0.0
  0
VERTEX
  5
2911
  8
0
 62
     0
 10
155.122028
 20
106.620171
 30
0.0
  0
SEQEND
  5
2912
  8
0
 62
     0
  0
POLYLINE
  5
252F
  8
0
 62
     0
 66
     1
 10
0.0
 20
0.0
 30
0.0
  0
VERTEX
  5
2913
  8
0
 62
     0
 10
152.214589
 20
106.620171
 30
0.0
  0
VERTEX
  5
2914
  8
0
 62
     0
 10
149.000466
 20
106.102298
 30
0.0
  0
VERTEX
  5
2915
  8
0
 62
     0
 10
141.438875
 20
105.366087
 30
0.0
  0
VERTEX
  5
2916
  8
0
 62
     0
 10
136.03312
 20
105.191265
 30
0.0
  0
SEQEND
  5
2917
  8
0
 62
     0
  0
LINE
  5
2530
  8
0
 62
     0
 10
142.561723
 20
93.642578
 30
0.0
 11
142.755493
 21
104.743694
 31
0.0
  0
LINE
  5
2531
  8
0
 62
     0
 10
142.517067
 20
94.481307
 30
0.0
 11
142.695272
 21
104.742983
 31
0.0
  0
LINE
  5
2532
  8
0
 62
     0
 10
142.386422
 20
92.999533
 30
0.0
 11
142.590026
 21
104.720227
 31
0.0
  0
LINE
  5
2533
  8
0
 62
     0
 10
141.896445
 20
94.481307
 30
0.0
 11
142.070256
 21
104.742983
 31
0.0
  0
POLYLINE
  5
2534
  8
0
 62
     0
 66
     1
 10
0.0
 20
0.0
 30
0.0
  0
VERTEX
  5
2918
  8
0
 62
     0
 10
141.412609
 20
93.640642
 30
0.0
  0
VERTEX
  5
2919
  8
0
 62
     0
 10
141.452309
 20
97.348046
 30
0.0
  0
VERTEX
  5
291A
  8
0
 62
     0
 10
141.491744
 20
101.049129
 30
0.0
  0
VERTEX
  5
291B
  8
0
 62
     0
 10
141.530919
 20
104.743887
 30
0.0
  0
SEQEND
  5
291C
  8
0
 62
     0
  0
POLYLINE
  5
2535
  8
0
 62
     0
 66
     1
 10
0.0
 20
0.0
 30
0.0
  0
VERTEX
  5
291D
  8
0
 62
     0
 10
141.16963
 20
93.640676
 30
0.0
  0
VERTEX
  5
291E
  8
0
 62
     0
 10
141.20947
 20
97.348611
 30
0.0
  0
VERTEX
  5
291F
  8
0
 62
     0
 10
141.249046
 20
101.050253
 30
0.0
  0
VERTEX
  5
2920
  8
0
 62
     0
 10
141.288362
 20
104.745568
 30
0.0
  0
SEQEND
  5
2921
  8
0
 62
     0
  0
POLYLINE
  5
2536
  8
0
 62
     0
 66
     1
 10
0.0
 20
0.0
 30
0.0
  0
VERTEX
  5
2922
  8
0
 62
     0
 10
139.293638
 20
92.294653
 30
0.0
  0
VERTEX
  5
2923
  8
0
 62
     0
 10
139.238902
 20
92.229414
 30
0.0
  0
VERTEX
  5
2924
  8
0
 62
     0
 10
139.058002
 20
92.014859
 30
0.0
  0
SEQEND
  5
2925
  8
0
 62
     0
  0
POLYLINE
  5
2537
  8
0
 62
     0
 66
     1
 10
0.0
 20
0.0
 30
0.0
  0
VERTEX
  5
2926
  8
0
 62
     0
 10
139.642229
 20
99.669562
 30
0.0
  0
VERTEX
  5
2927
  8
0
 62
     0
 10
139.585459
 20
99.020122
 30
0.0
  0
VERTEX
  5
2928
  8
0
 62
     0
 10
139.400075
 20
98.359113
 30
0.0
  0
VERTEX
  5
2929
  8
0
 62
     0
 10
139.092102
 20
97.747668
 30
0.0
  0
VERTEX
  5
292A
  8
0
 62
     0
 10
138.672901
 20
97.210284
 30
0.0
  0
VERTEX
  5
292B
  8
0
 62
     0
 10
138.158662
 20
96.76864
 30
0.0
  0
VERTEX
  5
292C
  8
0
 62
     0
 10
137.569406
 20
96.440311
 30
0.0
  0
VERTEX
  5
292D
  8
0
 62
     0
 10
136.928175
 20
96.238218
 30
0.0
  0
VERTEX
  5
292E
  8
0
 62
     0
 10
136.262275
 20
96.170182
 30
0.0
  0
SEQEND
  5
292F
  8
0
 62
     0
  0
POLYLINE
  5
2538
  8
0
 62
     0
 66
     1
 10
0.0
 20
0.0
 30
0.0
  0
VERTEX
  5
2930
  8
0
 62
     0
 10
139.117342
 20
92.44746
 30
0.0
  0
VERTEX
  5
2931
  8
0
 62
     0
 10
139.286324
 20
92.300955
 30
0.0
  0
VERTEX
  5
2932
  8
0
 62
     0
 10
139.459251
 20
92.151942
 30
0.0
  0
SEQEND
  5
2933
  8
0
 62
     0
  0
POLYLINE
  5
2539
  8
0
 62
     0
 66
     1
 10
0.0
 20
0.0
 30
0.0
  0
VERTEX
  5
2934
  8
0
 62
     0
 10
136.239228
 20
103.17016
 30
0.0
  0
VERTEX
  5
2935
  8
0
 62
     0
 10
136.91213
 20
103.100881
 30
0.0
  0
VERTEX
  5
2936
  8
0
 62
     0
 10
137.554039
 20
102.89771
 30
0.0
  0
VERTEX
  5
2937
  8
0
 62
     0
 10
138.144267
 20
102.568743
 30
0.0
  0
VERTEX
  5
2938
  8
0
 62
     0
 10
138.660035
 20
102.126988
 30
0.0
  0
VERTEX
  5
2939
  8
0
 62
     0
 10
139.081484
 20
101.589953
 30
0.0
  0
VERTEX
  5
293A
  8
0
 62
     0
 10
139.392472
 20
100.97914
 30
0.0
  0
VERTEX
  5
293B
  8
0
 62
     0
 10
139.581553
 20
100.318761
 30
0.0
  0
VERTEX
  5
293C
  8
0
 62
     0
 10
139.64223
 20
99.669562
 30
0.0
  0
SEQEND
  5
293D
  8
0
 62
     0
  0
LINE
  5
253A
  8
0
 62
     0
 10
137.460759
 20
92.529484
 30
0.0
 11
141.275095
 21
93.450744
 31
0.0
  0
POLYLINE
  5
253B
  8
0
 62
     0
 66
     1
 10
0.0
 20
0.0
 30
0.0
  0
VERTEX
  5
293E
  8
0
 62
     0
 10
138.422155
 20
92.688326
 30
0.0
  0
VERTEX
  5
293F
  8
0
 62
     0
 10
139.370169
 20
92.922346
 30
0.0
  0
VERTEX
  5
2940
  8
0
 62
     0
 10
140.391809
 20
93.185217
 30
0.0
  0
SEQEND
  5
2941
  8
0
 62
     0
  0
LINE
  5
253C
  8
0
 62
     0
 10
138.468621
 20
92.529486
 30
0.0
 11
134.517283
 21
91.833188
 31
0.0
  0
POLYLINE
  5
253D
  8
0
 62
     0
 66
     1
 10
0.0
 20
0.0
 30
0.0
  0
VERTEX
  5
2942
  8
0
 62
     0
 10
137.637515
 20
92.475764
 30
0.0
  0
VERTEX
  5
2943
  8
0
 62
     0
 10
137.648917
 20
92.483249
 30
0.0
  0
VERTEX
  5
2944
  8
0
 62
     0
 10
137.672613
 20
92.493143
 30
0.0
  0
VERTEX
  5
2945
  8
0
 62
     0
 10
137.708689
 20
92.505485
 30
0.0
  0
VERTEX
  5
2946
  8
0
 62
     0
 10
137.756874
 20
92.520193
 30
0.0
  0
VERTEX
  5
2947
  8
0
 62
     0
 10
137.81784
 20
92.537472
 30
0.0
  0
VERTEX
  5
2948
  8
0
 62
     0
 10
137.891258
 20
92.557229
 30
0.0
  0
VERTEX
  5
2949
  8
0
 62
     0
 10
137.974891
 20
92.578907
 30
0.0
  0
VERTEX
  5
294A
  8
0
 62
     0
 10
138.06911
 20
92.60266
 30
0.0
  0
VERTEX
  5
294B
  8
0
 62
     0
 10
138.174588
 20
92.628687
 30
0.0
  0
VERTEX
  5
294C
  8
0
 62
     0
 10
138.292001
 20
92.657174
 30
0.0
  0
VERTEX
  5
294D
  8
0
 62
     0
 10
138.422155
 20
92.688326
 30
0.0
  0
SEQEND
  5
294E
  8
0
 62
     0
  0
POLYLINE
  5
253E
  8
0
 62
     0
 66
     1
 10
0.0
 20
0.0
 30
0.0
  0
VERTEX
  5
294F
  8
0
 62
     0
 10
138.521155
 20
92.596232
 30
0.0
  0
VERTEX
  5
2950
  8
0
 62
     0
 10
138.428908
 20
92.579341
 30
0.0
  0
VERTEX
  5
2951
  8
0
 62
     0
 10
138.306287
 20
92.557612
 30
0.0
  0
VERTEX
  5
2952
  8
0
 62
     0
 10
138.190018
 20
92.537748
 30
0.0
  0
VERTEX
  5
2953
  8
0
 62
     0
 10
138.083966
 20
92.520373
 30
0.0
  0
VERTEX
  5
2954
  8
0
 62
     0
 10
137.989348
 20
92.505614
 30
0.0
  0
VERTEX
  5
2955
  8
0
 62
     0
 10
137.905049
 20
92.493236
 30
0.0
  0
VERTEX
  5
2956
  8
0
 62
     0
 10
137.831918
 20
92.483321
 30
0.0
  0
VERTEX
  5
2957
  8
0
 62
     0
 10
137.769519
 20
92.475783
 30
0.0
  0
VERTEX
  5
2958
  8
0
 62
     0
 10
137.718603
 20
92.470705
 30
0.0
  0
VERTEX
  5
2959
  8
0
 62
     0
 10
137.679462
 20
92.468121
 30
0.0
  0
VERTEX
  5
295A
  8
0
 62
     0
 10
137.652465
 20
92.468105
 30
0.0
  0
VERTEX
  5
295B
  8
0
 62
     0
 10
137.638608
 20
92.470662
 30
0.0
  0
VERTEX
  5
295C
  8
0
 62
     0
 10
137.637515
 20
92.475764
 30
0.0
  0
SEQEND
  5
295D
  8
0
 62
     0
  0
LINE
  5
253F
  8
0
 62
     0
 10
139.058002
 20
92.014859
 30
0.0
 11
139.023853
 21
91.974653
 31
0.0
  0
POLYLINE
  5
2540
  8
0
 62
     0
 66
     1
 10
0.0
 20
0.0
 30
0.0
  0
VERTEX
  5
295E
  8
0
 62
     0
 10
138.815482
 20
92.014859
 30
0.0
  0
VERTEX
  5
295F
  8
0
 62
     0
 10
138.964746
 20
92.229414
 30
0.0
  0
VERTEX
  5
2960
  8
0
 62
     0
 10
139.117342
 20
92.44746
 30
0.0
  0
SEQEND
  5
2961
  8
0
 62
     0
  0
POLYLINE
  5
2541
  8
0
 62
     0
 66
     1
 10
0.0
 20
0.0
 30
0.0
  0
VERTEX
  5
2962
  8
0
 62
     0
 10
138.787762
 20
91.974653
 30
0.0
  0
VERTEX
  5
2963
  8
0
 62
     0
 10
138.796859
 20
91.987901
 30
0.0
  0
VERTEX
  5
2964
  8
0
 62
     0
 10
138.806099
 20
92.001303
 30
0.0
  0
VERTEX
  5
2965
  8
0
 62
     0
 10
138.815482
 20
92.014859
 30
0.0
  0
SEQEND
  5
2966
  8
0
 62
     0
  0
LINE
  5
2542
  8
0
 62
     0
 10
138.815482
 20
92.014859
 30
0.0
 11
138.815482
 21
92.78542
 31
0.0
  0
LINE
  5
2543
  8
0
 62
     0
 10
138.521155
 20
92.25765
 30
0.0
 11
138.521155
 21
92.712765
 31
0.0
  0
POLYLINE
  5
2544
  8
0
 62
     0
 66
     1
 10
0.0
 20
0.0
 30
0.0
  0
VERTEX
  5
2967
  8
0
 62
     0
 10
138.787762
 20
91.974653
 30
0.0
  0
VERTEX
  5
2968
  8
0
 62
     0
 10
138.657096
 20
92.095555
 30
0.0
  0
VERTEX
  5
2969
  8
0
 62
     0
 10
138.571988
 20
92.183491
 30
0.0
  0
VERTEX
  5
296A
  8
0
 62
     0
 10
138.528888
 20
92.23967
 30
0.0
  0
VERTEX
  5
296B
  8
0
 62
     0
 10
138.52114
 20
92.260758
 30
0.0
  0
SEQEND
  5
296C
  8
0
 62
     0
  0
LINE
  5
2545
  8
0
 62
     0
 10
138.521155
 20
92.54176
 30
0.0
 11
138.468621
 21
92.529486
 31
0.0
  0
LINE
  5
2546
  8
0
 62
     0
 10
139.023853
 20
91.974653
 30
0.0
 11
138.787762
 21
91.974653
 31
0.0
  0
LINE
  5
2547
  8
0
 62
     0
 10
135.825925
 20
103.08675
 30
0.0
 11
136.379213
 21
103.155748
 31
0.0
  0
LINE
  5
2548
  8
0
 62
     0
 10
133.564429
 20
99.000089
 30
0.0
 11
133.500499
 21
99.670171
 31
0.0
  0
LINE
  5
2549
  8
0
 62
     0
 10
136.261322
 20
96.170171
 30
0.0
 11
136.262275
 21
96.170171
 31
0.0
  0
LINE
  5
254A
  8
0
 62
     0
 10
133.500499
 20
99.670171
 30
0.0
 11
133.564429
 21
100.340253
 31
0.0
  0
LINE
  5
254B
  8
0
 62
     0
 10
136.239227
 20
103.170171
 30
0.0
 11
136.238886
 21
103.170171
 31
0.0
  0
POLYLINE
  5
254C
  8
0
 62
     0
 66
     1
 10
0.0
 20
0.0
 30
0.0
  0
VERTEX
  5
296D
  8
0
 62
     0
 10
141.801309
 20
92.999533
 30
0.0
  0
VERTEX
  5
296E
  8
0
 62
     0
 10
142.068095
 20
93.092608
 30
0.0
  0
VERTEX
  5
296F
  8
0
 62
     0
 10
142.262862
 20
93.092608
 30
0.0
  0
VERTEX
  5
2970
  8
0
 62
     0
 10
142.386422
 20
92.999533
 30
0.0
  0
SEQEND
  5
2971
  8
0
 62
     0
  0
POLYLINE
  5
254D
  8
0
 62
     0
 66
     1
 10
0.0
 20
0.0
 30
0.0
  0
VERTEX
  5
2972
  8
0
 62
     0
 10
142.386422
 20
92.999533
 30
0.0
  0
VERTEX
  5
2973
  8
0
 62
     0
 10
142.262793
 20
92.841512
 30
0.0
  0
VERTEX
  5
2974
  8
0
 62
     0
 10
142.139079
 20
92.683809
 30
0.0
  0
SEQEND
  5
2975
  8
0
 62
     0
  0
LINE
  5
254E
  8
0
 62
     0
 10
140.791301
 20
92.552696
 30
0.0
 11
140.610056
 21
92.329231
 31
0.0
  0
POLYLINE
  5
254F
  8
0
 62
     0
 66
     1
 10
0.0
 20
0.0
 30
0.0
  0
VERTEX
  5
2976
  8
0
 62
     0
 10
140.491629
 20
92.802038
 30
0.0
  0
VERTEX
  5
2977
  8
0
 62
     0
 10
140.668747
 20
92.65491
 30
0.0
  0
VERTEX
  5
2978
  8
0
 62
     0
 10
140.848233
 20
92.50652
 30
0.0
  0
SEQEND
  5
2979
  8
0
 62
     0
  0
LINE
  5
2550
  8
0
 62
     0
 10
140.391809
 20
93.185217
 30
0.0
 11
141.477251
 21
93.476827
 31
0.0
  0
POLYLINE
  5
2551
  8
0
 62
     0
 66
     1
 10
0.0
 20
0.0
 30
0.0
  0
VERTEX
  5
297A
  8
0
 62
     0
 10
140.043325
 20
92.416371
 30
0.0
  0
VERTEX
  5
297B
  8
0
 62
     0
 10
140.018997
 20
92.386789
 30
0.0
  0
VERTEX
  5
297C
  8
0
 62
     0
 10
139.824931
 20
92.151942
 30
0.0
  0
SEQEND
  5
297D
  8
0
 62
     0
  0
POLYLINE
  5
2552
  8
0
 62
     0
 66
     1
 10
0.0
 20
0.0
 30
0.0
  0
VERTEX
  5
297E
  8
0
 62
     0
 10
140.146693
 20
92.329231
 30
0.0
  0
VERTEX
  5
297F
  8
0
 62
     0
 10
140.31795
 20
92.56455
 30
0.0
  0
VERTEX
  5
2980
  8
0
 62
     0
 10
140.491629
 20
92.802038
 30
0.0
  0
SEQEND
  5
2981
  8
0
 62
     0
  0
POLYLINE
  5
2553
  8
0
 62
     0
 66
     1
 10
0.0
 20
0.0
 30
0.0
  0
VERTEX
  5
2982
  8
0
 62
     0
 10
139.459251
 20
92.151942
 30
0.0
  0
VERTEX
  5
2983
  8
0
 62
     0
 10
139.626575
 20
92.386789
 30
0.0
  0
VERTEX
  5
2984
  8
0
 62
     0
 10
139.797053
 20
92.624749
 30
0.0
  0
SEQEND
  5
2985
  8
0
 62
     0
  0
POLYLINE
  5
2554
  8
0
 62
     0
 66
     1
 10
0.0
 20
0.0
 30
0.0
  0
VERTEX
  5
2986
  8
0
 62
     0
 10
139.797053
 20
92.624749
 30
0.0
  0
VERTEX
  5
2987
  8
0
 62
     0
 10
139.970321
 20
92.477913
 30
0.0
  0
VERTEX
  5
2988
  8
0
 62
     0
 10
140.146693
 20
92.329231
 30
0.0
  0
SEQEND
  5
2989
  8
0
 62
     0
  0
LINE
  5
2555
  8
0
 62
     0
 10
140.610056
 20
92.329231
 30
0.0
 11
140.146693
 21
92.329231
 31
0.0
  0
LINE
  5
2556
  8
0
 62
     0
 10
139.824931
 20
92.151942
 30
0.0
 11
139.459251
 21
92.151942
 31
0.0
  0
POLYLINE
  5
2557
  8
0
 62
     0
 66
     1
 10
0.0
 20
0.0
 30
0.0
  0
VERTEX
  5
298A
  8
0
 62
     0
 10
141.275091
 20
93.450745
 30
0.0
  0
VERTEX
  5
298B
  8
0
 62
     0
 10
141.330447
 20
93.477023
 30
0.0
  0
VERTEX
  5
298C
  8
0
 62
     0
 10
141.375024
 20
93.521525
 30
0.0
  0
VERTEX
  5
298D
  8
0
 62
     0
 10
141.403092
 20
93.578033
 30
0.0
  0
VERTEX
  5
298E
  8
0
 62
     0
 10
141.412609
 20
93.640642
 30
0.0
  0
SEQEND
  5
298F
  8
0
 62
     0
  0
LINE
  5
2558
  8
0
 62
     0
 10
141.538099
 20
92.703502
 30
0.0
 11
141.381083
 21
92.50652
 31
0.0
  0
POLYLINE
  5
2559
  8
0
 62
     0
 66
     1
 10
0.0
 20
0.0
 30
0.0
  0
VERTEX
  5
2990
  8
0
 62
     0
 10
141.562805
 20
92.683809
 30
0.0
  0
VERTEX
  5
2991
  8
0
 62
     0
 10
141.681769
 20
92.841512
 30
0.0
  0
VERTEX
  5
2992
  8
0
 62
     0
 10
141.801309
 20
92.999533
 30
0.0
  0
SEQEND
  5
2993
  8
0
 62
     0
  0
POLYLINE
  5
255A
  8
0
 62
     0
 66
     1
 10
0.0
 20
0.0
 30
0.0
  0
VERTEX
  5
2994
  8
0
 62
     0
 10
140.848233
 20
92.50652
 30
0.0
  0
VERTEX
  5
2995
  8
0
 62
     0
 10
141.023063
 20
92.742228
 30
0.0
  0
VERTEX
  5
2996
  8
0
 62
     0
 10
141.199709
 20
92.979327
 30
0.0
  0
SEQEND
  5
2997
  8
0
 62
     0
  0
POLYLINE
  5
255B
  8
0
 62
     0
 66
     1
 10
0.0
 20
0.0
 30
0.0
  0
VERTEX
  5
2998
  8
0
 62
     0
 10
141.666538
 20
93.672565
 30
0.0
  0
VERTEX
  5
2999
  8
0
 62
     0
 10
141.636695
 20
93.605798
 30
0.0
  0
VERTEX
  5
299A
  8
0
 62
     0
 10
141.592192
 20
93.548014
 30
0.0
  0
VERTEX
  5
299B
  8
0
 62
     0
 10
141.535246
 20
93.502299
 30
0.0
  0
VERTEX
  5
299C
  8
0
 62
     0
 10
141.477252
 20
93.476824
 30
0.0
  0
SEQEND
  5
299D
  8
0
 62
     0
  0
POLYLINE
  5
255C
  8
0
 62
     0
 66
     1
 10
0.0
 20
0.0
 30
0.0
  0
VERTEX
  5
299E
  8
0
 62
     0
 10
141.666548
 20
93.672565
 30
0.0
  0
VERTEX
  5
299F
  8
0
 62
     0
 10
141.746393
 20
93.9422
 30
0.0
  0
VERTEX
  5
29A0
  8
0
 62
     0
 10
141.823029
 20
94.211773
 30
0.0
  0
VERTEX
  5
29A1
  8
0
 62
     0
 10
141.896445
 20
94.481307
 30
0.0
  0
SEQEND
  5
29A2
  8
0
 62
     0
  0
LINE
  5
255D
  8
0
 62
     0
 10
141.801309
 20
92.999533
 30
0.0
 11
141.821743
 21
94.20725
 31
0.0
  0
POLYLINE
  5
255E
  8
0
 62
     0
 66
     1
 10
0.0
 20
0.0
 30
0.0
  0
VERTEX
  5
29A3
  8
0
 62
     0
 10
141.16963
 20
93.640642
 30
0.0
  0
VERTEX
  5
29A4
  8
0
 62
     0
 10
141.192774
 20
93.566969
 30
0.0
  0
VERTEX
  5
29A5
  8
0
 62
     0
 10
141.221106
 20
93.504479
 30
0.0
  0
VERTEX
  5
29A6
  8
0
 62
     0
 10
141.25004
 20
93.463626
 30
0.0
  0
VERTEX
  5
29A7
  8
0
 62
     0
 10
141.275091
 20
93.450745
 30
0.0
  0
SEQEND
  5
29A8
  8
0
 62
     0
  0
POLYLINE
  5
255F
  8
0
 62
     0
 66
     1
 10
0.0
 20
0.0
 30
0.0
  0
VERTEX
  5
29A9
  8
0
 62
     0
 10
141.199709
 20
92.979327
 30
0.0
  0
VERTEX
  5
29AA
  8
0
 62
     0
 10
141.380403
 20
92.831937
 30
0.0
  0
VERTEX
  5
29AB
  8
0
 62
     0
 10
141.562805
 20
92.683809
 30
0.0
  0
SEQEND
  5
29AC
  8
0
 62
     0
  0
POLYLINE
  5
2560
  8
0
 62
     0
 66
     1
 10
0.0
 20
0.0
 30
0.0
  0
VERTEX
  5
29AD
  8
0
 62
     0
 10
141.16963
 20
93.640642
 30
0.0
  0
VERTEX
  5
29AE
  8
0
 62
     0
 10
141.243815
 20
93.639695
 30
0.0
  0
VERTEX
  5
29AF
  8
0
 62
     0
 10
141.315371
 20
93.639364
 30
0.0
  0
VERTEX
  5
29B0
  8
0
 62
     0
 10
141.374365
 20
93.639695
 30
0.0
  0
VERTEX
  5
29B1
  8
0
 62
     0
 10
141.412609
 20
93.640642
 30
0.0
  0
SEQEND
  5
29B2
  8
0
 62
     0
  0
LINE
  5
2561
  8
0
 62
     0
 10
142.139079
 20
92.683809
 30
0.0
 11
141.562805
 21
92.683809
 31
0.0
  0
LINE
  5
2562
  8
0
 62
     0
 10
141.381083
 20
92.50652
 30
0.0
 11
140.848233
 21
92.50652
 31
0.0
  0
POLYLINE
  5
2563
  8
0
 62
     0
 66
     1
 10
0.0
 20
0.0
 30
0.0
  0
VERTEX
  5
29B3
  8
0
 62
     0
 10
141.666548
 20
93.672565
 30
0.0
  0
VERTEX
  5
29B4
  8
0
 62
     0
 10
141.543432
 20
93.657625
 30
0.0
  0
VERTEX
  5
29B5
  8
0
 62
     0
 10
141.412609
 20
93.640642
 30
0.0
  0
SEQEND
  5
29B6
  8
0
 62
     0
  0
POLYLINE
  5
2564
  8
0
 62
     0
 66
     1
 10
0.0
 20
0.0
 30
0.0
  0
VERTEX
  5
29B7
  8
0
 62
     0
 10
141.477251
 20
93.476827
 30
0.0
  0
VERTEX
  5
29B8
  8
0
 62
     0
 10
141.378626
 20
93.464437
 30
0.0
  0
VERTEX
  5
29B9
  8
0
 62
     0
 10
141.275095
 20
93.450744
 30
0.0
  0
SEQEND
  5
29BA
  8
0
 62
     0
  0
POLYLINE
  5
2565
  8
0
 62
     0
 66
     1
 10
0.0
 20
0.0
 30
0.0
  0
VERTEX
  5
29BB
  8
0
 62
     0
 10
142.411896
 20
93.450745
 30
0.0
  0
VERTEX
  5
29BC
  8
0
 62
     0
 10
142.471065
 20
93.47687
 30
0.0
  0
VERTEX
  5
29BD
  8
0
 62
     0
 10
142.518787
 20
93.520496
 30
0.0
  0
VERTEX
  5
29BE
  8
0
 62
     0
 10
142.550068
 20
93.57706
 30
0.0
  0
VERTEX
  5
29BF
  8
0
 62
     0
 10
142.561204
 20
93.630524
 30
0.0
  0
SEQEND
  5
29C0
  8
0
 62
     0
  0
POLYLINE
  5
2566
  8
0
 62
     0
 66
     1
 10
0.0
 20
0.0
 30
0.0
  0
VERTEX
  5
29C1
  8
0
 62
     0
 10
142.403962
 20
93.476824
 30
0.0
  0
VERTEX
  5
29C2
  8
0
 62
     0
 10
142.46062
 20
93.502299
 30
0.0
  0
VERTEX
  5
29C3
  8
0
 62
     0
 10
142.508652
 20
93.548014
 30
0.0
  0
VERTEX
  5
29C4
  8
0
 62
     0
 10
142.538163
 20
93.605798
 30
0.0
  0
VERTEX
  5
29C5
  8
0
 62
     0
 10
142.547829
 20
93.672565
 30
0.0
  0
SEQEND
  5
29C6
  8
0
 62
     0
  0
POLYLINE
  5
2567
  8
0
 62
     0
 66
     1
 10
0.0
 20
0.0
 30
0.0
  0
VERTEX
  5
29C7
  8
0
 62
     0
 10
142.555324
 20
93.59416
 30
0.0
  0
VERTEX
  5
29C8
  8
0
 62
     0
 10
142.541572
 20
93.556757
 30
0.0
  0
VERTEX
  5
29C9
  8
0
 62
     0
 10
142.520779
 20
93.522956
 30
0.0
  0
VERTEX
  5
29CA
  8
0
 62
     0
 10
142.496134
 20
93.496082
 30
0.0
  0
VERTEX
  5
29CB
  8
0
 62
     0
 10
142.466064
 20
93.473541
 30
0.0
  0
VERTEX
  5
29CC
  8
0
 62
     0
 10
142.43802
 20
93.45928
 30
0.0
  0
VERTEX
  5
29CD
  8
0
 62
     0
 10
142.412652
 20
93.45074
 30
0.0
  0
SEQEND
  5
29CE
  8
0
 62
     0
  0
LINE
  5
2568
  8
0
 62
     0
 10
142.561204
 20
93.630524
 30
0.0
 11
142.555324
 21
93.59416
 31
0.0
  0
LINE
  5
2569
  8
0
 62
     0
 10
142.561204
 20
93.630524
 30
0.0
 11
142.561212
 21
93.630649
 31
0.0
  0
LINE
  5
256A
  8
0
 62
     0
 10
142.561212
 20
93.630649
 30
0.0
 11
142.561724
 21
93.642653
 31
0.0
  0
LINE
  5
256B
  8
0
 62
     0
 10
142.562187
 20
93.672315
 30
0.0
 11
142.561636
 21
93.640642
 31
0.0
  0
POLYLINE
  5
256C
  8
0
 62
     0
 66
     1
 10
0.0
 20
0.0
 30
0.0
  0
VERTEX
  5
29CF
  8
0
 62
     0
 10
142.54784
 20
93.672565
 30
0.0
  0
VERTEX
  5
29D0
  8
0
 62
     0
 10
142.540971
 20
93.9422
 30
0.0
  0
VERTEX
  5
29D1
  8
0
 62
     0
 10
142.530713
 20
94.211773
 30
0.0
  0
VERTEX
  5
29D2
  8
0
 62
     0
 10
142.517067
 20
94.481307
 30
0.0
  0
SEQEND
  5
29D3
  8
0
 62
     0
  0
POLYLINE
  5
256D
  8
0
 62
     0
 66
     1
 10
0.0
 20
0.0
 30
0.0
  0
VERTEX
  5
29D4
  8
0
 62
     0
 10
142.411887
 20
93.450744
 30
0.0
  0
VERTEX
  5
29D5
  8
0
 62
     0
 10
142.410465
 20
93.464437
 30
0.0
  0
VERTEX
  5
29D6
  8
0
 62
     0
 10
142.403961
 20
93.476827
 30
0.0
  0
SEQEND
  5
29D7
  8
0
 62
     0
  0
LINE
  5
256E
  8
0
 62
     0
 10
142.561725
 20
93.642682
 30
0.0
 11
142.558806
 21
93.657625
 31
0.0
  0
LINE
  5
256F
  8
0
 62
     0
 10
142.558806
 20
93.657625
 30
0.0
 11
142.54784
 21
93.672565
 31
0.0
  0
LINE
  5
2570
  8
0
 62
     0
 10
142.412652
 20
93.45074
 30
0.0
 11
142.411896
 21
93.450745
 31
0.0
  0
LINE
  5
2571
  8
0
 62
     0
 10
142.394186
 20
93.446506
 30
0.0
 11
142.412476
 21
93.450694
 31
0.0
  0
LINE
  5
2572
  8
0
 62
     0
 10
142.411887
 20
93.450744
 30
0.0
 11
142.394188
 21
93.446609
 31
0.0
  0
LINE
  5
2573
  8
0
 62
     0
 10
142.403961
 20
93.476827
 30
0.0
 11
142.394672
 21
93.474478
 31
0.0
  0
LINE
  5
2574
  8
0
 62
     0
 10
142.517067
 20
94.481307
 30
0.0
 11
142.411682
 21
94.453658
 31
0.0
  0
LINE
  5
2575
  8
0
 62
     0
 10
139.351057
 20
98.261793
 30
0.0
 11
139.351057
 21
101.060484
 31
0.0
  0
LINE
  5
2576
  8
0
 62
     0
 10
137.761192
 20
109.070171
 30
0.0
 11
139.886192
 21
109.070171
 31
0.0
  0
LINE
  5
2577
  8
0
 62
     0
 10
137.761192
 20
107.658862
 30
0.0
 11
139.886192
 21
107.658862
 31
0.0
  0
LINE
  5
2578
  8
0
 62
     0
 10
139.126486
 20
104.881573
 30
0.0
 11
142.071134
 21
104.765196
 31
0.0
  0
LINE
  5
2579
  8
0
 62
     0
 10
137.182429
 20
104.985058
 30
0.0
 11
135.46893
 21
105.171219
 31
0.0
  0
LINE
  5
257A
  8
0
 62
     0
 10
137.761192
 20
106.620171
 30
0.0
 11
137.761192
 21
110.870171
 31
0.0
  0
LINE
  5
257B
  8
0
 62
     0
 10
141.702249
 20
104.75302
 30
0.0
 11
142.695272
 21
104.742983
 31
0.0
  0
POLYLINE
  5
257C
  8
0
 62
     0
 66
     1
 10
0.0
 20
0.0
 30
0.0
  0
VERTEX
  5
29D8
  8
0
 62
     0
 10
142.070251
 20
104.720213
 30
0.0
  0
VERTEX
  5
29D9
  8
0
 62
     0
 10
142.266719
 20
104.720172
 30
0.0
  0
VERTEX
  5
29DA
  8
0
 62
     0
 10
142.463779
 20
104.720172
 30
0.0
  0
VERTEX
  5
29DB
  8
0
 62
     0
 10
142.590026
 20
104.720227
 30
0.0
  0
SEQEND
  5
29DC
  8
0
 62
     0
  0
LINE
  5
257D
  8
0
 62
     0
 10
141.786192
 20
107.370171
 30
0.0
 11
141.786192
 21
110.370146
 31
0.0
  0
LINE
  5
257E
  8
0
 62
     0
 10
139.886192
 20
107.370171
 30
0.0
 11
139.886192
 21
110.370146
 31
0.0
  0
POLYLINE
  5
257F
  8
0
 62
     0
 66
     1
 10
0.0
 20
0.0
 30
0.0
  0
VERTEX
  5
29DD
  8
0
 62
     0
 10
139.730942
 20
104.819843
 30
0.0
  0
VERTEX
  5
29DE
  8
0
 62
     0
 10
140.709189
 20
104.779245
 30
0.0
  0
VERTEX
  5
29DF
  8
0
 62
     0
 10
141.702249
 20
104.75302
 30
0.0
  0
SEQEND
  5
29E0
  8
0
 62
     0
  0
POLYLINE
  5
2580
  8
0
 62
     0
 66
     1
 10
0.0
 20
0.0
 30
0.0
  0
VERTEX
  5
29E1
  8
0
 62
     0
 10
141.288422
 20
104.751234
 30
0.0
  0
VERTEX
  5
29E2
  8
0
 62
     0
 10
141.119149
 20
104.75302
 30
0.0
  0
VERTEX
  5
29E3
  8
0
 62
     0
 10
140.210337
 20
104.779245
 30
0.0
  0
VERTEX
  5
29E4
  8
0
 62
     0
 10
139.357598
 20
104.819843
 30
0.0
  0
SEQEND
  5
29E5
  8
0
 62
     0
  0
LINE
  5
2581
  8
0
 62
     0
 10
139.730942
 20
104.802069
 30
0.0
 11
139.730942
 21
104.819843
 31
0.0
  0
POLYLINE
  5
2582
  8
0
 62
     0
 66
     1
 10
0.0
 20
0.0
 30
0.0
  0
VERTEX
  5
29E6
  8
0
 62
     0
 10
141.288362
 20
104.745568
 30
0.0
  0
VERTEX
  5
29E7
  8
0
 62
     0
 10
141.362128
 20
104.744906
 30
0.0
  0
VERTEX
  5
29E8
  8
0
 62
     0
 10
141.433386
 20
104.744389
 30
0.0
  0
VERTEX
  5
29E9
  8
0
 62
     0
 10
141.492349
 20
104.74405
 30
0.0
  0
VERTEX
  5
29EA
  8
0
 62
     0
 10
141.530919
 20
104.743887
 30
0.0
  0
SEQEND
  5
29EB
  8
0
 62
     0
  0
POLYLINE
  5
2583
  8
0
 62
     0
 66
     1
 10
0.0
 20
0.0
 30
0.0
  0
VERTEX
  5
29EC
  8
0
 62
     0
 10
141.530919
 20
104.743887
 30
0.0
  0
VERTEX
  5
29ED
  8
0
 62
     0
 10
141.727497
 20
104.743396
 30
0.0
  0
VERTEX
  5
29EE
  8
0
 62
     0
 10
141.907338
 20
104.743119
 30
0.0
  0
VERTEX
  5
29EF
  8
0
 62
     0
 10
142.070256
 20
104.742983
 30
0.0
  0
SEQEND
  5
29F0
  8
0
 62
     0
  0
LINE
  5
2584
  8
0
 62
     0
 10
141.786192
 20
110.370171
 30
0.0
 11
139.886192
 21
110.370171
 31
0.0
  0
LINE
  5
2585
  8
0
 62
     0
 10
139.886192
 20
109.831556
 30
0.0
 11
141.786192
 21
109.831556
 31
0.0
  0
POLYLINE
  5
2586
  8
0
 62
     0
 66
     1
 10
0.0
 20
0.0
 30
0.0
  0
VERTEX
  5
29F1
  8
0
 62
     0
 10
142.695272
 20
104.742983
 30
0.0
  0
VERTEX
  5
29F2
  8
0
 62
     0
 10
142.73259
 20
104.743119
 30
0.0
  0
VERTEX
  5
29F3
  8
0
 62
     0
 10
142.752216
 20
104.743396
 30
0.0
  0
SEQEND
  5
29F4
  8
0
 62
     0
  0
LINE
  5
2587
  8
0
 62
     0
 10
142.752216
 20
104.743396
 30
0.0
 11
142.755493
 21
104.743663
 31
0.0
  0
LINE
  5
2588
  8
0
 62
     0
 10
156.511192
 20
109.639598
 30
0.0
 11
156.511192
 21
117.463553
 31
0.0
  0
LINE
  5
2589
  8
0
 62
     0
 10
155.761192
 20
107.370171
 30
0.0
 11
155.761192
 21
122.070171
 31
0.0
  0
LINE
  5
258A
  8
0
 62
     0
 10
153.586192
 20
109.070171
 30
0.0
 11
155.066865
 21
109.070171
 31
0.0
  0
LINE
  5
258B
  8
0
 62
     0
 10
153.586192
 20
107.658862
 30
0.0
 11
155.060706
 21
107.658862
 31
0.0
  0
LINE
  5
258C
  8
0
 62
     0
 10
153.586192
 20
107.370171
 30
0.0
 11
153.586192
 21
110.370146
 31
0.0
  0
LINE
  5
258D
  8
0
 62
     0
 10
151.686192
 20
107.370171
 30
0.0
 11
151.686192
 21
110.370146
 31
0.0
  0
LINE
  5
258E
  8
0
 62
     0
 10
153.586192
 20
110.370171
 30
0.0
 11
151.686192
 21
110.370171
 31
0.0
  0
LINE
  5
258F
  8
0
 62
     0
 10
151.686192
 20
109.831556
 30
0.0
 11
153.586192
 21
109.831556
 31
0.0
  0
ARC
  5
2590
  8
0
 62
     0
 10
155.511192
 20
109.639598
 30
0.0
 40
1.0
 50
319.217579
 51
0.0
  0
LINE
  5
2591
  8
0
 62
     0
 10
155.074719
 20
110.870171
 30
0.0
 11
155.059447
 21
107.370171
 31
0.0
  0
ARC
  5
2592
  8
0
 62
     0
 10
155.961192
 20
107.058464
 30
0.0
 40
0.3
 50
280.916245
 51
0.0
  0
LINE
  5
2593
  8
0
 62
     0
 10
156.141498
 20
107.28527
 30
0.0
 11
156.015422
 21
107.232577
 31
0.0
  0
LINE
  5
2594
  8
0
 62
     0
 10
156.215697
 20
107.370171
 30
0.0
 11
156.141498
 21
107.28527
 31
0.0
  0
LINE
  5
2595
  8
0
 62
     0
 10
155.711192
 20
106.620171
 30
0.0
 11
155.711192
 21
107.370171
 31
0.0
  0
LINE
  5
2596
  8
0
 62
     0
 10
156.015422
 20
107.232577
 30
0.0
 11
156.018004
 21
106.763892
 31
0.0
  0
LINE
  5
2597
  8
0
 62
     0
 10
155.999934
 20
107.370171
 30
0.0
 11
156.015422
 21
107.232577
 31
0.0
  0
LINE
  5
2598
  8
0
 62
     0
 10
155.711192
 20
106.714677
 30
0.0
 11
156.018004
 21
106.763891
 31
0.0
  0
LINE
  5
2599
  8
0
 62
     0
 10
156.015422
 20
107.232577
 30
0.0
 11
155.711192
 21
107.183558
 31
0.0
  0
LINE
  5
259A
  8
0
 62
     0
 10
156.261192
 20
111.418088
 30
0.0
 11
156.511192
 21
111.418088
 31
0.0
  0
LINE
  5
259B
  8
0
 62
     0
 10
156.261192
 20
117.463553
 30
0.0
 11
156.511192
 21
117.463553
 31
0.0
  0
LINE
  5
259C
  8
0
 62
     0
 10
156.261192
 20
141.070171
 30
0.0
 11
156.361192
 21
145.570171
 31
0.0
  0
LINE
  5
259D
  8
0
 62
     0
 10
156.361192
 20
150.770171
 30
0.0
 11
156.361192
 21
137.070171
 31
0.0
  0
LINE
  5
259E
  8
0
 62
     0
 10
156.361192
 20
136.570171
 30
0.0
 11
156.361192
 21
132.870171
 31
0.0
  0
ARC
  5
259F
  8
0
 62
     0
 10
155.561192
 20
131.370171
 30
0.0
 40
0.8
 50
332.482452
 51
0.0
  0
LINE
  5
25A0
  8
0
 62
     0
 10
156.347232
 20
132.070415
 30
0.0
 11
156.361192
 21
132.870171
 31
0.0
  0
LINE
  5
25A1
  8
0
 62
     0
 10
156.361192
 20
132.070171
 30
0.0
 11
156.361192
 21
131.370171
 31
0.0
  0
LINE
  5
25A2
  8
0
 62
     0
 10
156.301192
 20
132.870171
 30
0.0
 11
156.361192
 21
132.870171
 31
0.0
  0
LINE
  5
25A3
  8
0
 62
     0
 10
156.361192
 20
132.070171
 30
0.0
 11
156.261192
 21
132.070171
 31
0.0
  0
LINE
  5
25A4
  8
0
 62
     0
 10
156.261192
 20
137.070171
 30
0.0
 11
156.361192
 21
141.070171
 31
0.0
  0
LINE
  5
25A5
  8
0
 62
     0
 10
156.261192
 20
134.070171
 30
0.0
 11
156.361192
 21
137.070171
 31
0.0
  0
LINE
  5
25A6
  8
0
 62
     0
 10
156.361192
 20
137.070171
 30
0.0
 11
156.261192
 21
137.070171
 31
0.0
  0
LINE
  5
25A7
  8
0
 62
     0
 10
156.361192
 20
134.070171
 30
0.0
 11
156.261192
 21
134.070171
 31
0.0
  0
LINE
  5
25A8
  8
0
 62
     0
 10
156.361192
 20
141.070171
 30
0.0
 11
156.261192
 21
141.070171
 31
0.0
  0
LINE
  5
25A9
  8
0
 62
     0
 10
153.235359
 20
152.370171
 30
0.0
 11
153.235359
 21
153.570171
 31
0.0
  0
LINE
  5
25AA
  8
0
 62
     0
 10
152.861192
 20
155.270171
 30
0.0
 11
152.861192
 21
151.570171
 31
0.0
  0
LINE
  5
25AB
  8
0
 62
     0
 10
152.861192
 20
151.970171
 30
0.0
 11
154.661192
 21
151.970171
 31
0.0
  0
LINE
  5
25AC
  8
0
 62
     0
 10
152.861192
 20
151.570171
 30
0.0
 11
156.361192
 21
151.570171
 31
0.0
  0
POLYLINE
  5
25AD
  8
0
 62
     0
 66
     1
 10
0.0
 20
0.0
 30
0.0
  0
VERTEX
  5
29F5
  8
0
 62
     0
 10
153.235359
 20
152.370171
 30
0.0
  0
VERTEX
  5
29F6
  8
0
 62
     0
 10
153.233392
 20
152.293878
 30
0.0
  0
VERTEX
  5
29F7
  8
0
 62
     0
 10
153.227435
 20
152.219229
 30
0.0
  0
VERTEX
  5
29F8
  8
0
 62
     0
 10
153.21777
 20
152.150612
 30
0.0
  0
VERTEX
  5
29F9
  8
0
 62
     0
 10
153.204583
 20
152.089646
 30
0.0
  0
VERTEX
  5
29FA
  8
0
 62
     0
 10
153.188356
 20
152.039168
 30
0.0
  0
VERTEX
  5
29FB
  8
0
 62
     0
 10
153.169883
 20
152.001692
 30
0.0
  0
VERTEX
  5
29FC
  8
0
 62
     0
 10
153.149486
 20
151.978155
 30
0.0
  0
VERTEX
  5
29FD
  8
0
 62
     0
 10
153.128179
 20
151.970171
 30
0.0
  0
SEQEND
  5
29FE
  8
0
 62
     0
  0
LINE
  5
25AE
  8
0
 62
     0
 10
153.235359
 20
152.370171
 30
0.0
 11
152.861192
 21
152.370171
 31
0.0
  0
LINE
  5
25AF
  8
0
 62
     0
 10
156.261192
 20
145.570171
 30
0.0
 11
156.361192
 21
151.070171
 31
0.0
  0
LINE
  5
25B0
  8
0
 62
     0
 10
156.361192
 20
145.570171
 30
0.0
 11
156.261192
 21
145.570171
 31
0.0
  0
LINE
  5
25B1
  8
0
 62
     0
 10
154.938892
 20
152.014772
 30
0.0
 11
154.935012
 21
151.570171
 31
0.0
  0
LINE
  5
25B2
  8
0
 62
     0
 10
154.661192
 20
152.570171
 30
0.0
 11
155.161192
 21
151.570171
 31
0.0
  0
LINE
  5
25B3
  8
0
 62
     0
 10
156.261192
 20
151.570171
 30
0.0
 11
156.261192
 21
151.070171
 31
0.0
  0
LINE
  5
25B4
  8
0
 62
     0
 10
156.361192
 20
151.070171
 30
0.0
 11
156.261192
 21
151.070171
 31
0.0
  0
LINE
  5
25B5
  8
0
 62
     0
 10
154.361192
 20
155.270171
 30
0.0
 11
152.861192
 21
155.270171
 31
0.0
  0
LINE
  5
25B6
  8
0
 62
     0
 10
152.861192
 20
153.970171
 30
0.0
 11
154.661192
 21
153.970171
 31
0.0
  0
POLYLINE
  5
25B7
  8
0
 62
     0
 66
     1
 10
0.0
 20
0.0
 30
0.0
  0
VERTEX
  5
29FF
  8
0
 62
     0
 10
153.128179
 20
153.970171
 30
0.0
  0
VERTEX
  5
2A00
  8
0
 62
     0
 10
153.149486
 20
153.962187
 30
0.0
  0
VERTEX
  5
2A01
  8
0
 62
     0
 10
153.169883
 20
153.93865
 30
0.0
  0
VERTEX
  5
2A02
  8
0
 62
     0
 10
153.188356
 20
153.901173
 30
0.0
  0
VERTEX
  5
2A03
  8
0
 62
     0
 10
153.204583
 20
153.850695
 30
0.0
  0
VERTEX
  5
2A04
  8
0
 62
     0
 10
153.21777
 20
153.78973
 30
0.0
  0
VERTEX
  5
2A05
  8
0
 62
     0
 10
153.227435
 20
153.721113
 30
0.0
  0
VERTEX
  5
2A06
  8
0
 62
     0
 10
153.233392
 20
153.646463
 30
0.0
  0
VERTEX
  5
2A07
  8
0
 62
     0
 10
153.235359
 20
153.570171
 30
0.0
  0
SEQEND
  5
2A08
  8
0
 62
     0
  0
LINE
  5
25B8
  8
0
 62
     0
 10
152.861192
 20
153.570171
 30
0.0
 11
153.235359
 21
153.570171
 31
0.0
  0
LINE
  5
25B9
  8
0
 62
     0
 10
154.361192
 20
156.863028
 30
0.0
 11
154.661192
 21
155.577314
 31
0.0
  0
LINE
  5
25BA
  8
0
 62
     0
 10
154.661192
 20
161.720171
 30
0.0
 11
154.361192
 21
161.720171
 31
0.0
  0
LINE
  5
25BB
  8
0
 62
     0
 10
154.661192
 20
161.220171
 30
0.0
 11
154.361192
 21
161.220171
 31
0.0
  0
LINE
  5
25BC
  8
0
 62
     0
 10
156.261192
 20
174.009064
 30
0.0
 11
156.261192
 21
217.470171
 31
0.0
  0
LINE
  5
25BD
  8
0
 62
     0
 10
155.961192
 20
174.009064
 30
0.0
 11
155.961192
 21
217.770171
 31
0.0
  0
LINE
  5
25BE
  8
0
 62
     0
 10
152.111192
 20
212.870171
 30
0.0
 11
152.111192
 21
193.770171
 31
0.0
  0
LINE
  5
25BF
  8
0
 62
     0
 10
142.611192
 20
193.770171
 30
0.0
 11
142.611192
 21
212.870171
 31
0.0
  0
LINE
  5
25C0
  8
0
 62
     0
 10
141.361192
 20
173.858973
 30
0.0
 11
141.361192
 21
214.170171
 31
0.0
  0
LINE
  5
25C1
  8
0
 62
     0
 10
139.861192
 20
173.754083
 30
0.0
 11
139.861192
 21
214.170171
 31
0.0
  0
LINE
  5
25C2
  8
0
 62
     0
 10
138.611192
 20
214.738917
 30
0.0
 11
138.611192
 21
193.770171
 31
0.0
  0
LINE
  5
25C3
  8
0
 62
     0
 10
133.961192
 20
193.770171
 30
0.0
 11
133.961192
 21
217.870171
 31
0.0
  0
LINE
  5
25C4
  8
0
 62
     0
 10
133.861192
 20
193.770171
 30
0.0
 11
133.861192
 21
220.670171
 31
0.0
  0
ARC
  5
25C5
  8
0
 62
     0
 10
133.861192
 20
297.610171
 30
0.0
 40
125.24
 50
273.983352
 51
278.40211
  0
LINE
  5
25C6
  8
0
 62
     0
 10
152.111192
 20
200.770171
 30
0.0
 11
142.611192
 21
200.770171
 31
0.0
  0
LINE
  5
25C7
  8
0
 62
     0
 10
142.611192
 20
199.270171
 30
0.0
 11
152.111192
 21
199.270171
 31
0.0
  0
LINE
  5
25C8
  8
0
 62
     0
 10
152.111192
 20
193.770171
 30
0.0
 11
142.611192
 21
193.770171
 31
0.0
  0
LINE
  5
25C9
  8
0
 62
     0
 10
142.211192
 20
189.570171
 30
0.0
 11
153.311192
 21
189.570171
 31
0.0
  0
LINE
  5
25CA
  8
0
 62
     0
 10
142.211192
 20
188.570171
 30
0.0
 11
152.511192
 21
188.570171
 31
0.0
  0
LINE
  5
25CB
  8
0
 62
     0
 10
144.361192
 20
188.270171
 30
0.0
 11
150.361192
 21
188.270171
 31
0.0
  0
LINE
  5
25CC
  8
0
 62
     0
 10
142.211192
 20
186.970171
 30
0.0
 11
152.511192
 21
186.970171
 31
0.0
  0
LINE
  5
25CD
  8
0
 62
     0
 10
142.561192
 20
183.870171
 30
0.0
 11
152.161192
 21
183.870171
 31
0.0
  0
POLYLINE
  5
25CE
  8
0
 62
     0
 66
     1
 10
0.0
 20
0.0
 30
0.0
  0
VERTEX
  5
2A09
  8
0
 62
     0
 10
142.561192
 20
183.270171
 30
0.0
  0
VERTEX
  5
2A0A
  8
0
 62
     0
 10
144.483712
 20
183.591731
 30
0.0
  0
VERTEX
  5
2A0B
  8
0
 62
     0
 10
146.402548
 20
183.750433
 30
0.0
  0
VERTEX
  5
2A0C
  8
0
 62
     0
 10
148.319926
 20
183.750429
 30
0.0
  0
VERTEX
  5
2A0D
  8
0
 62
     0
 10
150.238709
 20
183.591726
 30
0.0
  0
VERTEX
  5
2A0E
  8
0
 62
     0
 10
152.161192
 20
183.270171
 30
0.0
  0
SEQEND
  5
2A0F
  8
0
 62
     0
  0
LINE
  5
25CF
  8
0
 62
     0
 10
142.561192
 20
172.672716
 30
0.0
 11
142.561192
 21
183.870171
 31
0.0
  0
LINE
  5
25D0
  8
0
 62
     0
 10
142.211192
 20
173.918411
 30
0.0
 11
142.211192
 21
189.570171
 31
0.0
  0
LINE
  5
25D1
  8
0
 62
     0
 10
141.211192
 20
193.570171
 30
0.0
 11
141.211192
 21
173.848484
 31
0.0
  0
LINE
  5
25D2
  8
0
 62
     0
 10
140.011192
 20
193.570171
 30
0.0
 11
140.011192
 21
173.764572
 31
0.0
  0
LINE
  5
25D3
  8
0
 62
     0
 10
139.011192
 20
173.694645
 30
0.0
 11
139.011192
 21
188.570171
 31
0.0
  0
LINE
  5
25D4
  8
0
 62
     0
 10
138.661192
 20
172.462188
 30
0.0
 11
138.661192
 21
183.870171
 31
0.0
  0
LINE
  5
25D5
  8
0
 62
     0
 10
139.861192
 20
173.929609
 30
0.0
 11
139.011192
 21
173.870171
 31
0.0
  0
LINE
  5
25D6
  8
0
 62
     0
 10
138.661192
 20
173.670171
 30
0.0
 11
142.561192
 21
173.942885
 31
0.0
  0
LINE
  5
25D7
  8
0
 62
     0
 10
135.861192
 20
164.173273
 30
0.0
 11
135.861192
 21
163.945448
 31
0.0
  0
LINE
  5
25D8
  8
0
 62
     0
 10
133.961192
 20
167.870171
 30
0.0
 11
133.961192
 21
171.209833
 31
0.0
  0
LINE
  5
25D9
  8
0
 62
     0
 10
133.861192
 20
170.670171
 30
0.0
 11
133.861192
 21
171.209833
 31
0.0
  0
LINE
  5
25DA
  8
0
 62
     0
 10
138.861192
 20
179.370171
 30
0.0
 11
138.861192
 21
173.684156
 31
0.0
  0
LINE
  5
25DB
  8
0
 62
     0
 10
139.011192
 20
177.170171
 30
0.0
 11
138.861192
 21
177.170171
 31
0.0
  0
LINE
  5
25DC
  8
0
 62
     0
 10
138.861192
 20
179.370171
 30
0.0
 11
138.661192
 21
179.2719
 31
0.0
  0
LINE
  5
25DD
  8
0
 62
     0
 10
141.601852
 20
164.233484
 30
0.0
 11
141.733604
 21
164.233484
 31
0.0
  0
LINE
  5
25DE
  8
0
 62
     0
 10
142.211192
 20
174.093937
 30
0.0
 11
141.361192
 21
174.034499
 31
0.0
  0
LINE
  5
25DF
  8
0
 62
     0
 10
142.410435
 20
179.345975
 30
0.0
 11
142.410435
 21
173.932343
 31
0.0
  0
LINE
  5
25E0
  8
0
 62
     0
 10
142.211192
 20
179.443874
 30
0.0
 11
142.561192
 21
179.2719
 31
0.0
  0
LINE
  5
25E1
  8
0
 62
     0
 10
139.011192
 20
183.570171
 30
0.0
 11
139.861192
 21
183.570171
 31
0.0
  0
LINE
  5
25E2
  8
0
 62
     0
 10
139.011192
 20
188.570171
 30
0.0
 11
139.861192
 21
189.283406
 31
0.0
  0
LINE
  5
25E3
  8
0
 62
     0
 10
133.961192
 20
183.870171
 30
0.0
 11
133.961192
 21
188.570171
 31
0.0
  0
LINE
  5
25E4
  8
0
 62
     0
 10
133.861192
 20
183.870171
 30
0.0
 11
133.861192
 21
188.570171
 31
0.0
  0
LINE
  5
25E5
  8
0
 62
     0
 10
135.861192
 20
188.270171
 30
0.0
 11
135.861192
 21
188.570171
 31
0.0
  0
LINE
  5
25E6
  8
0
 62
     0
 10
137.611192
 20
187.170171
 30
0.0
 11
137.611192
 21
188.570171
 31
0.0
  0
LINE
  5
25E7
  8
0
 62
     0
 10
136.861192
 20
186.970171
 30
0.0
 11
136.861192
 21
188.270171
 31
0.0
  0
LINE
  5
25E8
  8
0
 62
     0
 10
137.611192
 20
187.170171
 30
0.0
 11
139.011192
 21
187.170171
 31
0.0
  0
LINE
  5
25E9
  8
0
 62
     0
 10
138.711192
 20
186.970171
 30
0.0
 11
138.711192
 21
187.170171
 31
0.0
  0
LINE
  5
25EA
  8
0
 62
     0
 10
137.561192
 20
200.770171
 30
0.0
 11
137.561192
 21
199.270171
 31
0.0
  0
LINE
  5
25EB
  8
0
 62
     0
 10
137.361192
 20
199.270171
 30
0.0
 11
137.361192
 21
200.770171
 31
0.0
  0
LINE
  5
25EC
  8
0
 62
     0
 10
139.861192
 20
186.970171
 30
0.0
 11
140.011192
 21
186.970171
 31
0.0
  0
LINE
  5
25ED
  8
0
 62
     0
 10
144.361192
 20
186.970171
 30
0.0
 11
144.361192
 21
188.270171
 31
0.0
  0
LINE
  5
25EE
  8
0
 62
     0
 10
143.611192
 20
187.170171
 30
0.0
 11
143.611192
 21
188.570171
 31
0.0
  0
LINE
  5
25EF
  8
0
 62
     0
 10
143.611192
 20
187.170171
 30
0.0
 11
142.211192
 21
187.170171
 31
0.0
  0
LINE
  5
25F0
  8
0
 62
     0
 10
142.511192
 20
186.970171
 30
0.0
 11
142.511192
 21
187.170171
 31
0.0
  0
LINE
  5
25F1
  8
0
 62
     0
 10
141.361192
 20
193.670171
 30
0.0
 11
139.861192
 21
193.670171
 31
0.0
  0
LINE
  5
25F2
  8
0
 62
     0
 10
140.011192
 20
193.570171
 30
0.0
 11
141.361192
 21
193.570171
 31
0.0
  0
LINE
  5
25F3
  8
0
 62
     0
 10
139.861192
 20
192.970171
 30
0.0
 11
140.011192
 21
192.970171
 31
0.0
  0
LINE
  5
25F4
  8
0
 62
     0
 10
139.861192
 20
192.570171
 30
0.0
 11
140.011192
 21
192.570171
 31
0.0
  0
LINE
  5
25F5
  8
0
 62
     0
 10
139.861192
 20
192.270171
 30
0.0
 11
140.011192
 21
192.270171
 31
0.0
  0
LINE
  5
25F6
  8
0
 62
     0
 10
143.661192
 20
200.770171
 30
0.0
 11
143.661192
 21
199.270171
 31
0.0
  0
LINE
  5
25F7
  8
0
 62
     0
 10
143.861192
 20
200.770171
 30
0.0
 11
143.861192
 21
199.270171
 31
0.0
  0
LINE
  5
25F8
  8
0
 62
     0
 10
155.311192
 20
198.370171
 30
0.0
 11
155.311192
 21
177.170171
 31
0.0
  0
LINE
  5
25F9
  8
0
 62
     0
 10
155.061192
 20
182.170171
 30
0.0
 11
155.061192
 21
185.670171
 31
0.0
  0
LINE
  5
25FA
  8
0
 62
     0
 10
153.561192
 20
182.170171
 30
0.0
 11
153.561192
 21
185.670171
 31
0.0
  0
LINE
  5
25FB
  8
0
 62
     0
 10
153.311192
 20
177.170171
 30
0.0
 11
153.311192
 21
198.370171
 31
0.0
  0
LINE
  5
25FC
  8
0
 62
     0
 10
152.511192
 20
177.170171
 30
0.0
 11
152.511192
 21
188.570171
 31
0.0
  0
LINE
  5
25FD
  8
0
 62
     0
 10
152.161192
 20
183.870171
 30
0.0
 11
152.161192
 21
173.714378
 31
0.0
  0
ARC
  5
25FE
  8
0
 62
     0
 10
151.646785
 20
165.610742
 30
0.0
 40
0.5
 50
348.816451
 51
359.5
  0
ARC
  5
25FF
  8
0
 62
     0
 10
154.161192
 20
165.628385
 30
0.0
 40
0.2
 50
0.0
 51
101.019833
  0
ARC
  5
2600
  8
0
 62
     0
 10
154.461192
 20
165.82456
 30
0.0
 40
0.2
 50
0.0
 51
100.810826
  0
LINE
  5
2601
  8
0
 62
     0
 10
155.061192
 20
182.370171
 30
0.0
 11
153.561192
 21
182.370171
 31
0.0
  0
LINE
  5
2602
  8
0
 62
     0
 10
153.311192
 20
182.170171
 30
0.0
 11
155.311192
 21
182.170171
 31
0.0
  0
LINE
  5
2603
  8
0
 62
     0
 10
153.311192
 20
178.170171
 30
0.0
 11
155.311192
 21
178.170171
 31
0.0
  0
LINE
  5
2604
  8
0
 62
     0
 10
152.161192
 20
177.170171
 30
0.0
 11
156.261192
 21
177.170171
 31
0.0
  0
LINE
  5
2605
  8
0
 62
     0
 10
153.561192
 20
177.170171
 30
0.0
 11
153.561192
 21
178.170171
 31
0.0
  0
LINE
  5
2606
  8
0
 62
     0
 10
152.361192
 20
179.370171
 30
0.0
 11
152.361192
 21
177.170171
 31
0.0
  0
LINE
  5
2607
  8
0
 62
     0
 10
152.361192
 20
179.370171
 30
0.0
 11
152.161192
 21
179.2719
 31
0.0
  0
LINE
  5
2608
  8
0
 62
     0
 10
155.061192
 20
177.170171
 30
0.0
 11
155.061192
 21
178.170171
 31
0.0
  0
ARC
  5
2609
  8
0
 62
     0
 10
155.261192
 20
174.009064
 30
0.0
 40
0.700001
 50
324.349756
 51
0.0
  0
ARC
  5
260A
  8
0
 62
     0
 10
155.261192
 20
174.009064
 30
0.0
 40
1.0
 50
279.822676
 51
0.0
  0
LINE
  5
260B
  8
0
 62
     0
 10
155.830005
 20
173.601079
 30
0.0
 11
156.073782
 21
173.426228
 31
0.0
  0
LINE
  5
260C
  8
0
 62
     0
 10
156.261192
 20
175.470171
 30
0.0
 11
156.361192
 21
175.470171
 31
0.0
  0
LINE
  5
260D
  8
0
 62
     0
 10
155.961192
 20
174.009064
 30
0.0
 11
156.261192
 21
174.009064
 31
0.0
  0
POLYLINE
  5
260E
  8
0
 62
     0
 66
     1
 10
0.0
 20
0.0
 30
0.0
  0
VERTEX
  5
2A10
  8
0
 62
     0
 10
155.431792
 20
173.023724
 30
0.0
  0
VERTEX
  5
2A11
  8
0
 62
     0
 10
155.547604
 20
173.070819
 30
0.0
  0
VERTEX
  5
2A12
  8
0
 62
     0
 10
155.647591
 20
173.164997
 30
0.0
  0
VERTEX
  5
2A13
  8
0
 62
     0
 10
155.727755
 20
173.294152
 30
0.0
  0
VERTEX
  5
2A14
  8
0
 62
     0
 10
155.787946
 20
173.444169
 30
0.0
  0
VERTEX
  5
2A15
  8
0
 62
     0
 10
155.830005
 20
173.601079
 30
0.0
  0
SEQEND
  5
2A16
  8
0
 62
     0
  0
LINE
  5
260F
  8
0
 62
     0
 10
145.361192
 20
188.270171
 30
0.0
 11
145.361192
 21
188.570171
 31
0.0
  0
LINE
  5
2610
  8
0
 62
     0
 10
150.361192
 20
186.970171
 30
0.0
 11
150.361192
 21
188.270171
 31
0.0
  0
LINE
  5
2611
  8
0
 62
     0
 10
149.361192
 20
188.270171
 30
0.0
 11
149.361192
 21
188.570171
 31
0.0
  0
LINE
  5
2612
  8
0
 62
     0
 10
150.861192
 20
200.770171
 30
0.0
 11
150.861192
 21
199.270171
 31
0.0
  0
LINE
  5
2613
  8
0
 62
     0
 10
154.511192
 20
196.570171
 30
0.0
 11
154.511192
 21
187.070171
 31
0.0
  0
LINE
  5
2614
  8
0
 62
     0
 10
153.861192
 20
192.870171
 30
0.0
 11
153.861192
 21
187.070171
 31
0.0
  0
LINE
  5
2615
  8
0
 62
     0
 10
153.661192
 20
193.170171
 30
0.0
 11
153.661192
 21
187.170171
 31
0.0
  0
LINE
  5
2616
  8
0
 62
     0
 10
155.311192
 20
187.070171
 30
0.0
 11
153.311192
 21
187.070171
 31
0.0
  0
LINE
  5
2617
  8
0
 62
     0
 10
155.311192
 20
185.870171
 30
0.0
 11
153.311192
 21
185.870171
 31
0.0
  0
LINE
  5
2618
  8
0
 62
     0
 10
155.061192
 20
185.670171
 30
0.0
 11
153.561192
 21
185.670171
 31
0.0
  0
LINE
  5
2619
  8
0
 62
     0
 10
155.061192
 20
182.870171
 30
0.0
 11
153.561192
 21
182.870171
 31
0.0
  0
LINE
  5
261A
  8
0
 62
     0
 10
151.111192
 20
187.170171
 30
0.0
 11
151.111192
 21
188.570171
 31
0.0
  0
LINE
  5
261B
  8
0
 62
     0
 10
151.111192
 20
187.170171
 30
0.0
 11
152.511192
 21
187.170171
 31
0.0
  0
LINE
  5
261C
  8
0
 62
     0
 10
152.261192
 20
187.170171
 30
0.0
 11
152.261192
 21
186.970171
 31
0.0
  0
LINE
  5
261D
  8
0
 62
     0
 10
153.661192
 20
187.170171
 30
0.0
 11
153.311192
 21
187.170171
 31
0.0
  0
LINE
  5
261E
  8
0
 62
     0
 10
152.511192
 20
183.570171
 30
0.0
 11
153.311192
 21
183.570171
 31
0.0
  0
LINE
  5
261F
  8
0
 62
     0
 10
153.861192
 20
185.870171
 30
0.0
 11
153.861192
 21
185.670171
 31
0.0
  0
LINE
  5
2620
  8
0
 62
     0
 10
153.861192
 20
188.170171
 30
0.0
 11
153.661192
 21
188.170171
 31
0.0
  0
LINE
  5
2621
  8
0
 62
     0
 10
153.661192
 20
187.570171
 30
0.0
 11
153.861192
 21
187.570171
 31
0.0
  0
LINE
  5
2622
  8
0
 62
     0
 10
152.511192
 20
188.570171
 30
0.0
 11
153.311192
 21
189.241451
 31
0.0
  0
LINE
  5
2623
  8
0
 62
     0
 10
154.511192
 20
185.870171
 30
0.0
 11
154.511192
 21
185.670171
 31
0.0
  0
LINE
  5
2624
  8
0
 62
     0
 10
155.311192
 20
198.370171
 30
0.0
 11
153.311192
 21
198.370171
 31
0.0
  0
LINE
  5
2625
  8
0
 62
     0
 10
155.311192
 20
196.570171
 30
0.0
 11
153.311192
 21
196.570171
 31
0.0
  0
LINE
  5
2626
  8
0
 62
     0
 10
153.311192
 20
193.170171
 30
0.0
 11
154.511192
 21
193.170171
 31
0.0
  0
LINE
  5
2627
  8
0
 62
     0
 10
154.511192
 20
192.870171
 30
0.0
 11
153.861192
 21
192.870171
 31
0.0
  0
LINE
  5
2628
  8
0
 62
     0
 10
156.261192
 20
198.106815
 30
0.0
 11
156.361192
 21
198.106815
 31
0.0
  0
LINE
  5
2629
  8
0
 62
     0
 10
156.261192
 20
197.119601
 30
0.0
 11
156.361192
 21
197.119601
 31
0.0
  0
LINE
  5
262A
  8
0
 62
     0
 10
152.611192
 20
217.870171
 30
0.0
 11
145.111192
 21
217.870171
 31
0.0
  0
LINE
  5
262B
  8
0
 62
     0
 10
142.611192
 20
212.870171
 30
0.0
 11
154.211192
 21
212.870171
 31
0.0
  0
LINE
  5
262C
  8
0
 62
     0
 10
152.111192
 20
209.770171
 30
0.0
 11
142.611192
 21
209.770171
 31
0.0
  0
LINE
  5
262D
  8
0
 62
     0
 10
142.611192
 20
208.270171
 30
0.0
 11
152.111192
 21
208.270171
 31
0.0
  0
LINE
  5
262E
  8
0
 62
     0
 10
152.111192
 20
206.770171
 30
0.0
 11
142.611192
 21
206.770171
 31
0.0
  0
LINE
  5
262F
  8
0
 62
     0
 10
142.611192
 20
205.270171
 30
0.0
 11
152.111192
 21
205.270171
 31
0.0
  0
LINE
  5
2630
  8
0
 62
     0
 10
152.111192
 20
203.770171
 30
0.0
 11
142.611192
 21
203.770171
 31
0.0
  0
LINE
  5
2631
  8
0
 62
     0
 10
142.611192
 20
202.270171
 30
0.0
 11
152.111192
 21
202.270171
 31
0.0
  0
LINE
  5
2632
  8
0
 62
     0
 10
137.561192
 20
203.770171
 30
0.0
 11
137.561192
 21
202.270171
 31
0.0
  0
LINE
  5
2633
  8
0
 62
     0
 10
137.561192
 20
206.770171
 30
0.0
 11
137.561192
 21
205.270171
 31
0.0
  0
LINE
  5
2634
  8
0
 62
     0
 10
137.361192
 20
205.270171
 30
0.0
 11
137.361192
 21
206.770171
 31
0.0
  0
LINE
  5
2635
  8
0
 62
     0
 10
137.361192
 20
202.270171
 30
0.0
 11
137.361192
 21
203.770171
 31
0.0
  0
LINE
  5
2636
  8
0
 62
     0
 10
137.561192
 20
209.770171
 30
0.0
 11
137.561192
 21
208.270171
 31
0.0
  0
LINE
  5
2637
  8
0
 62
     0
 10
137.361192
 20
208.270171
 30
0.0
 11
137.361192
 21
209.770171
 31
0.0
  0
LINE
  5
2638
  8
0
 62
     0
 10
143.661192
 20
203.770171
 30
0.0
 11
143.661192
 21
202.270171
 31
0.0
  0
LINE
  5
2639
  8
0
 62
     0
 10
143.661192
 20
206.770171
 30
0.0
 11
143.661192
 21
205.270171
 31
0.0
  0
LINE
  5
263A
  8
0
 62
     0
 10
143.861192
 20
203.770171
 30
0.0
 11
143.861192
 21
202.270171
 31
0.0
  0
LINE
  5
263B
  8
0
 62
     0
 10
143.861192
 20
206.770171
 30
0.0
 11
143.861192
 21
205.270171
 31
0.0
  0
LINE
  5
263C
  8
0
 62
     0
 10
143.661192
 20
209.770171
 30
0.0
 11
143.661192
 21
208.270171
 31
0.0
  0
ARC
  5
263D
  8
0
 62
     0
 10
145.861192
 20
209.570171
 30
0.0
 40
2.0
 50
174.260799
 51
180.0
  0
LINE
  5
263E
  8
0
 62
     0
 10
143.861192
 20
209.570171
 30
0.0
 11
143.861192
 21
208.270171
 31
0.0
  0
ARC
  5
263F
  8
0
 62
     0
 10
143.011192
 20
214.170171
 30
0.0
 40
3.9
 50
67.380135
 51
112.619865
  0
LINE
  5
2640
  8
0
 62
     0
 10
139.861192
 20
214.170171
 30
0.0
 11
141.361192
 21
214.170171
 31
0.0
  0
LINE
  5
2641
  8
0
 62
     0
 10
145.111192
 20
217.870171
 30
0.0
 11
145.111192
 21
215.170171
 31
0.0
  0
LINE
  5
2642
  8
0
 62
     0
 10
145.011192
 20
217.770171
 30
0.0
 11
145.011192
 21
215.870171
 31
0.0
  0
LINE
  5
2643
  8
0
 62
     0
 10
144.511192
 20
215.370171
 30
0.0
 11
143.511192
 21
215.370171
 31
0.0
  0
LINE
  5
2644
  8
0
 62
     0
 10
143.511192
 20
215.170171
 30
0.0
 11
145.111192
 21
215.170171
 31
0.0
  0
LINE
  5
2645
  8
0
 62
     0
 10
143.661192
 20
212.870171
 30
0.0
 11
143.661192
 21
215.170171
 31
0.0
  0
LINE
  5
2646
  8
0
 62
     0
 10
143.511192
 20
215.370171
 30
0.0
 11
143.511192
 21
212.870171
 31
0.0
  0
ARC
  5
2647
  8
0
 62
     0
 10
144.511192
 20
215.870171
 30
0.0
 40
0.5
 50
270.0
 51
0.0
  0
LINE
  5
2648
  8
0
 62
     0
 10
151.525546
 20
209.570171
 30
0.0
 11
150.861192
 21
209.570171
 31
0.0
  0
LINE
  5
2649
  8
0
 62
     0
 10
150.861192
 20
203.770171
 30
0.0
 11
150.861192
 21
202.270171
 31
0.0
  0
LINE
  5
264A
  8
0
 62
     0
 10
150.861192
 20
206.770171
 30
0.0
 11
150.861192
 21
205.270171
 31
0.0
  0
ARC
  5
264B
  8
0
 62
     0
 10
148.861192
 20
209.570171
 30
0.0
 40
2.0
 50
0.0
 51
5.827235
  0
LINE
  5
264C
  8
0
 62
     0
 10
150.861192
 20
209.570171
 30
0.0
 11
150.861192
 21
208.270171
 31
0.0
  0
LINE
  5
264D
  8
0
 62
     0
 10
151.497946
 20
209.770171
 30
0.0
 11
151.525546
 21
209.570171
 31
0.0
  0
LINE
  5
264E
  8
0
 62
     0
 10
151.525099
 20
209.770171
 30
0.0
 11
151.525546
 21
209.570171
 31
0.0
  0
LINE
  5
264F
  8
0
 62
     0
 10
156.361192
 20
203.221086
 30
0.0
 11
156.261192
 21
203.221086
 31
0.0
  0
ARC
  5
2650
  8
0
 62
     0
 10
154.261192
 20
214.170171
 30
0.0
 40
3.9
 50
67.380135
 51
112.619865
  0
LINE
  5
2651
  8
0
 62
     0
 10
155.961192
 20
217.770171
 30
0.0
 11
152.611192
 21
217.770171
 31
0.0
  0
LINE
  5
2652
  8
0
 62
     0
 10
156.261192
 20
217.470171
 30
0.0
 11
152.711192
 21
217.470171
 31
0.0
  0
LINE
  5
2653
  8
0
 62
     0
 10
154.211192
 20
215.370171
 30
0.0
 11
153.211192
 21
215.370171
 31
0.0
  0
LINE
  5
2654
  8
0
 62
     0
 10
152.611192
 20
215.170171
 30
0.0
 11
154.211192
 21
215.170171
 31
0.0
  0
LINE
  5
2655
  8
0
 62
     0
 10
152.711192
 20
215.870171
 30
0.0
 11
152.711192
 21
217.770171
 31
0.0
  0
LINE
  5
2656
  8
0
 62
     0
 10
152.611192
 20
215.170171
 30
0.0
 11
152.611192
 21
217.870171
 31
0.0
  0
ARC
  5
2657
  8
0
 62
     0
 10
153.211192
 20
215.870171
 30
0.0
 40
0.5
 50
180.0
 51
270.0
  0
LINE
  5
2658
  8
0
 62
     0
 10
154.211192
 20
212.870171
 30
0.0
 11
154.211192
 21
215.370171
 31
0.0
  0
LINE
  5
2659
  8
0
 62
     0
 10
154.061192
 20
212.870171
 30
0.0
 11
154.061192
 21
215.170171
 31
0.0
  0
ARC
  5
265A
  8
0
 62
     0
 10
155.961192
 20
217.470171
 30
0.0
 40
0.3
 50
0.0
 51
90.0
  0
ENDSEC
  0
EOF
