  0
SECTION
  2
HEADER
  9
$ACADVER
  1
AC1009
  9
$INSBASE
 10
402.590624
 20
-1.041018
 30
0.0
  9
$EXTMIN
 10
3.191135
 20
3.807509
 30
0.0
  9
$EXTMAX
 10
81.323593
 20
57.007509
 30
0.0
  9
$LIMMIN
 10
-407.970438
 20
-367.832444
  9
$LIMMAX
 10
429.804077
 20
234.370848
  9
$ORTHOMODE
 70
     0
  9
$REGENMODE
 70
     1
  9
$FILLMODE
 70
     1
  9
$QTEXTMODE
 70
     0
  9
$MIRRTEXT
 70
     1
  9
$DRAGMODE
 70
     2
  9
$LTSCALE
 40
10.0
  9
$OSMODE
 70
    35
  9
$ATTMODE
 70
     1
  9
$TEXTSIZE
 40
6.0
  9
$TRACEWID
 40
1.0
  9
$TEXTSTYLE
  7
ROMANS
  9
$CLAYER
  8
ALPHA
  9
$CELTYPE
  6
BYLAYER
  9
$CECOLOR
 62
   256
  9
$DIMSCALE
 40
1.0
  9
$DIMASZ
 40
5.0
  9
$DIMEXO
 40
2.0
  9
$DIMDLI
 40
0.38
  9
$DIMRND
 40
0.0
  9
$DIMDLE
 40
0.0
  9
$DIMEXE
 40
2.5
  9
$DIMTP
 40
0.0
  9
$DIMTM
 40
0.0
  9
$DIMTXT
 40
2.5
  9
$DIMCEN
 40
0.0
  9
$DIMTSZ
 40
0.0
  9
$DIMTOL
 70
     0
  9
$DIMLIM
 70
     0
  9
$DIMTIH
 70
     1
  9
$DIMTOH
 70
     1
  9
$DIMSE1
 70
     0
  9
$DIMSE2
 70
     0
  9
$DIMTAD
 70
     1
  9
$DIMZIN
 70
    12
  9
$DIMBLK
  1
OPEN30
  9
$DIMASO
 70
     1
  9
$DIMSHO
 70
     1
  9
$DIMPOST
  1

  9
$DIMAPOST
  1

  9
$DIMALT
 70
     0
  9
$DIMALTD
 70
     2
  9
$DIMALTF
 40
25.4
  9
$DIMLFAC
 40
1.0
  9
$DIMTOFL
 70
     0
  9
$DIMTVP
 40
0.0
  9
$DIMTIX
 70
     0
  9
$DIMSOXD
 70
     0
  9
$DIMSAH
 70
     0
  9
$DIMBLK1
  1

  9
$DIMBLK2
  1

  9
$DIMSTYLE
  2
SC_DEFAUT
  9
$DIMCLRD
 70
     0
  9
$DIMCLRE
 70
     0
  9
$DIMCLRT
 70
     0
  9
$DIMTFAC
 40
1.0
  9
$DIMGAP
 40
2.0
  9
$LUNITS
 70
     2
  9
$LUPREC
 70
     1
  9
$SKETCHINC
 40
0.1
  9
$FILLETRAD
 40
0.0
  9
$AUNITS
 70
     0
  9
$AUPREC
 70
     0
  9
$MENU
  1
acad
  9
$ELEVATION
 40
0.0
  9
$PELEVATION
 40
0.0
  9
$THICKNESS
 40
0.0
  9
$LIMCHECK
 70
     0
  9
$BLIPMODE
 70
     0
  9
$CHAMFERA
 40
0.0
  9
$CHAMFERB
 40
0.0
  9
$SKPOLY
 70
     0
  9
$TDCREATE
 40
2450373.687919
  9
$TDUPDATE
 40
2453034.4029
  9
$TDINDWG
 40
1.057696
  9
$TDUSRTIMER
 40
1.057696
  9
$USRTIMER
 70
     1
  9
$ANGBASE
 50
0.0
  9
$ANGDIR
 70
     0
  9
$PDMODE
 70
    32
  9
$PDSIZE
 40
0.0
  9
$PLINEWID
 40
0.0
  9
$COORDS
 70
     1
  9
$SPLFRAME
 70
     0
  9
$SPLINETYPE
 70
     6
  9
$SPLINESEGS
 70
     8
  9
$ATTDIA
 70
     0
  9
$ATTREQ
 70
     1
  9
$HANDLING
 70
     1
  9
$HANDSEED
  5
93FC
  9
$SURFTAB1
 70
     6
  9
$SURFTAB2
 70
     6
  9
$SURFTYPE
 70
     6
  9
$SURFU
 70
     6
  9
$SURFV
 70
     6
  9
$UCSNAME
  2

  9
$UCSORG
 10
0.0
 20
0.0
 30
0.0
  9
$UCSXDIR
 10
1.0
 20
0.0
 30
0.0
  9
$UCSYDIR
 10
0.0
 20
1.0
 30
0.0
  9
$PUCSNAME
  2

  9
$PUCSORG
 10
0.0
 20
0.0
 30
0.0
  9
$PUCSXDIR
 10
1.0
 20
0.0
 30
0.0
  9
$PUCSYDIR
 10
0.0
 20
1.0
 30
0.0
  9
$USERI1
 70
     0
  9
$USERI2
 70
     0
  9
$USERI3
 70
     0
  9
$USERI4
 70
     0
  9
$USERI5
 70
     0
  9
$USERR1
 40
0.0
  9
$USERR2
 40
0.0
  9
$USERR3
 40
0.0
  9
$USERR4
 40
0.0
  9
$USERR5
 40
0.0
  9
$WORLDVIEW
 70
     1
  9
$SHADEDGE
 70
     3
  9
$SHADEDIF
 70
    70
  9
$TILEMODE
 70
     1
  9
$MAXACTVP
 70
    16
  9
$PLIMCHECK
 70
     0
  9
$PEXTMIN
 10
-1.452248
 20
-0.437698
 30
0.0
  9
$PEXTMAX
 10
12.749749
 20
8.310198
 30
0.0
  9
$PLIMMIN
 10
0.0
 20
0.0
  9
$PLIMMAX
 10
12.0
 20
9.0
  9
$UNITMODE
 70
     0
  9
$VISRETAIN
 70
     0
  9
$PLINEGEN
 70
     0
  9
$PSLTSCALE
 70
     0
  0
ENDSEC
  0
SECTION
  2
TABLES
  0
TABLE
  2
VPORT
 70
     2
  0
VPORT
  2
*ACTIVE
 70
     0
 10
0.0
 20
0.0
 11
1.0
 21
1.0
 12
42.26817
 22
30.418775
 13
0.0
 23
0.0
 14
1.0
 24
1.0
 15
10.0
 25
10.0
 16
0.0
 26
0.0
 36
1.0
 17
0.0
 27
0.0
 37
0.0
 40
53.633619
 41
1.466346
 42
50.0
 43
0.0
 44
0.0
 50
0.0
 51
0.0
 71
     0
 72
   100
 73
     1
 74
     0
 75
     0
 76
     0
 77
     0
 78
     0
  0
ENDTAB
  0
TABLE
  2
LTYPE
 70
     2
  0
LTYPE
  2
CONTINUOUS
 70
     0
  3
Solid line
 72
    65
 73
     0
 40
0.0
  0
LTYPE
  2
AXES2
 70
     0
  3
___ _ ___ _ ___ _ ___ _ ___ _ ___ _ ___ _ ___ _
 72
    65
 73
     4
 40
1.125
 49
0.75
 49
-0.125
 49
0.125
 49
-0.125
  0
ENDTAB
  0
TABLE
  2
LAYER
 70
     5
  0
LAYER
  2
0
 70
     0
 62
   255
  6
CONTINUOUS
  0
LAYER
  2
COTATION1
 70
     0
 62
     2
  6
CONTINUOUS
  0
LAYER
  2
AXE
 70
     0
 62
    80
  6
AXES2
  0
LAYER
  2
DEFPOINTS
 70
     0
 62
     7
  6
CONTINUOUS
  0
LAYER
  2
ALPHA
 70
     0
 62
   254
  6
CONTINUOUS
  0
ENDTAB
  0
TABLE
  2
STYLE
 70
     2
  0
STYLE
  2
ROMANS
 70
     0
 40
0.0
 41
1.0
 50
0.0
 71
     0
 42
6.0
  3
romans
  4

  0
STYLE
  2
STANDARD
 70
     0
 40
0.0
 41
1.0
 50
0.0
 71
     0
 42
0.2
  3
txt
  4

  0
ENDTAB
  0
TABLE
  2
VIEW
 70
     0
  0
ENDTAB
  0
TABLE
  2
UCS
 70
     0
  0
ENDTAB
  0
TABLE
  2
APPID
 70
     1
  0
APPID
  2
ACAD
 70
     0
  0
ENDTAB
  0
TABLE
  2
DIMSTYLE
 70
     2
  0
DIMSTYLE
  2
SC_DEFAUT
 70
     0
  3

  4

  5
OPEN30
  6

  7

 40
1.0
 41
5.0
 42
2.0
 43
0.38
 44
2.5
 45
0.0
 46
0.0
 47
0.0
 48
0.0
140
2.5
141
0.0
142
0.0
143
25.4
144
1.0
145
0.0
146
1.0
147
2.0
 71
     0
 72
     0
 73
     1
 74
     1
 75
     0
 76
     0
 77
     1
 78
    12
170
     0
171
     2
172
     0
173
     0
174
     0
175
     0
176
     0
177
     0
178
     0
  0
DIMSTYLE
  2
STANDARD
 70
     0
  3

  4

  5

  6

  7

 40
1.0
 41
0.18
 42
0.0625
 43
0.38
 44
0.18
 45
0.0
 46
0.0
 47
0.0
 48
0.0
140
0.18
141
0.09
142
0.0
143
25.4
144
1.0
145
0.0
146
1.0
147
0.09
 71
     0
 72
     0
 73
     1
 74
     1
 75
     0
 76
     0
 77
     0
 78
     0
170
     0
171
     2
172
     0
173
     0
174
     0
175
     0
176
     0
177
     0
178
     0
  0
ENDTAB
  0
ENDSEC
  0
SECTION
  2
BLOCKS
  0
BLOCK
  8
0
  2
$MODEL_SPACE
 70
     0
 10
0.0
 20
0.0
 30
0.0
  3
$MODEL_SPACE
  1

  0
ENDBLK
  5
93D9
  8
0
  0
BLOCK
 67
     1
  8
0
  2
$PAPER_SPACE
 70
     0
 10
0.0
 20
0.0
 30
0.0
  3
$PAPER_SPACE
  1

  0
ENDBLK
  5
93D7
 67
     1
  8
0
  0
BLOCK
  8
0
  2
COTE
 70
     0
 10
0.0
 20
0.0
 30
0.0
  3
COTE
  1

  0
ENDBLK
  5
F
  8
0
  0
BLOCK
  8
0
  2
FOND
 70
     0
 10
0.0
 20
0.0
 30
0.0
  3
FOND
  1

  0
ENDBLK
  5
75
  8
0
  0
BLOCK
  8
0
  2
_OPEN30
 70
     0
 10
0.0
 20
0.0
 30
0.0
  3
_OPEN30
  1

  0
LINE
  5
4B05
  8
COTATION1
 62
     0
 10
-1.0
 20
0.267949
 30
0.0
 11
0.0
 21
0.0
 31
0.0
1001
ACAD
1000
RTLwPs
1070
   158
  0
LINE
  5
4B06
  8
COTATION1
 62
     0
 10
0.0
 20
0.0
 30
0.0
 11
-1.0
 21
-0.267949
 31
0.0
1001
ACAD
1000
RTLwPs
1070
   158
  0
LINE
  5
4B07
  8
COTATION1
 62
     0
 10
0.0
 20
0.0
 30
0.0
 11
-1.0
 21
0.0
 31
0.0
1001
ACAD
1000
RTLwPs
1070
   158
  0
ENDBLK
  5
4B09
  8
0
  0
BLOCK
  8
0
  2
*D3
 70
     1
 10
0.0
 20
0.0
 30
0.0
  3
*D3
  1

  0
LINE
  5
9346
  8
COTATION1
 62
     0
 10
42.243702
 20
25.107509
 30
0.0
 11
42.243702
 21
55.007509
 31
0.0
1001
ACAD
1000
RTLwPs
1070
   158
  0
LINE
  5
9347
  8
COTATION1
 62
     0
 10
58.243702
 20
25.107509
 30
0.0
 11
58.243702
 21
55.007509
 31
0.0
1001
ACAD
1000
RTLwPs
1070
   158
  0
LINE
  5
9348
  8
COTATION1
 62
     0
 10
47.243702
 20
52.507509
 30
0.0
 11
53.243702
 21
52.507509
 31
0.0
1001
ACAD
1000
RTLwPs
1070
   158
  0
INSERT
  5
9349
  8
COTATION1
 62
     0
  2
_OPEN30
 10
42.243702
 20
52.507509
 30
0.0
 41
5.0
 42
5.0
 43
5.0
 50
180.0
1001
ACAD
1000
RTLwPs
1070
   158
  0
INSERT
  5
934A
  8
COTATION1
 62
     0
  2
_OPEN30
 10
58.243702
 20
52.507509
 30
0.0
 41
5.0
 42
5.0
 43
5.0
1001
ACAD
1000
RTLwPs
1070
   158
  0
TEXT
  5
934B
  8
COTATION1
 62
     0
 10
46.850845
 20
54.507509
 30
0.0
 40
2.5
  1
%%c
1001
ACAD
1000
MTEXTBEGIN
1070
    73
1070
     1
1070
    44
1040
1.0
1070
    74
1070
     0
1000
MTEXTEND
  0
TEXT
  5
93A9
  8
COTATION1
 62
     0
 10
49.11275
 20
54.507509
 30
0.0
 40
2.5
  1
16
1001
ACAD
1000
R13OBJECT
1002
{
1005
934B
1002
}
  0
POINT
  5
934C
  8
DEFPOINTS
 62
     0
 10
42.243702
 20
23.107509
 30
0.0
  0
POINT
  5
934D
  8
DEFPOINTS
 62
     0
 10
58.243702
 20
23.107509
 30
0.0
  0
POINT
  5
934E
  8
DEFPOINTS
 62
     0
 10
58.243702
 20
52.507509
 30
0.0
  0
ENDBLK
  5
7F3E
  8
0
  0
BLOCK
  8
0
  2
*D4
 70
     1
 10
0.0
 20
0.0
 30
0.0
  3
*D4
  1

  0
LINE
  5
92B7
  8
COTATION1
 62
     0
 10
48.243702
 20
42.507509
 30
0.0
 11
26.601887
 21
42.507509
 31
0.0
1001
ACAD
1000
RTLwPs
1070
   158
  0
LINE
  5
92B8
  8
COTATION1
 62
     0
 10
40.243702
 20
22.107509
 30
0.0
 11
26.601887
 21
22.107509
 31
0.0
1001
ACAD
1000
RTLwPs
1070
   158
  0
LINE
  5
92B9
  8
COTATION1
 62
     0
 10
29.101887
 20
37.507509
 30
0.0
 11
29.101887
 21
35.557509
 31
0.0
1001
ACAD
1000
RTLwPs
1070
   158
  0
LINE
  5
92BA
  8
COTATION1
 62
     0
 10
29.101887
 20
27.107509
 30
0.0
 11
29.101887
 21
29.057509
 31
0.0
1001
ACAD
1000
RTLwPs
1070
   158
  0
TEXT
  5
92BB
  8
COTATION1
 62
     0
 10
24.875696
 20
31.057509
 30
0.0
 40
2.5
  1
20.4
1001
ACAD
1000
MTEXTBEGIN
1070
    73
1070
     1
1070
    44
1040
1.0
1070
    74
1070
     0
1000
MTEXTEND
  0
INSERT
  5
92BC
  8
COTATION1
 62
     0
  2
_OPEN30
 10
29.101887
 20
42.507509
 30
0.0
 41
5.0
 42
5.0
 43
5.0
 50
90.0
1001
ACAD
1000
RTLwPs
1070
   158
  0
INSERT
  5
92BD
  8
COTATION1
 62
     0
  2
_OPEN30
 10
29.101887
 20
22.107509
 30
0.0
 41
5.0
 42
5.0
 43
5.0
 50
270.0
1001
ACAD
1000
RTLwPs
1070
   158
  0
POINT
  5
92BE
  8
DEFPOINTS
 62
     0
 10
50.243702
 20
42.507509
 30
0.0
  0
POINT
  5
92BF
  8
DEFPOINTS
 62
     0
 10
42.243702
 20
22.107509
 30
0.0
  0
POINT
  5
92C0
  8
DEFPOINTS
 62
     0
 10
29.101887
 20
22.107509
 30
0.0
  0
ENDBLK
  5
7F4B
  8
0
  0
BLOCK
  8
0
  2
*D5
 70
     1
 10
0.0
 20
0.0
 30
0.0
  3
*D5
  1

  0
LINE
  5
92AD
  8
COTATION1
 62
     0
 10
52.243702
 20
42.507509
 30
0.0
 11
80.043759
 21
42.507509
 31
0.0
1001
ACAD
1000
RTLwPs
1070
   158
  0
LINE
  5
92AE
  8
COTATION1
 62
     0
 10
58.093702
 20
13.807509
 30
0.0
 11
80.043759
 21
13.807509
 31
0.0
1001
ACAD
1000
RTLwPs
1070
   158
  0
LINE
  5
92AF
  8
COTATION1
 62
     0
 10
77.543759
 20
37.507509
 30
0.0
 11
77.543759
 21
31.407509
 31
0.0
1001
ACAD
1000
RTLwPs
1070
   158
  0
LINE
  5
92B0
  8
COTATION1
 62
     0
 10
77.543759
 20
18.807509
 30
0.0
 11
77.543759
 21
24.907509
 31
0.0
1001
ACAD
1000
RTLwPs
1070
   158
  0
TEXT
  5
92B1
  8
COTATION1
 62
     0
 10
73.347403
 20
26.907509
 30
0.0
 40
2.5
  1
28.7
1001
ACAD
1000
MTEXTBEGIN
1070
    73
1070
     1
1070
    44
1040
1.0
1070
    74
1070
     0
1000
MTEXTEND
  0
INSERT
  5
92B2
  8
COTATION1
 62
     0
  2
_OPEN30
 10
77.543759
 20
42.507509
 30
0.0
 41
5.0
 42
5.0
 43
5.0
 50
90.0
1001
ACAD
1000
RTLwPs
1070
   158
  0
INSERT
  5
92B3
  8
COTATION1
 62
     0
  2
_OPEN30
 10
77.543759
 20
13.807509
 30
0.0
 41
5.0
 42
5.0
 43
5.0
 50
270.0
1001
ACAD
1000
RTLwPs
1070
   158
  0
POINT
  5
92B4
  8
DEFPOINTS
 62
     0
 10
50.243702
 20
42.507509
 30
0.0
  0
POINT
  5
92B5
  8
DEFPOINTS
 62
     0
 10
56.093702
 20
13.807509
 30
0.0
  0
POINT
  5
92B6
  8
DEFPOINTS
 62
     0
 10
77.543759
 20
13.807509
 30
0.0
  0
ENDBLK
  5
8EB4
  8
0
  0
ENDSEC
  0
SECTION
  2
ENTITIES
  0
INSERT
  5
A
  8
0
  2
COTE
 10
0.0
 20
0.0
 30
0.0
  0
INSERT
  5
17
  8
0
  2
COTE
 10
284.010391
 20
6.373258
 30
0.0
  0
INSERT
  5
72
  8
0
  2
FOND
 10
0.0
 20
0.0
 30
0.0
  0
DIMENSION
  5
7F30
  8
COTATION1
  2
*D3
 10
58.243702
 20
52.507509
 30
0.0
 11
50.243702
 21
55.757509
 31
0.0
  1
%%c<>
 13
42.243702
 23
23.107509
 33
0.0
 14
58.243702
 24
23.107509
 34
0.0
  0
DIMENSION
  5
7F31
  8
COTATION1
  2
*D4
 10
29.101887
 20
22.107509
 30
0.0
 11
29.101887
 21
32.307509
 31
0.0
 70
   128
 13
50.243702
 23
42.507509
 33
0.0
 14
42.243702
 24
22.107509
 34
0.0
 50
90.0
  0
LINE
  5
8AD3
  8
AXE
 10
50.243702
 20
3.807509
 30
0.0
 11
50.243702
 21
47.507509
 31
0.0
  0
TEXT
  5
8AD4
  8
AXE
 10
45.196083
 20
3.807509
 30
0.0
 40
5.0
  1
Y
 72
     2
 11
49.243702
 21
3.807509
 31
0.0
  0
LINE
  5
8AD5
  8
AXE
 10
37.243702
 20
28.157509
 30
0.0
 11
68.243702
 21
28.157509
 31
0.0
  0
TEXT
  5
8AD6
  8
AXE
 10
64.196083
 20
29.157509
 30
0.0
 40
5.0
  1
X
 72
     2
 11
68.243702
 21
29.157509
 31
0.0
  0
LINE
  5
8B73
  8
COTATION1
 10
16.441135
 20
24.607509
 30
0.0
 11
16.441135
 21
49.566431
 31
0.0
  0
LINE
  5
8B74
  8
COTATION1
 10
8.340782
 20
22.107509
 30
0.0
 11
41.243702
 21
22.107509
 31
0.0
  0
SOLID
  5
8B75
  8
COTATION1
 10
17.88451
 20
22.107509
 30
0.0
 11
14.997759
 21
22.107509
 31
0.0
 12
16.441135
 22
24.607509
 32
0.0
 13
16.441135
 23
24.607509
 33
0.0
  0
LINE
  5
8B76
  8
COTATION1
 10
3.191135
 20
54.566431
 30
0.0
 11
29.691135
 21
54.566431
 31
0.0
  0
LINE
  5
8B77
  8
COTATION1
 10
29.691135
 20
49.566431
 30
0.0
 11
3.191135
 21
49.566431
 31
0.0
  0
TEXT
  5
8B78
  8
COTATION1
 10
4.441135
 20
50.816431
 30
0.0
 40
2.5
  1
PLANE_TO_LINE_UP
 41
0.626087
  7
STANDARD
 72
     5
 11
28.441135
 21
50.816431
 31
0.0
  0
LINE
  5
8B79
  8
COTATION1
 10
29.691135
 20
54.566431
 30
0.0
 11
29.691135
 21
49.566431
 31
0.0
  0
LINE
  5
8B7A
  8
COTATION1
 10
3.191135
 20
49.566431
 30
0.0
 11
3.191135
 21
54.566431
 31
0.0
  0
LINE
  5
8CEC
  8
ALPHA
 10
56.093702
 20
13.807509
 30
0.0
 11
44.393702
 21
13.807509
 31
0.0
  0
DIMENSION
  5
8EA7
  8
COTATION1
  2
*D5
 10
77.543759
 20
13.807509
 30
0.0
 11
77.51407
 21
28.157509
 31
0.0
 70
   128
 13
50.243702
 23
42.507509
 33
0.0
 14
56.093702
 24
13.807509
 34
0.0
 50
90.0
  0
LINE
  5
9069
  8
ALPHA
 10
56.443702
 20
27.307509
 30
0.0
 11
56.443702
 21
23.607509
 31
0.0
  0
LINE
  5
906A
  8
ALPHA
 10
44.043702
 20
27.307509
 30
0.0
 11
44.043702
 21
23.607509
 31
0.0
  0
ARC
  5
906E
  8
ALPHA
 10
44.343702
 20
16.607509
 30
0.0
 40
0.3
 50
270.000026
 51
340.4299
  0
LINE
  5
9075
  8
ALPHA
 10
42.743702
 20
23.607509
 30
0.0
 11
57.743702
 21
23.607509
 31
0.0
  0
LINE
  5
9076
  8
ALPHA
 10
58.243702
 20
23.107509
 30
0.0
 11
42.243702
 21
23.107509
 31
0.0
  0
LINE
  5
9077
  8
ALPHA
 10
42.243702
 20
22.107509
 30
0.0
 11
58.243702
 21
22.107509
 31
0.0
  0
LINE
  5
9078
  8
ALPHA
 10
56.943702
 20
19.997509
 30
0.0
 11
43.543702
 21
19.997509
 31
0.0
  0
LINE
  5
9079
  8
ALPHA
 10
56.593702
 20
18.657509
 30
0.0
 11
43.893702
 21
18.657509
 31
0.0
  0
LINE
  5
907A
  8
ALPHA
 10
56.593702
 20
17.507509
 30
0.0
 11
43.893702
 21
17.507509
 31
0.0
  0
LINE
  5
907B
  8
ALPHA
 10
56.243702
 20
16.507509
 30
0.0
 11
44.243702
 21
16.507509
 31
0.0
  0
LINE
  5
907C
  8
ALPHA
 10
43.893702
 20
16.307509
 30
0.0
 11
56.593702
 21
16.307509
 31
0.0
  0
LINE
  5
907D
  8
ALPHA
 10
43.893702
 20
14.307509
 30
0.0
 11
56.593702
 21
14.307509
 31
0.0
  0
LINE
  5
9081
  8
ALPHA
 10
43.893702
 20
16.307509
 30
0.0
 11
43.893702
 21
14.307509
 31
0.0
  0
ARC
  5
9082
  8
ALPHA
 10
44.393702
 20
14.307509
 30
0.0
 40
0.5
 50
180.0
 51
270.0
  0
LINE
  5
9083
  8
ALPHA
 10
43.543702
 20
19.997509
 30
0.0
 11
43.543702
 21
22.107509
 31
0.0
  0
ARC
  5
9084
  8
ALPHA
 10
44.243702
 20
17.007509
 30
0.0
 40
0.5
 50
90.0
 51
270.0
  0
LINE
  5
9085
  8
ALPHA
 10
43.893702
 20
18.657509
 30
0.0
 11
43.893702
 21
17.507509
 31
0.0
  0
LINE
  5
9086
  8
ALPHA
 10
42.243702
 20
23.107509
 30
0.0
 11
42.743702
 21
23.607509
 31
0.0
  0
LINE
  5
9087
  8
ALPHA
 10
42.243702
 20
22.107509
 30
0.0
 11
42.243702
 21
23.107509
 31
0.0
  0
LINE
  5
90AF
  8
ALPHA
 10
48.211721
 20
19.997509
 30
0.0
 11
48.211721
 21
22.107509
 31
0.0
  0
LINE
  5
90B0
  8
ALPHA
 10
47.625705
 20
22.107509
 30
0.0
 11
47.625705
 21
19.997509
 31
0.0
  0
LINE
  5
90B1
  8
ALPHA
 10
47.20072
 20
22.107509
 30
0.0
 11
47.20072
 21
19.997509
 31
0.0
  0
LINE
  5
90B2
  8
ALPHA
 10
47.16605
 20
19.997509
 30
0.0
 11
47.16605
 21
22.107509
 31
0.0
  0
LINE
  5
90B3
  8
ALPHA
 10
44.743702
 20
19.997509
 30
0.0
 11
44.743702
 21
18.657509
 31
0.0
  0
LINE
  5
90B4
  8
ALPHA
 10
52.275683
 20
19.997509
 30
0.0
 11
52.275683
 21
22.107509
 31
0.0
  0
LINE
  5
90B5
  8
ALPHA
 10
51.676174
 20
19.997509
 30
0.0
 11
51.676174
 21
22.107509
 31
0.0
  0
LINE
  5
90B6
  8
ALPHA
 10
51.437161
 20
22.107509
 30
0.0
 11
51.437161
 21
19.997509
 31
0.0
  0
LINE
  5
90B7
  8
ALPHA
 10
50.981097
 20
22.107509
 30
0.0
 11
50.981097
 21
19.997509
 31
0.0
  0
LINE
  5
90B8
  8
ALPHA
 10
50.554031
 20
19.997509
 30
0.0
 11
50.554031
 21
22.107509
 31
0.0
  0
LINE
  5
90B9
  8
ALPHA
 10
49.933373
 20
19.997509
 30
0.0
 11
49.933373
 21
22.107509
 31
0.0
  0
LINE
  5
90BA
  8
ALPHA
 10
49.506307
 20
22.107509
 30
0.0
 11
49.506307
 21
19.997509
 31
0.0
  0
LINE
  5
90BB
  8
ALPHA
 10
49.050243
 20
22.107509
 30
0.0
 11
49.050243
 21
19.997509
 31
0.0
  0
LINE
  5
90BC
  8
ALPHA
 10
48.81123
 20
19.997509
 30
0.0
 11
48.81123
 21
22.107509
 31
0.0
  0
LINE
  5
90BE
  8
ALPHA
 10
50.643702
 20
23.107509
 30
0.0
 11
50.643702
 21
22.107509
 31
0.0
  0
LINE
  5
90BF
  8
ALPHA
 10
49.843702
 20
22.107509
 30
0.0
 11
49.843702
 21
23.107509
 31
0.0
  0
LINE
  5
90C0
  8
ALPHA
 10
56.593702
 20
16.307509
 30
0.0
 11
56.593702
 21
14.307509
 31
0.0
  0
ARC
  5
90C1
  8
ALPHA
 10
56.093702
 20
14.307509
 30
0.0
 40
0.5
 50
270.0
 51
0.0
  0
LINE
  5
90C2
  8
ALPHA
 10
56.943702
 20
19.997509
 30
0.0
 11
56.943702
 21
22.107509
 31
0.0
  0
LINE
  5
90C3
  8
ALPHA
 10
53.321354
 20
19.997509
 30
0.0
 11
53.321354
 21
22.107509
 31
0.0
  0
LINE
  5
90C4
  8
ALPHA
 10
53.286684
 20
22.107509
 30
0.0
 11
53.286684
 21
19.997509
 31
0.0
  0
LINE
  5
90C5
  8
ALPHA
 10
52.861699
 20
22.107509
 30
0.0
 11
52.861699
 21
19.997509
 31
0.0
  0
ARC
  5
90C6
  8
ALPHA
 10
56.143702
 20
16.607509
 30
0.0
 40
0.3
 50
199.5701
 51
269.999974
  0
ARC
  5
90C7
  8
ALPHA
 10
56.243702
 20
17.007509
 30
0.0
 40
0.5
 50
270.0
 51
90.0
  0
LINE
  5
90C8
  8
ALPHA
 10
56.593702
 20
18.657509
 30
0.0
 11
56.593702
 21
17.507509
 31
0.0
  0
LINE
  5
90C9
  8
ALPHA
 10
55.743702
 20
19.997509
 30
0.0
 11
55.743702
 21
18.657509
 31
0.0
  0
LINE
  5
90CB
  8
ALPHA
 10
58.243702
 20
22.107509
 30
0.0
 11
58.243702
 21
23.107509
 31
0.0
  0
LINE
  5
90CC
  8
ALPHA
 10
58.233696
 20
22.107509
 30
0.0
 11
58.233696
 21
23.107509
 31
0.0
  0
LINE
  5
90CD
  8
ALPHA
 10
58.243702
 20
23.107509
 30
0.0
 11
57.743702
 21
23.607509
 31
0.0
  0
LINE
  5
90CE
  8
ALPHA
 10
45.365178
 20
36.307509
 30
0.0
 11
44.310743
 21
35.307509
 31
0.0
  0
ARC
  5
90CF
  8
ALPHA
 10
50.243702
 20
36.707509
 30
0.0
 40
5.8
 50
348.539141
 51
191.460859
  0
LINE
  5
90D0
  8
ALPHA
 10
44.310743
 20
35.307509
 30
0.0
 11
48.815416
 21
35.307509
 31
0.0
  0
LINE
  5
90D1
  8
ALPHA
 10
44.310743
 20
35.307509
 30
0.0
 11
44.310743
 21
27.307509
 31
0.0
  0
LINE
  5
90D2
  8
ALPHA
 10
44.310743
 20
27.307509
 30
0.0
 11
44.043702
 21
27.307509
 31
0.0
  0
ARC
  5
90D3
  8
ALPHA
 10
50.243702
 20
36.707509
 30
0.0
 40
5.6
 50
349.807282
 51
190.192718
  0
LINE
  5
90D4
  8
ALPHA
 10
47.445935
 20
39.387509
 30
0.0
 11
53.041469
 21
39.387509
 31
0.0
  0
LINE
  5
90D5
  8
ALPHA
 10
47.212613
 20
39.187509
 30
0.0
 11
53.274791
 21
39.187509
 31
0.0
  0
LINE
  5
90D6
  8
ALPHA
 10
52.203294
 20
36.307509
 30
0.0
 11
55.122226
 21
36.307509
 31
0.0
  0
LINE
  5
90D7
  8
ALPHA
 10
51.671988
 20
35.307509
 30
0.0
 11
56.176661
 21
35.307509
 31
0.0
  0
POLYLINE
  5
90D8
  8
ALPHA
 66
     1
 10
0.0
 20
0.0
 30
0.0
 70
   128
210
0.0
220
0.0
230
-1.0
  0
VERTEX
  5
93DF
  8
ALPHA
 10
-50.243702
 20
38.552509
 30
0.0
  0
VERTEX
  5
93E0
  8
ALPHA
 10
-50.57242
 20
38.508386
 30
0.0
  0
VERTEX
  5
93E1
  8
ALPHA
 10
-50.87861
 20
38.37895
 30
0.0
  0
VERTEX
  5
93E2
  8
ALPHA
 10
-51.146395
 20
38.182817
 30
0.0
  0
VERTEX
  5
93E3
  8
ALPHA
 10
-51.367958
 20
37.935226
 30
0.0
  0
VERTEX
  5
93E4
  8
ALPHA
 10
-51.663767
 20
37.342813
 30
0.0
  0
VERTEX
  5
93E5
  8
ALPHA
 10
-51.762159
 20
36.687501
 30
0.0
  0
VERTEX
  5
93E6
  8
ALPHA
 10
-51.663763
 20
36.03219
 30
0.0
  0
VERTEX
  5
93E7
  8
ALPHA
 10
-51.367947
 20
35.439778
 30
0.0
  0
VERTEX
  5
93E8
  8
ALPHA
 10
-51.146381
 20
35.192188
 30
0.0
  0
VERTEX
  5
93E9
  8
ALPHA
 10
-50.878592
 20
34.996057
 30
0.0
  0
VERTEX
  5
93EA
  8
ALPHA
 10
-50.572406
 20
34.866626
 30
0.0
  0
VERTEX
  5
93EB
  8
ALPHA
 10
-50.243702
 20
34.822509
 30
0.0
  0
SEQEND
  5
93EC
  8
ALPHA
  0
POLYLINE
  5
90D9
  8
ALPHA
 66
     1
 10
0.0
 20
0.0
 30
0.0
 70
   128
210
0.0
220
0.0
230
-1.0
  0
VERTEX
  5
93ED
  8
ALPHA
 10
-50.243702
 20
34.822509
 30
0.0
  0
VERTEX
  5
93EE
  8
ALPHA
 10
-49.914975
 20
34.866653
 30
0.0
  0
VERTEX
  5
93EF
  8
ALPHA
 10
-49.60881
 20
34.996049
 30
0.0
  0
VERTEX
  5
93F0
  8
ALPHA
 10
-49.341049
 20
35.192168
 30
0.0
  0
VERTEX
  5
93F1
  8
ALPHA
 10
-49.119482
 20
35.439745
 30
0.0
  0
VERTEX
  5
93F2
  8
ALPHA
 10
-48.823647
 20
36.032171
 30
0.0
  0
VERTEX
  5
93F3
  8
ALPHA
 10
-48.725245
 20
36.687515
 30
0.0
  0
VERTEX
  5
93F4
  8
ALPHA
 10
-48.823651
 20
37.342859
 30
0.0
  0
VERTEX
  5
93F5
  8
ALPHA
 10
-49.11949
 20
37.935285
 30
0.0
  0
VERTEX
  5
93F6
  8
ALPHA
 10
-49.34106
 20
38.182859
 30
0.0
  0
VERTEX
  5
93F7
  8
ALPHA
 10
-49.608823
 20
38.378978
 30
0.0
  0
VERTEX
  5
93F8
  8
ALPHA
 10
-49.914985
 20
38.50837
 30
0.0
  0
VERTEX
  5
93F9
  8
ALPHA
 10
-50.243702
 20
38.552509
 30
0.0
  0
SEQEND
  5
93FA
  8
ALPHA
  0
LINE
  5
90DA
  8
ALPHA
 10
47.212613
 20
36.307509
 30
0.0
 11
47.212613
 21
39.187509
 31
0.0
  0
ARC
  5
90DB
  8
ALPHA
 10
50.243702
 20
36.707509
 30
0.0
 40
2.0
 50
191.536959
 51
348.463041
  0
LINE
  5
90DC
  8
ALPHA
 10
45.365178
 20
36.307509
 30
0.0
 11
48.28411
 21
36.307509
 31
0.0
  0
CIRCLE
  5
90DD
  8
ALPHA
 10
50.243702
 20
36.687509
 30
0.0
 40
1.265
  0
CIRCLE
  5
90DE
  8
ALPHA
 10
50.243702
 20
36.707509
 30
0.0
 40
1.09
  0
LINE
  5
90DF
  8
ALPHA
 10
47.445935
 20
39.387509
 30
0.0
 11
47.212613
 21
39.187509
 31
0.0
  0
LINE
  5
90E0
  8
ALPHA
 10
53.274791
 20
36.307509
 30
0.0
 11
53.274791
 21
39.187509
 31
0.0
  0
LINE
  5
90E1
  8
ALPHA
 10
56.176661
 20
27.307509
 30
0.0
 11
56.176661
 21
35.307509
 31
0.0
  0
LINE
  5
90E2
  8
ALPHA
 10
56.443702
 20
27.307509
 30
0.0
 11
56.176661
 21
27.307509
 31
0.0
  0
LINE
  5
90E3
  8
ALPHA
 10
55.122226
 20
36.307509
 30
0.0
 11
56.176661
 21
35.307509
 31
0.0
  0
LINE
  5
90E4
  8
ALPHA
 10
53.041469
 20
39.387509
 30
0.0
 11
53.274791
 21
39.187509
 31
0.0
  0
VIEWPORT
  5
494D
 67
     1
  8
0
 10
4.995325
 20
6.556512
 30
0.0
 40
22.70986
 41
13.988421
 68
    -1
 69
     1
1001
ACAD
1000
MVIEW
1002
{
1070
    16
1010
0.0
1020
0.0
1030
0.0
1010
0.0
1020
0.0
1030
1.0
1040
0.0
1040
13.988421
1040
4.995325
1040
6.556512
1040
50.0
1040
0.0
1040
0.0
1070
     0
1070
   100
1070
     1
1070
     1
1070
     0
1070
     0
1070
     0
1070
     0
1040
0.0
1040
0.0
1040
0.0
1040
10.0
1040
10.0
1040
10.0
1040
10.0
1070
     0
1002
{
1002
}
1002
}
  0
ENDSEC
  0
EOF
