  0
SECTION
  2
HEADER
  9
$ACADVER
  1
AC1014
  9
$ACADMAINTVER
 70
     0
  9
$DWGCODEPAGE
  3
ANSI_1252
  9
$INSBASE
 10
93.894301
 20
236.06014
 30
0.0
  9
$EXTMIN
 10
-7.09562
 20
-8.198805
 30
0.0
  9
$EXTMAX
 10
38.506403
 20
58.98538
 30
0.0
  9
$LIMMIN
 10
0.0
 20
0.0
  9
$LIMMAX
 10
210.0
 20
297.0
  9
$ORTHOMODE
 70
     1
  9
$REGENMODE
 70
     1
  9
$FILLMODE
 70
     1
  9
$QTEXTMODE
 70
     0
  9
$MIRRTEXT
 70
     0
  9
$DRAGMODE
 70
     1
  9
$LTSCALE
 40
7.0
  9
$OSMODE
 70
  4095
  9
$ATTMODE
 70
     1
  9
$TEXTSIZE
 40
2.5
  9
$TRACEWID
 40
0.05
  9
$TEXTSTYLE
  7
STANDARD
  9
$CLAYER
  8
COTATION1
  9
$CELTYPE
  6
BYLAYER
  9
$CECOLOR
 62
   256
  9
$CELTSCALE
 40
1.0
  9
$DELOBJ
 70
     1
  9
$DISPSILH
 70
     0
  9
$DIMSCALE
 40
1.0
  9
$DIMASZ
 40
3.0
  9
$DIMEXO
 40
0.0625
  9
$DIMDLI
 40
0.38
  9
$DIMRND
 40
0.01
  9
$DIMDLE
 40
0.0
  9
$DIMEXE
 40
0.18
  9
$DIMTP
 40
0.0
  9
$DIMTM
 40
0.0
  9
$DIMTXT
 40
2.5
  9
$DIMCEN
 40
0.09
  9
$DIMTSZ
 40
0.0
  9
$DIMTOL
 70
     0
  9
$DIMLIM
 70
     0
  9
$DIMTIH
 70
     0
  9
$DIMTOH
 70
     0
  9
$DIMSE1
 70
     0
  9
$DIMSE2
 70
     0
  9
$DIMTAD
 70
     1
  9
$DIMZIN
 70
    12
  9
$DIMBLK
  1

  9
$DIMASO
 70
     1
  9
$DIMSHO
 70
     0
  9
$DIMPOST
  1

  9
$DIMAPOST
  1

  9
$DIMALT
 70
     0
  9
$DIMALTD
 70
     2
  9
$DIMALTF
 40
25.4
  9
$DIMLFAC
 40
1.0
  9
$DIMTOFL
 70
     1
  9
$DIMTVP
 40
0.0
  9
$DIMTIX
 70
     0
  9
$DIMSOXD
 70
     0
  9
$DIMSAH
 70
     0
  9
$DIMBLK1
  1

  9
$DIMBLK2
  1

  9
$DIMSTYLE
  2
SC_STAND
  9
$DIMCLRD
 70
     0
  9
$DIMCLRE
 70
     0
  9
$DIMCLRT
 70
     0
  9
$DIMTFAC
 40
1.0
  9
$DIMGAP
 40
1.0
  9
$DIMJUST
 70
     0
  9
$DIMSD1
 70
     0
  9
$DIMSD2
 70
     0
  9
$DIMTOLJ
 70
     1
  9
$DIMTZIN
 70
    12
  9
$DIMALTZ
 70
    12
  9
$DIMALTTZ
 70
    12
  9
$DIMFIT
 70
     5
  9
$DIMUPT
 70
     0
  9
$DIMUNIT
 70
     2
  9
$DIMDEC
 70
     3
  9
$DIMTDEC
 70
     3
  9
$DIMALTU
 70
     2
  9
$DIMALTTD
 70
     2
  9
$DIMTXSTY
  7
STANDARD
  9
$DIMAUNIT
 70
     0
  9
$LUNITS
 70
     2
  9
$LUPREC
 70
     3
  9
$SKETCHINC
 40
0.1
  9
$FILLETRAD
 40
0.0625
  9
$AUNITS
 70
     0
  9
$AUPREC
 70
     0
  9
$MENU
  1
ACAD
  9
$ELEVATION
 40
0.0
  9
$PELEVATION
 40
0.0
  9
$THICKNESS
 40
0.0
  9
$LIMCHECK
 70
     0
  9
$BLIPMODE
 70
     1
  9
$CHAMFERA
 40
0.0
  9
$CHAMFERB
 40
0.0
  9
$CHAMFERC
 40
0.0
  9
$CHAMFERD
 40
0.0
  9
$SKPOLY
 70
     0
  9
$TDCREATE
 40
2450953.590960648
  9
$TDUPDATE
 40
2453790.369533958
  9
$TDINDWG
 40
0.0086406713
  9
$TDUSRTIMER
 40
0.0086406713
  9
$USRTIMER
 70
     1
  9
$ANGBASE
 50
0.0
  9
$ANGDIR
 70
     0
  9
$PDMODE
 70
     0
  9
$PDSIZE
 40
0.0
  9
$PLINEWID
 40
0.0
  9
$COORDS
 70
     0
  9
$SPLFRAME
 70
     0
  9
$SPLINETYPE
 70
     6
  9
$SPLINESEGS
 70
     8
  9
$ATTDIA
 70
     0
  9
$ATTREQ
 70
     1
  9
$HANDLING
 70
     1
  9
$HANDSEED
  5
16C2
  9
$SURFTAB1
 70
     6
  9
$SURFTAB2
 70
     6
  9
$SURFTYPE
 70
     6
  9
$SURFU
 70
     6
  9
$SURFV
 70
     6
  9
$UCSNAME
  2

  9
$UCSORG
 10
0.0
 20
0.0
 30
0.0
  9
$UCSXDIR
 10
1.0
 20
0.0
 30
0.0
  9
$UCSYDIR
 10
0.0
 20
1.0
 30
0.0
  9
$PUCSNAME
  2

  9
$PUCSORG
 10
0.0
 20
0.0
 30
0.0
  9
$PUCSXDIR
 10
1.0
 20
0.0
 30
0.0
  9
$PUCSYDIR
 10
0.0
 20
1.0
 30
0.0
  9
$USERI1
 70
     0
  9
$USERI2
 70
     0
  9
$USERI3
 70
     0
  9
$USERI4
 70
     0
  9
$USERI5
 70
     0
  9
$USERR1
 40
0.0
  9
$USERR2
 40
0.0
  9
$USERR3
 40
0.0
  9
$USERR4
 40
0.0
  9
$USERR5
 40
0.0
  9
$WORLDVIEW
 70
     1
  9
$SHADEDGE
 70
     3
  9
$SHADEDIF
 70
    70
  9
$TILEMODE
 70
     1
  9
$MAXACTVP
 70
    32
  9
$PINSBASE
 10
0.0
 20
0.0
 30
0.0
  9
$PLIMCHECK
 70
     0
  9
$PEXTMIN
 10
-3.174999
 20
-3.175
 30
0.0
  9
$PEXTMAX
 10
203.812116
 20
370.276807
 30
0.0
  9
$PLIMMIN
 10
-3.175
 20
-3.175
  9
$PLIMMAX
 10
203.812115
 20
370.276807
  9
$UNITMODE
 70
     0
  9
$VISRETAIN
 70
     0
  9
$PLINEGEN
 70
     0
  9
$PSLTSCALE
 70
     1
  9
$TREEDEPTH
 70
  3020
  9
$PICKSTYLE
 70
     1
  9
$CMLSTYLE
  2
STANDARD
  9
$CMLJUST
 70
     0
  9
$CMLSCALE
 40
1.0
  9
$PROXYGRAPHICS
 70
     1
  9
$MEASUREMENT
 70
     0
  0
ENDSEC
  0
SECTION
  2
CLASSES
  0
CLASS
  1
DICTIONARYVAR
  2
AcDbDictionaryVar
  3
"AutoCAD"
 90
        0
280
     0
281
     0
  0
CLASS
  1
HATCH
  2
AcDbHatch
  3
"ACAD_SEDONA"
 90
        0
280
     0
281
     1
  0
ENDSEC
  0
SECTION
  2
TABLES
  0
TABLE
  2
VPORT
  5
F4
100
AcDbSymbolTable
 70
     1
  0
VPORT
  5
16BE
100
AcDbSymbolTableRecord
100
AcDbViewportTableRecord
  2
*ACTIVE
 70
     0
 10
0.0
 20
0.0
 11
1.0
 21
1.0
 12
15.700029
 22
25.392014
 13
0.0
 23
0.0
 14
1.0
 24
1.0
 15
10.0
 25
10.0
 16
0.0
 26
0.0
 36
1.0
 17
0.0
 27
0.0
 37
0.0
 40
67.733232
 41
1.643603
 42
50.0
 43
0.0
 44
0.0
 50
0.0
 51
0.0
 71
     0
 72
   100
 73
     1
 74
     1
 75
     0
 76
     1
 77
     0
 78
     0
  0
ENDTAB
  0
TABLE
  2
LTYPE
  5
F1
100
AcDbSymbolTable
 70
     1
  0
LTYPE
  5
FD
100
AcDbSymbolTableRecord
100
AcDbLinetypeTableRecord
  2
BYBLOCK
 70
     0
  3

 72
    65
 73
     0
 40
0.0
  0
LTYPE
  5
FE
100
AcDbSymbolTableRecord
100
AcDbLinetypeTableRecord
  2
BYLAYER
 70
     0
  3

 72
    65
 73
     0
 40
0.0
  0
LTYPE
  5
FF
100
AcDbSymbolTableRecord
100
AcDbLinetypeTableRecord
  2
CONTINUOUS
 70
     0
  3
Solid line
 72
    65
 73
     0
 40
0.0
  0
ENDTAB
  0
TABLE
  2
LAYER
  5
EE
100
AcDbSymbolTable
 70
     5
  0
LAYER
  5
FA
100
AcDbSymbolTableRecord
100
AcDbLayerTableRecord
  2
0
 70
     0
 62
     7
  6
CONTINUOUS
  0
LAYER
  5
12C
100
AcDbSymbolTableRecord
100
AcDbLayerTableRecord
  2
ALPHA
 70
     0
 62
   255
  6
CONTINUOUS
  0
LAYER
  5
12F
100
AcDbSymbolTableRecord
100
AcDbLayerTableRecord
  2
COTATION1
 70
     0
 62
     2
  6
CONTINUOUS
  0
LAYER
  5
13B
100
AcDbSymbolTableRecord
100
AcDbLayerTableRecord
  2
ASHADE
 70
     0
 62
     7
  6
CONTINUOUS
  0
LAYER
  5
13E
100
AcDbSymbolTableRecord
100
AcDbLayerTableRecord
  2
DEFPOINTS
 70
     0
 62
     7
  6
CONTINUOUS
  0
ENDTAB
  0
TABLE
  2
STYLE
  5
EF
100
AcDbSymbolTable
 70
     1
  0
STYLE
  5
FB
100
AcDbSymbolTableRecord
100
AcDbTextStyleTableRecord
  2
STANDARD
 70
     0
 40
0.0
 41
1.0
 50
0.0
 71
     0
 42
2.5
  3
txt
  4

  0
ENDTAB
  0
TABLE
  2
VIEW
  5
F2
100
AcDbSymbolTable
 70
     0
  0
ENDTAB
  0
TABLE
  2
UCS
  5
F3
100
AcDbSymbolTable
 70
     0
  0
ENDTAB
  0
TABLE
  2
APPID
  5
F5
100
AcDbSymbolTable
 70
     3
  0
APPID
  5
FC
100
AcDbSymbolTableRecord
100
AcDbRegAppTableRecord
  2
ACAD
 70
     0
  0
APPID
  5
127
100
AcDbSymbolTableRecord
100
AcDbRegAppTableRecord
  2
AVE_RENDER
 70
     0
  0
APPID
  5
128
100
AcDbSymbolTableRecord
100
AcDbRegAppTableRecord
  2
AVE_MATERIAL
 70
     0
  0
ENDTAB
  0
TABLE
  2
DIMSTYLE
  5
F6
100
AcDbSymbolTable
 70
     2
  0
DIMSTYLE
105
129
100
AcDbSymbolTableRecord
100
AcDbDimStyleTableRecord
  2
STANDARD
 70
     0
  3

  4

  5

  6

  7

 40
1.0
 41
0.18
 42
0.0625
 43
0.38
 44
0.18
 45
0.0
 46
0.0
 47
0.0
 48
0.0
140
0.18
141
0.09
142
0.0
143
25.4
144
1.0
145
0.0
146
1.0
147
0.09
 71
     0
 72
     0
 73
     1
 74
     1
 75
     0
 76
     0
 77
     0
 78
     0
170
     0
171
     2
172
     0
173
     0
174
     0
175
     0
176
     0
177
     0
178
     0
270
     2
271
     3
272
     3
273
     2
274
     2
340
FB
275
     0
280
     0
281
     0
282
     0
283
     1
284
    12
285
    12
286
    12
287
     5
288
     0
  0
DIMSTYLE
105
12A
102
{ACAD_REACTORS
330
163F
330
1640
330
1641
330
1642
102
}
100
AcDbSymbolTableRecord
100
AcDbDimStyleTableRecord
  2
SC_STAND
 70
     0
  3

  4

  5

  6

  7

 40
1.0
 41
3.0
 42
0.0625
 43
0.38
 44
0.18
 45
0.01
 46
0.0
 47
0.0
 48
0.0
140
2.5
141
0.09
142
0.0
143
25.4
144
1.0
145
0.0
146
1.0
147
1.0
 71
     0
 72
     0
 73
     0
 74
     0
 75
     0
 76
     0
 77
     1
 78
    12
170
     0
171
     2
172
     1
173
     0
174
     0
175
     0
176
     0
177
     0
178
     0
270
     2
271
     3
272
     3
273
     2
274
     2
340
FB
275
     0
280
     0
281
     0
282
     0
283
     1
284
    12
285
    12
286
    12
287
     5
288
     0
  0
ENDTAB
  0
TABLE
  2
BLOCK_RECORD
  5
ED
100
AcDbSymbolTable
 70
     7
  0
BLOCK_RECORD
  5
103
100
AcDbSymbolTableRecord
100
AcDbBlockTableRecord
  2
*MODEL_SPACE
  0
BLOCK_RECORD
  5
100
100
AcDbSymbolTableRecord
100
AcDbBlockTableRecord
  2
*PAPER_SPACE
  0
BLOCK_RECORD
  5
108
100
AcDbSymbolTableRecord
100
AcDbBlockTableRecord
  2
AVE_RENDER
  0
BLOCK_RECORD
  5
109
100
AcDbSymbolTableRecord
100
AcDbBlockTableRecord
  2
AVE_GLOBAL
  0
BLOCK_RECORD
  5
10A
100
AcDbSymbolTableRecord
100
AcDbBlockTableRecord
  2
SCH_IS
  0
BLOCK_RECORD
  5
1647
100
AcDbSymbolTableRecord
100
AcDbBlockTableRecord
  2
*D3
  0
BLOCK_RECORD
  5
1653
100
AcDbSymbolTableRecord
100
AcDbBlockTableRecord
  2
*D4
  0
BLOCK_RECORD
  5
165F
100
AcDbSymbolTableRecord
100
AcDbBlockTableRecord
  2
*D5
  0
BLOCK_RECORD
  5
166B
100
AcDbSymbolTableRecord
100
AcDbBlockTableRecord
  2
*D6
  0
ENDTAB
  0
ENDSEC
  0
SECTION
  2
BLOCKS
  0
BLOCK
  5
141
100
AcDbEntity
  8
0
100
AcDbBlockBegin
  2
*MODEL_SPACE
 70
     0
 10
0.0
 20
0.0
 30
0.0
  3
*MODEL_SPACE
  1

  0
ENDBLK
  5
142
100
AcDbEntity
  8
0
100
AcDbBlockEnd
  0
BLOCK
  5
13F
100
AcDbEntity
 67
     1
  8
0
100
AcDbBlockBegin
  2
*PAPER_SPACE
 70
     0
 10
0.0
 20
0.0
 30
0.0
  3
*PAPER_SPACE
  1

  0
ENDBLK
  5
140
100
AcDbEntity
 67
     1
  8
0
100
AcDbBlockEnd
  0
BLOCK
  5
8D
100
AcDbEntity
  8
0
100
AcDbBlockBegin
  2
AVE_RENDER
 70
     0
 10
0.0
 20
0.0
 30
0.0
  3
AVE_RENDER
  1
AVE_RENDER
  0
ENDBLK
  5
8E
100
AcDbEntity
  8
0
100
AcDbBlockEnd
  0
BLOCK
  5
90
100
AcDbEntity
  8
0
100
AcDbBlockBegin
  2
AVE_GLOBAL
 70
     0
 10
0.0
 20
0.0
 30
0.0
  3
AVE_GLOBAL
  1
AVE_GLOBAL
  0
ENDBLK
  5
91
100
AcDbEntity
  8
0
100
AcDbBlockEnd
  0
BLOCK
  5
C9
100
AcDbEntity
  8
0
100
AcDbBlockBegin
  2
SCH_IS
 70
     0
 10
0.0
 20
0.0
 30
0.0
  3
SCH_IS
  1

  0
INSERT
  5
C0
100
AcDbEntity
  8
ASHADE
 62
     1
100
AcDbBlockReference
  2
AVE_RENDER
 10
0.0
 20
0.0
 30
0.0
1001
AVE_RENDER
1002
{
1070
     6
1000
Pref
1070
    50
1070
    20
1070
     1
1070
     0
1000

1070
    10
1070
     1
1070
    30
1040
25.4
1070
     1
1040
0.3
1040
0.7
1040
0.0
1040
10.0
1010
-1.0
1020
-1.0
1030
-1.0
1040
0.3
1070
    49
1070
     0
1070
     0
1010
1.0
1020
1.0
1030
1.0
1040
45.0
1070
     1
1070
     0
1000
WCS
1040
0.0
1002
}
  0
INSERT
  5
C1
100
AcDbEntity
  8
ASHADE
 62
     3
100
AcDbBlockReference
  2
AVE_RENDER
 10
0.0
 20
0.0
 30
0.0
1001
AVE_RENDER
1002
{
1070
     0
1000
Full Opt
1070
     0
1070
     1
1070
     1
1070
     1
1070
     0
1070
     0
1070
     0
1070
     1
1070
     1
1040
0.0001
1040
0.0001
1002
}
  0
INSERT
  5
C2
100
AcDbEntity
  8
ASHADE
 62
     4
100
AcDbBlockReference
  2
AVE_RENDER
 10
0.0
 20
0.0
 30
0.0
1001
AVE_RENDER
1002
{
1070
     0
1000
Quick Opt
1070
     0
1070
     1
1070
     1
1070
     1
1070
     0
1070
     0
1070
     1
1002
}
  0
INSERT
  5
C3
100
AcDbEntity
  8
ASHADE
 62
     5
100
AcDbBlockReference
  2
AVE_RENDER
 10
0.0
 20
0.0
 30
0.0
1001
AVE_RENDER
1002
{
1070
     1
1000
Scanl Opt
1070
     2
1070
     0
1070
     2
1040
2.0
1040
4.0
1070
     0
1070
     1
1070
     0
1040
0.03
1002
}
  0
INSERT
  5
C4
100
AcDbEntity
  8
ASHADE
 62
     6
100
AcDbBlockReference
  2
AVE_RENDER
 10
0.0
 20
0.0
 30
0.0
1001
AVE_RENDER
1002
{
1070
     2
1000
Raytr Opt
1070
     2
1070
     0
1070
     2
1040
2.0
1040
4.0
1070
     0
1070
     1
1070
     1
1040
0.03
1070
     3
1040
0.03
1002
}
  0
INSERT
  5
C5
100
AcDbEntity
  8
ASHADE
 62
     7
100
AcDbBlockReference
  2
AVE_RENDER
 10
0.0
 20
0.0
 30
0.0
1001
AVE_RENDER
1002
{
1070
     0
1000
RFile Opt
1070
     5
1070
   640
1070
   480
1070
 10000
1070
     3
1070
    32
1070
    24
1070
     0
1070
     0
1070
     0
1070
     1
1070
     0
1070
     0
1070
     0
1002
}
  0
INSERT
  5
C6
100
AcDbEntity
  8
ASHADE
 62
     8
100
AcDbBlockReference
  2
AVE_RENDER
 10
0.0
 20
0.0
 30
0.0
1001
AVE_RENDER
1002
{
1070
     0
1000
Fog Opt
1070
     0
1070
     0
1040
0.0
1040
1.0
1040
0.0
1040
1.0
1010
0.5
1020
0.5
1030
0.5
1002
}
  0
INSERT
  5
C7
100
AcDbEntity
  8
ASHADE
 62
     9
100
AcDbBlockReference
  2
AVE_RENDER
 10
0.0
 20
0.0
 30
0.0
1001
AVE_RENDER
1002
{
1070
     0
1000
BG Opt
1070
     0
1070
     1
1010
0.0
1020
0.0
1030
0.0
1010
1.0
1020
0.0
1030
0.0
1010
0.0
1020
1.0
1030
0.0
1010
0.0
1020
0.0
1030
1.0
1040
0.5
1040
0.33
1040
0.0
1000

1070
     1
1000

1070
     1
1070
     1
1040
1.0
1040
1.0
1040
0.0
1040
0.0
1070
     0
1002
}
  0
INSERT
  5
C8
100
AcDbEntity
  8
ASHADE
 62
     1
100
AcDbBlockReference
  2
AVE_GLOBAL
 10
0.0
 20
0.0
 30
0.0
1001
AVE_MATERIAL
1002
{
1000
*GLOBAL*
1000
1
1000
Finition globale.
1002
{
1002
}
1002
{
1070
    63
1002
{
1002
{
1010
-1.0
1020
-1.0
1030
-1.0
1002
}
1040
0.1
1000

1040
0.0
1002
{
1002
}
1040
0.0
1002
{
1002
}
1040
0.0
1002
}
1002
{
1002
{
1010
-1.0
1020
-1.0
1030
-1.0
1002
}
1040
0.7
1000

1040
0.0
1002
{
1002
}
1040
0.0
1002
{
1002
}
1040
0.0
1002
}
1002
{
1002
{
1010
-1.0
1020
-1.0
1030
-1.0
1002
}
1040
0.2
1000

1040
0.0
1002
{
1002
}
1040
0.0
1002
{
1002
}
1040
0.0
1002
}
1002
{
1070
     0
1002
{
1070
     1
1002
{
1040
1.0
1040
1.0
1000

1040
0.0
1002
{
1002
}
1040
0.0
1002
{
1002
}
1040
0.0
1002
}
1002
}
1040
1.0
1040
0.0
1040
0.0
1002
}
1002
{
1040
1.0
1040
1.0
1000

1040
0.0
1002
{
1002
}
1040
0.0
1002
{
1002
}
1040
0.0
1002
}
1002
{
1040
0.5
1040
1.0
1000

1040
0.0
1002
{
1002
}
1040
0.0
1002
{
1002
}
1040
0.0
1002
}
1002
{
1070
     0
1040
0.0
1002
{
1002
}
1040
1.0
1002
{
1002
}
1040
0.0
1002
}
1002
{
1040
0.0
1002
{
1002
{
1010
0.0
1020
0.0
1030
0.0
1002
}
1040
1.0
1000

1040
0.0
1002
{
1002
}
1040
0.0
1002
{
1002
}
1040
0.0
1002
}
1002
}
1002
{
1002
{
1070
     1
1002
{
1040
0.0
1040
1.0
1000

1040
0.0
1002
{
1002
}
1040
0.0
1002
{
1002
}
1040
0.0
1002
}
1002
}
1040
0.0
1002
{
1002
}
1010
1.0
1020
0.0
1030
0.0
1010
0.0
1020
1.0
1030
0.0
1010
0.0
1020
0.0
1030
1.0
1070
     0
1002
}
1002
{
1002
{
1040
1.0
1040
1.0
1002
{
1070
     1
1002
{
1040
1.0
1040
1.0
1000

1040
0.0
1002
{
1002
}
1040
0.0
1002
{
1002
}
1040
0.0
1002
}
1002
}
1002
}
1070
     0
1040
0.0
1002
{
1002
}
1002
}
1002
{
1002
}
1002
}
1002
{
1071
        3
1070
     3
1070
     0
1002
{
1070
     2
1070
     0
1070
     0
1040
0.0
1002
}
1070
     0
1070
     2
1002
{
1002
}
1002
}
1002
{
1040
8030.0
1040
190.300003
1040
0.305
1040
228.0
1040
545.0
1040
14.0
1040
17.4
1040
0.456
1002
}
1002
}
  0
ENDBLK
  5
CA
100
AcDbEntity
  8
0
100
AcDbBlockEnd
  0
BLOCK
  5
16AE
100
AcDbEntity
  8
0
100
AcDbBlockBegin
  2
*D3
 70
     1
 10
0.0
 20
0.0
 30
0.0
  3
*D3
  1

  0
LINE
  5
16AF
100
AcDbEntity
  8
0
  6
BYBLOCK
 62
     0
100
AcDbLine
 10
1.122401
 20
50.175039
 30
0.0
 11
-3.77562
 21
50.175039
 31
0.0
  0
LINE
  5
16B0
100
AcDbEntity
  8
0
  6
BYBLOCK
 62
     0
100
AcDbLine
 10
1.122401
 20
32.174932
 30
0.0
 11
-3.77562
 21
32.174932
 31
0.0
  0
LINE
  5
16B1
100
AcDbEntity
  8
0
  6
BYBLOCK
 62
     0
100
AcDbLine
 10
-3.59562
 20
47.175039
 30
0.0
 11
-3.59562
 21
35.174932
 31
0.0
  0
SOLID
  5
16B2
100
AcDbEntity
  8
0
  6
BYBLOCK
 62
     0
100
AcDbTrace
 10
-4.09562
 20
47.175039
 30
0.0
 11
-3.09562
 21
47.175039
 31
0.0
 12
-3.59562
 22
50.175039
 32
0.0
 13
-3.59562
 23
50.175039
 33
0.0
  0
SOLID
  5
16B3
100
AcDbEntity
  8
0
  6
BYBLOCK
 62
     0
100
AcDbTrace
 10
-4.09562
 20
35.174932
 30
0.0
 11
-3.09562
 21
35.174932
 31
0.0
 12
-3.59562
 22
32.174932
 32
0.0
 13
-3.59562
 23
32.174932
 33
0.0
  0
MTEXT
  5
16B4
100
AcDbEntity
  8
0
  6
BYBLOCK
 62
     0
100
AcDbMText
 10
-5.84562
 20
41.174986
 30
0.0
 40
2.5
 41
0.0
 71
     5
 72
     1
  1
\A1;18
 11
0.0
 21
1.0
 31
0.0
  0
POINT
  5
16B5
100
AcDbEntity
  8
DEFPOINTS
  6
BYBLOCK
 62
     0
100
AcDbPoint
 10
1.184901
 20
50.175039
 30
0.0
  0
POINT
  5
16B6
100
AcDbEntity
  8
DEFPOINTS
  6
BYBLOCK
 62
     0
100
AcDbPoint
 10
1.184901
 20
32.174932
 30
0.0
  0
POINT
  5
16B7
100
AcDbEntity
  8
DEFPOINTS
  6
BYBLOCK
 62
     0
100
AcDbPoint
 10
-3.59562
 20
32.174932
 30
0.0
  0
ENDBLK
  5
16B8
100
AcDbEntity
  8
0
100
AcDbBlockEnd
  0
BLOCK
  5
1682
100
AcDbEntity
  8
0
100
AcDbBlockBegin
  2
*D4
 70
     1
 10
0.0
 20
0.0
 30
0.0
  3
*D4
  1

  0
LINE
  5
1683
100
AcDbEntity
  8
0
  6
BYBLOCK
 62
     0
100
AcDbLine
 10
1.184901
 20
48.354847
 30
0.0
 11
1.184901
 21
55.66538
 31
0.0
  0
LINE
  5
1684
100
AcDbEntity
  8
0
  6
BYBLOCK
 62
     0
100
AcDbLine
 10
28.184975
 20
46.237525
 30
0.0
 11
28.184975
 21
55.66538
 31
0.0
  0
LINE
  5
1685
100
AcDbEntity
  8
0
  6
BYBLOCK
 62
     0
100
AcDbLine
 10
4.184901
 20
55.48538
 30
0.0
 11
25.184975
 21
55.48538
 31
0.0
  0
SOLID
  5
1686
100
AcDbEntity
  8
0
  6
BYBLOCK
 62
     0
100
AcDbTrace
 10
4.184901
 20
55.98538
 30
0.0
 11
4.184901
 21
54.98538
 31
0.0
 12
1.184901
 22
55.48538
 32
0.0
 13
1.184901
 23
55.48538
 33
0.0
  0
SOLID
  5
1687
100
AcDbEntity
  8
0
  6
BYBLOCK
 62
     0
100
AcDbTrace
 10
25.184975
 20
55.98538
 30
0.0
 11
25.184975
 21
54.98538
 31
0.0
 12
28.184975
 22
55.48538
 32
0.0
 13
28.184975
 23
55.48538
 33
0.0
  0
MTEXT
  5
1688
100
AcDbEntity
  8
0
  6
BYBLOCK
 62
     0
100
AcDbMText
 10
14.684938
 20
57.73538
 30
0.0
 40
2.5
 41
0.0
 71
     5
 72
     1
  1
\A1;27
  0
POINT
  5
1689
100
AcDbEntity
  8
DEFPOINTS
  6
BYBLOCK
 62
     0
100
AcDbPoint
 10
1.184901
 20
48.292347
 30
0.0
  0
POINT
  5
168A
100
AcDbEntity
  8
DEFPOINTS
  6
BYBLOCK
 62
     0
100
AcDbPoint
 10
28.184975
 20
46.175025
 30
0.0
  0
POINT
  5
168B
100
AcDbEntity
  8
DEFPOINTS
  6
BYBLOCK
 62
     0
100
AcDbPoint
 10
28.184975
 20
55.48538
 30
0.0
  0
ENDBLK
  5
168C
100
AcDbEntity
  8
0
100
AcDbBlockEnd
  0
BLOCK
  5
16A3
100
AcDbEntity
  8
0
100
AcDbBlockBegin
  2
*D5
 70
     1
 10
0.0
 20
0.0
 30
0.0
  3
*D5
  1

  0
LINE
  5
16A4
100
AcDbEntity
  8
0
  6
BYBLOCK
 62
     0
100
AcDbLine
 10
28.747186
 20
50.929687
 30
0.0
 11
38.186403
 21
50.929687
 31
0.0
  0
LINE
  5
16A5
100
AcDbEntity
  8
0
  6
BYBLOCK
 62
     0
100
AcDbLine
 10
28.747186
 20
0.929639
 30
0.0
 11
38.186403
 21
0.929639
 31
0.0
  0
LINE
  5
16A6
100
AcDbEntity
  8
0
  6
BYBLOCK
 62
     0
100
AcDbLine
 10
38.006403
 20
47.929687
 30
0.0
 11
38.006403
 21
3.929639
 31
0.0
  0
SOLID
  5
16A7
100
AcDbEntity
  8
0
  6
BYBLOCK
 62
     0
100
AcDbTrace
 10
37.506403
 20
47.929687
 30
0.0
 11
38.506403
 21
47.929687
 31
0.0
 12
38.006403
 22
50.929687
 32
0.0
 13
38.006403
 23
50.929687
 33
0.0
  0
SOLID
  5
16A8
100
AcDbEntity
  8
0
  6
BYBLOCK
 62
     0
100
AcDbTrace
 10
37.506403
 20
3.929639
 30
0.0
 11
38.506403
 21
3.929639
 31
0.0
 12
38.006403
 22
0.929639
 32
0.0
 13
38.006403
 23
0.929639
 33
0.0
  0
MTEXT
  5
16A9
100
AcDbEntity
  8
0
  6
BYBLOCK
 62
     0
100
AcDbMText
 10
35.756403
 20
25.929663
 30
0.0
 40
2.5
 41
0.0
 71
     5
 72
     1
  1
\A1;50
 11
0.0
 21
1.0
 31
0.0
  0
POINT
  5
16AA
100
AcDbEntity
  8
DEFPOINTS
  6
BYBLOCK
 62
     0
100
AcDbPoint
 10
28.684686
 20
50.929687
 30
0.0
  0
POINT
  5
16AB
100
AcDbEntity
  8
DEFPOINTS
  6
BYBLOCK
 62
     0
100
AcDbPoint
 10
28.684686
 20
0.929639
 30
0.0
  0
POINT
  5
16AC
100
AcDbEntity
  8
DEFPOINTS
  6
BYBLOCK
 62
     0
100
AcDbPoint
 10
38.006403
 20
0.929639
 30
0.0
  0
ENDBLK
  5
16AD
100
AcDbEntity
  8
0
100
AcDbBlockEnd
  0
BLOCK
  5
1698
100
AcDbEntity
  8
0
100
AcDbBlockBegin
  2
*D6
 70
     1
 10
0.0
 20
0.0
 30
0.0
  3
*D6
  1

  0
LINE
  5
1699
100
AcDbEntity
  8
0
  6
BYBLOCK
 62
     0
100
AcDbLine
 10
-0.315266
 20
12.504545
 30
0.0
 11
-0.315266
 21
2.848042
 31
0.0
  0
LINE
  5
169A
100
AcDbEntity
  8
0
  6
BYBLOCK
 62
     0
100
AcDbLine
 10
29.684797
 20
12.504545
 30
0.0
 11
29.684797
 21
2.848042
 31
0.0
  0
LINE
  5
169B
100
AcDbEntity
  8
0
  6
BYBLOCK
 62
     0
100
AcDbLine
 10
2.684734
 20
3.028042
 30
0.0
 11
26.684797
 21
3.028042
 31
0.0
  0
SOLID
  5
169C
100
AcDbEntity
  8
0
  6
BYBLOCK
 62
     0
100
AcDbTrace
 10
2.684734
 20
3.528042
 30
0.0
 11
2.684734
 21
2.528042
 31
0.0
 12
-0.315266
 22
3.028042
 32
0.0
 13
-0.315266
 23
3.028042
 33
0.0
  0
SOLID
  5
169D
100
AcDbEntity
  8
0
  6
BYBLOCK
 62
     0
100
AcDbTrace
 10
26.684797
 20
3.528042
 30
0.0
 11
26.684797
 21
2.528042
 31
0.0
 12
29.684797
 22
3.028042
 32
0.0
 13
29.684797
 23
3.028042
 33
0.0
  0
MTEXT
  5
169E
100
AcDbEntity
  8
0
  6
BYBLOCK
 62
     0
100
AcDbMText
 10
14.684766
 20
5.278042
 30
0.0
 40
2.5
 41
0.0
 71
     5
 72
     1
  1
\A1;30
  0
POINT
  5
169F
100
AcDbEntity
  8
DEFPOINTS
  6
BYBLOCK
 62
     0
100
AcDbPoint
 10
-0.315266
 20
12.567045
 30
0.0
  0
POINT
  5
16A0
100
AcDbEntity
  8
DEFPOINTS
  6
BYBLOCK
 62
     0
100
AcDbPoint
 10
29.684797
 20
12.567045
 30
0.0
  0
POINT
  5
16A1
100
AcDbEntity
  8
DEFPOINTS
  6
BYBLOCK
 62
     0
100
AcDbPoint
 10
29.684797
 20
3.028042
 30
0.0
  0
ENDBLK
  5
16A2
100
AcDbEntity
  8
0
100
AcDbBlockEnd
  0
ENDSEC
  0
SECTION
  2
ENTITIES
  0
INSERT
  5
CC
100
AcDbEntity
  8
0
100
AcDbBlockReference
  2
SCH_IS
 10
-68.718396
 20
-140.042541
 30
0.0
  0
INSERT
  5
EC
100
AcDbEntity
  8
COTATION1
100
AcDbBlockReference
  2
SCH_IS
 10
0.0
 20
0.0
 30
0.0
  0
POLYLINE
  5
14B2
100
AcDbEntity
  8
ALPHA
 62
   255
100
AcDb2dPolyline
 66
     1
 10
0.0
 20
0.0
 30
0.0
  0
VERTEX
  5
14B3
100
AcDbEntity
  8
ALPHA
 62
   255
100
AcDbVertex
100
AcDb2dVertex
 10
27.934861
 20
14.929645
 30
0.0
  0
VERTEX
  5
14B4
100
AcDbEntity
  8
ALPHA
 62
   255
100
AcDbVertex
100
AcDb2dVertex
 10
27.184864
 20
14.929645
 30
0.0
  0
SEQEND
  5
14B5
100
AcDbEntity
  8
ALPHA
  0
POLYLINE
  5
14B6
100
AcDbEntity
  8
ALPHA
 62
   255
100
AcDb2dPolyline
 66
     1
 10
0.0
 20
0.0
 30
0.0
  0
VERTEX
  5
14B7
100
AcDbEntity
  8
ALPHA
 62
   255
100
AcDbVertex
100
AcDb2dVertex
 10
27.184864
 20
14.929645
 30
0.0
  0
VERTEX
  5
14B8
100
AcDbEntity
  8
ALPHA
 62
   255
100
AcDbVertex
100
AcDb2dVertex
 10
27.184864
 20
16.929523
 30
0.0
  0
SEQEND
  5
14B9
100
AcDbEntity
  8
ALPHA
  0
POLYLINE
  5
14BA
100
AcDbEntity
  8
ALPHA
 62
   255
100
AcDb2dPolyline
 66
     1
 10
0.0
 20
0.0
 30
0.0
  0
VERTEX
  5
14BB
100
AcDbEntity
  8
ALPHA
 62
   255
100
AcDbVertex
100
AcDb2dVertex
 10
27.184864
 20
16.929523
 30
0.0
  0
VERTEX
  5
14BC
100
AcDbEntity
  8
ALPHA
 62
   255
100
AcDbVertex
100
AcDb2dVertex
 10
27.934861
 20
16.929523
 30
0.0
  0
SEQEND
  5
14BD
100
AcDbEntity
  8
ALPHA
  0
POLYLINE
  5
14BE
100
AcDbEntity
  8
ALPHA
 62
   255
100
AcDb2dPolyline
 66
     1
 10
0.0
 20
0.0
 30
0.0
  0
VERTEX
  5
14BF
100
AcDbEntity
  8
ALPHA
 62
   255
100
AcDbVertex
100
AcDb2dVertex
 10
27.934861
 20
16.929523
 30
0.0
  0
VERTEX
  5
14C0
100
AcDbEntity
  8
ALPHA
 62
   255
100
AcDbVertex
100
AcDb2dVertex
 10
27.934861
 20
14.929645
 30
0.0
  0
SEQEND
  5
14C1
100
AcDbEntity
  8
ALPHA
  0
POLYLINE
  5
14C2
100
AcDbEntity
  8
ALPHA
 62
   255
100
AcDb2dPolyline
 66
     1
 10
0.0
 20
0.0
 30
0.0
  0
VERTEX
  5
14C3
100
AcDbEntity
  8
ALPHA
 62
   255
100
AcDbVertex
100
AcDb2dVertex
 10
2.18484
 20
14.929645
 30
0.0
  0
VERTEX
  5
14C4
100
AcDbEntity
  8
ALPHA
 62
   255
100
AcDbVertex
100
AcDb2dVertex
 10
1.434842
 20
14.929645
 30
0.0
  0
SEQEND
  5
14C5
100
AcDbEntity
  8
ALPHA
  0
POLYLINE
  5
14C6
100
AcDbEntity
  8
ALPHA
 62
   255
100
AcDb2dPolyline
 66
     1
 10
0.0
 20
0.0
 30
0.0
  0
VERTEX
  5
14C7
100
AcDbEntity
  8
ALPHA
 62
   255
100
AcDbVertex
100
AcDb2dVertex
 10
1.434842
 20
14.929645
 30
0.0
  0
VERTEX
  5
14C8
100
AcDbEntity
  8
ALPHA
 62
   255
100
AcDbVertex
100
AcDb2dVertex
 10
1.434842
 20
16.929523
 30
0.0
  0
SEQEND
  5
14C9
100
AcDbEntity
  8
ALPHA
  0
POLYLINE
  5
14CA
100
AcDbEntity
  8
ALPHA
 62
   255
100
AcDb2dPolyline
 66
     1
 10
0.0
 20
0.0
 30
0.0
  0
VERTEX
  5
14CB
100
AcDbEntity
  8
ALPHA
 62
   255
100
AcDbVertex
100
AcDb2dVertex
 10
1.434842
 20
16.929523
 30
0.0
  0
VERTEX
  5
14CC
100
AcDbEntity
  8
ALPHA
 62
   255
100
AcDbVertex
100
AcDb2dVertex
 10
2.18484
 20
16.929523
 30
0.0
  0
SEQEND
  5
14CD
100
AcDbEntity
  8
ALPHA
  0
POLYLINE
  5
14CE
100
AcDbEntity
  8
ALPHA
 62
   255
100
AcDb2dPolyline
 66
     1
 10
0.0
 20
0.0
 30
0.0
  0
VERTEX
  5
14CF
100
AcDbEntity
  8
ALPHA
 62
   255
100
AcDbVertex
100
AcDb2dVertex
 10
2.18484
 20
16.929523
 30
0.0
  0
VERTEX
  5
14D0
100
AcDbEntity
  8
ALPHA
 62
   255
100
AcDbVertex
100
AcDb2dVertex
 10
2.18484
 20
14.929645
 30
0.0
  0
SEQEND
  5
14D1
100
AcDbEntity
  8
ALPHA
  0
POLYLINE
  5
14D2
100
AcDbEntity
  8
ALPHA
 62
   255
100
AcDb2dPolyline
 66
     1
 10
0.0
 20
0.0
 30
0.0
  0
VERTEX
  5
14D3
100
AcDbEntity
  8
ALPHA
 62
   255
100
AcDbVertex
100
AcDb2dVertex
 10
19.684891
 20
32.175104
 30
0.0
  0
VERTEX
  5
14D4
100
AcDbEntity
  8
ALPHA
 62
   255
100
AcDbVertex
100
AcDb2dVertex
 10
9.684812
 20
32.175104
 30
0.0
  0
SEQEND
  5
14D5
100
AcDbEntity
  8
ALPHA
  0
POLYLINE
  5
14D6
100
AcDbEntity
  8
ALPHA
 62
   255
100
AcDb2dPolyline
 66
     1
 10
0.0
 20
0.0
 30
0.0
  0
VERTEX
  5
14D7
100
AcDbEntity
  8
ALPHA
 62
   255
100
AcDbVertex
100
AcDb2dVertex
 10
9.684812
 20
32.175104
 30
0.0
  0
VERTEX
  5
14D8
100
AcDbEntity
  8
ALPHA
 62
   255
100
AcDbVertex
100
AcDb2dVertex
 10
9.684812
 20
50.175212
 30
0.0
  0
SEQEND
  5
14D9
100
AcDbEntity
  8
ALPHA
  0
POLYLINE
  5
14DA
100
AcDbEntity
  8
ALPHA
 62
   255
100
AcDb2dPolyline
 66
     1
 10
0.0
 20
0.0
 30
0.0
  0
VERTEX
  5
14DB
100
AcDbEntity
  8
ALPHA
 62
   255
100
AcDbVertex
100
AcDb2dVertex
 10
9.684812
 20
50.175212
 30
0.0
  0
VERTEX
  5
14DC
100
AcDbEntity
  8
ALPHA
 62
   255
100
AcDbVertex
100
AcDb2dVertex
 10
19.684891
 20
50.175212
 30
0.0
  0
SEQEND
  5
14DD
100
AcDbEntity
  8
ALPHA
  0
POLYLINE
  5
14DE
100
AcDbEntity
  8
ALPHA
 62
   255
100
AcDb2dPolyline
 66
     1
 10
0.0
 20
0.0
 30
0.0
  0
VERTEX
  5
14DF
100
AcDbEntity
  8
ALPHA
 62
   255
100
AcDbVertex
100
AcDb2dVertex
 10
19.684891
 20
50.175212
 30
0.0
  0
VERTEX
  5
14E0
100
AcDbEntity
  8
ALPHA
 62
   255
100
AcDbVertex
100
AcDb2dVertex
 10
19.684891
 20
32.175104
 30
0.0
  0
SEQEND
  5
14E1
100
AcDbEntity
  8
ALPHA
  0
POLYLINE
  5
14E2
100
AcDbEntity
  8
ALPHA
 62
   255
100
AcDb2dPolyline
 66
     1
 10
0.0
 20
0.0
 30
0.0
  0
VERTEX
  5
14E3
100
AcDbEntity
  8
ALPHA
 62
   255
100
AcDbVertex
100
AcDb2dVertex
 10
28.184975
 20
32.174932
 30
0.0
  0
VERTEX
  5
14E4
100
AcDbEntity
  8
ALPHA
 62
   255
100
AcDbVertex
100
AcDb2dVertex
 10
1.184901
 20
32.174932
 30
0.0
  0
SEQEND
  5
14E5
100
AcDbEntity
  8
ALPHA
  0
POLYLINE
  5
14E6
100
AcDbEntity
  8
ALPHA
 62
   255
100
AcDb2dPolyline
 66
     1
 10
0.0
 20
0.0
 30
0.0
  0
VERTEX
  5
14E7
100
AcDbEntity
  8
ALPHA
 62
   255
100
AcDbVertex
100
AcDb2dVertex
 10
1.184901
 20
32.174932
 30
0.0
  0
VERTEX
  5
14E8
100
AcDbEntity
  8
ALPHA
 62
   255
100
AcDbVertex
100
AcDb2dVertex
 10
1.184901
 20
50.175039
 30
0.0
  0
SEQEND
  5
14E9
100
AcDbEntity
  8
ALPHA
  0
POLYLINE
  5
14EA
100
AcDbEntity
  8
ALPHA
 62
   255
100
AcDb2dPolyline
 66
     1
 10
0.0
 20
0.0
 30
0.0
  0
VERTEX
  5
14EB
100
AcDbEntity
  8
ALPHA
 62
   255
100
AcDbVertex
100
AcDb2dVertex
 10
1.184901
 20
50.175039
 30
0.0
  0
VERTEX
  5
14EC
100
AcDbEntity
  8
ALPHA
 62
   255
100
AcDbVertex
100
AcDb2dVertex
 10
28.184975
 20
50.175039
 30
0.0
  0
SEQEND
  5
14ED
100
AcDbEntity
  8
ALPHA
  0
POLYLINE
  5
14EE
100
AcDbEntity
  8
ALPHA
 62
   255
100
AcDb2dPolyline
 66
     1
 10
0.0
 20
0.0
 30
0.0
  0
VERTEX
  5
14EF
100
AcDbEntity
  8
ALPHA
 62
   255
100
AcDbVertex
100
AcDb2dVertex
 10
28.184975
 20
50.175039
 30
0.0
  0
VERTEX
  5
14F0
100
AcDbEntity
  8
ALPHA
 62
   255
100
AcDbVertex
100
AcDb2dVertex
 10
28.184975
 20
32.174932
 30
0.0
  0
SEQEND
  5
14F1
100
AcDbEntity
  8
ALPHA
  0
POLYLINE
  5
14F2
100
AcDbEntity
  8
ALPHA
 62
   255
100
AcDb2dPolyline
 66
     1
 10
0.0
 20
0.0
 30
0.0
  0
VERTEX
  5
14F3
100
AcDbEntity
  8
ALPHA
 62
   255
100
AcDbVertex
100
AcDb2dVertex
 10
29.684797
 20
32.424874
 30
0.0
  0
VERTEX
  5
14F4
100
AcDbEntity
  8
ALPHA
 62
   255
100
AcDbVertex
100
AcDb2dVertex
 10
29.679633
 20
32.322636
 30
0.0
  0
VERTEX
  5
14F5
100
AcDbEntity
  8
ALPHA
 62
   255
100
AcDbVertex
100
AcDb2dVertex
 10
29.664475
 20
32.223352
 30
0.0
  0
VERTEX
  5
14F6
100
AcDbEntity
  8
ALPHA
 62
   255
100
AcDbVertex
100
AcDb2dVertex
 10
29.639826
 20
32.127523
 30
0.0
  0
VERTEX
  5
14F7
100
AcDbEntity
  8
ALPHA
 62
   255
100
AcDbVertex
100
AcDb2dVertex
 10
29.60619
 20
32.035653
 30
0.0
  0
VERTEX
  5
14F8
100
AcDbEntity
  8
ALPHA
 62
   255
100
AcDbVertex
100
AcDb2dVertex
 10
29.56407
 20
31.948245
 30
0.0
  0
VERTEX
  5
14F9
100
AcDbEntity
  8
ALPHA
 62
   255
100
AcDbVertex
100
AcDb2dVertex
 10
29.513969
 20
31.865799
 30
0.0
  0
VERTEX
  5
14FA
100
AcDbEntity
  8
ALPHA
 62
   255
100
AcDbVertex
100
AcDb2dVertex
 10
29.456389
 20
31.788821
 30
0.0
  0
VERTEX
  5
14FB
100
AcDbEntity
  8
ALPHA
 62
   255
100
AcDbVertex
100
AcDb2dVertex
 10
29.391835
 20
31.717811
 30
0.0
  0
VERTEX
  5
14FC
100
AcDbEntity
  8
ALPHA
 62
   255
100
AcDbVertex
100
AcDb2dVertex
 10
29.320809
 20
31.653273
 30
0.0
  0
VERTEX
  5
14FD
100
AcDbEntity
  8
ALPHA
 62
   255
100
AcDbVertex
100
AcDb2dVertex
 10
29.243815
 20
31.595709
 30
0.0
  0
VERTEX
  5
14FE
100
AcDbEntity
  8
ALPHA
 62
   255
100
AcDbVertex
100
AcDb2dVertex
 10
29.161356
 20
31.545623
 30
0.0
  0
VERTEX
  5
14FF
100
AcDbEntity
  8
ALPHA
 62
   255
100
AcDbVertex
100
AcDb2dVertex
 10
29.073934
 20
31.503515
 30
0.0
  0
VERTEX
  5
1500
100
AcDbEntity
  8
ALPHA
 62
   255
100
AcDbVertex
100
AcDb2dVertex
 10
28.982053
 20
31.46989
 30
0.0
  0
VERTEX
  5
1501
100
AcDbEntity
  8
ALPHA
 62
   255
100
AcDbVertex
100
AcDb2dVertex
 10
28.886216
 20
31.44525
 30
0.0
  0
VERTEX
  5
1502
100
AcDbEntity
  8
ALPHA
 62
   255
100
AcDbVertex
100
AcDb2dVertex
 10
28.786926
 20
31.430097
 30
0.0
  0
VERTEX
  5
1503
100
AcDbEntity
  8
ALPHA
 62
   255
100
AcDbVertex
100
AcDb2dVertex
 10
28.684686
 20
31.424935
 30
0.0
  0
SEQEND
  5
1504
100
AcDbEntity
  8
ALPHA
  0
POLYLINE
  5
1505
100
AcDbEntity
  8
ALPHA
 62
   255
100
AcDb2dPolyline
 66
     1
 10
0.0
 20
0.0
 30
0.0
  0
VERTEX
  5
1506
100
AcDbEntity
  8
ALPHA
 62
   255
100
AcDbVertex
100
AcDb2dVertex
 10
28.684686
 20
31.424935
 30
0.0
  0
VERTEX
  5
1507
100
AcDbEntity
  8
ALPHA
 62
   255
100
AcDbVertex
100
AcDb2dVertex
 10
0.684673
 20
31.424935
 30
0.0
  0
SEQEND
  5
1508
100
AcDbEntity
  8
ALPHA
  0
POLYLINE
  5
1509
100
AcDbEntity
  8
ALPHA
 62
   255
100
AcDb2dPolyline
 66
     1
 10
0.0
 20
0.0
 30
0.0
  0
VERTEX
  5
150A
100
AcDbEntity
  8
ALPHA
 62
   255
100
AcDbVertex
100
AcDb2dVertex
 10
0.684673
 20
31.424935
 30
0.0
  0
VERTEX
  5
150B
100
AcDbEntity
  8
ALPHA
 62
   255
100
AcDbVertex
100
AcDb2dVertex
 10
0.582435
 20
31.430097
 30
0.0
  0
VERTEX
  5
150C
100
AcDbEntity
  8
ALPHA
 62
   255
100
AcDbVertex
100
AcDb2dVertex
 10
0.483151
 20
31.44525
 30
0.0
  0
VERTEX
  5
150D
100
AcDbEntity
  8
ALPHA
 62
   255
100
AcDbVertex
100
AcDb2dVertex
 10
0.387322
 20
31.46989
 30
0.0
  0
VERTEX
  5
150E
100
AcDbEntity
  8
ALPHA
 62
   255
100
AcDbVertex
100
AcDb2dVertex
 10
0.295452
 20
31.503515
 30
0.0
  0
VERTEX
  5
150F
100
AcDbEntity
  8
ALPHA
 62
   255
100
AcDbVertex
100
AcDb2dVertex
 10
0.208043
 20
31.545623
 30
0.0
  0
VERTEX
  5
1510
100
AcDbEntity
  8
ALPHA
 62
   255
100
AcDbVertex
100
AcDb2dVertex
 10
0.125598
 20
31.595709
 30
0.0
  0
VERTEX
  5
1511
100
AcDbEntity
  8
ALPHA
 62
   255
100
AcDbVertex
100
AcDb2dVertex
 10
0.04862
 20
31.653273
 30
0.0
  0
VERTEX
  5
1512
100
AcDbEntity
  8
ALPHA
 62
   255
100
AcDbVertex
100
AcDb2dVertex
 10
-0.02239
 20
31.717811
 30
0.0
  0
VERTEX
  5
1513
100
AcDbEntity
  8
ALPHA
 62
   255
100
AcDbVertex
100
AcDb2dVertex
 10
-0.086928
 20
31.788821
 30
0.0
  0
VERTEX
  5
1514
100
AcDbEntity
  8
ALPHA
 62
   255
100
AcDbVertex
100
AcDb2dVertex
 10
-0.144492
 20
31.865799
 30
0.0
  0
VERTEX
  5
1515
100
AcDbEntity
  8
ALPHA
 62
   255
100
AcDbVertex
100
AcDb2dVertex
 10
-0.194579
 20
31.948245
 30
0.0
  0
VERTEX
  5
1516
100
AcDbEntity
  8
ALPHA
 62
   255
100
AcDbVertex
100
AcDb2dVertex
 10
-0.236686
 20
32.035653
 30
0.0
  0
VERTEX
  5
1517
100
AcDbEntity
  8
ALPHA
 62
   255
100
AcDbVertex
100
AcDb2dVertex
 10
-0.270311
 20
32.127523
 30
0.0
  0
VERTEX
  5
1518
100
AcDbEntity
  8
ALPHA
 62
   255
100
AcDbVertex
100
AcDb2dVertex
 10
-0.294951
 20
32.223352
 30
0.0
  0
VERTEX
  5
1519
100
AcDbEntity
  8
ALPHA
 62
   255
100
AcDbVertex
100
AcDb2dVertex
 10
-0.310104
 20
32.322636
 30
0.0
  0
VERTEX
  5
151A
100
AcDbEntity
  8
ALPHA
 62
   255
100
AcDbVertex
100
AcDb2dVertex
 10
-0.315266
 20
32.424874
 30
0.0
  0
SEQEND
  5
151B
100
AcDbEntity
  8
ALPHA
  0
POLYLINE
  5
151C
100
AcDbEntity
  8
ALPHA
 62
   255
100
AcDb2dPolyline
 66
     1
 10
0.0
 20
0.0
 30
0.0
  0
VERTEX
  5
151D
100
AcDbEntity
  8
ALPHA
 62
   255
100
AcDbVertex
100
AcDb2dVertex
 10
-0.315266
 20
32.424874
 30
0.0
  0
VERTEX
  5
151E
100
AcDbEntity
  8
ALPHA
 62
   255
100
AcDbVertex
100
AcDb2dVertex
 10
-0.315266
 20
49.929749
 30
0.0
  0
SEQEND
  5
151F
100
AcDbEntity
  8
ALPHA
  0
POLYLINE
  5
1520
100
AcDbEntity
  8
ALPHA
 62
   255
100
AcDb2dPolyline
 66
     1
 10
0.0
 20
0.0
 30
0.0
  0
VERTEX
  5
1521
100
AcDbEntity
  8
ALPHA
 62
   255
100
AcDbVertex
100
AcDb2dVertex
 10
-0.315266
 20
49.929749
 30
0.0
  0
VERTEX
  5
1522
100
AcDbEntity
  8
ALPHA
 62
   255
100
AcDbVertex
100
AcDb2dVertex
 10
-0.310104
 20
50.031986
 30
0.0
  0
VERTEX
  5
1523
100
AcDbEntity
  8
ALPHA
 62
   255
100
AcDbVertex
100
AcDb2dVertex
 10
-0.294951
 20
50.13127
 30
0.0
  0
VERTEX
  5
1524
100
AcDbEntity
  8
ALPHA
 62
   255
100
AcDbVertex
100
AcDb2dVertex
 10
-0.270311
 20
50.227099
 30
0.0
  0
VERTEX
  5
1525
100
AcDbEntity
  8
ALPHA
 62
   255
100
AcDbVertex
100
AcDb2dVertex
 10
-0.236686
 20
50.318969
 30
0.0
  0
VERTEX
  5
1526
100
AcDbEntity
  8
ALPHA
 62
   255
100
AcDbVertex
100
AcDb2dVertex
 10
-0.194579
 20
50.406378
 30
0.0
  0
VERTEX
  5
1527
100
AcDbEntity
  8
ALPHA
 62
   255
100
AcDbVertex
100
AcDb2dVertex
 10
-0.144492
 20
50.488823
 30
0.0
  0
VERTEX
  5
1528
100
AcDbEntity
  8
ALPHA
 62
   255
100
AcDbVertex
100
AcDb2dVertex
 10
-0.086928
 20
50.565802
 30
0.0
  0
VERTEX
  5
1529
100
AcDbEntity
  8
ALPHA
 62
   255
100
AcDbVertex
100
AcDb2dVertex
 10
-0.02239
 20
50.636811
 30
0.0
  0
VERTEX
  5
152A
100
AcDbEntity
  8
ALPHA
 62
   255
100
AcDbVertex
100
AcDb2dVertex
 10
0.04862
 20
50.701349
 30
0.0
  0
VERTEX
  5
152B
100
AcDbEntity
  8
ALPHA
 62
   255
100
AcDbVertex
100
AcDb2dVertex
 10
0.125598
 20
50.758913
 30
0.0
  0
VERTEX
  5
152C
100
AcDbEntity
  8
ALPHA
 62
   255
100
AcDbVertex
100
AcDb2dVertex
 10
0.208043
 20
50.809
 30
0.0
  0
VERTEX
  5
152D
100
AcDbEntity
  8
ALPHA
 62
   255
100
AcDbVertex
100
AcDb2dVertex
 10
0.295452
 20
50.851107
 30
0.0
  0
VERTEX
  5
152E
100
AcDbEntity
  8
ALPHA
 62
   255
100
AcDbVertex
100
AcDb2dVertex
 10
0.387322
 20
50.884732
 30
0.0
  0
VERTEX
  5
152F
100
AcDbEntity
  8
ALPHA
 62
   255
100
AcDbVertex
100
AcDb2dVertex
 10
0.483151
 20
50.909372
 30
0.0
  0
VERTEX
  5
1530
100
AcDbEntity
  8
ALPHA
 62
   255
100
AcDbVertex
100
AcDb2dVertex
 10
0.582435
 20
50.924525
 30
0.0
  0
VERTEX
  5
1531
100
AcDbEntity
  8
ALPHA
 62
   255
100
AcDbVertex
100
AcDb2dVertex
 10
0.684673
 20
50.929687
 30
0.0
  0
SEQEND
  5
1532
100
AcDbEntity
  8
ALPHA
  0
POLYLINE
  5
1533
100
AcDbEntity
  8
ALPHA
 62
   255
100
AcDb2dPolyline
 66
     1
 10
0.0
 20
0.0
 30
0.0
  0
VERTEX
  5
1534
100
AcDbEntity
  8
ALPHA
 62
   255
100
AcDbVertex
100
AcDb2dVertex
 10
0.684673
 20
50.929687
 30
0.0
  0
VERTEX
  5
1535
100
AcDbEntity
  8
ALPHA
 62
   255
100
AcDbVertex
100
AcDb2dVertex
 10
28.684686
 20
50.929687
 30
0.0
  0
SEQEND
  5
1536
100
AcDbEntity
  8
ALPHA
  0
POLYLINE
  5
1537
100
AcDbEntity
  8
ALPHA
 62
   255
100
AcDb2dPolyline
 66
     1
 10
0.0
 20
0.0
 30
0.0
  0
VERTEX
  5
1538
100
AcDbEntity
  8
ALPHA
 62
   255
100
AcDbVertex
100
AcDb2dVertex
 10
28.684686
 20
50.929687
 30
0.0
  0
VERTEX
  5
1539
100
AcDbEntity
  8
ALPHA
 62
   255
100
AcDbVertex
100
AcDb2dVertex
 10
28.786926
 20
50.924525
 30
0.0
  0
VERTEX
  5
153A
100
AcDbEntity
  8
ALPHA
 62
   255
100
AcDbVertex
100
AcDb2dVertex
 10
28.886216
 20
50.909372
 30
0.0
  0
VERTEX
  5
153B
100
AcDbEntity
  8
ALPHA
 62
   255
100
AcDbVertex
100
AcDb2dVertex
 10
28.982053
 20
50.884732
 30
0.0
  0
VERTEX
  5
153C
100
AcDbEntity
  8
ALPHA
 62
   255
100
AcDbVertex
100
AcDb2dVertex
 10
29.073934
 20
50.851107
 30
0.0
  0
VERTEX
  5
153D
100
AcDbEntity
  8
ALPHA
 62
   255
100
AcDbVertex
100
AcDb2dVertex
 10
29.161356
 20
50.809
 30
0.0
  0
VERTEX
  5
153E
100
AcDbEntity
  8
ALPHA
 62
   255
100
AcDbVertex
100
AcDb2dVertex
 10
29.243815
 20
50.758913
 30
0.0
  0
VERTEX
  5
153F
100
AcDbEntity
  8
ALPHA
 62
   255
100
AcDbVertex
100
AcDb2dVertex
 10
29.320809
 20
50.701349
 30
0.0
  0
VERTEX
  5
1540
100
AcDbEntity
  8
ALPHA
 62
   255
100
AcDbVertex
100
AcDb2dVertex
 10
29.391835
 20
50.636811
 30
0.0
  0
VERTEX
  5
1541
100
AcDbEntity
  8
ALPHA
 62
   255
100
AcDbVertex
100
AcDb2dVertex
 10
29.456389
 20
50.565802
 30
0.0
  0
VERTEX
  5
1542
100
AcDbEntity
  8
ALPHA
 62
   255
100
AcDbVertex
100
AcDb2dVertex
 10
29.513969
 20
50.488823
 30
0.0
  0
VERTEX
  5
1543
100
AcDbEntity
  8
ALPHA
 62
   255
100
AcDbVertex
100
AcDb2dVertex
 10
29.56407
 20
50.406378
 30
0.0
  0
VERTEX
  5
1544
100
AcDbEntity
  8
ALPHA
 62
   255
100
AcDbVertex
100
AcDb2dVertex
 10
29.60619
 20
50.318969
 30
0.0
  0
VERTEX
  5
1545
100
AcDbEntity
  8
ALPHA
 62
   255
100
AcDbVertex
100
AcDb2dVertex
 10
29.639826
 20
50.227099
 30
0.0
  0
VERTEX
  5
1546
100
AcDbEntity
  8
ALPHA
 62
   255
100
AcDbVertex
100
AcDb2dVertex
 10
29.664475
 20
50.13127
 30
0.0
  0
VERTEX
  5
1547
100
AcDbEntity
  8
ALPHA
 62
   255
100
AcDbVertex
100
AcDb2dVertex
 10
29.679633
 20
50.031986
 30
0.0
  0
VERTEX
  5
1548
100
AcDbEntity
  8
ALPHA
 62
   255
100
AcDbVertex
100
AcDb2dVertex
 10
29.684797
 20
49.929749
 30
0.0
  0
SEQEND
  5
1549
100
AcDbEntity
  8
ALPHA
  0
POLYLINE
  5
154A
100
AcDbEntity
  8
ALPHA
 62
   255
100
AcDb2dPolyline
 66
     1
 10
0.0
 20
0.0
 30
0.0
  0
VERTEX
  5
154B
100
AcDbEntity
  8
ALPHA
 62
   255
100
AcDbVertex
100
AcDb2dVertex
 10
29.684797
 20
49.929749
 30
0.0
  0
VERTEX
  5
154C
100
AcDbEntity
  8
ALPHA
 62
   255
100
AcDbVertex
100
AcDb2dVertex
 10
29.684797
 20
32.424874
 30
0.0
  0
SEQEND
  5
154D
100
AcDbEntity
  8
ALPHA
  0
POLYLINE
  5
154E
100
AcDbEntity
  8
ALPHA
 62
   255
100
AcDb2dPolyline
 66
     1
 10
0.0
 20
0.0
 30
0.0
  0
VERTEX
  5
154F
100
AcDbEntity
  8
ALPHA
 62
   255
100
AcDbVertex
100
AcDb2dVertex
 10
29.684797
 20
1.929578
 30
0.0
  0
VERTEX
  5
1550
100
AcDbEntity
  8
ALPHA
 62
   255
100
AcDbVertex
100
AcDb2dVertex
 10
29.679633
 20
1.82734
 30
0.0
  0
VERTEX
  5
1551
100
AcDbEntity
  8
ALPHA
 62
   255
100
AcDbVertex
100
AcDb2dVertex
 10
29.664475
 20
1.728056
 30
0.0
  0
VERTEX
  5
1552
100
AcDbEntity
  8
ALPHA
 62
   255
100
AcDbVertex
100
AcDb2dVertex
 10
29.639826
 20
1.632227
 30
0.0
  0
VERTEX
  5
1553
100
AcDbEntity
  8
ALPHA
 62
   255
100
AcDbVertex
100
AcDb2dVertex
 10
29.60619
 20
1.540357
 30
0.0
  0
VERTEX
  5
1554
100
AcDbEntity
  8
ALPHA
 62
   255
100
AcDbVertex
100
AcDb2dVertex
 10
29.56407
 20
1.452948
 30
0.0
  0
VERTEX
  5
1555
100
AcDbEntity
  8
ALPHA
 62
   255
100
AcDbVertex
100
AcDb2dVertex
 10
29.513969
 20
1.370503
 30
0.0
  0
VERTEX
  5
1556
100
AcDbEntity
  8
ALPHA
 62
   255
100
AcDbVertex
100
AcDb2dVertex
 10
29.456389
 20
1.293525
 30
0.0
  0
VERTEX
  5
1557
100
AcDbEntity
  8
ALPHA
 62
   255
100
AcDbVertex
100
AcDb2dVertex
 10
29.391835
 20
1.222515
 30
0.0
  0
VERTEX
  5
1558
100
AcDbEntity
  8
ALPHA
 62
   255
100
AcDbVertex
100
AcDb2dVertex
 10
29.320809
 20
1.157977
 30
0.0
  0
VERTEX
  5
1559
100
AcDbEntity
  8
ALPHA
 62
   255
100
AcDbVertex
100
AcDb2dVertex
 10
29.243815
 20
1.100413
 30
0.0
  0
VERTEX
  5
155A
100
AcDbEntity
  8
ALPHA
 62
   255
100
AcDbVertex
100
AcDb2dVertex
 10
29.161356
 20
1.050326
 30
0.0
  0
VERTEX
  5
155B
100
AcDbEntity
  8
ALPHA
 62
   255
100
AcDbVertex
100
AcDb2dVertex
 10
29.073934
 20
1.008219
 30
0.0
  0
VERTEX
  5
155C
100
AcDbEntity
  8
ALPHA
 62
   255
100
AcDbVertex
100
AcDb2dVertex
 10
28.982053
 20
0.974594
 30
0.0
  0
VERTEX
  5
155D
100
AcDbEntity
  8
ALPHA
 62
   255
100
AcDbVertex
100
AcDb2dVertex
 10
28.886216
 20
0.949954
 30
0.0
  0
VERTEX
  5
155E
100
AcDbEntity
  8
ALPHA
 62
   255
100
AcDbVertex
100
AcDb2dVertex
 10
28.786926
 20
0.934801
 30
0.0
  0
VERTEX
  5
155F
100
AcDbEntity
  8
ALPHA
 62
   255
100
AcDbVertex
100
AcDb2dVertex
 10
28.684686
 20
0.929639
 30
0.0
  0
SEQEND
  5
1560
100
AcDbEntity
  8
ALPHA
  0
POLYLINE
  5
1561
100
AcDbEntity
  8
ALPHA
 62
   255
100
AcDb2dPolyline
 66
     1
 10
0.0
 20
0.0
 30
0.0
  0
VERTEX
  5
1562
100
AcDbEntity
  8
ALPHA
 62
   255
100
AcDbVertex
100
AcDb2dVertex
 10
28.684686
 20
0.929639
 30
0.0
  0
VERTEX
  5
1563
100
AcDbEntity
  8
ALPHA
 62
   255
100
AcDbVertex
100
AcDb2dVertex
 10
0.684673
 20
0.929639
 30
0.0
  0
SEQEND
  5
1564
100
AcDbEntity
  8
ALPHA
  0
POLYLINE
  5
1565
100
AcDbEntity
  8
ALPHA
 62
   255
100
AcDb2dPolyline
 66
     1
 10
0.0
 20
0.0
 30
0.0
  0
VERTEX
  5
1566
100
AcDbEntity
  8
ALPHA
 62
   255
100
AcDbVertex
100
AcDb2dVertex
 10
0.684673
 20
0.929639
 30
0.0
  0
VERTEX
  5
1567
100
AcDbEntity
  8
ALPHA
 62
   255
100
AcDbVertex
100
AcDb2dVertex
 10
0.582435
 20
0.934801
 30
0.0
  0
VERTEX
  5
1568
100
AcDbEntity
  8
ALPHA
 62
   255
100
AcDbVertex
100
AcDb2dVertex
 10
0.483151
 20
0.949954
 30
0.0
  0
VERTEX
  5
1569
100
AcDbEntity
  8
ALPHA
 62
   255
100
AcDbVertex
100
AcDb2dVertex
 10
0.387322
 20
0.974594
 30
0.0
  0
VERTEX
  5
156A
100
AcDbEntity
  8
ALPHA
 62
   255
100
AcDbVertex
100
AcDb2dVertex
 10
0.295452
 20
1.008219
 30
0.0
  0
VERTEX
  5
156B
100
AcDbEntity
  8
ALPHA
 62
   255
100
AcDbVertex
100
AcDb2dVertex
 10
0.208043
 20
1.050326
 30
0.0
  0
VERTEX
  5
156C
100
AcDbEntity
  8
ALPHA
 62
   255
100
AcDbVertex
100
AcDb2dVertex
 10
0.125598
 20
1.100413
 30
0.0
  0
VERTEX
  5
156D
100
AcDbEntity
  8
ALPHA
 62
   255
100
AcDbVertex
100
AcDb2dVertex
 10
0.04862
 20
1.157977
 30
0.0
  0
VERTEX
  5
156E
100
AcDbEntity
  8
ALPHA
 62
   255
100
AcDbVertex
100
AcDb2dVertex
 10
-0.02239
 20
1.222515
 30
0.0
  0
VERTEX
  5
156F
100
AcDbEntity
  8
ALPHA
 62
   255
100
AcDbVertex
100
AcDb2dVertex
 10
-0.086928
 20
1.293525
 30
0.0
  0
VERTEX
  5
1570
100
AcDbEntity
  8
ALPHA
 62
   255
100
AcDbVertex
100
AcDb2dVertex
 10
-0.144492
 20
1.370503
 30
0.0
  0
VERTEX
  5
1571
100
AcDbEntity
  8
ALPHA
 62
   255
100
AcDbVertex
100
AcDb2dVertex
 10
-0.194579
 20
1.452948
 30
0.0
  0
VERTEX
  5
1572
100
AcDbEntity
  8
ALPHA
 62
   255
100
AcDbVertex
100
AcDb2dVertex
 10
-0.236686
 20
1.540357
 30
0.0
  0
VERTEX
  5
1573
100
AcDbEntity
  8
ALPHA
 62
   255
100
AcDbVertex
100
AcDb2dVertex
 10
-0.270311
 20
1.632227
 30
0.0
  0
VERTEX
  5
1574
100
AcDbEntity
  8
ALPHA
 62
   255
100
AcDbVertex
100
AcDb2dVertex
 10
-0.294951
 20
1.728056
 30
0.0
  0
VERTEX
  5
1575
100
AcDbEntity
  8
ALPHA
 62
   255
100
AcDbVertex
100
AcDb2dVertex
 10
-0.310104
 20
1.82734
 30
0.0
  0
VERTEX
  5
1576
100
AcDbEntity
  8
ALPHA
 62
   255
100
AcDbVertex
100
AcDb2dVertex
 10
-0.315266
 20
1.929578
 30
0.0
  0
SEQEND
  5
1577
100
AcDbEntity
  8
ALPHA
  0
POLYLINE
  5
1578
100
AcDbEntity
  8
ALPHA
 62
   255
100
AcDb2dPolyline
 66
     1
 10
0.0
 20
0.0
 30
0.0
  0
VERTEX
  5
1579
100
AcDbEntity
  8
ALPHA
 62
   255
100
AcDbVertex
100
AcDb2dVertex
 10
-0.315266
 20
1.929578
 30
0.0
  0
VERTEX
  5
157A
100
AcDbEntity
  8
ALPHA
 62
   255
100
AcDbVertex
100
AcDb2dVertex
 10
-0.315266
 20
49.929749
 30
0.0
  0
SEQEND
  5
157B
100
AcDbEntity
  8
ALPHA
  0
POLYLINE
  5
157C
100
AcDbEntity
  8
ALPHA
 62
   255
100
AcDb2dPolyline
 66
     1
 10
0.0
 20
0.0
 30
0.0
  0
VERTEX
  5
157D
100
AcDbEntity
  8
ALPHA
 62
   255
100
AcDbVertex
100
AcDb2dVertex
 10
-0.315266
 20
49.929749
 30
0.0
  0
VERTEX
  5
157E
100
AcDbEntity
  8
ALPHA
 62
   255
100
AcDbVertex
100
AcDb2dVertex
 10
-0.310104
 20
50.031986
 30
0.0
  0
VERTEX
  5
157F
100
AcDbEntity
  8
ALPHA
 62
   255
100
AcDbVertex
100
AcDb2dVertex
 10
-0.294951
 20
50.13127
 30
0.0
  0
VERTEX
  5
1580
100
AcDbEntity
  8
ALPHA
 62
   255
100
AcDbVertex
100
AcDb2dVertex
 10
-0.270311
 20
50.227099
 30
0.0
  0
VERTEX
  5
1581
100
AcDbEntity
  8
ALPHA
 62
   255
100
AcDbVertex
100
AcDb2dVertex
 10
-0.236686
 20
50.318969
 30
0.0
  0
VERTEX
  5
1582
100
AcDbEntity
  8
ALPHA
 62
   255
100
AcDbVertex
100
AcDb2dVertex
 10
-0.194579
 20
50.406378
 30
0.0
  0
VERTEX
  5
1583
100
AcDbEntity
  8
ALPHA
 62
   255
100
AcDbVertex
100
AcDb2dVertex
 10
-0.144492
 20
50.488823
 30
0.0
  0
VERTEX
  5
1584
100
AcDbEntity
  8
ALPHA
 62
   255
100
AcDbVertex
100
AcDb2dVertex
 10
-0.086928
 20
50.565802
 30
0.0
  0
VERTEX
  5
1585
100
AcDbEntity
  8
ALPHA
 62
   255
100
AcDbVertex
100
AcDb2dVertex
 10
-0.02239
 20
50.636811
 30
0.0
  0
VERTEX
  5
1586
100
AcDbEntity
  8
ALPHA
 62
   255
100
AcDbVertex
100
AcDb2dVertex
 10
0.04862
 20
50.701349
 30
0.0
  0
VERTEX
  5
1587
100
AcDbEntity
  8
ALPHA
 62
   255
100
AcDbVertex
100
AcDb2dVertex
 10
0.125598
 20
50.758913
 30
0.0
  0
VERTEX
  5
1588
100
AcDbEntity
  8
ALPHA
 62
   255
100
AcDbVertex
100
AcDb2dVertex
 10
0.208043
 20
50.809
 30
0.0
  0
VERTEX
  5
1589
100
AcDbEntity
  8
ALPHA
 62
   255
100
AcDbVertex
100
AcDb2dVertex
 10
0.295452
 20
50.851107
 30
0.0
  0
VERTEX
  5
158A
100
AcDbEntity
  8
ALPHA
 62
   255
100
AcDbVertex
100
AcDb2dVertex
 10
0.387322
 20
50.884732
 30
0.0
  0
VERTEX
  5
158B
100
AcDbEntity
  8
ALPHA
 62
   255
100
AcDbVertex
100
AcDb2dVertex
 10
0.483151
 20
50.909372
 30
0.0
  0
VERTEX
  5
158C
100
AcDbEntity
  8
ALPHA
 62
   255
100
AcDbVertex
100
AcDb2dVertex
 10
0.582435
 20
50.924525
 30
0.0
  0
VERTEX
  5
158D
100
AcDbEntity
  8
ALPHA
 62
   255
100
AcDbVertex
100
AcDb2dVertex
 10
0.684673
 20
50.929687
 30
0.0
  0
SEQEND
  5
158E
100
AcDbEntity
  8
ALPHA
  0
POLYLINE
  5
158F
100
AcDbEntity
  8
ALPHA
 62
   255
100
AcDb2dPolyline
 66
     1
 10
0.0
 20
0.0
 30
0.0
  0
VERTEX
  5
1590
100
AcDbEntity
  8
ALPHA
 62
   255
100
AcDbVertex
100
AcDb2dVertex
 10
0.684673
 20
50.929687
 30
0.0
  0
VERTEX
  5
1591
100
AcDbEntity
  8
ALPHA
 62
   255
100
AcDbVertex
100
AcDb2dVertex
 10
28.684686
 20
50.929687
 30
0.0
  0
SEQEND
  5
1592
100
AcDbEntity
  8
ALPHA
  0
POLYLINE
  5
1593
100
AcDbEntity
  8
ALPHA
 62
   255
100
AcDb2dPolyline
 66
     1
 10
0.0
 20
0.0
 30
0.0
  0
VERTEX
  5
1594
100
AcDbEntity
  8
ALPHA
 62
   255
100
AcDbVertex
100
AcDb2dVertex
 10
28.684686
 20
50.929687
 30
0.0
  0
VERTEX
  5
1595
100
AcDbEntity
  8
ALPHA
 62
   255
100
AcDbVertex
100
AcDb2dVertex
 10
28.786926
 20
50.924525
 30
0.0
  0
VERTEX
  5
1596
100
AcDbEntity
  8
ALPHA
 62
   255
100
AcDbVertex
100
AcDb2dVertex
 10
28.886216
 20
50.909372
 30
0.0
  0
VERTEX
  5
1597
100
AcDbEntity
  8
ALPHA
 62
   255
100
AcDbVertex
100
AcDb2dVertex
 10
28.982053
 20
50.884732
 30
0.0
  0
VERTEX
  5
1598
100
AcDbEntity
  8
ALPHA
 62
   255
100
AcDbVertex
100
AcDb2dVertex
 10
29.073934
 20
50.851107
 30
0.0
  0
VERTEX
  5
1599
100
AcDbEntity
  8
ALPHA
 62
   255
100
AcDbVertex
100
AcDb2dVertex
 10
29.161356
 20
50.809
 30
0.0
  0
VERTEX
  5
159A
100
AcDbEntity
  8
ALPHA
 62
   255
100
AcDbVertex
100
AcDb2dVertex
 10
29.243815
 20
50.758913
 30
0.0
  0
VERTEX
  5
159B
100
AcDbEntity
  8
ALPHA
 62
   255
100
AcDbVertex
100
AcDb2dVertex
 10
29.320809
 20
50.701349
 30
0.0
  0
VERTEX
  5
159C
100
AcDbEntity
  8
ALPHA
 62
   255
100
AcDbVertex
100
AcDb2dVertex
 10
29.391835
 20
50.636811
 30
0.0
  0
VERTEX
  5
159D
100
AcDbEntity
  8
ALPHA
 62
   255
100
AcDbVertex
100
AcDb2dVertex
 10
29.456389
 20
50.565802
 30
0.0
  0
VERTEX
  5
159E
100
AcDbEntity
  8
ALPHA
 62
   255
100
AcDbVertex
100
AcDb2dVertex
 10
29.513969
 20
50.488823
 30
0.0
  0
VERTEX
  5
159F
100
AcDbEntity
  8
ALPHA
 62
   255
100
AcDbVertex
100
AcDb2dVertex
 10
29.56407
 20
50.406378
 30
0.0
  0
VERTEX
  5
15A0
100
AcDbEntity
  8
ALPHA
 62
   255
100
AcDbVertex
100
AcDb2dVertex
 10
29.60619
 20
50.318969
 30
0.0
  0
VERTEX
  5
15A1
100
AcDbEntity
  8
ALPHA
 62
   255
100
AcDbVertex
100
AcDb2dVertex
 10
29.639826
 20
50.227099
 30
0.0
  0
VERTEX
  5
15A2
100
AcDbEntity
  8
ALPHA
 62
   255
100
AcDbVertex
100
AcDb2dVertex
 10
29.664475
 20
50.13127
 30
0.0
  0
VERTEX
  5
15A3
100
AcDbEntity
  8
ALPHA
 62
   255
100
AcDbVertex
100
AcDb2dVertex
 10
29.679633
 20
50.031986
 30
0.0
  0
VERTEX
  5
15A4
100
AcDbEntity
  8
ALPHA
 62
   255
100
AcDbVertex
100
AcDb2dVertex
 10
29.684797
 20
49.929749
 30
0.0
  0
SEQEND
  5
15A5
100
AcDbEntity
  8
ALPHA
  0
POLYLINE
  5
15A6
100
AcDbEntity
  8
ALPHA
 62
   255
100
AcDb2dPolyline
 66
     1
 10
0.0
 20
0.0
 30
0.0
  0
VERTEX
  5
15A7
100
AcDbEntity
  8
ALPHA
 62
   255
100
AcDbVertex
100
AcDb2dVertex
 10
29.684797
 20
49.929749
 30
0.0
  0
VERTEX
  5
15A8
100
AcDbEntity
  8
ALPHA
 62
   255
100
AcDbVertex
100
AcDb2dVertex
 10
29.684797
 20
1.929578
 30
0.0
  0
SEQEND
  5
15A9
100
AcDbEntity
  8
ALPHA
  0
POLYLINE
  5
15AA
100
AcDbEntity
  8
ALPHA
 62
   255
100
AcDb2dPolyline
 66
     1
 10
0.0
 20
0.0
 30
0.0
  0
VERTEX
  5
15AB
100
AcDbEntity
  8
ALPHA
 62
   255
100
AcDbVertex
100
AcDb2dVertex
 10
1.684956
 20
21.125133
 30
0.0
  0
VERTEX
  5
15AC
100
AcDbEntity
  8
ALPHA
 62
   255
100
AcDbVertex
100
AcDb2dVertex
 10
2.594273
 20
22.984557
 30
0.0
  0
VERTEX
  5
15AD
100
AcDbEntity
  8
ALPHA
 62
   255
100
AcDbVertex
100
AcDb2dVertex
 10
3.757806
 20
24.67715
 30
0.0
  0
VERTEX
  5
15AE
100
AcDbEntity
  8
ALPHA
 62
   255
100
AcDbVertex
100
AcDb2dVertex
 10
5.150685
 20
26.177919
 30
0.0
  0
VERTEX
  5
15AF
100
AcDbEntity
  8
ALPHA
 62
   255
100
AcDbVertex
100
AcDb2dVertex
 10
6.748041
 20
27.461869
 30
0.0
  0
VERTEX
  5
15B0
100
AcDbEntity
  8
ALPHA
 62
   255
100
AcDbVertex
100
AcDb2dVertex
 10
8.525005
 20
28.504006
 30
0.0
  0
VERTEX
  5
15B1
100
AcDbEntity
  8
ALPHA
 62
   255
100
AcDbVertex
100
AcDb2dVertex
 10
10.456708
 20
29.279335
 30
0.0
  0
VERTEX
  5
15B2
100
AcDbEntity
  8
ALPHA
 62
   255
100
AcDbVertex
100
AcDb2dVertex
 10
12.51828
 20
29.762861
 30
0.0
  0
VERTEX
  5
15B3
100
AcDbEntity
  8
ALPHA
 62
   255
100
AcDbVertex
100
AcDb2dVertex
 10
14.684852
 20
29.929591
 30
0.0
  0
VERTEX
  5
15B4
100
AcDbEntity
  8
ALPHA
 62
   255
100
AcDbVertex
100
AcDb2dVertex
 10
16.851488
 20
29.762847
 30
0.0
  0
VERTEX
  5
15B5
100
AcDbEntity
  8
ALPHA
 62
   255
100
AcDbVertex
100
AcDb2dVertex
 10
18.91312
 20
29.279281
 30
0.0
  0
VERTEX
  5
15B6
100
AcDbEntity
  8
ALPHA
 62
   255
100
AcDbVertex
100
AcDb2dVertex
 10
20.844874
 20
28.503897
 30
0.0
  0
VERTEX
  5
15B7
100
AcDbEntity
  8
ALPHA
 62
   255
100
AcDbVertex
100
AcDb2dVertex
 10
22.621878
 20
27.461697
 30
0.0
  0
VERTEX
  5
15B8
100
AcDbEntity
  8
ALPHA
 62
   255
100
AcDbVertex
100
AcDb2dVertex
 10
24.219258
 20
26.177684
 30
0.0
  0
VERTEX
  5
15B9
100
AcDbEntity
  8
ALPHA
 62
   255
100
AcDbVertex
100
AcDb2dVertex
 10
25.61214
 20
24.676859
 30
0.0
  0
VERTEX
  5
15BA
100
AcDbEntity
  8
ALPHA
 62
   255
100
AcDbVertex
100
AcDb2dVertex
 10
26.775652
 20
22.984227
 30
0.0
  0
VERTEX
  5
15BB
100
AcDbEntity
  8
ALPHA
 62
   255
100
AcDbVertex
100
AcDb2dVertex
 10
27.68492
 20
21.124788
 30
0.0
  0
SEQEND
  5
15BC
100
AcDbEntity
  8
ALPHA
  0
POLYLINE
  5
15BD
100
AcDbEntity
  8
ALPHA
 62
   255
100
AcDb2dPolyline
 66
     1
 10
0.0
 20
0.0
 30
0.0
  0
VERTEX
  5
15BE
100
AcDbEntity
  8
ALPHA
 62
   255
100
AcDbVertex
100
AcDb2dVertex
 10
27.68492
 20
21.124788
 30
0.0
  0
VERTEX
  5
15BF
100
AcDbEntity
  8
ALPHA
 62
   255
100
AcDbVertex
100
AcDb2dVertex
 10
27.68492
 20
18.429518
 30
0.0
  0
SEQEND
  5
15C0
100
AcDbEntity
  8
ALPHA
  0
POLYLINE
  5
15C1
100
AcDbEntity
  8
ALPHA
 62
   255
100
AcDb2dPolyline
 66
     1
 10
0.0
 20
0.0
 30
0.0
  0
VERTEX
  5
15C2
100
AcDbEntity
  8
ALPHA
 62
   255
100
AcDbVertex
100
AcDb2dVertex
 10
27.68492
 20
18.429518
 30
0.0
  0
VERTEX
  5
15C3
100
AcDbEntity
  8
ALPHA
 62
   255
100
AcDbVertex
100
AcDb2dVertex
 10
26.934405
 20
18.429518
 30
0.0
  0
SEQEND
  5
15C4
100
AcDbEntity
  8
ALPHA
  0
POLYLINE
  5
15C5
100
AcDbEntity
  8
ALPHA
 62
   255
100
AcDb2dPolyline
 66
     1
 10
0.0
 20
0.0
 30
0.0
  0
VERTEX
  5
15C6
100
AcDbEntity
  8
ALPHA
 62
   255
100
AcDbVertex
100
AcDb2dVertex
 10
26.934405
 20
18.429518
 30
0.0
  0
VERTEX
  5
15C7
100
AcDbEntity
  8
ALPHA
 62
   255
100
AcDbVertex
100
AcDb2dVertex
 10
27.12113
 20
17.197638
 30
0.0
  0
VERTEX
  5
15C8
100
AcDbEntity
  8
ALPHA
 62
   255
100
AcDbVertex
100
AcDb2dVertex
 10
27.184864
 20
15.929584
 30
0.0
  0
VERTEX
  5
15C9
100
AcDbEntity
  8
ALPHA
 62
   255
100
AcDbVertex
100
AcDb2dVertex
 10
27.121108
 20
14.66138
 30
0.0
  0
VERTEX
  5
15CA
100
AcDbEntity
  8
ALPHA
 62
   255
100
AcDbVertex
100
AcDb2dVertex
 10
26.934233
 20
13.429479
 30
0.0
  0
SEQEND
  5
15CB
100
AcDbEntity
  8
ALPHA
  0
POLYLINE
  5
15CC
100
AcDbEntity
  8
ALPHA
 62
   255
100
AcDb2dPolyline
 66
     1
 10
0.0
 20
0.0
 30
0.0
  0
VERTEX
  5
15CD
100
AcDbEntity
  8
ALPHA
 62
   255
100
AcDbVertex
100
AcDb2dVertex
 10
26.934233
 20
13.429479
 30
0.0
  0
VERTEX
  5
15CE
100
AcDbEntity
  8
ALPHA
 62
   255
100
AcDbVertex
100
AcDb2dVertex
 10
27.68492
 20
13.429479
 30
0.0
  0
SEQEND
  5
15CF
100
AcDbEntity
  8
ALPHA
  0
POLYLINE
  5
15D0
100
AcDbEntity
  8
ALPHA
 62
   255
100
AcDb2dPolyline
 66
     1
 10
0.0
 20
0.0
 30
0.0
  0
VERTEX
  5
15D1
100
AcDbEntity
  8
ALPHA
 62
   255
100
AcDbVertex
100
AcDb2dVertex
 10
27.68492
 20
13.429479
 30
0.0
  0
VERTEX
  5
15D2
100
AcDbEntity
  8
ALPHA
 62
   255
100
AcDbVertex
100
AcDb2dVertex
 10
27.68492
 20
10.73438
 30
0.0
  0
SEQEND
  5
15D3
100
AcDbEntity
  8
ALPHA
  0
POLYLINE
  5
15D4
100
AcDbEntity
  8
ALPHA
 62
   255
100
AcDb2dPolyline
 66
     1
 10
0.0
 20
0.0
 30
0.0
  0
VERTEX
  5
15D5
100
AcDbEntity
  8
ALPHA
 62
   255
100
AcDbVertex
100
AcDb2dVertex
 10
27.68492
 20
10.73438
 30
0.0
  0
VERTEX
  5
15D6
100
AcDbEntity
  8
ALPHA
 62
   255
100
AcDbVertex
100
AcDb2dVertex
 10
26.775652
 20
8.874942
 30
0.0
  0
VERTEX
  5
15D7
100
AcDbEntity
  8
ALPHA
 62
   255
100
AcDbVertex
100
AcDb2dVertex
 10
25.61214
 20
7.182309
 30
0.0
  0
VERTEX
  5
15D8
100
AcDbEntity
  8
ALPHA
 62
   255
100
AcDbVertex
100
AcDb2dVertex
 10
24.219258
 20
5.681485
 30
0.0
  0
VERTEX
  5
15D9
100
AcDbEntity
  8
ALPHA
 62
   255
100
AcDbVertex
100
AcDb2dVertex
 10
22.621878
 20
4.397472
 30
0.0
  0
VERTEX
  5
15DA
100
AcDbEntity
  8
ALPHA
 62
   255
100
AcDbVertex
100
AcDb2dVertex
 10
20.844874
 20
3.355272
 30
0.0
  0
VERTEX
  5
15DB
100
AcDbEntity
  8
ALPHA
 62
   255
100
AcDbVertex
100
AcDb2dVertex
 10
18.91312
 20
2.579888
 30
0.0
  0
VERTEX
  5
15DC
100
AcDbEntity
  8
ALPHA
 62
   255
100
AcDbVertex
100
AcDb2dVertex
 10
16.851488
 20
2.096322
 30
0.0
  0
VERTEX
  5
15DD
100
AcDbEntity
  8
ALPHA
 62
   255
100
AcDbVertex
100
AcDb2dVertex
 10
14.684852
 20
1.929578
 30
0.0
  0
VERTEX
  5
15DE
100
AcDbEntity
  8
ALPHA
 62
   255
100
AcDbVertex
100
AcDb2dVertex
 10
12.51828
 20
2.096307
 30
0.0
  0
VERTEX
  5
15DF
100
AcDbEntity
  8
ALPHA
 62
   255
100
AcDbVertex
100
AcDb2dVertex
 10
10.456708
 20
2.579834
 30
0.0
  0
VERTEX
  5
15E0
100
AcDbEntity
  8
ALPHA
 62
   255
100
AcDbVertex
100
AcDb2dVertex
 10
8.525005
 20
3.355163
 30
0.0
  0
VERTEX
  5
15E1
100
AcDbEntity
  8
ALPHA
 62
   255
100
AcDbVertex
100
AcDb2dVertex
 10
6.748041
 20
4.3973
 30
0.0
  0
VERTEX
  5
15E2
100
AcDbEntity
  8
ALPHA
 62
   255
100
AcDbVertex
100
AcDb2dVertex
 10
5.150685
 20
5.68125
 30
0.0
  0
VERTEX
  5
15E3
100
AcDbEntity
  8
ALPHA
 62
   255
100
AcDbVertex
100
AcDb2dVertex
 10
3.757806
 20
7.182019
 30
0.0
  0
VERTEX
  5
15E4
100
AcDbEntity
  8
ALPHA
 62
   255
100
AcDbVertex
100
AcDb2dVertex
 10
2.594273
 20
8.874612
 30
0.0
  0
VERTEX
  5
15E5
100
AcDbEntity
  8
ALPHA
 62
   255
100
AcDbVertex
100
AcDb2dVertex
 10
1.684956
 20
10.734036
 30
0.0
  0
SEQEND
  5
15E6
100
AcDbEntity
  8
ALPHA
  0
POLYLINE
  5
15E7
100
AcDbEntity
  8
ALPHA
 62
   255
100
AcDb2dPolyline
 66
     1
 10
0.0
 20
0.0
 30
0.0
  0
VERTEX
  5
15E8
100
AcDbEntity
  8
ALPHA
 62
   255
100
AcDbVertex
100
AcDb2dVertex
 10
1.684956
 20
10.734036
 30
0.0
  0
VERTEX
  5
15E9
100
AcDbEntity
  8
ALPHA
 62
   255
100
AcDbVertex
100
AcDb2dVertex
 10
1.684956
 20
13.429479
 30
0.0
  0
SEQEND
  5
15EA
100
AcDbEntity
  8
ALPHA
  0
POLYLINE
  5
15EB
100
AcDbEntity
  8
ALPHA
 62
   255
100
AcDb2dPolyline
 66
     1
 10
0.0
 20
0.0
 30
0.0
  0
VERTEX
  5
15EC
100
AcDbEntity
  8
ALPHA
 62
   255
100
AcDbVertex
100
AcDb2dVertex
 10
1.684956
 20
13.429479
 30
0.0
  0
VERTEX
  5
15ED
100
AcDbEntity
  8
ALPHA
 62
   255
100
AcDbVertex
100
AcDb2dVertex
 10
2.43547
 20
13.429479
 30
0.0
  0
SEQEND
  5
15EE
100
AcDbEntity
  8
ALPHA
  0
POLYLINE
  5
15EF
100
AcDbEntity
  8
ALPHA
 62
   255
100
AcDb2dPolyline
 66
     1
 10
0.0
 20
0.0
 30
0.0
  0
VERTEX
  5
15F0
100
AcDbEntity
  8
ALPHA
 62
   255
100
AcDbVertex
100
AcDb2dVertex
 10
2.43547
 20
13.429479
 30
0.0
  0
VERTEX
  5
15F1
100
AcDbEntity
  8
ALPHA
 62
   255
100
AcDbVertex
100
AcDb2dVertex
 10
2.248595
 20
14.66138
 30
0.0
  0
VERTEX
  5
15F2
100
AcDbEntity
  8
ALPHA
 62
   255
100
AcDbVertex
100
AcDb2dVertex
 10
2.18484
 20
15.929584
 30
0.0
  0
VERTEX
  5
15F3
100
AcDbEntity
  8
ALPHA
 62
   255
100
AcDbVertex
100
AcDb2dVertex
 10
2.248574
 20
17.197638
 30
0.0
  0
VERTEX
  5
15F4
100
AcDbEntity
  8
ALPHA
 62
   255
100
AcDbVertex
100
AcDb2dVertex
 10
2.435298
 20
18.429518
 30
0.0
  0
SEQEND
  5
15F5
100
AcDbEntity
  8
ALPHA
  0
POLYLINE
  5
15F6
100
AcDbEntity
  8
ALPHA
 62
   255
100
AcDb2dPolyline
 66
     1
 10
0.0
 20
0.0
 30
0.0
  0
VERTEX
  5
15F7
100
AcDbEntity
  8
ALPHA
 62
   255
100
AcDbVertex
100
AcDb2dVertex
 10
2.435298
 20
18.429518
 30
0.0
  0
VERTEX
  5
15F8
100
AcDbEntity
  8
ALPHA
 62
   255
100
AcDbVertex
100
AcDb2dVertex
 10
1.684956
 20
18.429518
 30
0.0
  0
SEQEND
  5
15F9
100
AcDbEntity
  8
ALPHA
  0
POLYLINE
  5
15FA
100
AcDbEntity
  8
ALPHA
 62
   255
100
AcDb2dPolyline
 66
     1
 10
0.0
 20
0.0
 30
0.0
  0
VERTEX
  5
15FB
100
AcDbEntity
  8
ALPHA
 62
   255
100
AcDbVertex
100
AcDb2dVertex
 10
1.684956
 20
18.429518
 30
0.0
  0
VERTEX
  5
15FC
100
AcDbEntity
  8
ALPHA
 62
   255
100
AcDbVertex
100
AcDb2dVertex
 10
1.684956
 20
21.125133
 30
0.0
  0
SEQEND
  5
15FD
100
AcDbEntity
  8
ALPHA
  0
DIMENSION
  5
163F
100
AcDbEntity
  8
COTATION1
100
AcDbDimension
  2
*D3
 10
-3.59562
 20
32.174932
 30
0.0
 11
-5.84562
 21
41.174986
 31
0.0
 70
    32
  3
SC_STAND
100
AcDbAlignedDimension
 13
1.184901
 23
50.175039
 33
0.0
 14
1.184901
 24
32.174932
 34
0.0
 50
90.0
100
AcDbRotatedDimension
  0
DIMENSION
  5
1640
100
AcDbEntity
  8
COTATION1
100
AcDbDimension
  2
*D4
 10
28.184975
 20
55.48538
 30
0.0
 11
14.684938
 21
57.73538
 31
0.0
 70
    32
  3
SC_STAND
100
AcDbAlignedDimension
 13
1.184901
 23
48.292347
 33
0.0
 14
28.184975
 24
46.175025
 34
0.0
100
AcDbRotatedDimension
  0
DIMENSION
  5
1641
100
AcDbEntity
  8
COTATION1
100
AcDbDimension
  2
*D5
 10
38.006403
 20
0.929639
 30
0.0
 11
35.756403
 21
25.929663
 31
0.0
 70
    32
  3
SC_STAND
100
AcDbAlignedDimension
 13
28.684686
 23
50.929687
 33
0.0
 14
28.684686
 24
0.929639
 34
0.0
 50
90.0
100
AcDbRotatedDimension
  0
DIMENSION
  5
1642
100
AcDbEntity
  8
COTATION1
100
AcDbDimension
  2
*D6
 10
29.697536
 20
-7.698805
 30
0.0
 11
14.697505
 21
-5.448805
 31
0.0
 12
0.012739
 22
-10.726848
 32
0.0
 70
    32
  3
SC_STAND
100
AcDbAlignedDimension
 13
-0.302527
 23
1.840198
 33
0.0
 14
29.697536
 24
1.840198
 34
0.0
100
AcDbRotatedDimension
  0
ENDSEC
  0
SECTION
  2
OBJECTS
  0
DICTIONARY
  5
F8
100
AcDbDictionary
  3
ACAD_GROUP
350
F9
  3
ACAD_MLINESTYLE
350
106
  3
ACDBVARIABLEDICTIONARY
350
143
  0
DICTIONARY
  5
F9
102
{ACAD_REACTORS
330
F8
102
}
100
AcDbDictionary
  0
DICTIONARY
  5
106
102
{ACAD_REACTORS
330
F8
102
}
100
AcDbDictionary
  3
STANDARD
350
107
  0
DICTIONARY
  5
143
102
{ACAD_REACTORS
330
F8
102
}
100
AcDbDictionary
  3
DIMADEC
350
144
  0
MLINESTYLE
  5
107
102
{ACAD_REACTORS
330
106
102
}
100
AcDbMlineStyle
  2
STANDARD
 70
     0
  3

 62
   256
 51
90.0
 52
90.0
 71
     2
 49
0.5
 62
   256
  6
BYLAYER
 49
-0.5
 62
   256
  6
BYLAYER
  0
DICTIONARYVAR
  5
144
102
{ACAD_REACTORS
330
143
102
}
100
DictionaryVariables
280
     0
  1
0
  0
ENDSEC
  0
EOF
