  0
SECTION
  2
HEADER
  9
$ACADVER
  1
AC1014
  9
$ACADMAINTVER
 70
     0
  9
$DWGCODEPAGE
  3
ANSI_1252
  9
$INSBASE
 10
0.0
 20
0.0
 30
0.0
  9
$EXTMIN
 10
99.329362
 20
150.066884
 30
0.0
  9
$EXTMAX
 10
126.523946
 20
179.356653
 30
0.0
  9
$LIMMIN
 10
0.0
 20
0.0
  9
$LIMMAX
 10
210.0
 20
297.0
  9
$ORTHOMODE
 70
     0
  9
$REGENMODE
 70
     1
  9
$FILLMODE
 70
     1
  9
$QTEXTMODE
 70
     0
  9
$MIRRTEXT
 70
     1
  9
$DRAGMODE
 70
     2
  9
$LTSCALE
 40
10.0
  9
$OSMODE
 70
     0
  9
$ATTMODE
 70
     1
  9
$TEXTSIZE
 40
2.9
  9
$TRACEWID
 40
0.05
  9
$TEXTSTYLE
  7
ROMANS
  9
$CLAYER
  8
COTATION1
  9
$CELTYPE
  6
BYLAYER
  9
$CECOLOR
 62
   256
  9
$CELTSCALE
 40
1.0
  9
$DELOBJ
 70
     1
  9
$DISPSILH
 70
     0
  9
$DIMSCALE
 40
1.0
  9
$DIMASZ
 40
3.0
  9
$DIMEXO
 40
0.0625
  9
$DIMDLI
 40
0.38
  9
$DIMRND
 40
0.01
  9
$DIMDLE
 40
0.0
  9
$DIMEXE
 40
0.18
  9
$DIMTP
 40
0.0
  9
$DIMTM
 40
0.0
  9
$DIMTXT
 40
2.5
  9
$DIMCEN
 40
0.09
  9
$DIMTSZ
 40
0.0
  9
$DIMTOL
 70
     0
  9
$DIMLIM
 70
     0
  9
$DIMTIH
 70
     0
  9
$DIMTOH
 70
     0
  9
$DIMSE1
 70
     0
  9
$DIMSE2
 70
     0
  9
$DIMTAD
 70
     1
  9
$DIMZIN
 70
    12
  9
$DIMBLK
  1

  9
$DIMASO
 70
     1
  9
$DIMSHO
 70
     1
  9
$DIMPOST
  1

  9
$DIMAPOST
  1

  9
$DIMALT
 70
     0
  9
$DIMALTD
 70
     2
  9
$DIMALTF
 40
25.4
  9
$DIMLFAC
 40
1.0
  9
$DIMTOFL
 70
     1
  9
$DIMTVP
 40
0.0
  9
$DIMTIX
 70
     0
  9
$DIMSOXD
 70
     0
  9
$DIMSAH
 70
     0
  9
$DIMBLK1
  1

  9
$DIMBLK2
  1

  9
$DIMSTYLE
  2
SC_STAND
  9
$DIMCLRD
 70
     0
  9
$DIMCLRE
 70
     0
  9
$DIMCLRT
 70
     0
  9
$DIMTFAC
 40
1.0
  9
$DIMGAP
 40
1.0
  9
$DIMJUST
 70
     0
  9
$DIMSD1
 70
     0
  9
$DIMSD2
 70
     0
  9
$DIMTOLJ
 70
     1
  9
$DIMTZIN
 70
    12
  9
$DIMALTZ
 70
    12
  9
$DIMALTTZ
 70
    12
  9
$DIMFIT
 70
     5
  9
$DIMUPT
 70
     0
  9
$DIMUNIT
 70
     2
  9
$DIMDEC
 70
     4
  9
$DIMTDEC
 70
     4
  9
$DIMALTU
 70
     2
  9
$DIMALTTD
 70
     2
  9
$DIMTXSTY
  7
ROMANS
  9
$DIMAUNIT
 70
     0
  9
$LUNITS
 70
     2
  9
$LUPREC
 70
     4
  9
$SKETCHINC
 40
0.1
  9
$FILLETRAD
 40
0.0
  9
$AUNITS
 70
     0
  9
$AUPREC
 70
     0
  9
$MENU
  1
.
  9
$ELEVATION
 40
0.0
  9
$PELEVATION
 40
0.0
  9
$THICKNESS
 40
0.0
  9
$LIMCHECK
 70
     0
  9
$BLIPMODE
 70
     1
  9
$CHAMFERA
 40
0.0
  9
$CHAMFERB
 40
0.0
  9
$CHAMFERC
 40
0.0
  9
$CHAMFERD
 40
0.0
  9
$SKPOLY
 70
     0
  9
$TDCREATE
 40
2450987.457234375
  9
$TDUPDATE
 40
2451387.898468842
  9
$TDINDWG
 40
0.0008773264
  9
$TDUSRTIMER
 40
0.0008773264
  9
$USRTIMER
 70
     1
  9
$ANGBASE
 50
0.0
  9
$ANGDIR
 70
     0
  9
$PDMODE
 70
     0
  9
$PDSIZE
 40
0.0
  9
$PLINEWID
 40
0.0
  9
$COORDS
 70
     1
  9
$SPLFRAME
 70
     0
  9
$SPLINETYPE
 70
     6
  9
$SPLINESEGS
 70
     8
  9
$ATTDIA
 70
     1
  9
$ATTREQ
 70
     1
  9
$HANDLING
 70
     1
  9
$HANDSEED
  5
1849
  9
$SURFTAB1
 70
     6
  9
$SURFTAB2
 70
     6
  9
$SURFTYPE
 70
     6
  9
$SURFU
 70
     6
  9
$SURFV
 70
     6
  9
$UCSNAME
  2

  9
$UCSORG
 10
0.0
 20
0.0
 30
0.0
  9
$UCSXDIR
 10
1.0
 20
0.0
 30
0.0
  9
$UCSYDIR
 10
0.0
 20
1.0
 30
0.0
  9
$PUCSNAME
  2

  9
$PUCSORG
 10
0.0
 20
0.0
 30
0.0
  9
$PUCSXDIR
 10
1.0
 20
0.0
 30
0.0
  9
$PUCSYDIR
 10
0.0
 20
1.0
 30
0.0
  9
$USERI1
 70
     0
  9
$USERI2
 70
     0
  9
$USERI3
 70
     0
  9
$USERI4
 70
     0
  9
$USERI5
 70
     0
  9
$USERR1
 40
0.0
  9
$USERR2
 40
0.0
  9
$USERR3
 40
0.0
  9
$USERR4
 40
0.0
  9
$USERR5
 40
0.0
  9
$WORLDVIEW
 70
     1
  9
$SHADEDGE
 70
     3
  9
$SHADEDIF
 70
    70
  9
$TILEMODE
 70
     1
  9
$MAXACTVP
 70
    16
  9
$PINSBASE
 10
0.0
 20
0.0
 30
0.0
  9
$PLIMCHECK
 70
     0
  9
$PEXTMIN
 10
0.0
 20
0.0
 30
0.0
  9
$PEXTMAX
 10
420.0
 20
297.0
 30
0.0
  9
$PLIMMIN
 10
0.0
 20
0.0
  9
$PLIMMAX
 10
420.0
 20
297.0
  9
$UNITMODE
 70
     0
  9
$VISRETAIN
 70
     0
  9
$PLINEGEN
 70
     0
  9
$PSLTSCALE
 70
     1
  9
$TREEDEPTH
 70
  3020
  9
$PICKSTYLE
 70
     1
  9
$CMLSTYLE
  2
STANDARD
  9
$CMLJUST
 70
     0
  9
$CMLSCALE
 40
1.0
  9
$PROXYGRAPHICS
 70
     1
  9
$MEASUREMENT
 70
     0
  0
ENDSEC
  0
SECTION
  2
CLASSES
  0
CLASS
  1
DICTIONARYVAR
  2
AcDbDictionaryVar
  3
"AutoCAD"
 90
        0
280
     0
281
     0
  0
ENDSEC
  0
SECTION
  2
TABLES
  0
TABLE
  2
VPORT
  5
17EE
100
AcDbSymbolTable
 70
     1
  0
VPORT
  5
1844
100
AcDbSymbolTableRecord
100
AcDbViewportTableRecord
  2
*ACTIVE
 70
     0
 10
0.0
 20
0.0
 11
1.0
 21
1.0
 12
257.127367
 22
153.871495
 13
0.0
 23
0.0
 14
1.0
 24
1.0
 15
10.0
 25
10.0
 16
0.0
 26
0.0
 36
1.0
 17
0.0
 27
0.0
 37
0.0
 40
307.74299
 41
1.671053
 42
50.0
 43
0.0
 44
0.0
 50
0.0
 51
0.0
 71
     0
 72
   100
 73
     1
 74
     1
 75
     0
 76
     1
 77
     0
 78
     0
  0
ENDTAB
  0
TABLE
  2
LTYPE
  5
17EB
100
AcDbSymbolTable
 70
    23
  0
LTYPE
  5
17F7
100
AcDbSymbolTableRecord
100
AcDbLinetypeTableRecord
  2
BYBLOCK
 70
     0
  3

 72
    65
 73
     0
 40
0.0
  0
LTYPE
  5
17F8
100
AcDbSymbolTableRecord
100
AcDbLinetypeTableRecord
  2
BYLAYER
 70
     0
  3

 72
    65
 73
     0
 40
0.0
  0
LTYPE
  5
17F9
100
AcDbSymbolTableRecord
100
AcDbLinetypeTableRecord
  2
CONTINUOUS
 70
     0
  3
Solid line
 72
    65
 73
     0
 40
0.0
  0
LTYPE
  5
180A
100
AcDbSymbolTableRecord
100
AcDbLinetypeTableRecord
  2
AXES
 70
     0
  3
____ _ ____ _ ____ _ ____ _ ____ _ ____ _ ____ 
 72
    65
 73
     4
 40
2.0
 49
1.25
 74
     0
 49
-0.25
 74
     0
 49
0.25
 74
     0
 49
-0.25
 74
     0
  0
LTYPE
  5
180B
100
AcDbSymbolTableRecord
100
AcDbLinetypeTableRecord
  2
AXES2
 70
     0
  3
___ _ ___ _ ___ _ ___ _ ___ _ ___ _ ___ _ ___ _
 72
    65
 73
     4
 40
1.125
 49
0.75
 74
     0
 49
-0.125
 74
     0
 49
0.125
 74
     0
 49
-0.125
 74
     0
  0
LTYPE
  5
180C
100
AcDbSymbolTableRecord
100
AcDbLinetypeTableRecord
  2
AXESX2
 70
     0
  3
________  __  ________  __  ________  __  _____
 72
    65
 73
     4
 40
4.0
 49
2.5
 74
     0
 49
-0.5
 74
     0
 49
0.5
 74
     0
 49
-0.5
 74
     0
  0
LTYPE
  5
180D
100
AcDbSymbolTableRecord
100
AcDbLinetypeTableRecord
  2
TIRETPT
 70
     0
  3
__ . __ . __ . __ . __ . __ . __ . __ . __ . __
 72
    65
 73
     4
 40
1.0
 49
0.5
 74
     0
 49
-0.25
 74
     0
 49
0.0
 74
     0
 49
-0.25
 74
     0
  0
LTYPE
  5
180E
100
AcDbSymbolTableRecord
100
AcDbLinetypeTableRecord
  2
TIRETPT2
 70
     0
  3
_._._._._._._._._._._._._._._._._._._._._._._._
 72
    65
 73
     4
 40
0.5
 49
0.25
 74
     0
 49
-0.125
 74
     0
 49
0.0
 74
     0
 49
-0.125
 74
     0
  0
LTYPE
  5
180F
100
AcDbSymbolTableRecord
100
AcDbLinetypeTableRecord
  2
TIRETPTX2
 70
     0
  3
____  .  ____  .  ____  .  ____  .  ____  .  __
 72
    65
 73
     4
 40
2.0
 49
1.0
 74
     0
 49
-0.5
 74
     0
 49
0.0
 74
     0
 49
-0.5
 74
     0
  0
LTYPE
  5
1810
100
AcDbSymbolTableRecord
100
AcDbLinetypeTableRecord
  2
DISCONTINU
 70
     0
  3
__ __ __ __ __ __ __ __ __ __ __ __ __ __ __ __
 72
    65
 73
     2
 40
0.75
 49
0.5
 74
     0
 49
-0.25
 74
     0
  0
LTYPE
  5
1811
100
AcDbSymbolTableRecord
100
AcDbLinetypeTableRecord
  2
DISCONTINU2
 70
     0
  3
_ _ _ _ _ _ _ _ _ _ _ _ _ _ _ _ _ _ _ _ _ _ _ _
 72
    65
 73
     2
 40
0.375
 49
0.25
 74
     0
 49
-0.125
 74
     0
  0
LTYPE
  5
1812
100
AcDbSymbolTableRecord
100
AcDbLinetypeTableRecord
  2
DISCONTINUX2
 70
     0
  3
____  ____  ____  ____  ____  ____  ____  ____ 
 72
    65
 73
     2
 40
1.5
 49
1.0
 74
     0
 49
-0.5
 74
     0
  0
LTYPE
  5
1813
100
AcDbSymbolTableRecord
100
AcDbLinetypeTableRecord
  2
DIVISE
 70
     0
  3
____ . . ____ . . ____ . . ____ . . ____ . . __
 72
    65
 73
     6
 40
1.25
 49
0.5
 74
     0
 49
-0.25
 74
     0
 49
0.0
 74
     0
 49
-0.25
 74
     0
 49
0.0
 74
     0
 49
-0.25
 74
     0
  0
LTYPE
  5
1814
100
AcDbSymbolTableRecord
100
AcDbLinetypeTableRecord
  2
DIVISE2
 70
     0
  3
__..__..__..__..__..__..__..__..__..__..__..__.
 72
    65
 73
     6
 40
0.625
 49
0.25
 74
     0
 49
-0.125
 74
     0
 49
0.0
 74
     0
 49
-0.125
 74
     0
 49
0.0
 74
     0
 49
-0.125
 74
     0
  0
LTYPE
  5
1815
100
AcDbSymbolTableRecord
100
AcDbLinetypeTableRecord
  2
DIVISEX2
 70
     0
  3
________  .  .  ________  .  .  ________  .  . 
 72
    65
 73
     6
 40
2.5
 49
1.0
 74
     0
 49
-0.5
 74
     0
 49
0.0
 74
     0
 49
-0.5
 74
     0
 49
0.0
 74
     0
 49
-0.5
 74
     0
  0
LTYPE
  5
1816
100
AcDbSymbolTableRecord
100
AcDbLinetypeTableRecord
  2
POINTILLE
 70
     0
  3
. . . . . . . . . . . . . . . . . . . . . . . .
 72
    65
 73
     2
 40
0.25
 49
0.0
 74
     0
 49
-0.25
 74
     0
  0
LTYPE
  5
1817
100
AcDbSymbolTableRecord
100
AcDbLinetypeTableRecord
  2
POINTILLE2
 70
     0
  3
...............................................
 72
    65
 73
     2
 40
0.125
 49
0.0
 74
     0
 49
-0.125
 74
     0
  0
LTYPE
  5
1818
100
AcDbSymbolTableRecord
100
AcDbLinetypeTableRecord
  2
POINTILLEX2
 70
     0
  3
.  .  .  .  .  .  .  .  .  .  .  .  .  .  .  . 
 72
    65
 73
     2
 40
0.5
 49
0.0
 74
     0
 49
-0.5
 74
     0
  0
LTYPE
  5
1819
100
AcDbSymbolTableRecord
100
AcDbLinetypeTableRecord
  2
CACHE
 70
     0
  3
__ __ __ __ __ __ __ __ __ __ __ __ __ __ __ __
 72
    65
 73
     2
 40
0.375
 49
0.25
 74
     0
 49
-0.125
 74
     0
  0
LTYPE
  5
181A
100
AcDbSymbolTableRecord
100
AcDbLinetypeTableRecord
  2
CACHE2
 70
     0
  3
_ _ _ _ _ _ _ _ _ _ _ _ _ _ _ _ _ _ _ _ _ _ _ _
 72
    65
 73
     2
 40
0.1875
 49
0.125
 74
     0
 49
-0.0625
 74
     0
  0
LTYPE
  5
181B
100
AcDbSymbolTableRecord
100
AcDbLinetypeTableRecord
  2
CACHEX2
 70
     0
  3
____ ____ ____ ____ ____ ____ ____ ____ ____ __
 72
    65
 73
     2
 40
0.75
 49
0.5
 74
     0
 49
-0.25
 74
     0
  0
LTYPE
  5
181C
100
AcDbSymbolTableRecord
100
AcDbLinetypeTableRecord
  2
FANTOME
 70
     0
  3
______  __  __  ______  __  __  ______  __  __ 
 72
    65
 73
     6
 40
2.5
 49
1.25
 74
     0
 49
-0.25
 74
     0
 49
0.25
 74
     0
 49
-0.25
 74
     0
 49
0.25
 74
     0
 49
-0.25
 74
     0
  0
LTYPE
  5
181D
100
AcDbSymbolTableRecord
100
AcDbLinetypeTableRecord
  2
FANTOME2
 70
     0
  3
___ _ _ ___ _ _ ___ _ _ ___ _ _ ___ _ _ ___ _ _
 72
    65
 73
     6
 40
1.25
 49
0.625
 74
     0
 49
-0.125
 74
     0
 49
0.125
 74
     0
 49
-0.125
 74
     0
 49
0.125
 74
     0
 49
-0.125
 74
     0
  0
LTYPE
  5
181E
100
AcDbSymbolTableRecord
100
AcDbLinetypeTableRecord
  2
FANTOMEX2
 70
     0
  3
____________    ____    ____    ____________   
 72
    65
 73
     6
 40
5.0
 49
2.5
 74
     0
 49
-0.5
 74
     0
 49
0.5
 74
     0
 49
-0.5
 74
     0
 49
0.5
 74
     0
 49
-0.5
 74
     0
  0
LTYPE
  5
181F
100
AcDbSymbolTableRecord
100
AcDbLinetypeTableRecord
  2
0
 70
     0
  3
MEDUSA PEN 0
 72
    65
 73
     0
 40
0.0
  0
ENDTAB
  0
TABLE
  2
LAYER
  5
17E8
100
AcDbSymbolTable
 70
    21
  0
LAYER
  5
17F4
100
AcDbSymbolTableRecord
100
AcDbLayerTableRecord
  2
0
 70
     0
 62
   255
  6
CONTINUOUS
  0
LAYER
  5
1827
100
AcDbSymbolTableRecord
100
AcDbLayerTableRecord
  2
AXE
 70
     0
 62
    80
  6
AXES2
  0
LAYER
  5
1828
100
AcDbSymbolTableRecord
100
AcDbLayerTableRecord
  2
CONSTRUCTION
 70
     0
 62
     6
  6
CONTINUOUS
  0
LAYER
  5
1829
100
AcDbSymbolTableRecord
100
AcDbLayerTableRecord
  2
COTATION1
 70
     0
 62
     2
  6
CONTINUOUS
  0
LAYER
  5
182A
100
AcDbSymbolTableRecord
100
AcDbLayerTableRecord
  2
HACHURES
 70
     0
 62
     9
  6
CONTINUOUS
  0
LAYER
  5
182B
100
AcDbSymbolTableRecord
100
AcDbLayerTableRecord
  2
FMULT
 70
     0
 62
     6
  6
CONTINUOUS
  0
LAYER
  5
182C
100
AcDbSymbolTableRecord
100
AcDbLayerTableRecord
  2
TEXTE
 70
     0
 62
   131
  6
CONTINUOUS
  0
LAYER
  5
182D
100
AcDbSymbolTableRecord
100
AcDbLayerTableRecord
  2
FDP_CARTOUCHE
 70
     0
 62
     4
  6
CONTINUOUS
  0
LAYER
  5
182E
100
AcDbSymbolTableRecord
100
AcDbLayerTableRecord
  2
FDP_TEXTES
 70
     0
 62
     5
  6
CONTINUOUS
  0
LAYER
  5
182F
100
AcDbSymbolTableRecord
100
AcDbLayerTableRecord
  2
FDP_LOGO_MG
 70
     0
 62
    30
  6
CONTINUOUS
  0
LAYER
  5
1830
100
AcDbSymbolTableRecord
100
AcDbLayerTableRecord
  2
FDP_LOGO_SCH
 70
     0
 62
     3
  6
CONTINUOUS
  0
LAYER
  5
1831
100
AcDbSymbolTableRecord
100
AcDbLayerTableRecord
  2
FDP_FDP
 70
     0
 62
     5
  6
CONTINUOUS
  0
LAYER
  5
1832
100
AcDbSymbolTableRecord
100
AcDbLayerTableRecord
  2
COTATION2
 70
     0
 62
     2
  6
CONTINUOUS
  0
LAYER
  5
1833
100
AcDbSymbolTableRecord
100
AcDbLayerTableRecord
  2
COTATION3
 70
     0
 62
     2
  6
CONTINUOUS
  0
LAYER
  5
1834
100
AcDbSymbolTableRecord
100
AcDbLayerTableRecord
  2
COTATION4
 70
     0
 62
     2
  6
CONTINUOUS
  0
LAYER
  5
1835
100
AcDbSymbolTableRecord
100
AcDbLayerTableRecord
  2
ASHADE
 70
     0
 62
     7
  6
CONTINUOUS
  0
LAYER
  5
1836
100
AcDbSymbolTableRecord
100
AcDbLayerTableRecord
  2
POINTILLE_COURT
 70
     0
 62
    40
  6
CACHE2
  0
LAYER
  5
1837
100
AcDbSymbolTableRecord
100
AcDbLayerTableRecord
  2
POINTILLE_MOYEN
 70
     0
 62
   140
  6
CACHE
  0
LAYER
  5
1838
100
AcDbSymbolTableRecord
100
AcDbLayerTableRecord
  2
POINTILLE_LONG
 70
     0
 62
   240
  6
CACHEX2
  0
LAYER
  5
1839
100
AcDbSymbolTableRecord
100
AcDbLayerTableRecord
  2
ALPHA
 70
     0
 62
   255
  6
CONTINUOUS
  0
LAYER
  5
183A
100
AcDbSymbolTableRecord
100
AcDbLayerTableRecord
  2
DEFPOINTS
 70
     0
 62
     7
  6
CONTINUOUS
  0
ENDTAB
  0
TABLE
  2
STYLE
  5
17E9
100
AcDbSymbolTable
 70
     4
  0
STYLE
  5
17F5
100
AcDbSymbolTableRecord
100
AcDbTextStyleTableRecord
  2
STANDARD
 70
     0
 40
0.0
 41
1.0
 50
0.0
 71
     0
 42
0.2
  3
txt
  4

  0
STYLE
  5
1807
100
AcDbSymbolTableRecord
100
AcDbTextStyleTableRecord
  2
ROMANS
 70
     0
 40
0.0
 41
1.0
 50
0.0
 71
     0
 42
2.9
  3
romans.shx
  4

  0
STYLE
  5
1808
100
AcDbSymbolTableRecord
100
AcDbTextStyleTableRecord
  2
INFOCAR
 70
     0
 40
0.0
 41
1.34
 50
0.0
 71
     0
 42
2.0
  3
ROMANS.SHX
  4

  0
STYLE
  5
1809
100
AcDbSymbolTableRecord
100
AcDbTextStyleTableRecord
  2
CARTOUCHE
 70
     0
 40
0.0
 41
1.0
 50
0.0
 71
     0
 42
0.2
  3
ROMANS.SHX
  4

  0
ENDTAB
  0
TABLE
  2
VIEW
  5
17EC
100
AcDbSymbolTable
 70
     0
  0
ENDTAB
  0
TABLE
  2
UCS
  5
17ED
100
AcDbSymbolTable
 70
     0
  0
ENDTAB
  0
TABLE
  2
APPID
  5
17EF
100
AcDbSymbolTable
 70
     3
  0
APPID
  5
17F6
100
AcDbSymbolTableRecord
100
AcDbRegAppTableRecord
  2
ACAD
 70
     0
  0
APPID
  5
1821
100
AcDbSymbolTableRecord
100
AcDbRegAppTableRecord
  2
AVE_RENDER
 70
     0
  0
APPID
  5
1822
100
AcDbSymbolTableRecord
100
AcDbRegAppTableRecord
  2
AVE_MATERIAL
 70
     0
  0
ENDTAB
  0
TABLE
  2
DIMSTYLE
  5
17F0
100
AcDbSymbolTable
 70
     2
  0
DIMSTYLE
105
1823
100
AcDbSymbolTableRecord
100
AcDbDimStyleTableRecord
  2
STANDARD
 70
     0
  3

  4

  5

  6

  7

 40
1.0
 41
0.18
 42
0.0625
 43
0.38
 44
0.18
 45
0.0
 46
0.0
 47
0.0
 48
0.0
140
0.18
141
0.09
142
0.0
143
25.4
144
1.0
145
0.0
146
1.0
147
0.09
 71
     0
 72
     0
 73
     1
 74
     1
 75
     0
 76
     0
 77
     0
 78
     0
170
     0
171
     2
172
     0
173
     0
174
     0
175
     0
176
     0
177
     0
178
     0
270
     2
271
     4
272
     4
273
     2
274
     2
340
1807
275
     0
280
     0
281
     0
282
     0
283
     1
284
    12
285
    12
286
    12
287
     5
288
     0
  0
DIMSTYLE
105
1824
102
{ACAD_REACTORS
330
17D2
330
17E1
102
}
100
AcDbSymbolTableRecord
100
AcDbDimStyleTableRecord
  2
SC_STAND
 70
     0
  3

  4

  5

  6

  7

 40
1.0
 41
3.0
 42
0.0625
 43
0.38
 44
0.18
 45
0.01
 46
0.0
 47
0.0
 48
0.0
140
2.5
141
0.09
142
0.0
143
25.4
144
1.0
145
0.0
146
1.0
147
1.0
 71
     0
 72
     0
 73
     0
 74
     0
 75
     0
 76
     0
 77
     1
 78
    12
170
     0
171
     2
172
     1
173
     0
174
     0
175
     0
176
     0
177
     0
178
     0
270
     2
271
     4
272
     4
273
     2
274
     2
340
1807
275
     0
280
     0
281
     0
282
     0
283
     1
284
    12
285
    12
286
    12
287
     5
288
     0
  0
ENDTAB
  0
TABLE
  2
BLOCK_RECORD
  5
17E7
100
AcDbSymbolTable
 70
     5
  0
BLOCK_RECORD
  5
17FD
100
AcDbSymbolTableRecord
100
AcDbBlockTableRecord
  2
*MODEL_SPACE
  0
BLOCK_RECORD
  5
17FA
100
AcDbSymbolTableRecord
100
AcDbBlockTableRecord
  2
*PAPER_SPACE
  0
BLOCK_RECORD
  5
1802
100
AcDbSymbolTableRecord
100
AcDbBlockTableRecord
  2
AVE_RENDER
  0
BLOCK_RECORD
  5
1803
100
AcDbSymbolTableRecord
100
AcDbBlockTableRecord
  2
AVE_GLOBAL
  0
BLOCK_RECORD
  5
1804
100
AcDbSymbolTableRecord
100
AcDbBlockTableRecord
  2
A$CA131
  0
BLOCK_RECORD
  5
1805
100
AcDbSymbolTableRecord
100
AcDbBlockTableRecord
  2
*D3
  0
BLOCK_RECORD
  5
1806
100
AcDbSymbolTableRecord
100
AcDbBlockTableRecord
  2
*D4
  0
ENDTAB
  0
ENDSEC
  0
SECTION
  2
BLOCKS
  0
BLOCK
  5
183D
100
AcDbEntity
  8
0
100
AcDbBlockBegin
  2
*MODEL_SPACE
 70
     0
 10
0.0
 20
0.0
 30
0.0
  3
*MODEL_SPACE
  1

  0
ENDBLK
  5
183E
100
AcDbEntity
  8
0
100
AcDbBlockEnd
  0
BLOCK
  5
183B
100
AcDbEntity
 67
     1
  8
0
100
AcDbBlockBegin
  2
*PAPER_SPACE
 70
     0
 10
0.0
 20
0.0
 30
0.0
  3
*PAPER_SPACE
  1

  0
ENDBLK
  5
183C
100
AcDbEntity
 67
     1
  8
0
100
AcDbBlockEnd
  0
BLOCK
  5
163A
100
AcDbEntity
  8
0
100
AcDbBlockBegin
  2
AVE_RENDER
 70
     0
 10
0.0
 20
0.0
 30
0.0
  3
AVE_RENDER
  1
AVE_RENDER
  0
ENDBLK
  5
163B
100
AcDbEntity
  8
0
100
AcDbBlockEnd
  0
BLOCK
  5
1648
100
AcDbEntity
  8
0
100
AcDbBlockBegin
  2
AVE_GLOBAL
 70
     0
 10
0.0
 20
0.0
 30
0.0
  3
AVE_GLOBAL
  1
AVE_GLOBAL
  0
ENDBLK
  5
1649
100
AcDbEntity
  8
0
100
AcDbBlockEnd
  0
BLOCK
  5
174E
100
AcDbEntity
  8
0
100
AcDbBlockBegin
  2
A$CA131
 70
     0
 10
0.0
 20
0.0
 30
0.0
  3
A$CA131
  1

  0
LINE
  5
16DB
100
AcDbEntity
  8
0
100
AcDbLine
 10
1.298379
 20
0.433771
 30
0.0
 11
1.098379
 21
0.433771
 31
0.0
  0
ARC
  5
16DC
100
AcDbEntity
  8
0
100
AcDbCircle
 10
1.098379
 20
13.233771
 30
0.0
 40
0.8
100
AcDbArc
 50
90.0
 51
180.0
  0
LINE
  5
16DD
100
AcDbEntity
  8
0
100
AcDbLine
 10
1.298379
 20
14.033771
 30
0.0
 11
1.098379
 21
14.033771
 31
0.0
  0
LINE
  5
16DE
100
AcDbEntity
  8
0
100
AcDbLine
 10
1.298379
 20
8.733771
 30
0.0
 11
0.298379
 21
8.733771
 31
0.0
  0
LINE
  5
16DF
100
AcDbEntity
  8
0
100
AcDbLine
 10
1.298379
 20
13.133771
 30
0.0
 11
0.298379
 21
13.133771
 31
0.0
  0
ARC
  5
16E0
100
AcDbEntity
  8
0
100
AcDbCircle
 10
1.098379
 20
1.233771
 30
0.0
 40
0.8
100
AcDbArc
 50
180.0
 51
270.0
  0
LINE
  5
16E1
100
AcDbEntity
  8
0
100
AcDbLine
 10
1.298379
 20
5.733771
 30
0.0
 11
0.298379
 21
5.733771
 31
0.0
  0
LINE
  5
16E2
100
AcDbEntity
  8
0
100
AcDbLine
 10
1.298379
 20
1.333771
 30
0.0
 11
0.298379
 21
1.333771
 31
0.0
  0
LINE
  5
16E3
100
AcDbEntity
  8
0
100
AcDbLine
 10
1.798379
 20
4.943771
 30
0.0
 11
1.798379
 21
5.233771
 31
0.0
  0
LINE
  5
16E4
100
AcDbEntity
  8
0
100
AcDbLine
 10
1.798379
 20
4.133771
 30
0.0
 11
1.798379
 21
4.443771
 31
0.0
  0
LINE
  5
16E5
100
AcDbEntity
  8
0
100
AcDbLine
 10
1.798379
 20
10.023771
 30
0.0
 11
1.798379
 21
10.333771
 31
0.0
  0
LINE
  5
16E6
100
AcDbEntity
  8
0
100
AcDbLine
 10
1.798379
 20
9.233771
 30
0.0
 11
1.798379
 21
9.523771
 31
0.0
  0
LINE
  5
16E7
100
AcDbEntity
  8
0
100
AcDbLine
 10
0.298379
 20
1.233771
 30
0.0
 11
0.298379
 21
1.333771
 31
0.0
  0
LINE
  5
16E8
100
AcDbEntity
  8
0
100
AcDbLine
 10
0.298379
 20
1.333771
 30
0.0
 11
0.298379
 21
5.733771
 31
0.0
  0
LINE
  5
16E9
100
AcDbEntity
  8
0
100
AcDbLine
 10
0.298379
 20
5.733771
 30
0.0
 11
0.298379
 21
8.733771
 31
0.0
  0
LINE
  5
16EA
100
AcDbEntity
  8
0
100
AcDbLine
 10
0.298379
 20
8.733771
 30
0.0
 11
0.298379
 21
13.133771
 31
0.0
  0
LINE
  5
16EB
100
AcDbEntity
  8
0
100
AcDbLine
 10
0.298379
 20
13.233771
 30
0.0
 11
0.298379
 21
13.133771
 31
0.0
  0
LINE
  5
16EC
100
AcDbEntity
  8
0
100
AcDbLine
 10
1.298379
 20
9.233771
 30
0.0
 11
1.298379
 21
10.333771
 31
0.0
  0
LINE
  5
16ED
100
AcDbEntity
  8
0
100
AcDbLine
 10
1.298379
 20
4.133771
 30
0.0
 11
1.298379
 21
5.233771
 31
0.0
  0
LINE
  5
16EE
100
AcDbEntity
  8
0
 62
     2
100
AcDbLine
 10
2.548379
 20
12.510704
 30
0.0
 11
3.048379
 21
13.010704
 31
0.0
  0
LINE
  5
16EF
100
AcDbEntity
  8
0
 62
     4
100
AcDbLine
 10
1.798379
 20
2.033771
 30
0.0
 11
3.798379
 21
2.033771
 31
0.0
  0
LINE
  5
16F0
100
AcDbEntity
  8
0
 62
     4
100
AcDbLine
 10
3.798379
 20
2.033771
 30
0.0
 11
3.798379
 21
2.533771
 31
0.0
  0
LINE
  5
16F1
100
AcDbEntity
  8
0
 62
     4
100
AcDbLine
 10
3.798379
 20
2.533771
 30
0.0
 11
1.798379
 21
2.533771
 31
0.0
  0
LINE
  5
16F2
100
AcDbEntity
  8
0
 62
     4
100
AcDbLine
 10
1.798379
 20
2.533771
 30
0.0
 11
1.798379
 21
2.033771
 31
0.0
  0
LINE
  5
16F3
100
AcDbEntity
  8
0
 62
     4
100
AcDbLine
 10
3.798379
 20
11.933771
 30
0.0
 11
3.798379
 21
12.433771
 31
0.0
  0
LINE
  5
16F4
100
AcDbEntity
  8
0
 62
     4
100
AcDbLine
 10
3.798379
 20
12.433771
 30
0.0
 11
3.048379
 21
12.433771
 31
0.0
  0
LINE
  5
16F5
100
AcDbEntity
  8
0
 62
     4
100
AcDbLine
 10
3.048379
 20
13.183771
 30
0.0
 11
3.048379
 21
12.433771
 31
0.0
  0
LINE
  5
16F6
100
AcDbEntity
  8
0
 62
     4
100
AcDbLine
 10
2.548379
 20
13.183771
 30
0.0
 11
3.048379
 21
13.183771
 31
0.0
  0
LINE
  5
16F7
100
AcDbEntity
  8
0
 62
     4
100
AcDbLine
 10
2.548379
 20
12.433771
 30
0.0
 11
2.548379
 21
13.183771
 31
0.0
  0
LINE
  5
16F8
100
AcDbEntity
  8
0
 62
     4
100
AcDbLine
 10
2.548379
 20
12.433771
 30
0.0
 11
1.798379
 21
12.433771
 31
0.0
  0
LINE
  5
16F9
100
AcDbEntity
  8
0
 62
     4
100
AcDbLine
 10
1.798379
 20
12.433771
 30
0.0
 11
1.798379
 21
11.933771
 31
0.0
  0
LINE
  5
16FA
100
AcDbEntity
  8
0
 62
     4
100
AcDbLine
 10
1.798379
 20
11.933771
 30
0.0
 11
2.548379
 21
11.933771
 31
0.0
  0
LINE
  5
16FB
100
AcDbEntity
  8
0
 62
     4
100
AcDbLine
 10
2.548379
 20
11.183771
 30
0.0
 11
2.548379
 21
11.933771
 31
0.0
  0
LINE
  5
16FC
100
AcDbEntity
  8
0
 62
     4
100
AcDbLine
 10
3.048379
 20
11.183771
 30
0.0
 11
2.548379
 21
11.183771
 31
0.0
  0
LINE
  5
16FD
100
AcDbEntity
  8
0
 62
     4
100
AcDbLine
 10
3.048379
 20
11.933771
 30
0.0
 11
3.048379
 21
11.183771
 31
0.0
  0
LINE
  5
16FE
100
AcDbEntity
  8
0
 62
     4
100
AcDbLine
 10
3.048379
 20
11.933771
 30
0.0
 11
3.798379
 21
11.933771
 31
0.0
  0
LINE
  5
16FF
100
AcDbEntity
  8
0
 62
     2
100
AcDbLine
 10
2.027509
 20
2.033771
 30
0.0
 11
2.527509
 21
2.533771
 31
0.0
  0
LINE
  5
1700
100
AcDbEntity
  8
0
 62
     2
100
AcDbLine
 10
1.971445
 20
11.933771
 30
0.0
 11
2.471445
 21
12.433771
 31
0.0
  0
LINE
  5
1701
100
AcDbEntity
  8
0
100
AcDbLine
 10
1.798379
 20
4.283771
 30
0.0
 11
2.109047
 21
4.283771
 31
0.0
  0
LINE
  5
1702
100
AcDbEntity
  8
0
100
AcDbLine
 10
1.798379
 20
10.183771
 30
0.0
 11
2.198379
 21
10.183771
 31
0.0
  0
LINE
  5
1703
100
AcDbEntity
  8
0
100
AcDbLine
 10
5.448379
 20
14.032207
 30
0.0
 11
5.448379
 21
0.435335
 31
0.0
  0
LINE
  5
1704
100
AcDbEntity
  8
0
100
AcDbLine
 10
1.298379
 20
4.133771
 30
0.0
 11
3.848379
 21
4.133771
 31
0.0
  0
LINE
  5
1705
100
AcDbEntity
  8
0
100
AcDbLine
 10
3.848379
 20
4.443771
 30
0.0
 11
3.848379
 21
4.133771
 31
0.0
  0
LINE
  5
1706
100
AcDbEntity
  8
0
100
AcDbLine
 10
3.848379
 20
5.233771
 30
0.0
 11
3.848379
 21
4.943771
 31
0.0
  0
LINE
  5
1707
100
AcDbEntity
  8
0
100
AcDbLine
 10
1.298379
 20
5.233771
 30
0.0
 11
3.848379
 21
5.233771
 31
0.0
  0
LINE
  5
1708
100
AcDbEntity
  8
0
100
AcDbLine
 10
1.298379
 20
9.233771
 30
0.0
 11
3.848379
 21
9.233771
 31
0.0
  0
LINE
  5
1709
100
AcDbEntity
  8
0
100
AcDbLine
 10
3.848379
 20
9.523771
 30
0.0
 11
3.848379
 21
9.233771
 31
0.0
  0
LINE
  5
170A
100
AcDbEntity
  8
0
100
AcDbLine
 10
3.848379
 20
10.333771
 30
0.0
 11
3.848379
 21
10.023771
 31
0.0
  0
LINE
  5
170B
100
AcDbEntity
  8
0
100
AcDbLine
 10
1.298379
 20
10.333771
 30
0.0
 11
3.848379
 21
10.333771
 31
0.0
  0
LINE
  5
170C
100
AcDbEntity
  8
0
100
AcDbLine
 10
1.298379
 20
14.033771
 30
0.0
 11
5.398379
 21
14.033771
 31
0.0
  0
LINE
  5
170D
100
AcDbEntity
  8
0
100
AcDbLine
 10
1.298379
 20
0.433771
 30
0.0
 11
5.398379
 21
0.433771
 31
0.0
  0
LINE
  5
170E
100
AcDbEntity
  8
0
100
AcDbLine
 10
6.198379
 20
1.233771
 30
0.0
 11
6.198379
 21
13.233771
 31
0.0
  0
LINE
  5
170F
100
AcDbEntity
  8
0
100
AcDbLine
 10
1.298379
 20
4.133771
 30
0.0
 11
1.298379
 21
0.433771
 31
0.0
  0
ARC
  5
1710
100
AcDbEntity
  8
0
100
AcDbCircle
 10
5.398379
 20
13.233771
 30
0.0
 40
0.8
100
AcDbArc
 50
86.416678
 51
90.0
  0
ARC
  5
1711
100
AcDbEntity
  8
0
100
AcDbCircle
 10
5.398379
 20
1.233771
 30
0.0
 40
0.8
100
AcDbArc
 50
270.0
 51
273.583322
  0
ARC
  5
1712
100
AcDbEntity
  8
0
100
AcDbCircle
 10
5.398379
 20
1.233771
 30
0.0
 40
0.8
100
AcDbArc
 50
273.583322
 51
0.0
  0
ARC
  5
1713
100
AcDbEntity
  8
0
100
AcDbCircle
 10
5.398379
 20
13.233771
 30
0.0
 40
0.8
100
AcDbArc
 50
0.0
 51
86.416678
  0
LINE
  5
1714
100
AcDbEntity
  8
0
100
AcDbLine
 10
1.298379
 20
14.033771
 30
0.0
 11
1.298379
 21
10.333771
 31
0.0
  0
LINE
  5
1715
100
AcDbEntity
  8
0
100
AcDbLine
 10
1.298379
 20
9.233771
 30
0.0
 11
1.298379
 21
5.233771
 31
0.0
  0
LINE
  5
1716
100
AcDbEntity
  8
0
100
AcDbLine
 10
1.948379
 20
9.523771
 30
0.0
 11
1.948379
 21
9.233771
 31
0.0
  0
LINE
  5
1717
100
AcDbEntity
  8
0
100
AcDbLine
 10
1.948379
 20
5.233771
 30
0.0
 11
1.948379
 21
4.943771
 31
0.0
  0
ARC
  5
1718
100
AcDbEntity
  8
0
100
AcDbCircle
 10
3.393026
 20
7.233771
 30
0.0
 40
3.4
100
AcDbArc
 50
202.34729
 51
204.462611
  0
LINE
  5
1719
100
AcDbEntity
  8
0
100
AcDbLine
 10
0.248379
 20
5.941024
 30
0.0
 11
0.248379
 21
8.526518
 31
0.0
  0
ARC
  5
171A
100
AcDbEntity
  8
0
100
AcDbCircle
 10
3.393026
 20
7.233771
 30
0.0
 40
3.4
100
AcDbArc
 50
155.537389
 51
157.65271
  0
LINE
  5
171B
100
AcDbEntity
  8
0
100
AcDbLine
 10
2.198379
 20
10.023771
 30
0.0
 11
2.198379
 21
10.333771
 31
0.0
  0
LINE
  5
171C
100
AcDbEntity
  8
0
100
AcDbLine
 10
2.198379
 20
9.233771
 30
0.0
 11
2.198379
 21
9.523771
 31
0.0
  0
LINE
  5
171D
100
AcDbEntity
  8
0
100
AcDbLine
 10
2.198379
 20
4.943771
 30
0.0
 11
2.198379
 21
5.233771
 31
0.0
  0
LINE
  5
171E
100
AcDbEntity
  8
0
100
AcDbLine
 10
2.198379
 20
4.384381
 30
0.0
 11
2.198379
 21
4.443771
 31
0.0
  0
LINE
  5
171F
100
AcDbEntity
  8
0
100
AcDbLine
 10
3.848379
 20
4.263771
 30
0.0
 11
3.702682
 21
4.263771
 31
0.0
  0
LINE
  5
1720
100
AcDbEntity
  8
0
100
AcDbLine
 10
3.048379
 20
10.313771
 30
0.0
 11
3.048379
 21
10.165686
 31
0.0
  0
LINE
  5
1721
100
AcDbEntity
  8
0
100
AcDbLine
 10
3.048379
 20
5.233771
 30
0.0
 11
3.048379
 21
4.943771
 31
0.0
  0
LINE
  5
1722
100
AcDbEntity
  8
0
100
AcDbLine
 10
3.048379
 20
10.313771
 30
0.0
 11
3.848379
 21
10.313771
 31
0.0
  0
ARC
  5
1723
100
AcDbEntity
  8
0
100
AcDbCircle
 10
2.898379
 20
3.673771
 30
0.0
 40
1.0
100
AcDbArc
 50
129.548053
 51
152.543357
  0
ARC
  5
1724
100
AcDbEntity
  8
0
100
AcDbCircle
 10
2.898379
 20
3.673771
 30
0.0
 40
1.0
100
AcDbArc
 50
27.456643
 51
49.090909
  0
ARC
  5
1725
100
AcDbEntity
  8
0
100
AcDbCircle
 10
2.898379
 20
3.673771
 30
0.0
 40
1.0
100
AcDbArc
 50
49.090909
 51
49.801943
  0
ARC
  5
1726
100
AcDbEntity
  8
0
100
AcDbCircle
 10
2.898379
 20
3.673771
 30
0.0
 40
1.0
100
AcDbArc
 50
49.801943
 51
50.451947
  0
LINE
  5
1727
100
AcDbEntity
  8
0
100
AcDbLine
 10
4.048379
 20
9.935607
 30
0.0
 11
2.248379
 21
9.935607
 31
0.0
  0
LINE
  5
1728
100
AcDbEntity
  8
0
100
AcDbLine
 10
2.248379
 20
9.935607
 30
0.0
 11
1.748379
 21
10.023771
 31
0.0
  0
LINE
  5
1729
100
AcDbEntity
  8
0
100
AcDbLine
 10
4.048379
 20
9.935607
 30
0.0
 11
4.048379
 21
9.611934
 31
0.0
  0
LINE
  5
172A
100
AcDbEntity
  8
0
100
AcDbLine
 10
4.048379
 20
9.611934
 30
0.0
 11
2.248379
 21
9.611934
 31
0.0
  0
LINE
  5
172B
100
AcDbEntity
  8
0
100
AcDbLine
 10
2.248379
 20
9.935607
 30
0.0
 11
2.248379
 21
9.611934
 31
0.0
  0
LINE
  5
172C
100
AcDbEntity
  8
0
100
AcDbLine
 10
2.248379
 20
9.611934
 30
0.0
 11
1.748379
 21
9.523771
 31
0.0
  0
LINE
  5
172D
100
AcDbEntity
  8
0
 62
     9
100
AcDbLine
 10
1.648379
 20
9.523771
 30
0.0
 11
1.648379
 21
10.023771
 31
0.0
  0
LINE
  5
172E
100
AcDbEntity
  8
0
100
AcDbLine
 10
4.548379
 20
10.023771
 30
0.0
 11
4.048379
 21
9.935607
 31
0.0
  0
LINE
  5
172F
100
AcDbEntity
  8
0
100
AcDbLine
 10
4.548379
 20
9.523771
 30
0.0
 11
4.048379
 21
9.611934
 31
0.0
  0
LINE
  5
1730
100
AcDbEntity
  8
0
100
AcDbLine
 10
4.548379
 20
9.523771
 30
0.0
 11
1.748379
 21
9.523771
 31
0.0
  0
LINE
  5
1731
100
AcDbEntity
  8
0
100
AcDbLine
 10
4.548379
 20
10.023771
 30
0.0
 11
1.748379
 21
10.023771
 31
0.0
  0
LINE
  5
1732
100
AcDbEntity
  8
0
100
AcDbLine
 10
4.548379
 20
10.023771
 30
0.0
 11
4.548379
 21
9.523771
 31
0.0
  0
LINE
  5
1733
100
AcDbEntity
  8
0
100
AcDbLine
 10
1.748379
 20
10.023771
 30
0.0
 11
1.748379
 21
9.523771
 31
0.0
  0
LINE
  5
1734
100
AcDbEntity
  8
0
100
AcDbLine
 10
1.448379
 20
9.523771
 30
0.0
 11
1.448379
 21
10.023771
 31
0.0
  0
LINE
  5
1735
100
AcDbEntity
  8
0
100
AcDbLine
 10
1.648379
 20
9.523771
 30
0.0
 11
1.448379
 21
9.523771
 31
0.0
  0
LINE
  5
1736
100
AcDbEntity
  8
0
100
AcDbLine
 10
1.648379
 20
10.023771
 30
0.0
 11
1.448379
 21
10.023771
 31
0.0
  0
LINE
  5
1737
100
AcDbEntity
  8
0
100
AcDbLine
 10
1.648379
 20
10.023771
 30
0.0
 11
1.748379
 21
10.023771
 31
0.0
  0
LINE
  5
1738
100
AcDbEntity
  8
0
100
AcDbLine
 10
1.748379
 20
9.523771
 30
0.0
 11
1.648379
 21
9.523771
 31
0.0
  0
LINE
  5
1739
100
AcDbEntity
  8
0
100
AcDbLine
 10
4.048379
 20
4.855607
 30
0.0
 11
2.248379
 21
4.855607
 31
0.0
  0
LINE
  5
173A
100
AcDbEntity
  8
0
100
AcDbLine
 10
2.248379
 20
4.855607
 30
0.0
 11
1.748379
 21
4.943771
 31
0.0
  0
LINE
  5
173B
100
AcDbEntity
  8
0
100
AcDbLine
 10
4.048379
 20
4.855607
 30
0.0
 11
4.048379
 21
4.531934
 31
0.0
  0
LINE
  5
173C
100
AcDbEntity
  8
0
100
AcDbLine
 10
4.048379
 20
4.531934
 30
0.0
 11
2.248379
 21
4.531934
 31
0.0
  0
LINE
  5
173D
100
AcDbEntity
  8
0
100
AcDbLine
 10
2.248379
 20
4.855607
 30
0.0
 11
2.248379
 21
4.531934
 31
0.0
  0
LINE
  5
173E
100
AcDbEntity
  8
0
100
AcDbLine
 10
2.248379
 20
4.531934
 30
0.0
 11
1.748379
 21
4.443771
 31
0.0
  0
LINE
  5
173F
100
AcDbEntity
  8
0
 62
     9
100
AcDbLine
 10
1.648379
 20
4.443771
 30
0.0
 11
1.648379
 21
4.943771
 31
0.0
  0
LINE
  5
1740
100
AcDbEntity
  8
0
100
AcDbLine
 10
4.548379
 20
4.943771
 30
0.0
 11
4.048379
 21
4.855607
 31
0.0
  0
LINE
  5
1741
100
AcDbEntity
  8
0
100
AcDbLine
 10
4.548379
 20
4.443771
 30
0.0
 11
4.048379
 21
4.531934
 31
0.0
  0
LINE
  5
1742
100
AcDbEntity
  8
0
100
AcDbLine
 10
4.548379
 20
4.443771
 30
0.0
 11
1.748379
 21
4.443771
 31
0.0
  0
LINE
  5
1743
100
AcDbEntity
  8
0
100
AcDbLine
 10
4.548379
 20
4.943771
 30
0.0
 11
1.748379
 21
4.943771
 31
0.0
  0
LINE
  5
1744
100
AcDbEntity
  8
0
100
AcDbLine
 10
4.548379
 20
4.943771
 30
0.0
 11
4.548379
 21
4.443771
 31
0.0
  0
LINE
  5
1745
100
AcDbEntity
  8
0
100
AcDbLine
 10
1.748379
 20
4.943771
 30
0.0
 11
1.748379
 21
4.443771
 31
0.0
  0
LINE
  5
1746
100
AcDbEntity
  8
0
100
AcDbLine
 10
1.448379
 20
4.443771
 30
0.0
 11
1.448379
 21
4.943771
 31
0.0
  0
LINE
  5
1747
100
AcDbEntity
  8
0
100
AcDbLine
 10
1.648379
 20
4.443771
 30
0.0
 11
1.448379
 21
4.443771
 31
0.0
  0
LINE
  5
1748
100
AcDbEntity
  8
0
100
AcDbLine
 10
1.648379
 20
4.943771
 30
0.0
 11
1.448379
 21
4.943771
 31
0.0
  0
LINE
  5
1749
100
AcDbEntity
  8
0
100
AcDbLine
 10
1.648379
 20
4.943771
 30
0.0
 11
1.748379
 21
4.943771
 31
0.0
  0
LINE
  5
174A
100
AcDbEntity
  8
0
100
AcDbLine
 10
1.748379
 20
4.443771
 30
0.0
 11
1.648379
 21
4.443771
 31
0.0
  0
ARC
  5
174B
100
AcDbEntity
  8
0
100
AcDbCircle
 10
3.198379
 20
9.483771
 30
0.0
 40
0.7
100
AcDbArc
 50
90.0
 51
129.411417
  0
ARC
  5
174C
100
AcDbEntity
  8
0
100
AcDbCircle
 10
3.198379
 20
9.483771
 30
0.0
 40
0.7
100
AcDbArc
 50
176.71612
 51
200.97988
  0
ARC
  5
174D
100
AcDbEntity
  8
0
100
AcDbCircle
 10
3.198379
 20
9.483771
 30
0.0
 40
0.7
100
AcDbArc
 50
50.588583
 51
90.0
  0
ENDBLK
  5
174F
100
AcDbEntity
  8
0
100
AcDbBlockEnd
  0
BLOCK
  5
17C5
100
AcDbEntity
  8
0
100
AcDbBlockBegin
  2
*D3
 70
     1
 10
0.0
 20
0.0
 30
0.0
  3
*D3
  1
AVE_RENDER
  0
LINE
  5
17C6
100
AcDbEntity
  8
0
  6
BYBLOCK
 62
     0
100
AcDbLine
 10
105.329362
 20
160.594153
 30
0.0
 11
105.329362
 21
150.386884
 31
0.0
  0
LINE
  5
17C7
100
AcDbEntity
  8
0
  6
BYBLOCK
 62
     0
100
AcDbLine
 10
111.229362
 20
160.494153
 30
0.0
 11
111.229362
 21
150.386884
 31
0.0
  0
LINE
  5
17C8
100
AcDbEntity
  8
0
  6
BYBLOCK
 62
     0
100
AcDbLine
 10
102.329362
 20
150.566884
 30
0.0
 11
99.329362
 21
150.566884
 31
0.0
  0
LINE
  5
17C9
100
AcDbEntity
  8
0
  6
BYBLOCK
 62
     0
100
AcDbLine
 10
114.229362
 20
150.566884
 30
0.0
 11
124.34841
 21
150.566884
 31
0.0
  0
LINE
  5
17CA
100
AcDbEntity
  8
0
  6
BYBLOCK
 62
     0
100
AcDbLine
 10
105.329362
 20
150.566884
 30
0.0
 11
111.229362
 21
150.566884
 31
0.0
  0
SOLID
  5
17CB
100
AcDbEntity
  8
0
  6
BYBLOCK
 62
     0
100
AcDbTrace
 10
102.329362
 20
151.066884
 30
0.0
 11
102.329362
 21
150.066884
 31
0.0
 12
105.329362
 22
150.566884
 32
0.0
 13
105.329362
 23
150.566884
 33
0.0
  0
SOLID
  5
17CC
100
AcDbEntity
  8
0
  6
BYBLOCK
 62
     0
100
AcDbTrace
 10
114.229362
 20
151.066884
 30
0.0
 11
114.229362
 21
150.066884
 31
0.0
 12
111.229362
 22
150.566884
 32
0.0
 13
111.229362
 23
150.566884
 33
0.0
  0
TEXT
  5
17CD
100
AcDbEntity
  8
0
  6
BYBLOCK
 62
     0
100
AcDbText
 10
117.872219
 20
151.566884
 30
0.0
 40
2.5
  1
5.9
  7
ROMANS
100
AcDbText
  0
POINT
  5
17CE
100
AcDbEntity
  8
DEFPOINTS
  6
BYBLOCK
 62
     0
100
AcDbPoint
 10
105.329362
 20
160.656653
 30
0.0
  0
POINT
  5
17CF
100
AcDbEntity
  8
DEFPOINTS
  6
BYBLOCK
 62
     0
100
AcDbPoint
 10
111.229362
 20
160.556653
 30
0.0
  0
POINT
  5
17D0
100
AcDbEntity
  8
DEFPOINTS
  6
BYBLOCK
 62
     0
100
AcDbPoint
 10
111.229362
 20
150.566884
 30
0.0
  0
ENDBLK
  5
17D1
100
AcDbEntity
  8
0
100
AcDbBlockEnd
  0
BLOCK
  5
17D4
100
AcDbEntity
  8
0
100
AcDbBlockBegin
  2
*D4
 70
     1
 10
0.0
 20
0.0
 30
0.0
  3
*D4
  1
AVE_RENDER
  0
LINE
  5
17D5
100
AcDbEntity
  8
0
  6
BYBLOCK
 62
     0
100
AcDbLine
 10
110.491862
 20
159.756653
 30
0.0
 11
126.203946
 21
159.756653
 31
0.0
  0
LINE
  5
17D6
100
AcDbEntity
  8
0
  6
BYBLOCK
 62
     0
100
AcDbLine
 10
110.491862
 20
173.356653
 30
0.0
 11
126.203946
 21
173.356653
 31
0.0
  0
LINE
  5
17D7
100
AcDbEntity
  8
0
  6
BYBLOCK
 62
     0
100
AcDbLine
 10
126.023946
 20
156.756653
 30
0.0
 11
126.023946
 21
153.756653
 31
0.0
  0
LINE
  5
17D8
100
AcDbEntity
  8
0
  6
BYBLOCK
 62
     0
100
AcDbLine
 10
126.023946
 20
176.356653
 30
0.0
 11
126.023946
 21
179.356653
 31
0.0
  0
LINE
  5
17D9
100
AcDbEntity
  8
0
  6
BYBLOCK
 62
     0
100
AcDbLine
 10
126.023946
 20
159.756653
 30
0.0
 11
126.023946
 21
173.356653
 31
0.0
  0
SOLID
  5
17DA
100
AcDbEntity
  8
0
  6
BYBLOCK
 62
     0
100
AcDbTrace
 10
125.523946
 20
156.756653
 30
0.0
 11
126.523946
 21
156.756653
 31
0.0
 12
126.023946
 22
159.756653
 32
0.0
 13
126.023946
 23
159.756653
 33
0.0
  0
SOLID
  5
17DB
100
AcDbEntity
  8
0
  6
BYBLOCK
 62
     0
100
AcDbTrace
 10
125.523946
 20
176.356653
 30
0.0
 11
126.523946
 21
176.356653
 31
0.0
 12
126.023946
 22
173.356653
 32
0.0
 13
126.023946
 23
173.356653
 33
0.0
  0
TEXT
  5
17DC
100
AcDbEntity
  8
0
  6
BYBLOCK
 62
     0
100
AcDbText
 10
125.023946
 20
162.211414
 30
0.0
 40
2.5
  1
13.6
 50
90.0
  7
ROMANS
100
AcDbText
  0
POINT
  5
17DD
100
AcDbEntity
  8
DEFPOINTS
  6
BYBLOCK
 62
     0
100
AcDbPoint
 10
110.429362
 20
159.756653
 30
0.0
  0
POINT
  5
17DE
100
AcDbEntity
  8
DEFPOINTS
  6
BYBLOCK
 62
     0
100
AcDbPoint
 10
110.429362
 20
173.356653
 30
0.0
  0
POINT
  5
17DF
100
AcDbEntity
  8
DEFPOINTS
  6
BYBLOCK
 62
     0
100
AcDbPoint
 10
126.023946
 20
173.356653
 30
0.0
  0
ENDBLK
  5
17E0
100
AcDbEntity
  8
0
100
AcDbBlockEnd
  0
ENDSEC
  0
SECTION
  2
ENTITIES
  0
INSERT
  5
163C
100
AcDbEntity
  8
ALPHA
100
AcDbBlockReference
  2
AVE_RENDER
 10
0.0
 20
0.0
 30
0.0
1001
AVE_RENDER
1002
{
1070
     6
1000
Pref
1070
    50
1070
    20
1070
     1
1070
     0
1000

1070
    10
1070
     1
1070
    30
1040
25.4
1070
     1
1040
0.3
1040
0.7
1040
0.0
1040
10.0
1010
-1.0
1020
-1.0
1030
-1.0
1040
0.3
1070
    49
1070
     0
1070
     0
1010
1.0
1020
1.0
1030
1.0
1040
45.0
1070
     1
1070
     0
1000
WCS
1040
0.0
1002
}
  0
INSERT
  5
163D
100
AcDbEntity
  8
ALPHA
100
AcDbBlockReference
  2
AVE_RENDER
 10
0.0
 20
0.0
 30
0.0
1001
AVE_RENDER
1002
{
1070
     0
1000
Full Opt
1070
     0
1070
     1
1070
     1
1070
     1
1070
     0
1070
     0
1070
     0
1070
     1
1070
     1
1040
0.0001
1040
0.0001
1002
}
  0
INSERT
  5
163E
100
AcDbEntity
  8
ALPHA
100
AcDbBlockReference
  2
AVE_RENDER
 10
0.0
 20
0.0
 30
0.0
1001
AVE_RENDER
1002
{
1070
     0
1000
Quick Opt
1070
     0
1070
     1
1070
     1
1070
     1
1070
     0
1070
     0
1070
     1
1002
}
  0
INSERT
  5
163F
100
AcDbEntity
  8
ALPHA
100
AcDbBlockReference
  2
AVE_RENDER
 10
0.0
 20
0.0
 30
0.0
1001
AVE_RENDER
1002
{
1070
     1
1000
Scanl Opt
1070
     2
1070
     0
1070
     2
1040
2.0
1040
4.0
1070
     0
1070
     1
1070
     0
1040
0.03
1002
}
  0
INSERT
  5
1640
100
AcDbEntity
  8
ALPHA
100
AcDbBlockReference
  2
AVE_RENDER
 10
0.0
 20
0.0
 30
0.0
1001
AVE_RENDER
1002
{
1070
     2
1000
Raytr Opt
1070
     2
1070
     0
1070
     2
1040
2.0
1040
4.0
1070
     0
1070
     1
1070
     1
1040
0.03
1070
     3
1040
0.03
1002
}
  0
INSERT
  5
1641
100
AcDbEntity
  8
ALPHA
100
AcDbBlockReference
  2
AVE_RENDER
 10
0.0
 20
0.0
 30
0.0
1001
AVE_RENDER
1002
{
1070
     0
1000
RFile Opt
1070
     5
1070
   640
1070
   480
1070
 10000
1070
     3
1070
    32
1070
    24
1070
     0
1070
     0
1070
     0
1070
     1
1070
     0
1070
     0
1070
     0
1002
}
  0
INSERT
  5
1642
100
AcDbEntity
  8
ALPHA
100
AcDbBlockReference
  2
AVE_RENDER
 10
0.0
 20
0.0
 30
0.0
1001
AVE_RENDER
1002
{
1070
     0
1000
Fog Opt
1070
     0
1070
     0
1040
0.0
1040
1.0
1040
0.0
1040
1.0
1010
0.5
1020
0.5
1030
0.5
1002
}
  0
INSERT
  5
1643
100
AcDbEntity
  8
ALPHA
100
AcDbBlockReference
  2
AVE_RENDER
 10
0.0
 20
0.0
 30
0.0
1001
AVE_RENDER
1002
{
1070
     0
1000
BG Opt
1070
     0
1070
     1
1010
0.0
1020
0.0
1030
0.0
1010
1.0
1020
0.0
1030
0.0
1010
0.0
1020
1.0
1030
0.0
1010
0.0
1020
0.0
1030
1.0
1040
0.5
1040
0.33
1040
0.0
1000

1070
     1
1000

1070
     1
1070
     1
1040
1.0
1040
1.0
1040
0.0
1040
0.0
1070
     0
1002
}
  0
INSERT
  5
164A
100
AcDbEntity
  8
ALPHA
100
AcDbBlockReference
  2
AVE_GLOBAL
 10
0.0
 20
0.0
 30
0.0
1001
AVE_MATERIAL
1002
{
1000
*GLOBAL*
1000
1
1000
Finition globale.
1002
{
1002
}
1002
{
1070
    63
1002
{
1002
{
1010
-1.0
1020
-1.0
1030
-1.0
1002
}
1040
0.1
1000

1040
0.0
1002
{
1002
}
1040
0.0
1002
{
1002
}
1040
0.0
1002
}
1002
{
1002
{
1010
-1.0
1020
-1.0
1030
-1.0
1002
}
1040
0.7
1000

1040
0.0
1002
{
1002
}
1040
0.0
1002
{
1002
}
1040
0.0
1002
}
1002
{
1002
{
1010
-1.0
1020
-1.0
1030
-1.0
1002
}
1040
0.2
1000

1040
0.0
1002
{
1002
}
1040
0.0
1002
{
1002
}
1040
0.0
1002
}
1002
{
1070
     0
1002
{
1070
     1
1002
{
1040
1.0
1040
1.0
1000

1040
0.0
1002
{
1002
}
1040
0.0
1002
{
1002
}
1040
0.0
1002
}
1002
}
1040
1.0
1040
0.0
1040
0.0
1002
}
1002
{
1040
1.0
1040
1.0
1000

1040
0.0
1002
{
1002
}
1040
0.0
1002
{
1002
}
1040
0.0
1002
}
1002
{
1040
0.5
1040
1.0
1000

1040
0.0
1002
{
1002
}
1040
0.0
1002
{
1002
}
1040
0.0
1002
}
1002
{
1070
     0
1040
0.0
1002
{
1002
}
1040
1.0
1002
{
1002
}
1040
0.0
1002
}
1002
{
1040
0.0
1002
{
1002
{
1010
0.0
1020
0.0
1030
0.0
1002
}
1040
1.0
1000

1040
0.0
1002
{
1002
}
1040
0.0
1002
{
1002
}
1040
0.0
1002
}
1002
}
1002
{
1002
{
1070
     1
1002
{
1040
0.0
1040
1.0
1000

1040
0.0
1002
{
1002
}
1040
0.0
1002
{
1002
}
1040
0.0
1002
}
1002
}
1040
0.0
1002
{
1002
}
1010
1.0
1020
0.0
1030
0.0
1010
0.0
1020
1.0
1030
0.0
1010
0.0
1020
0.0
1030
1.0
1070
     0
1002
}
1002
{
1002
{
1040
1.0
1040
1.0
1002
{
1070
     1
1002
{
1040
1.0
1040
1.0
1000

1040
0.0
1002
{
1002
}
1040
0.0
1002
{
1002
}
1040
0.0
1002
}
1002
}
1002
}
1070
     0
1040
0.0
1002
{
1002
}
1002
}
1002
{
1002
}
1002
}
1002
{
1071
        3
1070
     3
1070
     0
1002
{
1070
     2
1070
     0
1070
     0
1040
0.0
1002
}
1070
     0
1070
     2
1002
{
1002
}
1002
}
1002
{
1040
8030.0
1040
190.300003
1040
0.305
1040
228.0
1040
545.0
1040
14.0
1040
17.4
1040
0.456
1002
}
1002
}
  0
LINE
  5
1751
100
AcDbEntity
  8
ALPHA
100
AcDbLine
 10
106.329362
 20
159.756653
 30
0.0
 11
106.129362
 21
159.756653
 31
0.0
  0
ARC
  5
1752
100
AcDbEntity
  8
ALPHA
100
AcDbCircle
 10
106.129362
 20
172.556653
 30
0.0
 40
0.8
100
AcDbArc
 50
90.0
 51
180.0
  0
LINE
  5
1753
100
AcDbEntity
  8
ALPHA
100
AcDbLine
 10
106.329362
 20
173.356653
 30
0.0
 11
106.129362
 21
173.356653
 31
0.0
  0
LINE
  5
1754
100
AcDbEntity
  8
ALPHA
100
AcDbLine
 10
106.329362
 20
168.056653
 30
0.0
 11
105.329362
 21
168.056653
 31
0.0
  0
LINE
  5
1755
100
AcDbEntity
  8
ALPHA
100
AcDbLine
 10
106.329362
 20
172.456653
 30
0.0
 11
105.329362
 21
172.456653
 31
0.0
  0
ARC
  5
1756
100
AcDbEntity
  8
ALPHA
100
AcDbCircle
 10
106.129362
 20
160.556653
 30
0.0
 40
0.8
100
AcDbArc
 50
180.0
 51
270.0
  0
LINE
  5
1757
100
AcDbEntity
  8
ALPHA
100
AcDbLine
 10
106.329362
 20
165.056653
 30
0.0
 11
105.329362
 21
165.056653
 31
0.0
  0
LINE
  5
1758
100
AcDbEntity
  8
ALPHA
100
AcDbLine
 10
106.329362
 20
160.656653
 30
0.0
 11
105.329362
 21
160.656653
 31
0.0
  0
LINE
  5
1759
100
AcDbEntity
  8
ALPHA
100
AcDbLine
 10
106.829362
 20
164.266653
 30
0.0
 11
106.829362
 21
164.556653
 31
0.0
  0
LINE
  5
175A
100
AcDbEntity
  8
ALPHA
100
AcDbLine
 10
106.829362
 20
163.456653
 30
0.0
 11
106.829362
 21
163.766653
 31
0.0
  0
LINE
  5
175B
100
AcDbEntity
  8
ALPHA
100
AcDbLine
 10
106.829362
 20
169.346653
 30
0.0
 11
106.829362
 21
169.656653
 31
0.0
  0
LINE
  5
175C
100
AcDbEntity
  8
ALPHA
100
AcDbLine
 10
106.829362
 20
168.556653
 30
0.0
 11
106.829362
 21
168.846653
 31
0.0
  0
LINE
  5
175D
100
AcDbEntity
  8
ALPHA
100
AcDbLine
 10
105.329362
 20
160.556653
 30
0.0
 11
105.329362
 21
160.656653
 31
0.0
  0
LINE
  5
175E
100
AcDbEntity
  8
ALPHA
100
AcDbLine
 10
105.329362
 20
160.656653
 30
0.0
 11
105.329362
 21
165.056653
 31
0.0
  0
LINE
  5
175F
100
AcDbEntity
  8
ALPHA
100
AcDbLine
 10
105.329362
 20
165.056653
 30
0.0
 11
105.329362
 21
168.056653
 31
0.0
  0
LINE
  5
1760
100
AcDbEntity
  8
ALPHA
100
AcDbLine
 10
105.329362
 20
168.056653
 30
0.0
 11
105.329362
 21
172.456653
 31
0.0
  0
LINE
  5
1761
100
AcDbEntity
  8
ALPHA
100
AcDbLine
 10
105.329362
 20
172.556653
 30
0.0
 11
105.329362
 21
172.456653
 31
0.0
  0
LINE
  5
1762
100
AcDbEntity
  8
ALPHA
100
AcDbLine
 10
106.329362
 20
168.556653
 30
0.0
 11
106.329362
 21
169.656653
 31
0.0
  0
LINE
  5
1763
100
AcDbEntity
  8
ALPHA
100
AcDbLine
 10
106.329362
 20
163.456653
 30
0.0
 11
106.329362
 21
164.556653
 31
0.0
  0
LINE
  5
1764
100
AcDbEntity
  8
ALPHA
100
AcDbLine
 10
107.579362
 20
171.833586
 30
0.0
 11
108.079362
 21
172.333586
 31
0.0
  0
LINE
  5
1765
100
AcDbEntity
  8
ALPHA
100
AcDbLine
 10
106.829362
 20
161.356653
 30
0.0
 11
108.829362
 21
161.356653
 31
0.0
  0
LINE
  5
1766
100
AcDbEntity
  8
ALPHA
100
AcDbLine
 10
108.829362
 20
161.356653
 30
0.0
 11
108.829362
 21
161.856653
 31
0.0
  0
LINE
  5
1767
100
AcDbEntity
  8
ALPHA
100
AcDbLine
 10
108.829362
 20
161.856653
 30
0.0
 11
106.829362
 21
161.856653
 31
0.0
  0
LINE
  5
1768
100
AcDbEntity
  8
ALPHA
100
AcDbLine
 10
106.829362
 20
161.856653
 30
0.0
 11
106.829362
 21
161.356653
 31
0.0
  0
LINE
  5
1769
100
AcDbEntity
  8
ALPHA
100
AcDbLine
 10
108.829362
 20
171.256653
 30
0.0
 11
108.829362
 21
171.756653
 31
0.0
  0
LINE
  5
176A
100
AcDbEntity
  8
ALPHA
100
AcDbLine
 10
108.829362
 20
171.756653
 30
0.0
 11
108.079362
 21
171.756653
 31
0.0
  0
LINE
  5
176B
100
AcDbEntity
  8
ALPHA
100
AcDbLine
 10
108.079362
 20
172.506653
 30
0.0
 11
108.079362
 21
171.756653
 31
0.0
  0
LINE
  5
176C
100
AcDbEntity
  8
ALPHA
100
AcDbLine
 10
107.579362
 20
172.506653
 30
0.0
 11
108.079362
 21
172.506653
 31
0.0
  0
LINE
  5
176D
100
AcDbEntity
  8
ALPHA
100
AcDbLine
 10
107.579362
 20
171.756653
 30
0.0
 11
107.579362
 21
172.506653
 31
0.0
  0
LINE
  5
176E
100
AcDbEntity
  8
ALPHA
100
AcDbLine
 10
107.579362
 20
171.756653
 30
0.0
 11
106.829362
 21
171.756653
 31
0.0
  0
LINE
  5
176F
100
AcDbEntity
  8
ALPHA
100
AcDbLine
 10
106.829362
 20
171.756653
 30
0.0
 11
106.829362
 21
171.256653
 31
0.0
  0
LINE
  5
1770
100
AcDbEntity
  8
ALPHA
100
AcDbLine
 10
106.829362
 20
171.256653
 30
0.0
 11
107.579362
 21
171.256653
 31
0.0
  0
LINE
  5
1771
100
AcDbEntity
  8
ALPHA
100
AcDbLine
 10
107.579362
 20
170.506653
 30
0.0
 11
107.579362
 21
171.256653
 31
0.0
  0
LINE
  5
1772
100
AcDbEntity
  8
ALPHA
100
AcDbLine
 10
108.079362
 20
170.506653
 30
0.0
 11
107.579362
 21
170.506653
 31
0.0
  0
LINE
  5
1773
100
AcDbEntity
  8
ALPHA
100
AcDbLine
 10
108.079362
 20
171.256653
 30
0.0
 11
108.079362
 21
170.506653
 31
0.0
  0
LINE
  5
1774
100
AcDbEntity
  8
ALPHA
100
AcDbLine
 10
108.079362
 20
171.256653
 30
0.0
 11
108.829362
 21
171.256653
 31
0.0
  0
LINE
  5
1775
100
AcDbEntity
  8
ALPHA
100
AcDbLine
 10
107.058492
 20
161.356653
 30
0.0
 11
107.558492
 21
161.856653
 31
0.0
  0
LINE
  5
1776
100
AcDbEntity
  8
ALPHA
100
AcDbLine
 10
107.002429
 20
171.256653
 30
0.0
 11
107.502429
 21
171.756653
 31
0.0
  0
LINE
  5
1777
100
AcDbEntity
  8
ALPHA
100
AcDbLine
 10
106.829362
 20
163.606653
 30
0.0
 11
107.14003
 21
163.606653
 31
0.0
  0
LINE
  5
1778
100
AcDbEntity
  8
ALPHA
100
AcDbLine
 10
106.829362
 20
169.506653
 30
0.0
 11
107.229362
 21
169.506653
 31
0.0
  0
LINE
  5
1779
100
AcDbEntity
  8
ALPHA
100
AcDbLine
 10
110.479362
 20
173.355088
 30
0.0
 11
110.479362
 21
159.758217
 31
0.0
  0
LINE
  5
177A
100
AcDbEntity
  8
ALPHA
100
AcDbLine
 10
106.329362
 20
163.456653
 30
0.0
 11
108.879362
 21
163.456653
 31
0.0
  0
LINE
  5
177B
100
AcDbEntity
  8
ALPHA
100
AcDbLine
 10
108.879362
 20
163.766653
 30
0.0
 11
108.879362
 21
163.456653
 31
0.0
  0
LINE
  5
177C
100
AcDbEntity
  8
ALPHA
100
AcDbLine
 10
108.879362
 20
164.556653
 30
0.0
 11
108.879362
 21
164.266653
 31
0.0
  0
LINE
  5
177D
100
AcDbEntity
  8
ALPHA
100
AcDbLine
 10
106.329362
 20
164.556653
 30
0.0
 11
108.879362
 21
164.556653
 31
0.0
  0
LINE
  5
177E
100
AcDbEntity
  8
ALPHA
100
AcDbLine
 10
106.329362
 20
168.556653
 30
0.0
 11
108.879362
 21
168.556653
 31
0.0
  0
LINE
  5
177F
100
AcDbEntity
  8
ALPHA
100
AcDbLine
 10
108.879362
 20
168.846653
 30
0.0
 11
108.879362
 21
168.556653
 31
0.0
  0
LINE
  5
1780
100
AcDbEntity
  8
ALPHA
100
AcDbLine
 10
108.879362
 20
169.656653
 30
0.0
 11
108.879362
 21
169.346653
 31
0.0
  0
LINE
  5
1781
100
AcDbEntity
  8
ALPHA
100
AcDbLine
 10
106.329362
 20
169.656653
 30
0.0
 11
108.879362
 21
169.656653
 31
0.0
  0
LINE
  5
1782
100
AcDbEntity
  8
ALPHA
100
AcDbLine
 10
106.329362
 20
173.356653
 30
0.0
 11
110.429362
 21
173.356653
 31
0.0
  0
LINE
  5
1783
100
AcDbEntity
  8
ALPHA
100
AcDbLine
 10
106.329362
 20
159.756653
 30
0.0
 11
110.429362
 21
159.756653
 31
0.0
  0
LINE
  5
1784
100
AcDbEntity
  8
ALPHA
100
AcDbLine
 10
111.229362
 20
160.556653
 30
0.0
 11
111.229362
 21
172.556653
 31
0.0
  0
LINE
  5
1785
100
AcDbEntity
  8
ALPHA
100
AcDbLine
 10
106.329362
 20
163.456653
 30
0.0
 11
106.329362
 21
159.756653
 31
0.0
  0
ARC
  5
1786
100
AcDbEntity
  8
ALPHA
100
AcDbCircle
 10
110.429362
 20
172.556653
 30
0.0
 40
0.8
100
AcDbArc
 50
86.416678
 51
90.0
  0
ARC
  5
1787
100
AcDbEntity
  8
ALPHA
100
AcDbCircle
 10
110.429362
 20
160.556653
 30
0.0
 40
0.8
100
AcDbArc
 50
270.0
 51
273.583322
  0
ARC
  5
1788
100
AcDbEntity
  8
ALPHA
100
AcDbCircle
 10
110.429362
 20
160.556653
 30
0.0
 40
0.8
100
AcDbArc
 50
273.583322
 51
0.0
  0
ARC
  5
1789
100
AcDbEntity
  8
ALPHA
100
AcDbCircle
 10
110.429362
 20
172.556653
 30
0.0
 40
0.8
100
AcDbArc
 50
0.0
 51
86.416678
  0
LINE
  5
178A
100
AcDbEntity
  8
ALPHA
100
AcDbLine
 10
106.329362
 20
173.356653
 30
0.0
 11
106.329362
 21
169.656653
 31
0.0
  0
LINE
  5
178B
100
AcDbEntity
  8
ALPHA
100
AcDbLine
 10
106.329362
 20
168.556653
 30
0.0
 11
106.329362
 21
164.556653
 31
0.0
  0
LINE
  5
178C
100
AcDbEntity
  8
ALPHA
100
AcDbLine
 10
106.979362
 20
168.846653
 30
0.0
 11
106.979362
 21
168.556653
 31
0.0
  0
LINE
  5
178D
100
AcDbEntity
  8
ALPHA
100
AcDbLine
 10
106.979362
 20
164.556653
 30
0.0
 11
106.979362
 21
164.266653
 31
0.0
  0
ARC
  5
178E
100
AcDbEntity
  8
ALPHA
100
AcDbCircle
 10
108.424009
 20
166.556653
 30
0.0
 40
3.4
100
AcDbArc
 50
202.34729
 51
204.462611
  0
LINE
  5
178F
100
AcDbEntity
  8
ALPHA
100
AcDbLine
 10
105.279362
 20
165.263906
 30
0.0
 11
105.279362
 21
167.849399
 31
0.0
  0
ARC
  5
1790
100
AcDbEntity
  8
ALPHA
100
AcDbCircle
 10
108.424009
 20
166.556653
 30
0.0
 40
3.4
100
AcDbArc
 50
155.537389
 51
157.65271
  0
LINE
  5
1791
100
AcDbEntity
  8
ALPHA
100
AcDbLine
 10
107.229362
 20
169.346653
 30
0.0
 11
107.229362
 21
169.656653
 31
0.0
  0
LINE
  5
1792
100
AcDbEntity
  8
ALPHA
100
AcDbLine
 10
107.229362
 20
168.556653
 30
0.0
 11
107.229362
 21
168.846653
 31
0.0
  0
LINE
  5
1793
100
AcDbEntity
  8
ALPHA
100
AcDbLine
 10
107.229362
 20
164.266653
 30
0.0
 11
107.229362
 21
164.556653
 31
0.0
  0
LINE
  5
1794
100
AcDbEntity
  8
ALPHA
100
AcDbLine
 10
107.229362
 20
163.707263
 30
0.0
 11
107.229362
 21
163.766653
 31
0.0
  0
LINE
  5
1795
100
AcDbEntity
  8
ALPHA
100
AcDbLine
 10
108.879362
 20
163.586653
 30
0.0
 11
108.733666
 21
163.586653
 31
0.0
  0
LINE
  5
1796
100
AcDbEntity
  8
ALPHA
100
AcDbLine
 10
108.079362
 20
169.636653
 30
0.0
 11
108.079362
 21
169.488568
 31
0.0
  0
LINE
  5
1797
100
AcDbEntity
  8
ALPHA
100
AcDbLine
 10
108.079362
 20
164.556653
 30
0.0
 11
108.079362
 21
164.266653
 31
0.0
  0
LINE
  5
1798
100
AcDbEntity
  8
ALPHA
100
AcDbLine
 10
108.079362
 20
169.636653
 30
0.0
 11
108.879362
 21
169.636653
 31
0.0
  0
ARC
  5
1799
100
AcDbEntity
  8
ALPHA
100
AcDbCircle
 10
107.929362
 20
162.996653
 30
0.0
 40
1.0
100
AcDbArc
 50
129.548053
 51
152.543357
  0
ARC
  5
179A
100
AcDbEntity
  8
ALPHA
100
AcDbCircle
 10
107.929362
 20
162.996653
 30
0.0
 40
1.0
100
AcDbArc
 50
27.456643
 51
49.090909
  0
ARC
  5
179B
100
AcDbEntity
  8
ALPHA
100
AcDbCircle
 10
107.929362
 20
162.996653
 30
0.0
 40
1.0
100
AcDbArc
 50
49.090909
 51
49.801943
  0
ARC
  5
179C
100
AcDbEntity
  8
ALPHA
100
AcDbCircle
 10
107.929362
 20
162.996653
 30
0.0
 40
1.0
100
AcDbArc
 50
49.801943
 51
50.451947
  0
LINE
  5
179D
100
AcDbEntity
  8
ALPHA
100
AcDbLine
 10
109.079362
 20
169.258489
 30
0.0
 11
107.279362
 21
169.258489
 31
0.0
  0
LINE
  5
179E
100
AcDbEntity
  8
ALPHA
100
AcDbLine
 10
107.279362
 20
169.258489
 30
0.0
 11
106.779362
 21
169.346653
 31
0.0
  0
LINE
  5
179F
100
AcDbEntity
  8
ALPHA
100
AcDbLine
 10
109.079362
 20
169.258489
 30
0.0
 11
109.079362
 21
168.934816
 31
0.0
  0
LINE
  5
17A0
100
AcDbEntity
  8
ALPHA
100
AcDbLine
 10
109.079362
 20
168.934816
 30
0.0
 11
107.279362
 21
168.934816
 31
0.0
  0
LINE
  5
17A1
100
AcDbEntity
  8
ALPHA
100
AcDbLine
 10
107.279362
 20
169.258489
 30
0.0
 11
107.279362
 21
168.934816
 31
0.0
  0
LINE
  5
17A2
100
AcDbEntity
  8
ALPHA
100
AcDbLine
 10
107.279362
 20
168.934816
 30
0.0
 11
106.779362
 21
168.846653
 31
0.0
  0
LINE
  5
17A3
100
AcDbEntity
  8
ALPHA
100
AcDbLine
 10
106.679362
 20
168.846653
 30
0.0
 11
106.679362
 21
169.346653
 31
0.0
  0
LINE
  5
17A4
100
AcDbEntity
  8
ALPHA
100
AcDbLine
 10
109.579362
 20
169.346653
 30
0.0
 11
109.079362
 21
169.258489
 31
0.0
  0
LINE
  5
17A5
100
AcDbEntity
  8
ALPHA
100
AcDbLine
 10
109.579362
 20
168.846653
 30
0.0
 11
109.079362
 21
168.934816
 31
0.0
  0
LINE
  5
17A6
100
AcDbEntity
  8
ALPHA
100
AcDbLine
 10
109.579362
 20
168.846653
 30
0.0
 11
106.779362
 21
168.846653
 31
0.0
  0
LINE
  5
17A7
100
AcDbEntity
  8
ALPHA
100
AcDbLine
 10
109.579362
 20
169.346653
 30
0.0
 11
106.779362
 21
169.346653
 31
0.0
  0
LINE
  5
17A8
100
AcDbEntity
  8
ALPHA
100
AcDbLine
 10
109.579362
 20
169.346653
 30
0.0
 11
109.579362
 21
168.846653
 31
0.0
  0
LINE
  5
17A9
100
AcDbEntity
  8
ALPHA
100
AcDbLine
 10
106.779362
 20
169.346653
 30
0.0
 11
106.779362
 21
168.846653
 31
0.0
  0
LINE
  5
17AA
100
AcDbEntity
  8
ALPHA
100
AcDbLine
 10
106.479362
 20
168.846653
 30
0.0
 11
106.479362
 21
169.346653
 31
0.0
  0
LINE
  5
17AB
100
AcDbEntity
  8
ALPHA
100
AcDbLine
 10
106.679362
 20
168.846653
 30
0.0
 11
106.479362
 21
168.846653
 31
0.0
  0
LINE
  5
17AC
100
AcDbEntity
  8
ALPHA
100
AcDbLine
 10
106.679362
 20
169.346653
 30
0.0
 11
106.479362
 21
169.346653
 31
0.0
  0
LINE
  5
17AD
100
AcDbEntity
  8
ALPHA
100
AcDbLine
 10
106.679362
 20
169.346653
 30
0.0
 11
106.779362
 21
169.346653
 31
0.0
  0
LINE
  5
17AE
100
AcDbEntity
  8
ALPHA
100
AcDbLine
 10
106.779362
 20
168.846653
 30
0.0
 11
106.679362
 21
168.846653
 31
0.0
  0
LINE
  5
17AF
100
AcDbEntity
  8
ALPHA
100
AcDbLine
 10
109.079362
 20
164.178489
 30
0.0
 11
107.279362
 21
164.178489
 31
0.0
  0
LINE
  5
17B0
100
AcDbEntity
  8
ALPHA
100
AcDbLine
 10
107.279362
 20
164.178489
 30
0.0
 11
106.779362
 21
164.266653
 31
0.0
  0
LINE
  5
17B1
100
AcDbEntity
  8
ALPHA
100
AcDbLine
 10
109.079362
 20
164.178489
 30
0.0
 11
109.079362
 21
163.854816
 31
0.0
  0
LINE
  5
17B2
100
AcDbEntity
  8
ALPHA
100
AcDbLine
 10
109.079362
 20
163.854816
 30
0.0
 11
107.279362
 21
163.854816
 31
0.0
  0
LINE
  5
17B3
100
AcDbEntity
  8
ALPHA
100
AcDbLine
 10
107.279362
 20
164.178489
 30
0.0
 11
107.279362
 21
163.854816
 31
0.0
  0
LINE
  5
17B4
100
AcDbEntity
  8
ALPHA
100
AcDbLine
 10
107.279362
 20
163.854816
 30
0.0
 11
106.779362
 21
163.766653
 31
0.0
  0
LINE
  5
17B5
100
AcDbEntity
  8
ALPHA
100
AcDbLine
 10
106.679362
 20
163.766653
 30
0.0
 11
106.679362
 21
164.266653
 31
0.0
  0
LINE
  5
17B6
100
AcDbEntity
  8
ALPHA
100
AcDbLine
 10
109.579362
 20
164.266653
 30
0.0
 11
109.079362
 21
164.178489
 31
0.0
  0
LINE
  5
17B7
100
AcDbEntity
  8
ALPHA
100
AcDbLine
 10
109.579362
 20
163.766653
 30
0.0
 11
109.079362
 21
163.854816
 31
0.0
  0
LINE
  5
17B8
100
AcDbEntity
  8
ALPHA
100
AcDbLine
 10
109.579362
 20
163.766653
 30
0.0
 11
106.779362
 21
163.766653
 31
0.0
  0
LINE
  5
17B9
100
AcDbEntity
  8
ALPHA
100
AcDbLine
 10
109.579362
 20
164.266653
 30
0.0
 11
106.779362
 21
164.266653
 31
0.0
  0
LINE
  5
17BA
100
AcDbEntity
  8
ALPHA
100
AcDbLine
 10
109.579362
 20
164.266653
 30
0.0
 11
109.579362
 21
163.766653
 31
0.0
  0
LINE
  5
17BB
100
AcDbEntity
  8
ALPHA
100
AcDbLine
 10
106.779362
 20
164.266653
 30
0.0
 11
106.779362
 21
163.766653
 31
0.0
  0
LINE
  5
17BC
100
AcDbEntity
  8
ALPHA
100
AcDbLine
 10
106.479362
 20
163.766653
 30
0.0
 11
106.479362
 21
164.266653
 31
0.0
  0
LINE
  5
17BD
100
AcDbEntity
  8
ALPHA
100
AcDbLine
 10
106.679362
 20
163.766653
 30
0.0
 11
106.479362
 21
163.766653
 31
0.0
  0
LINE
  5
17BE
100
AcDbEntity
  8
ALPHA
100
AcDbLine
 10
106.679362
 20
164.266653
 30
0.0
 11
106.479362
 21
164.266653
 31
0.0
  0
LINE
  5
17BF
100
AcDbEntity
  8
ALPHA
100
AcDbLine
 10
106.679362
 20
164.266653
 30
0.0
 11
106.779362
 21
164.266653
 31
0.0
  0
LINE
  5
17C0
100
AcDbEntity
  8
ALPHA
100
AcDbLine
 10
106.779362
 20
163.766653
 30
0.0
 11
106.679362
 21
163.766653
 31
0.0
  0
ARC
  5
17C1
100
AcDbEntity
  8
ALPHA
100
AcDbCircle
 10
108.229362
 20
168.806653
 30
0.0
 40
0.7
100
AcDbArc
 50
90.0
 51
129.411417
  0
ARC
  5
17C2
100
AcDbEntity
  8
ALPHA
100
AcDbCircle
 10
108.229362
 20
168.806653
 30
0.0
 40
0.7
100
AcDbArc
 50
176.71612
 51
200.97988
  0
ARC
  5
17C3
100
AcDbEntity
  8
ALPHA
100
AcDbCircle
 10
108.229362
 20
168.806653
 30
0.0
 40
0.7
100
AcDbArc
 50
50.588583
 51
90.0
  0
DIMENSION
  5
17D2
100
AcDbEntity
  8
COTATION1
100
AcDbDimension
  2
*D3
 10
111.229362
 20
150.566884
 30
0.0
 11
120.788886
 21
152.816884
 31
0.0
  3
SC_STAND
100
AcDbAlignedDimension
 13
105.329362
 23
160.656653
 33
0.0
 14
111.229362
 24
160.556653
 34
0.0
100
AcDbRotatedDimension
  0
DIMENSION
  5
17E1
100
AcDbEntity
  8
COTATION1
100
AcDbDimension
  2
*D4
 10
126.023946
 20
173.356653
 30
0.0
 11
123.773946
 21
166.556653
 31
0.0
  3
SC_STAND
100
AcDbAlignedDimension
 13
110.429362
 23
159.756653
 33
0.0
 14
110.429362
 24
173.356653
 34
0.0
 50
90.0
100
AcDbRotatedDimension
  0
VIEWPORT
  5
1FE
100
AcDbEntity
 67
     1
  8
0
100
AcDbViewport
 10
251.108558
 20
148.5
 30
0.0
 40
8035.473851
 41
4752.0
 68
    -1
 69
     1
1001
ACAD
1000
MVIEW
1002
{
1070
    16
1010
0.0
1020
0.0
1030
0.0
1010
0.0
1020
0.0
1030
1.0
1040
0.0
1040
4752.0
1040
251.108558
1040
148.5
1040
50.0
1040
0.0
1040
0.0
1070
     0
1070
   100
1070
     1
1070
     1
1070
     0
1070
     0
1070
     0
1070
     0
1040
0.0
1040
0.0
1040
0.0
1040
1.0
1040
1.0
1040
0.0
1040
0.0
1070
     0
1002
{
1002
}
1002
}
  0
ENDSEC
  0
SECTION
  2
OBJECTS
  0
DICTIONARY
  5
17F2
100
AcDbDictionary
  3
ACAD_GROUP
350
17F3
  3
ACAD_MLINESTYLE
350
1800
  3
ACDBVARIABLEDICTIONARY
350
183F
  0
DICTIONARY
  5
17F3
102
{ACAD_REACTORS
330
17F2
102
}
100
AcDbDictionary
  0
DICTIONARY
  5
1800
102
{ACAD_REACTORS
330
17F2
102
}
100
AcDbDictionary
  3
STANDARD
350
1801
  0
DICTIONARY
  5
183F
102
{ACAD_REACTORS
330
17F2
102
}
100
AcDbDictionary
  3
DIMADEC
350
1840
  0
MLINESTYLE
  5
1801
102
{ACAD_REACTORS
330
1800
102
}
100
AcDbMlineStyle
  2
STANDARD
 70
     0
  3

 62
   256
 51
90.0
 52
90.0
 71
     2
 49
0.5
 62
   256
  6
BYLAYER
 49
-0.5
 62
   256
  6
BYLAYER
  0
DICTIONARYVAR
  5
1840
102
{ACAD_REACTORS
330
183F
102
}
100
DictionaryVariables
280
     0
  1
0
  0
ENDSEC
  0
EOF
