  0
SECTION
  2
HEADER
  9
$ACADVER
  1
AC1014
  9
$ACADMAINTVER
 70
     9
  9
$DWGCODEPAGE
  3
ANSI_1252
  9
$INSBASE
 10
0.0
 20
0.0
 30
0.0
  9
$EXTMIN
 10
0.0
 20
0.0475228887496178
 30
0.0
  9
$EXTMAX
 10
65.60000399999999
 20
41.19009155499847
 30
0.0
  9
$LIMMIN
 10
0.0
 20
0.0
  9
$LIMMAX
 10
16.40000099999999
 20
10.25
  9
$ORTHOMODE
 70
     0
  9
$REGENMODE
 70
     1
  9
$FILLMODE
 70
     1
  9
$QTEXTMODE
 70
     0
  9
$MIRRTEXT
 70
     1
  9
$DRAGMODE
 70
     2
  9
$LTSCALE
 40
1.0
  9
$OSMODE
 70
    39
  9
$ATTMODE
 70
     1
  9
$TEXTSIZE
 40
0.2
  9
$TRACEWID
 40
0.05
  9
$TEXTSTYLE
  7
ROMANS
  9
$CLAYER
  8
0
  9
$CELTYPE
  6
BYLAYER
  9
$CECOLOR
 62
   256
  9
$CELTSCALE
 40
1.0
  9
$DELOBJ
 70
     1
  9
$DISPSILH
 70
     0
  9
$DIMSCALE
 40
0.0
  9
$DIMASZ
 40
0.125
  9
$DIMEXO
 40
0.0625
  9
$DIMDLI
 40
0.38
  9
$DIMRND
 40
0.01
  9
$DIMDLE
 40
0.0
  9
$DIMEXE
 40
0.0625
  9
$DIMTP
 40
0.0
  9
$DIMTM
 40
0.0
  9
$DIMTXT
 40
0.08
  9
$DIMCEN
 40
0.09
  9
$DIMTSZ
 40
0.0
  9
$DIMTOL
 70
     0
  9
$DIMLIM
 70
     0
  9
$DIMTIH
 70
     1
  9
$DIMTOH
 70
     1
  9
$DIMSE1
 70
     0
  9
$DIMSE2
 70
     0
  9
$DIMTAD
 70
     0
  9
$DIMZIN
 70
     4
  9
$DIMBLK
  1

  9
$DIMASO
 70
     1
  9
$DIMSHO
 70
     1
  9
$DIMPOST
  1

  9
$DIMAPOST
  1

  9
$DIMALT
 70
     0
  9
$DIMALTD
 70
     1
  9
$DIMALTF
 40
25.4
  9
$DIMLFAC
 40
1.0
  9
$DIMTOFL
 70
     0
  9
$DIMTVP
 40
0.0
  9
$DIMTIX
 70
     0
  9
$DIMSOXD
 70
     0
  9
$DIMSAH
 70
     0
  9
$DIMBLK1
  1

  9
$DIMBLK2
  1

  9
$DIMSTYLE
  2
1
  9
$DIMCLRD
 70
   256
  9
$DIMCLRE
 70
   256
  9
$DIMCLRT
 70
   256
  9
$DIMTFAC
 40
1.0
  9
$DIMGAP
 40
0.04
  9
$DIMJUST
 70
     0
  9
$DIMSD1
 70
     0
  9
$DIMSD2
 70
     0
  9
$DIMTOLJ
 70
     1
  9
$DIMTZIN
 70
     0
  9
$DIMALTZ
 70
     0
  9
$DIMALTTZ
 70
     0
  9
$DIMFIT
 70
     3
  9
$DIMUPT
 70
     0
  9
$DIMUNIT
 70
     2
  9
$DIMDEC
 70
     2
  9
$DIMTDEC
 70
     2
  9
$DIMALTU
 70
     2
  9
$DIMALTTD
 70
     1
  9
$DIMTXSTY
  7
ROMANS
  9
$DIMAUNIT
 70
     0
  9
$LUNITS
 70
     2
  9
$LUPREC
 70
     4
  9
$SKETCHINC
 40
0.1
  9
$FILLETRAD
 40
0.5
  9
$AUNITS
 70
     0
  9
$AUPREC
 70
     0
  9
$MENU
  1
.
  9
$ELEVATION
 40
0.0
  9
$PELEVATION
 40
0.0
  9
$THICKNESS
 40
0.0
  9
$LIMCHECK
 70
     0
  9
$BLIPMODE
 70
     0
  9
$CHAMFERA
 40
0.5
  9
$CHAMFERB
 40
0.5
  9
$CHAMFERC
 40
1.0
  9
$CHAMFERD
 40
0.0
  9
$SKPOLY
 70
     0
  9
$TDCREATE
 40
2451764.535041909
  9
$TDUPDATE
 40
2451967.661402534
  9
$TDINDWG
 40
0.4578729051
  9
$TDUSRTIMER
 40
0.4578726736
  9
$USRTIMER
 70
     1
  9
$ANGBASE
 50
0.0
  9
$ANGDIR
 70
     0
  9
$PDMODE
 70
     0
  9
$PDSIZE
 40
0.0
  9
$PLINEWID
 40
0.0
  9
$COORDS
 70
     1
  9
$SPLFRAME
 70
     0
  9
$SPLINETYPE
 70
     6
  9
$SPLINESEGS
 70
     8
  9
$ATTDIA
 70
     0
  9
$ATTREQ
 70
     1
  9
$HANDLING
 70
-16383
  9
$HANDSEED
  5
9A03
  9
$SURFTAB1
 70
     6
  9
$SURFTAB2
 70
     6
  9
$SURFTYPE
 70
     6
  9
$SURFU
 70
     6
  9
$SURFV
 70
     6
  9
$UCSNAME
  2

  9
$UCSORG
 10
0.0
 20
0.0
 30
0.0
  9
$UCSXDIR
 10
1.0
 20
0.0
 30
0.0
  9
$UCSYDIR
 10
0.0
 20
1.0
 30
0.0
  9
$PUCSNAME
  2

  9
$PUCSORG
 10
0.0
 20
0.0
 30
0.0
  9
$PUCSXDIR
 10
1.0
 20
0.0
 30
0.0
  9
$PUCSYDIR
 10
0.0
 20
1.0
 30
0.0
  9
$USERI1
 70
     0
  9
$USERI2
 70
     0
  9
$USERI3
 70
     0
  9
$USERI4
 70
     0
  9
$USERI5
 70
     0
  9
$USERR1
 40
0.0
  9
$USERR2
 40
0.0
  9
$USERR3
 40
0.0
  9
$USERR4
 40
0.0
  9
$USERR5
 40
0.0
  9
$WORLDVIEW
 70
     1
  9
$SHADEDGE
 70
     3
  9
$SHADEDIF
 70
    70
  9
$TILEMODE
 70
     1
  9
$MAXACTVP
 70
    48
  9
$PINSBASE
 10
0.0
 20
0.0
 30
0.0
  9
$PLIMCHECK
 70
     0
  9
$PEXTMIN
 10
0.0
 20
-0.1507193079929352
 30
0.0
  9
$PEXTMAX
 10
16.40000099999999
 20
10.25
 30
0.0
  9
$PLIMMIN
 10
-0.3022988315385811
 20
-0.4421500682141223
  9
$PLIMMAX
 10
16.69770068786963
 20
10.55784969148998
  9
$UNITMODE
 70
     0
  9
$VISRETAIN
 70
     1
  9
$PLINEGEN
 70
     0
  9
$PSLTSCALE
 70
     1
  9
$TREEDEPTH
 70
  3020
  9
$PICKSTYLE
 70
     1
  9
$CMLSTYLE
  2
STANDARD
  9
$CMLJUST
 70
     0
  9
$CMLSCALE
 40
1.0
  9
$PROXYGRAPHICS
 70
     1
  9
$MEASUREMENT
 70
     0
  0
ENDSEC
  0
SECTION
  2
CLASSES
  0
CLASS
  1
ACDBDICTIONARYWDFLT
  2
AcDbDictionaryWithDefault
  3
AutoCAD 2000
 90
        0
280
     0
281
     0
  0
CLASS
  1
ACDBPLACEHOLDER
  2
AcDbPlaceHolder
  3
AutoCAD 2000
 90
        0
280
     0
281
     0
  0
CLASS
  1
LAYOUT
  2
AcDbLayout
  3
AutoCAD 2000
 90
        0
280
     0
281
     0
  0
CLASS
  1
LONG_TRANSACTION
  2
AcDbLongTransaction
  3
AutoCAD 2000
 90
        0
280
     0
281
     0
  0
CLASS
  1
LWPOLYLINE
  2
AcDbPolyline
  3
AutoCAD 2000
 90
        0
280
     0
281
     1
  0
CLASS
  1
HATCH
  2
AcDbHatch
  3
AutoCAD 2000
 90
        0
280
     0
281
     1
  0
CLASS
  1
XRECORD
  2
AcDbXrecord
  3
AutoCAD 2000
 90
        0
280
     0
281
     0
  0
CLASS
  1
LONG_TRANSACTION
  2
AcDbLongTransaction
  3
AutoCAD 2000
 90
        0
280
     0
281
     0
  0
CLASS
  1
LWPOLYLINE
  2
AcDbPolyline
  3
AutoCAD 2000
 90
        0
280
     0
281
     1
  0
CLASS
  1
HATCH
  2
AcDbHatch
  3
AutoCAD 2000
 90
        0
280
     0
281
     1
  0
CLASS
  1
XRECORD
  2
AcDbXrecord
  3
AutoCAD 2000
 90
        0
280
     0
281
     0
  0
CLASS
  1
LONG_TRANSACTION
  2
AcDbLongTransaction
  3
AutoCAD 2000
 90
        0
280
     0
281
     0
  0
CLASS
  1
LWPOLYLINE
  2
AcDbPolyline
  3
AutoCAD 2000
 90
        0
280
     0
281
     1
  0
CLASS
  1
HATCH
  2
AcDbHatch
  3
AutoCAD 2000
 90
        0
280
     0
281
     1
  0
CLASS
  1
XRECORD
  2
AcDbXrecord
  3
AutoCAD 2000
 90
        0
280
     0
281
     0
  0
CLASS
  1
PLOTSETTINGS
  2
AcDbPlotSettings
  3
AutoCAD 2000
 90
        0
280
     0
281
     0
  0
CLASS
  1
ACME_DOCUMENT
  2
AcMeDbDoc
  3
AcMeServices
 90
        0
280
     0
281
     0
  0
CLASS
  1
AMGSETTINGSOBJ
  2
AmgSettingsObj
  3
"AcadM|Product Description: AutoCAD Mechanical 2000|Company: Autodesk"
 90
        0
280
     0
281
     0
  0
CLASS
  1
ACMESCOPE
  2
AcMeScope
  3
AcMeServices
 90
        0
280
     0
281
     0
  0
CLASS
  1
ACMECOMMANDHISTORY
  2
AcMeCommandHistory
  3
AcMeServices
 90
        0
280
     0
281
     0
  0
CLASS
  1
DICTIONARYVAR
  2
AcDbDictionaryVar
  3
AutoCAD 2000
 90
        0
280
     0
281
     0
  0
CLASS
  1
ACIMSYSVARMAN
  2
AcImSysVarManager
  3
AcMeServices
 90
        0
280
     0
281
     0
  0
CLASS
  1
ACIMREALSYSVAR
  2
AcImRealSysVar
  3
AcMeServices
 90
        0
280
     0
281
     0
  0
CLASS
  1
ACIMINTSYSVAR
  2
AcImIntSysVar
  3
AcMeServices
 90
        0
280
     0
281
     0
  0
CLASS
  1
ACMEDRAWINGMAN
  2
AcMeDrawingMan
  3
AcMeServices
 90
        0
280
     0
281
     0
  0
CLASS
  1
ACMEVIEW
  2
AcMeView
  3
AcMeServices
 90
        0
280
     0
281
     0
  0
CLASS
  1
ACDBENTITYCACHE
  2
AcMeEntityCache
  3
AcMeServices
 90
        0
280
     0
281
     0
  0
CLASS
  1
GSMANAGER
  2
AcMeGSManager
  3
AcMeServices
 90
        0
280
     0
281
     0
  0
CLASS
  1
AmdtInternalReactor
  2
AmdtInternalReactor
  3
AcMeServices
 90
        0
280
     0
281
     0
  0
CLASS
  1
ACMESTATEMGR
  2
AcMeStateMgr
  3
AcMeServices
 90
        0
280
     0
281
     0
  0
CLASS
  1
ACME_DATABASE
  2
AcMeDbDatabase
  3
AcMeServices
 90
        0
280
     0
281
     0
  0
CLASS
  1
ACRFINSADJUSTERMGR
  2
AcRfInsAdjusterMgr
  3
AcMeServices
 90
        0
280
     0
281
     0
  0
CLASS
  1
ACMDATADICTIONARY
  2
AcmDataDictionary
  3
"AcmSymBB|Product Description: AutoCAD Mechanical 2000|Company: Autodesk"
 90
        0
280
     0
281
     0
  0
CLASS
  1
ACMDATAENTRYBLOCK
  2
AcmDataEntryBlock
  3
"AcmSymBB|Product Description: AutoCAD Mechanical 2000|Company: Autodesk"
 90
        0
280
     0
281
     0
  0
CLASS
  1
AMGOBJPROPCFG
  2
AmgObjPropCfg
  3
"AmgLay|Product Description: AutoCAD Mechanical 2000|Company: Autodesk"
 90
        1
280
     0
281
     0
  0
CLASS
  1
ACAMGFILTERDAT
  2
AcAmgFilterDat
  3
"AcadM|Product Description: AutoCAD Mechanical 2000|Company: Autodesk"
 90
        0
280
     0
281
     0
  0
CLASS
  1
LAYER_INDEX
  2
AcDbLayerIndex
  3
AutoCAD 2000
 90
        0
280
     0
281
     0
  0
CLASS
  1
IDBUFFER
  2
AcDbIdBuffer
  3
AutoCAD 2000
 90
        0
280
     0
281
     0
  0
CLASS
  1
LONG_TRANSACTION
  2
AcDbLongTransaction
  3
AutoCAD 2000
 90
        0
280
     0
281
     0
  0
CLASS
  1
LWPOLYLINE
  2
AcDbPolyline
  3
AutoCAD 2000
 90
        0
280
     0
281
     1
  0
CLASS
  1
HATCH
  2
AcDbHatch
  3
AutoCAD 2000
 90
        0
280
     0
281
     1
  0
CLASS
  1
XRECORD
  2
AcDbXrecord
  3
AutoCAD 2000
 90
        0
280
     0
281
     0
  0
CLASS
  1
LONG_TRANSACTION
  2
AcDbLongTransaction
  3
AutoCAD 2000
 90
        0
280
     0
281
     0
  0
CLASS
  1
LWPOLYLINE
  2
AcDbPolyline
  3
AutoCAD 2000
 90
        0
280
     0
281
     1
  0
CLASS
  1
HATCH
  2
AcDbHatch
  3
AutoCAD 2000
 90
        0
280
     0
281
     1
  0
CLASS
  1
XRECORD
  2
AcDbXrecord
  3
AutoCAD 2000
 90
        0
280
     0
281
     0
  0
CLASS
  1
LONG_TRANSACTION
  2
AcDbLongTransaction
  3
AutoCAD 2000
 90
        0
280
     0
281
     0
  0
CLASS
  1
LWPOLYLINE
  2
AcDbPolyline
  3
AutoCAD 2000
 90
        0
280
     0
281
     1
  0
CLASS
  1
HATCH
  2
AcDbHatch
  3
AutoCAD 2000
 90
        0
280
     0
281
     1
  0
CLASS
  1
XRECORD
  2
AcDbXrecord
  3
AutoCAD 2000
 90
        0
280
     0
281
     0
  0
CLASS
  1
LONG_TRANSACTION
  2
AcDbLongTransaction
  3
AutoCAD 2000
 90
        0
280
     0
281
     0
  0
CLASS
  1
LWPOLYLINE
  2
AcDbPolyline
  3
AutoCAD 2000
 90
        0
280
     0
281
     1
  0
CLASS
  1
HATCH
  2
AcDbHatch
  3
AutoCAD 2000
 90
        0
280
     0
281
     1
  0
CLASS
  1
XRECORD
  2
AcDbXrecord
  3
AutoCAD 2000
 90
        0
280
     0
281
     0
  0
CLASS
  1
LONG_TRANSACTION
  2
AcDbLongTransaction
  3
AutoCAD 2000
 90
        0
280
     0
281
     0
  0
CLASS
  1
LWPOLYLINE
  2
AcDbPolyline
  3
AutoCAD 2000
 90
        0
280
     0
281
     1
  0
CLASS
  1
HATCH
  2
AcDbHatch
  3
AutoCAD 2000
 90
        0
280
     0
281
     1
  0
CLASS
  1
XRECORD
  2
AcDbXrecord
  3
AutoCAD 2000
 90
        0
280
     0
281
     0
  0
CLASS
  1
LONG_TRANSACTION
  2
AcDbLongTransaction
  3
AutoCAD 2000
 90
        0
280
     0
281
     0
  0
CLASS
  1
LWPOLYLINE
  2
AcDbPolyline
  3
AutoCAD 2000
 90
        0
280
     0
281
     1
  0
CLASS
  1
HATCH
  2
AcDbHatch
  3
AutoCAD 2000
 90
        0
280
     0
281
     1
  0
CLASS
  1
XRECORD
  2
AcDbXrecord
  3
AutoCAD 2000
 90
        0
280
     0
281
     0
  0
CLASS
  1
LONG_TRANSACTION
  2
AcDbLongTransaction
  3
AutoCAD 2000
 90
        0
280
     0
281
     0
  0
CLASS
  1
LWPOLYLINE
  2
AcDbPolyline
  3
AutoCAD 2000
 90
        0
280
     0
281
     1
  0
CLASS
  1
HATCH
  2
AcDbHatch
  3
AutoCAD 2000
 90
        0
280
     0
281
     1
  0
CLASS
  1
XRECORD
  2
AcDbXrecord
  3
AutoCAD 2000
 90
        0
280
     0
281
     0
  0
CLASS
  1
LONG_TRANSACTION
  2
AcDbLongTransaction
  3
AutoCAD 2000
 90
        0
280
     0
281
     0
  0
CLASS
  1
LWPOLYLINE
  2
AcDbPolyline
  3
AutoCAD 2000
 90
        0
280
     0
281
     1
  0
CLASS
  1
HATCH
  2
AcDbHatch
  3
AutoCAD 2000
 90
        0
280
     0
281
     1
  0
CLASS
  1
XRECORD
  2
AcDbXrecord
  3
AutoCAD 2000
 90
        0
280
     0
281
     0
  0
CLASS
  1
LONG_TRANSACTION
  2
AcDbLongTransaction
  3
AutoCAD 2000
 90
        0
280
     0
281
     0
  0
CLASS
  1
LWPOLYLINE
  2
AcDbPolyline
  3
AutoCAD 2000
 90
        0
280
     0
281
     1
  0
CLASS
  1
HATCH
  2
AcDbHatch
  3
AutoCAD 2000
 90
        0
280
     0
281
     1
  0
CLASS
  1
XRECORD
  2
AcDbXrecord
  3
AutoCAD 2000
 90
        0
280
     0
281
     0
  0
CLASS
  1
LONG_TRANSACTION
  2
AcDbLongTransaction
  3
AutoCAD 2000
 90
        0
280
     0
281
     0
  0
CLASS
  1
LWPOLYLINE
  2
AcDbPolyline
  3
AutoCAD 2000
 90
        0
280
     0
281
     1
  0
CLASS
  1
HATCH
  2
AcDbHatch
  3
AutoCAD 2000
 90
        0
280
     0
281
     1
  0
CLASS
  1
XRECORD
  2
AcDbXrecord
  3
AutoCAD 2000
 90
        0
280
     0
281
     0
  0
CLASS
  1
LONG_TRANSACTION
  2
AcDbLongTransaction
  3
AutoCAD 2000
 90
        0
280
     0
281
     0
  0
CLASS
  1
LWPOLYLINE
  2
AcDbPolyline
  3
AutoCAD 2000
 90
        0
280
     0
281
     1
  0
CLASS
  1
HATCH
  2
AcDbHatch
  3
AutoCAD 2000
 90
        0
280
     0
281
     1
  0
CLASS
  1
XRECORD
  2
AcDbXrecord
  3
AutoCAD 2000
 90
        0
280
     0
281
     0
  0
CLASS
  1
LONG_TRANSACTION
  2
AcDbLongTransaction
  3
AutoCAD 2000
 90
        0
280
     0
281
     0
  0
CLASS
  1
LWPOLYLINE
  2
AcDbPolyline
  3
AutoCAD 2000
 90
        0
280
     0
281
     1
  0
CLASS
  1
HATCH
  2
AcDbHatch
  3
AutoCAD 2000
 90
        0
280
     0
281
     1
  0
CLASS
  1
XRECORD
  2
AcDbXrecord
  3
AutoCAD 2000
 90
        0
280
     0
281
     0
  0
CLASS
  1
LONG_TRANSACTION
  2
AcDbLongTransaction
  3
AutoCAD 2000
 90
        0
280
     0
281
     0
  0
CLASS
  1
LWPOLYLINE
  2
AcDbPolyline
  3
AutoCAD 2000
 90
        0
280
     0
281
     1
  0
CLASS
  1
HATCH
  2
AcDbHatch
  3
AutoCAD 2000
 90
        0
280
     0
281
     1
  0
CLASS
  1
XRECORD
  2
AcDbXrecord
  3
AutoCAD 2000
 90
        0
280
     0
281
     0
  0
CLASS
  1
LONG_TRANSACTION
  2
AcDbLongTransaction
  3
AutoCAD 2000
 90
        0
280
     0
281
     0
  0
CLASS
  1
LWPOLYLINE
  2
AcDbPolyline
  3
AutoCAD 2000
 90
        0
280
     0
281
     1
  0
CLASS
  1
HATCH
  2
AcDbHatch
  3
AutoCAD 2000
 90
        0
280
     0
281
     1
  0
CLASS
  1
XRECORD
  2
AcDbXrecord
  3
AutoCAD 2000
 90
        0
280
     0
281
     0
  0
CLASS
  1
LONG_TRANSACTION
  2
AcDbLongTransaction
  3
AutoCAD 2000
 90
        0
280
     0
281
     0
  0
CLASS
  1
LWPOLYLINE
  2
AcDbPolyline
  3
AutoCAD 2000
 90
        0
280
     0
281
     1
  0
CLASS
  1
HATCH
  2
AcDbHatch
  3
AutoCAD 2000
 90
        0
280
     0
281
     1
  0
CLASS
  1
XRECORD
  2
AcDbXrecord
  3
AutoCAD 2000
 90
        0
280
     0
281
     0
  0
CLASS
  1
LONG_TRANSACTION
  2
AcDbLongTransaction
  3
AutoCAD 2000
 90
        0
280
     0
281
     0
  0
CLASS
  1
LWPOLYLINE
  2
AcDbPolyline
  3
AutoCAD 2000
 90
        0
280
     0
281
     1
  0
CLASS
  1
HATCH
  2
AcDbHatch
  3
AutoCAD 2000
 90
        0
280
     0
281
     1
  0
CLASS
  1
XRECORD
  2
AcDbXrecord
  3
AutoCAD 2000
 90
        0
280
     0
281
     0
  0
CLASS
  1
LONG_TRANSACTION
  2
AcDbLongTransaction
  3
AutoCAD 2000
 90
        0
280
     0
281
     0
  0
CLASS
  1
LWPOLYLINE
  2
AcDbPolyline
  3
AutoCAD 2000
 90
        0
280
     0
281
     1
  0
CLASS
  1
HATCH
  2
AcDbHatch
  3
AutoCAD 2000
 90
        0
280
     0
281
     1
  0
CLASS
  1
XRECORD
  2
AcDbXrecord
  3
AutoCAD 2000
 90
        0
280
     0
281
     0
  0
CLASS
  1
LONG_TRANSACTION
  2
AcDbLongTransaction
  3
AutoCAD 2000
 90
        0
280
     0
281
     0
  0
CLASS
  1
LWPOLYLINE
  2
AcDbPolyline
  3
AutoCAD 2000
 90
        0
280
     0
281
     1
  0
CLASS
  1
HATCH
  2
AcDbHatch
  3
AutoCAD 2000
 90
        0
280
     0
281
     1
  0
CLASS
  1
XRECORD
  2
AcDbXrecord
  3
AutoCAD 2000
 90
        0
280
     0
281
     0
  0
CLASS
  1
LONG_TRANSACTION
  2
AcDbLongTransaction
  3
AutoCAD 2000
 90
        0
280
     0
281
     0
  0
CLASS
  1
LWPOLYLINE
  2
AcDbPolyline
  3
AutoCAD 2000
 90
        0
280
     0
281
     1
  0
CLASS
  1
HATCH
  2
AcDbHatch
  3
AutoCAD 2000
 90
        0
280
     0
281
     1
  0
CLASS
  1
XRECORD
  2
AcDbXrecord
  3
AutoCAD 2000
 90
        0
280
     0
281
     0
  0
CLASS
  1
LONG_TRANSACTION
  2
AcDbLongTransaction
  3
AutoCAD 2000
 90
        0
280
     0
281
     0
  0
CLASS
  1
LWPOLYLINE
  2
AcDbPolyline
  3
AutoCAD 2000
 90
        0
280
     0
281
     1
  0
CLASS
  1
HATCH
  2
AcDbHatch
  3
AutoCAD 2000
 90
        0
280
     0
281
     1
  0
CLASS
  1
XRECORD
  2
AcDbXrecord
  3
AutoCAD 2000
 90
        0
280
     0
281
     0
  0
CLASS
  1
LONG_TRANSACTION
  2
AcDbLongTransaction
  3
AutoCAD 2000
 90
        0
280
     0
281
     0
  0
CLASS
  1
LWPOLYLINE
  2
AcDbPolyline
  3
AutoCAD 2000
 90
        0
280
     0
281
     1
  0
CLASS
  1
HATCH
  2
AcDbHatch
  3
AutoCAD 2000
 90
        0
280
     0
281
     1
  0
CLASS
  1
XRECORD
  2
AcDbXrecord
  3
AutoCAD 2000
 90
        0
280
     0
281
     0
  0
CLASS
  1
LONG_TRANSACTION
  2
AcDbLongTransaction
  3
AutoCAD 2000
 90
        0
280
     0
281
     0
  0
CLASS
  1
LWPOLYLINE
  2
AcDbPolyline
  3
AutoCAD 2000
 90
        0
280
     0
281
     1
  0
CLASS
  1
HATCH
  2
AcDbHatch
  3
AutoCAD 2000
 90
        0
280
     0
281
     1
  0
CLASS
  1
XRECORD
  2
AcDbXrecord
  3
AutoCAD 2000
 90
        0
280
     0
281
     0
  0
CLASS
  1
LONG_TRANSACTION
  2
AcDbLongTransaction
  3
AutoCAD 2000
 90
        0
280
     0
281
     0
  0
CLASS
  1
LWPOLYLINE
  2
AcDbPolyline
  3
AutoCAD 2000
 90
        0
280
     0
281
     1
  0
CLASS
  1
HATCH
  2
AcDbHatch
  3
AutoCAD 2000
 90
        0
280
     0
281
     1
  0
CLASS
  1
XRECORD
  2
AcDbXrecord
  3
AutoCAD 2000
 90
        0
280
     0
281
     0
  0
ENDSEC
  0
SECTION
  2
TABLES
  0
TABLE
  2
VPORT
  5
8
330
0
100
AcDbSymbolTable
 70
     2
  0
VPORT
  5
99B7
330
8
100
AcDbSymbolTableRecord
100
AcDbViewportTableRecord
  2
*ACTIVE
 70
     0
 10
0.0
 20
0.0
 11
1.0
 21
1.0
 12
32.80000215273693
 22
21.12669525896744
 13
0.0
 23
0.0
 14
0.5
 24
0.5
 15
0.5
 25
0.5
 16
0.0
 26
0.0
 36
1.0
 17
0.0
 27
0.0
 37
0.0
 40
42.5076214692558
 41
1.55078125
 42
50.0
 43
0.0
 44
0.0
 50
0.0
 51
0.0
 71
     0
 72
   100
 73
     1
 74
     2
 75
     0
 76
     0
 77
     0
 78
     0
  0
ENDTAB
  0
TABLE
  2
LTYPE
  5
5
330
0
100
AcDbSymbolTable
 70
     6
  0
LTYPE
  5
14
330
5
100
AcDbSymbolTableRecord
100
AcDbLinetypeTableRecord
  2
BYBLOCK
 70
     0
  3

 72
    65
 73
     0
 40
0.0
  0
LTYPE
  5
15
330
5
100
AcDbSymbolTableRecord
100
AcDbLinetypeTableRecord
  2
BYLAYER
 70
     0
  3

 72
    65
 73
     0
 40
0.0
  0
LTYPE
  5
16
330
5
100
AcDbSymbolTableRecord
100
AcDbLinetypeTableRecord
  2
CONTINUOUS
 70
     0
  3
Solid line
 72
    65
 73
     0
 40
0.0
  0
LTYPE
  5
3D
330
5
100
AcDbSymbolTableRecord
100
AcDbLinetypeTableRecord
  2
CENTER2
 70
     0
  3
Center (.5x) ___ _ ___ _ ___ _ ___ _ ___ _ ___
 72
    65
 73
     4
 40
1.125
 49
0.75
 74
     0
 49
-0.125
 74
     0
 49
0.125
 74
     0
 49
-0.125
 74
     0
  0
LTYPE
  5
3E
330
5
100
AcDbSymbolTableRecord
100
AcDbLinetypeTableRecord
  2
DASHDOT2
 70
     0
  3
Dash dot (.5x) _._._._._._._._._._._._._._._.
 72
    65
 73
     4
 40
0.5
 49
0.25
 74
     0
 49
-0.125
 74
     0
 49
0.0
 74
     0
 49
-0.125
 74
     0
  0
LTYPE
  5
3F
330
5
100
AcDbSymbolTableRecord
100
AcDbLinetypeTableRecord
  2
DASHED2
 70
     0
  3
Dashed (.5x) _ _ _ _ _ _ _ _ _ _ _ _ _ _ _ _ _
 72
    65
 73
     2
 40
0.375
 49
0.25
 74
     0
 49
-0.125
 74
     0
  0
LTYPE
  5
40
330
5
100
AcDbSymbolTableRecord
100
AcDbLinetypeTableRecord
  2
HIDDEN2
 70
     0
  3
Hidden (.5x) _ _ _ _ _ _ _ _ _ _ _ _ _ _ _ _ _
 72
    65
 73
     2
 40
0.1875
 49
0.125
 74
     0
 49
-0.0625
 74
     0
  0
LTYPE
  5
41
330
5
100
AcDbSymbolTableRecord
100
AcDbLinetypeTableRecord
  2
PHANTOM2
 70
     0
  3
Phantom (.5x) ___ _ _ ___ _ _ ___ _ _ ___ _ _
 72
    65
 73
     6
 40
1.25
 49
0.625
 74
     0
 49
-0.125
 74
     0
 49
0.125
 74
     0
 49
-0.125
 74
     0
 49
0.125
 74
     0
 49
-0.125
 74
     0
  0
ENDTAB
  0
TABLE
  2
LAYER
  5
2
330
0
100
AcDbSymbolTable
 70
    26
  0
LAYER
  5
10
330
2
100
AcDbSymbolTableRecord
100
AcDbLayerTableRecord
  2
0
 70
     0
 62
     7
  6
CONTINUOUS
  0
LAYER
  5
42
330
2
100
AcDbSymbolTableRecord
100
AcDbLayerTableRecord
  2
BLOCKS
 70
     0
 62
     7
  6
CONTINUOUS
  0
LAYER
  5
43
330
2
100
AcDbSymbolTableRecord
100
AcDbLayerTableRecord
  2
CENTER1
 70
     0
 62
     2
  6
CENTER2
  0
LAYER
  5
44
330
2
100
AcDbSymbolTableRecord
100
AcDbLayerTableRecord
  2
CENTER2
 70
     0
 62
    50
  6
CENTER2
  0
LAYER
  5
45
330
2
100
AcDbSymbolTableRecord
100
AcDbLayerTableRecord
  2
CENTER3
 70
     0
 62
    51
  6
CENTER2
  0
LAYER
  5
46
330
2
100
AcDbSymbolTableRecord
100
AcDbLayerTableRecord
  2
CONSTRUCTION
 70
     0
 62
   241
  6
DASHED2
  0
LAYER
  5
47
330
2
100
AcDbSymbolTableRecord
100
AcDbLayerTableRecord
  2
CONTINUOUS1
 70
     0
 62
     7
  6
CONTINUOUS
  0
LAYER
  5
48
330
2
100
AcDbSymbolTableRecord
100
AcDbLayerTableRecord
  2
CONTINUOUS2
 70
     0
 62
   254
  6
CONTINUOUS
  0
LAYER
  5
49
330
2
100
AcDbSymbolTableRecord
100
AcDbLayerTableRecord
  2
CONTINUOUS3
 70
     0
 62
   253
  6
CONTINUOUS
  0
LAYER
  5
4A
330
2
100
AcDbSymbolTableRecord
100
AcDbLayerTableRecord
  2
DASHDOT1
 70
     0
 62
     1
  6
DASHDOT2
  0
LAYER
  5
4B
330
2
100
AcDbSymbolTableRecord
100
AcDbLayerTableRecord
  2
DASHDOT2
 70
     0
 62
    10
  6
DASHDOT2
  0
LAYER
  5
4C
330
2
100
AcDbSymbolTableRecord
100
AcDbLayerTableRecord
  2
DASHDOT3
 70
     0
 62
    12
  6
DASHDOT2
  0
LAYER
  5
4D
330
2
100
AcDbSymbolTableRecord
100
AcDbLayerTableRecord
  2
DIM
 70
     0
 62
     2
  6
CONTINUOUS
  0
LAYER
  5
4E
330
2
100
AcDbSymbolTableRecord
100
AcDbLayerTableRecord
  2
HIDDEN1
 70
     0
 62
     5
  6
HIDDEN2
  0
LAYER
  5
4F
330
2
100
AcDbSymbolTableRecord
100
AcDbLayerTableRecord
  2
HIDDEN2
 70
     0
 62
   160
  6
HIDDEN2
  0
LAYER
  5
50
330
2
100
AcDbSymbolTableRecord
100
AcDbLayerTableRecord
  2
HIDDEN3
 70
     0
 62
   162
  6
HIDDEN2
  0
LAYER
  5
52
330
2
100
AcDbSymbolTableRecord
100
AcDbLayerTableRecord
  2
PHANTOM1
 70
     0
 62
     6
  6
PHANTOM2
  0
LAYER
  5
53
330
2
100
AcDbSymbolTableRecord
100
AcDbLayerTableRecord
  2
PHANTOM2
 70
     0
 62
   210
  6
PHANTOM2
  0
LAYER
  5
54
330
2
100
AcDbSymbolTableRecord
100
AcDbLayerTableRecord
  2
PHANTOM3
 70
     0
 62
   212
  6
PHANTOM2
  0
LAYER
  5
55
330
2
100
AcDbSymbolTableRecord
100
AcDbLayerTableRecord
  2
TEXT1
 70
     0
 62
     3
  6
CONTINUOUS
  0
LAYER
  5
56
330
2
100
AcDbSymbolTableRecord
100
AcDbLayerTableRecord
  2
TEXT2
 70
     0
 62
    80
  6
CONTINUOUS
  0
LAYER
  5
57
330
2
100
AcDbSymbolTableRecord
100
AcDbLayerTableRecord
  2
TEXT3
 70
     0
 62
    82
  6
CONTINUOUS
  0
LAYER
  5
58
330
2
100
AcDbSymbolTableRecord
100
AcDbLayerTableRecord
  2
TITLEBLOCK
 70
     0
 62
     9
  6
CONTINUOUS
  0
LAYER
  5
59
330
2
100
AcDbSymbolTableRecord
100
AcDbLayerTableRecord
  2
VIEWPORT
 70
     0
 62
     9
  6
CONTINUOUS
  0
LAYER
  5
8AA8
330
2
100
AcDbSymbolTableRecord
100
AcDbLayerTableRecord
  2
MOUNTING
 70
     0
 62
     7
  6
CENTER2
  0
LAYER
  5
8AAB
330
2
100
AcDbSymbolTableRecord
100
AcDbLayerTableRecord
  2
DEFPOINTS
 70
     0
 62
    -4
  6
CONTINUOUS
  0
ENDTAB
  0
TABLE
  2
STYLE
  5
3
330
0
100
AcDbSymbolTable
 70
     4
  0
STYLE
  5
11
330
3
100
AcDbSymbolTableRecord
100
AcDbTextStyleTableRecord
  2
STANDARD
 70
     0
 40
0.0
 41
1.0
 50
0.0
 71
     0
 42
0.2
  3
txt
  4

  0
STYLE
  5
36
330
3
100
AcDbSymbolTableRecord
100
AcDbTextStyleTableRecord
  2
ROMANS
 70
     0
 40
0.0
 41
1.0
 50
0.0
 71
     0
 42
0.2
  3
romans.shx
  4

  0
STYLE
  5
6CC
330
3
100
AcDbSymbolTableRecord
100
AcDbTextStyleTableRecord
  2
M_STANDARD
 70
     0
 40
0.0
 41
0.8
 50
0.0
 71
     0
 42
0.0
  3
MEDUSA.SHX
  4

  0
STYLE
  5
D51
330
3
100
AcDbSymbolTableRecord
100
AcDbTextStyleTableRecord
  2
SIMPLEX
 70
     0
 40
0.0
 41
1.0
 50
0.0
 71
     0
 42
0.25
  3
SIMPLEX.shx
  4

  0
ENDTAB
  0
TABLE
  2
VIEW
  5
6
330
0
100
AcDbSymbolTable
 70
     0
  0
ENDTAB
  0
TABLE
  2
UCS
  5
7
330
0
100
AcDbSymbolTable
 70
     0
  0
ENDTAB
  0
TABLE
  2
APPID
  5
9
330
0
100
AcDbSymbolTable
 70
    11
  0
APPID
  5
12
330
9
100
AcDbSymbolTableRecord
100
AcDbRegAppTableRecord
  2
ACAD
 70
     0
  0
APPID
  5
6B
330
9
100
AcDbSymbolTableRecord
100
AcDbRegAppTableRecord
  2
DCO15
 70
     0
  0
APPID
  5
370
330
9
100
AcDbSymbolTableRecord
100
AcDbRegAppTableRecord
  2
MCAD_NO_VIS
 70
     0
  0
APPID
  5
371
330
9
100
AcDbSymbolTableRecord
100
AcDbRegAppTableRecord
  2
ACAD_TEMP_GRAPHIC
 70
     0
  0
APPID
  5
387
330
9
100
AcDbSymbolTableRecord
100
AcDbRegAppTableRecord
  2
GENIUS_GENSCREG_15
 70
     0
  0
APPID
  5
389
330
9
100
AcDbSymbolTableRecord
100
AcDbRegAppTableRecord
  2
GENIUS_GENODEF_13
 70
     0
  0
APPID
  5
38A
330
9
100
AcDbSymbolTableRecord
100
AcDbRegAppTableRecord
  2
GENIUS_GENOBJ-N-SDF_13
 70
     0
  0
APPID
  5
38B
330
9
100
AcDbSymbolTableRecord
100
AcDbRegAppTableRecord
  2
GENIUS_GENOENT_13
 70
     0
  0
APPID
  5
38C
330
9
100
AcDbSymbolTableRecord
100
AcDbRegAppTableRecord
  2
GENIUS_GENOREF_13
 70
     0
  0
APPID
  5
38D
330
9
100
AcDbSymbolTableRecord
100
AcDbRegAppTableRecord
  2
GENIUS_GENOLIS_13
 70
     0
  0
APPID
  5
6CE
330
9
100
AcDbSymbolTableRecord
100
AcDbRegAppTableRecord
  2
MED_PRIMTYPE
 70
     0
  0
ENDTAB
  0
TABLE
  2
DIMSTYLE
  5
A
330
0
100
AcDbSymbolTable
 70
     2
  0
DIMSTYLE
105
35
330
A
100
AcDbSymbolTableRecord
100
AcDbDimStyleTableRecord
  2
1
 70
     0
  3

  4

  5

  6

  7

 40
0.0
 41
0.125
 42
0.0625
 43
0.38
 44
0.0625
 45
0.01
 46
0.0
 47
0.0
 48
0.0
140
0.08
141
0.09
142
0.0
143
25.4
144
1.0
145
0.0
146
1.0
147
0.04
 71
     0
 72
     0
 73
     1
 74
     1
 75
     0
 76
     0
 77
     0
 78
     4
170
     0
171
     1
172
     0
173
     0
174
     0
175
     0
176
   256
177
   256
178
   256
270
     2
271
     2
272
     2
273
     2
274
     1
340
36
275
     0
280
     0
281
     0
282
     0
283
     1
284
     0
285
     0
286
     0
287
     3
288
     0
  0
DIMSTYLE
105
9490
102
{ACAD_REACTORS
330
8F04
330
8F03
330
8EB2
330
8EB1
330
8F07
330
8EF9
330
8F06
330
8F05
330
8EAF
330
8EA3
330
8EA2
330
8EB0
330
8F43
330
8F44
330
8EA4
330
93DD
102
}
330
A
100
AcDbSymbolTableRecord
100
AcDbDimStyleTableRecord
  2
SCHNEIDERELECTRIC
 70
     0
  3

  4

  5
SEARROW
  6

  7

 40
0.0
 41
0.07
 42
0.0625
 43
0.38
 44
0.0625
 45
0.001
 46
0.0
 47
0.0
 48
0.0
140
0.1
141
0.09
142
0.0
143
25.4
144
1.0
145
0.0
146
1.0
147
0.04
 71
     0
 72
     0
 73
     1
 74
     1
 75
     0
 76
     0
 77
     0
 78
     4
170
     0
171
     1
172
     0
173
     0
174
     0
175
     0
176
   256
177
   256
178
   256
270
     2
271
     2
272
     2
273
     2
274
     1
340
36
275
     0
280
     0
281
     0
282
     0
283
     1
284
     0
285
     0
286
     0
287
     3
288
     0
  0
ENDTAB
  0
TABLE
  2
BLOCK_RECORD
  5
1
330
0
100
AcDbSymbolTable
 70
    22
  0
BLOCK_RECORD
  5
1F
102
{ACAD_XDICTIONARY
360
73
102
}
330
1
100
AcDbSymbolTableRecord
100
AcDbBlockTableRecord
  2
*MODEL_SPACE
  0
BLOCK_RECORD
  5
1B
102
{ACAD_XDICTIONARY
360
75
102
}
330
1
100
AcDbSymbolTableRecord
100
AcDbBlockTableRecord
  2
*PAPER_SPACE
  0
BLOCK_RECORD
  5
783
330
1
100
AcDbSymbolTableRecord
100
AcDbBlockTableRecord
  2
NEWLAYERS
1001
ACAD
1000
DesignCenter Data
1002
{
1070
     1
1070
     1
1002
}
  0
BLOCK_RECORD
  5
841
330
1
100
AcDbSymbolTableRecord
100
AcDbBlockTableRecord
  2
LOGO-PAD
1001
ACAD
1000
DesignCenter Data
1002
{
1070
     1
1070
     1
1002
}
  0
BLOCK_RECORD
  5
AE5
330
1
100
AcDbSymbolTableRecord
100
AcDbBlockTableRecord
  2
TITLE-PAD
1001
ACAD
1000
DesignCenter Data
1002
{
1070
     1
1070
     1
1002
}
  0
BLOCK_RECORD
  5
D52
330
1
100
AcDbSymbolTableRecord
100
AcDbBlockTableRecord
  2
OEM-NOTES
1001
ACAD
1000
DesignCenter Data
1002
{
1070
     1
1070
     1
1002
}
  0
BLOCK_RECORD
  5
896D
330
1
100
AcDbSymbolTableRecord
100
AcDbBlockTableRecord
  2
REF2
  0
BLOCK_RECORD
  5
8F4F
330
1
100
AcDbSymbolTableRecord
100
AcDbBlockTableRecord
  2
*D5
  0
BLOCK_RECORD
  5
8F5C
330
1
100
AcDbSymbolTableRecord
100
AcDbBlockTableRecord
  2
*D6
  0
BLOCK_RECORD
  5
8F69
330
1
100
AcDbSymbolTableRecord
100
AcDbBlockTableRecord
  2
*D7
  0
BLOCK_RECORD
  5
8F76
330
1
100
AcDbSymbolTableRecord
100
AcDbBlockTableRecord
  2
*D8
  0
BLOCK_RECORD
  5
8F83
330
1
100
AcDbSymbolTableRecord
100
AcDbBlockTableRecord
  2
*D9
  0
BLOCK_RECORD
  5
8F8F
330
1
100
AcDbSymbolTableRecord
100
AcDbBlockTableRecord
  2
*D10
  0
BLOCK_RECORD
  5
8F9B
330
1
100
AcDbSymbolTableRecord
100
AcDbBlockTableRecord
  2
*D11
  0
BLOCK_RECORD
  5
8FB5
330
1
100
AcDbSymbolTableRecord
100
AcDbBlockTableRecord
  2
*D12
  0
BLOCK_RECORD
  5
8FC2
330
1
100
AcDbSymbolTableRecord
100
AcDbBlockTableRecord
  2
*D13
  0
BLOCK_RECORD
  5
8FCE
330
1
100
AcDbSymbolTableRecord
100
AcDbBlockTableRecord
  2
*D14
  0
BLOCK_RECORD
  5
8FDB
330
1
100
AcDbSymbolTableRecord
100
AcDbBlockTableRecord
  2
*D15
  0
BLOCK_RECORD
  5
8FE8
330
1
100
AcDbSymbolTableRecord
100
AcDbBlockTableRecord
  2
*D16
  0
BLOCK_RECORD
  5
8FF5
330
1
100
AcDbSymbolTableRecord
100
AcDbBlockTableRecord
  2
*D17
  0
BLOCK_RECORD
  5
9002
330
1
100
AcDbSymbolTableRecord
100
AcDbBlockTableRecord
  2
*D18
  0
BLOCK_RECORD
  5
900E
330
1
100
AcDbSymbolTableRecord
100
AcDbBlockTableRecord
  2
*D19
  0
BLOCK_RECORD
  5
93DE
330
1
100
AcDbSymbolTableRecord
100
AcDbBlockTableRecord
  2
*D20
  0
BLOCK_RECORD
  5
948B
330
1
100
AcDbSymbolTableRecord
100
AcDbBlockTableRecord
  2
SEARROW
1001
ACAD
1000
DesignCenter Data
1002
{
1070
     1
1070
     1
1002
}
  0
ENDTAB
  0
ENDSEC
  0
SECTION
  2
BLOCKS
  0
BLOCK
  5
20
330
1F
100
AcDbEntity
  8
0
100
AcDbBlockBegin
  2
*MODEL_SPACE
 70
     0
 10
0.0
 20
0.0
 30
0.0
  3
*MODEL_SPACE
  1

  0
ENDBLK
  5
21
330
1F
100
AcDbEntity
  8
0
100
AcDbBlockEnd
  0
BLOCK
  5
1C
330
1B
100
AcDbEntity
 67
     1
  8
0
100
AcDbBlockBegin
  2
*PAPER_SPACE
 70
     0
 10
0.0
 20
0.0
 30
0.0
  3
*PAPER_SPACE
  1

  0
ENDBLK
  5
1D
330
1B
100
AcDbEntity
 67
     1
  8
0
100
AcDbBlockEnd
  0
BLOCK
  5
79C
330
783
100
AcDbEntity
  8
0
100
AcDbBlockBegin
  2
NEWLAYERS
 70
     0
 10
0.0
 20
0.0
 30
0.0
  3
NEWLAYERS
  1

  0
LINE
  5
784
330
783
100
AcDbEntity
  8
PHANTOM1
100
AcDbLine
 10
0.264152010466205
 20
0.3394492053544127
 30
0.0
 11
0.264152010466205
 21
0.1923545555598593
 31
0.0
  0
LINE
  5
785
330
783
100
AcDbEntity
  8
PHANTOM2
100
AcDbLine
 10
0.3018880119612959
 20
0.3394492053544127
 30
0.0
 11
0.3018880119612959
 21
0.1923545555598593
 31
0.0
  0
LINE
  5
786
330
783
100
AcDbEntity
  8
PHANTOM3
100
AcDbLine
 10
0.3396240134565005
 20
0.3394492053544127
 30
0.0
 11
0.3396240134565005
 21
0.1923545555598593
 31
0.0
  0
LINE
  5
787
330
783
100
AcDbEntity
  8
DASHDOT2
100
AcDbLine
 10
0.0
 20
0.3394492053544127
 30
0.0
 11
0.0
 21
0.1923545555598593
 31
0.0
  0
LINE
  5
788
330
783
100
AcDbEntity
  8
DASHDOT3
100
AcDbLine
 10
0.0377360014952046
 20
0.3394492053544127
 30
0.0
 11
0.0377360014952046
 21
0.1923545555598593
 31
0.0
  0
LINE
  5
789
330
783
100
AcDbEntity
  8
DIM
100
AcDbLine
 10
0.0754720029902956
 20
0.3394492053544127
 30
0.0
 11
0.0754720029902956
 21
0.1923545555598593
 31
0.0
  0
LINE
  5
78A
330
783
100
AcDbEntity
  8
HIDDEN1
100
AcDbLine
 10
0.1132080044855002
 20
0.3394492053544127
 30
0.0
 11
0.1132080044855002
 21
0.1923545555598593
 31
0.0
  0
LINE
  5
78B
330
783
100
AcDbEntity
  8
HIDDEN2
100
AcDbLine
 10
0.1509440059807048
 20
0.3394492053544127
 30
0.0
 11
0.1509440059807048
 21
0.1923545555598593
 31
0.0
  0
LINE
  5
78C
330
783
100
AcDbEntity
  8
HIDDEN3
100
AcDbLine
 10
0.1886800074757957
 20
0.3394492053544127
 30
0.0
 11
0.1886800074757957
 21
0.1923545555598593
 31
0.0
  0
LINE
  5
78D
330
783
100
AcDbEntity
  8
TEXT1
100
AcDbLine
 10
0.0
 20
0.1470946497945533
 30
0.0
 11
0.0
 21
0.0
 31
0.0
  0
LINE
  5
78E
330
783
100
AcDbEntity
  8
TEXT2
100
AcDbLine
 10
0.0377360014952046
 20
0.1470946497945533
 30
0.0
 11
0.0377360014952046
 21
0.0
 31
0.0
  0
LINE
  5
78F
330
783
100
AcDbEntity
  8
TEXT3
100
AcDbLine
 10
0.0754720029902956
 20
0.1470946497945533
 30
0.0
 11
0.0754720029902956
 21
0.0
 31
0.0
  0
LINE
  5
790
330
783
100
AcDbEntity
  8
TITLEBLOCK
100
AcDbLine
 10
0.1132080044855002
 20
0.1470946497945533
 30
0.0
 11
0.1132080044855002
 21
0.0
 31
0.0
  0
LINE
  5
791
330
783
100
AcDbEntity
  8
VIEWPORT
100
AcDbLine
 10
0.1509440059807048
 20
0.1470946497945533
 30
0.0
 11
0.1509440059807048
 21
0.0
 31
0.0
  0
LINE
  5
792
330
783
100
AcDbEntity
  8
BLOCKS
100
AcDbLine
 10
0.0377360014952046
 20
0.5318037609142721
 30
0.0
 11
0.0377360014952046
 21
0.3847091111197187
 31
0.0
  0
LINE
  5
793
330
783
100
AcDbEntity
  8
0
100
AcDbLine
 10
0.0
 20
0.5318037609142721
 30
0.0
 11
0.0
 21
0.3847091111197187
 31
0.0
  0
LINE
  5
794
330
783
100
AcDbEntity
  8
CENTER1
100
AcDbLine
 10
0.0754720029902956
 20
0.5318037609142721
 30
0.0
 11
0.0754720029902956
 21
0.3847091111197187
 31
0.0
  0
LINE
  5
795
330
783
100
AcDbEntity
  8
CENTER2
100
AcDbLine
 10
0.1132080044855002
 20
0.5318037609142721
 30
0.0
 11
0.1132080044855002
 21
0.3847091111197187
 31
0.0
  0
LINE
  5
796
330
783
100
AcDbEntity
  8
CENTER3
100
AcDbLine
 10
0.1509440059807048
 20
0.5318037609142721
 30
0.0
 11
0.1509440059807048
 21
0.3847091111197187
 31
0.0
  0
LINE
  5
797
330
783
100
AcDbEntity
  8
CONSTRUCTION
100
AcDbLine
 10
0.1886800074757957
 20
0.5318037609142721
 30
0.0
 11
0.1886800074757957
 21
0.3847091111197187
 31
0.0
  0
LINE
  5
798
330
783
100
AcDbEntity
  8
CONTINUOUS1
100
AcDbLine
 10
0.2264160089710003
 20
0.5318037609142721
 30
0.0
 11
0.2264160089710003
 21
0.3847091111197187
 31
0.0
  0
LINE
  5
799
330
783
100
AcDbEntity
  8
CONTINUOUS2
100
AcDbLine
 10
0.264152010466205
 20
0.5318037609142721
 30
0.0
 11
0.264152010466205
 21
0.3847091111197187
 31
0.0
  0
LINE
  5
79A
330
783
100
AcDbEntity
  8
CONTINUOUS3
100
AcDbLine
 10
0.3018880119612959
 20
0.5318037609142721
 30
0.0
 11
0.3018880119612959
 21
0.3847091111197187
 31
0.0
  0
LINE
  5
79B
330
783
100
AcDbEntity
  8
DASHDOT1
100
AcDbLine
 10
0.3396240134565005
 20
0.5318037609142721
 30
0.0
 11
0.3396240134565005
 21
0.3847091111197187
 31
0.0
  0
ENDBLK
  5
79D
330
783
100
AcDbEntity
  8
0
100
AcDbBlockEnd
  0
BLOCK
  5
852
330
841
100
AcDbEntity
  8
0
100
AcDbBlockBegin
  2
LOGO-PAD
 70
     0
 10
0.0
 20
0.0
 30
0.0
  3
LOGO-PAD
  1

  0
HATCH
  5
842
330
841
100
AcDbEntity
  8
TITLEBLOCK
 62
     0
100
AcDbHatch
 10
0.0
 20
0.0
 30
0.0
210
0.0
220
0.0
230
1.0
  2
SOLID
 70
     1
 71
     0
 91
        2
 92
        1
 93
       11
 72
     2
 10
1.203771209334867
 20
0.3650136751459491
 40
0.021562648149145
 50
90.00000747299615
 51
179.9997683268519
 73
     1
 72
     1
 10
1.182208561185898
 20
0.3650137623336376
 11
1.182208392435807
 21
0.2795138227272444
 72
     2
 10
1.203771079023129
 20
0.2795136821032751
 40
0.0215626865877801
 50
179.9996263378447
 51
269.9998903896797
 73
     1
 72
     1
 10
1.203771037772394
 20
0.2579509955155343
 11
1.330521045577125
 21
0.2579511736405264
 72
     2
 10
1.330521265257171
 20
0.2795136382789064
 40
0.021562464639499
 50
269.9994162661957
 51
311.7040125634689
 73
     1
 72
     1
 10
1.344866398698837
 20
0.2634152834601535
 11
1.352083334663557
 21
0.2579511736405264
 72
     1
 10
1.352083334663557
 20
0.2579511736405264
 11
1.365099386916806
 21
0.2751416404960081
 72
     1
 10
1.365099386916806
 20
0.2751416404960081
 11
1.352083522163621
 21
0.284997066934386
 72
     1
 10
1.352083522163621
 20
0.284997066934386
 11
1.352083690913712
 21
0.3650136723335662
 72
     2
 10
1.330521042764654
 20
0.3650136751460369
 40
0.0215626481490576
 50
359.9999925267666
 51
449.9999925267678
 73
     1
 72
     1
 10
1.330521045577125
 20
0.3865763232950938
 11
1.203771206522485
 21
0.3865763232950938
 97
        0
 92
       16
 93
       10
 72
     2
 10
1.21455271481628
 20
0.3542325202904111
 40
0.0107811520434708
 50
90.00043844291294
 51
179.9999701074038
 73
     1
 72
     1
 10
1.203771562772811
 20
0.3542325259151993
 11
1.203771562772811
 21
0.2902950591455122
 72
     2
 10
1.214552849813946
 20
0.2902948416431456
 40
0.0107812870433294
 50
179.9988441113203
 51
269.9988441346395
 73
     1
 72
     1
 10
1.214552632315967
 20
0.2795135546020104
 11
1.323606134809704
 21
0.2795135546020104
 72
     1
 10
1.323606134809704
 20
0.2795135546020104
 11
1.280867956889135
 21
0.311873265117333
 72
     1
 10
1.280867956889135
 20
0.311873265117333
 11
1.293884009142384
 21
0.3290635557226322
 72
     1
 10
1.293884009142384
 20
0.3290635557226322
 11
1.330521045577125
 21
0.3013240413506308
 72
     1
 10
1.330521045577125
 20
0.3013240413506308
 11
1.330521045577125
 21
0.3542324377902786
 72
     2
 10
1.319739809158772
 20
0.3542324359152127
 40
0.0107812364183532
 50
0.0000099648460607
 51
90.00000996484372
 73
     1
 72
     1
 10
1.319739807283706
 20
0.3650136723335662
 11
1.214552632315967
 21
0.3650136723335662
 97
        0
 75
     0
 76
     1
 98
        1
 10
-7.279586802153931
 20
-0.4081141432880261
  0
HATCH
  5
843
330
841
100
AcDbEntity
  8
TITLEBLOCK
 62
     0
100
AcDbHatch
 10
0.0
 20
0.0
 30
0.0
210
0.0
220
0.0
230
1.0
  2
SOLID
 70
     1
 71
     0
 91
        1
 92
        1
 93
        4
 72
     1
 10
3.703333445713536
 20
0.1990762889281312
 11
1.018147379006204
 21
0.1990762889281312
 72
     1
 10
1.018147379006204
 20
0.1990762889281312
 11
1.018147379006204
 21
0.220706173683743
 72
     1
 10
1.018147379006204
 20
0.220706173683743
 11
3.703333445713536
 21
0.220706173683743
 72
     1
 10
3.703333445713536
 20
0.220706173683743
 11
3.703333445713536
 21
0.1990762889281312
 97
        0
 75
     0
 76
     1
 98
        1
 10
-7.279586802153931
 20
-0.4081141432880261
  0
HATCH
  5
844
330
841
100
AcDbEntity
  8
TITLEBLOCK
 62
     0
100
AcDbHatch
 10
0.0
 20
0.0
 30
0.0
210
0.0
220
0.0
230
1.0
  2
SOLID
 70
     1
 71
     0
 91
        4
 92
        1
 93
        4
 72
     1
 10
0.8306472632318495
 20
0.4814782717956759
 11
0.4556470182475714
 21
0.4814782717956759
 72
     1
 10
0.4556470182475714
 20
0.4814782717956759
 11
0.4556470182475714
 21
0.1064783844396073
 72
     1
 10
0.4556470182475714
 20
0.1064783844396073
 11
0.8306472632318495
 21
0.1064783844396073
 72
     1
 10
0.8306472632318495
 20
0.1064783844396073
 11
0.8306472632318495
 21
0.4814782717956759
 97
        0
 92
        0
 93
       10
 72
     1
 10
0.7368972019857374
 20
0.4177282462416896
 11
0.5193971779121789
 21
0.4177282462416896
 72
     1
 10
0.5193971779121789
 20
0.4177282462416896
 11
0.5193971779121789
 21
0.37460312508514
 72
     1
 10
0.5193971779121789
 20
0.37460312508514
 11
0.5531473465883146
 21
0.37460312508514
 72
     1
 10
0.5531473465883146
 20
0.37460312508514
 11
0.5531473465883146
 21
0.2133535311501431
 72
     1
 10
0.5531473465883146
 20
0.2133535311501431
 11
0.5193971779121789
 21
0.2133535311501431
 72
     1
 10
0.5193971779121789
 20
0.2133535311501431
 11
0.5193971779121789
 21
0.1702282758831428
 72
     1
 10
0.5193971779121789
 20
0.1702282758831428
 11
0.7368972019857374
 21
0.1702282758831428
 72
     1
 10
0.7368972019857374
 20
0.1702282758831428
 11
0.7668970141602749
 21
0.2002283115750982
 72
     1
 10
0.7668970141602749
 20
0.2002283115750982
 11
0.7668970141602749
 21
0.3877281658462506
 72
     1
 10
0.7668970141602749
 20
0.3877281658462506
 11
0.7368972019857374
 21
0.4177282462416896
 97
        0
 92
       16
 93
        4
 72
     1
 10
0.7987720492890098
 20
0.4496031025563197
 11
0.4875220533764768
 21
0.4496031025563197
 72
     1
 10
0.4875220533764768
 20
0.4496031025563197
 11
0.4875220533764768
 21
0.1383533301613751
 72
     1
 10
0.4875220533764768
 20
0.1383533301613751
 11
0.7987720492890098
 21
0.1383533301613751
 72
     1
 10
0.7987720492890098
 20
0.1383533301613751
 11
0.7987720492890098
 21
0.4496031025563197
 97
        0
 92
        0
 93
        4
 72
     1
 10
0.5962724677448641
 20
0.37460312508514
 11
0.5962724677448641
 21
0.2133535311501431
 72
     1
 10
0.5962724677448641
 20
0.2133535311501431
 11
0.7237719824106926
 21
0.2133535311501431
 72
     1
 10
0.7237719824106926
 20
0.2133535311501431
 11
0.7237719824106926
 21
0.37460312508514
 72
     1
 10
0.7237719824106926
 20
0.37460312508514
 11
0.5962724677448641
 21
0.37460312508514
 97
        0
 75
     0
 76
     1
 98
        1
 10
-7.279586802153931
 20
-0.313212194787444
  0
HATCH
  5
845
330
841
100
AcDbEntity
  8
TITLEBLOCK
 62
     0
100
AcDbHatch
 10
0.0
 20
0.0
 30
0.0
210
0.0
220
0.0
230
1.0
  2
SOLID
 70
     1
 71
     0
 91
        1
 92
        1
 93
       26
 72
     1
 10
1.050490193885575
 20
0.3650136723335662
 11
1.138990457951802
 21
0.3650136723335662
 72
     2
 10
1.138990281703138
 20
0.3542326140418093
 40
0.0107810582931976
 50
270.0009366709926
 51
360.0009366862294
 73
     0
 72
     1
 10
1.149771339994895
 20
0.3542324377902786
 11
1.171333797831589
 21
0.3542324377902786
 72
     1
 10
1.171333797831589
 20
0.3542324377902786
 11
1.171333797831589
 21
0.3650136723335662
 72
     2
 10
1.149771243432702
 20
0.365013768896207
 40
0.0215625543991033
 50
359.9997434148255
 51
449.9997434160159
 73
     1
 72
     1
 10
1.149771339994895
 20
0.3865763232950938
 11
1.039708786842066
 21
0.3865763232950938
 72
     2
 10
1.039709408398413
 20
0.3650142939052909
 40
0.0215620293987615
 50
90.00165163282177
 51
180.0014125206716
 73
     1
 72
     1
 10
1.018147379006204
 20
0.3650137623336376
 11
1.018147379006204
 21
0.3334199129435318
 72
     2
 10
1.039709363397143
 20
0.3334193363730153
 40
0.0215619843986475
 50
179.9984679027414
 51
269.9984679437668
 73
     1
 72
     1
 10
1.039708786842066
 20
0.3118573519820755
 11
1.138990457951802
 21
0.311857620107139
 72
     2
 10
1.138990280765661
 20
0.3010765608779043
 40
0.0107810592306907
 50
270.0009416531222
 51
360.0009416684906
 73
     0
 72
     1
 10
1.149771339994895
 20
0.3010763836888712
 11
1.149771508744986
 21
0.2902949691454408
 72
     2
 10
1.138990231076649
 20
0.2902948322713164
 40
0.0107812776692067
 50
359.9992725992319
 51
449.9997907459082
 73
     0
 72
     1
 10
1.138990270451738
 20
0.279513554602181
 11
1.050490193885575
 21
0.2795135546020104
 72
     2
 10
1.05049014888543
 20
0.2902951041454384
 40
0.0107815495435218
 50
89.99976085826782
 51
179.9997608594354
 73
     0
 72
     1
 10
1.039708599342002
 20
0.2902950591455122
 11
1.018147379006204
 21
0.2902950591455122
 72
     1
 10
1.018147379006204
 20
0.2902950591455122
 11
1.018147379006204
 21
0.2795138227272444
 72
     2
 10
1.039709273392517
 20
0.2795130680345569
 40
0.0215618943995203
 50
179.9979945776083
 51
269.9987071039827
 73
     1
 72
     1
 10
1.039708786842066
 20
0.2579511736405264
 11
1.149771339994895
 21
0.2579511736405264
 72
     2
 10
1.149771378432784
 20
0.2795135930396681
 40
0.0215624193991759
 50
269.9998978626289
 51
359.9996636967671
 73
     1
 72
     1
 10
1.171333797831589
 20
0.2795134664769192
 11
1.171333797831589
 21
0.3114825579869829
 72
     2
 10
1.149771333432362
 20
0.3114825645494808
 40
0.0215624643992288
 50
359.9999825621309
 51
449.9999825620359
 73
     1
 72
     1
 10
1.149771339994895
 20
0.3330450289487088
 11
1.050490193885575
 21
0.3330447608234748
 72
     2
 10
1.050490103885701
 20
0.3438262653667981
 40
0.0107815045436989
 50
89.99952171675776
 51
179.9999900368059
 73
     0
 72
     1
 10
1.039708599342002
 20
0.3438262634919964
 11
1.039708786842066
 21
0.3542325259151993
 72
     2
 10
1.050490107634269
 20
0.3542323515402983
 40
0.0107813207936133
 50
180.0009266903443
 51
270.0004583701697
 73
     0
 97
        0
 75
     0
 76
     1
 98
        1
 10
-7.279586802153931
 20
-0.4081141432880261
  0
HATCH
  5
846
330
841
100
AcDbEntity
  8
TITLEBLOCK
 62
     0
100
AcDbHatch
 10
0.0
 20
0.0
 30
0.0
210
0.0
220
0.0
230
1.0
  2
SOLID
 70
     1
 71
     0
 91
        1
 92
        1
 93
       18
 72
     2
 10
2.471082802883087
 20
0.3650137595211706
 40
0.021562563774099
 50
180.0000074732525
 51
269.9997683261728
 73
     0
 72
     1
 10
2.471082715695484
 20
0.3865763232950938
 11
2.586957622645552
 21
0.3865763232950938
 72
     2
 10
2.586957713583391
 20
0.3650135813961111
 40
0.0215627418991744
 50
269.9997583630888
 51
359.999758364108
 73
     0
 72
     1
 10
2.608520455482373
 20
0.3650136723335662
 11
2.608520455482373
 21
0.3542324377902786
 72
     1
 10
2.608520455482373
 20
0.3542324377902786
 11
2.586957622645552
 21
0.3542324377902786
 72
     2
 10
2.576176208103625
 20
0.3542322577916381
 40
0.0107814145434302
 50
0.0009565685814303
 51
90.00095658455173
 73
     1
 72
     1
 10
2.576176028101979
 20
0.3650136723335662
 11
2.481864141488966
 21
0.3650136723335662
 72
     2
 10
2.481864045863444
 20
0.3542323421656055
 40
0.0107813301683848
 50
89.99949181235312
 51
179.9994918168631
 73
     1
 72
     1
 10
2.471082715695484
 20
0.3542324377902786
 11
2.471082715695484
 21
0.2902950591455122
 72
     2
 10
2.481864090863785
 20
0.2902951097704553
 40
0.0107813751684203
 50
180.0002690376259
 51
270.0002690388874
 73
     1
 72
     1
 10
2.481864141488966
 20
0.2795137346021532
 11
2.576176028101979
 21
0.2795135546020104
 72
     2
 10
2.576176073102679
 20
0.2902951041456356
 40
0.010781549543719
 50
269.9997608553225
 51
359.9992825760937
 73
     1
 72
     1
 10
2.586957622645552
 20
0.2902949691454408
 11
2.608520455482373
 21
0.2902950591455122
 72
     1
 10
2.608520455482373
 20
0.2902950591455122
 11
2.608520099232048
 21
0.2795134664769192
 72
     2
 10
2.586957670458414
 20
0.2795136024145366
 40
0.0215624287740632
 50
0.0003612140281018
 51
90.00012704854281
 73
     0
 72
     1
 10
2.586957622645552
 20
0.2579511736405264
 11
2.471082715695484
 21
0.2579511736405264
 72
     2
 10
2.471082667882924
 20
0.2795136024144634
 40
0.02156242877399
 50
89.99987295225965
 51
179.9998729525419
 73
     0
 72
     1
 10
2.449520239108988
 20
0.2795135546020104
 11
2.449520239108988
 21
0.3650137623336376
 97
        0
 75
     0
 76
     1
 98
        1
 10
-7.279586802153931
 20
-0.4081141432880261
  0
HATCH
  5
847
330
841
100
AcDbEntity
  8
TITLEBLOCK
 62
     0
100
AcDbHatch
 10
0.0
 20
0.0
 30
0.0
210
0.0
220
0.0
230
1.0
  2
SOLID
 70
     1
 71
     0
 91
        1
 92
        1
 93
       12
 72
     1
 10
2.026708344139745
 20
0.3865765014202565
 11
1.890208311215626
 21
0.3865765014202565
 72
     1
 10
1.890208311215626
 20
0.3865765014202565
 11
1.890208311215626
 21
0.2579511736405264
 72
     1
 10
1.890208311215626
 20
0.2579511736405264
 11
2.026708344139745
 21
0.2579511736405264
 72
     1
 10
2.026708344139745
 20
0.2579511736405264
 11
2.026708344139745
 21
0.2795135546020104
 72
     1
 10
2.026708344139745
 20
0.2795135546020104
 11
1.911770600302059
 21
0.2795135546020104
 72
     1
 10
1.911770600302059
 20
0.2795135546020104
 11
1.911770600302059
 21
0.3114825579869829
 72
     1
 10
1.911770600302059
 20
0.3114825579869829
 11
2.026708344139745
 21
0.3114825579869829
 72
     1
 10
2.026708344139745
 20
0.3114825579869829
 11
2.026708344139745
 21
0.333044848948566
 72
     1
 10
2.026708344139745
 20
0.333044848948566
 11
1.911770600302059
 21
0.333044848948566
 72
     1
 10
1.911770600302059
 20
0.333044848948566
 11
1.911770600302059
 21
0.3650136723335662
 72
     1
 10
1.911770600302059
 20
0.3650136723335662
 11
2.026708344139745
 21
0.3650136723335662
 72
     1
 10
2.026708344139745
 20
0.3650136723335662
 11
2.026708344139745
 21
0.3865765014202565
 97
        0
 75
     0
 76
     1
 98
        1
 10
-7.279586802153931
 20
-0.4081141432880261
  0
HATCH
  5
848
330
841
100
AcDbEntity
  8
TITLEBLOCK
 62
     0
100
AcDbHatch
 10
0.0
 20
0.0
 30
0.0
210
0.0
220
0.0
230
1.0
  2
SOLID
 70
     1
 71
     0
 91
        2
 92
        1
 93
        8
 72
     1
 10
1.614830743814064
 20
0.3865765014202565
 11
1.531145595393223
 21
0.2579509955155343
 72
     1
 10
1.531145595393223
 20
0.2579509955155343
 11
1.556870855949323
 21
0.2579511736405264
 72
     1
 10
1.556870855949323
 20
0.2579511736405264
 11
1.570898996363819
 21
0.2795135546020104
 72
     1
 10
1.570898996363819
 20
0.2795135546020104
 11
1.673830432358027
 21
0.2795135546020104
 72
     1
 10
1.673830432358027
 20
0.2795135546020104
 11
1.687858760272586
 21
0.2579514417655899
 72
     1
 10
1.687858760272586
 20
0.2579514417655899
 11
1.713583120827973
 21
0.2579514417655899
 72
     1
 10
1.713583120827973
 20
0.2579514417655899
 11
1.629898141157394
 21
0.3865765014202565
 72
     1
 10
1.629898141157394
 20
0.3865765014202565
 11
1.614830743814064
 21
0.3865765014202565
 97
        0
 92
       16
 93
        3
 72
     1
 10
1.622364536235675
 20
0.3586169575295115
 11
1.659801223192726
 21
0.3010763836888712
 72
     1
 10
1.659801223192726
 20
0.3010763836888712
 11
1.584928205528949
 21
0.3010762055637086
 72
     1
 10
1.584928205528949
 20
0.3010762055637086
 11
1.622364348735612
 21
0.3586165994043766
 97
        0
 75
     0
 76
     1
 98
        1
 10
-7.279586802153931
 20
-0.4081141432880261
  0
HATCH
  5
849
330
841
100
AcDbEntity
  8
TITLEBLOCK
 62
     0
100
AcDbHatch
 10
0.0
 20
0.0
 30
0.0
210
0.0
220
0.0
230
1.0
  2
SOLID
 70
     1
 71
     0
 91
        1
 92
        1
 93
       12
 72
     1
 10
1.392021104504447
 20
0.3865765014202565
 11
1.370458815418015
 21
0.3865765014202565
 72
     1
 10
1.370458815418015
 20
0.3865765014202565
 11
1.370458627917951
 21
0.2795138227272444
 72
     2
 10
1.39202114575308
 20
0.2795135133528436
 40
0.0215625178373483
 50
179.999177932392
 51
269.9998903944058
 73
     1
 72
     1
 10
1.392021104504447
 20
0.2579509955155343
 11
1.509583287556818
 21
0.2579511736405264
 72
     2
 10
1.509583335369764
 20
0.2795136024146219
 40
0.0215624287741484
 50
269.9998729512306
 51
359.9996387857453
 73
     1
 72
     1
 10
1.531145764143484
 20
0.2795134664769192
 11
1.531146120393639
 21
0.3865765014202565
 72
     1
 10
1.531146120393639
 20
0.3865765014202565
 11
1.509583287556818
 21
0.3865765014202565
 72
     1
 10
1.509583287556818
 20
0.3865765014202565
 11
1.509583287556818
 21
0.2902950591455122
 72
     2
 10
1.498801916139266
 20
0.290294926019563
 40
0.0107813714183743
 50
359.9992925246018
 51
449.9992925333428
 73
     0
 72
     1
 10
1.49880204926357
 20
0.2795135546020104
 11
1.402802342797695
 21
0.2795135546020104
 72
     2
 10
1.402802382172719
 20
0.2902950197703451
 40
0.0107814651684066
 50
90.00020925010334
 51
180.0002092508632
 73
     0
 72
     1
 10
1.392020917004384
 20
0.2902950591455122
 11
1.392021104504447
 21
0.3865765014202565
 97
        0
 75
     0
 76
     1
 98
        1
 10
-7.279586802153931
 20
-0.4081141432880261
  0
HATCH
  5
84A
330
841
100
AcDbEntity
  8
TITLEBLOCK
 62
     0
100
AcDbHatch
 10
0.0
 20
0.0
 30
0.0
210
0.0
220
0.0
230
1.0
  2
SOLID
 70
     1
 71
     0
 91
        2
 92
        1
 93
       13
 72
     2
 10
1.851958289039648
 20
0.2899198104641797
 40
0.0215625675244637
 50
0.0002565813902296
 51
90.00070498518821
 73
     1
 72
     2
 10
1.851958289040149
 20
0.3330449455099156
 40
0.0215625675245372
 50
269.9992950134807
 51
359.9995092535441
 73
     1
 72
     1
 10
1.873520856563896
 20
0.3330447608234748
 11
1.873520856563896
 21
0.3650136657708798
 72
     2
 10
1.851957894958188
 20
0.3650135398162329
 40
0.0215629616060761
 50
0.0003346789653151
 51
89.99920945081219
 73
     1
 72
     1
 10
1.851958192477166
 20
0.3865765014202565
 11
1.720333350237904
 21
0.3865765014202565
 72
     1
 10
1.720333350237904
 20
0.3865765014202565
 11
1.720333350237904
 21
0.2579511736405264
 72
     1
 10
1.720333350237904
 20
0.2579511736405264
 11
1.741896183074725
 21
0.2579511736405264
 72
     1
 10
1.741896183074725
 20
0.2579511736405264
 11
1.741896183074725
 21
0.3007013215688856
 72
     1
 10
1.741896183074725
 20
0.3007013215688856
 11
1.841176785433827
 21
0.3007013215688856
 72
     2
 10
1.841176693559081
 20
0.2899201789011263
 40
0.0107811426681508
 50
270.0004882631974
 51
360.0004882673548
 73
     0
 72
     1
 10
1.851957836226841
 20
0.289920087025598
 11
1.851958192477166
 21
0.2579511736405264
 72
     1
 10
1.851958192477166
 20
0.2579511736405264
 11
1.873520856563896
 21
0.2579511736405264
 72
     1
 10
1.873520856563896
 20
0.2579511736405264
 11
1.873520856563896
 21
0.2899199070254552
 97
        0
 92
       16
 93
        6
 72
     2
 10
1.841176693559081
 20
0.3542325296658069
 40
0.0107811426681508
 50
270.0004882631974
 51
360.0004882673548
 73
     0
 72
     1
 10
1.851957836226841
 20
0.3542324377902786
 11
1.851958192477166
 21
0.333044848948566
 72
     2
 10
1.841176871684197
 20
0.333044935198247
 40
0.0107813207933138
 50
0.0004583615308307
 51
90.00045836519477
 73
     0
 72
     1
 10
1.841176785433827
 20
0.3222636144052784
 11
1.741896183074725
 21
0.3222638825303419
 72
     1
 10
1.741896183074725
 20
0.3222638825303419
 11
1.741896183074725
 21
0.3650136723335662
 72
     1
 10
1.741896183074725
 20
0.3650136723335662
 11
1.841176785433827
 21
0.3650136723335662
 97
        0
 75
     0
 76
     1
 98
        1
 10
-7.279586802153931
 20
-0.4081141432880261
  0
HATCH
  5
84B
330
841
100
AcDbEntity
  8
TITLEBLOCK
 62
     0
100
AcDbHatch
 10
0.0
 20
0.0
 30
0.0
210
0.0
220
0.0
230
1.0
  2
SOLID
 70
     1
 71
     0
 91
        2
 92
        1
 93
       10
 72
     1
 10
2.168832611988261
 20
0.3650136723335662
 11
2.168832611988261
 21
0.2795135546021492
 72
     1
 10
2.168832611988261
 20
0.2795135546021492
 11
2.148020079641632
 21
0.2795135546021492
 72
     1
 10
2.148020079641632
 20
0.2795135546021492
 11
2.148020079641632
 21
0.2579511736406499
 72
     1
 10
2.148020079641632
 20
0.2579511736406499
 11
2.314895263659607
 21
0.2579511736406499
 72
     2
 10
2.314895311472477
 20
0.2795136024147182
 40
0.0215624287741214
 50
269.9998729514336
 51
359.9996387859474
 73
     1
 72
     1
 10
2.336457740246171
 20
0.2795134664770916
 11
2.336457740246171
 21
0.3650136723335662
 72
     2
 10
2.314895087410214
 20
0.3650138485844006
 40
0.0215626528366775
 50
359.9995316703829
 51
449.999531674211
 73
     1
 72
     1
 10
2.314895263659607
 20
0.386576501420358
 11
2.148020079641632
 21
0.386576501420358
 72
     1
 10
2.148020079641632
 20
0.386576501420358
 11
2.148020079641632
 21
0.3650136723335662
 72
     1
 10
2.148020079641632
 20
0.3650136723335662
 11
2.168832611988261
 21
0.3650136723335662
 97
        0
 92
       16
 93
        6
 72
     1
 10
2.190395257324933
 20
0.3650136723335662
 11
2.304113856616218
 21
0.3650136723335662
 72
     2
 10
2.304113942866619
 20
0.3542323515405775
 40
0.0107813207933337
 50
269.9995416346447
 51
359.9995416383139
 73
     0
 72
     1
 10
2.314895263659607
 20
0.3542324377902877
 11
2.314895263659607
 21
0.2902949691455452
 72
     2
 10
2.304113807866077
 20
0.2902950103956483
 40
0.0107814557936096
 50
0.0002192149982456
 51
89.99974092762393
 73
     0
 72
     1
 10
2.304113856616218
 20
0.2795135546021492
 11
2.190395257324933
 21
0.2795135546021492
 72
     1
 10
2.190395257324933
 20
0.2795135546021492
 11
2.190395257324933
 21
0.3650136723335662
 97
        0
 75
     0
 76
     1
 98
        1
 10
-7.279586802153931
 20
-0.4081141432880261
  0
HATCH
  5
84C
330
841
100
AcDbEntity
  8
TITLEBLOCK
 62
     0
100
AcDbHatch
 10
0.0
 20
0.0
 30
0.0
210
0.0
220
0.0
230
1.0
  2
SOLID
 70
     1
 71
     0
 91
        2
 92
        1
 93
        8
 72
     1
 10
3.241392303571654
 20
0.3865765014202565
 11
3.157707226761072
 21
0.2579509955155343
 72
     1
 10
3.157707226761072
 20
0.2579509955155343
 11
3.183432299816939
 21
0.2579511736405264
 72
     1
 10
3.183432299816939
 20
0.2579511736405264
 11
3.197460983981823
 21
0.2795133764768478
 72
     1
 10
3.197460983981823
 20
0.2795133764768478
 11
3.30039082622498
 21
0.2795135546020104
 72
     1
 10
3.30039082622498
 20
0.2795135546020104
 11
3.314419679139785
 21
0.2579514417655899
 72
     1
 10
3.314419679139785
 20
0.2579514417655899
 11
3.340144583445731
 21
0.2579511736405264
 72
     1
 10
3.340144583445731
 20
0.2579511736405264
 11
3.256459603774981
 21
0.3865765014202565
 72
     1
 10
3.256459603774981
 20
0.3865765014202565
 11
3.241392303571654
 21
0.3865765014202565
 97
        0
 92
       16
 93
        3
 72
     1
 10
3.248925740352245
 20
0.358616778466603
 11
3.211489480646473
 21
0.3010762055637086
 72
     1
 10
3.211489480646473
 20
0.3010762055637086
 11
3.28636178580994
 21
0.3010763836888712
 72
     1
 10
3.28636178580994
 20
0.3010763836888712
 11
3.248925740352245
 21
0.358616778466603
 97
        0
 75
     0
 76
     1
 98
        1
 10
-7.279586802153931
 20
-0.4081141432880261
  0
HATCH
  5
84D
330
841
100
AcDbEntity
  8
TITLEBLOCK
 62
     0
100
AcDbHatch
 10
0.0
 20
0.0
 30
0.0
210
0.0
220
0.0
230
1.0
  2
SOLID
 70
     1
 71
     0
 91
        1
 92
        1
 93
       13
 72
     1
 10
2.838488736968525
 20
0.3865765014202565
 11
2.806145209588674
 21
0.3865765014202565
 72
     1
 10
2.806145209588674
 20
0.3865765014202565
 11
2.806145209588674
 21
0.2579511736405264
 72
     1
 10
2.806145209588674
 20
0.2579511736405264
 11
2.827707667425368
 21
0.2579511736405264
 72
     1
 10
2.827707667425368
 20
0.2579511736405264
 11
2.827707667425368
 21
0.3640633654626753
 72
     1
 10
2.827707667425368
 20
0.3640633654626753
 11
2.899718420719221
 21
0.2579514417655899
 72
     1
 10
2.899718420719221
 20
0.2579514417655899
 11
2.922570860648686
 21
0.2579511736405264
 72
     1
 10
2.922570860648686
 20
0.2579511736405264
 11
2.994582138942956
 21
0.3640642598382782
 72
     1
 10
2.994582138942956
 20
0.3640642598382782
 11
2.994582138942956
 21
0.2579511736405264
 72
     1
 10
2.994582138942956
 20
0.2579511736405264
 11
3.016144596779479
 21
0.2579511736405264
 72
     1
 10
3.016144596779479
 20
0.2579511736405264
 11
3.016144596779479
 21
0.3865765014202565
 72
     1
 10
3.016144596779479
 20
0.3865765014202565
 11
2.983801425649954
 21
0.3865765014202565
 72
     1
 10
2.983801425649954
 20
0.3865765014202565
 11
2.911144640683954
 21
0.2795135546020104
 72
     1
 10
2.911144640683954
 20
0.2795135546020104
 11
2.838488380718199
 21
0.3865765014202565
 97
        0
 75
     0
 76
     1
 98
        1
 10
-7.279586802153931
 20
-0.4081141432880261
  0
HATCH
  5
84E
330
841
100
AcDbEntity
  8
TITLEBLOCK
 62
     0
100
AcDbHatch
 10
0.0
 20
0.0
 30
0.0
210
0.0
220
0.0
230
1.0
  2
SOLID
 70
     1
 71
     0
 91
        2
 92
        1
 93
        8
 72
     1
 10
2.79358243888161
 20
0.2795134664769192
 11
2.793582795131936
 21
0.3650136723335662
 72
     2
 10
2.772020240733041
 20
0.3650137688961994
 40
0.0215625543991104
 50
359.9997434148459
 51
449.999743415997
 73
     1
 72
     1
 10
2.772020337295241
 20
0.3865763232950938
 11
2.640957676673206
 21
0.3865763232950938
 72
     2
 10
2.640957763860811
 20
0.3650137595211699
 40
0.0215625637741002
 50
90.00023167383188
 51
179.9999925267453
 73
     1
 72
     1
 10
2.61939520008671
 20
0.3650137623336376
 11
2.61939520008671
 21
0.2795135546020104
 72
     2
 10
2.640957628860649
 20
0.2795136024144641
 40
0.0215624287739915
 50
180.0001270474597
 51
270.0001270477355
 73
     1
 72
     1
 10
2.640957676673206
 20
0.2579511736405264
 11
2.772020337295241
 21
0.2579511736405264
 72
     2
 10
2.772020197607671
 20
0.2795134149140743
 40
0.0215622412740004
 50
270.000371181646
 51
360.000137014207
 73
     1
 97
        0
 92
       16
 93
        8
 72
     2
 10
2.651738913091431
 20
0.3542324359149649
 40
0.0107812364186015
 50
89.9999900344766
 51
179.999521702949
 73
     1
 72
     1
 10
2.640957676673206
 20
0.3542325259151993
 11
2.640957676673206
 21
0.2902950591455122
 72
     2
 10
2.651738958091508
 20
0.2902950160204556
 40
0.010781281418388
 50
179.9997708172488
 51
269.9997708181704
 73
     1
 72
     1
 10
2.651738914966625
 20
0.2795137346021532
 11
2.761238742751839
 21
0.2795135546020104
 72
     2
 10
2.761238956501978
 20
0.2902951041442614
 40
0.0107815495443698
 50
269.9988640797126
 51
359.9992825833961
 73
     1
 72
     1
 10
2.772020506045503
 20
0.2902949691454408
 11
2.772020337295241
 21
0.3542324377902786
 72
     2
 10
2.761239007127366
 20
0.3542323421656908
 40
0.0107813301682991
 50
0.0005081826837109
 51
90.00050818719378
 73
     1
 72
     1
 10
2.76123891150193
 20
0.3650136723335662
 11
2.651738914966625
 21
0.3650136723335662
 97
        0
 75
     0
 76
     1
 98
        1
 10
-7.279586802153931
 20
-0.4081141432880261
  0
HATCH
  5
84F
330
841
100
AcDbEntity
  8
TITLEBLOCK
 62
     0
100
AcDbHatch
 10
0.0
 20
0.0
 30
0.0
210
0.0
220
0.0
230
1.0
  2
SOLID
 70
     1
 71
     0
 91
        2
 92
        1
 93
        8
 72
     2
 10
3.162769048174736
 20
0.3650134554401196
 40
0.0215630459811904
 50
270.0005663490367
 51
359.9994236862867
 73
     0
 72
     1
 10
3.184332094154836
 20
0.3650136723335662
 11
3.184332094154836
 21
0.3222638825303419
 72
     2
 10
3.162769397256125
 20
0.3222640184675962
 40
0.0215626968991391
 50
0.0003612085718475
 51
90.00036121084693
 73
     0
 72
     1
 10
3.162769261318015
 20
0.3007013215688856
 11
3.052707420665665
 21
0.3007013215688856
 72
     1
 10
3.052707420665665
 20
0.3007013215688856
 11
3.052707420665665
 21
0.2579511736405264
 72
     1
 10
3.052707420665665
 20
0.2579511736405264
 11
3.031144250328662
 21
0.2579511736405264
 72
     1
 10
3.031144250328662
 20
0.2579511736405264
 11
3.031144250328662
 21
0.3865765014202565
 72
     1
 10
3.031144250328662
 20
0.3865765014202565
 11
3.162769261318015
 21
0.3865765014202565
 97
        0
 92
       16
 93
        6
 72
     2
 10
3.151988118650169
 20
0.3542325296657216
 40
0.0107811426682361
 50
270.0004882627443
 51
360.0004882669015
 73
     0
 72
     1
 10
3.162769261318015
 20
0.3542324377902786
 11
3.162769261318015
 21
0.333044848948566
 72
     2
 10
3.151988118650169
 20
0.333044757073123
 40
0.0107811426682367
 50
359.9995117330984
 51
449.9995117372556
 73
     0
 72
     1
 10
3.15198821052483
 20
0.3222636144052784
 11
3.052707420665665
 21
0.3222638825303419
 72
     1
 10
3.052707420665665
 20
0.3222638825303419
 11
3.052707420665665
 21
0.3650136723335662
 72
     1
 10
3.052707420665665
 20
0.3650136723335662
 11
3.15198821052483
 21
0.3650136723335662
 97
        0
 75
     0
 76
     1
 98
        1
 10
-7.279586802153931
 20
-0.4081141432880261
  0
HATCH
  5
850
330
841
100
AcDbEntity
  8
TITLEBLOCK
 62
     0
100
AcDbHatch
 10
0.0
 20
0.0
 30
0.0
210
0.0
220
0.0
230
1.0
  2
SOLID
 70
     1
 71
     0
 91
        1
 92
        1
 93
        9
 72
     1
 10
3.556847887515953
 20
0.3865763232950938
 11
3.525206566844968
 21
0.3865765014202565
 72
     1
 10
3.525206566844968
 20
0.3865765014202565
 11
3.60348814923547
 21
0.3136817019238036
 72
     1
 10
3.60348814923547
 20
0.3136817019238036
 11
3.603486349234383
 21
0.2579511736405264
 72
     1
 10
3.603486349234383
 20
0.2579511736405264
 11
3.625050607072164
 21
0.2579511736405264
 72
     1
 10
3.625050607072164
 20
0.2579511736405264
 11
3.625050607072164
 21
0.3136813437984982
 72
     1
 10
3.625050607072164
 20
0.3136813437984982
 11
3.703331833212512
 21
0.3865766795454191
 72
     1
 10
3.703331833212512
 20
0.3865766795454191
 11
3.671691225042007
 21
0.3865765014202565
 72
     1
 10
3.671691225042007
 20
0.3865765014202565
 11
3.61426955627898
 21
0.3331056458632473
 72
     1
 10
3.61426955627898
 20
0.3331056458632473
 11
3.556847887515953
 21
0.3865763232950938
 97
        0
 75
     0
 76
     1
 98
        1
 10
-7.279586802153931
 20
-0.4081141432880261
  0
HATCH
  5
851
330
841
100
AcDbEntity
  8
TITLEBLOCK
 62
     0
100
AcDbHatch
 10
0.0
 20
0.0
 30
0.0
210
0.0
220
0.0
230
1.0
  2
SOLID
 70
     1
 71
     0
 91
        1
 92
        1
 93
       10
 72
     1
 10
3.376247484495632
 20
0.3865765014202565
 11
3.345207161752892
 21
0.3865765014202565
 72
     1
 10
3.345207161752892
 20
0.3865765014202565
 11
3.345207161752892
 21
0.2579511736405264
 72
     1
 10
3.345207161752892
 20
0.2579511736405264
 11
3.366769638339558
 21
0.2579511736405264
 72
     1
 10
3.366769638339558
 20
0.2579511736405264
 11
3.366769638339558
 21
0.3659393041881229
 72
     1
 10
3.366769638339558
 20
0.3659393041881229
 11
3.48273627034943
 21
0.2579509955155343
 72
     1
 10
3.48273627034943
 20
0.2579509955155343
 11
3.515082122730785
 21
0.2579511736405264
 72
     1
 10
3.515082122730785
 20
0.2579511736405264
 11
3.515082122730785
 21
0.3865765014202565
 72
     1
 10
3.515082122730785
 20
0.3865765014202565
 11
3.49351767739277
 21
0.3865765014202565
 72
     1
 10
3.49351767739277
 20
0.3865765014202565
 11
3.49351767739277
 21
0.277374671329744
 72
     1
 10
3.49351767739277
 20
0.277374671329744
 11
3.376247484495632
 21
0.3865765014202565
 97
        0
 75
     0
 76
     1
 98
        1
 10
-7.279586802153931
 20
-0.4081141432880261
  0
ENDBLK
  5
853
330
841
100
AcDbEntity
  8
0
100
AcDbBlockEnd
  0
BLOCK
  5
AF5
330
AE5
100
AcDbEntity
  8
0
100
AcDbBlockBegin
  2
TITLE-PAD
 70
     2
 10
0.0
 20
0.0
 30
0.0
  3
TITLE-PAD
  1

  0
LWPOLYLINE
  5
B1D
330
AE5
100
AcDbEntity
  8
CONTINUOUS2
 62
     0
100
AcDbPolyline
 90
        7
 70
     1
 43
0.0
 10
16.40000099999999
 20
0.0
 10
16.40000099999999
 20
0.0
 10
16.40000099999999
 20
0.0
 10
8.002461
 20
0.0
 10
8.002461
 20
0.9120019999999993
 10
16.40000099999999
 20
0.9120019999999993
 10
16.40000099999999
 20
0.0
  0
INSERT
  5
B1E
330
AE5
100
AcDbEntity
  8
TITLEBLOCK
 62
     0
100
AcDbBlockReference
  2
LOGO-PAD
 10
12.245701
 20
0.3040000000000003
 30
0.0
  0
LINE
  5
B1F
330
AE5
100
AcDbEntity
  8
CONTINUOUS2
 62
     0
100
AcDbLine
 10
16.40000099999999
 20
0.3040000000000003
 30
0.0
 11
12.245701
 21
0.3040000000000003
 31
0.0
  0
LINE
  5
B20
330
AE5
100
AcDbEntity
  8
CONTINUOUS2
 62
     0
100
AcDbLine
 10
12.245701
 20
0.9120019999999993
 30
0.0
 11
12.245701
 21
0.0
 31
0.0
  0
TEXT
  5
B21
330
AE5
100
AcDbEntity
  8
TEXT1
  6
CONTINUOUS
 62
     0
100
AcDbText
 10
12.36897712113656
 20
0.0611566731182909
 30
0.0
 40
0.0699999951940822
  1
NO.
  7
ROMANS
 11
12.36897712113656
 21
0.096156670715332
 31
0.0
100
AcDbText
 73
     2
  0
TEXT
  5
B22
330
AE5
100
AcDbEntity
  8
TEXT1
  6
CONTINUOUS
 62
     0
100
AcDbText
 10
12.36897712113656
 20
0.1661566731182908
 30
0.0
 40
0.0699999951940822
  1
DWG#
  7
ROMANS
 11
12.36897712113656
 21
0.2011566707153319
 31
0.0
100
AcDbText
 73
     2
  0
ATTDEF
  5
B23
330
AE5
100
AcDbEntity
  8
TEXT1
 62
     0
100
AcDbText
 10
10.10183834893798
 20
0.7474460884590166
 30
0.0
 40
0.1
  1

  7
ROMANS
 72
     4
 11
10.10183834893798
 21
0.7474460884590166
 31
0.0
100
AcDbAttributeDefinition
  3
DESCRIPTION 1
  2
DESCRIPTION 1
 70
     0
  0
ATTDEF
  5
B24
330
AE5
100
AcDbEntity
  8
TEXT1
 62
     0
100
AcDbText
 10
10.10183834893798
 20
0.6017231711406717
 30
0.0
 40
0.1
  1

  7
ROMANS
 72
     4
 11
10.10183834893798
 21
0.6017231711406717
 31
0.0
100
AcDbAttributeDefinition
  3
DESCRIPTION 2
  2
DESCRIPTION 2
 70
     0
  0
ATTDEF
  5
B25
330
AE5
100
AcDbEntity
  8
TEXT1
 62
     0
100
AcDbText
 10
10.10183834893798
 20
0.4560002538223267
 30
0.0
 40
0.08
  1

  7
ROMANS
 72
     4
 11
10.10183834893798
 21
0.4560002538223267
 31
0.0
100
AcDbAttributeDefinition
  3
DESCRIPTION 3
  2
DESCRIPTION 3
 70
     0
  0
ATTDEF
  5
B26
330
AE5
100
AcDbEntity
  8
TEXT1
 62
     0
100
AcDbText
 10
10.10183834893798
 20
0.3202773365039833
 30
0.0
 40
0.08
  1

  7
ROMANS
 72
     4
 11
10.10183834893798
 21
0.3202773365039833
 31
0.0
100
AcDbAttributeDefinition
  3
DESCRIPTION 4
  2
DESCRIPTION 4
 70
     0
  0
ATTDEF
  5
B27
330
AE5
100
AcDbEntity
  8
TEXT1
 62
     0
100
AcDbText
 10
10.10183834893798
 20
0.1845544191856399
 30
0.0
 40
0.08
  1

  7
ROMANS
 72
     4
 11
10.10183834893798
 21
0.1845544191856399
 31
0.0
100
AcDbAttributeDefinition
  3
DESCRIPTION 5
  2
DESCRIPTION 5
 70
     0
  0
ATTDEF
  5
B28
330
AE5
100
AcDbEntity
  8
TEXT1
 62
     0
100
AcDbText
 10
12.74772367103195
 20
0.096540546036505
 30
0.0
 40
0.12
  1

 41
0.9512024731840066
  7
M_STANDARD
 11
12.74772367103195
 21
0.156540546036505
 31
0.0
100
AcDbAttributeDefinition
  3
DRAWING NUMBER
  2
DWGNO
 70
     0
 74
     2
  0
ATTDEF
  5
B29
330
AE5
100
AcDbEntity
  8
TEXT1
 62
     0
100
AcDbText
 10
16.35506454949325
 20
-0.1507193079929352
 30
0.0
 40
0.08
  1

  7
ROMANS
 72
     2
 11
16.35506454949325
 21
-0.1107193079929352
 31
0.0
100
AcDbAttributeDefinition
  3
REF DWG #
  2
REF
 70
     0
 74
     2
  0
ATTDEF
  5
B2A
330
AE5
100
AcDbEntity
  8
TEXT1
 62
     0
100
AcDbText
 10
0.0266402374038712
 20
-0.1507193079929352
 30
0.0
 40
0.08
  1

  7
ROMANS
 11
0.0266402374038712
 21
-0.1107193079929352
 31
0.0
100
AcDbAttributeDefinition
  3
DATE MODIFIED
  2
DATE
 70
     0
 74
     2
  0
LWPOLYLINE
  5
B2B
330
AE5
100
AcDbEntity
  8
CONTINUOUS3
 62
     0
100
AcDbPolyline
 90
        4
 70
   129
 43
0.0
 10
0.0
 20
0.0
 10
16.40000099999999
 20
0.0
 10
16.40000099999999
 20
10.25
 10
0.0
 20
10.25
  0
ENDBLK
  5
AF6
330
AE5
100
AcDbEntity
  8
0
100
AcDbBlockEnd
  0
BLOCK
  5
D84
330
D52
100
AcDbEntity
  8
0
100
AcDbBlockBegin
  2
OEM-NOTES
 70
     0
 10
0.0
 20
0.0
 30
0.0
  3
OEM-NOTES
  1

  0
LWPOLYLINE
  5
D53
330
D52
100
AcDbEntity
  8
TITLEBLOCK
100
AcDbPolyline
 90
        2
 70
     0
 43
0.0128
 10
8.625
 20
1.599999999999996
 10
0.0
 20
1.6
  0
TEXT
  5
D57
330
D52
100
AcDbEntity
  8
TITLEBLOCK
100
AcDbText
 10
0.3131249999999959
 20
0.7406249999999998
 30
0.0
 40
0.13125
  1
BE USED ONLY IN CONFORMANCE WITH INSTRUCTIONS ISSUED BY SQUARE D COMPANY.
 41
0.9
  7
SIMPLEX
 72
     4
 11
4.3125
 21
0.7999999999999999
 31
0.0
100
AcDbText
  0
TEXT
  5
D58
330
D52
100
AcDbEntity
  8
TITLEBLOCK
100
AcDbText
 10
0.2540625000000007
 20
1.045625000000001
 30
0.0
 40
0.13125
  1
HEREON. THIS INFORMATION REMAINS THE PROPERTY OF SQUARE D COMPANY AND MAY
 41
0.9
  7
SIMPLEX
 72
     4
 11
4.3125
 21
1.105000000000001
 31
0.0
100
AcDbText
  0
TEXT
  5
D59
330
D52
100
AcDbEntity
  8
TITLEBLOCK
100
AcDbText
 10
0.3046875
 20
1.338124999999997
 30
0.0
 40
0.13125
  1
"THE SQUARE D COMPANY HAS PROPRIETARY RIGHTS TO THE INFORMATION CONTAINED
 41
0.9
  7
SIMPLEX
 72
     4
 11
4.3125
 21
1.409999999999997
 31
0.0
100
AcDbText
  0
TEXT
  5
D5A
330
D52
100
AcDbEntity
  8
TITLEBLOCK
100
AcDbText
 10
0.6309374999999977
 20
0.4387499999999984
 30
0.0
 40
0.13125
  1
USER SHOULD VERIFY DRAWINGS ARE TO THE LATEST/CURRENT REVISION PRIOR
 41
0.9
  7
SIMPLEX
 72
     4
 11
4.3125
 21
0.4949999999999984
 31
0.0
100
AcDbText
  0
TEXT
  5
D5B
330
D52
100
AcDbEntity
  8
TITLEBLOCK
100
AcDbText
 10
2.5490625
 20
0.1368749999999972
 30
0.0
 40
0.13125
  1
TO INCORPORATING IN A DESIGN FILE."
 41
0.9
  7
SIMPLEX
 72
     4
 11
4.3125
 21
0.2149999999999972
 31
0.0
100
AcDbText
  0
TEXT
  5
D5C
330
D52
100
AcDbEntity
  8
TITLEBLOCK
100
AcDbText
 10
9.046378855339687
 20
0.2629426489623099
 30
0.0
 40
0.112
  1
UNLESS OTHERWISE SPECIFIED DIMENSIONS ARE IN INCHES
 41
0.8
  7
SIMPLEX
 72
     4
 11
11.06451218867302
 21
0.3189426489623099
 31
0.0
100
AcDbText
  0
LWPOLYLINE
  5
D5D
330
D52
100
AcDbEntity
  8
TITLEBLOCK
100
AcDbPolyline
 90
        2
 70
     0
 43
0.0128
 10
8.625
 20
0.9599999999999964
 10
16.00492200000007
 20
0.9599999999999964
  0
TEXT
  5
D61
330
D52
100
AcDbEntity
  8
TITLEBLOCK
100
AcDbText
 10
8.7837120071254
 20
0.5472199999999967
 30
0.0
 40
0.2433162500000002
  1
%%uDO NOT SCALE DRAWING
  7
SIMPLEX
 72
     1
 11
11.06451218867302
 21
0.5472199999999967
 31
0.0
100
AcDbText
  0
LWPOLYLINE
  5
D62
330
D52
100
AcDbEntity
  8
TITLEBLOCK
100
AcDbPolyline
 90
        2
 70
     0
 43
0.0128
 10
8.625
 20
0.9599999999999964
 10
8.625
 20
0.0000000000000009
  0
LWPOLYLINE
  5
D66
330
D52
100
AcDbEntity
  8
TITLEBLOCK
100
AcDbPolyline
 90
        2
 70
     0
 43
0.0128
 10
8.625
 20
0.0000000000000009
 10
8.625
 20
1.6
  0
LWPOLYLINE
  5
D6A
330
D52
100
AcDbEntity
  8
TITLEBLOCK
100
AcDbPolyline
 90
        2
 70
     0
 43
0.0128
 10
13.49242200000007
 20
1.599999999999995
 10
13.49242200000007
 20
0.0000000000000009
  0
TEXT
  5
D6E
330
D52
100
AcDbEntity
  8
TITLEBLOCK
100
AcDbText
 10
13.77242200000007
 20
0.2099999999999964
 30
0.0
 40
0.1
  1
2 PLACE DECIMALS
  7
SIMPLEX
100
AcDbText
  0
TEXT
  5
D6F
330
D52
100
AcDbEntity
  8
TITLEBLOCK
100
AcDbText
 10
13.62242200000007
 20
0.4474999999999972
 30
0.0
 40
0.1
  1
UNLESS OTHERWISE SPECIFIED
  7
SIMPLEX
100
AcDbText
  0
TEXT
  5
D70
330
D52
100
AcDbEntity
  8
TITLEBLOCK
100
AcDbText
 10
15.57242200000007
 20
0.2099999999999964
 30
0.0
 40
0.1
  1
.01
  7
SIMPLEX
100
AcDbText
  0
LINE
  5
D71
330
D52
100
AcDbEntity
  8
TITLEBLOCK
100
AcDbLine
 10
15.35492200000008
 20
0.2187499999999973
 30
0.0
 11
15.45492200000008
 21
0.2187499999999973
 31
0.0
  0
TEXT
  5
D72
330
D52
100
AcDbEntity
  8
TITLEBLOCK
100
AcDbText
 10
15.35992200000007
 20
0.2474999999999961
 30
0.0
 40
0.1
  1
+
  7
SIMPLEX
100
AcDbText
  0
LWPOLYLINE
  5
D73
330
D52
100
AcDbEntity
  8
TITLEBLOCK
100
AcDbPolyline
 90
        2
 70
     0
 43
0.0128
 10
16.00492200000007
 20
1.599999999999995
 10
13.49242200000007
 20
1.599999999999995
  0
TEXT
  5
D77
330
D52
100
AcDbEntity
  8
TITLEBLOCK
100
AcDbText
 10
13.62242200000007
 20
1.147499999999996
 30
0.0
 40
0.1
  1
PROJECTION
  7
SIMPLEX
100
AcDbText
  0
TEXT
  5
D78
330
D52
100
AcDbEntity
  8
TITLEBLOCK
100
AcDbText
 10
13.55992200000007
 20
1.347499999999997
 30
0.0
 40
0.1
  1
THIRD ANGLE
  7
SIMPLEX
100
AcDbText
  0
LINE
  5
D79
330
D52
100
AcDbEntity
  8
TITLEBLOCK
100
AcDbLine
 10
14.69692486880008
 20
1.300351715199997
 30
0.0
 11
15.91292523520008
 21
1.300351715199997
 31
0.0
  0
TEXT
  5
D7A
330
D52
100
AcDbEntity
  8
TITLEBLOCK
100
AcDbText
 10
14.04742200000008
 20
0.6974999999999972
 30
0.0
 40
0.15
  1
%%uTOLERANCES
  7
SIMPLEX
100
AcDbText
  0
LINE
  5
D7B
330
D52
100
AcDbEntity
  8
TITLEBLOCK
100
AcDbLine
 10
14.95292615040008
 20
1.396354294399999
 30
0.0
 11
14.95292615040008
 21
1.524354553599997
 31
0.0
  0
CIRCLE
  5
D7C
330
D52
100
AcDbEntity
  8
TITLEBLOCK
100
AcDbCircle
 10
14.95292615040008
 20
1.300352668799996
 30
0.0
 40
0.1279999615999998
  0
CIRCLE
  5
D7D
330
D52
100
AcDbEntity
  8
TITLEBLOCK
100
AcDbCircle
 10
14.95292615040008
 20
1.300352668799996
 30
0.0
 40
0.064000004799999
  0
LINE
  5
D7E
330
D52
100
AcDbEntity
  8
TITLEBLOCK
100
AcDbLine
 10
14.95292615040008
 20
1.332351302399996
 30
0.0
 11
14.95292615040008
 21
1.268351172799996
 31
0.0
  0
LINE
  5
D7F
330
D52
100
AcDbEntity
  8
TITLEBLOCK
100
AcDbLine
 10
14.95292615040008
 20
1.204351996799997
 30
0.0
 11
14.95292615040008
 21
1.076351737599998
 31
0.0
  0
LINE
  5
D80
330
D52
100
AcDbEntity
  8
TITLEBLOCK
100
AcDbLine
 10
15.78492230560007
 20
1.172351455999998
 30
0.0
 11
15.33692425760007
 21
1.236351585599996
 31
0.0
  0
LINE
  5
D81
330
D52
100
AcDbEntity
  8
TITLEBLOCK
100
AcDbLine
 10
15.33692425760007
 20
1.364351844799998
 30
0.0
 11
15.78492230560007
 21
1.428351020799996
 31
0.0
  0
LINE
  5
D82
330
D52
100
AcDbEntity
  8
TITLEBLOCK
100
AcDbLine
 10
15.33692425760007
 20
1.236351585599996
 30
0.0
 11
15.33692425760007
 21
1.364351844799998
 31
0.0
  0
LINE
  5
D83
330
D52
100
AcDbEntity
  8
TITLEBLOCK
100
AcDbLine
 10
15.78492230560007
 20
1.428351020799996
 30
0.0
 11
15.78492230560007
 21
1.172351455999998
 31
0.0
  0
ENDBLK
  5
D85
330
D52
100
AcDbEntity
  8
0
100
AcDbBlockEnd
  0
BLOCK
  5
8980
330
896D
100
AcDbEntity
  8
0
100
AcDbBlockBegin
  2
REF2
 70
     2
 10
0.0
 20
0.0
 30
0.0
  3
REF2
  1

  0
ATTDEF
  5
896E
330
896D
100
AcDbEntity
  8
TEXT1
100
AcDbText
 10
2.0
 20
0.2204373050885353
 30
0.0
 40
0.125
  1

100
AcDbAttributeDefinition
  3
Mounting Hardware?
  2
MOUNTING_HWD
 70
     0
  0
ATTDEF
  5
896F
330
896D
100
AcDbEntity
  8
TEXT1
100
AcDbText
 10
2.0
 20
0.4484790897328286
 30
0.0
 40
0.125
  1

100
AcDbAttributeDefinition
  3
Terminal Torque
  2
TERM_TORQUE
 70
     0
  0
ATTDEF
  5
8970
330
896D
100
AcDbEntity
  8
TEXT1
100
AcDbText
 10
2.0
 20
0.6579373050885358
 30
0.0
 40
0.125
  1

100
AcDbAttributeDefinition
  3
Wire Size?
  2
WIRE_SIZE
 70
     0
  0
ATTDEF
  5
8971
330
896D
100
AcDbEntity
  8
TEXT1
100
AcDbText
 10
2.0
 20
0.8564164127663897
 30
0.0
 40
0.125
  1

100
AcDbAttributeDefinition
  3
Weight?
  2
WEIGHT
 70
     0
  0
ATTDEF
  5
8972
330
896D
100
AcDbEntity
  8
TEXT1
100
AcDbText
 10
2.0
 20
1.0625
 30
0.0
 40
0.125
  1

100
AcDbAttributeDefinition
  3
Meets Standards
  2
STANDARDS
 70
     0
  0
ATTDEF
  5
8973
330
896D
100
AcDbEntity
  8
TEXT1
100
AcDbText
 10
2.0
 20
1.293916394821363
 30
0.0
 40
0.125
  1

100
AcDbAttributeDefinition
  3
CSA File/Guide
  2
CSA
 70
     0
  0
ATTDEF
  5
8974
330
896D
100
AcDbEntity
  8
TEXT1
100
AcDbText
 10
2.010983301335643
 20
1.5
 30
0.0
 40
0.125
  1

100
AcDbAttributeDefinition
  3
UL File/Guide?
  2
UL
 70
     0
  0
ATTDEF
  5
8975
330
896D
100
AcDbEntity
  8
TEXT1
100
AcDbText
 10
2.0
 20
1.720437305088535
 30
0.0
 40
0.125
  1

100
AcDbAttributeDefinition
  3
Ratings?
  2
RATING
 70
     0
  0
ATTDEF
  5
8976
330
896D
100
AcDbEntity
  8
TEXT1
100
AcDbText
 10
2.0
 20
1.937499999999999
 30
0.0
 40
0.125
  1

100
AcDbAttributeDefinition
  3
Catalog Number?
  2
CATALOG
 70
     0
  0
TEXT
  5
8977
330
896D
100
AcDbEntity
  8
TEXT1
100
AcDbText
 10
0.1875
 20
0.223214285714286
 30
0.0
 40
0.125
  1
Mounting Hwd.:
100
AcDbText
  0
TEXT
  5
8978
330
896D
100
AcDbEntity
  8
TEXT1
100
AcDbText
 10
0.1875
 20
0.4375000000000005
 30
0.0
 40
0.125
  1
Terminal torque:
100
AcDbText
  0
TEXT
  5
8979
330
896D
100
AcDbEntity
  8
TEXT1
100
AcDbText
 10
0.1875
 20
0.6517857142857149
 30
0.0
 40
0.125
  1
Wire Size:
100
AcDbText
  0
TEXT
  5
897A
330
896D
100
AcDbEntity
  8
TEXT1
100
AcDbText
 10
0.1875
 20
0.8660714285714288
 30
0.0
 40
0.125
  1
Weight:
100
AcDbText
  0
TEXT
  5
897B
330
896D
100
AcDbEntity
  8
TEXT1
100
AcDbText
 10
0.1875
 20
1.080357142857142
 30
0.0
 40
0.125
  1
Meets Standards:
100
AcDbText
  0
TEXT
  5
897C
330
896D
100
AcDbEntity
  8
TEXT1
100
AcDbText
 10
0.1875
 20
1.294642857142856
 30
0.0
 40
0.125
  1
CSA File/Class:
100
AcDbText
  0
TEXT
  5
897D
330
896D
100
AcDbEntity
  8
TEXT1
100
AcDbText
 10
0.1875
 20
1.508928571428571
 30
0.0
 40
0.125
  1
UL File/CCN:
100
AcDbText
  0
TEXT
  5
897E
330
896D
100
AcDbEntity
  8
TEXT1
100
AcDbText
 10
0.1875
 20
1.723214285714285
 30
0.0
 40
0.125
  1
Ratings:
100
AcDbText
  0
TEXT
  5
897F
330
896D
100
AcDbEntity
  8
TEXT1
100
AcDbText
 10
0.1875
 20
1.937499999999999
 30
0.0
 40
0.125
  1
Catalog Number:
100
AcDbText
  0
ENDBLK
  5
8981
330
896D
100
AcDbEntity
  8
0
100
AcDbBlockEnd
  0
BLOCK
  5
8F5A
330
8F4F
100
AcDbEntity
  8
0
100
AcDbBlockBegin
  2
*D5
 70
     1
 10
0.0
 20
0.0
 30
0.0
  3
*D5
  1

  0
LINE
  5
9910
330
8F4F
100
AcDbEntity
  8
DIM
100
AcDbLine
 10
39.23384527300008
 20
26.28412989509898
 30
0.0
 11
43.21266533843394
 21
26.28412989509897
 31
0.0
  0
LINE
  5
9911
330
8F4F
100
AcDbEntity
  8
DIM
100
AcDbLine
 10
39.23384527300008
 20
17.15912989509898
 30
0.0
 11
43.21266533843394
 21
17.15912989509898
 31
0.0
  0
LINE
  5
9912
330
8F4F
100
AcDbEntity
  8
DIM
100
AcDbLine
 10
42.96266533843394
 20
26.00412989509897
 30
0.0
 11
42.96266533843394
 21
21.18903516495011
 31
0.0
  0
LINE
  5
9913
330
8F4F
100
AcDbEntity
  8
DIM
100
AcDbLine
 10
42.96266533843394
 20
17.43912989509898
 30
0.0
 11
42.96266533843394
 21
20.2595113554263
 31
0.0
  0
INSERT
  5
9914
330
8F4F
100
AcDbEntity
  8
DIM
100
AcDbBlockReference
  2
SEARROW
 10
42.96266533843394
 20
26.28412989509897
 30
0.0
 41
0.28
 42
0.28
 43
0.28
 50
90.0
  0
INSERT
  5
9915
330
8F4F
100
AcDbEntity
  8
DIM
100
AcDbBlockReference
  2
SEARROW
 10
42.96266533843394
 20
17.15912989509898
 30
0.0
 41
0.28
 42
0.28
 43
0.28
 50
270.0
  0
MTEXT
  5
9916
330
8F4F
100
AcDbEntity
  8
DIM
100
AcDbMText
 10
42.96266533843393
 20
20.72427326018821
 30
0.0
 40
0.4
 41
0.0
 71
     5
 72
     1
  1
\A1;9.13 [232]
  7
ROMANS
1001
ACAD
1000
MTEXTBEGIN
1070
    73
1070
     1
1070
    44
1040
1.0
1070
    74
1070
     0
1000
MTEXTEND
  0
POINT
  5
9917
330
8F4F
100
AcDbEntity
  8
DEFPOINTS
 62
     0
100
AcDbPoint
 10
38.98384527300008
 20
26.28412989509898
 30
0.0
  0
POINT
  5
9918
330
8F4F
100
AcDbEntity
  8
DEFPOINTS
 62
     0
100
AcDbPoint
 10
38.98384527300008
 20
17.15912989509898
 30
0.0
  0
POINT
  5
9919
330
8F4F
100
AcDbEntity
  8
DEFPOINTS
 62
     0
100
AcDbPoint
 10
42.96266533843394
 20
17.15912989509898
 30
0.0
  0
ENDBLK
  5
8F5B
330
8F4F
100
AcDbEntity
  8
0
100
AcDbBlockEnd
  0
BLOCK
  5
8F67
330
8F5C
100
AcDbEntity
  8
0
100
AcDbBlockBegin
  2
*D6
 70
     1
 10
0.0
 20
0.0
 30
0.0
  3
*D6
  1

  0
LINE
  5
991A
330
8F5C
100
AcDbEntity
  8
DIM
100
AcDbLine
 10
38.51509527300008
 20
24.54162928211498
 30
0.0
 11
41.13765899687305
 21
24.54162928211498
 31
0.0
  0
LINE
  5
991B
330
8F5C
100
AcDbEntity
  8
DIM
100
AcDbLine
 10
38.51509527300012
 20
19.85412928211498
 30
0.0
 11
41.13765899687305
 21
19.85412928211498
 31
0.0
  0
LINE
  5
991C
330
8F5C
100
AcDbEntity
  8
DIM
100
AcDbLine
 10
40.88765899687305
 20
24.26162928211498
 30
0.0
 11
40.88765899687305
 21
22.4867648600288
 31
0.0
  0
LINE
  5
991D
330
8F5C
100
AcDbEntity
  8
DIM
100
AcDbLine
 10
40.88765899687305
 20
20.13412928211498
 30
0.0
 11
40.88765899687305
 21
21.557241050505
 31
0.0
  0
INSERT
  5
991E
330
8F5C
100
AcDbEntity
  8
DIM
100
AcDbBlockReference
  2
SEARROW
 10
40.88765899687305
 20
24.54162928211498
 30
0.0
 41
0.28
 42
0.28
 43
0.28
 50
90.0
  0
INSERT
  5
991F
330
8F5C
100
AcDbEntity
  8
DIM
100
AcDbBlockReference
  2
SEARROW
 10
40.88765899687305
 20
19.85412928211498
 30
0.0
 41
0.28
 42
0.28
 43
0.28
 50
270.0
  0
MTEXT
  5
9920
330
8F5C
100
AcDbEntity
  8
DIM
100
AcDbMText
 10
40.88765899687305
 20
22.02200295526691
 30
0.0
 40
0.4
 41
0.0
 71
     5
 72
     1
  1
\A1;4.69 [119]
  7
ROMANS
1001
ACAD
1000
MTEXTBEGIN
1070
    73
1070
     1
1070
    44
1040
1.0
1070
    74
1070
     0
1000
MTEXTEND
  0
POINT
  5
9921
330
8F5C
100
AcDbEntity
  8
DEFPOINTS
 62
     0
100
AcDbPoint
 10
38.26509527300007
 20
24.54162928211498
 30
0.0
  0
POINT
  5
9922
330
8F5C
100
AcDbEntity
  8
DEFPOINTS
 62
     0
100
AcDbPoint
 10
38.26509527300012
 20
19.85412928211498
 30
0.0
  0
POINT
  5
9923
330
8F5C
100
AcDbEntity
  8
DEFPOINTS
 62
     0
100
AcDbPoint
 10
40.88765899687305
 20
19.85412928211498
 30
0.0
  0
ENDBLK
  5
8F68
330
8F5C
100
AcDbEntity
  8
0
100
AcDbBlockEnd
  0
BLOCK
  5
8F74
330
8F69
100
AcDbEntity
  8
0
100
AcDbBlockBegin
  2
*D7
 70
     1
 10
0.0
 20
0.0
 30
0.0
  3
*D7
  1

  0
LINE
  5
9924
330
8F69
100
AcDbEntity
  8
DIM
100
AcDbLine
 10
48.04805961099766
 20
16.52165401293321
 30
0.0
 11
48.04805961099766
 21
9.95734549645412
 31
0.0
  0
LINE
  5
9925
330
8F69
100
AcDbEntity
  8
DIM
100
AcDbLine
 10
52.29805961099767
 20
21.12465391106029
 30
0.0
 11
52.29805961099767
 21
9.95734549645412
 31
0.0
  0
LINE
  5
9926
330
8F69
100
AcDbEntity
  8
DIM
100
AcDbLine
 10
47.76805961099767
 20
10.20734549645412
 30
0.0
 11
47.48805961099766
 21
10.20734549645412
 31
0.0
  0
LINE
  5
9927
330
8F69
100
AcDbEntity
  8
DIM
100
AcDbLine
 10
52.57805961099767
 20
10.20734549645412
 30
0.0
 11
52.85805961099767
 21
10.20734549645412
 31
0.0
  0
INSERT
  5
9928
330
8F69
100
AcDbEntity
  8
DIM
100
AcDbBlockReference
  2
SEARROW
 10
48.04805961099766
 20
10.20734549645412
 30
0.0
 41
0.28
 42
0.28
 43
0.28
  0
INSERT
  5
9929
330
8F69
100
AcDbEntity
  8
DIM
100
AcDbBlockReference
  2
SEARROW
 10
52.29805961099767
 20
10.20734549645412
 30
0.0
 41
0.28
 42
0.28
 43
0.28
 50
180.0
  0
MTEXT
  5
992A
330
8F69
100
AcDbEntity
  8
DIM
100
AcDbMText
 10
50.17305961099767
 20
10.20734549645412
 30
0.0
 40
0.4
 41
0.0
 71
     5
 72
     1
  1
\A1;4.25 [108]
  7
ROMANS
1001
ACAD
1000
MTEXTBEGIN
1070
    73
1070
     1
1070
    44
1040
1.0
1070
    74
1070
     0
1000
MTEXTEND
  0
POINT
  5
992B
330
8F69
100
AcDbEntity
  8
DEFPOINTS
 62
     0
100
AcDbPoint
 10
48.04805961099766
 20
16.77165401293321
 30
0.0
  0
POINT
  5
992C
330
8F69
100
AcDbEntity
  8
DEFPOINTS
 62
     0
100
AcDbPoint
 10
52.29805961099767
 20
21.37465391106029
 30
0.0
  0
POINT
  5
992D
330
8F69
100
AcDbEntity
  8
DEFPOINTS
 62
     0
100
AcDbPoint
 10
52.29805961099767
 20
10.20734549645412
 30
0.0
  0
ENDBLK
  5
8F75
330
8F69
100
AcDbEntity
  8
0
100
AcDbBlockEnd
  0
BLOCK
  5
8F81
330
8F76
100
AcDbEntity
  8
0
100
AcDbBlockBegin
  2
*D8
 70
     1
 10
0.0
 20
0.0
 30
0.0
  3
*D8
  1

  0
LINE
  5
99DB
330
8F76
100
AcDbEntity
  8
DIM
100
AcDbLine
 10
37.54634527300008
 20
16.90912989509898
 30
0.0
 11
37.54634527300008
 21
13.883984430681
 31
0.0
  0
LINE
  5
99DC
330
8F76
100
AcDbEntity
  8
DIM
100
AcDbLine
 10
38.98384527300008
 20
16.90912989509898
 30
0.0
 11
38.98384527300008
 21
13.883984430681
 31
0.0
  0
LINE
  5
99DD
330
8F76
100
AcDbEntity
  8
DIM
100
AcDbLine
 10
37.26634527300008
 20
14.13398443068099
 30
0.0
 11
36.98634527300008
 21
14.13398443068099
 31
0.0
  0
LINE
  5
99DE
330
8F76
100
AcDbEntity
  8
DIM
100
AcDbLine
 10
39.26384527300008
 20
14.13398443068099
 30
0.0
 11
39.71979964075311
 21
14.13398443068099
 31
0.0
  0
INSERT
  5
99DF
330
8F76
100
AcDbEntity
  8
DIM
100
AcDbBlockReference
  2
SEARROW
 10
37.54634527300008
 20
14.13398443068099
 30
0.0
 41
0.28
 42
0.28
 43
0.28
  0
INSERT
  5
99E0
330
8F76
100
AcDbEntity
  8
DIM
100
AcDbBlockReference
  2
SEARROW
 10
38.98384527300008
 20
14.13398443068099
 30
0.0
 41
0.28
 42
0.28
 43
0.28
 50
180.0
  0
MTEXT
  5
99E1
330
8F76
100
AcDbEntity
  8
DIM
100
AcDbMText
 10
41.28932345027692
 20
14.13398443068099
 30
0.0
 40
0.4
 41
0.0
 71
     5
 72
     1
  1
\A1;1.44 [37]
  7
ROMANS
  0
POINT
  5
99E2
330
8F76
100
AcDbEntity
  8
DEFPOINTS
 62
     0
100
AcDbPoint
 10
37.54634527300008
 20
17.15912989509898
 30
0.0
  0
POINT
  5
99E3
330
8F76
100
AcDbEntity
  8
DEFPOINTS
 62
     0
100
AcDbPoint
 10
38.98384527300008
 20
17.15912989509898
 30
0.0
  0
POINT
  5
99E4
330
8F76
100
AcDbEntity
  8
DEFPOINTS
 62
     0
100
AcDbPoint
 10
38.98384527300008
 20
14.13398443068099
 30
0.0
  0
ENDBLK
  5
8F82
330
8F76
100
AcDbEntity
  8
0
100
AcDbBlockEnd
  0
BLOCK
  5
8F8D
330
8F83
100
AcDbEntity
  8
0
100
AcDbBlockBegin
  2
*D9
 70
     1
 10
0.0
 20
0.0
 30
0.0
  3
*D9
  1

  0
LINE
  5
9938
330
8F83
100
AcDbEntity
  8
DIM
100
AcDbLine
 10
38.51509527300008
 20
24.54162928211498
 30
0.0
 11
41.13765899687305
 21
24.54162928211498
 31
0.0
  0
LINE
  5
9939
330
8F83
100
AcDbEntity
  8
DIM
100
AcDbLine
 10
35.38634330503239
 20
25.5442721420906
 30
0.0
 11
41.13765899687305
 21
25.54427214209059
 31
0.0
  0
LINE
  5
993A
330
8F83
100
AcDbEntity
  8
DIM
100
AcDbLine
 10
40.88765899687305
 20
24.26162928211498
 30
0.0
 11
40.88765899687305
 21
23.98162928211498
 31
0.0
  0
LINE
  5
993B
330
8F83
100
AcDbEntity
  8
DIM
100
AcDbLine
 10
40.88765899687305
 20
25.8242721420906
 30
0.0
 11
40.88765899687305
 21
26.10427214209059
 31
0.0
  0
INSERT
  5
993C
330
8F83
100
AcDbEntity
  8
DIM
100
AcDbBlockReference
  2
SEARROW
 10
40.88765899687305
 20
24.54162928211498
 30
0.0
 41
0.28
 42
0.28
 43
0.28
 50
90.0
  0
INSERT
  5
993D
330
8F83
100
AcDbEntity
  8
DIM
100
AcDbBlockReference
  2
SEARROW
 10
40.88765899687305
 20
25.54427214209059
 30
0.0
 41
0.28
 42
0.28
 43
0.28
 50
270.0
  0
MTEXT
  5
993E
330
8F83
100
AcDbEntity
  8
DIM
100
AcDbMText
 10
40.88765899687305
 20
25.04295071210279
 30
0.0
 40
0.4
 41
0.0
 71
     5
 72
     1
  1
\A1;1.00 [26]
  7
ROMANS
1001
ACAD
1000
MTEXTBEGIN
1070
    73
1070
     1
1070
    44
1040
1.0
1070
    74
1070
     0
1000
MTEXTEND
  0
POINT
  5
993F
330
8F83
100
AcDbEntity
  8
DEFPOINTS
 62
     0
100
AcDbPoint
 10
38.26509527300007
 20
24.54162928211498
 30
0.0
  0
POINT
  5
9940
330
8F83
100
AcDbEntity
  8
DEFPOINTS
 62
     0
100
AcDbPoint
 10
35.1363433050324
 20
25.5442721420906
 30
0.0
  0
POINT
  5
9941
330
8F83
100
AcDbEntity
  8
DEFPOINTS
 62
     0
100
AcDbPoint
 10
40.88765899687305
 20
25.54427214209059
 30
0.0
  0
ENDBLK
  5
8F8E
330
8F83
100
AcDbEntity
  8
0
100
AcDbBlockEnd
  0
BLOCK
  5
8F99
330
8F8F
100
AcDbEntity
  8
0
100
AcDbBlockBegin
  2
*D10
 70
     1
 10
0.0
 20
0.0
 30
0.0
  3
*D10
  1

  0
LINE
  5
99E5
330
8F8F
100
AcDbEntity
  8
DIM
100
AcDbLine
 10
38.26509527300007
 20
24.79162928211498
 30
0.0
 11
38.26509527300007
 21
30.43232875244065
 31
0.0
  0
LINE
  5
99E6
330
8F8F
100
AcDbEntity
  8
DIM
100
AcDbLine
 10
35.1363433050324
 20
25.7942721420906
 30
0.0
 11
35.1363433050324
 21
30.43232875244065
 31
0.0
  0
LINE
  5
99E7
330
8F8F
100
AcDbEntity
  8
DIM
100
AcDbLine
 10
38.54509527300008
 20
30.18232875244065
 30
0.0
 11
38.82509527300008
 21
30.18232875244065
 31
0.0
  0
LINE
  5
99E8
330
8F8F
100
AcDbEntity
  8
DIM
100
AcDbLine
 10
34.8563433050324
 20
30.18232875244065
 30
0.0
 11
34.57634330503239
 21
30.18232875244065
 31
0.0
  0
INSERT
  5
99E9
330
8F8F
100
AcDbEntity
  8
DIM
100
AcDbBlockReference
  2
SEARROW
 10
38.26509527300007
 20
30.18232875244065
 30
0.0
 41
0.28
 42
0.28
 43
0.28
 50
180.0
  0
INSERT
  5
99EA
330
8F8F
100
AcDbEntity
  8
DIM
100
AcDbBlockReference
  2
SEARROW
 10
35.1363433050324
 20
30.18232875244065
 30
0.0
 41
0.28
 42
0.28
 43
0.28
  0
MTEXT
  5
99EB
330
8F8F
100
AcDbEntity
  8
DIM
100
AcDbMText
 10
32.16872425741335
 20
30.18232875244065
 30
0.0
 40
0.4
 41
0.0
 71
     5
 72
     1
  1
\A1;3.50 [89] MIN.
  7
ROMANS
  0
POINT
  5
99EC
330
8F8F
100
AcDbEntity
  8
DEFPOINTS
 62
     0
100
AcDbPoint
 10
38.26509527300007
 20
24.54162928211498
 30
0.0
  0
POINT
  5
99ED
330
8F8F
100
AcDbEntity
  8
DEFPOINTS
 62
     0
100
AcDbPoint
 10
35.1363433050324
 20
25.5442721420906
 30
0.0
  0
POINT
  5
99EE
330
8F8F
100
AcDbEntity
  8
DEFPOINTS
 62
     0
100
AcDbPoint
 10
35.1363433050324
 20
30.18232875244065
 30
0.0
  0
ENDBLK
  5
8F9A
330
8F8F
100
AcDbEntity
  8
0
100
AcDbBlockEnd
  0
BLOCK
  5
8FA6
330
8F9B
100
AcDbEntity
  8
0
100
AcDbBlockBegin
  2
*D11
 70
     1
 10
0.0
 20
0.0
 30
0.0
  3
*D11
  1

  0
LINE
  5
994C
330
8F9B
100
AcDbEntity
  8
DIM
100
AcDbLine
 10
38.34138874702796
 20
24.77970344245322
 30
0.0
 11
39.29185977923865
 21
27.74565296569404
 31
0.0
  0
LINE
  5
994D
330
8F9B
100
AcDbEntity
  8
DIM
100
AcDbLine
 10
35.21263677906027
 20
25.78234630242884
 30
0.0
 11
36.16310781127097
 21
28.74829582566965
 31
0.0
  0
LINE
  5
994E
330
8F9B
100
AcDbEntity
  8
DIM
100
AcDbLine
 10
38.94892324563195
 20
27.59302749626702
 30
0.0
 11
37.94476311461939
 21
27.91482161607573
 31
0.0
  0
LINE
  5
994F
330
8F9B
100
AcDbEntity
  8
DIM
100
AcDbLine
 10
36.35345739682192
 20
28.42477297442018
 30
0.0
 11
37.3390488289051
 21
28.1089293977006
 31
0.0
  0
INSERT
  5
9950
330
8F9B
100
AcDbEntity
  8
DIM
100
AcDbBlockReference
  2
SEARROW
 10
39.21556630521077
 20
27.5075788053558
 30
0.0
 41
0.28
 42
0.28
 43
0.28
 50
342.2313737843477
  0
INSERT
  5
9951
330
8F9B
100
AcDbEntity
  8
DIM
100
AcDbBlockReference
  2
SEARROW
 10
36.08681433724309
 20
28.51022166533141
 30
0.0
 41
0.28
 42
0.28
 43
0.28
 50
162.2313737843477
  0
MTEXT
  5
9952
330
8F9B
100
AcDbEntity
  8
DIM
100
AcDbMText
 10
37.64190597176225
 20
28.01187550688816
 30
0.0
 40
0.4
 41
0.0
 71
     5
 72
     1
  1
\A1;C
  7
ROMANS
1001
ACAD
1000
MTEXTBEGIN
1070
    73
1070
     1
1070
    44
1040
1.0
1070
    74
1070
     0
1000
MTEXTEND
  0
POINT
  5
9953
330
8F9B
100
AcDbEntity
  8
DEFPOINTS
 62
     0
100
AcDbPoint
 10
38.26509527300008
 20
24.54162928211498
 30
0.0
  0
POINT
  5
9954
330
8F9B
100
AcDbEntity
  8
DEFPOINTS
 62
     0
100
AcDbPoint
 10
35.1363433050324
 20
25.54427214209059
 30
0.0
  0
POINT
  5
9955
330
8F9B
100
AcDbEntity
  8
DEFPOINTS
 62
     0
100
AcDbPoint
 10
36.08681433724309
 20
28.51022166533141
 30
0.0
  0
ENDBLK
  5
8FA7
330
8F9B
100
AcDbEntity
  8
0
100
AcDbBlockEnd
  0
BLOCK
  5
8FC0
330
8FB5
100
AcDbEntity
  8
0
100
AcDbBlockBegin
  2
*D12
 70
     1
 10
0.0
 20
0.0
 30
0.0
  3
*D12
  1

  0
LINE
  5
9956
330
8FB5
100
AcDbEntity
  8
DIM
100
AcDbLine
 10
34.8863433050324
 20
25.5442721420906
 30
0.0
 11
29.81152826541197
 21
25.5442721420906
 31
0.0
  0
LINE
  5
9957
330
8FB5
100
AcDbEntity
  8
DIM
100
AcDbLine
 10
33.50319846794764
 20
20.64410211472951
 30
0.0
 11
29.81152826541197
 21
20.64410211472951
 31
0.0
  0
LINE
  5
9958
330
8FB5
100
AcDbEntity
  8
DIM
100
AcDbLine
 10
30.06152826541198
 20
25.2642721420906
 30
0.0
 11
30.06152826541197
 21
23.01333439726052
 31
0.0
  0
LINE
  5
9959
330
8FB5
100
AcDbEntity
  8
DIM
100
AcDbLine
 10
30.06152826541197
 20
20.92410211472951
 30
0.0
 11
30.06152826541197
 21
22.08381058773671
 31
0.0
  0
INSERT
  5
995A
330
8FB5
100
AcDbEntity
  8
DIM
100
AcDbBlockReference
  2
SEARROW
 10
30.06152826541198
 20
25.5442721420906
 30
0.0
 41
0.28
 42
0.28
 43
0.28
 50
90.0
  0
INSERT
  5
995B
330
8FB5
100
AcDbEntity
  8
DIM
100
AcDbBlockReference
  2
SEARROW
 10
30.06152826541197
 20
20.64410211472951
 30
0.0
 41
0.28
 42
0.28
 43
0.28
 50
270.0
  0
MTEXT
  5
995C
330
8FB5
100
AcDbEntity
  8
DIM
100
AcDbMText
 10
30.06152826541197
 20
22.54857249249862
 30
0.0
 40
0.4
 41
0.0
 71
     5
 72
     1
  1
\A1;4.90 [125]
  7
ROMANS
1001
ACAD
1000
MTEXTBEGIN
1070
    73
1070
     1
1070
    44
1040
1.0
1070
    74
1070
     0
1000
MTEXTEND
  0
POINT
  5
995D
330
8FB5
100
AcDbEntity
  8
DEFPOINTS
 62
     0
100
AcDbPoint
 10
35.1363433050324
 20
25.5442721420906
 30
0.0
  0
POINT
  5
995E
330
8FB5
100
AcDbEntity
  8
DEFPOINTS
 62
     0
100
AcDbPoint
 10
33.75319846794764
 20
20.64410211472951
 30
0.0
  0
POINT
  5
995F
330
8FB5
100
AcDbEntity
  8
DEFPOINTS
 62
     0
100
AcDbPoint
 10
30.06152826541197
 20
20.64410211472951
 30
0.0
  0
ENDBLK
  5
8FC1
330
8FB5
100
AcDbEntity
  8
0
100
AcDbBlockEnd
  0
BLOCK
  5
8FCC
330
8FC2
100
AcDbEntity
  8
0
100
AcDbBlockBegin
  2
*D13
 70
     1
 10
0.0
 20
0.0
 30
0.0
  3
*D13
  1

  0
LINE
  5
99EF
330
8FC2
100
AcDbEntity
  8
DIM
100
AcDbLine
 10
35.1363433050324
 20
25.7942721420906
 30
0.0
 11
35.1363433050324
 21
29.23081675971313
 31
0.0
  0
LINE
  5
99F0
330
8FC2
100
AcDbEntity
  8
DIM
100
AcDbLine
 10
36.97417685766168
 20
27.01400245989477
 30
0.0
 11
36.97417685766168
 21
29.23081675971313
 31
0.0
  0
LINE
  5
99F1
330
8FC2
100
AcDbEntity
  8
DIM
100
AcDbLine
 10
37.25417685766169
 20
28.98081675971313
 30
0.0
 11
37.53417685766169
 21
28.98081675971313
 31
0.0
  0
LINE
  5
99F2
330
8FC2
100
AcDbEntity
  8
DIM
100
AcDbLine
 10
34.8563433050324
 20
28.98081675971313
 30
0.0
 11
34.57634330503239
 21
28.98081675971313
 31
0.0
  0
INSERT
  5
99F3
330
8FC2
100
AcDbEntity
  8
DIM
100
AcDbBlockReference
  2
SEARROW
 10
36.97417685766168
 20
28.98081675971313
 30
0.0
 41
0.28
 42
0.28
 43
0.28
 50
180.0
  0
INSERT
  5
99F4
330
8FC2
100
AcDbEntity
  8
DIM
100
AcDbBlockReference
  2
SEARROW
 10
35.1363433050324
 20
28.98081675971313
 30
0.0
 41
0.28
 42
0.28
 43
0.28
  0
MTEXT
  5
99F5
330
8FC2
100
AcDbEntity
  8
DIM
100
AcDbMText
 10
33.00681949550858
 20
28.98081675971313
 30
0.0
 40
0.4
 41
0.0
 71
     5
 72
     1
  1
\A1;1.84 [47]
  7
ROMANS
  0
POINT
  5
99F6
330
8FC2
100
AcDbEntity
  8
DEFPOINTS
 62
     0
100
AcDbPoint
 10
35.1363433050324
 20
25.5442721420906
 30
0.0
  0
POINT
  5
99F7
330
8FC2
100
AcDbEntity
  8
DEFPOINTS
 62
     0
100
AcDbPoint
 10
36.97417685766168
 20
26.76400245989476
 30
0.0
  0
POINT
  5
99F8
330
8FC2
100
AcDbEntity
  8
DEFPOINTS
 62
     0
100
AcDbPoint
 10
36.97417685766168
 20
28.98081675971313
 30
0.0
  0
ENDBLK
  5
8FCD
330
8FC2
100
AcDbEntity
  8
0
100
AcDbBlockEnd
  0
BLOCK
  5
8FD9
330
8FCE
100
AcDbEntity
  8
0
100
AcDbBlockBegin
  2
*D14
 70
     1
 10
0.0
 20
0.0
 30
0.0
  3
*D14
  1

  0
LINE
  5
99F9
330
8FCE
100
AcDbEntity
  8
DIM
100
AcDbLine
 10
35.1363433050324
 20
25.7942721420906
 30
0.0
 11
35.1363433050324
 21
28.17397764351083
 31
0.0
  0
LINE
  5
99FA
330
8FCE
100
AcDbEntity
  8
DIM
100
AcDbLine
 10
33.75319846794764
 20
20.89410211472951
 30
0.0
 11
33.75319846794764
 21
28.17397764351083
 31
0.0
  0
LINE
  5
99FB
330
8FCE
100
AcDbEntity
  8
DIM
100
AcDbLine
 10
35.4163433050324
 20
27.92397764351083
 30
0.0
 11
35.6963433050324
 21
27.92397764351083
 31
0.0
  0
LINE
  5
99FC
330
8FCE
100
AcDbEntity
  8
DIM
100
AcDbLine
 10
33.47319846794764
 20
27.92397764351083
 30
0.0
 11
33.19319846794764
 21
27.92397764351083
 31
0.0
  0
INSERT
  5
99FD
330
8FCE
100
AcDbEntity
  8
DIM
100
AcDbBlockReference
  2
SEARROW
 10
35.1363433050324
 20
27.92397764351083
 30
0.0
 41
0.28
 42
0.28
 43
0.28
 50
180.0
  0
INSERT
  5
99FE
330
8FCE
100
AcDbEntity
  8
DIM
100
AcDbBlockReference
  2
SEARROW
 10
33.75319846794764
 20
27.92397764351083
 30
0.0
 41
0.28
 42
0.28
 43
0.28
  0
MTEXT
  5
99FF
330
8FCE
100
AcDbEntity
  8
DIM
100
AcDbMText
 10
31.62367465842383
 20
27.92397764351083
 30
0.0
 40
0.4
 41
0.0
 71
     5
 72
     1
  1
\A1;1.38 [35]
  7
ROMANS
  0
POINT
  5
9A00
330
8FCE
100
AcDbEntity
  8
DEFPOINTS
 62
     0
100
AcDbPoint
 10
35.1363433050324
 20
25.5442721420906
 30
0.0
  0
POINT
  5
9A01
330
8FCE
100
AcDbEntity
  8
DEFPOINTS
 62
     0
100
AcDbPoint
 10
33.75319846794764
 20
20.64410211472951
 30
0.0
  0
POINT
  5
9A02
330
8FCE
100
AcDbEntity
  8
DEFPOINTS
 62
     0
100
AcDbPoint
 10
33.75319846794764
 20
27.92397764351083
 30
0.0
  0
ENDBLK
  5
8FDA
330
8FCE
100
AcDbEntity
  8
0
100
AcDbBlockEnd
  0
BLOCK
  5
8FE6
330
8FDB
100
AcDbEntity
  8
0
100
AcDbBlockBegin
  2
*D15
 70
     1
 10
0.0
 20
0.0
 30
0.0
  3
*D15
  1

  0
LINE
  5
9974
330
8FDB
100
AcDbEntity
  8
DIM
100
AcDbLine
 10
36.97417685766168
 20
19.74583677394138
 30
0.0
 11
36.97417685766168
 21
18.98647764351083
 31
0.0
  0
LINE
  5
9975
330
8FDB
100
AcDbEntity
  8
DIM
100
AcDbLine
 10
32.11476899003928
 20
19.94583677394138
 30
0.0
 11
32.11476899003928
 21
18.98647764351083
 31
0.0
  0
LINE
  5
9976
330
8FDB
100
AcDbEntity
  8
DIM
100
AcDbLine
 10
36.69417685766168
 20
19.23647764351083
 30
0.0
 11
36.33304435242192
 21
19.23647764351083
 31
0.0
  0
LINE
  5
9977
330
8FDB
100
AcDbEntity
  8
DIM
100
AcDbLine
 10
32.39476899003928
 20
19.23647764351083
 30
0.0
 11
32.75590149527906
 21
19.23647764351083
 31
0.0
  0
INSERT
  5
9978
330
8FDB
100
AcDbEntity
  8
DIM
100
AcDbBlockReference
  2
SEARROW
 10
36.97417685766168
 20
19.23647764351083
 30
0.0
 41
0.28
 42
0.28
 43
0.28
  0
INSERT
  5
9979
330
8FDB
100
AcDbEntity
  8
DIM
100
AcDbBlockReference
  2
SEARROW
 10
32.11476899003928
 20
19.23647764351083
 30
0.0
 41
0.28
 42
0.28
 43
0.28
 50
180.0
  0
MTEXT
  5
997A
330
8FDB
100
AcDbEntity
  8
DIM
100
AcDbMText
 10
34.54447292385049
 20
19.23647764351083
 30
0.0
 40
0.4
 41
0.0
 71
     5
 72
     1
  1
\A1;4.86 [123]
  7
ROMANS
1001
ACAD
1000
MTEXTBEGIN
1070
    73
1070
     1
1070
    44
1040
1.0
1070
    74
1070
     0
1000
MTEXTEND
  0
POINT
  5
997B
330
8FDB
100
AcDbEntity
  8
DEFPOINTS
 62
     0
100
AcDbPoint
 10
36.97417685766168
 20
19.99583677394138
 30
0.0
  0
POINT
  5
997C
330
8FDB
100
AcDbEntity
  8
DEFPOINTS
 62
     0
100
AcDbPoint
 10
32.11476899003928
 20
20.19583677394138
 30
0.0
  0
POINT
  5
997D
330
8FDB
100
AcDbEntity
  8
DEFPOINTS
 62
     0
100
AcDbPoint
 10
32.11476899003928
 20
19.23647764351083
 30
0.0
  0
ENDBLK
  5
8FE7
330
8FDB
100
AcDbEntity
  8
0
100
AcDbBlockEnd
  0
BLOCK
  5
8FF3
330
8FE8
100
AcDbEntity
  8
0
100
AcDbBlockBegin
  2
*D16
 70
     1
 10
0.0
 20
0.0
 30
0.0
  3
*D16
  1

  0
LINE
  5
997E
330
8FE8
100
AcDbEntity
  8
DIM
100
AcDbLine
 10
32.06476899003928
 20
26.18583677394138
 30
0.0
 11
27.49335650991774
 21
26.18583677394138
 31
0.0
  0
LINE
  5
997F
330
8FE8
100
AcDbEntity
  8
DIM
100
AcDbLine
 10
32.06476899003928
 20
19.99583677394138
 30
0.0
 11
27.49335650991773
 21
19.99583677394138
 31
0.0
  0
LINE
  5
9980
330
8FE8
100
AcDbEntity
  8
DIM
100
AcDbLine
 10
27.74335650991774
 20
25.90583677394138
 30
0.0
 11
27.74335650991773
 21
23.94350145303464
 31
0.0
  0
LINE
  5
9981
330
8FE8
100
AcDbEntity
  8
DIM
100
AcDbLine
 10
27.74335650991773
 20
20.27583677394138
 30
0.0
 11
27.74335650991773
 21
23.01397764351083
 31
0.0
  0
INSERT
  5
9982
330
8FE8
100
AcDbEntity
  8
DIM
100
AcDbBlockReference
  2
SEARROW
 10
27.74335650991774
 20
26.18583677394138
 30
0.0
 41
0.28
 42
0.28
 43
0.28
 50
90.0
  0
INSERT
  5
9983
330
8FE8
100
AcDbEntity
  8
DIM
100
AcDbBlockReference
  2
SEARROW
 10
27.74335650991773
 20
19.99583677394138
 30
0.0
 41
0.28
 42
0.28
 43
0.28
 50
270.0
  0
MTEXT
  5
9984
330
8FE8
100
AcDbEntity
  8
DIM
100
AcDbMText
 10
27.74335650991773
 20
23.47873954827274
 30
0.0
 40
0.4
 41
0.0
 71
     5
 72
     1
  1
\A1;6.19 [157]
  7
ROMANS
1001
ACAD
1000
MTEXTBEGIN
1070
    73
1070
     1
1070
    44
1040
1.0
1070
    74
1070
     0
1000
MTEXTEND
  0
POINT
  5
9985
330
8FE8
100
AcDbEntity
  8
DEFPOINTS
 62
     0
100
AcDbPoint
 10
32.31476899003928
 20
26.18583677394138
 30
0.0
  0
POINT
  5
9986
330
8FE8
100
AcDbEntity
  8
DEFPOINTS
 62
     0
100
AcDbPoint
 10
32.31476899003928
 20
19.99583677394138
 30
0.0
  0
POINT
  5
9987
330
8FE8
100
AcDbEntity
  8
DEFPOINTS
 62
     0
100
AcDbPoint
 10
27.74335650991773
 20
19.99583677394138
 30
0.0
  0
ENDBLK
  5
8FF4
330
8FE8
100
AcDbEntity
  8
0
100
AcDbBlockEnd
  0
BLOCK
  5
9000
330
8FF5
100
AcDbEntity
  8
0
100
AcDbBlockBegin
  2
*D17
 70
     1
 10
0.0
 20
0.0
 30
0.0
  3
*D17
  1

  0
LINE
  5
9988
330
8FF5
100
AcDbEntity
  8
DIM
100
AcDbLine
 10
33.50319846794764
 20
20.64410211472951
 30
0.0
 11
29.81152826541197
 21
20.64410211472951
 31
0.0
  0
LINE
  5
9989
330
8FF5
100
AcDbEntity
  8
DIM
100
AcDbLine
 10
32.06476899003928
 20
19.99583677394138
 30
0.0
 11
29.81152826541197
 21
19.99583677394138
 31
0.0
  0
LINE
  5
998A
330
8FF5
100
AcDbEntity
  8
DIM
100
AcDbLine
 10
30.06152826541197
 20
20.92410211472951
 30
0.0
 11
30.06152826541197
 21
21.2041021147295
 31
0.0
  0
LINE
  5
998B
330
8FF5
100
AcDbEntity
  8
DIM
100
AcDbLine
 10
30.06152826541197
 20
19.71583677394138
 30
0.0
 11
30.06152826541197
 21
19.37038114676402
 31
0.0
  0
LINE
  5
998C
330
8FF5
100
AcDbEntity
  8
DIM
100
AcDbLine
 10
30.06152826541197
 20
19.37038114676402
 30
0.0
 11
29.78152826541197
 21
19.37038114676402
 31
0.0
  0
INSERT
  5
998D
330
8FF5
100
AcDbEntity
  8
DIM
100
AcDbBlockReference
  2
SEARROW
 10
30.06152826541197
 20
20.64410211472951
 30
0.0
 41
0.28
 42
0.28
 43
0.28
 50
270.0
  0
INSERT
  5
998E
330
8FF5
100
AcDbEntity
  8
DIM
100
AcDbBlockReference
  2
SEARROW
 10
30.06152826541197
 20
19.99583677394138
 30
0.0
 41
0.28
 42
0.28
 43
0.28
 50
90.0
  0
MTEXT
  5
998F
330
8FF5
100
AcDbEntity
  8
DIM
100
AcDbMText
 10
28.38343302731673
 20
19.37038114676402
 30
0.0
 40
0.4
 41
0.0
 71
     5
 72
     1
  1
\A1;.65 [17]
  7
ROMANS
1001
ACAD
1000
MTEXTBEGIN
1070
    73
1070
     1
1070
    44
1040
1.0
1070
    74
1070
     0
1000
MTEXTEND
  0
POINT
  5
9990
330
8FF5
100
AcDbEntity
  8
DEFPOINTS
 62
     0
100
AcDbPoint
 10
33.75319846794764
 20
20.64410211472951
 30
0.0
  0
POINT
  5
9991
330
8FF5
100
AcDbEntity
  8
DEFPOINTS
 62
     0
100
AcDbPoint
 10
32.31476899003928
 20
19.99583677394138
 30
0.0
  0
POINT
  5
9992
330
8FF5
100
AcDbEntity
  8
DEFPOINTS
 62
     0
100
AcDbPoint
 10
30.06152826541197
 20
19.99583677394138
 30
0.0
  0
ENDBLK
  5
9001
330
8FF5
100
AcDbEntity
  8
0
100
AcDbBlockEnd
  0
BLOCK
  5
900C
330
9002
100
AcDbEntity
  8
0
100
AcDbBlockBegin
  2
*D18
 70
     1
 10
0.0
 20
0.0
 30
0.0
  3
*D18
  1

  0
LINE
  5
9993
330
9002
100
AcDbEntity
  8
DIM
100
AcDbLine
 10
55.80731753750247
 20
25.83975508901928
 30
0.0
 11
55.80731753750247
 21
27.67397764351084
 31
0.0
  0
LINE
  5
9994
330
9002
100
AcDbEntity
  8
DIM
100
AcDbLine
 10
59.50731753750247
 20
26.01653178901926
 30
0.0
 11
59.50731753750247
 21
27.67397764351084
 31
0.0
  0
LINE
  5
9995
330
9002
100
AcDbEntity
  8
DIM
100
AcDbLine
 10
55.52731753750247
 20
27.42397764351084
 30
0.0
 11
55.24731753750247
 21
27.42397764351084
 31
0.0
  0
LINE
  5
9996
330
9002
100
AcDbEntity
  8
DIM
100
AcDbLine
 10
59.78731753750247
 20
27.42397764351084
 30
0.0
 11
60.06731753750248
 21
27.42397764351084
 31
0.0
  0
INSERT
  5
9997
330
9002
100
AcDbEntity
  8
DIM
100
AcDbBlockReference
  2
SEARROW
 10
55.80731753750247
 20
27.42397764351084
 30
0.0
 41
0.28
 42
0.28
 43
0.28
  0
INSERT
  5
9998
330
9002
100
AcDbEntity
  8
DIM
100
AcDbBlockReference
  2
SEARROW
 10
59.50731753750247
 20
27.42397764351084
 30
0.0
 41
0.28
 42
0.28
 43
0.28
 50
180.0
  0
MTEXT
  5
9999
330
9002
100
AcDbEntity
  8
DIM
100
AcDbMText
 10
57.65731753750247
 20
27.42397764351084
 30
0.0
 40
0.4
 41
0.0
 71
     5
 72
     1
  1
\A1;3.70 [94]
  7
ROMANS
1001
ACAD
1000
MTEXTBEGIN
1070
    73
1070
     1
1070
    44
1040
1.0
1070
    74
1070
     0
1000
MTEXTEND
  0
POINT
  5
999A
330
9002
100
AcDbEntity
  8
DEFPOINTS
 62
     0
100
AcDbPoint
 10
55.80731753750247
 20
25.58975508901928
 30
0.0
  0
POINT
  5
999B
330
9002
100
AcDbEntity
  8
DEFPOINTS
 62
     0
100
AcDbPoint
 10
59.50731753750247
 20
25.76653178901926
 30
0.0
  0
POINT
  5
999C
330
9002
100
AcDbEntity
  8
DEFPOINTS
 62
     0
100
AcDbPoint
 10
59.50731753750247
 20
27.42397764351084
 30
0.0
  0
ENDBLK
  5
900D
330
9002
100
AcDbEntity
  8
0
100
AcDbBlockEnd
  0
BLOCK
  5
9019
330
900E
100
AcDbEntity
  8
0
100
AcDbBlockBegin
  2
*D19
 70
     1
 10
0.0
 20
0.0
 30
0.0
  3
*D19
  1

  0
LINE
  5
999D
330
900E
100
AcDbEntity
  8
DIM
100
AcDbLine
 10
59.75731753750247
 20
25.76653178901926
 30
0.0
 11
62.40669550450444
 21
25.76653178901926
 31
0.0
  0
LINE
  5
999E
330
900E
100
AcDbEntity
  8
DIM
100
AcDbLine
 10
58.14531034073684
 20
19.57653178901927
 30
0.0
 11
62.40669550450444
 21
19.57653178901927
 31
0.0
  0
LINE
  5
999F
330
900E
100
AcDbEntity
  8
DIM
100
AcDbLine
 10
62.15669550450444
 20
25.48653178901926
 30
0.0
 11
62.15669550450444
 21
23.13629369378117
 31
0.0
  0
LINE
  5
99A0
330
900E
100
AcDbEntity
  8
DIM
100
AcDbLine
 10
62.15669550450444
 20
19.85653178901927
 30
0.0
 11
62.15669550450444
 21
22.20676988425736
 31
0.0
  0
INSERT
  5
99A1
330
900E
100
AcDbEntity
  8
DIM
100
AcDbBlockReference
  2
SEARROW
 10
62.15669550450444
 20
25.76653178901926
 30
0.0
 41
0.28
 42
0.28
 43
0.28
 50
90.0
  0
INSERT
  5
99A2
330
900E
100
AcDbEntity
  8
DIM
100
AcDbBlockReference
  2
SEARROW
 10
62.15669550450444
 20
19.57653178901927
 30
0.0
 41
0.28
 42
0.28
 43
0.28
 50
270.0
  0
MTEXT
  5
99A3
330
900E
100
AcDbEntity
  8
DIM
100
AcDbMText
 10
62.15669550450443
 20
22.67153178901927
 30
0.0
 40
0.4
 41
0.0
 71
     5
 72
     1
  1
\A1;6.19 [157]
  7
ROMANS
1001
ACAD
1000
MTEXTBEGIN
1070
    73
1070
     1
1070
    44
1040
1.0
1070
    74
1070
     0
1000
MTEXTEND
  0
POINT
  5
99A4
330
900E
100
AcDbEntity
  8
DEFPOINTS
 62
     0
100
AcDbPoint
 10
59.50731753750247
 20
25.76653178901926
 30
0.0
  0
POINT
  5
99A5
330
900E
100
AcDbEntity
  8
DEFPOINTS
 62
     0
100
AcDbPoint
 10
57.89531034073684
 20
19.57653178901927
 30
0.0
  0
POINT
  5
99A6
330
900E
100
AcDbEntity
  8
DEFPOINTS
 62
     0
100
AcDbPoint
 10
62.15669550450444
 20
19.57653178901927
 30
0.0
  0
ENDBLK
  5
901A
330
900E
100
AcDbEntity
  8
0
100
AcDbBlockEnd
  0
BLOCK
  5
93E7
330
93DE
100
AcDbEntity
  8
0
100
AcDbBlockBegin
  2
*D20
 70
     1
 10
0.0
 20
0.0
 30
0.0
  3
*D20
  1

  0
LINE
  5
99A7
330
93DE
100
AcDbEntity
  8
DIM
100
AcDbLine
 10
28.48497915294373
 20
17.70767115181333
 30
0.0
 11
28.76497915294374
 21
17.70767115181333
 31
0.0
  0
LINE
  5
99A8
330
93DE
100
AcDbEntity
  8
DIM
100
AcDbLine
 10
28.76497915294374
 20
17.70767115181333
 30
0.0
 11
33.41710845841628
 21
20.44625493761238
 31
0.0
  0
MTEXT
  5
99A9
330
93DE
100
AcDbEntity
  8
DIM
100
AcDbMText
 10
26.90593153389611
 20
17.70767115181333
 30
0.0
 40
0.4
 41
0.0
 71
     5
 72
     1
  1
\A1;\U+2205.22 [\U+22056]
  7
ROMANS
1001
ACAD
1000
MTEXTBEGIN
1070
    73
1070
     1
1070
    44
1040
1.0
1070
    74
1070
     0
1000
MTEXTEND
  0
INSERT
  5
99AA
330
93DE
100
AcDbEntity
  8
DIM
100
AcDbBlockReference
  2
SEARROW
 10
33.65840384987468
 20
20.58829906477339
 30
0.0
 41
0.28
 42
0.28
 43
0.28
 50
30.48418105673818
  0
LINE
  5
99AB
330
93DE
100
AcDbEntity
  8
DIM
100
AcDbLine
 10
33.39319846794764
 20
20.6441021147295
 30
0.0
 11
34.11319846794763
 21
20.6441021147295
 31
0.0
  0
LINE
  5
99AC
330
93DE
100
AcDbEntity
  8
DIM
100
AcDbLine
 10
33.75319846794763
 20
20.28410211472951
 30
0.0
 11
33.75319846794764
 21
21.0041021147295
 31
0.0
  0
POINT
  5
99AD
330
93DE
100
AcDbEntity
  8
DEFPOINTS
 62
     0
100
AcDbPoint
 10
33.65840384987468
 20
20.58829906477339
 30
0.0
  0
POINT
  5
99AE
330
93DE
100
AcDbEntity
  8
DEFPOINTS
 62
     0
100
AcDbPoint
 10
33.84799308602057
 20
20.69990516468561
 30
0.0
  0
ENDBLK
  5
93E8
330
93DE
100
AcDbEntity
  8
0
100
AcDbBlockEnd
  0
BLOCK
  5
948D
330
948B
100
AcDbEntity
  8
0
100
AcDbBlockBegin
  2
SEARROW
 70
     0
 10
0.0
 20
0.0
 30
0.0
  3
SEARROW
  1

  0
LWPOLYLINE
  5
948C
330
948B
100
AcDbEntity
  8
0
  6
BYBLOCK
100
AcDbPolyline
 90
        2
 70
     0
 10
0.0
 20
0.0
 40
0.0
 41
0.5000000001500001
 10
-1.000000000300019
 20
0.0
 40
0.5000000001500001
 41
0.5000000001500001
  0
ENDBLK
  5
948E
330
948B
100
AcDbEntity
  8
0
100
AcDbBlockEnd
  0
ENDSEC
  0
SECTION
  2
ENTITIES
  0
INSERT
  5
79E
330
1F
100
AcDbEntity
  8
0
100
AcDbBlockReference
  2
NEWLAYERS
 10
0.0
 20
0.0475228887496178
 30
0.0
 41
0.01
 42
0.01
 43
0.01
  0
LWPOLYLINE
  5
BF7
330
1F
100
AcDbEntity
  8
VIEWPORT
100
AcDbPolyline
 90
        6
 70
     1
 43
0.0
 10
65.60000399999999
 20
41.19009155499847
 10
65.60000399999999
 20
3.838099554998468
 10
32.009844
 20
3.838099554998468
 10
32.009844
 20
0.190091554998471
 10
0.0
 20
0.190091554998471
 10
0.0
 20
41.19009155499847
1001
GENIUS_GENOREF_13
1005
0
1005
0
1005
0
1005
0
1005
0
1005
0
1005
0
  0
VIEWPORT
  5
BF8
330
1F
100
AcDbEntity
  8
VIEWPORT
100
AcDbViewport
 10
32.80000199999999
 20
20.69009155499847
 30
0.0
 40
65.60000399999999
 41
41.0
 69
     0
1001
ACAD
1000
MVIEW
1002
{
1070
    16
1010
0.0
1020
0.0
1030
0.0
1010
0.0
1020
0.0
1030
1.0
1040
0.0
1040
41.0
1040
32.79338763516309
1040
20.71142202491305
1040
50.0
1040
0.0
1040
0.0
1070
     0
1070
   100
1070
     1
1070
     2
1070
     0
1070
     0
1070
     0
1070
     0
1040
0.0
1040
0.0
1040
0.0
1040
0.5
1040
0.5
1040
0.5
1040
0.5
1070
     0
1002
{
1002
}
1002
}
1001
GENIUS_GENOREF_13
1005
0
1005
0
1005
0
1005
0
1005
0
1005
0
1005
0
1001
GENIUS_GENSCREG_15
1000
PF
1040
0.0
1000
DF
1040
0.0
1000
MIN
1011
0.0
1021
0.190091554998471
1031
0.0
1000
MAX
1011
65.60000399999999
1021
41.19009155499847
1031
0.0
1000
FLAGS
1070
     2
  0
INSERT
  5
8D0D
330
1F
100
AcDbEntity
  8
TEXT1
100
AcDbBlockReference
 66
     1
  2
REF2
 10
0.5200002399997965
 20
4.695242697855671
 30
0.0
 41
3.199993599998749
 42
3.199993599998749
 43
3.199993599998749
  0
ATTRIB
  5
8D0E
330
8D0D
100
AcDbEntity
  8
TEXT1
100
AcDbText
 10
6.519988239997436
 20
5.400640663339949
 30
0.0
 40
0.3999991999998437
  1
 (2) #8-32 screws
100
AcDbAttribute
  2
MOUNTING_HWD
 70
     0
  0
ATTRIB
  5
8D0F
330
8D0D
100
AcDbEntity
  8
TEXT1
100
AcDbText
 10
6.519988239997436
 20
6.130372914733992
 30
0.0
 40
0.3999991999998437
  1
 -
100
AcDbAttribute
  2
TERM_TORQUE
 70
     0
  0
ATTRIB
  5
8D10
330
8D0D
100
AcDbEntity
  8
TEXT1
100
AcDbText
 10
6.519988239997436
 20
6.800637863339408
 30
0.0
 40
0.3999991999998437
  1
 -
100
AcDbAttribute
  2
WIRE_SIZE
 70
     0
  0
ATTRIB
  5
8D11
330
8D0D
100
AcDbEntity
  8
TEXT1
100
AcDbText
 10
6.519988239997436
 20
7.435769737642011
 30
0.0
 40
0.3999991999998437
  1
 7.0 lbs
100
AcDbAttribute
  2
WEIGHT
 70
     0
  0
ATTRIB
  5
8D12
330
8D0D
100
AcDbEntity
  8
TEXT1
100
AcDbText
 10
6.519988239997436
 20
8.095235897854333
 30
0.0
 40
0.3999991999998437
  1
 -
100
AcDbAttribute
  2
STANDARDS
 70
     0
  0
ATTRIB
  5
8D13
330
8D0D
100
AcDbEntity
  8
TEXT1
100
AcDbText
 10
6.519988239997436
 20
8.835766880217498
 30
0.0
 40
0.3999991999998437
  1
 -
100
AcDbAttribute
  2
CSA
 70
     0
  0
ATTRIB
  5
8D14
330
8D0D
100
AcDbEntity
  8
TEXT1
100
AcDbText
 10
6.555134733978359
 20
9.495233097853796
 30
0.0
 40
0.3999991999998437
  1
 E62922/DIHS2
100
AcDbAttribute
  2
UL
 70
     0
  0
ATTRIB
  5
8D15
330
8D0D
100
AcDbEntity
  8
TEXT1
100
AcDbText
 10
6.519988239997436
 20
10.20063106333807
 30
0.0
 40
0.3999991999998437
  1
 -
100
AcDbAttribute
  2
RATING
 70
     0
  0
ATTRIB
  5
8D16
330
8D0D
100
AcDbEntity
  8
TEXT1
100
AcDbText
 10
6.519988239997436
 20
10.89523029785325
 30
0.0
 40
0.3999991999998437
  1
 9422-CSF30, CSF50, CSF10
100
AcDbAttribute
  2
CATALOG
 70
     0
  0
SEQEND
  5
8D17
330
8D0D
100
AcDbEntity
  8
MOUNTING
  0
LINE
  5
8D1D
330
1F
100
AcDbEntity
  8
CONTINUOUS1
100
AcDbLine
 10
4.247970297043806
 20
36.59058842553884
 30
0.0
 11
4.247970297043806
 21
31.01620741560859
 31
0.0
  0
LINE
  5
8D1E
330
1F
100
AcDbEntity
  8
CONTINUOUS1
100
AcDbLine
 10
15.14721795148032
 20
34.11849399016836
 30
0.0
 11
15.1472179514803
 21
31.01620741560859
 31
0.0
  0
LINE
  5
8D1F
330
1F
100
AcDbEntity
  8
CONTINUOUS1
100
AcDbLine
 10
10.0984044365597
 20
36.59058842553882
 30
0.0
 11
10.09840443655969
 21
31.01620741560859
 31
0.0
  0
TEXT
  5
8D20
330
1F
100
AcDbEntity
  8
TEXT1
100
AcDbText
 10
5.286357727646149
 20
32.75379692716511
 30
0.0
 40
0.4
  1
36"
  7
SIMPLEX
100
AcDbText
  0
TEXT
  5
8D21
330
1F
100
AcDbEntity
  8
TEXT1
100
AcDbText
 10
7.206086920647134
 20
35.18367193929754
 30
0.0
 40
0.4
  1
MAXIMUM
  7
SIMPLEX
100
AcDbText
  0
TEXT
  5
8D22
330
1F
100
AcDbEntity
  8
TEXT1
100
AcDbText
 10
7.92063255076524
 20
34.53953396006122
 30
0.0
 40
0.4
  1
BOX
  7
SIMPLEX
100
AcDbText
  0
LINE
  5
8D23
330
1F
100
AcDbEntity
  8
CONTINUOUS1
100
AcDbLine
 10
1.834666666665949
 20
31.80728308273497
 30
0.0
 11
21.01073324303221
 21
31.80728308273497
 31
0.0
  0
LINE
  5
8D24
330
1F
100
AcDbEntity
  8
CONTINUOUS1
100
AcDbLine
 10
1.834666666665949
 20
33.33531138582979
 30
0.0
 11
21.01073324303222
 21
33.33531138582979
 31
0.0
  0
TEXT
  5
8D25
330
1F
100
AcDbEntity
  8
TEXT1
100
AcDbText
 10
5.093289963697175
 20
31.20728308273521
 30
0.0
 40
0.4
  1
120"
  7
SIMPLEX
100
AcDbText
  0
TEXT
  5
8D26
330
1F
100
AcDbEntity
  8
TEXT1
100
AcDbText
 10
4.678460772327728
 20
35.19723173906611
 30
0.0
 40
0.4
  1
CABLE
  7
SIMPLEX
100
AcDbText
  0
TEXT
  5
8D27
330
1F
100
AcDbEntity
  8
TEXT1
100
AcDbText
 10
12.44752102808894
 20
31.97779477946635
 30
0.0
 40
0.4
  1
16"
  7
SIMPLEX
100
AcDbText
  0
LINE
  5
8D28
330
1F
100
AcDbEntity
  8
CONTINUOUS1
100
AcDbLine
 10
1.834666666665949
 20
31.01620741560858
 30
0.0
 11
21.0107332430322
 21
31.01620741560859
 31
0.0
  0
LINE
  5
8D29
330
1F
100
AcDbEntity
  8
CONTINUOUS1
100
AcDbLine
 10
1.834666666665949
 20
36.59058842553882
 30
0.0
 11
21.01073324303222
 21
36.59058842553882
 31
0.0
  0
TEXT
  5
8D2A
330
1F
100
AcDbEntity
  8
TEXT1
100
AcDbText
 10
5.256443653203723
 20
32.04180865872278
 30
0.0
 40
0.4
  1
60"
  7
SIMPLEX
 11
5.256443653203723
 21
32.44180865872278
 31
0.0
100
AcDbText
 73
     3
  0
TEXT
  5
8D2B
330
1F
100
AcDbEntity
  8
TEXT1
100
AcDbText
 10
4.539817534902173
 20
34.50409134480777
 30
0.0
 40
0.4
  1
LENGTH
  7
SIMPLEX
100
AcDbText
  0
LINE
  5
8D2C
330
1F
100
AcDbEntity
  8
CONTINUOUS1
100
AcDbLine
 10
6.890098215205913
 20
36.59058842553882
 30
0.0
 11
6.890098215205913
 21
31.01620741560859
 31
0.0
  0
TEXT
  5
8D2D
330
1F
100
AcDbEntity
  8
TEXT1
100
AcDbText
 10
8.208583747111518
 20
32.04180865872278
 30
0.0
 40
0.4
  1
36"
  7
SIMPLEX
 11
8.208583747111518
 21
32.44180865872278
 31
0.0
100
AcDbText
 73
     3
  0
TEXT
  5
8D2E
330
1F
100
AcDbEntity
  8
TEXT1
100
AcDbText
 10
8.229026266001826
 20
32.78708349897822
 30
0.0
 40
0.4
  1
24"
  7
SIMPLEX
100
AcDbText
  0
TEXT
  5
8D2F
330
1F
100
AcDbEntity
  8
TEXT1
100
AcDbText
 10
8.228794189641366
 20
31.20728308273521
 30
0.0
 40
0.4
  1
36"
  7
SIMPLEX
100
AcDbText
  0
LINE
  5
8D30
330
1F
100
AcDbEntity
  8
CONTINUOUS1
100
AcDbLine
 10
10.09840443655969
 20
34.11849399016839
 30
0.0
 11
21.01073324303221
 21
34.11849399016834
 31
0.0
  0
LINE
  5
8D31
330
1F
100
AcDbEntity
  8
CONTINUOUS1
100
AcDbLine
 10
21.01073324303222
 20
36.59058842553884
 30
0.0
 11
21.0107332430322
 21
31.01620741560859
 31
0.0
  0
TEXT
  5
8D32
330
1F
100
AcDbEntity
  8
TEXT1
100
AcDbText
 10
12.13412911825901
 20
35.97213618188772
 30
0.0
 40
0.4
  1
MAXIMUM DISTANCE
  7
SIMPLEX
100
AcDbText
  0
TEXT
  5
8D33
330
1F
100
AcDbEntity
  8
TEXT1
100
AcDbText
 10
10.34471967256335
 20
35.41353419307348
 30
0.0
 40
0.4
  1
FROM TOP RIGHT MOUNTING HOLE
  7
SIMPLEX
100
AcDbText
  0
TEXT
  5
8D34
330
1F
100
AcDbEntity
  8
TEXT1
100
AcDbText
 10
11.27230183713604
 20
34.85493210684341
 30
0.0
 40
0.4
  1
TO UPPER MOUNTING HOLE
  7
SIMPLEX
100
AcDbText
  0
TEXT
  5
8D35
330
1F
100
AcDbEntity
  8
TEXT1
100
AcDbText
 10
10.61940225440773
 20
34.30123658366635
 30
0.0
 40
0.4
  1
FOR HANDLE OPERATOR (DIM C)
  7
SIMPLEX
100
AcDbText
  0
TEXT
  5
8D36
330
1F
100
AcDbEntity
  8
TEXT1
100
AcDbText
 10
11.01114188812857
 20
33.5441600945011
 30
0.0
 40
0.4
  1
MINIMUM C
  7
SIMPLEX
100
AcDbText
  0
TEXT
  5
8D37
330
1F
100
AcDbEntity
  8
TEXT1
100
AcDbText
 10
16.39284556856113
 20
33.49194786415447
 30
0.0
 40
0.4
  1
MAXIMUM C
  7
SIMPLEX
100
AcDbText
  0
TEXT
  5
8D38
330
1F
100
AcDbEntity
  8
TEXT1
100
AcDbText
 10
17.17451384475935
 20
31.18706164726212
 30
0.0
 40
0.4
  1
5 FEET
  7
SIMPLEX
100
AcDbText
  0
TEXT
  5
8D39
330
1F
100
AcDbEntity
  8
TEXT1
100
AcDbText
 10
2.363599872031929
 20
35.01307330208694
 30
0.0
 40
0.4
  1
TYPE
  7
SIMPLEX
100
AcDbText
  0
LINE
  5
8D3A
330
1F
100
AcDbEntity
  8
CONTINUOUS1
100
AcDbLine
 10
1.834666666665949
 20
36.59058842553882
 30
0.0
 11
1.834666666665949
 21
31.01620741560859
 31
0.0
  0
TEXT
  5
8D3B
330
1F
100
AcDbEntity
  8
TEXT1
100
AcDbText
 10
2.181671871915349
 20
32.73983606941949
 30
0.0
 40
0.4
  1
CSF30
  7
SIMPLEX
100
AcDbText
  0
LINE
  5
8D3C
330
1F
100
AcDbEntity
  8
CONTINUOUS1
100
AcDbLine
 10
56.33222906560928
 20
18.17751756280722
 30
0.0
 11
55.78173584470135
 21
21.95903563594175
 31
0.0
  0
LINE
  5
8D3D
330
1F
100
AcDbEntity
  8
CONTINUOUS1
100
AcDbLine
 10
55.99271953691481
 20
18.15037485858076
 30
0.0
 11
55.427428364436
 21
21.90745744373669
 31
0.0
  0
LINE
  5
8D3E
330
1F
100
AcDbEntity
  8
CONTINUOUS1
100
AcDbLine
 10
50.3763247654404
 20
17.15912989509898
 30
0.0
 11
50.3763247654404
 21
20.74323809657804
 31
0.0
  0
LINE
  5
8D3F
330
1F
100
AcDbEntity
  8
CONTINUOUS1
100
AcDbLine
 10
59.50731753750247
 20
26.29162928211497
 30
0.0
 11
59.50731753750247
 21
17.49162928211496
 31
0.0
  0
LINE
  5
8D40
330
1F
100
AcDbEntity
  8
CONTINUOUS1
100
AcDbLine
 10
59.60031753750246
 20
27.21472245234427
 30
0.0
 11
59.60031753750246
 21
14.65887566651649
 31
0.0
  0
LINE
  5
8D41
330
1F
100
AcDbEntity
  8
CONTINUOUS1
100
AcDbLine
 10
59.50731753750247
 20
27.21175549859739
 30
0.0
 11
59.50731753750247
 21
14.6588756665165
 31
0.0
  0
LINE
  5
8D42
330
1F
100
AcDbEntity
  8
CONTINUOUS1
100
AcDbLine
 10
47.95505961099766
 20
27.2127543374499
 30
0.0
 11
47.95505961099766
 21
16.637304334843
 31
0.0
  0
LINE
  5
8D43
330
1F
100
AcDbEntity
  8
CONTINUOUS1
100
AcDbLine
 10
48.04805961099766
 20
27.21572129119679
 30
0.0
 11
48.04805961099766
 21
16.637304334843
 31
0.0
  0
LINE
  5
8D44
330
1F
100
AcDbEntity
  8
CONTINUOUS1
100
AcDbLine
 10
48.22405961099766
 20
26.28412989509898
 30
0.0
 11
48.22405961099767
 21
17.15912989509898
 31
0.0
  0
LINE
  5
8D45
330
1F
100
AcDbEntity
  8
CONTINUOUS1
100
AcDbLine
 10
50.3763247654404
 20
17.15912989509898
 30
0.0
 11
48.04805961099766
 21
17.15912989509898
 31
0.0
  0
LINE
  5
8D46
330
1F
100
AcDbEntity
  8
CONTINUOUS1
100
AcDbLine
 10
48.31801133146115
 20
17.15912989509898
 30
0.0
 11
48.31801133146115
 21
16.21912162170253
 31
0.0
  0
LINE
  5
8D47
330
1F
100
AcDbEntity
  8
CONTINUOUS1
100
AcDbLine
 10
48.69301133146116
 20
17.15912989509898
 30
0.0
 11
48.69301133146116
 21
16.21912162170251
 31
0.0
  0
LINE
  5
8D48
330
1F
100
AcDbEntity
  8
CONTINUOUS1
100
AcDbLine
 10
48.31801133146116
 20
16.21912162170253
 30
0.0
 11
48.35571686004065
 21
15.89221412833724
 31
0.0
  0
LINE
  5
8D49
330
1F
100
AcDbEntity
  8
CONTINUOUS1
100
AcDbLine
 10
48.69301133146116
 20
16.21912162170253
 30
0.0
 11
48.65271143404497
 21
15.90512206354449
 31
0.0
  0
CIRCLE
  5
8D4A
330
1F
100
AcDbEntity
  8
CONTINUOUS1
100
AcDbCircle
 10
48.98105330102501
 20
18.43467038518789
 30
0.0
 40
0.0839745969405588
  0
LINE
  5
8D4B
330
1F
100
AcDbEntity
  8
CONTINUOUS1
100
AcDbLine
 10
56.18698268096753
 20
19.17526250810257
 30
0.0
 11
56.41207988043426
 21
18.19628411030294
 31
0.0
  0
LINE
  5
8D4C
330
1F
100
AcDbEntity
  8
CONTINUOUS1
100
AcDbLine
 10
55.83840345869441
 20
19.17600249672168
 30
0.0
 11
55.90427823358404
 21
18.1433042583919
 31
0.0
  0
LINE
  5
8D4D
330
1F
100
AcDbEntity
  8
CONTINUOUS1
100
AcDbLine
 10
55.69169735749145
 20
17.65293611662366
 30
0.0
 11
56.67990888995189
 21
17.73882980099658
 31
0.0
  0
LINE
  5
8D4E
330
1F
100
AcDbEntity
  8
CONTINUOUS1
100
AcDbLine
 10
55.64603236720743
 20
18.12265832484264
 30
0.0
 11
56.64285185894033
 21
18.20235086465239
 31
0.0
  0
LINE
  5
8D4F
330
1F
100
AcDbEntity
  8
CONTINUOUS1
100
AcDbLine
 10
55.65088199155559
 20
18.16133769639997
 30
0.0
 11
55.65934805801709
 21
17.95725758168254
 31
0.0
  0
LINE
  5
8D50
330
1F
100
AcDbEntity
  8
CONTINUOUS1
100
AcDbLine
 10
55.88051623831134
 20
18.17086385134928
 30
0.0
 11
55.88854564236064
 21
17.97730977202012
 31
0.0
  0
LINE
  5
8D51
330
1F
100
AcDbEntity
  8
CONTINUOUS1
100
AcDbLine
 10
55.89373213067042
 20
17.85228605125783
 30
0.0
 11
55.9028297973235
 21
17.67128739319971
 31
0.0
  0
LINE
  5
8D52
330
1F
100
AcDbEntity
  8
CONTINUOUS1
100
AcDbLine
 10
55.66453454632686
 20
17.83223386092024
 30
0.0
 11
55.69169735749145
 21
17.65293611662366
 31
0.0
  0
LINE
  5
8D53
330
1F
100
AcDbEntity
  8
CONTINUOUS1
100
AcDbLine
 10
56.65002263801159
 20
18.20278608116296
 30
0.0
 11
56.65779421015469
 21
18.01544720995246
 31
0.0
  0
LINE
  5
8D54
330
1F
100
AcDbEntity
  8
CONTINUOUS1
100
AcDbLine
 10
56.40097807495246
 20
18.19245470798801
 30
0.0
 11
56.40874964709552
 21
18.0051158367775
 31
0.0
  0
LINE
  5
8D55
330
1F
100
AcDbEntity
  8
CONTINUOUS1
100
AcDbLine
 10
56.15045231478362
 20
18.18206188878147
 30
0.0
 11
56.15822388692667
 21
17.99472301757097
 31
0.0
  0
LINE
  5
8D56
330
1F
100
AcDbEntity
  8
CONTINUOUS1
100
AcDbLine
 10
56.4132042799097
 20
17.89773397533371
 30
0.0
 11
56.42025157386723
 21
17.72785430738596
 31
0.0
  0
LINE
  5
8D57
330
1F
100
AcDbEntity
  8
CONTINUOUS1
100
AcDbLine
 10
56.16315490853868
 20
17.87585749001697
 30
0.0
 11
56.16972581369839
 21
17.71746148817942
 31
0.0
  0
LINE
  5
8D58
330
1F
100
AcDbEntity
  8
CONTINUOUS1
100
AcDbLine
 10
56.66152456478335
 20
17.92552455177142
 30
0.0
 11
56.66929613692641
 21
17.73818568056092
 31
0.0
  0
POINT
  5
8D59
330
1F
100
AcDbEntity
  8
CONTINUOUS1
100
AcDbPoint
 10
59.50731753750247
 20
14.6588756665165
 30
0.0
  0
LINE
  5
8D5A
330
1F
100
AcDbEntity
  8
CONTINUOUS1
100
AcDbLine
 10
59.50731753750247
 20
14.6588756665165
 30
0.0
 11
59.60031753750246
 21
14.65887566651649
 31
0.0
  0
LINE
  5
8D5B
330
1F
100
AcDbEntity
  8
CONTINUOUS1
100
AcDbLine
 10
51.25992360510881
 20
26.28412989509898
 30
0.0
 11
52.29805961099767
 21
24.91480798825837
 31
0.0
  0
POINT
  5
8D5C
330
1F
100
AcDbEntity
  8
CONTINUOUS1
100
AcDbPoint
 10
47.95505961099766
 20
25.27105496828725
 30
0.0
  0
LINE
  5
8D5D
330
1F
100
AcDbEntity
  8
CONTINUOUS1
100
AcDbLine
 10
52.29805961099767
 20
24.91480798825837
 30
0.0
 11
52.29805961099767
 21
21.37465391106029
 31
0.0
  0
LINE
  5
8D5E
330
1F
100
AcDbEntity
  8
CONTINUOUS1
100
AcDbLine
 10
52.29805961099767
 20
21.37465391106029
 30
0.0
 11
50.3763247654404
 21
20.74323809657804
 31
0.0
  0
CIRCLE
  5
8D5F
330
1F
100
AcDbEntity
  8
CONTINUOUS1
100
AcDbCircle
 10
51.38521714512071
 20
22.91945625502223
 30
0.0
 40
0.1375984474541977
  0
LINE
  5
8D60
330
1F
100
AcDbEntity
  8
CONTINUOUS1
100
AcDbLine
 10
51.25992360510881
 20
26.28412989509898
 30
0.0
 11
48.04805961099766
 21
26.28412989509898
 31
0.0
  0
LINE
  5
8D61
330
1F
100
AcDbEntity
  8
CONTINUOUS1
100
AcDbLine
 10
55.427428364436
 20
21.90745744373669
 30
0.0
 11
55.78173584470135
 21
21.95903563594176
 31
0.0
  0
LINE
  5
8D62
330
1F
100
AcDbEntity
  8
CONTINUOUS1
100
AcDbLine
 10
59.60031753750246
 20
27.21472245234427
 30
0.0
 11
59.50731753750247
 21
27.21472245234427
 31
0.0
  0
LINE
  5
8D63
330
1F
100
AcDbEntity
  8
CONTINUOUS1
100
AcDbLine
 10
59.50731753750247
 20
20.9071599215282
 30
0.0
 11
59.60031753750246
 21
21.00015992152819
 31
0.0
  0
LINE
  5
8D64
330
1F
100
AcDbEntity
  8
CONTINUOUS1
100
AcDbLine
 10
59.50731753750247
 20
21.08393661682483
 30
0.0
 11
59.60031753750246
 21
21.17693661682483
 31
0.0
  0
LINE
  5
8D65
330
1F
100
AcDbEntity
  8
CONTINUOUS1
100
AcDbLine
 10
59.50731753750247
 20
21.26071331212147
 30
0.0
 11
59.60031753750246
 21
21.35371331212146
 31
0.0
  0
LINE
  5
8D66
330
1F
100
AcDbEntity
  8
CONTINUOUS1
100
AcDbLine
 10
59.50731753750247
 20
21.43749000741811
 30
0.0
 11
59.60031753750246
 21
21.5304900074181
 31
0.0
  0
LINE
  5
8D67
330
1F
100
AcDbEntity
  8
CONTINUOUS1
100
AcDbLine
 10
59.50731753750247
 20
21.61426670271473
 30
0.0
 11
59.60031753750246
 21
21.70726670271474
 31
0.0
  0
LINE
  5
8D68
330
1F
100
AcDbEntity
  8
CONTINUOUS1
100
AcDbLine
 10
59.50731753750247
 20
21.79104339801138
 30
0.0
 11
59.60031753750246
 21
21.88404339801138
 31
0.0
  0
LINE
  5
8D69
330
1F
100
AcDbEntity
  8
CONTINUOUS1
100
AcDbLine
 10
59.50731753750247
 20
21.96782009330801
 30
0.0
 11
59.60031753750246
 21
22.06082009330801
 31
0.0
  0
LINE
  5
8D6A
330
1F
100
AcDbEntity
  8
CONTINUOUS1
100
AcDbLine
 10
59.50731753750247
 20
22.14459678860465
 30
0.0
 11
59.60031753750246
 21
22.23759678860465
 31
0.0
  0
LINE
  5
8D6B
330
1F
100
AcDbEntity
  8
CONTINUOUS1
100
AcDbLine
 10
59.50731753750247
 20
22.32137348390129
 30
0.0
 11
59.60031753750246
 21
22.41437348390129
 31
0.0
  0
LINE
  5
8D6C
330
1F
100
AcDbEntity
  8
CONTINUOUS1
100
AcDbLine
 10
59.50731753750247
 20
22.49815017919792
 30
0.0
 11
59.60031753750246
 21
22.59115017919792
 31
0.0
  0
LINE
  5
8D6D
330
1F
100
AcDbEntity
  8
CONTINUOUS1
100
AcDbLine
 10
59.50731753750247
 20
22.67492687449456
 30
0.0
 11
59.60031753750246
 21
22.76792687449456
 31
0.0
  0
LINE
  5
8D6E
330
1F
100
AcDbEntity
  8
CONTINUOUS1
100
AcDbLine
 10
59.50731753750247
 20
22.8517035697912
 30
0.0
 11
59.60031753750246
 21
22.9447035697912
 31
0.0
  0
LINE
  5
8D6F
330
1F
100
AcDbEntity
  8
CONTINUOUS1
100
AcDbLine
 10
59.50731753750247
 20
23.02848026508784
 30
0.0
 11
59.60031753750246
 21
23.12148026508783
 31
0.0
  0
LINE
  5
8D70
330
1F
100
AcDbEntity
  8
CONTINUOUS1
100
AcDbLine
 10
59.50731753750247
 20
23.20525696038447
 30
0.0
 11
59.60031753750246
 21
23.29825696038447
 31
0.0
  0
LINE
  5
8D71
330
1F
100
AcDbEntity
  8
CONTINUOUS1
100
AcDbLine
 10
59.50731753750247
 20
23.38203365568111
 30
0.0
 11
59.60031753750246
 21
23.47503365568111
 31
0.0
  0
LINE
  5
8D72
330
1F
100
AcDbEntity
  8
CONTINUOUS1
100
AcDbLine
 10
59.50731753750247
 20
23.55881035097775
 30
0.0
 11
59.60031753750246
 21
23.65181035097775
 31
0.0
  0
LINE
  5
8D73
330
1F
100
AcDbEntity
  8
CONTINUOUS1
100
AcDbLine
 10
59.50731753750247
 20
23.73558704627438
 30
0.0
 11
59.60031753750246
 21
23.82858704627438
 31
0.0
  0
LINE
  5
8D74
330
1F
100
AcDbEntity
  8
CONTINUOUS1
100
AcDbLine
 10
59.50731753750247
 20
23.91236374157102
 30
0.0
 11
59.60031753750246
 21
24.00536374157102
 31
0.0
  0
LINE
  5
8D75
330
1F
100
AcDbEntity
  8
CONTINUOUS1
100
AcDbLine
 10
59.50731753750247
 20
24.08914043686766
 30
0.0
 11
59.60031753750246
 21
24.18214043686766
 31
0.0
  0
LINE
  5
8D76
330
1F
100
AcDbEntity
  8
CONTINUOUS1
100
AcDbLine
 10
59.50731753750247
 20
24.2659171321643
 30
0.0
 11
59.60031753750246
 21
24.35891713216429
 31
0.0
  0
LINE
  5
8D77
330
1F
100
AcDbEntity
  8
CONTINUOUS1
100
AcDbLine
 10
59.50731753750247
 20
24.44269382746093
 30
0.0
 11
59.60031753750246
 21
24.53569382746093
 31
0.0
  0
LINE
  5
8D78
330
1F
100
AcDbEntity
  8
CONTINUOUS1
100
AcDbLine
 10
59.50731753750247
 20
24.61947052275757
 30
0.0
 11
59.60031753750246
 21
24.71247052275757
 31
0.0
  0
LINE
  5
8D79
330
1F
100
AcDbEntity
  8
CONTINUOUS1
100
AcDbLine
 10
59.50731753750247
 20
24.79624721805421
 30
0.0
 11
59.60031753750246
 21
24.8892472180542
 31
0.0
  0
LINE
  5
8D7A
330
1F
100
AcDbEntity
  8
CONTINUOUS1
100
AcDbLine
 10
59.50731753750247
 20
24.97302391335084
 30
0.0
 11
59.60031753750246
 21
25.06602391335084
 31
0.0
  0
LINE
  5
8D7B
330
1F
100
AcDbEntity
  8
CONTINUOUS1
100
AcDbLine
 10
59.50731753750247
 20
25.14980060864748
 30
0.0
 11
59.60031753750246
 21
25.24280060864748
 31
0.0
  0
LINE
  5
8D7C
330
1F
100
AcDbEntity
  8
CONTINUOUS1
100
AcDbLine
 10
59.50731753750247
 20
25.32657730394412
 30
0.0
 11
59.60031753750246
 21
25.41957730394412
 31
0.0
  0
LINE
  5
8D7D
330
1F
100
AcDbEntity
  8
CONTINUOUS1
100
AcDbLine
 10
59.50731753750247
 20
25.50335399924075
 30
0.0
 11
59.60031753750246
 21
25.59635399924076
 31
0.0
  0
LINE
  5
8D7E
330
1F
100
AcDbEntity
  8
CONTINUOUS1
100
AcDbLine
 10
59.50731753750247
 20
25.68013069453739
 30
0.0
 11
59.60031753750246
 21
25.77313069453738
 31
0.0
  0
LINE
  5
8D7F
330
1F
100
AcDbEntity
  8
CONTINUOUS1
100
AcDbLine
 10
59.50731753750247
 20
25.85690738983403
 30
0.0
 11
59.60031753750246
 21
25.94990738983403
 31
0.0
  0
LINE
  5
8D80
330
1F
100
AcDbEntity
  8
CONTINUOUS1
100
AcDbLine
 10
59.50731753750247
 20
26.03368408513067
 30
0.0
 11
59.60031753750246
 21
26.12668408513066
 31
0.0
  0
LINE
  5
8D81
330
1F
100
AcDbEntity
  8
CONTINUOUS1
100
AcDbLine
 10
59.50731753750247
 20
26.21046078042731
 30
0.0
 11
59.60031753750246
 21
26.3034607804273
 31
0.0
  0
LINE
  5
8D82
330
1F
100
AcDbEntity
  8
CONTINUOUS1
100
AcDbLine
 10
59.50731753750247
 20
26.38723747572393
 30
0.0
 11
59.60031753750246
 21
26.48023747572394
 31
0.0
  0
LINE
  5
8D83
330
1F
100
AcDbEntity
  8
CONTINUOUS1
100
AcDbLine
 10
59.50731753750247
 20
26.56401417102058
 30
0.0
 11
59.60031753750246
 21
26.65701417102057
 31
0.0
  0
LINE
  5
8D84
330
1F
100
AcDbEntity
  8
CONTINUOUS1
100
AcDbLine
 10
59.50731753750247
 20
26.74079086631721
 30
0.0
 11
59.60031753750246
 21
26.83379086631721
 31
0.0
  0
LINE
  5
8D85
330
1F
100
AcDbEntity
  8
CONTINUOUS1
100
AcDbLine
 10
59.50731753750247
 20
26.91756756161385
 30
0.0
 11
59.60031753750246
 21
27.01056756161385
 31
0.0
  0
LINE
  5
8D86
330
1F
100
AcDbEntity
  8
CONTINUOUS1
100
AcDbLine
 10
59.50731753750247
 20
27.09434425691049
 30
0.0
 11
59.60031753750246
 21
27.18734425691049
 31
0.0
  0
LINE
  5
8D87
330
1F
100
AcDbEntity
  8
CONTINUOUS1
100
AcDbLine
 10
59.50731753750247
 20
20.73038322623156
 30
0.0
 11
59.60031753750246
 21
20.82338322623156
 31
0.0
  0
LINE
  5
8D88
330
1F
100
AcDbEntity
  8
CONTINUOUS1
100
AcDbLine
 10
59.50731753750247
 20
20.55360653093492
 30
0.0
 11
59.60031753750246
 21
20.64660653093492
 31
0.0
  0
LINE
  5
8D89
330
1F
100
AcDbEntity
  8
CONTINUOUS1
100
AcDbLine
 10
59.50731753750247
 20
20.37682983563828
 30
0.0
 11
59.60031753750246
 21
20.46982983563828
 31
0.0
  0
LINE
  5
8D8A
330
1F
100
AcDbEntity
  8
CONTINUOUS1
100
AcDbLine
 10
59.50731753750247
 20
20.20005314034164
 30
0.0
 11
59.60031753750246
 21
20.29305314034165
 31
0.0
  0
LINE
  5
8D8B
330
1F
100
AcDbEntity
  8
CONTINUOUS1
100
AcDbLine
 10
59.50731753750247
 20
20.02327644504501
 30
0.0
 11
59.60031753750246
 21
20.11627644504501
 31
0.0
  0
LINE
  5
8D8C
330
1F
100
AcDbEntity
  8
CONTINUOUS1
100
AcDbLine
 10
59.50731753750247
 20
19.84649974974837
 30
0.0
 11
59.60031753750246
 21
19.93949974974837
 31
0.0
  0
LINE
  5
8D8D
330
1F
100
AcDbEntity
  8
CONTINUOUS1
100
AcDbLine
 10
59.50731753750247
 20
19.66972305445174
 30
0.0
 11
59.60031753750246
 21
19.76272305445173
 31
0.0
  0
LINE
  5
8D8E
330
1F
100
AcDbEntity
  8
CONTINUOUS1
100
AcDbLine
 10
59.50731753750247
 20
19.4929463591551
 30
0.0
 11
59.60031753750246
 21
19.5859463591551
 31
0.0
  0
LINE
  5
8D8F
330
1F
100
AcDbEntity
  8
CONTINUOUS1
100
AcDbLine
 10
59.50731753750247
 20
19.31616966385846
 30
0.0
 11
59.60031753750246
 21
19.40916966385846
 31
0.0
  0
LINE
  5
8D90
330
1F
100
AcDbEntity
  8
CONTINUOUS1
100
AcDbLine
 10
59.50731753750247
 20
19.13939296856182
 30
0.0
 11
59.60031753750246
 21
19.23239296856182
 31
0.0
  0
LINE
  5
8D91
330
1F
100
AcDbEntity
  8
CONTINUOUS1
100
AcDbLine
 10
59.50731753750247
 20
18.96261627326518
 30
0.0
 11
59.60031753750246
 21
19.05561627326519
 31
0.0
  0
LINE
  5
8D92
330
1F
100
AcDbEntity
  8
CONTINUOUS1
100
AcDbLine
 10
59.50731753750247
 20
18.78583957796855
 30
0.0
 11
59.60031753750246
 21
18.87883957796855
 31
0.0
  0
LINE
  5
8D93
330
1F
100
AcDbEntity
  8
CONTINUOUS1
100
AcDbLine
 10
59.50731753750247
 20
18.60906288267191
 30
0.0
 11
59.60031753750246
 21
18.70206288267191
 31
0.0
  0
LINE
  5
8D94
330
1F
100
AcDbEntity
  8
CONTINUOUS1
100
AcDbLine
 10
59.50731753750247
 20
18.43228618737527
 30
0.0
 11
59.60031753750246
 21
18.52528618737528
 31
0.0
  0
LINE
  5
8D95
330
1F
100
AcDbEntity
  8
CONTINUOUS1
100
AcDbLine
 10
59.50731753750247
 20
18.25550949207864
 30
0.0
 11
59.60031753750246
 21
18.34850949207864
 31
0.0
  0
LINE
  5
8D96
330
1F
100
AcDbEntity
  8
CONTINUOUS1
100
AcDbLine
 10
59.50731753750247
 20
18.078732796782
 30
0.0
 11
59.60031753750246
 21
18.171732796782
 31
0.0
  0
LINE
  5
8D97
330
1F
100
AcDbEntity
  8
CONTINUOUS1
100
AcDbLine
 10
59.50731753750247
 20
17.90195610148537
 30
0.0
 11
59.60031753750246
 21
17.99495610148536
 31
0.0
  0
LINE
  5
8D98
330
1F
100
AcDbEntity
  8
CONTINUOUS1
100
AcDbLine
 10
59.50731753750247
 20
17.72517940618873
 30
0.0
 11
59.60031753750246
 21
17.81817940618872
 31
0.0
  0
LINE
  5
8D99
330
1F
100
AcDbEntity
  8
CONTINUOUS1
100
AcDbLine
 10
59.50731753750247
 20
17.54840271089209
 30
0.0
 11
59.60031753750246
 21
17.6414027108921
 31
0.0
  0
LINE
  5
8D9A
330
1F
100
AcDbEntity
  8
CONTINUOUS1
100
AcDbLine
 10
59.50731753750247
 20
17.37162601559545
 30
0.0
 11
59.60031753750246
 21
17.46462601559546
 31
0.0
  0
LINE
  5
8D9B
330
1F
100
AcDbEntity
  8
CONTINUOUS1
100
AcDbLine
 10
59.50731753750247
 20
17.19484932029881
 30
0.0
 11
59.60031753750246
 21
17.28784932029882
 31
0.0
  0
LINE
  5
8D9C
330
1F
100
AcDbEntity
  8
CONTINUOUS1
100
AcDbLine
 10
59.50731753750247
 20
17.01807262500218
 30
0.0
 11
59.60031753750246
 21
17.11107262500218
 31
0.0
  0
LINE
  5
8D9D
330
1F
100
AcDbEntity
  8
CONTINUOUS1
100
AcDbLine
 10
59.50731753750247
 20
16.84129592970554
 30
0.0
 11
59.60031753750246
 21
16.93429592970554
 31
0.0
  0
LINE
  5
8D9E
330
1F
100
AcDbEntity
  8
CONTINUOUS1
100
AcDbLine
 10
59.50731753750247
 20
16.66451923440891
 30
0.0
 11
59.60031753750246
 21
16.75751923440891
 31
0.0
  0
LINE
  5
8D9F
330
1F
100
AcDbEntity
  8
CONTINUOUS1
100
AcDbLine
 10
59.50731753750247
 20
16.48774253911227
 30
0.0
 11
59.60031753750246
 21
16.58074253911227
 31
0.0
  0
LINE
  5
8DA0
330
1F
100
AcDbEntity
  8
CONTINUOUS1
100
AcDbLine
 10
59.50731753750247
 20
16.31096584381563
 30
0.0
 11
59.60031753750246
 21
16.40396584381563
 31
0.0
  0
LINE
  5
8DA1
330
1F
100
AcDbEntity
  8
CONTINUOUS1
100
AcDbLine
 10
59.50731753750247
 20
16.13418914851899
 30
0.0
 11
59.60031753750246
 21
16.22718914851899
 31
0.0
  0
LINE
  5
8DA2
330
1F
100
AcDbEntity
  8
CONTINUOUS1
100
AcDbLine
 10
59.50731753750247
 20
15.95741245322236
 30
0.0
 11
59.60031753750246
 21
16.05041245322236
 31
0.0
  0
LINE
  5
8DA3
330
1F
100
AcDbEntity
  8
CONTINUOUS1
100
AcDbLine
 10
59.50731753750247
 20
15.78063575792572
 30
0.0
 11
59.60031753750246
 21
15.87363575792573
 31
0.0
  0
LINE
  5
8DA4
330
1F
100
AcDbEntity
  8
CONTINUOUS1
100
AcDbLine
 10
59.50731753750247
 20
15.60385906262908
 30
0.0
 11
59.60031753750246
 21
15.69685906262909
 31
0.0
  0
LINE
  5
8DA5
330
1F
100
AcDbEntity
  8
CONTINUOUS1
100
AcDbLine
 10
59.50731753750247
 20
15.42708236733244
 30
0.0
 11
59.60031753750246
 21
15.52008236733245
 31
0.0
  0
LINE
  5
8DA6
330
1F
100
AcDbEntity
  8
CONTINUOUS1
100
AcDbLine
 10
59.50731753750247
 20
15.25030567203581
 30
0.0
 11
59.60031753750246
 21
15.34330567203581
 31
0.0
  0
LINE
  5
8DA7
330
1F
100
AcDbEntity
  8
CONTINUOUS1
100
AcDbLine
 10
59.50731753750247
 20
15.07352897673917
 30
0.0
 11
59.60031753750246
 21
15.16652897673917
 31
0.0
  0
LINE
  5
8DA8
330
1F
100
AcDbEntity
  8
CONTINUOUS1
100
AcDbLine
 10
59.50731753750247
 20
14.89675228144253
 30
0.0
 11
59.60031753750246
 21
14.98975228144254
 31
0.0
  0
LINE
  5
8DA9
330
1F
100
AcDbEntity
  8
CONTINUOUS1
100
AcDbLine
 10
59.50731753750247
 20
14.7199755861459
 30
0.0
 11
59.60031753750246
 21
14.8129755861459
 31
0.0
  0
LINE
  5
8DAA
330
1F
100
AcDbEntity
  8
CONTINUOUS1
100
AcDbLine
 10
59.50731753750247
 20
20.96965992152819
 30
0.0
 11
59.60031753750246
 21
21.06265992152819
 31
0.0
  0
LINE
  5
8DAB
330
1F
100
AcDbEntity
  8
CONTINUOUS1
100
AcDbLine
 10
59.50731753750247
 20
21.14643661682483
 30
0.0
 11
59.60031753750246
 21
21.23943661682483
 31
0.0
  0
LINE
  5
8DAC
330
1F
100
AcDbEntity
  8
CONTINUOUS1
100
AcDbLine
 10
59.50731753750247
 20
21.32321331212147
 30
0.0
 11
59.60031753750246
 21
21.41621331212146
 31
0.0
  0
LINE
  5
8DAD
330
1F
100
AcDbEntity
  8
CONTINUOUS1
100
AcDbLine
 10
59.50731753750247
 20
21.4999900074181
 30
0.0
 11
59.60031753750246
 21
21.5929900074181
 31
0.0
  0
LINE
  5
8DAE
330
1F
100
AcDbEntity
  8
CONTINUOUS1
100
AcDbLine
 10
59.50731753750247
 20
21.67676670271474
 30
0.0
 11
59.60031753750246
 21
21.76976670271474
 31
0.0
  0
LINE
  5
8DAF
330
1F
100
AcDbEntity
  8
CONTINUOUS1
100
AcDbLine
 10
59.50731753750247
 20
21.85354339801138
 30
0.0
 11
59.60031753750246
 21
21.94654339801138
 31
0.0
  0
LINE
  5
8DB0
330
1F
100
AcDbEntity
  8
CONTINUOUS1
100
AcDbLine
 10
59.50731753750247
 20
22.03032009330801
 30
0.0
 11
59.60031753750246
 21
22.12332009330802
 31
0.0
  0
LINE
  5
8DB1
330
1F
100
AcDbEntity
  8
CONTINUOUS1
100
AcDbLine
 10
59.50731753750247
 20
22.20709678860465
 30
0.0
 11
59.60031753750246
 21
22.30009678860465
 31
0.0
  0
LINE
  5
8DB2
330
1F
100
AcDbEntity
  8
CONTINUOUS1
100
AcDbLine
 10
59.50731753750247
 20
22.38387348390129
 30
0.0
 11
59.60031753750246
 21
22.47687348390129
 31
0.0
  0
LINE
  5
8DB3
330
1F
100
AcDbEntity
  8
CONTINUOUS1
100
AcDbLine
 10
59.50731753750247
 20
22.56065017919793
 30
0.0
 11
59.60031753750246
 21
22.65365017919792
 31
0.0
  0
LINE
  5
8DB4
330
1F
100
AcDbEntity
  8
CONTINUOUS1
100
AcDbLine
 10
59.50731753750247
 20
22.73742687449456
 30
0.0
 11
59.60031753750246
 21
22.83042687449456
 31
0.0
  0
LINE
  5
8DB5
330
1F
100
AcDbEntity
  8
CONTINUOUS1
100
AcDbLine
 10
59.50731753750247
 20
22.9142035697912
 30
0.0
 11
59.60031753750246
 21
23.0072035697912
 31
0.0
  0
LINE
  5
8DB6
330
1F
100
AcDbEntity
  8
CONTINUOUS1
100
AcDbLine
 10
59.50731753750247
 20
23.09098026508784
 30
0.0
 11
59.60031753750246
 21
23.18398026508783
 31
0.0
  0
LINE
  5
8DB7
330
1F
100
AcDbEntity
  8
CONTINUOUS1
100
AcDbLine
 10
59.50731753750247
 20
23.26775696038447
 30
0.0
 11
59.60031753750246
 21
23.36075696038447
 31
0.0
  0
LINE
  5
8DB8
330
1F
100
AcDbEntity
  8
CONTINUOUS1
100
AcDbLine
 10
59.50731753750247
 20
23.44453365568111
 30
0.0
 11
59.60031753750246
 21
23.53753365568111
 31
0.0
  0
LINE
  5
8DB9
330
1F
100
AcDbEntity
  8
CONTINUOUS1
100
AcDbLine
 10
59.50731753750247
 20
23.62131035097774
 30
0.0
 11
59.60031753750246
 21
23.71431035097775
 31
0.0
  0
LINE
  5
8DBA
330
1F
100
AcDbEntity
  8
CONTINUOUS1
100
AcDbLine
 10
59.50731753750247
 20
23.79808704627438
 30
0.0
 11
59.60031753750246
 21
23.89108704627438
 31
0.0
  0
LINE
  5
8DBB
330
1F
100
AcDbEntity
  8
CONTINUOUS1
100
AcDbLine
 10
59.50731753750247
 20
23.97486374157102
 30
0.0
 11
59.60031753750246
 21
24.06786374157102
 31
0.0
  0
LINE
  5
8DBC
330
1F
100
AcDbEntity
  8
CONTINUOUS1
100
AcDbLine
 10
59.50731753750247
 20
24.15164043686766
 30
0.0
 11
59.60031753750246
 21
24.24464043686766
 31
0.0
  0
LINE
  5
8DBD
330
1F
100
AcDbEntity
  8
CONTINUOUS1
100
AcDbLine
 10
59.50731753750247
 20
24.3284171321643
 30
0.0
 11
59.60031753750246
 21
24.42141713216429
 31
0.0
  0
LINE
  5
8DBE
330
1F
100
AcDbEntity
  8
CONTINUOUS1
100
AcDbLine
 10
59.50731753750247
 20
24.50519382746094
 30
0.0
 11
59.60031753750246
 21
24.59819382746093
 31
0.0
  0
LINE
  5
8DBF
330
1F
100
AcDbEntity
  8
CONTINUOUS1
100
AcDbLine
 10
59.50731753750247
 20
24.68197052275757
 30
0.0
 11
59.60031753750246
 21
24.77497052275757
 31
0.0
  0
LINE
  5
8DC0
330
1F
100
AcDbEntity
  8
CONTINUOUS1
100
AcDbLine
 10
59.50731753750247
 20
24.85874721805421
 30
0.0
 11
59.60031753750246
 21
24.9517472180542
 31
0.0
  0
LINE
  5
8DC1
330
1F
100
AcDbEntity
  8
CONTINUOUS1
100
AcDbLine
 10
59.50731753750247
 20
25.03552391335084
 30
0.0
 11
59.60031753750246
 21
25.12852391335084
 31
0.0
  0
LINE
  5
8DC2
330
1F
100
AcDbEntity
  8
CONTINUOUS1
100
AcDbLine
 10
59.50731753750247
 20
25.21230060864748
 30
0.0
 11
59.60031753750246
 21
25.30530060864748
 31
0.0
  0
LINE
  5
8DC3
330
1F
100
AcDbEntity
  8
CONTINUOUS1
100
AcDbLine
 10
59.50731753750247
 20
25.38907730394412
 30
0.0
 11
59.60031753750246
 21
25.48207730394412
 31
0.0
  0
LINE
  5
8DC4
330
1F
100
AcDbEntity
  8
CONTINUOUS1
100
AcDbLine
 10
59.50731753750247
 20
25.56585399924075
 30
0.0
 11
59.60031753750246
 21
25.65885399924075
 31
0.0
  0
LINE
  5
8DC5
330
1F
100
AcDbEntity
  8
CONTINUOUS1
100
AcDbLine
 10
59.50731753750247
 20
25.74263069453739
 30
0.0
 11
59.60031753750246
 21
25.83563069453739
 31
0.0
  0
LINE
  5
8DC6
330
1F
100
AcDbEntity
  8
CONTINUOUS1
100
AcDbLine
 10
59.50731753750247
 20
25.91940738983403
 30
0.0
 11
59.60031753750246
 21
26.01240738983403
 31
0.0
  0
LINE
  5
8DC7
330
1F
100
AcDbEntity
  8
CONTINUOUS1
100
AcDbLine
 10
59.50731753750247
 20
26.09618408513067
 30
0.0
 11
59.60031753750246
 21
26.18918408513066
 31
0.0
  0
LINE
  5
8DC8
330
1F
100
AcDbEntity
  8
CONTINUOUS1
100
AcDbLine
 10
59.50731753750247
 20
26.2729607804273
 30
0.0
 11
59.60031753750246
 21
26.3659607804273
 31
0.0
  0
LINE
  5
8DC9
330
1F
100
AcDbEntity
  8
CONTINUOUS1
100
AcDbLine
 10
59.50731753750247
 20
26.44973747572394
 30
0.0
 11
59.60031753750246
 21
26.54273747572394
 31
0.0
  0
LINE
  5
8DCA
330
1F
100
AcDbEntity
  8
CONTINUOUS1
100
AcDbLine
 10
59.50731753750247
 20
26.62651417102058
 30
0.0
 11
59.60031753750246
 21
26.71951417102057
 31
0.0
  0
LINE
  5
8DCB
330
1F
100
AcDbEntity
  8
CONTINUOUS1
100
AcDbLine
 10
59.50731753750247
 20
26.80329086631721
 30
0.0
 11
59.60031753750246
 21
26.89629086631721
 31
0.0
  0
LINE
  5
8DCC
330
1F
100
AcDbEntity
  8
CONTINUOUS1
100
AcDbLine
 10
59.50731753750247
 20
26.98006756161385
 30
0.0
 11
59.60031753750246
 21
27.07306756161385
 31
0.0
  0
LINE
  5
8DCD
330
1F
100
AcDbEntity
  8
CONTINUOUS1
100
AcDbLine
 10
59.50731753750247
 20
27.15684425691049
 30
0.0
 11
59.56519573293626
 21
27.21472245234427
 31
0.0
  0
LINE
  5
8DCE
330
1F
100
AcDbEntity
  8
CONTINUOUS1
100
AcDbLine
 10
59.50731753750247
 20
20.79288322623155
 30
0.0
 11
59.60031753750246
 21
20.88588322623155
 31
0.0
  0
LINE
  5
8DCF
330
1F
100
AcDbEntity
  8
CONTINUOUS1
100
AcDbLine
 10
59.50731753750247
 20
20.61610653093491
 30
0.0
 11
59.60031753750246
 21
20.70910653093492
 31
0.0
  0
LINE
  5
8DD0
330
1F
100
AcDbEntity
  8
CONTINUOUS1
100
AcDbLine
 10
59.50731753750247
 20
20.43932983563828
 30
0.0
 11
59.60031753750246
 21
20.53232983563828
 31
0.0
  0
LINE
  5
8DD1
330
1F
100
AcDbEntity
  8
CONTINUOUS1
100
AcDbLine
 10
59.50731753750247
 20
20.26255314034164
 30
0.0
 11
59.60031753750246
 21
20.35555314034164
 31
0.0
  0
LINE
  5
8DD2
330
1F
100
AcDbEntity
  8
CONTINUOUS1
100
AcDbLine
 10
59.50731753750247
 20
20.08577644504501
 30
0.0
 11
59.60031753750246
 21
20.17877644504501
 31
0.0
  0
LINE
  5
8DD3
330
1F
100
AcDbEntity
  8
CONTINUOUS1
100
AcDbLine
 10
59.50731753750247
 20
19.90899974974837
 30
0.0
 11
59.60031753750246
 21
20.00199974974837
 31
0.0
  0
LINE
  5
8DD4
330
1F
100
AcDbEntity
  8
CONTINUOUS1
100
AcDbLine
 10
59.50731753750247
 20
19.73222305445173
 30
0.0
 11
59.60031753750246
 21
19.82522305445173
 31
0.0
  0
LINE
  5
8DD5
330
1F
100
AcDbEntity
  8
CONTINUOUS1
100
AcDbLine
 10
59.50731753750247
 20
19.5554463591551
 30
0.0
 11
59.60031753750246
 21
19.6484463591551
 31
0.0
  0
LINE
  5
8DD6
330
1F
100
AcDbEntity
  8
CONTINUOUS1
100
AcDbLine
 10
59.50731753750247
 20
19.37866966385846
 30
0.0
 11
59.60031753750246
 21
19.47166966385846
 31
0.0
  0
LINE
  5
8DD7
330
1F
100
AcDbEntity
  8
CONTINUOUS1
100
AcDbLine
 10
59.50731753750247
 20
19.20189296856182
 30
0.0
 11
59.60031753750246
 21
19.29489296856182
 31
0.0
  0
LINE
  5
8DD8
330
1F
100
AcDbEntity
  8
CONTINUOUS1
100
AcDbLine
 10
59.50731753750247
 20
19.02511627326519
 30
0.0
 11
59.60031753750246
 21
19.11811627326519
 31
0.0
  0
LINE
  5
8DD9
330
1F
100
AcDbEntity
  8
CONTINUOUS1
100
AcDbLine
 10
59.50731753750247
 20
18.84833957796855
 30
0.0
 11
59.60031753750246
 21
18.94133957796855
 31
0.0
  0
LINE
  5
8DDA
330
1F
100
AcDbEntity
  8
CONTINUOUS1
100
AcDbLine
 10
59.50731753750247
 20
18.67156288267191
 30
0.0
 11
59.60031753750246
 21
18.76456288267191
 31
0.0
  0
LINE
  5
8DDB
330
1F
100
AcDbEntity
  8
CONTINUOUS1
100
AcDbLine
 10
59.50731753750247
 20
18.49478618737528
 30
0.0
 11
59.60031753750246
 21
18.58778618737528
 31
0.0
  0
LINE
  5
8DDC
330
1F
100
AcDbEntity
  8
CONTINUOUS1
100
AcDbLine
 10
59.50731753750247
 20
18.31800949207864
 30
0.0
 11
59.60031753750246
 21
18.41100949207864
 31
0.0
  0
LINE
  5
8DDD
330
1F
100
AcDbEntity
  8
CONTINUOUS1
100
AcDbLine
 10
59.50731753750247
 20
18.141232796782
 30
0.0
 11
59.60031753750246
 21
18.234232796782
 31
0.0
  0
LINE
  5
8DDE
330
1F
100
AcDbEntity
  8
CONTINUOUS1
100
AcDbLine
 10
59.50731753750247
 20
17.96445610148537
 30
0.0
 11
59.60031753750246
 21
18.05745610148536
 31
0.0
  0
LINE
  5
8DDF
330
1F
100
AcDbEntity
  8
CONTINUOUS1
100
AcDbLine
 10
59.50731753750247
 20
17.78767940618873
 30
0.0
 11
59.60031753750246
 21
17.88067940618873
 31
0.0
  0
LINE
  5
8DE0
330
1F
100
AcDbEntity
  8
CONTINUOUS1
100
AcDbLine
 10
59.50731753750247
 20
17.61090271089209
 30
0.0
 11
59.60031753750246
 21
17.70390271089209
 31
0.0
  0
LINE
  5
8DE1
330
1F
100
AcDbEntity
  8
CONTINUOUS1
100
AcDbLine
 10
59.50731753750247
 20
17.43412601559545
 30
0.0
 11
59.60031753750246
 21
17.52712601559546
 31
0.0
  0
LINE
  5
8DE2
330
1F
100
AcDbEntity
  8
CONTINUOUS1
100
AcDbLine
 10
59.50731753750247
 20
17.25734932029881
 30
0.0
 11
59.60031753750246
 21
17.35034932029882
 31
0.0
  0
LINE
  5
8DE3
330
1F
100
AcDbEntity
  8
CONTINUOUS1
100
AcDbLine
 10
59.50731753750247
 20
17.08057262500218
 30
0.0
 11
59.60031753750246
 21
17.17357262500218
 31
0.0
  0
LINE
  5
8DE4
330
1F
100
AcDbEntity
  8
CONTINUOUS1
100
AcDbLine
 10
59.50731753750247
 20
16.90379592970554
 30
0.0
 11
59.60031753750246
 21
16.99679592970554
 31
0.0
  0
LINE
  5
8DE5
330
1F
100
AcDbEntity
  8
CONTINUOUS1
100
AcDbLine
 10
59.50731753750247
 20
16.72701923440891
 30
0.0
 11
59.60031753750246
 21
16.82001923440891
 31
0.0
  0
LINE
  5
8DE6
330
1F
100
AcDbEntity
  8
CONTINUOUS1
100
AcDbLine
 10
59.50731753750247
 20
16.55024253911227
 30
0.0
 11
59.60031753750246
 21
16.64324253911227
 31
0.0
  0
LINE
  5
8DE7
330
1F
100
AcDbEntity
  8
CONTINUOUS1
100
AcDbLine
 10
59.50731753750247
 20
16.37346584381563
 30
0.0
 11
59.60031753750246
 21
16.46646584381563
 31
0.0
  0
LINE
  5
8DE8
330
1F
100
AcDbEntity
  8
CONTINUOUS1
100
AcDbLine
 10
59.50731753750247
 20
16.19668914851899
 30
0.0
 11
59.60031753750246
 21
16.28968914851899
 31
0.0
  0
LINE
  5
8DE9
330
1F
100
AcDbEntity
  8
CONTINUOUS1
100
AcDbLine
 10
59.50731753750247
 20
16.01991245322236
 30
0.0
 11
59.60031753750246
 21
16.11291245322236
 31
0.0
  0
LINE
  5
8DEA
330
1F
100
AcDbEntity
  8
CONTINUOUS1
100
AcDbLine
 10
59.50731753750247
 20
15.84313575792572
 30
0.0
 11
59.60031753750246
 21
15.93613575792573
 31
0.0
  0
LINE
  5
8DEB
330
1F
100
AcDbEntity
  8
CONTINUOUS1
100
AcDbLine
 10
59.50731753750247
 20
15.66635906262908
 30
0.0
 11
59.60031753750246
 21
15.75935906262909
 31
0.0
  0
LINE
  5
8DEC
330
1F
100
AcDbEntity
  8
CONTINUOUS1
100
AcDbLine
 10
59.50731753750247
 20
15.48958236733245
 30
0.0
 11
59.60031753750246
 21
15.58258236733245
 31
0.0
  0
LINE
  5
8DED
330
1F
100
AcDbEntity
  8
CONTINUOUS1
100
AcDbLine
 10
59.50731753750247
 20
15.31280567203581
 30
0.0
 11
59.60031753750246
 21
15.40580567203581
 31
0.0
  0
LINE
  5
8DEE
330
1F
100
AcDbEntity
  8
CONTINUOUS1
100
AcDbLine
 10
59.50731753750247
 20
15.13602897673917
 30
0.0
 11
59.60031753750246
 21
15.22902897673917
 31
0.0
  0
LINE
  5
8DEF
330
1F
100
AcDbEntity
  8
CONTINUOUS1
100
AcDbLine
 10
59.50731753750247
 20
14.95925228144254
 30
0.0
 11
59.60031753750246
 21
15.05225228144254
 31
0.0
  0
LINE
  5
8DF0
330
1F
100
AcDbEntity
  8
CONTINUOUS1
100
AcDbLine
 10
59.50731753750247
 20
14.7824755861459
 30
0.0
 11
59.60031753750246
 21
14.8754755861459
 31
0.0
  0
LINE
  5
8DF1
330
1F
100
AcDbEntity
  8
CONTINUOUS1
100
AcDbLine
 10
59.56049431316969
 20
14.65887566651649
 30
0.0
 11
59.60031753750246
 21
14.69869889084926
 31
0.0
  0
LINE
  5
8DF2
330
1F
100
AcDbEntity
  8
CONTINUOUS1
100
AcDbLine
 10
48.65271143404497
 20
15.90512206354449
 30
0.0
 11
48.68021012061123
 21
15.53776825598489
 31
0.0
  0
LINE
  5
8DF3
330
1F
100
AcDbEntity
  8
CONTINUOUS1
100
AcDbLine
 10
48.35571686004065
 20
15.89221412833724
 30
0.0
 11
48.38353525485128
 21
15.53016653097647
 31
0.0
  0
LINE
  5
8DF4
330
1F
100
AcDbEntity
  8
CONTINUOUS1
100
AcDbLine
 10
48.04805961099766
 20
21.72140148123904
 30
0.0
 11
47.95505961099768
 21
21.81440148123904
 31
0.0
  0
LINE
  5
8DF5
330
1F
100
AcDbEntity
  8
CONTINUOUS1
100
AcDbLine
 10
48.04805961099766
 20
21.89817817653568
 30
0.0
 11
47.95505961099768
 21
21.99117817653568
 31
0.0
  0
LINE
  5
8DF6
330
1F
100
AcDbEntity
  8
CONTINUOUS1
100
AcDbLine
 10
48.04805961099766
 20
22.07495487183232
 30
0.0
 11
47.95505961099768
 21
22.16795487183232
 31
0.0
  0
LINE
  5
8DF7
330
1F
100
AcDbEntity
  8
CONTINUOUS1
100
AcDbLine
 10
48.04805961099766
 20
22.25173156712896
 30
0.0
 11
47.95505961099768
 21
22.34473156712895
 31
0.0
  0
LINE
  5
8DF8
330
1F
100
AcDbEntity
  8
CONTINUOUS1
100
AcDbLine
 10
48.04805961099766
 20
22.42850826242559
 30
0.0
 11
47.95505961099768
 21
22.52150826242559
 31
0.0
  0
LINE
  5
8DF9
330
1F
100
AcDbEntity
  8
CONTINUOUS1
100
AcDbLine
 10
48.04805961099766
 20
22.60528495772223
 30
0.0
 11
47.95505961099768
 21
22.69828495772223
 31
0.0
  0
LINE
  5
8DFA
330
1F
100
AcDbEntity
  8
CONTINUOUS1
100
AcDbLine
 10
48.04805961099766
 20
22.78206165301886
 30
0.0
 11
47.95505961099768
 21
22.87506165301887
 31
0.0
  0
LINE
  5
8DFB
330
1F
100
AcDbEntity
  8
CONTINUOUS1
100
AcDbLine
 10
48.04805961099766
 20
22.9588383483155
 30
0.0
 11
47.95505961099768
 21
23.0518383483155
 31
0.0
  0
LINE
  5
8DFC
330
1F
100
AcDbEntity
  8
CONTINUOUS1
100
AcDbLine
 10
48.04805961099766
 20
23.13561504361214
 30
0.0
 11
47.95505961099768
 21
23.22861504361214
 31
0.0
  0
LINE
  5
8DFD
330
1F
100
AcDbEntity
  8
CONTINUOUS1
100
AcDbLine
 10
48.04805961099766
 20
23.31239173890878
 30
0.0
 11
47.95505961099768
 21
23.40539173890877
 31
0.0
  0
LINE
  5
8DFE
330
1F
100
AcDbEntity
  8
CONTINUOUS1
100
AcDbLine
 10
48.04805961099766
 20
23.48916843420541
 30
0.0
 11
47.95505961099768
 21
23.58216843420541
 31
0.0
  0
LINE
  5
8DFF
330
1F
100
AcDbEntity
  8
CONTINUOUS1
100
AcDbLine
 10
48.04805961099766
 20
23.66594512950205
 30
0.0
 11
47.95505961099768
 21
23.75894512950205
 31
0.0
  0
LINE
  5
8E00
330
1F
100
AcDbEntity
  8
CONTINUOUS1
100
AcDbLine
 10
48.04805961099766
 20
23.84272182479869
 30
0.0
 11
47.95505961099768
 21
23.93572182479869
 31
0.0
  0
LINE
  5
8E01
330
1F
100
AcDbEntity
  8
CONTINUOUS1
100
AcDbLine
 10
48.04805961099766
 20
24.01949852009533
 30
0.0
 11
47.95505961099768
 21
24.11249852009532
 31
0.0
  0
LINE
  5
8E02
330
1F
100
AcDbEntity
  8
CONTINUOUS1
100
AcDbLine
 10
48.04805961099766
 20
24.19627521539196
 30
0.0
 11
47.95505961099768
 21
24.28927521539196
 31
0.0
  0
LINE
  5
8E03
330
1F
100
AcDbEntity
  8
CONTINUOUS1
100
AcDbLine
 10
48.04805961099766
 20
24.3730519106886
 30
0.0
 11
47.95505961099768
 21
24.4660519106886
 31
0.0
  0
LINE
  5
8E04
330
1F
100
AcDbEntity
  8
CONTINUOUS1
100
AcDbLine
 10
48.04805961099766
 20
24.54982860598523
 30
0.0
 11
47.95505961099768
 21
24.64282860598524
 31
0.0
  0
LINE
  5
8E05
330
1F
100
AcDbEntity
  8
CONTINUOUS1
100
AcDbLine
 10
48.04805961099766
 20
24.72660530128187
 30
0.0
 11
47.95505961099768
 21
24.81960530128187
 31
0.0
  0
LINE
  5
8E06
330
1F
100
AcDbEntity
  8
CONTINUOUS1
100
AcDbLine
 10
48.04805961099766
 20
24.90338199657851
 30
0.0
 11
47.95505961099768
 21
24.99638199657851
 31
0.0
  0
LINE
  5
8E07
330
1F
100
AcDbEntity
  8
CONTINUOUS1
100
AcDbLine
 10
48.04805961099766
 20
25.08015869187515
 30
0.0
 11
47.95505961099768
 21
25.17315869187514
 31
0.0
  0
LINE
  5
8E08
330
1F
100
AcDbEntity
  8
CONTINUOUS1
100
AcDbLine
 10
48.04805961099766
 20
25.25693538717178
 30
0.0
 11
47.95505961099768
 21
25.34993538717178
 31
0.0
  0
LINE
  5
8E09
330
1F
100
AcDbEntity
  8
CONTINUOUS1
100
AcDbLine
 10
48.04805961099766
 20
25.43371208246842
 30
0.0
 11
47.95505961099768
 21
25.52671208246842
 31
0.0
  0
LINE
  5
8E0A
330
1F
100
AcDbEntity
  8
CONTINUOUS1
100
AcDbLine
 10
48.04805961099766
 20
25.61048877776506
 30
0.0
 11
47.95505961099768
 21
25.70348877776505
 31
0.0
  0
LINE
  5
8E0B
330
1F
100
AcDbEntity
  8
CONTINUOUS1
100
AcDbLine
 10
48.04805961099766
 20
25.78726547306169
 30
0.0
 11
47.95505961099768
 21
25.88026547306169
 31
0.0
  0
LINE
  5
8E0C
330
1F
100
AcDbEntity
  8
CONTINUOUS1
100
AcDbLine
 10
48.04805961099766
 20
25.96404216835833
 30
0.0
 11
47.95505961099768
 21
26.05704216835833
 31
0.0
  0
LINE
  5
8E0D
330
1F
100
AcDbEntity
  8
CONTINUOUS1
100
AcDbLine
 10
48.04805961099766
 20
26.14081886365497
 30
0.0
 11
47.95505961099768
 21
26.23381886365497
 31
0.0
  0
LINE
  5
8E0E
330
1F
100
AcDbEntity
  8
CONTINUOUS1
100
AcDbLine
 10
48.04805961099766
 20
26.3175955589516
 30
0.0
 11
47.95505961099768
 21
26.41059555895161
 31
0.0
  0
LINE
  5
8E0F
330
1F
100
AcDbEntity
  8
CONTINUOUS1
100
AcDbLine
 10
48.04805961099766
 20
26.49437225424824
 30
0.0
 11
47.95505961099768
 21
26.58737225424824
 31
0.0
  0
LINE
  5
8E10
330
1F
100
AcDbEntity
  8
CONTINUOUS1
100
AcDbLine
 10
48.04805961099766
 20
26.67114894954488
 30
0.0
 11
47.95505961099768
 21
26.76414894954488
 31
0.0
  0
LINE
  5
8E11
330
1F
100
AcDbEntity
  8
CONTINUOUS1
100
AcDbLine
 10
48.04805961099766
 20
26.84792564484152
 30
0.0
 11
47.95505961099768
 21
26.94092564484151
 31
0.0
  0
LINE
  5
8E12
330
1F
100
AcDbEntity
  8
CONTINUOUS1
100
AcDbLine
 10
48.04805961099766
 20
27.02470234013815
 30
0.0
 11
47.95505961099768
 21
27.11770234013815
 31
0.0
  0
LINE
  5
8E13
330
1F
100
AcDbEntity
  8
CONTINUOUS1
100
AcDbLine
 10
48.04805961099766
 20
27.20147903543479
 30
0.0
 11
48.01931290672444
 21
27.23022573970802
 31
0.0
  0
LINE
  5
8E14
330
1F
100
AcDbEntity
  8
CONTINUOUS1
100
AcDbLine
 10
48.04805961099766
 20
21.54462478594241
 30
0.0
 11
47.95505961099768
 21
21.63762478594241
 31
0.0
  0
LINE
  5
8E15
330
1F
100
AcDbEntity
  8
CONTINUOUS1
100
AcDbLine
 10
48.04805961099766
 20
21.36784809064577
 30
0.0
 11
47.95505961099768
 21
21.46084809064577
 31
0.0
  0
LINE
  5
8E16
330
1F
100
AcDbEntity
  8
CONTINUOUS1
100
AcDbLine
 10
48.04805961099766
 20
21.19107139534913
 30
0.0
 11
47.95505961099768
 21
21.28407139534914
 31
0.0
  0
LINE
  5
8E17
330
1F
100
AcDbEntity
  8
CONTINUOUS1
100
AcDbLine
 10
48.04805961099766
 20
21.01429470005249
 30
0.0
 11
47.95505961099768
 21
21.1072947000525
 31
0.0
  0
LINE
  5
8E18
330
1F
100
AcDbEntity
  8
CONTINUOUS1
100
AcDbLine
 10
48.04805961099766
 20
20.83751800475586
 30
0.0
 11
47.95505961099768
 21
20.93051800475586
 31
0.0
  0
LINE
  5
8E19
330
1F
100
AcDbEntity
  8
CONTINUOUS1
100
AcDbLine
 10
48.04805961099766
 20
20.66074130945922
 30
0.0
 11
47.95505961099768
 21
20.75374130945922
 31
0.0
  0
LINE
  5
8E1A
330
1F
100
AcDbEntity
  8
CONTINUOUS1
100
AcDbLine
 10
48.04805961099766
 20
20.48396461416259
 30
0.0
 11
47.95505961099768
 21
20.57696461416258
 31
0.0
  0
LINE
  5
8E1B
330
1F
100
AcDbEntity
  8
CONTINUOUS1
100
AcDbLine
 10
48.04805961099766
 20
20.30718791886595
 30
0.0
 11
47.95505961099768
 21
20.40018791886595
 31
0.0
  0
LINE
  5
8E1C
330
1F
100
AcDbEntity
  8
CONTINUOUS1
100
AcDbLine
 10
48.04805961099766
 20
20.13041122356931
 30
0.0
 11
47.95505961099768
 21
20.22341122356932
 31
0.0
  0
LINE
  5
8E1D
330
1F
100
AcDbEntity
  8
CONTINUOUS1
100
AcDbLine
 10
48.04805961099766
 20
19.95363452827267
 30
0.0
 11
47.95505961099768
 21
20.04663452827267
 31
0.0
  0
LINE
  5
8E1E
330
1F
100
AcDbEntity
  8
CONTINUOUS1
100
AcDbLine
 10
48.04805961099766
 20
19.77685783297604
 30
0.0
 11
47.95505961099768
 21
19.86985783297604
 31
0.0
  0
LINE
  5
8E1F
330
1F
100
AcDbEntity
  8
CONTINUOUS1
100
AcDbLine
 10
48.04805961099766
 20
19.6000811376794
 30
0.0
 11
47.95505961099768
 21
19.6930811376794
 31
0.0
  0
LINE
  5
8E20
330
1F
100
AcDbEntity
  8
CONTINUOUS1
100
AcDbLine
 10
48.04805961099766
 20
19.42330444238276
 30
0.0
 11
47.95505961099768
 21
19.51630444238277
 31
0.0
  0
LINE
  5
8E21
330
1F
100
AcDbEntity
  8
CONTINUOUS1
100
AcDbLine
 10
48.04805961099766
 20
19.24652774708613
 30
0.0
 11
47.95505961099768
 21
19.33952774708613
 31
0.0
  0
LINE
  5
8E22
330
1F
100
AcDbEntity
  8
CONTINUOUS1
100
AcDbLine
 10
48.04805961099766
 20
19.0697510517895
 30
0.0
 11
47.95505961099768
 21
19.16275105178949
 31
0.0
  0
LINE
  5
8E23
330
1F
100
AcDbEntity
  8
CONTINUOUS1
100
AcDbLine
 10
48.04805961099766
 20
18.89297435649286
 30
0.0
 11
47.95505961099768
 21
18.98597435649285
 31
0.0
  0
LINE
  5
8E24
330
1F
100
AcDbEntity
  8
CONTINUOUS1
100
AcDbLine
 10
48.04805961099766
 20
18.71619766119622
 30
0.0
 11
47.95505961099768
 21
18.80919766119621
 31
0.0
  0
LINE
  5
8E25
330
1F
100
AcDbEntity
  8
CONTINUOUS1
100
AcDbLine
 10
48.04805961099766
 20
18.53942096589958
 30
0.0
 11
47.95505961099768
 21
18.63242096589958
 31
0.0
  0
LINE
  5
8E26
330
1F
100
AcDbEntity
  8
CONTINUOUS1
100
AcDbLine
 10
48.04805961099766
 20
18.36264427060294
 30
0.0
 11
47.95505961099768
 21
18.45564427060295
 31
0.0
  0
LINE
  5
8E27
330
1F
100
AcDbEntity
  8
CONTINUOUS1
100
AcDbLine
 10
48.04805961099766
 20
18.18586757530631
 30
0.0
 11
47.95505961099768
 21
18.27886757530631
 31
0.0
  0
LINE
  5
8E28
330
1F
100
AcDbEntity
  8
CONTINUOUS1
100
AcDbLine
 10
48.04805961099766
 20
18.00909088000967
 30
0.0
 11
47.95505961099768
 21
18.10209088000967
 31
0.0
  0
LINE
  5
8E29
330
1F
100
AcDbEntity
  8
CONTINUOUS1
100
AcDbLine
 10
48.04805961099766
 20
17.83231418471303
 30
0.0
 11
47.95505961099768
 21
17.92531418471303
 31
0.0
  0
LINE
  5
8E2A
330
1F
100
AcDbEntity
  8
CONTINUOUS1
100
AcDbLine
 10
48.04805961099766
 20
17.65553748941639
 30
0.0
 11
47.95505961099768
 21
17.7485374894164
 31
0.0
  0
LINE
  5
8E2B
330
1F
100
AcDbEntity
  8
CONTINUOUS1
100
AcDbLine
 10
48.04805961099766
 20
17.47876079411976
 30
0.0
 11
47.95505961099768
 21
17.57176079411976
 31
0.0
  0
LINE
  5
8E2C
330
1F
100
AcDbEntity
  8
CONTINUOUS1
100
AcDbLine
 10
48.04805961099766
 20
17.30198409882313
 30
0.0
 11
47.95505961099768
 21
17.39498409882312
 31
0.0
  0
LINE
  5
8E2D
330
1F
100
AcDbEntity
  8
CONTINUOUS1
100
AcDbLine
 10
48.04805961099766
 20
17.12520740352649
 30
0.0
 11
47.95505961099768
 21
17.21820740352648
 31
0.0
  0
LINE
  5
8E2E
330
1F
100
AcDbEntity
  8
CONTINUOUS1
100
AcDbLine
 10
48.04805961099766
 20
16.94843070822985
 30
0.0
 11
47.95505961099768
 21
17.04143070822984
 31
0.0
  0
LINE
  5
8E2F
330
1F
100
AcDbEntity
  8
CONTINUOUS1
100
AcDbLine
 10
48.04805961099766
 20
16.77165401293321
 30
0.0
 11
47.95505961099768
 21
16.86465401293322
 31
0.0
  0
LINE
  5
8E30
330
1F
100
AcDbEntity
  8
CONTINUOUS1
100
AcDbLine
 10
48.00505973910604
 20
16.6378771895282
 30
0.0
 11
47.95505961099768
 21
16.68787731763658
 31
0.0
  0
LINE
  5
8E31
330
1F
100
AcDbEntity
  8
CONTINUOUS1
100
AcDbLine
 10
48.04805961099766
 20
21.78390148123904
 30
0.0
 11
47.95505961099768
 21
21.87690148123905
 31
0.0
  0
LINE
  5
8E32
330
1F
100
AcDbEntity
  8
CONTINUOUS1
100
AcDbLine
 10
48.04805961099766
 20
21.96067817653568
 30
0.0
 11
47.95505961099768
 21
22.05367817653568
 31
0.0
  0
LINE
  5
8E33
330
1F
100
AcDbEntity
  8
CONTINUOUS1
100
AcDbLine
 10
48.04805961099766
 20
22.13745487183232
 30
0.0
 11
47.95505961099768
 21
22.23045487183232
 31
0.0
  0
LINE
  5
8E34
330
1F
100
AcDbEntity
  8
CONTINUOUS1
100
AcDbLine
 10
48.04805961099766
 20
22.31423156712895
 30
0.0
 11
47.95505961099768
 21
22.40723156712895
 31
0.0
  0
LINE
  5
8E35
330
1F
100
AcDbEntity
  8
CONTINUOUS1
100
AcDbLine
 10
48.04805961099766
 20
22.4910082624256
 30
0.0
 11
47.95505961099768
 21
22.58400826242559
 31
0.0
  0
LINE
  5
8E36
330
1F
100
AcDbEntity
  8
CONTINUOUS1
100
AcDbLine
 10
48.04805961099766
 20
22.66778495772223
 30
0.0
 11
47.95505961099768
 21
22.76078495772223
 31
0.0
  0
LINE
  5
8E37
330
1F
100
AcDbEntity
  8
CONTINUOUS1
100
AcDbLine
 10
48.04805961099766
 20
22.84456165301886
 30
0.0
 11
47.95505961099768
 21
22.93756165301887
 31
0.0
  0
LINE
  5
8E38
330
1F
100
AcDbEntity
  8
CONTINUOUS1
100
AcDbLine
 10
48.04805961099766
 20
23.0213383483155
 30
0.0
 11
47.95505961099768
 21
23.11433834831551
 31
0.0
  0
LINE
  5
8E39
330
1F
100
AcDbEntity
  8
CONTINUOUS1
100
AcDbLine
 10
48.04805961099766
 20
23.19811504361214
 30
0.0
 11
47.95505961099768
 21
23.29111504361214
 31
0.0
  0
LINE
  5
8E3A
330
1F
100
AcDbEntity
  8
CONTINUOUS1
100
AcDbLine
 10
48.04805961099766
 20
23.37489173890878
 30
0.0
 11
47.95505961099768
 21
23.46789173890877
 31
0.0
  0
LINE
  5
8E3B
330
1F
100
AcDbEntity
  8
CONTINUOUS1
100
AcDbLine
 10
48.04805961099766
 20
23.55166843420541
 30
0.0
 11
47.95505961099768
 21
23.64466843420542
 31
0.0
  0
LINE
  5
8E3C
330
1F
100
AcDbEntity
  8
CONTINUOUS1
100
AcDbLine
 10
48.04805961099766
 20
23.72844512950205
 30
0.0
 11
47.95505961099768
 21
23.82144512950205
 31
0.0
  0
LINE
  5
8E3D
330
1F
100
AcDbEntity
  8
CONTINUOUS1
100
AcDbLine
 10
48.04805961099766
 20
23.90522182479869
 30
0.0
 11
47.95505961099768
 21
23.99822182479869
 31
0.0
  0
LINE
  5
8E3E
330
1F
100
AcDbEntity
  8
CONTINUOUS1
100
AcDbLine
 10
48.04805961099766
 20
24.08199852009532
 30
0.0
 11
47.95505961099768
 21
24.17499852009532
 31
0.0
  0
LINE
  5
8E3F
330
1F
100
AcDbEntity
  8
CONTINUOUS1
100
AcDbLine
 10
48.04805961099766
 20
24.25877521539197
 30
0.0
 11
47.95505961099768
 21
24.35177521539196
 31
0.0
  0
LINE
  5
8E40
330
1F
100
AcDbEntity
  8
CONTINUOUS1
100
AcDbLine
 10
48.04805961099766
 20
24.4355519106886
 30
0.0
 11
47.95505961099768
 21
24.5285519106886
 31
0.0
  0
LINE
  5
8E41
330
1F
100
AcDbEntity
  8
CONTINUOUS1
100
AcDbLine
 10
48.04805961099766
 20
24.61232860598523
 30
0.0
 11
47.95505961099768
 21
24.70532860598524
 31
0.0
  0
LINE
  5
8E42
330
1F
100
AcDbEntity
  8
CONTINUOUS1
100
AcDbLine
 10
48.04805961099766
 20
24.78910530128187
 30
0.0
 11
47.95505961099768
 21
24.88210530128188
 31
0.0
  0
LINE
  5
8E43
330
1F
100
AcDbEntity
  8
CONTINUOUS1
100
AcDbLine
 10
48.04805961099766
 20
24.96588199657851
 30
0.0
 11
47.95505961099768
 21
25.05888199657851
 31
0.0
  0
LINE
  5
8E44
330
1F
100
AcDbEntity
  8
CONTINUOUS1
100
AcDbLine
 10
48.04805961099766
 20
25.14265869187515
 30
0.0
 11
47.95505961099768
 21
25.23565869187514
 31
0.0
  0
LINE
  5
8E45
330
1F
100
AcDbEntity
  8
CONTINUOUS1
100
AcDbLine
 10
48.04805961099766
 20
25.31943538717178
 30
0.0
 11
47.95505961099768
 21
25.41243538717179
 31
0.0
  0
LINE
  5
8E46
330
1F
100
AcDbEntity
  8
CONTINUOUS1
100
AcDbLine
 10
48.04805961099766
 20
25.49621208246842
 30
0.0
 11
47.95505961099768
 21
25.58921208246842
 31
0.0
  0
LINE
  5
8E47
330
1F
100
AcDbEntity
  8
CONTINUOUS1
100
AcDbLine
 10
48.04805961099766
 20
25.67298877776506
 30
0.0
 11
47.95505961099768
 21
25.76598877776506
 31
0.0
  0
LINE
  5
8E48
330
1F
100
AcDbEntity
  8
CONTINUOUS1
100
AcDbLine
 10
48.04805961099766
 20
25.84976547306169
 30
0.0
 11
47.95505961099768
 21
25.94276547306169
 31
0.0
  0
LINE
  5
8E49
330
1F
100
AcDbEntity
  8
CONTINUOUS1
100
AcDbLine
 10
48.04805961099766
 20
26.02654216835833
 30
0.0
 11
47.95505961099768
 21
26.11954216835833
 31
0.0
  0
LINE
  5
8E4A
330
1F
100
AcDbEntity
  8
CONTINUOUS1
100
AcDbLine
 10
48.04805961099766
 20
26.20331886365496
 30
0.0
 11
47.95505961099768
 21
26.29631886365497
 31
0.0
  0
LINE
  5
8E4B
330
1F
100
AcDbEntity
  8
CONTINUOUS1
100
AcDbLine
 10
48.04805961099766
 20
26.3800955589516
 30
0.0
 11
47.95505961099768
 21
26.4730955589516
 31
0.0
  0
LINE
  5
8E4C
330
1F
100
AcDbEntity
  8
CONTINUOUS1
100
AcDbLine
 10
48.04805961099766
 20
26.55687225424824
 30
0.0
 11
47.95505961099768
 21
26.64987225424825
 31
0.0
  0
LINE
  5
8E4D
330
1F
100
AcDbEntity
  8
CONTINUOUS1
100
AcDbLine
 10
48.04805961099766
 20
26.73364894954488
 30
0.0
 11
47.95505961099768
 21
26.82664894954488
 31
0.0
  0
LINE
  5
8E4E
330
1F
100
AcDbEntity
  8
CONTINUOUS1
100
AcDbLine
 10
48.04805961099766
 20
26.91042564484151
 30
0.0
 11
47.95505961099768
 21
27.00342564484151
 31
0.0
  0
LINE
  5
8E4F
330
1F
100
AcDbEntity
  8
CONTINUOUS1
100
AcDbLine
 10
48.04805961099766
 20
27.08720234013815
 30
0.0
 11
47.95505961099768
 21
27.18020234013815
 31
0.0
  0
LINE
  5
8E50
330
1F
100
AcDbEntity
  8
CONTINUOUS1
100
AcDbLine
 10
48.04805961099766
 20
21.60712478594241
 30
0.0
 11
47.95505961099768
 21
21.7001247859424
 31
0.0
  0
LINE
  5
8E51
330
1F
100
AcDbEntity
  8
CONTINUOUS1
100
AcDbLine
 10
48.04805961099766
 20
21.43034809064577
 30
0.0
 11
47.95505961099768
 21
21.52334809064577
 31
0.0
  0
LINE
  5
8E52
330
1F
100
AcDbEntity
  8
CONTINUOUS1
100
AcDbLine
 10
48.04805961099766
 20
21.25357139534914
 30
0.0
 11
47.95505961099768
 21
21.34657139534914
 31
0.0
  0
LINE
  5
8E53
330
1F
100
AcDbEntity
  8
CONTINUOUS1
100
AcDbLine
 10
48.04805961099766
 20
21.07679470005249
 30
0.0
 11
47.95505961099768
 21
21.1697947000525
 31
0.0
  0
LINE
  5
8E54
330
1F
100
AcDbEntity
  8
CONTINUOUS1
100
AcDbLine
 10
48.04805961099766
 20
20.90001800475586
 30
0.0
 11
47.95505961099768
 21
20.99301800475586
 31
0.0
  0
LINE
  5
8E55
330
1F
100
AcDbEntity
  8
CONTINUOUS1
100
AcDbLine
 10
48.04805961099766
 20
20.72324130945923
 30
0.0
 11
47.95505961099768
 21
20.81624130945922
 31
0.0
  0
LINE
  5
8E56
330
1F
100
AcDbEntity
  8
CONTINUOUS1
100
AcDbLine
 10
48.04805961099766
 20
20.54646461416259
 30
0.0
 11
47.95505961099768
 21
20.63946461416259
 31
0.0
  0
LINE
  5
8E57
330
1F
100
AcDbEntity
  8
CONTINUOUS1
100
AcDbLine
 10
48.04805961099766
 20
20.36968791886595
 30
0.0
 11
47.95505961099768
 21
20.46268791886595
 31
0.0
  0
LINE
  5
8E58
330
1F
100
AcDbEntity
  8
CONTINUOUS1
100
AcDbLine
 10
48.04805961099766
 20
20.19291122356931
 30
0.0
 11
47.95505961099768
 21
20.28591122356931
 31
0.0
  0
LINE
  5
8E59
330
1F
100
AcDbEntity
  8
CONTINUOUS1
100
AcDbLine
 10
48.04805961099766
 20
20.01613452827267
 30
0.0
 11
47.95505961099768
 21
20.10913452827268
 31
0.0
  0
LINE
  5
8E5A
330
1F
100
AcDbEntity
  8
CONTINUOUS1
100
AcDbLine
 10
48.04805961099766
 20
19.83935783297604
 30
0.0
 11
47.95505961099768
 21
19.93235783297604
 31
0.0
  0
LINE
  5
8E5B
330
1F
100
AcDbEntity
  8
CONTINUOUS1
100
AcDbLine
 10
48.04805961099766
 20
19.6625811376794
 30
0.0
 11
47.95505961099768
 21
19.7555811376794
 31
0.0
  0
LINE
  5
8E5C
330
1F
100
AcDbEntity
  8
CONTINUOUS1
100
AcDbLine
 10
48.04805961099766
 20
19.48580444238277
 30
0.0
 11
47.95505961099768
 21
19.57880444238277
 31
0.0
  0
LINE
  5
8E5D
330
1F
100
AcDbEntity
  8
CONTINUOUS1
100
AcDbLine
 10
48.04805961099766
 20
19.30902774708613
 30
0.0
 11
47.95505961099768
 21
19.40202774708613
 31
0.0
  0
LINE
  5
8E5E
330
1F
100
AcDbEntity
  8
CONTINUOUS1
100
AcDbLine
 10
48.04805961099766
 20
19.13225105178949
 30
0.0
 11
47.95505961099768
 21
19.22525105178949
 31
0.0
  0
LINE
  5
8E5F
330
1F
100
AcDbEntity
  8
CONTINUOUS1
100
AcDbLine
 10
48.04805961099766
 20
18.95547435649286
 30
0.0
 11
47.95505961099768
 21
19.04847435649285
 31
0.0
  0
LINE
  5
8E60
330
1F
100
AcDbEntity
  8
CONTINUOUS1
100
AcDbLine
 10
48.04805961099766
 20
18.77869766119622
 30
0.0
 11
47.95505961099768
 21
18.87169766119622
 31
0.0
  0
LINE
  5
8E61
330
1F
100
AcDbEntity
  8
CONTINUOUS1
100
AcDbLine
 10
48.04805961099766
 20
18.60192096589958
 30
0.0
 11
47.95505961099768
 21
18.69492096589958
 31
0.0
  0
LINE
  5
8E62
330
1F
100
AcDbEntity
  8
CONTINUOUS1
100
AcDbLine
 10
48.04805961099766
 20
18.42514427060294
 30
0.0
 11
47.95505961099768
 21
18.51814427060294
 31
0.0
  0
LINE
  5
8E63
330
1F
100
AcDbEntity
  8
CONTINUOUS1
100
AcDbLine
 10
48.04805961099766
 20
18.24836757530631
 30
0.0
 11
47.95505961099768
 21
18.34136757530631
 31
0.0
  0
LINE
  5
8E64
330
1F
100
AcDbEntity
  8
CONTINUOUS1
100
AcDbLine
 10
48.04805961099766
 20
18.07159088000967
 30
0.0
 11
47.95505961099768
 21
18.16459088000967
 31
0.0
  0
LINE
  5
8E65
330
1F
100
AcDbEntity
  8
CONTINUOUS1
100
AcDbLine
 10
48.04805961099766
 20
17.89481418471303
 30
0.0
 11
47.95505961099768
 21
17.98781418471303
 31
0.0
  0
LINE
  5
8E66
330
1F
100
AcDbEntity
  8
CONTINUOUS1
100
AcDbLine
 10
48.04805961099766
 20
17.7180374894164
 30
0.0
 11
47.95505961099768
 21
17.8110374894164
 31
0.0
  0
LINE
  5
8E67
330
1F
100
AcDbEntity
  8
CONTINUOUS1
100
AcDbLine
 10
48.04805961099766
 20
17.54126079411976
 30
0.0
 11
47.95505961099768
 21
17.63426079411976
 31
0.0
  0
LINE
  5
8E68
330
1F
100
AcDbEntity
  8
CONTINUOUS1
100
AcDbLine
 10
48.04805961099766
 20
17.36448409882313
 30
0.0
 11
47.95505961099768
 21
17.45748409882312
 31
0.0
  0
LINE
  5
8E69
330
1F
100
AcDbEntity
  8
CONTINUOUS1
100
AcDbLine
 10
48.04805961099766
 20
17.18770740352649
 30
0.0
 11
47.95505961099768
 21
17.28070740352649
 31
0.0
  0
LINE
  5
8E6A
330
1F
100
AcDbEntity
  8
CONTINUOUS1
100
AcDbLine
 10
48.04805961099766
 20
17.01093070822985
 30
0.0
 11
47.95505961099768
 21
17.10393070822985
 31
0.0
  0
LINE
  5
8E6B
330
1F
100
AcDbEntity
  8
CONTINUOUS1
100
AcDbLine
 10
48.04805961099766
 20
16.83415401293321
 30
0.0
 11
47.95505961099768
 21
16.92715401293321
 31
0.0
  0
LINE
  5
8E6C
330
1F
100
AcDbEntity
  8
CONTINUOUS1
100
AcDbLine
 10
48.04805961099766
 20
16.65737731763657
 30
0.0
 11
47.95505961099768
 21
16.75037731763658
 31
0.0
  0
LINE
  5
8E6D
330
1F
100
AcDbEntity
  8
CONTINUOUS1
100
AcDbLine
 10
48.04805961099766
 20
16.637304334843
 30
0.0
 11
48.03463982853853
 21
16.64876043519918
 31
0.0
  0
LINE
  5
8E6E
330
1F
100
AcDbEntity
  8
CONTINUOUS1
100
AcDbLine
 10
48.03463982853853
 20
16.64876043519918
 30
0.0
 11
48.0244895821762
 21
16.65413333858012
 31
0.0
  0
LINE
  5
8E6F
330
1F
100
AcDbEntity
  8
CONTINUOUS1
100
AcDbLine
 10
48.0244895821762
 20
16.65413333858012
 30
0.0
 11
48.01706985205969
 21
16.65469480074404
 31
0.0
  0
LINE
  5
8E70
330
1F
100
AcDbEntity
  8
CONTINUOUS1
100
AcDbLine
 10
48.01706985205969
 20
16.65469480074404
 30
0.0
 11
48.01184161833799
 21
16.65171657744918
 31
0.0
  0
LINE
  5
8E71
330
1F
100
AcDbEntity
  8
CONTINUOUS1
100
AcDbLine
 10
48.01184161833799
 20
16.65171657744918
 30
0.0
 11
48.00826586116013
 21
16.64647042445376
 31
0.0
  0
LINE
  5
8E72
330
1F
100
AcDbEntity
  8
CONTINUOUS1
100
AcDbLine
 10
48.00826586116013
 20
16.64647042445376
 30
0.0
 11
48.00580356067509
 21
16.64022809751601
 31
0.0
  0
LINE
  5
8E73
330
1F
100
AcDbEntity
  8
CONTINUOUS1
100
AcDbLine
 10
48.00580356067509
 20
16.64022809751601
 30
0.0
 11
48.00391569703189
 21
16.63426135239413
 31
0.0
  0
LINE
  5
8E74
330
1F
100
AcDbEntity
  8
CONTINUOUS1
100
AcDbLine
 10
48.00391569703189
 20
16.63426135239413
 30
0.0
 11
48.00206325037954
 21
16.62984194484637
 31
0.0
  0
LINE
  5
8E75
330
1F
100
AcDbEntity
  8
CONTINUOUS1
100
AcDbLine
 10
48.00206325037954
 20
16.62984194484637
 30
0.0
 11
47.99976818388322
 21
16.62791839392532
 31
0.0
  0
LINE
  5
8E76
330
1F
100
AcDbEntity
  8
CONTINUOUS1
100
AcDbLine
 10
47.99976818388322
 20
16.62791839392532
 30
0.0
 11
47.99679639277285
 21
16.62814627186112
 31
0.0
  0
LINE
  5
8E77
330
1F
100
AcDbEntity
  8
CONTINUOUS1
100
AcDbLine
 10
47.99679639277285
 20
16.62814627186112
 30
0.0
 11
47.99297475529455
 21
16.62985791417829
 31
0.0
  0
LINE
  5
8E78
330
1F
100
AcDbEntity
  8
CONTINUOUS1
100
AcDbLine
 10
47.99297475529455
 20
16.62985791417829
 30
0.0
 11
47.98813014969441
 21
16.63238565640137
 31
0.0
  0
LINE
  5
8E79
330
1F
100
AcDbEntity
  8
CONTINUOUS1
100
AcDbLine
 10
47.98813014969441
 20
16.63238565640137
 30
0.0
 11
47.98208945421855
 21
16.63506183405486
 31
0.0
  0
LINE
  5
8E7A
330
1F
100
AcDbEntity
  8
CONTINUOUS1
100
AcDbLine
 10
47.98208945421855
 20
16.63506183405486
 30
0.0
 11
47.97467954711307
 21
16.63721878266327
 31
0.0
  0
LINE
  5
8E7B
330
1F
100
AcDbEntity
  8
CONTINUOUS1
100
AcDbLine
 10
47.97467954711307
 20
16.63721878266327
 30
0.0
 11
47.96572730662407
 21
16.63818883775115
 31
0.0
  0
LINE
  5
8E7C
330
1F
100
AcDbEntity
  8
CONTINUOUS1
100
AcDbLine
 10
47.96572730662407
 20
16.63818883775115
 30
0.0
 11
47.95505961099766
 21
16.637304334843
 31
0.0
  0
LINE
  5
8E7D
330
1F
100
AcDbEntity
  8
CONTINUOUS1
100
AcDbLine
 10
48.04805961099766
 20
27.21572129119679
 30
0.0
 11
48.03445380612467
 21
27.22852209121101
 31
0.0
  0
LINE
  5
8E7E
330
1F
100
AcDbEntity
  8
CONTINUOUS1
100
AcDbLine
 10
48.03445380612467
 20
27.22852209121101
 30
0.0
 11
48.02391142434728
 21
27.23191105459031
 31
0.0
  0
LINE
  5
8E7F
330
1F
100
AcDbEntity
  8
CONTINUOUS1
100
AcDbLine
 10
48.02391142434728
 20
27.23191105459031
 30
0.0
 11
48.0151837262424
 21
27.22871243261892
 31
0.0
  0
LINE
  5
8E80
330
1F
100
AcDbEntity
  8
CONTINUOUS1
100
AcDbLine
 10
48.0151837262424
 20
27.22871243261892
 30
0.0
 11
48.00702197238695
 21
27.22175047658107
 31
0.0
  0
LINE
  5
8E81
330
1F
100
AcDbEntity
  8
CONTINUOUS1
100
AcDbLine
 10
48.00702197238695
 20
27.22175047658107
 30
0.0
 11
47.99817742335784
 21
27.21384943776101
 31
0.0
  0
LINE
  5
8E82
330
1F
100
AcDbEntity
  8
CONTINUOUS1
100
AcDbLine
 10
47.99817742335784
 20
27.21384943776101
 30
0.0
 11
47.98740133973198
 21
27.20783356744297
 31
0.0
  0
LINE
  5
8E83
330
1F
100
AcDbEntity
  8
CONTINUOUS1
100
AcDbLine
 10
47.98740133973198
 20
27.20783356744297
 30
0.0
 11
47.97344498208628
 21
27.2065271169112
 31
0.0
  0
LINE
  5
8E84
330
1F
100
AcDbEntity
  8
CONTINUOUS1
100
AcDbLine
 10
47.97344498208628
 20
27.2065271169112
 30
0.0
 11
47.95505961099766
 21
27.2127543374499
 31
0.0
  0
LINE
  5
8E85
330
1F
100
AcDbEntity
  8
CONTINUOUS2
100
AcDbLine
 10
38.98384527300008
 20
26.28412989509898
 30
0.0
 11
38.98384527300008
 21
17.15912989509898
 31
0.0
  0
LINE
  5
8E86
330
1F
100
AcDbEntity
  8
CONTINUOUS2
100
AcDbLine
 10
38.98384527300008
 20
17.15912989509898
 30
0.0
 11
37.54634527300008
 21
17.15912989509898
 31
0.0
  0
ARC
  5
8E87
330
1F
100
AcDbEntity
  8
CONTINUOUS1
100
AcDbCircle
 10
38.26509527300007
 20
21.10412928211498
 30
0.0
 40
0.25
100
AcDbArc
 50
180.0
 51
0.0
  0
CIRCLE
  5
8E88
330
1F
100
AcDbEntity
  8
CONTINUOUS1
100
AcDbCircle
 10
38.26509527300012
 20
19.85412928211498
 30
0.0
 40
0.109375
  0
LINE
  5
8E89
330
1F
100
AcDbEntity
  8
CONTINUOUS1
100
AcDbLine
 10
38.51509527300008
 20
22.10412928211498
 30
0.0
 11
38.51509527300008
 21
21.10412928211498
 31
0.0
  0
LINE
  5
8E8A
330
1F
100
AcDbEntity
  8
CONTINUOUS1
100
AcDbLine
 10
38.01509527300007
 20
22.10412928211498
 30
0.0
 11
38.01509527300007
 21
21.10412928211498
 31
0.0
  0
ARC
  5
8E8B
330
1F
100
AcDbEntity
  8
CONTINUOUS1
100
AcDbCircle
 10
38.26509527300007
 20
22.10412928211498
 30
0.0
 40
0.25
100
AcDbArc
 50
0.0
 51
180.0
  0
LINE
  5
8E8C
330
1F
100
AcDbEntity
  8
CONTINUOUS1
100
AcDbLine
 10
38.01509527300007
 20
23.97912928211498
 30
0.0
 11
38.01509527300007
 21
22.97912928211498
 31
0.0
  0
LINE
  5
8E8D
330
1F
100
AcDbEntity
  8
CONTINUOUS1
100
AcDbLine
 10
38.51509527300008
 20
23.97912928211498
 30
0.0
 11
38.51509527300008
 21
22.97912928211498
 31
0.0
  0
ARC
  5
8E8E
330
1F
100
AcDbEntity
  8
CONTINUOUS1
100
AcDbCircle
 10
38.26509527300007
 20
22.97912928211498
 30
0.0
 40
0.25
100
AcDbArc
 50
180.0
 51
0.0
  0
CIRCLE
  5
8E8F
330
1F
100
AcDbEntity
  8
CONTINUOUS1
100
AcDbCircle
 10
38.26509527300007
 20
24.54162928211498
 30
0.0
 40
0.109375
  0
ARC
  5
8E90
330
1F
100
AcDbEntity
  8
CONTINUOUS1
100
AcDbCircle
 10
38.26509527300007
 20
23.97912928211498
 30
0.0
 40
0.25
100
AcDbArc
 50
0.0
 51
180.0
  0
LINE
  5
8E91
330
1F
100
AcDbEntity
  8
CONTINUOUS2
100
AcDbLine
 10
38.98384527300008
 20
26.28412989509898
 30
0.0
 11
37.54634527300007
 21
26.28412989509898
 31
0.0
  0
LINE
  5
8E92
330
1F
100
AcDbEntity
  8
CENTER2
100
AcDbLine
 10
38.26509527300012
 20
19.76412928211498
 30
0.0
 11
38.26509527300012
 21
19.94412928211498
 31
0.0
  0
LINE
  5
8E93
330
1F
100
AcDbEntity
  8
CENTER2
100
AcDbLine
 10
38.17509527300012
 20
19.85412928211498
 30
0.0
 11
38.35509527300012
 21
19.85412928211498
 31
0.0
  0
LINE
  5
8E94
330
1F
100
AcDbEntity
  8
CENTER2
100
AcDbLine
 10
38.26509527300007
 20
24.45162928211498
 30
0.0
 11
38.26509527300007
 21
24.63162928211498
 31
0.0
  0
LINE
  5
8E95
330
1F
100
AcDbEntity
  8
CENTER2
100
AcDbLine
 10
38.17509527300008
 20
24.54162928211498
 30
0.0
 11
38.35509527300008
 21
24.54162928211498
 31
0.0
  0
ARC
  5
8E96
330
1F
100
AcDbEntity
  8
CONTINUOUS2
100
AcDbCircle
 10
38.26509527300007
 20
21.10412928211498
 30
0.0
 40
0.25
100
AcDbArc
 50
180.0
 51
0.0
  0
CIRCLE
  5
8E97
330
1F
100
AcDbEntity
  8
CONTINUOUS2
100
AcDbCircle
 10
38.26509527300007
 20
19.85412928211498
 30
0.0
 40
0.14
  0
LINE
  5
8E98
330
1F
100
AcDbEntity
  8
CONTINUOUS2
100
AcDbLine
 10
38.51509527300008
 20
22.10412928211498
 30
0.0
 11
38.51509527300008
 21
21.10412928211498
 31
0.0
  0
LINE
  5
8E99
330
1F
100
AcDbEntity
  8
CONTINUOUS2
100
AcDbLine
 10
38.01509527300007
 20
22.10412928211498
 30
0.0
 11
38.01509527300007
 21
21.10412928211498
 31
0.0
  0
ARC
  5
8E9A
330
1F
100
AcDbEntity
  8
CONTINUOUS2
100
AcDbCircle
 10
38.26509527300007
 20
22.10412928211498
 30
0.0
 40
0.25
100
AcDbArc
 50
0.0
 51
180.0
  0
LINE
  5
8E9B
330
1F
100
AcDbEntity
  8
CONTINUOUS2
100
AcDbLine
 10
38.01509527300007
 20
23.97912928211498
 30
0.0
 11
38.01509527300007
 21
22.97912928211498
 31
0.0
  0
LINE
  5
8E9C
330
1F
100
AcDbEntity
  8
CONTINUOUS2
100
AcDbLine
 10
38.51509527300008
 20
23.97912928211498
 30
0.0
 11
38.51509527300008
 21
22.97912928211498
 31
0.0
  0
ARC
  5
8E9D
330
1F
100
AcDbEntity
  8
CONTINUOUS2
100
AcDbCircle
 10
38.26509527300007
 20
22.97912928211498
 30
0.0
 40
0.25
100
AcDbArc
 50
180.0
 51
0.0
  0
ARC
  5
8E9E
330
1F
100
AcDbEntity
  8
CONTINUOUS2
100
AcDbCircle
 10
38.26509527300007
 20
23.97912928211498
 30
0.0
 40
0.25
100
AcDbArc
 50
0.0
 51
180.0
  0
CIRCLE
  5
8E9F
330
1F
100
AcDbEntity
  8
CONTINUOUS2
100
AcDbCircle
 10
38.26509527300007
 20
24.54162928211498
 30
0.0
 40
0.14
  0
TEXT
  5
8EA0
330
1F
100
AcDbEntity
  8
TEXT1
100
AcDbText
 10
2.181671871915349
 20
31.97343038051442
 30
0.0
 40
0.4
  1
CSF50
  7
SIMPLEX
100
AcDbText
  0
TEXT
  5
8EA1
330
1F
100
AcDbEntity
  8
TEXT1
100
AcDbText
 10
2.181671871915349
 20
31.17319483105895
 30
0.0
 40
0.4
  1
CSF10
  7
SIMPLEX
100
AcDbText
  0
DIMENSION
  5
8EA2
330
1F
100
AcDbEntity
  8
DIM
100
AcDbDimension
  2
*D5
 10
42.96266533843394
 20
17.15912989509898
 30
0.0
 11
42.96266533843393
 21
20.72427326018821
 31
0.0
 70
   160
  3
SCHNEIDERELECTRIC
100
AcDbAlignedDimension
 13
38.98384527300008
 23
26.28412989509898
 33
0.0
 14
38.98384527300008
 24
17.15912989509898
 34
0.0
 50
90.0
100
AcDbRotatedDimension
1001
ACAD
1000
DSTYLE
1002
{
1070
   171
1070
     0
1070
   170
1070
     1
1070
    40
1040
4.0
1002
}
  0
DIMENSION
  5
8EA3
330
1F
100
AcDbEntity
  8
DIM
100
AcDbDimension
  2
*D6
 10
40.88765899687305
 20
19.85412928211498
 30
0.0
 11
40.88765899687305
 21
22.02200295526691
 31
0.0
 70
   160
  3
SCHNEIDERELECTRIC
100
AcDbAlignedDimension
 13
38.26509527300007
 23
24.54162928211498
 33
0.0
 14
38.26509527300012
 24
19.85412928211498
 34
0.0
 50
90.0
100
AcDbRotatedDimension
1001
ACAD
1000
DSTYLE
1002
{
1070
   171
1070
     0
1070
   170
1070
     1
1070
    40
1040
4.0
1002
}
  0
DIMENSION
  5
8EA4
330
1F
100
AcDbEntity
  8
DIM
100
AcDbDimension
  2
*D7
 10
52.29805961099767
 20
10.20734549645412
 30
0.0
 11
50.17305961099767
 21
10.20734549645412
 31
0.0
 70
    32
  3
SCHNEIDERELECTRIC
100
AcDbAlignedDimension
 13
48.04805961099766
 23
16.77165401293321
 33
0.0
 14
52.29805961099767
 24
21.37465391106029
 34
0.0
100
AcDbRotatedDimension
1001
ACAD
1000
DSTYLE
1002
{
1070
   171
1070
     0
1070
   170
1070
     1
1070
    40
1040
4.0
1002
}
  0
TEXT
  5
8EA5
330
1F
100
AcDbEntity
  8
TEXT1
100
AcDbText
 10
29.38876623753944
 20
36.71803475401159
 30
0.0
 40
0.4
  1
REFER TO NEC ARTICLE 430-10 FOR MINIMUM
  7
SIMPLEX
100
AcDbText
  0
TEXT
  5
8EA6
330
1F
100
AcDbEntity
  8
TEXT1
100
AcDbText
 10
29.38876623753944
 20
35.87989785858161
 30
0.0
 40
0.4
  1
DIMENSION X FROM CIRCUIT BREAKER TOP
  7
SIMPLEX
100
AcDbText
  0
TEXT
  5
8EA7
330
1F
100
AcDbEntity
  8
TEXT1
100
AcDbText
 10
29.38876623753944
 20
35.04176096315164
 30
0.0
 40
0.4
  1
MOUNTING HOLE TO WALL OR BARRIER TO
  7
SIMPLEX
100
AcDbText
  0
LINE
  5
8EA9
330
1F
100
AcDbEntity
  8
CONTINUOUS1
100
AcDbLine
 10
1.834666666665949
 20
32.59835874986137
 30
0.0
 11
21.01073324303221
 21
32.59835874986137
 31
0.0
  0
TEXT
  5
8EAA
330
1F
100
AcDbEntity
  8
TEXT1
100
AcDbText
 10
12.01978688540917
 20
32.75554952886745
 30
0.0
 40
0.4
  1
3.50"
  7
SIMPLEX
100
AcDbText
  0
TEXT
  5
8EAB
330
1F
100
AcDbEntity
  8
TEXT1
100
AcDbText
 10
11.72112021874262
 20
31.19461217512778
 30
0.0
 40
0.4
  1
4 FEET
  7
SIMPLEX
100
AcDbText
  0
TEXT
  5
8EAC
330
1F
100
AcDbEntity
  8
TEXT1
100
AcDbText
 10
17.61848543930265
 20
31.97779477946635
 30
0.0
 40
0.4
  1
24"
  7
SIMPLEX
100
AcDbText
  0
TEXT
  5
8EAD
330
1F
100
AcDbEntity
  8
TEXT1
100
AcDbText
 10
17.66936512094422
 20
32.78165564404076
 30
0.0
 40
0.4
  1
7"
  7
SIMPLEX
100
AcDbText
  0
TEXT
  5
8EAE
330
1F
100
AcDbEntity
  8
TEXT1
100
AcDbText
 10
7.590021804871014
 20
33.97451051299671
 30
0.0
 40
0.4
  1
DEPTH
  7
SIMPLEX
100
AcDbText
  0
DIMENSION
  5
8EAF
330
1F
100
AcDbEntity
  8
DIM
100
AcDbDimension
  2
*D8
 10
38.98384527300008
 20
14.13398443068099
 30
0.0
 11
41.28932345027692
 21
14.13398443068099
 31
0.0
 70
   160
  3
SCHNEIDERELECTRIC
100
AcDbAlignedDimension
 13
37.54634527300008
 23
17.15912989509898
 33
0.0
 14
38.98384527300008
 24
17.15912989509898
 34
0.0
100
AcDbRotatedDimension
1001
ACAD
1000
DSTYLE
1002
{
1070
   287
1070
     0
1070
   289
1070
     0
1070
   171
1070
     0
1070
   170
1070
     1
1070
    40
1040
4.0
1002
}
  0
DIMENSION
  5
8EB0
330
1F
100
AcDbEntity
  8
DIM
100
AcDbDimension
  2
*D9
 10
40.88765899687305
 20
25.54427214209059
 30
0.0
 11
40.88765899687305
 21
25.04295071210279
 31
0.0
 70
   160
  3
SCHNEIDERELECTRIC
100
AcDbAlignedDimension
 13
38.26509527300007
 23
24.54162928211498
 33
0.0
 14
35.1363433050324
 24
25.5442721420906
 34
0.0
 50
90.0
100
AcDbRotatedDimension
1001
ACAD
1000
DSTYLE
1002
{
1070
   171
1070
     0
1070
   170
1070
     1
1070
    40
1040
4.0
1002
}
  0
DIMENSION
  5
8EB1
330
1F
100
AcDbEntity
  8
DIM
100
AcDbDimension
  2
*D10
 10
35.1363433050324
 20
30.18232875244065
 30
0.0
 11
32.16872425741335
 21
30.18232875244065
 31
0.0
 70
    32
  1
3.50 [89] MIN.
  3
SCHNEIDERELECTRIC
100
AcDbAlignedDimension
 13
38.26509527300007
 23
24.54162928211498
 33
0.0
 14
35.1363433050324
 24
25.5442721420906
 34
0.0
100
AcDbRotatedDimension
1001
ACAD
1000
DSTYLE
1002
{
1070
   287
1070
     0
1070
   289
1070
     0
1070
   171
1070
     0
1070
   170
1070
     1
1070
    40
1040
4.0
1002
}
  0
DIMENSION
  5
8EB2
330
1F
100
AcDbEntity
  8
DIM
100
AcDbDimension
  2
*D11
 10
36.08681433724309
 20
28.51022166533141
 30
0.0
 11
37.64190597176225
 21
28.01187550688816
 31
0.0
 70
   161
  1
C
  3
SCHNEIDERELECTRIC
100
AcDbAlignedDimension
 13
38.26509527300008
 23
24.54162928211498
 33
0.0
 14
35.1363433050324
 24
25.5442721420906
 34
0.0
1001
ACAD
1000
DSTYLE
1002
{
1070
   171
1070
     0
1070
   170
1070
     1
1070
    40
1040
4.0
1002
}
  0
LINE
  5
8EB3
330
1F
100
AcDbEntity
  8
CONTINUOUS2
100
AcDbLine
 10
32.11476899003928
 20
25.98583677394138
 30
0.0
 11
32.11476899003928
 21
20.19583677394138
 31
0.0
  0
LINE
  5
8EB4
330
1F
100
AcDbEntity
  8
CONTINUOUS2
100
AcDbLine
 10
32.31476899003928
 20
19.99583677394138
 30
0.0
 11
36.97417685766168
 21
19.99583677394138
 31
0.0
  0
LINE
  5
8EB5
330
1F
100
AcDbEntity
  8
CONTINUOUS2
100
AcDbLine
 10
32.31476899003928
 20
26.18583677394138
 30
0.0
 11
37.2145793148725
 21
26.1787348084177
 31
0.0
  0
LINE
  5
8EB6
330
1F
100
AcDbEntity
  8
CONTINUOUS2
100
AcDbLine
 10
32.31476899003928
 20
26.18583677394138
 30
0.0
 11
32.11476899003928
 21
25.98583677394138
 31
0.0
  0
LINE
  5
8EB7
330
1F
100
AcDbEntity
  8
CONTINUOUS2
100
AcDbLine
 10
32.31476899003928
 20
19.99583677394138
 30
0.0
 11
32.11476899003928
 21
20.19583677394138
 31
0.0
  0
TEXT
  5
8EB9
330
1F
100
AcDbEntity
  8
TEXT1
100
AcDbText
 10
29.42455299092877
 20
34.33053475401159
 30
0.0
 40
0.4
  1
ENSURE ADEQUATE WIRE BENDING SPACE.
  7
SIMPLEX
100
AcDbText
  0
TEXT
  5
8EBA
330
1F
100
AcDbEntity
  8
TEXT1
100
AcDbText
 10
1.333486890757695
 20
15.95206724897286
 30
0.0
 40
0.4
  1
NOTE:  BEND RADIUS IN CABLE MUST NEVER BE LESS THAN 6 INCHES.
  7
SIMPLEX
100
AcDbText
  0
TEXT
  5
8EBB
330
1F
100
AcDbEntity
  8
TEXT1
100
AcDbText
 10
1.333486890757695
 20
15.25721010611599
 30
0.0
 40
0.4
  1
ELECTRICAL CLEARANCES MUST BE MAINTAINED BETWEEN CABLE AND 
  7
SIMPLEX
100
AcDbText
  0
TEXT
  5
8EBC
330
1F
100
AcDbEntity
  8
TEXT1
100
AcDbText
 10
1.333486890757695
 20
14.56235296325912
 30
0.0
 40
0.4
  1
LIVE ELECTRICAL PARTS.
  7
SIMPLEX
100
AcDbText
  0
LINE
  5
8EBD
330
1F
100
AcDbEntity
  8
CONTINUOUS2
100
AcDbLine
 10
37.54634527300007
 20
26.28412989509898
 30
0.0
 11
37.54634527300008
 21
21.35583677394139
 31
0.0
  0
LINE
  5
8EBE
330
1F
100
AcDbEntity
  8
CONTINUOUS2
100
AcDbLine
 10
37.54634527300008
 20
21.35583677394139
 30
0.0
 11
37.54634527300008
 21
17.15912989509898
 31
0.0
  0
POINT
  5
8EC0
330
1F
100
AcDbEntity
  8
DEFPOINTS
  6
BYBLOCK
 62
     0
100
AcDbPoint
 10
34.58319846794764
 20
25.5442721420906
 30
0.0
  0
ARC
  5
8EC2
330
1F
100
AcDbEntity
  8
CONTINUOUS1
100
AcDbCircle
 10
51.82318023614728
 20
16.50221601993572
 30
0.0
 40
4.311812616715405
100
AcDbArc
 50
275.3289452679413
 51
16.21999657070245
  0
ARC
  5
8EC3
330
1F
100
AcDbEntity
  8
CONTINUOUS1
100
AcDbCircle
 10
51.76758217043921
 20
16.57192513413369
 30
0.0
 40
4.681331760902694
100
AcDbArc
 50
277.3886343476502
 51
14.02745737120644
  0
ARC
  5
8EC4
330
1F
100
AcDbEntity
  8
CONTINUOUS1
100
AcDbCircle
 10
52.11017725884911
 20
15.63861257641047
 30
0.0
 40
3.431449277834925
100
AcDbArc
 50
181.6840656851175
 51
271.8947583725076
  0
ARC
  5
8EC5
330
1F
100
AcDbEntity
  8
CONTINUOUS1
100
AcDbCircle
 10
51.96544094841503
 20
15.48873678425191
 30
0.0
 40
3.582145282019987
100
AcDbArc
 50
179.3373237626748
 51
276.4781852839901
  0
CIRCLE
  5
8EC6
330
1F
100
AcDbEntity
  8
CONTINUOUS1
100
AcDbCircle
 10
51.38521714512071
 20
22.91945625502223
 30
0.0
 40
0.220172499749644
  0
LINE
  5
8ECD
330
1F
100
AcDbEntity
  8
CONTINUOUS2
100
AcDbLine
 10
36.97417685766168
 20
18.95691572279022
 30
0.0
 11
36.97417685766168
 21
18.72691572279022
 31
0.0
  0
LINE
  5
8ECE
330
1F
100
AcDbEntity
  8
CONTINUOUS2
100
AcDbLine
 10
36.67452333797142
 20
18.72691572279022
 30
0.0
 11
36.97417685766168
 21
18.72691572279022
 31
0.0
  0
LINE
  5
8ECF
330
1F
100
AcDbEntity
  8
CONTINUOUS1
100
AcDbLine
 10
37.41939797290681
 20
18.82691572279022
 30
0.0
 11
36.78872840595525
 21
18.82691572279022
 31
0.0
  0
LINE
  5
8ED0
330
1F
100
AcDbEntity
  8
CONTINUOUS2
100
AcDbLine
 10
36.78872840595525
 20
18.82691572279022
 30
0.0
 11
36.78872840595525
 21
19.12691572279022
 31
0.0
  0
LINE
  5
8ED1
330
1F
100
AcDbEntity
  8
CONTINUOUS2
100
AcDbLine
 10
36.78872840595525
 20
19.12691572279022
 30
0.0
 11
36.97417685766168
 21
19.12691572279022
 31
0.0
  0
LINE
  5
8ED2
330
1F
100
AcDbEntity
  8
CONTINUOUS1
100
AcDbLine
 10
36.93872840595524
 20
19.12691572279022
 30
0.0
 11
37.20509527300007
 21
19.12691572279022
 31
0.0
  0
LINE
  5
8ED3
330
1F
100
AcDbEntity
  8
CONTINUOUS2
100
AcDbLine
 10
37.20509527300007
 20
17.37738778759607
 30
0.0
 11
37.13822990652232
 21
15.69616181295283
 31
0.0
  0
LINE
  5
8ED4
330
1F
100
AcDbEntity
  8
CONTINUOUS2
100
AcDbLine
 10
36.78872840595525
 20
18.82691572279022
 30
0.0
 11
36.67452333797142
 21
18.82691572279022
 31
0.0
  0
LINE
  5
8ED5
330
1F
100
AcDbEntity
  8
CONTINUOUS1
100
AcDbLine
 10
37.10997178967785
 20
18.82691572279022
 30
0.0
 11
37.10997178967785
 21
25.11453289760201
 31
0.0
  0
LINE
  5
8ED6
330
1F
100
AcDbEntity
  8
CONTINUOUS1
100
AcDbLine
 10
37.15519834480184
 20
23.96681673814989
 30
0.0
 11
37.20509527300007
 21
23.96681673814989
 31
0.0
  0
LINE
  5
8ED7
330
1F
100
AcDbEntity
  8
CONTINUOUS1
100
AcDbLine
 10
37.15519834480184
 20
23.46681673814989
 30
0.0
 11
37.20509527300007
 21
23.46681673814989
 31
0.0
  0
LINE
  5
8ED8
330
1F
100
AcDbEntity
  8
CONTINUOUS1
100
AcDbLine
 10
37.15519834480184
 20
23.96681673814989
 30
0.0
 11
37.15519834480184
 21
23.46681673814989
 31
0.0
  0
LINE
  5
8ED9
330
1F
100
AcDbEntity
  8
CONTINUOUS2
100
AcDbLine
 10
36.97417685766168
 20
26.4964979094149
 30
0.0
 11
37.21655478415992
 21
26.4964979094149
 31
0.0
  0
LINE
  5
8EDA
330
1F
100
AcDbEntity
  8
CONTINUOUS2
100
AcDbLine
 10
37.21655478415992
 20
26.76400245989476
 30
0.0
 11
36.97417685766168
 21
26.76400245989476
 31
0.0
  0
ARC
  5
8EDB
330
1F
100
AcDbEntity
  8
CONTINUOUS2
100
AcDbCircle
 10
38.02717342680315
 20
11.36601582659311
 30
0.0
 40
2.122082995151881
100
AcDbArc
 50
165.4523397712733
 51
11.73893453287485
  0
LINE
  5
8EDC
330
1F
100
AcDbEntity
  8
CONTINUOUS2
100
AcDbLine
 10
36.82626224463403
 20
15.80752227197787
 30
0.0
 11
35.97312646585246
 21
11.89905177333774
 31
0.0
  0
LINE
  5
8EDD
330
1F
100
AcDbEntity
  8
CONTINUOUS2
100
AcDbLine
 10
38.66672276195268
 20
17.15912989509898
 30
0.0
 11
40.10487259629814
 21
11.79775926822555
 31
0.0
  0
ARC
  5
8EDE
330
1F
100
AcDbEntity
  8
CONTINUOUS2
100
AcDbCircle
 10
38.02717342680315
 20
11.36601582659311
 30
0.0
 40
1.878954394755968
100
AcDbArc
 50
164.7735161250388
 51
12.34462940641112
  0
LINE
  5
8EDF
330
1F
100
AcDbEntity
  8
CONTINUOUS2
100
AcDbLine
 10
37.13822990652232
 20
15.69616181295283
 30
0.0
 11
36.21417935128565
 21
11.85949541047797
 31
0.0
  0
LINE
  5
8EE0
330
1F
100
AcDbEntity
  8
CONTINUOUS2
100
AcDbLine
 10
38.38175545065857
 20
17.15912989509898
 30
0.0
 11
39.86268516011278
 21
11.76772006413048
 31
0.0
  0
LINE
  5
8EE1
330
1F
100
AcDbEntity
  8
CONTINUOUS1
100
AcDbLine
 10
37.20509527300007
 20
25.67255886132867
 30
0.0
 11
37.10997178967785
 21
25.67255886132867
 31
0.0
  0
LINE
  5
8EE2
330
1F
100
AcDbEntity
  8
CONTINUOUS1
100
AcDbLine
 10
37.20509527300007
 20
25.11453289760201
 30
0.0
 11
37.10997178967785
 21
25.11453289760201
 31
0.0
  0
LINE
  5
8EE3
330
1F
100
AcDbEntity
  8
CONTINUOUS2
100
AcDbLine
 10
36.97417685766168
 20
26.4964979094149
 30
0.0
 11
36.97417685766168
 21
26.1787348084177
 31
0.0
  0
LINE
  5
8EE4
330
1F
100
AcDbEntity
  8
CONTINUOUS2
100
AcDbLine
 10
36.97417685766168
 20
26.76400245989476
 30
0.0
 11
36.97417685766168
 21
26.4964979094149
 31
0.0
  0
LINE
  5
8EE5
330
1F
100
AcDbEntity
  8
CONTINUOUS2
100
AcDbLine
 10
37.21655478415992
 20
26.4964979094149
 30
0.0
 11
37.21655478415992
 21
26.76400245989476
 31
0.0
  0
LINE
  5
8EE6
330
1F
100
AcDbEntity
  8
CONTINUOUS1
100
AcDbLine
 10
37.10997178967785
 20
25.36255886132868
 30
0.0
 11
37.10997178967785
 21
26.1787348084177
 31
0.0
  0
LINE
  5
8EE7
330
1F
100
AcDbEntity
  8
CONTINUOUS1
100
AcDbLine
 10
37.10997178967785
 20
25.11453289760201
 30
0.0
 11
37.10997178967785
 21
25.36255886132868
 31
0.0
  0
LINE
  5
8EE8
330
1F
100
AcDbEntity
  8
CONTINUOUS2
100
AcDbLine
 10
36.97417685766168
 20
26.1787348084177
 30
0.0
 11
36.97417685766168
 21
18.95691572279022
 31
0.0
  0
LINE
  5
8EE9
330
1F
100
AcDbEntity
  8
CONTINUOUS2
100
AcDbLine
 10
36.97417685766168
 20
18.72691572279022
 30
0.0
 11
36.82626224463403
 21
15.80752227197787
 31
0.0
  0
LINE
  5
8EEA
330
1F
100
AcDbEntity
  8
CONTINUOUS1
100
AcDbLine
 10
36.9750612167388
 20
18.72691572279022
 30
0.0
 11
37.20509527300007
 21
18.72691572279022
 31
0.0
  0
CIRCLE
  5
8EEB
330
1F
100
AcDbEntity
  8
CONTINUOUS2
100
AcDbCircle
 10
35.1363433050324
 20
25.5442721420906
 30
0.0
 40
0.11
  0
CIRCLE
  5
8EEC
330
1F
100
AcDbEntity
  8
CONTINUOUS1
100
AcDbCircle
 10
35.1363433050324
 20
25.5442721420906
 30
0.0
 40
0.11
  0
POINT
  5
8EED
330
1F
100
AcDbEntity
  8
DEFPOINTS
  6
BYBLOCK
 62
     0
100
AcDbPoint
 10
35.76634330503239
 20
25.5442721420906
 30
0.0
  0
CIRCLE
  5
8EEE
330
1F
100
AcDbEntity
  8
CONTINUOUS2
100
AcDbCircle
 10
33.75319846794764
 20
20.64410211472951
 30
0.0
 40
0.11
  0
CIRCLE
  5
8EEF
330
1F
100
AcDbEntity
  8
CONTINUOUS1
100
AcDbCircle
 10
33.75319846794764
 20
20.64410211472951
 30
0.0
 40
0.11
  0
LINE
  5
8EF4
330
1F
100
AcDbEntity
  8
CONTINUOUS1
100
AcDbLine
 10
36.96340647766841
 20
22.98253378840155
 30
0.0
 11
33.724211551321
 21
22.98253378840155
 31
0.0
  0
LINE
  5
8EF5
330
1F
100
AcDbEntity
  8
CONTINUOUS1
100
AcDbLine
 10
33.724211551321
 20
22.98253378840155
 30
0.0
 11
33.724211551321
 21
23.97627748757278
 31
0.0
  0
LINE
  5
8EF6
330
1F
100
AcDbEntity
  8
CONTINUOUS1
100
AcDbLine
 10
33.724211551321
 20
23.97627748757278
 30
0.0
 11
36.97576131521568
 21
23.97627748757278
 31
0.0
  0
LWPOLYLINE
  5
8EF7
330
1F
100
AcDbEntity
  8
CONTINUOUS1
100
AcDbPolyline
 90
        4
 70
     1
 43
0.0
 10
34.04543746126923
 20
23.0442846922039
 10
34.04543746126923
 20
23.414790115018
 10
34.87553471105649
 20
23.414790115018
 10
34.87553471105649
 20
23.0442846922039
  0
LINE
  5
8EF8
330
1F
100
AcDbEntity
  8
CONTINUOUS2
100
AcDbLine
 10
36.67452333797142
 20
18.82691572279022
 30
0.0
 11
36.67452333797142
 21
18.72691572279022
 31
0.0
  0
DIMENSION
  5
8EF9
330
1F
100
AcDbEntity
  8
DIM
100
AcDbDimension
  2
*D12
 10
30.06152826541197
 20
20.64410211472951
 30
0.0
 11
30.06152826541197
 21
22.54857249249862
 31
0.0
 70
   160
  3
SCHNEIDERELECTRIC
100
AcDbAlignedDimension
 13
35.1363433050324
 23
25.5442721420906
 33
0.0
 14
33.75319846794764
 24
20.64410211472951
 34
0.0
 50
90.0
100
AcDbRotatedDimension
1001
ACAD
1000
DSTYLE
1002
{
1070
   171
1070
     0
1070
   170
1070
     1
1070
    40
1040
4.0
1002
}
  0
TEXT
  5
8EFA
330
1F
100
AcDbEntity
  8
TEXT1
100
AcDbText
 10
1.819669788581239
 20
38.60535044680704
 30
0.0
 40
0.4
  1
CABLE MECHANISMS FOR USE WITH CLASS 9422
  7
SIMPLEX
100
AcDbText
  0
TEXT
  5
8EFB
330
1F
100
AcDbEntity
  8
TEXT1
100
AcDbText
 10
1.819669788581239
 20
37.73868378014071
 30
0.0
 40
0.4
  1
TYPE NSF 3 POLE CIRCUIT BREAKER.
  7
SIMPLEX
100
AcDbText
  0
LINE
  5
8EFC
330
1F
100
AcDbEntity
  8
CONTINUOUS2
100
AcDbLine
 10
37.4186549661407
 20
18.82691572279022
 30
0.0
 11
37.4186549661407
 21
19.12691572279022
 31
0.0
  0
LINE
  5
8EFD
330
1F
100
AcDbEntity
  8
CONTINUOUS2
100
AcDbLine
 10
37.53286003412453
 20
18.72691572279022
 30
0.0
 11
37.2145793148725
 21
18.72691572279022
 31
0.0
  0
LINE
  5
8EFE
330
1F
100
AcDbEntity
  8
CONTINUOUS2
100
AcDbLine
 10
37.4186549661407
 20
18.82691572279022
 30
0.0
 11
37.53286003412453
 21
18.82691572279022
 31
0.0
  0
LINE
  5
8EFF
330
1F
100
AcDbEntity
  8
CONTINUOUS2
100
AcDbLine
 10
37.53286003412453
 20
18.82691572279022
 30
0.0
 11
37.53286003412453
 21
18.72691572279022
 31
0.0
  0
LINE
  5
8F00
330
1F
100
AcDbEntity
  8
CONTINUOUS2
100
AcDbLine
 10
37.4186549661407
 20
19.12691572279022
 30
0.0
 11
37.2145793148725
 21
19.12691572279022
 31
0.0
  0
LINE
  5
8F01
330
1F
100
AcDbEntity
  8
CONTINUOUS2
100
AcDbLine
 10
37.20509527300007
 20
17.37738778759607
 30
0.0
 11
37.2145793148725
 21
18.72691572279022
 31
0.0
  0
LINE
  5
8F02
330
1F
100
AcDbEntity
  8
CONTINUOUS2
100
AcDbLine
 10
37.21655478415992
 20
26.4964979094149
 30
0.0
 11
37.2145793148725
 21
18.72691572279022
 31
0.0
  0
DIMENSION
  5
8F03
330
1F
100
AcDbEntity
  8
DIM
100
AcDbDimension
  2
*D13
 10
36.97417685766168
 20
28.98081675971313
 30
0.0
 11
33.00681949550858
 21
28.98081675971313
 31
0.0
 70
   160
  1
<>
  3
SCHNEIDERELECTRIC
100
AcDbAlignedDimension
 13
35.1363433050324
 23
25.5442721420906
 33
0.0
 14
36.97417685766168
 24
26.76400245989476
 34
0.0
100
AcDbRotatedDimension
1001
ACAD
1000
DSTYLE
1002
{
1070
   287
1070
     0
1070
   289
1070
     0
1070
   171
1070
     0
1070
   170
1070
     1
1070
    40
1040
4.0
1002
}
  0
DIMENSION
  5
8F04
330
1F
100
AcDbEntity
  8
DIM
100
AcDbDimension
  2
*D14
 10
33.75319846794764
 20
27.92397764351083
 30
0.0
 11
31.62367465842383
 21
27.92397764351083
 31
0.0
 70
    32
  3
SCHNEIDERELECTRIC
100
AcDbAlignedDimension
 13
35.1363433050324
 23
25.5442721420906
 33
0.0
 14
33.75319846794764
 24
20.64410211472951
 34
0.0
100
AcDbRotatedDimension
1001
ACAD
1000
DSTYLE
1002
{
1070
   287
1070
     0
1070
   289
1070
     0
1070
   171
1070
     0
1070
   170
1070
     1
1070
    40
1040
4.0
1002
}
  0
DIMENSION
  5
8F05
330
1F
100
AcDbEntity
  8
DIM
100
AcDbDimension
  2
*D15
 10
32.11476899003928
 20
19.23647764351083
 30
0.0
 11
34.54447292385049
 21
19.23647764351083
 31
0.0
 70
   160
  3
SCHNEIDERELECTRIC
100
AcDbAlignedDimension
 13
36.97417685766168
 23
19.99583677394138
 33
0.0
 14
32.11476899003928
 24
20.19583677394138
 34
0.0
100
AcDbRotatedDimension
1001
ACAD
1000
DSTYLE
1002
{
1070
   171
1070
     0
1070
   170
1070
     1
1070
    40
1040
4.0
1002
}
  0
DIMENSION
  5
8F06
330
1F
100
AcDbEntity
  8
DIM
100
AcDbDimension
  2
*D16
 10
27.74335650991773
 20
19.99583677394138
 30
0.0
 11
27.74335650991773
 21
23.47873954827274
 31
0.0
 70
   160
  3
SCHNEIDERELECTRIC
100
AcDbAlignedDimension
 13
32.31476899003928
 23
26.18583677394138
 33
0.0
 14
32.31476899003928
 24
19.99583677394138
 34
0.0
 50
90.0
100
AcDbRotatedDimension
1001
ACAD
1000
DSTYLE
1002
{
1070
   171
1070
     0
1070
   170
1070
     1
1070
    40
1040
4.0
1002
}
  0
DIMENSION
  5
8F07
330
1F
100
AcDbEntity
  8
DIM
100
AcDbDimension
  2
*D17
 10
30.06152826541197
 20
19.99583677394138
 30
0.0
 11
28.38343302731673
 21
19.37038114676402
 31
0.0
 70
   160
  3
SCHNEIDERELECTRIC
100
AcDbAlignedDimension
 13
33.75319846794764
 23
20.64410211472951
 33
0.0
 14
32.31476899003928
 24
19.99583677394138
 34
0.0
 50
90.0
100
AcDbRotatedDimension
1001
ACAD
1000
DSTYLE
1002
{
1070
   171
1070
     0
1070
   170
1070
     1
1070
    40
1040
4.0
1002
}
  0
LINE
  5
8F08
330
1F
100
AcDbEntity
  8
CONTINUOUS1
100
AcDbLine
 10
59.50731753750247
 20
25.76653178901926
 30
0.0
 11
55.98409423750247
 21
25.76653178901928
 31
0.0
  0
LINE
  5
8F09
330
1F
100
AcDbEntity
  8
CONTINUOUS1
100
AcDbLine
 10
55.80731753750247
 20
25.58975508901928
 30
0.0
 11
55.80731753750246
 21
23.40706008647852
 31
0.0
  0
LINE
  5
8F0A
330
1F
100
AcDbEntity
  8
CONTINUOUS1
100
AcDbLine
 10
55.98409423750247
 20
25.76653178901928
 30
0.0
 11
55.80731753750247
 21
25.58975508901928
 31
0.0
  0
LINE
  5
8F0B
330
1F
100
AcDbEntity
  8
CONTINUOUS1
100
AcDbLine
 10
56.73606180956344
 20
18.35666230500238
 30
0.0
 11
56.7734553779606
 21
17.92925186243593
 31
0.0
  0
LINE
  5
8F0C
330
1F
100
AcDbEntity
  8
CONTINUOUS1
100
AcDbLine
 10
55.51731753750246
 20
17.94483152126282
 30
0.0
 11
56.76256091011715
 21
18.05377619969739
 31
0.0
  0
LINE
  5
8F0D
330
1F
100
AcDbEntity
  8
CONTINUOUS1
100
AcDbLine
 10
55.51731753750246
 20
21.09820358699197
 30
0.0
 11
55.51731753750246
 21
17.94483152126282
 31
0.0
  0
LINE
  5
8F0E
330
1F
100
AcDbEntity
  8
CONTINUOUS1
100
AcDbLine
 10
59.50731753750247
 20
25.76653178901926
 30
0.0
 11
59.50731753750247
 21
19.57653178901927
 31
0.0
  0
LINE
  5
8F0F
330
1F
100
AcDbEntity
  8
CONTINUOUS1
100
AcDbLine
 10
56.77075235959205
 20
18.45197380787449
 30
0.0
 11
57.89531034073684
 21
19.57653178901927
 31
0.0
  0
LINE
  5
8F10
330
1F
100
AcDbEntity
  8
CONTINUOUS1
100
AcDbLine
 10
59.50731753750247
 20
19.57653178901927
 30
0.0
 11
57.89531034073684
 21
19.57653178901927
 31
0.0
  0
ARC
  5
8F11
330
1F
100
AcDbEntity
  8
CONTINUOUS1
100
AcDbCircle
 10
56.85560517333446
 20
18.3671209941321
 30
0.0
 40
0.12
100
AcDbArc
 50
134.9999999999998
 51
185.0
  0
ARC
  5
8F12
330
1F
100
AcDbEntity
  8
CONTINUOUS1
100
AcDbCircle
 10
57.62731753750248
 20
23.14853178901926
 30
0.0
 40
0.75
100
AcDbArc
 50
333.7887131449045
 51
49.7948652956392
  0
LINE
  5
8F13
330
1F
100
AcDbEntity
  8
CONTINUOUS1
100
AcDbLine
 10
55.54635186979835
 20
21.11705870284833
 30
0.0
 11
55.51731753750246
 21
21.09820358699197
 31
0.0
  0
LINE
  5
8F14
330
1F
100
AcDbEntity
  8
CONTINUOUS1
100
AcDbLine
 10
55.52821200534592
 20
17.82030718400136
 30
0.0
 11
56.7734553779606
 21
17.92925186243593
 31
0.0
  0
LINE
  5
8F15
330
1F
100
AcDbEntity
  8
CONTINUOUS1
100
AcDbLine
 10
55.51606647410434
 20
17.98848327663688
 30
0.0
 11
55.52821200534592
 21
17.82030718400136
 31
0.0
  0
LINE
  5
8F16
330
1F
100
AcDbEntity
  8
CONTINUOUS1
100
AcDbLine
 10
58.03659606518056
 20
23.872447235308
 30
0.0
 11
55.04893637660237
 21
23.24873942720905
 31
0.0
  0
LINE
  5
8F17
330
1F
100
AcDbEntity
  8
CONTINUOUS1
100
AcDbLine
 10
58.29204078144781
 20
22.6488263802507
 30
0.0
 11
55.66568082312412
 21
22.10054398411727
 31
0.0
  0
ARC
  5
8F18
330
1F
100
AcDbEntity
  8
CONTINUOUS1
100
AcDbCircle
 10
57.62731753750248
 20
23.14853178901926
 30
0.0
 40
0.75
100
AcDbArc
 50
68.23447945834717
 51
135.3490989821875
  0
ARC
  5
8F19
330
1F
100
AcDbEntity
  8
CONTINUOUS1
100
AcDbCircle
 10
57.62731753750248
 20
23.14853178901926
 30
0.0
 40
0.75
100
AcDbArc
 50
248.2344794583471
 51
315.3490989821875
  0
CIRCLE
  5
8F1A
330
1F
100
AcDbEntity
  8
CONTINUOUS1
100
AcDbCircle
 10
57.62731753750248
 20
23.14853178901926
 30
0.0
 40
0.2525
  0
ARC
  5
8F1B
330
1F
100
AcDbEntity
  8
CONTINUOUS1
100
AcDbCircle
 10
56.13766877030796
 20
22.83755073218198
 30
0.0
 40
2.162622399633056
100
AcDbArc
 50
354.9936334146253
 51
28.58994502590656
  0
LINE
  5
8F1C
330
1F
100
AcDbEntity
  8
CONTINUOUS1
100
AcDbLine
 10
55.30438109286961
 20
22.02511857215175
 30
0.0
 11
55.2405199138028
 21
22.33102378591607
 31
0.0
  0
LINE
  5
8F1D
330
1F
100
AcDbEntity
  8
CONTINUOUS1
100
AcDbLine
 10
55.80731753750246
 20
22.1301122528893
 30
0.0
 11
55.80731753750246
 21
21.78330661695534
 31
0.0
  0
LINE
  5
8F1E
330
1F
100
AcDbEntity
  8
CONTINUOUS1
100
AcDbLine
 10
55.11279755566917
 20
22.94283421344472
 30
0.0
 11
54.84563450597729
 21
22.88706090004983
 31
0.0
  0
LINE
  5
8F1F
330
1F
100
AcDbEntity
  8
CONTINUOUS1
100
AcDbLine
 10
55.2405199138028
 20
22.33102378591607
 30
0.0
 11
54.97335686411091
 21
22.27525047252118
 31
0.0
  0
LINE
  5
8F20
330
1F
100
AcDbEntity
  8
CONTINUOUS1
100
AcDbLine
 10
54.97335686411091
 20
22.27525047252118
 30
0.0
 11
54.84563450597729
 21
22.88706090004983
 31
0.0
  0
LINE
  5
8F21
330
1F
100
AcDbEntity
  8
CONTINUOUS1
100
AcDbLine
 10
55.11279755566917
 20
22.94283421344472
 30
0.0
 11
55.04893637660237
 21
23.24873942720905
 31
0.0
  0
LINE
  5
8F22
330
1F
100
AcDbEntity
  8
CONTINUOUS1
100
AcDbLine
 10
54.66877264003615
 20
22.27468905683048
 30
0.0
 11
54.56626532245955
 21
22.76571542611926
 31
0.0
  0
LINE
  5
8F23
330
1F
100
AcDbEntity
  8
CONTINUOUS1
100
AcDbLine
 10
55.17293717553954
 20
22.28726493259514
 30
0.0
 11
54.77611546924709
 21
22.20442390569239
 31
0.0
  0
LINE
  5
8F24
330
1F
100
AcDbEntity
  8
CONTINUOUS1
100
AcDbLine
 10
55.03335217989008
 20
22.95589928223294
 30
0.0
 11
54.63653047359763
 21
22.8730582553302
 31
0.0
  0
ARC
  5
8F25
330
1F
100
AcDbEntity
  8
CONTINUOUS1
100
AcDbCircle
 10
54.65506931263407
 20
22.78425426515569
 30
0.0
 40
0.0907184502939365
100
AcDbArc
 50
101.7917892202676
 51
191.7917892202667
  0
ARC
  5
8F26
330
1F
100
AcDbEntity
  8
CONTINUOUS1
100
AcDbCircle
 10
54.75757663021067
 20
22.2932278958669
 30
0.0
 40
0.0907184502939365
100
AcDbArc
 50
191.7917892202667
 51
281.7917892202679
  0
ARC
  5
8F27
330
1F
100
AcDbEntity
  8
CONTINUOUS1
100
AcDbCircle
 10
54.83688008809739
 20
22.63393508002613
 30
0.0
 40
0.0240553617680915
100
AcDbArc
 50
101.7917892202676
 51
191.7917892202667
  0
LINE
  5
8F28
330
1F
100
AcDbEntity
  8
CONTINUOUS1
100
AcDbLine
 10
54.84051373149646
 20
22.49881619967732
 30
0.0
 11
54.81333237422909
 21
22.62901922797689
 31
0.0
  0
LINE
  5
8F29
330
1F
100
AcDbEntity
  8
CONTINUOUS1
100
AcDbLine
 10
54.92800221572704
 20
22.49250645826742
 30
0.0
 11
54.868977297414
 21
22.48018433785826
 31
0.0
  0
ARC
  5
8F2A
330
1F
100
AcDbEntity
  8
CONTINUOUS1
100
AcDbCircle
 10
54.86406144536476
 20
22.50373205172656
 30
0.0
 40
0.0240553617680915
100
AcDbArc
 50
191.7917892202667
 51
281.7917892202679
  0
LINE
  5
8F2B
330
1F
100
AcDbEntity
  8
CONTINUOUS1
100
AcDbLine
 10
54.89098915436116
 20
22.6698049143036
 30
0.0
 11
54.83196423604815
 21
22.65748279389444
 31
0.0
  0
LINE
  5
8F2C
330
1F
100
AcDbEntity
  8
CONTINUOUS1
100
AcDbLine
 10
54.85890138671453
 20
22.66310622927524
 30
0.0
 11
54.89591444808038
 21
22.48580777323907
 31
0.0
  0
LINE
  5
8F2D
330
1F
100
AcDbEntity
  8
CONTINUOUS1
100
AcDbLine
 10
55.49913048759242
 20
22.06577471467546
 30
0.0
 11
55.30438109286961
 21
22.02511857215175
 31
0.0
  0
CIRCLE
  5
8F2E
330
1F
100
AcDbEntity
  8
CONTINUOUS1
100
AcDbCircle
 10
55.4882119720549
 20
22.70411577765631
 30
0.0
 40
0.18038499458108
  0
CIRCLE
  5
8F2F
330
1F
100
AcDbEntity
  8
CONTINUOUS1
100
AcDbCircle
 10
55.4882119720549
 20
22.70411577765631
 30
0.0
 40
0.1490659683839875
  0
LINE
  5
8F30
330
1F
100
AcDbEntity
  8
CONTINUOUS1
100
AcDbLine
 10
55.44018020179547
 20
22.4575747337462
 30
0.0
 11
55.61010514544125
 21
22.48231150023286
 31
0.0
  0
LINE
  5
8F31
330
1F
100
AcDbEntity
  8
CONTINUOUS1
100
AcDbLine
 10
55.45446962282742
 20
22.36260326147695
 30
0.0
 11
55.62394021418211
 21
22.38727388578172
 31
0.0
  0
LINE
  5
8F32
330
1F
100
AcDbEntity
  8
CONTINUOUS1
100
AcDbLine
 10
55.46976787790598
 20
22.2609267971393
 30
0.0
 11
55.6387520396685
 21
22.28552660961989
 31
0.0
  0
LINE
  5
8F33
330
1F
100
AcDbEntity
  8
CONTINUOUS1
100
AcDbLine
 10
55.37084907119561
 20
22.91836873879613
 30
0.0
 11
55.54297849590206
 21
22.94342642187131
 31
0.0
  0
LINE
  5
8F34
330
1F
100
AcDbEntity
  8
CONTINUOUS1
100
AcDbLine
 10
55.35555081611704
 20
23.02004520313378
 30
0.0
 11
55.52816667041566
 21
23.04517369803315
 31
0.0
  0
LINE
  5
8F35
330
1F
100
AcDbEntity
  8
CONTINUOUS1
100
AcDbLine
 10
55.34126139508508
 20
23.11501667540303
 30
0.0
 11
55.5143316016748
 21
23.14021131248428
 31
0.0
  0
LINE
  5
8F36
330
1F
100
AcDbEntity
  8
CONTINUOUS1
100
AcDbLine
 10
55.3261907400721
 20
23.21518044631049
 30
0.0
 11
55.49974013938895
 21
23.24044484171172
 31
0.0
  0
LINE
  5
8F37
330
1F
100
AcDbEntity
  8
CONTINUOUS1
100
AcDbLine
 10
55.52083633307312
 20
21.92151161979297
 30
0.0
 11
55.42870712102202
 21
22.53382802421064
 31
0.0
  0
LINE
  5
8F38
330
1F
100
AcDbEntity
  8
CONTINUOUS1
100
AcDbLine
 10
55.68826175458369
 20
21.94542817672958
 30
0.0
 11
55.59858601031995
 21
22.56144020880487
 31
0.0
  0
LINE
  5
8F39
330
1F
100
AcDbEntity
  8
CONTINUOUS1
100
AcDbLine
 10
55.3812329858673
 20
22.84935434961393
 30
0.0
 11
55.32619074007211
 21
23.21518044631049
 31
0.0
  0
LINE
  5
8F3A
330
1F
100
AcDbEntity
  8
CONTINUOUS1
100
AcDbLine
 10
55.55332715005226
 20
22.87233813010802
 30
0.0
 11
55.49974013938895
 21
23.24044484171173
 31
0.0
  0
LINE
  5
8F3B
330
1F
100
AcDbEntity
  8
CONTINUOUS1
100
AcDbLine
 10
55.38295455191335
 20
23.17013594380473
 30
0.0
 11
55.45997330273346
 21
23.17932148015803
 31
0.0
  0
LINE
  5
8F3C
330
1F
100
AcDbEntity
  8
CONTINUOUS1
100
AcDbLine
 10
55.3972491674659
 20
23.07966385428322
 30
0.0
 11
55.47426791828602
 21
23.08884939063652
 31
0.0
  0
LINE
  5
8F3D
330
1F
100
AcDbEntity
  8
CONTINUOUS1
100
AcDbLine
 10
55.41630865486934
 20
22.97966837080281
 30
0.0
 11
55.49332740568946
 21
22.98885390715611
 31
0.0
  0
LINE
  5
8F3E
330
1F
100
AcDbEntity
  8
CONTINUOUS1
100
AcDbLine
 10
55.48301669504664
 20
22.49397589125121
 30
0.0
 11
55.56003544586676
 21
22.50316142760451
 31
0.0
  0
LINE
  5
8F3F
330
1F
100
AcDbEntity
  8
CONTINUOUS1
100
AcDbLine
 10
55.49731114486454
 20
22.41302719568857
 30
0.0
 11
55.57432989568465
 21
22.42221273204187
 31
0.0
  0
LINE
  5
8F40
330
1F
100
AcDbEntity
  8
CONTINUOUS1
100
AcDbLine
 10
55.51637063226798
 20
22.32255510616704
 30
0.0
 11
55.59338938308809
 21
22.33174064252034
 31
0.0
  0
LINE
  5
8F41
330
1F
100
AcDbEntity
  8
CONTINUOUS1
100
AcDbLine
 10
55.42107352672019
 20
22.88443453327255
 30
0.0
 11
55.49809227754031
 21
22.89362006962585
 31
0.0
  0
TEXT
  5
8F42
330
1F
100
AcDbEntity
  8
TEXT1
100
AcDbText
 10
4.371188855976349
 20
25.21138990795223
 30
0.0
 40
0.4
  1
NOTE:  LEFT HAND MOUNTING  AVAILABLE
  7
SIMPLEX
100
AcDbText
  0
DIMENSION
  5
8F43
330
1F
100
AcDbEntity
  8
DIM
100
AcDbDimension
  2
*D18
 10
59.50731753750247
 20
27.42397764351084
 30
0.0
 11
57.65731753750247
 21
27.42397764351084
 31
0.0
 70
    32
  3
SCHNEIDERELECTRIC
100
AcDbAlignedDimension
 13
55.80731753750247
 23
25.58975508901928
 33
0.0
 14
59.50731753750247
 24
25.76653178901926
 34
0.0
100
AcDbRotatedDimension
1001
ACAD
1000
DSTYLE
1002
{
1070
   171
1070
     0
1070
   170
1070
     1
1070
    40
1040
4.0
1002
}
  0
DIMENSION
  5
8F44
330
1F
100
AcDbEntity
  8
DIM
100
AcDbDimension
  2
*D19
 10
62.15669550450444
 20
19.57653178901927
 30
0.0
 11
62.15669550450443
 21
22.67153178901927
 31
0.0
 70
   160
  3
SCHNEIDERELECTRIC
100
AcDbAlignedDimension
 13
59.50731753750247
 23
25.76653178901926
 33
0.0
 14
57.89531034073684
 24
19.57653178901927
 34
0.0
 50
90.0
100
AcDbRotatedDimension
1001
ACAD
1000
DSTYLE
1002
{
1070
   171
1070
     0
1070
   170
1070
     1
1070
    40
1040
4.0
1002
}
  0
LINE
  5
91F6
330
1F
100
AcDbEntity
  8
HIDDEN1
100
AcDbLine
 10
37.48227800899442
 20
25.5442721420906
 30
0.0
 11
45.14193337572931
 21
25.54427214209059
 31
0.0
  0
LINE
  5
91F7
330
1F
100
AcDbEntity
  8
HIDDEN1
100
AcDbLine
 10
41.49102997696211
 20
33.16662928211498
 30
0.0
 11
45.14193337572931
 21
33.16662928211498
 31
0.0
  0
LINE
  5
91F8
330
1F
100
AcDbEntity
  8
DIM
100
AcDbLine
 10
44.89193337572931
 20
26.0442721420906
 30
0.0
 11
44.89193337572931
 21
29.03545071210279
 31
0.0
  0
LINE
  5
91F9
330
1F
100
AcDbEntity
  8
DIM
100
AcDbLine
 10
44.89193337572931
 20
32.66662928211498
 30
0.0
 11
44.89193337572931
 21
29.67545071210279
 31
0.0
  0
SOLID
  5
91FA
330
1F
100
AcDbEntity
  8
DIM
100
AcDbTrace
 10
44.80860004239597
 20
26.0442721420906
 30
0.0
 11
44.97526670906265
 21
26.0442721420906
 31
0.0
 12
44.89193337572931
 22
25.54427214209059
 32
0.0
 13
44.89193337572931
 23
25.54427214209059
 33
0.0
  0
SOLID
  5
91FB
330
1F
100
AcDbEntity
  8
DIM
100
AcDbTrace
 10
44.80860004239597
 20
32.66662928211498
 30
0.0
 11
44.97526670906265
 21
32.66662928211498
 31
0.0
 12
44.89193337572931
 22
33.16662928211498
 32
0.0
 13
44.89193337572931
 23
33.16662928211498
 33
0.0
  0
MTEXT
  5
91FC
330
1F
100
AcDbEntity
  8
DIM
100
AcDbMText
 10
44.8919333757293
 20
29.35545071210279
 30
0.0
 40
0.32
 41
0.0
 71
     5
 72
     1
  1
\A1;X
  7
ROMANS
1001
ACAD
1000
MTEXTBEGIN
1070
    73
1070
     1
1070
    44
1040
1.0
1070
    74
1070
     0
1000
MTEXTEND
1000
MTEXTBEGIN
1070
    73
1070
     1
1070
    44
1040
1.0
1070
    74
1070
     0
1000
MTEXTEND
1000
MTEXTBEGIN
1070
    73
1070
     1
1070
    44
1040
1.0
1070
    74
1070
     0
1000
MTEXTEND
  0
DIMENSION
  5
93DD
330
1F
100
AcDbEntity
  8
DIM
100
AcDbDimension
  2
*D20
 10
33.84799308602057
 20
20.69990516468561
 30
0.0
 11
26.90593153389611
 21
17.70767115181333
 31
0.0
 70
   163
  3
SCHNEIDERELECTRIC
100
AcDbDiametricDimension
 15
33.65840384987468
 25
20.58829906477339
 35
0.0
 40
0.0
1001
ACAD
1000
DSTYLE
1002
{
1070
   171
1070
     0
1070
   170
1070
     1
1070
    40
1040
4.0
1002
}
  0
VIEWPORT
  5
32
330
1B
100
AcDbEntity
 67
     1
  8
0
100
AcDbViewport
 10
8.197700928165527
 20
5.057849811637932
 30
0.0
 40
17.61012029192862
 41
11.08418343133449
 68
     1
 69
     1
1001
ACAD
1000
MVIEW
1002
{
1070
    16
1010
0.0
1020
0.0
1030
0.0
1010
0.0
1020
0.0
1030
1.0
1040
0.0
1040
11.08418343133449
1040
8.197700928165527
1040
5.057849811637932
1040
50.0
1040
0.0
1040
0.0
1070
     0
1070
   100
1070
     1
1070
     0
1070
     0
1070
     0
1070
     0
1070
     0
1040
0.0
1040
0.0
1040
0.0
1040
0.5
1040
0.5
1040
0.5
1040
0.5
1070
     0
1002
{
1002
}
1002
}
  0
LWPOLYLINE
  5
175
330
1B
100
AcDbEntity
 67
     1
  8
VIEWPORT
100
AcDbPolyline
 90
        6
 70
     1
 43
0.0
 10
16.40000099999999
 20
10.25
 10
16.40000099999999
 20
0.9120019999999993
 10
8.002461
 20
0.9120019999999993
 10
8.002461
 20
0.0
 10
0.0
 20
0.0
 10
0.0
 20
10.25
1001
GENIUS_GENOREF_13
1005
0
1005
0
1005
0
1005
0
1005
0
1005
0
1005
0
  0
VIEWPORT
  5
177
330
1B
100
AcDbEntity
 67
     1
  8
VIEWPORT
100
AcDbViewport
 10
8.200000499999999
 20
5.125
 30
0.0
 40
16.40000099999999
 41
10.25
 68
     2
 69
     2
1001
ACAD
1000
MVIEW
1002
{
1070
    16
1010
0.0
1020
0.0
1030
0.0
1010
0.0
1020
0.0
1030
1.0
1040
0.0
1040
41.0
1040
32.80041216930101
1040
20.61883952858893
1040
50.0
1040
0.0
1040
0.0
1070
     0
1070
   100
1070
     1
1070
     2
1070
     0
1070
     0
1070
     0
1070
     0
1040
0.0
1040
0.0
1040
0.0
1040
0.5
1040
0.5
1040
0.5
1040
0.5
1070
     0
1002
{
1002
}
1002
}
1001
GENIUS_GENOREF_13
1005
0
1005
0
1005
0
1005
0
1005
0
1005
0
1005
0
1001
GENIUS_GENSCREG_15
1000
PF
1040
0.0
1000
DF
1040
0.0
1000
MIN
1011
0.0
1021
0.0
1031
0.0
1000
MAX
1011
16.40000099999999
1021
10.25
1031
0.0
1000
FLAGS
1070
     2
  0
INSERT
  5
B2C
330
1B
100
AcDbEntity
 67
     1
  8
TITLEBLOCK
100
AcDbBlockReference
 66
     1
  2
TITLE-PAD
 10
0.0
 20
0.0
 30
0.0
  0
ATTRIB
  5
B2D
330
B2C
100
AcDbEntity
 67
     1
  8
TEXT1
 62
     0
100
AcDbText
 10
9.054219301318941
 20
0.6974460884590166
 30
0.0
 40
0.1
  1
3 POLE CIRCUIT BREAKER 
  7
ROMANS
 72
     4
 11
10.10183834893798
 21
0.7474460884590166
 31
0.0
100
AcDbAttribute
  2
DESCRIPTION 1
 70
     0
  0
ATTRIB
  5
B2E
330
B2C
100
AcDbEntity
 67
     1
  8
TEXT1
 62
     0
100
AcDbText
 10
8.870885967985607
 20
0.5517231711406716
 30
0.0
 40
0.1
  1
 CABLE OPERATOR MECHANISM
  7
ROMANS
 72
     4
 11
10.10183834893798
 21
0.6017231711406717
 31
0.0
100
AcDbAttribute
  2
DESCRIPTION 2
 70
     0
  0
ATTRIB
  5
B2F
330
B2C
100
AcDbEntity
 67
     1
  8
TEXT1
 62
     0
100
AcDbText
 10
8.821838348937989
 20
0.4236193014413744
 30
0.0
 40
0.08
  1
CLASS 9422 TYPE CSF30, CSF50, CSF10
  7
ROMANS
 72
     4
 11
10.10183834893798
 21
0.4560002538223267
 31
0.0
100
AcDbAttribute
  2
DESCRIPTION 3
 70
     0
  0
ATTRIB
  5
B30
330
B2C
100
AcDbEntity
 67
     1
  8
TEXT1
 62
     0
100
AcDbText
 10
9.981838348937989
 20
0.3202773365039833
 30
0.0
 40
0.08
  1
   
  7
ROMANS
 72
     4
 11
10.10183834893798
 21
0.3202773365039833
 31
0.0
100
AcDbAttribute
  2
DESCRIPTION 4
 70
     0
  0
ATTRIB
  5
B31
330
B2C
100
AcDbEntity
 67
     1
  8
TEXT1
 62
     0
100
AcDbText
 10
10.10183834893798
 20
0.1845544191856399
 30
0.0
 40
0.08
  1

  7
ROMANS
 72
     4
 11
10.10183834893798
 21
0.1845544191856399
 31
0.0
100
AcDbAttribute
  2
DESCRIPTION 5
 70
     0
  0
ATTRIB
  5
B32
330
B2C
100
AcDbEntity
 67
     1
  8
TEXT1
 62
     0
100
AcDbText
 10
12.74772367103195
 20
0.096540546036505
 30
0.0
 40
0.12
  1
9422_SCF_OUTLINE_001
 41
0.9512024731840066
  7
M_STANDARD
 11
12.74772367103195
 21
0.156540546036505
 31
0.0
100
AcDbAttribute
  2
DWGNO
 70
     0
 74
     2
  0
ATTRIB
  5
B33
330
B2C
100
AcDbEntity
 67
     1
  8
TEXT1
 62
     0
100
AcDbText
 10
15.78363597806468
 20
-0.1507193079929352
 30
0.0
 40
0.08
  1
E0105701
  7
ROMANS
 72
     2
 11
16.35506454949325
 21
-0.1107193079929352
 31
0.0
100
AcDbAttribute
  2
REF
 70
     0
 74
     2
  0
ATTRIB
  5
B34
330
B2C
100
AcDbEntity
 67
     1
  8
TEXT1
 62
     0
100
AcDbText
 10
0.0266402374038712
 20
-0.1507193079929352
 30
0.0
 40
0.08
  1
FEBRUARY 2001
  7
ROMANS
 11
0.0266402374038712
 21
-0.1107193079929352
 31
0.0
100
AcDbAttribute
  2
DATE
 70
     0
 74
     2
  0
SEQEND
  5
B35
330
B2C
100
AcDbEntity
 67
     1
  8
0
  0
INSERT
  5
D86
330
1B
100
AcDbEntity
 67
     1
  8
TITLEBLOCK
100
AcDbBlockReference
  2
OEM-NOTES
 10
0.0
 20
0.0
 30
0.0
 41
0.5
 42
0.5
 43
0.5
  0
ENDSEC
  0
SECTION
  2
OBJECTS
  0
DICTIONARY
  5
C
330
0
100
AcDbDictionary
  3
ACAD_GROUP
350
D
  3
ACAD_LAYOUT
350
1A
  3
ACAD_MLINESTYLE
350
17
  3
ACAD_PLOTSETTINGS
350
19
  3
ACAD_PLOTSTYLENAME
350
E
  3
ACADDIM
350
806A
  3
ACDBHEADERROUNDTRIPXREC
350
99B8
  3
ACDBVARIABLEDICTIONARY
350
374
  3
ACMDICTIONARY
350
383
  3
AMG
350
36B
  3
AMGSNAPSETTINGS
350
399
  3
ASE_INDEX_DICTIONARY
350
6A
  3
DWGPROPS
350
CB4
  0
DICTIONARY
  5
73
330
1F
100
AcDbDictionary
280
     1
  3
ACAD_INDEX
360
CB8
  3
ACAD_LAYOUTSELFREF
360
99DA
  0
DICTIONARY
  5
75
330
1B
100
AcDbDictionary
280
     1
  3
ACAD_LAYOUTSELFREF
360
99D9
  0
DICTIONARY
  5
D
102
{ACAD_REACTORS
330
C
102
}
330
C
100
AcDbDictionary
  0
DICTIONARY
  5
1A
102
{ACAD_REACTORS
330
C
102
}
330
C
100
AcDbDictionary
  0
DICTIONARY
  5
17
102
{ACAD_REACTORS
330
C
102
}
330
C
100
AcDbDictionary
  3
STANDARD
350
18
  0
DICTIONARY
  5
19
102
{ACAD_REACTORS
330
C
102
}
330
C
100
AcDbDictionary
  3
A_SIZE_PAPER
350
2FF
  3
B_SIZE_PAPER
350
2FD
  3
D_SIZE_PAPER
350
2FE
  0
ACDBDICTIONARYWDFLT
  5
E
102
{ACAD_REACTORS
330
C
102
}
330
C
100
AcDbDictionary
281
     1
  3
Normal
350
F
100
AcDbDictionaryWithDefault
340
F
  0
XRECORD
  5
806A
102
{ACAD_REACTORS
330
C
102
}
330
C
100
AcDbXrecord
 90
   990106
  3

 60
     0
 61
     0
 62
     1
 63
     3
 64
     0
 65
     0
 66
     0
 67
     3
 68
     1
 69
     0
 70
     0
 71
     0
 72
     0
 40
0.0
170
     0
  0
DICTIONARY
  5
99B8
102
{ACAD_REACTORS
330
C
102
}
330
C
100
AcDbDictionary
  3
CEPSNTYPE
350
99C2
  3
DIMSTYLEDATA
350
99C6
  3
FINGERPRINTGUID
350
99C3
  3
HYPERLINKBASE
350
99BB
  3
INSUNITS
350
99C1
  3
LAYOUTDICT
350
99BD
  3
LWETCUNION
350
99C0
  3
PLOTSETDICT
350
99BE
  3
PLOTSTYLNAMDICT
350
99BF
  3
PSVPSCALE
350
99C5
  3
PUCSBASE
350
99C9
  3
PUCSORGBACK
350
99CF
  3
PUCSORGBOTTOM
350
99CB
  3
PUCSORGFRONT
350
99CE
  3
PUCSORGLEFT
350
99CC
  3
PUCSORGRIGHT
350
99CD
  3
PUCSORGTOP
350
99CA
  3
PUCSORTHOREF
350
99C7
  3
PUCSORTHOVIEW
350
99C8
  3
STYLESHEET
350
99BC
  3
TSTACKALIGN
350
99B9
  3
TSTACKSIZE
350
99BA
  3
UCSBASE
350
99D2
  3
UCSORGBACK
350
99D8
  3
UCSORGBOTTOM
350
99D4
  3
UCSORGFRONT
350
99D7
  3
UCSORGLEFT
350
99D5
  3
UCSORGRIGHT
350
99D6
  3
UCSORGTOP
350
99D3
  3
UCSORTHOREF
350
99D0
  3
UCSORTHOVIEW
350
99D1
  3
VERSIONGUID
350
99C4
  0
DICTIONARY
  5
374
102
{ACAD_REACTORS
330
C
102
}
330
C
100
AcDbDictionary
  3
INDEXCTL
350
375
  0
DICTIONARY
  5
383
102
{ACAD_REACTORS
330
C
102
}
330
C
100
AcDbDictionary
  0
DICTIONARY
  5
36B
102
{ACAD_REACTORS
330
C
102
}
330
C
100
AcDbDictionary
  3
ACMGSETTINGS
350
36C
  0
DICTIONARY
  5
399
102
{ACAD_REACTORS
330
C
102
}
330
C
100
AcDbDictionary
  0
DICTIONARY
  5
6A
102
{ACAD_REACTORS
330
C
102
}
330
C
100
AcDbDictionary
  3
ASEBLOCKHIERARCHYINDEXRECORD
350
6C
1001
DCO15
1040
1379130883.246999
  0
XRECORD
  5
CB4
102
{ACAD_REACTORS
330
C
102
}
330
C
100
AcDbXrecord
  1
DWGPROPS COOKIE
  2

  3

  4

  6

  7

  8
mgp706
  9

300
AmdtFileType=84
301
=
302
=
303
=
304
=
305
=
306
=
307
=
308
=
309
=
 40
0.2107598032407407
 41
2451764.535041909
 42
2451851.591606284
  1

 90
        1
  0
DICTIONARY
  5
CB8
102
{ACAD_REACTORS
330
73
102
}
330
73
100
AcDbDictionary
  3
*A1
350
CB9
  0
XRECORD
  5
99DA
102
{ACAD_REACTORS
330
73
102
}
330
73
100
AcDbXrecord
340
1F
  0
XRECORD
  5
99D9
102
{ACAD_REACTORS
330
75
102
}
330
75
100
AcDbXrecord
340
1B
  0
MLINESTYLE
  5
18
102
{ACAD_REACTORS
330
17
102
}
330
17
100
AcDbMlineStyle
  2
STANDARD
 70
     0
  3

 62
   256
 51
90.0
 52
90.0
 71
     2
 49
0.5
 62
   256
  6
BYLAYER
 49
-0.5
 62
   256
  6
BYLAYER
  0
PLOTSETTINGS
  5
2FF
102
{ACAD_REACTORS
330
19
102
}
330
19
100
AcDbPlotSettings
  1
A Size Paper
  2
none_device
  4
ANSI_A_(8.50_x_11.00_Inches)
  6

 40
6.349999904632568
 41
19.04999923706054
 42
6.350006103515625
 43
19.04998779296875
 44
215.8999938964843
 45
279.3999938964843
 46
19.04999999999999
 47
-9.651999999999999
 48
0.0
 49
0.0
140
0.0
141
0.0
142
1.0
143
1.6
 70
   740
 72
     0
 73
     1
 74
     1
  7
monochrome.ctb
 75
     0
147
0.625
148
0.0034886547032954
149
0.0199946439100934
  0
PLOTSETTINGS
  5
2FD
102
{ACAD_REACTORS
330
19
102
}
330
19
100
AcDbPlotSettings
  1
B Size Paper
  2
none_device
  4
ANSI_B_(11.00_x_17.00_Inches)
  6

 40
6.349999904632568
 41
19.04999923706054
 42
6.350006103515625
 43
19.04998779296875
 44
279.3999938964843
 45
431.7999877929687
 46
1.27
 47
-11.43
 48
0.0
 49
0.0
140
0.0
141
0.0
142
1.0
143
1.0
 70
   756
 72
     0
 73
     1
 74
     1
  7
monochrome.ctb
 75
    16
147
1.0
148
0.0034886547032954
149
0.0199946439100934
  0
PLOTSETTINGS
  5
2FE
102
{ACAD_REACTORS
330
19
102
}
330
19
100
AcDbPlotSettings
  1
D Size Paper
  2
none_device
  4
ANSI_D_(22.00_x_34.00_Inches)
  6

 40
6.349999904632568
 41
19.04999923706054
 42
6.3499755859375
 43
19.04998779296875
 44
558.7999877929687
 45
863.5999755859375
 46
8.889999999999998
 47
-3.809999999999999
 48
0.0
 49
0.0
140
0.0
141
0.0
142
1.0
143
0.5
 70
   740
 72
     0
 73
     1
 74
     1
  7
monochrome.ctb
 75
     0
147
2.0
148
0.0034886547032954
149
0.0199946439100934
  0
ACDBPLACEHOLDER
  5
F
102
{ACAD_REACTORS
330
E
102
}
330
E
100
AcDbPlaceHolder
280
     0
  0
XRECORD
  5
99C2
102
{ACAD_REACTORS
330
99B8
102
}
330
99B8
100
AcDbXrecord
 90
        0
  0
XRECORD
  5
99C6
102
{ACAD_REACTORS
330
99B8
102
}
330
99B8
100
AcDbXrecord
1000
DSTYLE
1002
{
1070
    79
 70
     1
1070
   148
 40
0.1
1070
   371
 70
    -1
1070
   372
 70
    -1
1002
}
  0
XRECORD
  5
99C3
102
{ACAD_REACTORS
330
99B8
102
}
330
99B8
100
AcDbXrecord
  1
{4E694E3A-6C64-11D4-81E3-0004AC4461C9}
  0
XRECORD
  5
99BB
102
{ACAD_REACTORS
330
99B8
102
}
330
99B8
100
AcDbXrecord
  1

  0
XRECORD
  5
99C1
102
{ACAD_REACTORS
330
99B8
102
}
330
99B8
100
AcDbXrecord
 90
        1
  0
XRECORD
  5
99BD
102
{ACAD_REACTORS
330
99B8
102
}
330
99B8
100
AcDbXrecord
340
1A
  0
XRECORD
  5
99C0
102
{ACAD_REACTORS
330
99B8
102
}
330
99B8
100
AcDbXrecord
 90
    10269
  0
XRECORD
  5
99BE
102
{ACAD_REACTORS
330
99B8
102
}
330
99B8
100
AcDbXrecord
340
19
  0
XRECORD
  5
99BF
102
{ACAD_REACTORS
330
99B8
102
}
330
99B8
100
AcDbXrecord
340
E
  0
XRECORD
  5
99C5
102
{ACAD_REACTORS
330
99B8
102
}
330
99B8
100
AcDbXrecord
 40
1.0
  0
XRECORD
  5
99C9
102
{ACAD_REACTORS
330
99B8
102
}
330
99B8
100
AcDbXrecord
340
0
  0
XRECORD
  5
99CF
102
{ACAD_REACTORS
330
99B8
102
}
330
99B8
100
AcDbXrecord
 10
0.0
 20
0.0
 30
0.0
  0
XRECORD
  5
99CB
102
{ACAD_REACTORS
330
99B8
102
}
330
99B8
100
AcDbXrecord
 10
0.0
 20
0.0
 30
0.0
  0
XRECORD
  5
99CE
102
{ACAD_REACTORS
330
99B8
102
}
330
99B8
100
AcDbXrecord
 10
0.0
 20
0.0
 30
0.0
  0
XRECORD
  5
99CC
102
{ACAD_REACTORS
330
99B8
102
}
330
99B8
100
AcDbXrecord
 10
0.0
 20
0.0
 30
0.0
  0
XRECORD
  5
99CD
102
{ACAD_REACTORS
330
99B8
102
}
330
99B8
100
AcDbXrecord
 10
0.0
 20
0.0
 30
0.0
  0
XRECORD
  5
99CA
102
{ACAD_REACTORS
330
99B8
102
}
330
99B8
100
AcDbXrecord
 10
0.0
 20
0.0
 30
0.0
  0
XRECORD
  5
99C7
102
{ACAD_REACTORS
330
99B8
102
}
330
99B8
100
AcDbXrecord
340
0
  0
XRECORD
  5
99C8
102
{ACAD_REACTORS
330
99B8
102
}
330
99B8
100
AcDbXrecord
 70
     0
  0
XRECORD
  5
99BC
102
{ACAD_REACTORS
330
99B8
102
}
330
99B8
100
AcDbXrecord
  1

  0
XRECORD
  5
99B9
102
{ACAD_REACTORS
330
99B8
102
}
330
99B8
100
AcDbXrecord
 90
        1
  0
XRECORD
  5
99BA
102
{ACAD_REACTORS
330
99B8
102
}
330
99B8
100
AcDbXrecord
 90
       70
  0
XRECORD
  5
99D2
102
{ACAD_REACTORS
330
99B8
102
}
330
99B8
100
AcDbXrecord
340
0
  0
XRECORD
  5
99D8
102
{ACAD_REACTORS
330
99B8
102
}
330
99B8
100
AcDbXrecord
 10
0.0
 20
0.0
 30
0.0
  0
XRECORD
  5
99D4
102
{ACAD_REACTORS
330
99B8
102
}
330
99B8
100
AcDbXrecord
 10
0.0
 20
0.0
 30
0.0
  0
XRECORD
  5
99D7
102
{ACAD_REACTORS
330
99B8
102
}
330
99B8
100
AcDbXrecord
 10
0.0
 20
0.0
 30
0.0
  0
XRECORD
  5
99D5
102
{ACAD_REACTORS
330
99B8
102
}
330
99B8
100
AcDbXrecord
 10
0.0
 20
0.0
 30
0.0
  0
XRECORD
  5
99D6
102
{ACAD_REACTORS
330
99B8
102
}
330
99B8
100
AcDbXrecord
 10
0.0
 20
0.0
 30
0.0
  0
XRECORD
  5
99D3
102
{ACAD_REACTORS
330
99B8
102
}
330
99B8
100
AcDbXrecord
 10
0.0
 20
0.0
 30
0.0
  0
XRECORD
  5
99D0
102
{ACAD_REACTORS
330
99B8
102
}
330
99B8
100
AcDbXrecord
340
0
  0
XRECORD
  5
99D1
102
{ACAD_REACTORS
330
99B8
102
}
330
99B8
100
AcDbXrecord
 70
     0
  0
XRECORD
  5
99C4
102
{ACAD_REACTORS
330
99B8
102
}
330
99B8
100
AcDbXrecord
  1
{B6EAA534-0C2A-11D5-B1B2-000629309E34}
  0
DICTIONARYVAR
  5
375
102
{ACAD_REACTORS
330
374
102
}
330
374
100
DictionaryVariables
280
     0
  1
1
  0
DICTIONARY
  5
36C
102
{ACAD_REACTORS
330
36B
102
}
330
36B
100
AcDbDictionary
  3
DWGSETTINGS
350
CA0
  0
XRECORD
  5
6C
102
{ACAD_REACTORS
330
6A
102
}
330
6A
100
AcDbXrecord
  0
LAYER_INDEX
  5
CB9
102
{ACAD_REACTORS
330
CB8
102
}
330
CB8
100
AcDbIndex
 40
2451967.661402534
100
AcDbLayerIndex
  8
0
360
CBA
 90
        1
  8
BLOCKS
360
CBB
 90
        0
  8
CENTER1
360
CBC
 90
        0
  8
CENTER2
360
CBD
 90
        4
  8
CENTER3
360
CBE
 90
        0
  8
CONSTRUCTION
360
CBF
 90
        0
  8
CONTINUOUS1
360
CC0
 90
      431
  8
CONTINUOUS2
360
CC1
 90
       49
  8
CONTINUOUS3
360
CC2
 90
        0
  8
DASHDOT1
360
CC3
 90
        0
  8
DASHDOT2
360
CC4
 90
        0
  8
DASHDOT3
360
CC5
 90
        0
  8
DIM
360
CC6
 90
       21
  8
HIDDEN1
360
CC7
 90
        2
  8
HIDDEN2
360
CC8
 90
        0
  8
HIDDEN3
360
CC9
 90
        0
  8
PHANTOM1
360
CCA
 90
        0
  8
PHANTOM2
360
CCB
 90
        0
  8
PHANTOM3
360
CCC
 90
        0
  8
TEXT1
360
CCD
 90
       38
  8
TEXT2
360
CCE
 90
        0
  8
TEXT3
360
CCF
 90
        0
  8
TITLEBLOCK
360
CD0
 90
        0
  8
VIEWPORT
360
CD1
 90
        2
  8
MOUNTING
360
9362
 90
        0
  8
DEFPOINTS
360
9363
 90
        2
  0
XRECORD
  5
CA0
102
{ACAD_REACTORS
330
36C
102
}
330
36C
100
AcDbXrecord
  1
VERSION
140
15.0
  1
PRODUCT
  2
AutoCAD Mechanical 2000
  0
IDBUFFER
  5
CBA
330
0
100
AcDbIdBuffer
330
79E
  0
IDBUFFER
  5
CBB
330
0
100
AcDbIdBuffer
  0
IDBUFFER
  5
CBC
330
0
100
AcDbIdBuffer
  0
IDBUFFER
  5
CBD
330
0
100
AcDbIdBuffer
330
8E92
330
8E93
330
8E94
330
8E95
  0
IDBUFFER
  5
CBE
330
0
100
AcDbIdBuffer
  0
IDBUFFER
  5
CBF
330
0
100
AcDbIdBuffer
  0
IDBUFFER
  5
CC0
330
0
100
AcDbIdBuffer
330
8D1D
330
8D1E
330
8D1F
330
8D23
330
8D24
330
8D28
330
8D29
330
8D2C
330
8D30
330
8D31
330
8D3A
330
8D3C
330
8D3D
330
8D3E
330
8D3F
330
8D40
330
8D41
330
8D42
330
8D43
330
8D44
330
8D45
330
8D46
330
8D47
330
8D48
330
8D49
330
8D4A
330
8D4B
330
8D4C
330
8D4D
330
8D4E
330
8D4F
330
8D50
330
8D51
330
8D52
330
8D53
330
8D54
330
8D55
330
8D56
330
8D57
330
8D58
330
8D59
330
8D5A
330
8D5B
330
8D5C
330
8D5D
330
8D5E
330
8D5F
330
8D60
330
8D61
330
8D62
330
8D63
330
8D64
330
8D65
330
8D66
330
8D67
330
8D68
330
8D69
330
8D6A
330
8D6B
330
8D6C
330
8D6D
330
8D6E
330
8D6F
330
8D70
330
8D71
330
8D72
330
8D73
330
8D74
330
8D75
330
8D76
330
8D77
330
8D78
330
8D79
330
8D7A
330
8D7B
330
8D7C
330
8D7D
330
8D7E
330
8D7F
330
8D80
330
8D81
330
8D82
330
8D83
330
8D84
330
8D85
330
8D86
330
8D87
330
8D88
330
8D89
330
8D8A
330
8D8B
330
8D8C
330
8D8D
330
8D8E
330
8D8F
330
8D90
330
8D91
330
8D92
330
8D93
330
8D94
330
8D95
330
8D96
330
8D97
330
8D98
330
8D99
330
8D9A
330
8D9B
330
8D9C
330
8D9D
330
8D9E
330
8D9F
330
8DA0
330
8DA1
330
8DA2
330
8DA3
330
8DA4
330
8DA5
330
8DA6
330
8DA7
330
8DA8
330
8DA9
330
8DAA
330
8DAB
330
8DAC
330
8DAD
330
8DAE
330
8DAF
330
8DB0
330
8DB1
330
8DB2
330
8DB3
330
8DB4
330
8DB5
330
8DB6
330
8DB7
330
8DB8
330
8DB9
330
8DBA
330
8DBB
330
8DBC
330
8DBD
330
8DBE
330
8DBF
330
8DC0
330
8DC1
330
8DC2
330
8DC3
330
8DC4
330
8DC5
330
8DC6
330
8DC7
330
8DC8
330
8DC9
330
8DCA
330
8DCB
330
8DCC
330
8DCD
330
8DCE
330
8DCF
330
8DD0
330
8DD1
330
8DD2
330
8DD3
330
8DD4
330
8DD5
330
8DD6
330
8DD7
330
8DD8
330
8DD9
330
8DDA
330
8DDB
330
8DDC
330
8DDD
330
8DDE
330
8DDF
330
8DE0
330
8DE1
330
8DE2
330
8DE3
330
8DE4
330
8DE5
330
8DE6
330
8DE7
330
8DE8
330
8DE9
330
8DEA
330
8DEB
330
8DEC
330
8DED
330
8DEE
330
8DEF
330
8DF0
330
8DF1
330
8DF2
330
8DF3
330
8DF4
330
8DF5
330
8DF6
330
8DF7
330
8DF8
330
8DF9
330
8DFA
330
8DFB
330
8DFC
330
8DFD
330
8DFE
330
8DFF
330
8E00
330
8E01
330
8E02
330
8E03
330
8E04
330
8E05
330
8E06
330
8E07
330
8E08
330
8E09
330
8E0A
330
8E0B
330
8E0C
330
8E0D
330
8E0E
330
8E0F
330
8E10
330
8E11
330
8E12
330
8E13
330
8E14
330
8E15
330
8E16
330
8E17
330
8E18
330
8E19
330
8E1A
330
8E1B
330
8E1C
330
8E1D
330
8E1E
330
8E1F
330
8E20
330
8E21
330
8E22
330
8E23
330
8E24
330
8E25
330
8E26
330
8E27
330
8E28
330
8E29
330
8E2A
330
8E2B
330
8E2C
330
8E2D
330
8E2E
330
8E2F
330
8E30
330
8E31
330
8E32
330
8E33
330
8E34
330
8E35
330
8E36
330
8E37
330
8E38
330
8E39
330
8E3A
330
8E3B
330
8E3C
330
8E3D
330
8E3E
330
8E3F
330
8E40
330
8E41
330
8E42
330
8E43
330
8E44
330
8E45
330
8E46
330
8E47
330
8E48
330
8E49
330
8E4A
330
8E4B
330
8E4C
330
8E4D
330
8E4E
330
8E4F
330
8E50
330
8E51
330
8E52
330
8E53
330
8E54
330
8E55
330
8E56
330
8E57
330
8E58
330
8E59
330
8E5A
330
8E5B
330
8E5C
330
8E5D
330
8E5E
330
8E5F
330
8E60
330
8E61
330
8E62
330
8E63
330
8E64
330
8E65
330
8E66
330
8E67
330
8E68
330
8E69
330
8E6A
330
8E6B
330
8E6C
330
8E6D
330
8E6E
330
8E6F
330
8E70
330
8E71
330
8E72
330
8E73
330
8E74
330
8E75
330
8E76
330
8E77
330
8E78
330
8E79
330
8E7A
330
8E7B
330
8E7C
330
8E7D
330
8E7E
330
8E7F
330
8E80
330
8E81
330
8E82
330
8E83
330
8E84
330
8E87
330
8E88
330
8E89
330
8E8A
330
8E8B
330
8E8C
330
8E8D
330
8E8E
330
8E8F
330
8E90
330
8EA9
330
8EC2
330
8EC3
330
8EC4
330
8EC5
330
8EC6
330
8ECF
330
8ED2
330
8ED5
330
8ED6
330
8ED7
330
8ED8
330
8EE1
330
8EE2
330
8EE6
330
8EE7
330
8EEA
330
8EEC
330
8EEF
330
8EF4
330
8EF5
330
8EF6
330
8EF7
330
8F08
330
8F09
330
8F0A
330
8F0B
330
8F0C
330
8F0D
330
8F0E
330
8F0F
330
8F10
330
8F11
330
8F12
330
8F13
330
8F14
330
8F15
330
8F16
330
8F17
330
8F18
330
8F19
330
8F1A
330
8F1B
330
8F1C
330
8F1D
330
8F1E
330
8F1F
330
8F20
330
8F21
330
8F22
330
8F23
330
8F24
330
8F25
330
8F26
330
8F27
330
8F28
330
8F29
330
8F2A
330
8F2B
330
8F2C
330
8F2D
330
8F2E
330
8F2F
330
8F30
330
8F31
330
8F32
330
8F33
330
8F34
330
8F35
330
8F36
330
8F37
330
8F38
330
8F39
330
8F3A
330
8F3B
330
8F3C
330
8F3D
330
8F3E
330
8F3F
330
8F40
330
8F41
  0
IDBUFFER
  5
CC1
330
0
100
AcDbIdBuffer
330
8E85
330
8E86
330
8E91
330
8E96
330
8E97
330
8E98
330
8E99
330
8E9A
330
8E9B
330
8E9C
330
8E9D
330
8E9E
330
8E9F
330
8EB3
330
8EB4
330
8EB5
330
8EB6
330
8EB7
330
8EBD
330
8EBE
330
8ECD
330
8ECE
330
8ED0
330
8ED1
330
8ED3
330
8ED4
330
8ED9
330
8EDA
330
8EDB
330
8EDC
330
8EDD
330
8EDE
330
8EDF
330
8EE0
330
8EE3
330
8EE4
330
8EE5
330
8EE8
330
8EE9
330
8EEB
330
8EEE
330
8EF8
330
8EFC
330
8EFD
330
8EFE
330
8EFF
330
8F00
330
8F01
330
8F02
  0
IDBUFFER
  5
CC2
330
0
100
AcDbIdBuffer
  0
IDBUFFER
  5
CC3
330
0
100
AcDbIdBuffer
  0
IDBUFFER
  5
CC4
330
0
100
AcDbIdBuffer
  0
IDBUFFER
  5
CC5
330
0
100
AcDbIdBuffer
  0
IDBUFFER
  5
CC6
330
0
100
AcDbIdBuffer
330
8EA2
330
8EA3
330
8EA4
330
8EAF
330
8EB0
330
8EB1
330
8EB2
330
8EF9
330
8F03
330
8F04
330
8F05
330
8F06
330
8F07
330
8F43
330
8F44
330
91F8
330
91F9
330
91FA
330
91FB
330
91FC
330
93DD
  0
IDBUFFER
  5
CC7
330
0
100
AcDbIdBuffer
330
91F6
330
91F7
  0
IDBUFFER
  5
CC8
330
0
100
AcDbIdBuffer
  0
IDBUFFER
  5
CC9
330
0
100
AcDbIdBuffer
  0
IDBUFFER
  5
CCA
330
0
100
AcDbIdBuffer
  0
IDBUFFER
  5
CCB
330
0
100
AcDbIdBuffer
  0
IDBUFFER
  5
CCC
330
0
100
AcDbIdBuffer
  0
IDBUFFER
  5
CCD
330
0
100
AcDbIdBuffer
330
8D0D
330
8D20
330
8D21
330
8D22
330
8D25
330
8D26
330
8D27
330
8D2A
330
8D2B
330
8D2D
330
8D2E
330
8D2F
330
8D32
330
8D33
330
8D34
330
8D35
330
8D36
330
8D37
330
8D38
330
8D39
330
8D3B
330
8EA0
330
8EA1
330
8EA5
330
8EA6
330
8EA7
330
8EAA
330
8EAB
330
8EAC
330
8EAD
330
8EAE
330
8EB9
330
8EBA
330
8EBB
330
8EBC
330
8EFA
330
8EFB
330
8F42
  0
IDBUFFER
  5
CCE
330
0
100
AcDbIdBuffer
  0
IDBUFFER
  5
CCF
330
0
100
AcDbIdBuffer
  0
IDBUFFER
  5
CD0
330
0
100
AcDbIdBuffer
  0
IDBUFFER
  5
CD1
330
0
100
AcDbIdBuffer
330
BF7
330
BF8
  0
IDBUFFER
  5
9362
330
0
100
AcDbIdBuffer
  0
IDBUFFER
  5
9363
330
0
100
AcDbIdBuffer
330
8EC0
330
8EED
  0
ENDSEC
  0
EOF
