  0
SECTION
  2
HEADER
  9
$ACADVER
  1
AC1014
  9
$ACADMAINTVER
 70
     0
  9
$DWGCODEPAGE
  3
ANSI_1252
  9
$INSBASE
 10
0.0
 20
0.0
 30
0.0
  9
$EXTMIN
 10
66.574215
 20
117.0
 30
0.0
  9
$EXTMAX
 10
128.0
 20
167.451127
 30
0.0
  9
$LIMMIN
 10
0.0
 20
0.0
  9
$LIMMAX
 10
210.0
 20
297.0
  9
$ORTHOMODE
 70
     0
  9
$REGENMODE
 70
     1
  9
$FILLMODE
 70
     1
  9
$QTEXTMODE
 70
     0
  9
$MIRRTEXT
 70
     1
  9
$DRAGMODE
 70
     2
  9
$LTSCALE
 40
10.0
  9
$OSMODE
 70
     0
  9
$ATTMODE
 70
     1
  9
$TEXTSIZE
 40
2.9
  9
$TRACEWID
 40
0.05
  9
$TEXTSTYLE
  7
ROMANS
  9
$CLAYER
  8
COTATION1
  9
$CELTYPE
  6
BYLAYER
  9
$CECOLOR
 62
   256
  9
$CELTSCALE
 40
1.0
  9
$DELOBJ
 70
     1
  9
$DISPSILH
 70
     0
  9
$DIMSCALE
 40
1.0
  9
$DIMASZ
 40
3.0
  9
$DIMEXO
 40
0.0625
  9
$DIMDLI
 40
0.38
  9
$DIMRND
 40
0.01
  9
$DIMDLE
 40
0.0
  9
$DIMEXE
 40
0.18
  9
$DIMTP
 40
0.0
  9
$DIMTM
 40
0.0
  9
$DIMTXT
 40
2.5
  9
$DIMCEN
 40
0.09
  9
$DIMTSZ
 40
0.0
  9
$DIMTOL
 70
     0
  9
$DIMLIM
 70
     0
  9
$DIMTIH
 70
     0
  9
$DIMTOH
 70
     0
  9
$DIMSE1
 70
     0
  9
$DIMSE2
 70
     0
  9
$DIMTAD
 70
     1
  9
$DIMZIN
 70
    12
  9
$DIMBLK
  1

  9
$DIMASO
 70
     1
  9
$DIMSHO
 70
     1
  9
$DIMPOST
  1

  9
$DIMAPOST
  1

  9
$DIMALT
 70
     0
  9
$DIMALTD
 70
     2
  9
$DIMALTF
 40
25.4
  9
$DIMLFAC
 40
1.0
  9
$DIMTOFL
 70
     1
  9
$DIMTVP
 40
0.0
  9
$DIMTIX
 70
     0
  9
$DIMSOXD
 70
     0
  9
$DIMSAH
 70
     0
  9
$DIMBLK1
  1

  9
$DIMBLK2
  1

  9
$DIMSTYLE
  2
SC_STAND
  9
$DIMCLRD
 70
     0
  9
$DIMCLRE
 70
     0
  9
$DIMCLRT
 70
     0
  9
$DIMTFAC
 40
1.0
  9
$DIMGAP
 40
1.0
  9
$DIMJUST
 70
     0
  9
$DIMSD1
 70
     0
  9
$DIMSD2
 70
     0
  9
$DIMTOLJ
 70
     1
  9
$DIMTZIN
 70
    12
  9
$DIMALTZ
 70
    12
  9
$DIMALTTZ
 70
    12
  9
$DIMFIT
 70
     5
  9
$DIMUPT
 70
     0
  9
$DIMUNIT
 70
     2
  9
$DIMDEC
 70
     4
  9
$DIMTDEC
 70
     4
  9
$DIMALTU
 70
     2
  9
$DIMALTTD
 70
     2
  9
$DIMTXSTY
  7
ROMANS
  9
$DIMAUNIT
 70
     0
  9
$LUNITS
 70
     2
  9
$LUPREC
 70
     4
  9
$SKETCHINC
 40
0.1
  9
$FILLETRAD
 40
0.0
  9
$AUNITS
 70
     0
  9
$AUPREC
 70
     0
  9
$MENU
  1
.
  9
$ELEVATION
 40
0.0
  9
$PELEVATION
 40
0.0
  9
$THICKNESS
 40
0.0
  9
$LIMCHECK
 70
     0
  9
$BLIPMODE
 70
     1
  9
$CHAMFERA
 40
0.0
  9
$CHAMFERB
 40
0.0
  9
$CHAMFERC
 40
0.0
  9
$CHAMFERD
 40
0.0
  9
$SKPOLY
 70
     0
  9
$TDCREATE
 40
2450989.730222917
  9
$TDUPDATE
 40
2451387.897679051
  9
$TDINDWG
 40
0.0020857755
  9
$TDUSRTIMER
 40
0.0020857755
  9
$USRTIMER
 70
     1
  9
$ANGBASE
 50
0.0
  9
$ANGDIR
 70
     0
  9
$PDMODE
 70
     0
  9
$PDSIZE
 40
0.0
  9
$PLINEWID
 40
0.0
  9
$COORDS
 70
     1
  9
$SPLFRAME
 70
     0
  9
$SPLINETYPE
 70
     6
  9
$SPLINESEGS
 70
     8
  9
$ATTDIA
 70
     1
  9
$ATTREQ
 70
     1
  9
$HANDLING
 70
     1
  9
$HANDSEED
  5
3E2
  9
$SURFTAB1
 70
     6
  9
$SURFTAB2
 70
     6
  9
$SURFTYPE
 70
     6
  9
$SURFU
 70
     6
  9
$SURFV
 70
     6
  9
$UCSNAME
  2

  9
$UCSORG
 10
0.0
 20
0.0
 30
0.0
  9
$UCSXDIR
 10
1.0
 20
0.0
 30
0.0
  9
$UCSYDIR
 10
0.0
 20
1.0
 30
0.0
  9
$PUCSNAME
  2

  9
$PUCSORG
 10
0.0
 20
0.0
 30
0.0
  9
$PUCSXDIR
 10
1.0
 20
0.0
 30
0.0
  9
$PUCSYDIR
 10
0.0
 20
1.0
 30
0.0
  9
$USERI1
 70
     0
  9
$USERI2
 70
     0
  9
$USERI3
 70
     0
  9
$USERI4
 70
     0
  9
$USERI5
 70
     0
  9
$USERR1
 40
0.0
  9
$USERR2
 40
0.0
  9
$USERR3
 40
0.0
  9
$USERR4
 40
0.0
  9
$USERR5
 40
0.0
  9
$WORLDVIEW
 70
     1
  9
$SHADEDGE
 70
     3
  9
$SHADEDIF
 70
    70
  9
$TILEMODE
 70
     1
  9
$MAXACTVP
 70
    16
  9
$PINSBASE
 10
0.0
 20
0.0
 30
0.0
  9
$PLIMCHECK
 70
     0
  9
$PEXTMIN
 10
0.0
 20
0.0
 30
0.0
  9
$PEXTMAX
 10
420.0
 20
297.0
 30
0.0
  9
$PLIMMIN
 10
0.0
 20
0.0
  9
$PLIMMAX
 10
420.0
 20
297.0
  9
$UNITMODE
 70
     0
  9
$VISRETAIN
 70
     0
  9
$PLINEGEN
 70
     0
  9
$PSLTSCALE
 70
     1
  9
$TREEDEPTH
 70
  3020
  9
$PICKSTYLE
 70
     1
  9
$CMLSTYLE
  2
STANDARD
  9
$CMLJUST
 70
     0
  9
$CMLSCALE
 40
1.0
  9
$PROXYGRAPHICS
 70
     1
  9
$MEASUREMENT
 70
     0
  0
ENDSEC
  0
SECTION
  2
CLASSES
  0
CLASS
  1
DICTIONARYVAR
  2
AcDbDictionaryVar
  3
"AutoCAD"
 90
        0
280
     0
281
     0
  0
CLASS
  1
LWPOLYLINE
  2
AcDbPolyline
  3
"AutoCAD"
 90
        0
280
     0
281
     1
  0
ENDSEC
  0
SECTION
  2
TABLES
  0
TABLE
  2
VPORT
  5
383
100
AcDbSymbolTable
 70
     1
  0
VPORT
  5
3DD
100
AcDbSymbolTableRecord
100
AcDbViewportTableRecord
  2
*ACTIVE
 70
     0
 10
0.0
 20
0.0
 11
1.0
 21
1.0
 12
257.127367
 22
153.871495
 13
0.0
 23
0.0
 14
2.5
 24
2.5
 15
10.0
 25
10.0
 16
0.0
 26
0.0
 36
1.0
 17
0.0
 27
0.0
 37
0.0
 40
307.74299
 41
1.671053
 42
50.0
 43
0.0
 44
0.0
 50
0.0
 51
0.0
 71
     0
 72
   100
 73
     1
 74
     1
 75
     1
 76
     1
 77
     0
 78
     0
  0
ENDTAB
  0
TABLE
  2
LTYPE
  5
380
100
AcDbSymbolTable
 70
    23
  0
LTYPE
  5
38C
100
AcDbSymbolTableRecord
100
AcDbLinetypeTableRecord
  2
BYBLOCK
 70
     0
  3

 72
    65
 73
     0
 40
0.0
  0
LTYPE
  5
38D
100
AcDbSymbolTableRecord
100
AcDbLinetypeTableRecord
  2
BYLAYER
 70
     0
  3

 72
    65
 73
     0
 40
0.0
  0
LTYPE
  5
38E
100
AcDbSymbolTableRecord
100
AcDbLinetypeTableRecord
  2
CONTINUOUS
 70
     0
  3
Solid line
 72
    65
 73
     0
 40
0.0
  0
LTYPE
  5
3A3
100
AcDbSymbolTableRecord
100
AcDbLinetypeTableRecord
  2
AXES
 70
     0
  3
____ _ ____ _ ____ _ ____ _ ____ _ ____ _ ____ 
 72
    65
 73
     4
 40
2.0
 49
1.25
 74
     0
 49
-0.25
 74
     0
 49
0.25
 74
     0
 49
-0.25
 74
     0
  0
LTYPE
  5
3A4
100
AcDbSymbolTableRecord
100
AcDbLinetypeTableRecord
  2
AXES2
 70
     0
  3
___ _ ___ _ ___ _ ___ _ ___ _ ___ _ ___ _ ___ _
 72
    65
 73
     4
 40
1.125
 49
0.75
 74
     0
 49
-0.125
 74
     0
 49
0.125
 74
     0
 49
-0.125
 74
     0
  0
LTYPE
  5
3A5
100
AcDbSymbolTableRecord
100
AcDbLinetypeTableRecord
  2
AXESX2
 70
     0
  3
________  __  ________  __  ________  __  _____
 72
    65
 73
     4
 40
4.0
 49
2.5
 74
     0
 49
-0.5
 74
     0
 49
0.5
 74
     0
 49
-0.5
 74
     0
  0
LTYPE
  5
3A6
100
AcDbSymbolTableRecord
100
AcDbLinetypeTableRecord
  2
TIRETPT
 70
     0
  3
__ . __ . __ . __ . __ . __ . __ . __ . __ . __
 72
    65
 73
     4
 40
1.0
 49
0.5
 74
     0
 49
-0.25
 74
     0
 49
0.0
 74
     0
 49
-0.25
 74
     0
  0
LTYPE
  5
3A7
100
AcDbSymbolTableRecord
100
AcDbLinetypeTableRecord
  2
TIRETPT2
 70
     0
  3
_._._._._._._._._._._._._._._._._._._._._._._._
 72
    65
 73
     4
 40
0.5
 49
0.25
 74
     0
 49
-0.125
 74
     0
 49
0.0
 74
     0
 49
-0.125
 74
     0
  0
LTYPE
  5
3A8
100
AcDbSymbolTableRecord
100
AcDbLinetypeTableRecord
  2
TIRETPTX2
 70
     0
  3
____  .  ____  .  ____  .  ____  .  ____  .  __
 72
    65
 73
     4
 40
2.0
 49
1.0
 74
     0
 49
-0.5
 74
     0
 49
0.0
 74
     0
 49
-0.5
 74
     0
  0
LTYPE
  5
3A9
100
AcDbSymbolTableRecord
100
AcDbLinetypeTableRecord
  2
DISCONTINU
 70
     0
  3
__ __ __ __ __ __ __ __ __ __ __ __ __ __ __ __
 72
    65
 73
     2
 40
0.75
 49
0.5
 74
     0
 49
-0.25
 74
     0
  0
LTYPE
  5
3AA
100
AcDbSymbolTableRecord
100
AcDbLinetypeTableRecord
  2
DISCONTINU2
 70
     0
  3
_ _ _ _ _ _ _ _ _ _ _ _ _ _ _ _ _ _ _ _ _ _ _ _
 72
    65
 73
     2
 40
0.375
 49
0.25
 74
     0
 49
-0.125
 74
     0
  0
LTYPE
  5
3AB
100
AcDbSymbolTableRecord
100
AcDbLinetypeTableRecord
  2
DISCONTINUX2
 70
     0
  3
____  ____  ____  ____  ____  ____  ____  ____ 
 72
    65
 73
     2
 40
1.5
 49
1.0
 74
     0
 49
-0.5
 74
     0
  0
LTYPE
  5
3AC
100
AcDbSymbolTableRecord
100
AcDbLinetypeTableRecord
  2
DIVISE
 70
     0
  3
____ . . ____ . . ____ . . ____ . . ____ . . __
 72
    65
 73
     6
 40
1.25
 49
0.5
 74
     0
 49
-0.25
 74
     0
 49
0.0
 74
     0
 49
-0.25
 74
     0
 49
0.0
 74
     0
 49
-0.25
 74
     0
  0
LTYPE
  5
3AD
100
AcDbSymbolTableRecord
100
AcDbLinetypeTableRecord
  2
DIVISE2
 70
     0
  3
__..__..__..__..__..__..__..__..__..__..__..__.
 72
    65
 73
     6
 40
0.625
 49
0.25
 74
     0
 49
-0.125
 74
     0
 49
0.0
 74
     0
 49
-0.125
 74
     0
 49
0.0
 74
     0
 49
-0.125
 74
     0
  0
LTYPE
  5
3AE
100
AcDbSymbolTableRecord
100
AcDbLinetypeTableRecord
  2
DIVISEX2
 70
     0
  3
________  .  .  ________  .  .  ________  .  . 
 72
    65
 73
     6
 40
2.5
 49
1.0
 74
     0
 49
-0.5
 74
     0
 49
0.0
 74
     0
 49
-0.5
 74
     0
 49
0.0
 74
     0
 49
-0.5
 74
     0
  0
LTYPE
  5
3AF
100
AcDbSymbolTableRecord
100
AcDbLinetypeTableRecord
  2
POINTILLE
 70
     0
  3
. . . . . . . . . . . . . . . . . . . . . . . .
 72
    65
 73
     2
 40
0.25
 49
0.0
 74
     0
 49
-0.25
 74
     0
  0
LTYPE
  5
3B0
100
AcDbSymbolTableRecord
100
AcDbLinetypeTableRecord
  2
POINTILLE2
 70
     0
  3
...............................................
 72
    65
 73
     2
 40
0.125
 49
0.0
 74
     0
 49
-0.125
 74
     0
  0
LTYPE
  5
3B1
100
AcDbSymbolTableRecord
100
AcDbLinetypeTableRecord
  2
POINTILLEX2
 70
     0
  3
.  .  .  .  .  .  .  .  .  .  .  .  .  .  .  . 
 72
    65
 73
     2
 40
0.5
 49
0.0
 74
     0
 49
-0.5
 74
     0
  0
LTYPE
  5
3B2
100
AcDbSymbolTableRecord
100
AcDbLinetypeTableRecord
  2
CACHE
 70
     0
  3
__ __ __ __ __ __ __ __ __ __ __ __ __ __ __ __
 72
    65
 73
     2
 40
0.375
 49
0.25
 74
     0
 49
-0.125
 74
     0
  0
LTYPE
  5
3B3
100
AcDbSymbolTableRecord
100
AcDbLinetypeTableRecord
  2
CACHE2
 70
     0
  3
_ _ _ _ _ _ _ _ _ _ _ _ _ _ _ _ _ _ _ _ _ _ _ _
 72
    65
 73
     2
 40
0.1875
 49
0.125
 74
     0
 49
-0.0625
 74
     0
  0
LTYPE
  5
3B4
100
AcDbSymbolTableRecord
100
AcDbLinetypeTableRecord
  2
CACHEX2
 70
     0
  3
____ ____ ____ ____ ____ ____ ____ ____ ____ __
 72
    65
 73
     2
 40
0.75
 49
0.5
 74
     0
 49
-0.25
 74
     0
  0
LTYPE
  5
3B5
100
AcDbSymbolTableRecord
100
AcDbLinetypeTableRecord
  2
FANTOME
 70
     0
  3
______  __  __  ______  __  __  ______  __  __ 
 72
    65
 73
     6
 40
2.5
 49
1.25
 74
     0
 49
-0.25
 74
     0
 49
0.25
 74
     0
 49
-0.25
 74
     0
 49
0.25
 74
     0
 49
-0.25
 74
     0
  0
LTYPE
  5
3B6
100
AcDbSymbolTableRecord
100
AcDbLinetypeTableRecord
  2
FANTOME2
 70
     0
  3
___ _ _ ___ _ _ ___ _ _ ___ _ _ ___ _ _ ___ _ _
 72
    65
 73
     6
 40
1.25
 49
0.625
 74
     0
 49
-0.125
 74
     0
 49
0.125
 74
     0
 49
-0.125
 74
     0
 49
0.125
 74
     0
 49
-0.125
 74
     0
  0
LTYPE
  5
3B7
100
AcDbSymbolTableRecord
100
AcDbLinetypeTableRecord
  2
FANTOMEX2
 70
     0
  3
____________    ____    ____    ____________   
 72
    65
 73
     6
 40
5.0
 49
2.5
 74
     0
 49
-0.5
 74
     0
 49
0.5
 74
     0
 49
-0.5
 74
     0
 49
0.5
 74
     0
 49
-0.5
 74
     0
  0
LTYPE
  5
3B8
100
AcDbSymbolTableRecord
100
AcDbLinetypeTableRecord
  2
0
 70
     0
  3
MEDUSA PEN 0
 72
    65
 73
     0
 40
0.0
  0
ENDTAB
  0
TABLE
  2
LAYER
  5
37D
100
AcDbSymbolTable
 70
    21
  0
LAYER
  5
389
100
AcDbSymbolTableRecord
100
AcDbLayerTableRecord
  2
0
 70
     0
 62
   255
  6
CONTINUOUS
  0
LAYER
  5
3C0
100
AcDbSymbolTableRecord
100
AcDbLayerTableRecord
  2
COTATION1
 70
     0
 62
     2
  6
CONTINUOUS
  0
LAYER
  5
3C1
100
AcDbSymbolTableRecord
100
AcDbLayerTableRecord
  2
ASHADE
 70
     0
 62
     7
  6
CONTINUOUS
  0
LAYER
  5
3C2
100
AcDbSymbolTableRecord
100
AcDbLayerTableRecord
  2
ALPHA
 70
     0
 62
   255
  6
CONTINUOUS
  0
LAYER
  5
3C3
100
AcDbSymbolTableRecord
100
AcDbLayerTableRecord
  2
DEFPOINTS
 70
     0
 62
     7
  6
CONTINUOUS
  0
LAYER
  5
3C4
100
AcDbSymbolTableRecord
100
AcDbLayerTableRecord
  2
AXE
 70
     0
 62
    80
  6
AXES2
  0
LAYER
  5
3C5
100
AcDbSymbolTableRecord
100
AcDbLayerTableRecord
  2
CONSTRUCTION
 70
     0
 62
     6
  6
CONTINUOUS
  0
LAYER
  5
3C6
100
AcDbSymbolTableRecord
100
AcDbLayerTableRecord
  2
HACHURES
 70
     0
 62
     9
  6
CONTINUOUS
  0
LAYER
  5
3C7
100
AcDbSymbolTableRecord
100
AcDbLayerTableRecord
  2
FMULT
 70
     0
 62
     6
  6
CONTINUOUS
  0
LAYER
  5
3C8
100
AcDbSymbolTableRecord
100
AcDbLayerTableRecord
  2
TEXTE
 70
     0
 62
   131
  6
CONTINUOUS
  0
LAYER
  5
3C9
100
AcDbSymbolTableRecord
100
AcDbLayerTableRecord
  2
FDP_CARTOUCHE
 70
     0
 62
     4
  6
CONTINUOUS
  0
LAYER
  5
3CA
100
AcDbSymbolTableRecord
100
AcDbLayerTableRecord
  2
FDP_TEXTES
 70
     0
 62
     5
  6
CONTINUOUS
  0
LAYER
  5
3CB
100
AcDbSymbolTableRecord
100
AcDbLayerTableRecord
  2
FDP_LOGO_MG
 70
     0
 62
    30
  6
CONTINUOUS
  0
LAYER
  5
3CC
100
AcDbSymbolTableRecord
100
AcDbLayerTableRecord
  2
FDP_LOGO_SCH
 70
     0
 62
     3
  6
CONTINUOUS
  0
LAYER
  5
3CD
100
AcDbSymbolTableRecord
100
AcDbLayerTableRecord
  2
FDP_FDP
 70
     0
 62
     5
  6
CONTINUOUS
  0
LAYER
  5
3CE
100
AcDbSymbolTableRecord
100
AcDbLayerTableRecord
  2
COTATION2
 70
     0
 62
     2
  6
CONTINUOUS
  0
LAYER
  5
3CF
100
AcDbSymbolTableRecord
100
AcDbLayerTableRecord
  2
COTATION3
 70
     0
 62
     2
  6
CONTINUOUS
  0
LAYER
  5
3D0
100
AcDbSymbolTableRecord
100
AcDbLayerTableRecord
  2
COTATION4
 70
     0
 62
     2
  6
CONTINUOUS
  0
LAYER
  5
3D1
100
AcDbSymbolTableRecord
100
AcDbLayerTableRecord
  2
POINTILLE_COURT
 70
     0
 62
    40
  6
CACHE2
  0
LAYER
  5
3D2
100
AcDbSymbolTableRecord
100
AcDbLayerTableRecord
  2
POINTILLE_MOYEN
 70
     0
 62
   140
  6
CACHE
  0
LAYER
  5
3D3
100
AcDbSymbolTableRecord
100
AcDbLayerTableRecord
  2
POINTILLE_LONG
 70
     0
 62
   240
  6
CACHEX2
  0
ENDTAB
  0
TABLE
  2
STYLE
  5
37E
100
AcDbSymbolTable
 70
     4
  0
STYLE
  5
38A
100
AcDbSymbolTableRecord
100
AcDbTextStyleTableRecord
  2
STANDARD
 70
     0
 40
0.0
 41
1.0
 50
0.0
 71
     0
 42
0.2
  3
txt
  4

  0
STYLE
  5
3A0
100
AcDbSymbolTableRecord
100
AcDbTextStyleTableRecord
  2
ROMANS
 70
     0
 40
0.0
 41
1.0
 50
0.0
 71
     0
 42
2.9
  3
romans.shx
  4

  0
STYLE
  5
3A1
100
AcDbSymbolTableRecord
100
AcDbTextStyleTableRecord
  2
INFOCAR
 70
     0
 40
0.0
 41
1.34
 50
0.0
 71
     0
 42
2.0
  3
ROMANS.SHX
  4

  0
STYLE
  5
3A2
100
AcDbSymbolTableRecord
100
AcDbTextStyleTableRecord
  2
CARTOUCHE
 70
     0
 40
0.0
 41
1.0
 50
0.0
 71
     0
 42
0.2
  3
ROMANS.SHX
  4

  0
ENDTAB
  0
TABLE
  2
VIEW
  5
381
100
AcDbSymbolTable
 70
     0
  0
ENDTAB
  0
TABLE
  2
UCS
  5
382
100
AcDbSymbolTable
 70
     0
  0
ENDTAB
  0
TABLE
  2
APPID
  5
384
100
AcDbSymbolTable
 70
     3
  0
APPID
  5
38B
100
AcDbSymbolTableRecord
100
AcDbRegAppTableRecord
  2
ACAD
 70
     0
  0
APPID
  5
3BA
100
AcDbSymbolTableRecord
100
AcDbRegAppTableRecord
  2
AVE_RENDER
 70
     0
  0
APPID
  5
3BB
100
AcDbSymbolTableRecord
100
AcDbRegAppTableRecord
  2
AVE_MATERIAL
 70
     0
  0
ENDTAB
  0
TABLE
  2
DIMSTYLE
  5
385
100
AcDbSymbolTable
 70
     2
  0
DIMSTYLE
105
3BC
102
{ACAD_REACTORS
330
1C6
330
1D8
330
1E7
330
1F6
330
203
330
210
102
}
100
AcDbSymbolTableRecord
100
AcDbDimStyleTableRecord
  2
SC_STAND
 70
     0
  3

  4

  5

  6

  7

 40
1.0
 41
3.0
 42
0.0625
 43
0.38
 44
0.18
 45
0.01
 46
0.0
 47
0.0
 48
0.0
140
2.5
141
0.09
142
0.0
143
25.4
144
1.0
145
0.0
146
1.0
147
1.0
 71
     0
 72
     0
 73
     0
 74
     0
 75
     0
 76
     0
 77
     1
 78
    12
170
     0
171
     2
172
     1
173
     0
174
     0
175
     0
176
     0
177
     0
178
     0
270
     2
271
     4
272
     4
273
     2
274
     2
340
3A0
275
     0
280
     0
281
     0
282
     0
283
     1
284
    12
285
    12
286
    12
287
     5
288
     0
  0
DIMSTYLE
105
3BD
100
AcDbSymbolTableRecord
100
AcDbDimStyleTableRecord
  2
STANDARD
 70
     0
  3

  4

  5

  6

  7

 40
1.0
 41
0.18
 42
0.0625
 43
0.38
 44
0.18
 45
0.0
 46
0.0
 47
0.0
 48
0.0
140
0.18
141
0.09
142
0.0
143
25.4
144
1.0
145
0.0
146
1.0
147
0.09
 71
     0
 72
     0
 73
     1
 74
     1
 75
     0
 76
     0
 77
     0
 78
     0
170
     0
171
     2
172
     0
173
     0
174
     0
175
     0
176
     0
177
     0
178
     0
270
     2
271
     4
272
     4
273
     2
274
     2
340
3A0
275
     0
280
     0
281
     0
282
     0
283
     1
284
    12
285
    12
286
    12
287
     5
288
     0
  0
ENDTAB
  0
TABLE
  2
BLOCK_RECORD
  5
37C
100
AcDbSymbolTable
 70
     9
  0
BLOCK_RECORD
  5
392
100
AcDbSymbolTableRecord
100
AcDbBlockTableRecord
  2
*MODEL_SPACE
  0
BLOCK_RECORD
  5
38F
100
AcDbSymbolTableRecord
100
AcDbBlockTableRecord
  2
*PAPER_SPACE
  0
BLOCK_RECORD
  5
397
100
AcDbSymbolTableRecord
100
AcDbBlockTableRecord
  2
AVE_RENDER
  0
BLOCK_RECORD
  5
398
100
AcDbSymbolTableRecord
100
AcDbBlockTableRecord
  2
AVE_GLOBAL
  0
BLOCK_RECORD
  5
399
100
AcDbSymbolTableRecord
100
AcDbBlockTableRecord
  2
*D2
  0
BLOCK_RECORD
  5
39A
100
AcDbSymbolTableRecord
100
AcDbBlockTableRecord
  2
*D3
  0
BLOCK_RECORD
  5
39B
100
AcDbSymbolTableRecord
100
AcDbBlockTableRecord
  2
*D4
  0
BLOCK_RECORD
  5
39C
100
AcDbSymbolTableRecord
100
AcDbBlockTableRecord
  2
*D5
  0
BLOCK_RECORD
  5
39D
100
AcDbSymbolTableRecord
100
AcDbBlockTableRecord
  2
*D6
  0
BLOCK_RECORD
  5
39E
100
AcDbSymbolTableRecord
100
AcDbBlockTableRecord
  2
*D7
  0
BLOCK_RECORD
  5
39F
100
AcDbSymbolTableRecord
100
AcDbBlockTableRecord
  2
SCH_ISO
  0
ENDTAB
  0
ENDSEC
  0
SECTION
  2
BLOCKS
  0
BLOCK
  5
3D6
100
AcDbEntity
  8
0
100
AcDbBlockBegin
  2
*MODEL_SPACE
 70
     0
 10
0.0
 20
0.0
 30
0.0
  3
*MODEL_SPACE
  1

  0
ENDBLK
  5
3D7
100
AcDbEntity
  8
0
100
AcDbBlockEnd
  0
BLOCK
  5
3D4
100
AcDbEntity
 67
     1
  8
0
100
AcDbBlockBegin
  2
*PAPER_SPACE
 70
     0
 10
0.0
 20
0.0
 30
0.0
  3
*PAPER_SPACE
  1

  0
ENDBLK
  5
3D5
100
AcDbEntity
 67
     1
  8
0
100
AcDbBlockEnd
  0
BLOCK
  5
8
100
AcDbEntity
  8
0
100
AcDbBlockBegin
  2
AVE_RENDER
 70
     0
 10
0.0
 20
0.0
 30
0.0
  3
AVE_RENDER
  1
AVE_RENDER
  0
ENDBLK
  5
A
100
AcDbEntity
  8
0
100
AcDbBlockEnd
  0
BLOCK
  5
16
100
AcDbEntity
  8
0
100
AcDbBlockBegin
  2
AVE_GLOBAL
 70
     0
 10
0.0
 20
0.0
 30
0.0
  3
AVE_GLOBAL
  1
AVE_GLOBAL
  0
ENDBLK
  5
17
100
AcDbEntity
  8
0
100
AcDbBlockEnd
  0
BLOCK
  5
1D6
100
AcDbEntity
  8
0
100
AcDbBlockBegin
  2
*D2
 70
     1
 10
0.0
 20
0.0
 30
0.0
  3
*D2
  1
AVE_RENDER
  0
LINE
  5
1CB
100
AcDbEntity
  8
0
  6
BYBLOCK
 62
     0
100
AcDbLine
 10
72.574215
 20
140.788627
 30
0.0
 11
72.574215
 21
117.32
 31
0.0
  0
LINE
  5
1CD
100
AcDbEntity
  8
0
  6
BYBLOCK
 62
     0
100
AcDbLine
 10
103.474215
 20
144.598721
 30
0.0
 11
103.474215
 21
117.32
 31
0.0
  0
LINE
  5
1CE
100
AcDbEntity
  8
0
  6
BYBLOCK
 62
     0
100
AcDbLine
 10
75.574215
 20
117.5
 30
0.0
 11
100.474215
 21
117.5
 31
0.0
  0
SOLID
  5
1CF
100
AcDbEntity
  8
0
  6
BYBLOCK
 62
     0
100
AcDbTrace
 10
75.574215
 20
118.0
 30
0.0
 11
75.574215
 21
117.0
 31
0.0
 12
72.574215
 22
117.5
 32
0.0
 13
72.574215
 23
117.5
 33
0.0
  0
SOLID
  5
1D0
100
AcDbEntity
  8
0
  6
BYBLOCK
 62
     0
100
AcDbTrace
 10
100.474215
 20
118.0
 30
0.0
 11
100.474215
 21
117.0
 31
0.0
 12
103.474215
 22
117.5
 32
0.0
 13
103.474215
 23
117.5
 33
0.0
  0
TEXT
  5
1D1
100
AcDbEntity
  8
0
  6
BYBLOCK
 62
     0
100
AcDbText
 10
83.917072
 20
118.5
 30
0.0
 40
2.5
  1
30.9
  7
ROMANS
100
AcDbText
  0
POINT
  5
1D2
100
AcDbEntity
  8
DEFPOINTS
  6
BYBLOCK
 62
     0
100
AcDbPoint
 10
72.574215
 20
140.851127
 30
0.0
  0
POINT
  5
1D4
100
AcDbEntity
  8
DEFPOINTS
  6
BYBLOCK
 62
     0
100
AcDbPoint
 10
103.474215
 20
144.661221
 30
0.0
  0
POINT
  5
1D5
100
AcDbEntity
  8
DEFPOINTS
  6
BYBLOCK
 62
     0
100
AcDbPoint
 10
103.474215
 20
117.5
 30
0.0
  0
ENDBLK
  5
1D7
100
AcDbEntity
  8
0
100
AcDbBlockEnd
  0
BLOCK
  5
1E5
100
AcDbEntity
  8
0
100
AcDbBlockBegin
  2
*D3
 70
     1
 10
0.0
 20
0.0
 30
0.0
  3
*D3
  1
AVE_RENDER
  0
LINE
  5
1DA
100
AcDbEntity
  8
0
  6
BYBLOCK
 62
     0
100
AcDbLine
 10
72.574215
 20
140.726127
 30
0.0
 11
72.574215
 21
124.82
 31
0.0
  0
LINE
  5
1DB
100
AcDbEntity
  8
0
  6
BYBLOCK
 62
     0
100
AcDbLine
 10
84.574215
 20
138.888627
 30
0.0
 11
84.574215
 21
124.82
 31
0.0
  0
LINE
  5
1DC
100
AcDbEntity
  8
0
  6
BYBLOCK
 62
     0
100
AcDbLine
 10
69.574215
 20
125.0
 30
0.0
 11
66.574215
 21
125.0
 31
0.0
  0
LINE
  5
1DD
100
AcDbEntity
  8
0
  6
BYBLOCK
 62
     0
100
AcDbLine
 10
87.574215
 20
125.0
 30
0.0
 11
90.574215
 21
125.0
 31
0.0
  0
LINE
  5
1DE
100
AcDbEntity
  8
0
  6
BYBLOCK
 62
     0
100
AcDbLine
 10
72.574215
 20
125.0
 30
0.0
 11
84.574215
 21
125.0
 31
0.0
  0
SOLID
  5
1DF
100
AcDbEntity
  8
0
  6
BYBLOCK
 62
     0
100
AcDbTrace
 10
69.574215
 20
125.5
 30
0.0
 11
69.574215
 21
124.5
 31
0.0
 12
72.574215
 22
125.0
 32
0.0
 13
72.574215
 23
125.0
 33
0.0
  0
SOLID
  5
1E0
100
AcDbEntity
  8
0
  6
BYBLOCK
 62
     0
100
AcDbTrace
 10
87.574215
 20
125.5
 30
0.0
 11
87.574215
 21
124.5
 31
0.0
 12
84.574215
 22
125.0
 32
0.0
 13
84.574215
 23
125.0
 33
0.0
  0
TEXT
  5
1E1
100
AcDbEntity
  8
0
  6
BYBLOCK
 62
     0
100
AcDbText
 10
76.014691
 20
126.0
 30
0.0
 40
2.5
  1
12
  7
ROMANS
100
AcDbText
  0
POINT
  5
1E2
100
AcDbEntity
  8
DEFPOINTS
  6
BYBLOCK
 62
     0
100
AcDbPoint
 10
72.574215
 20
140.788627
 30
0.0
  0
POINT
  5
1E3
100
AcDbEntity
  8
DEFPOINTS
  6
BYBLOCK
 62
     0
100
AcDbPoint
 10
84.574215
 20
138.951127
 30
0.0
  0
POINT
  5
1E4
100
AcDbEntity
  8
DEFPOINTS
  6
BYBLOCK
 62
     0
100
AcDbPoint
 10
84.574215
 20
125.0
 30
0.0
  0
ENDBLK
  5
1E6
100
AcDbEntity
  8
0
100
AcDbBlockEnd
  0
BLOCK
  5
1F4
100
AcDbEntity
  8
0
100
AcDbBlockBegin
  2
*D4
 70
     1
 10
0.0
 20
0.0
 30
0.0
  3
*D4
  1
AVE_RENDER
  0
LINE
  5
1E9
100
AcDbEntity
  8
0
  6
BYBLOCK
 62
     0
100
AcDbLine
 10
77.574215
 20
138.888627
 30
0.0
 11
77.574215
 21
132.32
 31
0.0
  0
LINE
  5
1EA
100
AcDbEntity
  8
0
  6
BYBLOCK
 62
     0
100
AcDbLine
 10
84.574215
 20
138.826127
 30
0.0
 11
84.574215
 21
132.32
 31
0.0
  0
LINE
  5
1EB
100
AcDbEntity
  8
0
  6
BYBLOCK
 62
     0
100
AcDbLine
 10
74.574215
 20
132.5
 30
0.0
 11
71.574215
 21
132.5
 31
0.0
  0
LINE
  5
1EC
100
AcDbEntity
  8
0
  6
BYBLOCK
 62
     0
100
AcDbLine
 10
87.574215
 20
132.5
 30
0.0
 11
90.574215
 21
132.5
 31
0.0
  0
LINE
  5
1ED
100
AcDbEntity
  8
0
  6
BYBLOCK
 62
     0
100
AcDbLine
 10
77.574215
 20
132.5
 30
0.0
 11
84.574215
 21
132.5
 31
0.0
  0
SOLID
  5
1EE
100
AcDbEntity
  8
0
  6
BYBLOCK
 62
     0
100
AcDbTrace
 10
74.574215
 20
133.0
 30
0.0
 11
74.574215
 21
132.0
 31
0.0
 12
77.574215
 22
132.5
 32
0.0
 13
77.574215
 23
132.5
 33
0.0
  0
SOLID
  5
1EF
100
AcDbEntity
  8
0
  6
BYBLOCK
 62
     0
100
AcDbTrace
 10
87.574215
 20
133.0
 30
0.0
 11
87.574215
 21
132.0
 31
0.0
 12
84.574215
 22
132.5
 32
0.0
 13
84.574215
 23
132.5
 33
0.0
  0
TEXT
  5
1F0
100
AcDbEntity
  8
0
  6
BYBLOCK
 62
     0
100
AcDbText
 10
79.883738
 20
133.5
 30
0.0
 40
2.5
  1
7
  7
ROMANS
100
AcDbText
  0
POINT
  5
1F1
100
AcDbEntity
  8
DEFPOINTS
  6
BYBLOCK
 62
     0
100
AcDbPoint
 10
77.574215
 20
138.951127
 30
0.0
  0
POINT
  5
1F2
100
AcDbEntity
  8
DEFPOINTS
  6
BYBLOCK
 62
     0
100
AcDbPoint
 10
84.574215
 20
138.888627
 30
0.0
  0
POINT
  5
1F3
100
AcDbEntity
  8
DEFPOINTS
  6
BYBLOCK
 62
     0
100
AcDbPoint
 10
84.574215
 20
132.5
 30
0.0
  0
ENDBLK
  5
1F5
100
AcDbEntity
  8
0
100
AcDbBlockEnd
  0
BLOCK
  5
201
100
AcDbEntity
  8
0
100
AcDbBlockBegin
  2
*D5
 70
     1
 10
0.0
 20
0.0
 30
0.0
  3
*D5
  1
AVE_RENDER
  0
LINE
  5
1F8
100
AcDbEntity
  8
0
  6
BYBLOCK
 62
     0
100
AcDbLine
 10
84.636715
 20
138.951127
 30
0.0
 11
127.68
 21
138.951127
 31
0.0
  0
LINE
  5
1F9
100
AcDbEntity
  8
0
  6
BYBLOCK
 62
     0
100
AcDbLine
 10
84.636715
 20
167.451127
 30
0.0
 11
127.68
 21
167.451127
 31
0.0
  0
LINE
  5
1FA
100
AcDbEntity
  8
0
  6
BYBLOCK
 62
     0
100
AcDbLine
 10
127.5
 20
141.951127
 30
0.0
 11
127.5
 21
164.451127
 31
0.0
  0
SOLID
  5
1FB
100
AcDbEntity
  8
0
  6
BYBLOCK
 62
     0
100
AcDbTrace
 10
127.0
 20
141.951127
 30
0.0
 11
128.0
 21
141.951127
 31
0.0
 12
127.5
 22
138.951127
 32
0.0
 13
127.5
 23
138.951127
 33
0.0
  0
SOLID
  5
1FC
100
AcDbEntity
  8
0
  6
BYBLOCK
 62
     0
100
AcDbTrace
 10
127.0
 20
164.451127
 30
0.0
 11
128.0
 21
164.451127
 31
0.0
 12
127.5
 22
167.451127
 32
0.0
 13
127.5
 23
167.451127
 33
0.0
  0
TEXT
  5
1FD
100
AcDbEntity
  8
0
  6
BYBLOCK
 62
     0
100
AcDbText
 10
126.5
 20
149.03446
 30
0.0
 40
2.5
  1
28.5
 50
90.0
  7
ROMANS
100
AcDbText
  0
POINT
  5
1FE
100
AcDbEntity
  8
DEFPOINTS
  6
BYBLOCK
 62
     0
100
AcDbPoint
 10
84.574215
 20
138.951127
 30
0.0
  0
POINT
  5
1FF
100
AcDbEntity
  8
DEFPOINTS
  6
BYBLOCK
 62
     0
100
AcDbPoint
 10
84.574215
 20
167.451127
 30
0.0
  0
POINT
  5
200
100
AcDbEntity
  8
DEFPOINTS
  6
BYBLOCK
 62
     0
100
AcDbPoint
 10
127.5
 20
167.451127
 30
0.0
  0
ENDBLK
  5
202
100
AcDbEntity
  8
0
100
AcDbBlockEnd
  0
BLOCK
  5
20E
100
AcDbEntity
  8
0
100
AcDbBlockBegin
  2
*D6
 70
     1
 10
0.0
 20
0.0
 30
0.0
  3
*D6
  1
AVE_RENDER
  0
LINE
  5
205
100
AcDbEntity
  8
0
  6
BYBLOCK
 62
     0
100
AcDbLine
 10
85.836715
 20
166.701127
 30
0.0
 11
120.18
 21
166.701127
 31
0.0
  0
LINE
  5
206
100
AcDbEntity
  8
0
  6
BYBLOCK
 62
     0
100
AcDbLine
 10
85.836715
 20
139.701127
 30
0.0
 11
120.18
 21
139.701127
 31
0.0
  0
LINE
  5
207
100
AcDbEntity
  8
0
  6
BYBLOCK
 62
     0
100
AcDbLine
 10
120.0
 20
163.701127
 30
0.0
 11
120.0
 21
142.701127
 31
0.0
  0
SOLID
  5
208
100
AcDbEntity
  8
0
  6
BYBLOCK
 62
     0
100
AcDbTrace
 10
119.5
 20
163.701127
 30
0.0
 11
120.5
 21
163.701127
 31
0.0
 12
120.0
 22
166.701127
 32
0.0
 13
120.0
 23
166.701127
 33
0.0
  0
SOLID
  5
209
100
AcDbEntity
  8
0
  6
BYBLOCK
 62
     0
100
AcDbTrace
 10
119.5
 20
142.701127
 30
0.0
 11
120.5
 21
142.701127
 31
0.0
 12
120.0
 22
139.701127
 32
0.0
 13
120.0
 23
139.701127
 33
0.0
  0
TEXT
  5
20A
100
AcDbEntity
  8
0
  6
BYBLOCK
 62
     0
100
AcDbText
 10
119.0
 20
150.820175
 30
0.0
 40
2.5
  1
27
 50
90.0
  7
ROMANS
100
AcDbText
  0
POINT
  5
20B
100
AcDbEntity
  8
DEFPOINTS
  6
BYBLOCK
 62
     0
100
AcDbPoint
 10
85.774215
 20
166.701127
 30
0.0
  0
POINT
  5
20C
100
AcDbEntity
  8
DEFPOINTS
  6
BYBLOCK
 62
     0
100
AcDbPoint
 10
85.774215
 20
139.701127
 30
0.0
  0
POINT
  5
20D
100
AcDbEntity
  8
DEFPOINTS
  6
BYBLOCK
 62
     0
100
AcDbPoint
 10
120.0
 20
139.701127
 30
0.0
  0
ENDBLK
  5
20F
100
AcDbEntity
  8
0
100
AcDbBlockEnd
  0
BLOCK
  5
21B
100
AcDbEntity
  8
0
100
AcDbBlockBegin
  2
*D7
 70
     1
 10
0.0
 20
0.0
 30
0.0
  3
*D7
  1
AVE_RENDER
  0
LINE
  5
212
100
AcDbEntity
  8
0
  6
BYBLOCK
 62
     0
100
AcDbLine
 10
88.636715
 20
164.201127
 30
0.0
 11
112.68
 21
164.201127
 31
0.0
  0
LINE
  5
213
100
AcDbEntity
  8
0
  6
BYBLOCK
 62
     0
100
AcDbLine
 10
88.636715
 20
142.201127
 30
0.0
 11
112.68
 21
142.201127
 31
0.0
  0
LINE
  5
214
100
AcDbEntity
  8
0
  6
BYBLOCK
 62
     0
100
AcDbLine
 10
112.5
 20
161.201127
 30
0.0
 11
112.5
 21
145.201127
 31
0.0
  0
SOLID
  5
215
100
AcDbEntity
  8
0
  6
BYBLOCK
 62
     0
100
AcDbTrace
 10
112.0
 20
161.201127
 30
0.0
 11
113.0
 21
161.201127
 31
0.0
 12
112.5
 22
164.201127
 32
0.0
 13
112.5
 23
164.201127
 33
0.0
  0
SOLID
  5
216
100
AcDbEntity
  8
0
  6
BYBLOCK
 62
     0
100
AcDbTrace
 10
112.0
 20
145.201127
 30
0.0
 11
113.0
 21
145.201127
 31
0.0
 12
112.5
 22
142.201127
 32
0.0
 13
112.5
 23
142.201127
 33
0.0
  0
TEXT
  5
217
100
AcDbEntity
  8
0
  6
BYBLOCK
 62
     0
100
AcDbText
 10
111.5
 20
150.820175
 30
0.0
 40
2.5
  1
22
 50
90.0
  7
ROMANS
100
AcDbText
  0
POINT
  5
218
100
AcDbEntity
  8
DEFPOINTS
  6
BYBLOCK
 62
     0
100
AcDbPoint
 10
88.574215
 20
164.201127
 30
0.0
  0
POINT
  5
219
100
AcDbEntity
  8
DEFPOINTS
  6
BYBLOCK
 62
     0
100
AcDbPoint
 10
88.574215
 20
142.201127
 30
0.0
  0
POINT
  5
21A
100
AcDbEntity
  8
DEFPOINTS
  6
BYBLOCK
 62
     0
100
AcDbPoint
 10
112.5
 20
142.201127
 30
0.0
  0
ENDBLK
  5
21C
100
AcDbEntity
  8
0
100
AcDbBlockEnd
  0
BLOCK
  5
26B
100
AcDbEntity
  8
0
100
AcDbBlockBegin
  2
SCH_ISO
 70
     0
 10
0.0
 20
0.0
 30
0.0
  3
SCH_ISO
  1

  0
INSERT
  5
262
100
AcDbEntity
  8
ASHADE
 62
     1
100
AcDbBlockReference
  2
AVE_RENDER
 10
0.0
 20
0.0
 30
0.0
1001
AVE_RENDER
1002
{
1070
     6
1000
Pref
1070
    50
1070
    20
1070
     1
1070
     0
1000

1070
    10
1070
     1
1070
    30
1040
25.4
1070
     1
1040
0.3
1040
0.7
1040
0.0
1040
10.0
1010
-1.0
1020
-1.0
1030
-1.0
1040
0.3
1070
    49
1070
     0
1070
     0
1010
1.0
1020
1.0
1030
1.0
1040
45.0
1070
     1
1070
     0
1000
WCS
1040
0.0
1002
}
  0
INSERT
  5
263
100
AcDbEntity
  8
ASHADE
 62
     3
100
AcDbBlockReference
  2
AVE_RENDER
 10
0.0
 20
0.0
 30
0.0
1001
AVE_RENDER
1002
{
1070
     0
1000
Full Opt
1070
     0
1070
     1
1070
     1
1070
     1
1070
     0
1070
     0
1070
     0
1070
     1
1070
     1
1040
0.0001
1040
0.0001
1002
}
  0
INSERT
  5
264
100
AcDbEntity
  8
ASHADE
 62
     4
100
AcDbBlockReference
  2
AVE_RENDER
 10
0.0
 20
0.0
 30
0.0
1001
AVE_RENDER
1002
{
1070
     0
1000
Quick Opt
1070
     0
1070
     1
1070
     1
1070
     1
1070
     0
1070
     0
1070
     1
1002
}
  0
INSERT
  5
265
100
AcDbEntity
  8
ASHADE
 62
     5
100
AcDbBlockReference
  2
AVE_RENDER
 10
0.0
 20
0.0
 30
0.0
1001
AVE_RENDER
1002
{
1070
     1
1000
Scanl Opt
1070
     2
1070
     0
1070
     2
1040
2.0
1040
4.0
1070
     0
1070
     1
1070
     0
1040
0.03
1002
}
  0
INSERT
  5
266
100
AcDbEntity
  8
ASHADE
 62
     6
100
AcDbBlockReference
  2
AVE_RENDER
 10
0.0
 20
0.0
 30
0.0
1001
AVE_RENDER
1002
{
1070
     2
1000
Raytr Opt
1070
     2
1070
     0
1070
     2
1040
2.0
1040
4.0
1070
     0
1070
     1
1070
     1
1040
0.03
1070
     3
1040
0.03
1002
}
  0
INSERT
  5
267
100
AcDbEntity
  8
ASHADE
 62
     7
100
AcDbBlockReference
  2
AVE_RENDER
 10
0.0
 20
0.0
 30
0.0
1001
AVE_RENDER
1002
{
1070
     0
1000
RFile Opt
1070
     5
1070
   640
1070
   480
1070
 10000
1070
     3
1070
    32
1070
    24
1070
     0
1070
     0
1070
     0
1070
     1
1070
     0
1070
     0
1070
     0
1002
}
  0
INSERT
  5
268
100
AcDbEntity
  8
ASHADE
 62
     8
100
AcDbBlockReference
  2
AVE_RENDER
 10
0.0
 20
0.0
 30
0.0
1001
AVE_RENDER
1002
{
1070
     0
1000
Fog Opt
1070
     0
1070
     0
1040
0.0
1040
1.0
1040
0.0
1040
1.0
1010
0.5
1020
0.5
1030
0.5
1002
}
  0
INSERT
  5
269
100
AcDbEntity
  8
ASHADE
 62
     9
100
AcDbBlockReference
  2
AVE_RENDER
 10
0.0
 20
0.0
 30
0.0
1001
AVE_RENDER
1002
{
1070
     0
1000
BG Opt
1070
     0
1070
     1
1010
0.0
1020
0.0
1030
0.0
1010
1.0
1020
0.0
1030
0.0
1010
0.0
1020
1.0
1030
0.0
1010
0.0
1020
0.0
1030
1.0
1040
0.5
1040
0.33
1040
0.0
1000

1070
     1
1000

1070
     1
1070
     1
1040
1.0
1040
1.0
1040
0.0
1040
0.0
1070
     0
1002
}
  0
INSERT
  5
26A
100
AcDbEntity
  8
ASHADE
 62
     1
100
AcDbBlockReference
  2
AVE_GLOBAL
 10
0.0
 20
0.0
 30
0.0
1001
AVE_MATERIAL
1002
{
1000
*GLOBAL*
1000
1
1000
Finition globale.
1002
{
1002
}
1002
{
1070
    63
1002
{
1002
{
1010
-1.0
1020
-1.0
1030
-1.0
1002
}
1040
0.1
1000

1040
0.0
1002
{
1002
}
1040
0.0
1002
{
1002
}
1040
0.0
1002
}
1002
{
1002
{
1010
-1.0
1020
-1.0
1030
-1.0
1002
}
1040
0.7
1000

1040
0.0
1002
{
1002
}
1040
0.0
1002
{
1002
}
1040
0.0
1002
}
1002
{
1002
{
1010
-1.0
1020
-1.0
1030
-1.0
1002
}
1040
0.2
1000

1040
0.0
1002
{
1002
}
1040
0.0
1002
{
1002
}
1040
0.0
1002
}
1002
{
1070
     0
1002
{
1070
     1
1002
{
1040
1.0
1040
1.0
1000

1040
0.0
1002
{
1002
}
1040
0.0
1002
{
1002
}
1040
0.0
1002
}
1002
}
1040
1.0
1040
0.0
1040
0.0
1002
}
1002
{
1040
1.0
1040
1.0
1000

1040
0.0
1002
{
1002
}
1040
0.0
1002
{
1002
}
1040
0.0
1002
}
1002
{
1040
0.5
1040
1.0
1000

1040
0.0
1002
{
1002
}
1040
0.0
1002
{
1002
}
1040
0.0
1002
}
1002
{
1070
     0
1040
0.0
1002
{
1002
}
1040
1.0
1002
{
1002
}
1040
0.0
1002
}
1002
{
1040
0.0
1002
{
1002
{
1010
0.0
1020
0.0
1030
0.0
1002
}
1040
1.0
1000

1040
0.0
1002
{
1002
}
1040
0.0
1002
{
1002
}
1040
0.0
1002
}
1002
}
1002
{
1002
{
1070
     1
1002
{
1040
0.0
1040
1.0
1000

1040
0.0
1002
{
1002
}
1040
0.0
1002
{
1002
}
1040
0.0
1002
}
1002
}
1040
0.0
1002
{
1002
}
1010
1.0
1020
0.0
1030
0.0
1010
0.0
1020
1.0
1030
0.0
1010
0.0
1020
0.0
1030
1.0
1070
     0
1002
}
1002
{
1002
{
1040
1.0
1040
1.0
1002
{
1070
     1
1002
{
1040
1.0
1040
1.0
1000

1040
0.0
1002
{
1002
}
1040
0.0
1002
{
1002
}
1040
0.0
1002
}
1002
}
1002
}
1070
     0
1040
0.0
1002
{
1002
}
1002
}
1002
{
1002
}
1002
}
1002
{
1071
        3
1070
     3
1070
     0
1002
{
1070
     2
1070
     0
1070
     0
1040
0.0
1002
}
1070
     0
1070
     2
1002
{
1002
}
1002
}
1002
{
1040
8030.0
1040
190.300003
1040
0.305
1040
228.0
1040
545.0
1040
14.0
1040
17.4
1040
0.456
1002
}
1002
}
  0
ENDBLK
  5
26C
100
AcDbEntity
  8
0
100
AcDbBlockEnd
  0
ENDSEC
  0
SECTION
  2
ENTITIES
  0
INSERT
  5
3
100
AcDbEntity
  8
ALPHA
100
AcDbBlockReference
  2
AVE_RENDER
 10
0.0
 20
0.0
 30
0.0
1001
AVE_RENDER
1002
{
1070
     6
1000
Pref
1070
    50
1070
    20
1070
     1
1070
     0
1000

1070
    10
1070
     1
1070
    30
1040
25.4
1070
     1
1040
0.3
1040
0.7
1040
0.0
1040
10.0
1010
-1.0
1020
-1.0
1030
-1.0
1040
0.3
1070
    49
1070
     0
1070
     0
1010
1.0
1020
1.0
1030
1.0
1040
45.0
1070
     1
1070
     0
1000
WCS
1040
0.0
1002
}
  0
INSERT
  5
D
100
AcDbEntity
  8
ALPHA
100
AcDbBlockReference
  2
AVE_RENDER
 10
0.0
 20
0.0
 30
0.0
1001
AVE_RENDER
1002
{
1070
     0
1000
Full Opt
1070
     0
1070
     1
1070
     1
1070
     1
1070
     0
1070
     0
1070
     0
1070
     1
1070
     1
1040
0.0001
1040
0.0001
1002
}
  0
INSERT
  5
E
100
AcDbEntity
  8
ALPHA
100
AcDbBlockReference
  2
AVE_RENDER
 10
0.0
 20
0.0
 30
0.0
1001
AVE_RENDER
1002
{
1070
     0
1000
Quick Opt
1070
     0
1070
     1
1070
     1
1070
     1
1070
     0
1070
     0
1070
     1
1002
}
  0
INSERT
  5
F
100
AcDbEntity
  8
ALPHA
100
AcDbBlockReference
  2
AVE_RENDER
 10
0.0
 20
0.0
 30
0.0
1001
AVE_RENDER
1002
{
1070
     1
1000
Scanl Opt
1070
     2
1070
     0
1070
     2
1040
2.0
1040
4.0
1070
     0
1070
     1
1070
     0
1040
0.03
1002
}
  0
INSERT
  5
10
100
AcDbEntity
  8
ALPHA
100
AcDbBlockReference
  2
AVE_RENDER
 10
0.0
 20
0.0
 30
0.0
1001
AVE_RENDER
1002
{
1070
     2
1000
Raytr Opt
1070
     2
1070
     0
1070
     2
1040
2.0
1040
4.0
1070
     0
1070
     1
1070
     1
1040
0.03
1070
     3
1040
0.03
1002
}
  0
INSERT
  5
11
100
AcDbEntity
  8
ALPHA
100
AcDbBlockReference
  2
AVE_RENDER
 10
0.0
 20
0.0
 30
0.0
1001
AVE_RENDER
1002
{
1070
     0
1000
RFile Opt
1070
     5
1070
   640
1070
   480
1070
 10000
1070
     3
1070
    32
1070
    24
1070
     0
1070
     0
1070
     0
1070
     1
1070
     0
1070
     0
1070
     0
1002
}
  0
INSERT
  5
12
100
AcDbEntity
  8
ALPHA
100
AcDbBlockReference
  2
AVE_RENDER
 10
0.0
 20
0.0
 30
0.0
1001
AVE_RENDER
1002
{
1070
     0
1000
Fog Opt
1070
     0
1070
     0
1040
0.0
1040
1.0
1040
0.0
1040
1.0
1010
0.5
1020
0.5
1030
0.5
1002
}
  0
INSERT
  5
13
100
AcDbEntity
  8
ALPHA
100
AcDbBlockReference
  2
AVE_RENDER
 10
0.0
 20
0.0
 30
0.0
1001
AVE_RENDER
1002
{
1070
     0
1000
BG Opt
1070
     0
1070
     1
1010
0.0
1020
0.0
1030
0.0
1010
1.0
1020
0.0
1030
0.0
1010
0.0
1020
1.0
1030
0.0
1010
0.0
1020
0.0
1030
1.0
1040
0.5
1040
0.33
1040
0.0
1000

1070
     1
1000

1070
     1
1070
     1
1040
1.0
1040
1.0
1040
0.0
1040
0.0
1070
     0
1002
}
  0
INSERT
  5
14
100
AcDbEntity
  8
ALPHA
100
AcDbBlockReference
  2
AVE_GLOBAL
 10
0.0
 20
0.0
 30
0.0
1001
AVE_MATERIAL
1002
{
1000
*GLOBAL*
1000
1
1000
Finition globale.
1002
{
1002
}
1002
{
1070
    63
1002
{
1002
{
1010
-1.0
1020
-1.0
1030
-1.0
1002
}
1040
0.1
1000

1040
0.0
1002
{
1002
}
1040
0.0
1002
{
1002
}
1040
0.0
1002
}
1002
{
1002
{
1010
-1.0
1020
-1.0
1030
-1.0
1002
}
1040
0.7
1000

1040
0.0
1002
{
1002
}
1040
0.0
1002
{
1002
}
1040
0.0
1002
}
1002
{
1002
{
1010
-1.0
1020
-1.0
1030
-1.0
1002
}
1040
0.2
1000

1040
0.0
1002
{
1002
}
1040
0.0
1002
{
1002
}
1040
0.0
1002
}
1002
{
1070
     0
1002
{
1070
     1
1002
{
1040
1.0
1040
1.0
1000

1040
0.0
1002
{
1002
}
1040
0.0
1002
{
1002
}
1040
0.0
1002
}
1002
}
1040
1.0
1040
0.0
1040
0.0
1002
}
1002
{
1040
1.0
1040
1.0
1000

1040
0.0
1002
{
1002
}
1040
0.0
1002
{
1002
}
1040
0.0
1002
}
1002
{
1040
0.5
1040
1.0
1000

1040
0.0
1002
{
1002
}
1040
0.0
1002
{
1002
}
1040
0.0
1002
}
1002
{
1070
     0
1040
0.0
1002
{
1002
}
1040
1.0
1002
{
1002
}
1040
0.0
1002
}
1002
{
1040
0.0
1002
{
1002
{
1010
0.0
1020
0.0
1030
0.0
1002
}
1040
1.0
1000

1040
0.0
1002
{
1002
}
1040
0.0
1002
{
1002
}
1040
0.0
1002
}
1002
}
1002
{
1002
{
1070
     1
1002
{
1040
0.0
1040
1.0
1000

1040
0.0
1002
{
1002
}
1040
0.0
1002
{
1002
}
1040
0.0
1002
}
1002
}
1040
0.0
1002
{
1002
}
1010
1.0
1020
0.0
1030
0.0
1010
0.0
1020
1.0
1030
0.0
1010
0.0
1020
0.0
1030
1.0
1070
     0
1002
}
1002
{
1002
{
1040
1.0
1040
1.0
1002
{
1070
     1
1002
{
1040
1.0
1040
1.0
1000

1040
0.0
1002
{
1002
}
1040
0.0
1002
{
1002
}
1040
0.0
1002
}
1002
}
1002
}
1070
     0
1040
0.0
1002
{
1002
}
1002
}
1002
{
1002
}
1002
}
1002
{
1071
        3
1070
     3
1070
     0
1002
{
1070
     2
1070
     0
1070
     0
1040
0.0
1002
}
1070
     0
1070
     2
1002
{
1002
}
1002
}
1002
{
1040
8030.0
1040
190.300003
1040
0.305
1040
228.0
1040
545.0
1040
14.0
1040
17.4
1040
0.456
1002
}
1002
}
  0
LWPOLYLINE
  5
19
100
AcDbEntity
  8
ALPHA
100
AcDbPolyline
 90
       20
 70
     0
 43
0.0
 10
98.294215
 20
156.901924
 10
98.303523
 20
157.192102
 10
98.331474
 20
157.454717
 10
98.378402
 20
157.691487
 10
98.44353
 20
157.898983
 10
98.525333
 20
158.07537
 10
98.622775
 20
158.220962
 10
98.738065
 20
158.337836
 10
98.874241
 20
158.422825
 10
99.023194
 20
158.465144
 10
99.172767
 20
158.460912
 10
99.317252
 20
158.411804
 10
99.448419
 20
158.322625
 10
99.559355
 20
158.203546
 10
99.652436
 20
158.058298
 10
99.730544
 20
157.884055
 10
99.792856
 20
157.680163
 10
99.838093
 20
157.447047
 10
99.86521
 20
157.187563
 10
99.874215
 20
156.901924
  0
LWPOLYLINE
  5
2F
100
AcDbEntity
  8
ALPHA
100
AcDbPolyline
 90
       20
 70
     0
 43
0.0
 10
99.874215
 20
149.50033
 10
99.865119
 20
149.213329
 10
99.837858
 20
148.953611
 10
99.792532
 20
148.720781
 10
99.730104
 20
148.517019
 10
99.651491
 20
148.342199
 10
99.556666
 20
148.195221
 10
99.442585
 20
148.074601
 10
99.309939
 20
147.986817
 10
99.166319
 20
147.94021
 10
99.017492
 20
147.937858
 10
98.871706
 20
147.980578
 10
98.736566
 20
148.065642
 10
98.61986
 20
148.184926
 10
98.522218
 20
148.332507
 10
98.441433
 20
148.508764
 10
98.377408
 20
148.714716
 10
98.331202
 20
148.94936
 10
98.303513
 20
149.2103
 10
98.294215
 20
149.50033
  0
LWPOLYLINE
  5
45
100
AcDbEntity
  8
ALPHA
100
AcDbPolyline
 90
       14
 70
     0
 43
0.0
 10
103.981885
 20
159.001127
 10
102.894174
 20
158.149212
 10
102.008267
 20
157.27406
 10
101.318872
 20
156.390759
 10
100.818966
 20
155.51917
 10
100.494453
 20
154.681079
 10
100.319829
 20
153.876123
 10
100.275524
 20
153.08669
 10
100.356689
 20
152.29391
 10
100.572711
 20
151.479882
 10
100.945237
 20
150.632536
 10
101.496321
 20
149.759082
 10
102.237228
 20
148.880621
 10
103.174215
 20
148.015949
  0
LWPOLYLINE
  5
55
100
AcDbEntity
  8
ALPHA
100
AcDbPolyline
 90
       12
 70
     0
 43
0.0
 10
77.574215
 20
153.201127
 10
77.574215
 20
155.229114
 10
77.574215
 20
157.215816
 10
77.574215
 20
159.120791
 10
77.574215
 20
160.905259
 10
77.574215
 20
162.532893
 10
77.574215
 20
163.970559
 10
77.574215
 20
165.18899
 10
77.574215
 20
166.163383
 10
77.574215
 20
166.873902
 10
77.574215
 20
167.306083
 10
77.574215
 20
167.451127
  0
LWPOLYLINE
  5
63
100
AcDbEntity
  8
ALPHA
100
AcDbPolyline
 90
       12
 70
     0
 43
0.0
 10
77.574215
 20
138.951127
 10
77.574215
 20
139.096172
 10
77.574215
 20
139.528352
 10
77.574215
 20
140.238871
 10
77.574215
 20
141.213264
 10
77.574215
 20
142.431696
 10
77.574215
 20
143.869362
 10
77.574215
 20
145.496995
 10
77.574215
 20
147.281463
 10
77.574215
 20
149.186438
 10
77.574215
 20
151.173141
 10
77.574215
 20
153.201127
  0
LWPOLYLINE
  5
71
100
AcDbEntity
  8
ALPHA
100
AcDbPolyline
 90
        5
 70
     0
 43
0.0
 10
103.174215
 20
162.321982
 10
103.174215
 20
161.700883
 10
103.174215
 20
160.930994
 10
103.174215
 20
160.025794
 10
103.174215
 20
159.001127
  0
LWPOLYLINE
  5
78
100
AcDbEntity
  8
ALPHA
100
AcDbPolyline
 90
        4
 70
     0
 43
0.0
 10
103.174215
 20
148.015182
 10
103.174215
 20
146.501664
 10
103.174215
 20
145.22657
 10
103.174215
 20
144.235279
  0
LWPOLYLINE
  5
7E
100
AcDbEntity
  8
ALPHA
100
AcDbPolyline
 90
        4
 70
     0
 43
0.0
 10
103.474215
 20
148.350354
 10
103.373157
 20
148.236322
 10
103.273321
 20
148.124702
 10
103.174215
 20
148.015949
  0
LINE
  5
84
100
AcDbEntity
  8
ALPHA
100
AcDbLine
 10
86.574215
 20
165.001127
 30
0.0
 11
85.774215
 21
165.001127
 31
0.0
  0
LWPOLYLINE
  5
85
100
AcDbEntity
  8
ALPHA
100
AcDbPolyline
 90
        8
 70
     0
 43
0.0
 10
97.770573
 20
154.951127
 10
97.770573
 20
156.470759
 10
97.770573
 20
157.925791
 10
97.770573
 20
159.287473
 10
97.770573
 20
160.528903
 10
97.770573
 20
161.625552
 10
97.770573
 20
162.555753
 10
97.770573
 20
163.301127
  0
LWPOLYLINE
  5
8F
100
AcDbEntity
  8
ALPHA
100
AcDbPolyline
 90
        8
 70
     0
 43
0.0
 10
97.770573
 20
143.101127
 10
97.770573
 20
143.846501
 10
97.770573
 20
144.776703
 10
97.770573
 20
145.873352
 10
97.770573
 20
147.114781
 10
97.770573
 20
148.476464
 10
97.770573
 20
149.931495
 10
97.770573
 20
151.451127
  0
LINE
  5
99
100
AcDbEntity
  8
ALPHA
100
AcDbLine
 10
83.374215
 20
152.151127
 30
0.0
 11
83.374215
 21
153.201127
 31
0.0
  0
LINE
  5
9A
100
AcDbEntity
  8
ALPHA
100
AcDbLine
 10
83.374215
 20
153.201127
 30
0.0
 11
83.374215
 21
154.251127
 31
0.0
  0
LINE
  5
9B
100
AcDbEntity
  8
ALPHA
100
AcDbLine
 10
84.574215
 20
154.356114
 30
0.0
 11
83.374215
 21
154.251127
 31
0.0
  0
LINE
  5
9C
100
AcDbEntity
  8
ALPHA
100
AcDbLine
 10
84.574215
 20
152.046141
 30
0.0
 11
83.374215
 21
152.151127
 31
0.0
  0
LINE
  5
9D
100
AcDbEntity
  8
ALPHA
100
AcDbLine
 10
104.674215
 20
159.001127
 30
0.0
 11
104.674215
 21
157.401127
 31
0.0
  0
LINE
  5
9E
100
AcDbEntity
  8
ALPHA
100
AcDbLine
 10
98.294215
 20
156.901924
 30
0.0
 11
98.294215
 21
149.50033
 31
0.0
  0
LINE
  5
9F
100
AcDbEntity
  8
ALPHA
100
AcDbLine
 10
99.874215
 20
149.50033
 30
0.0
 11
99.874215
 21
156.901924
 31
0.0
  0
LINE
  5
A0
100
AcDbEntity
  8
ALPHA
100
AcDbLine
 10
103.981885
 20
159.001127
 30
0.0
 11
103.174215
 21
159.001127
 31
0.0
  0
LINE
  5
A1
100
AcDbEntity
  8
ALPHA
100
AcDbLine
 10
103.981885
 20
159.001127
 30
0.0
 11
104.674215
 21
159.001127
 31
0.0
  0
LWPOLYLINE
  5
A2
100
AcDbEntity
  8
ALPHA
100
AcDbPolyline
 90
        3
 70
     0
 43
0.0
 10
97.950291
 20
143.101127
 10
97.962269
 20
143.147294
 10
97.974215
 20
143.19335
  0
LINE
  5
A7
100
AcDbEntity
  8
ALPHA
100
AcDbLine
 10
97.974215
 20
143.545041
 30
0.0
 11
99.974215
 21
143.545041
 31
0.0
  0
LWPOLYLINE
  5
A8
100
AcDbEntity
  8
ALPHA
100
AcDbPolyline
 90
        4
 70
     0
 43
0.0
 10
103.174215
 20
144.235109
 10
102.144283
 20
143.967812
 10
101.075498
 20
143.7369
 10
99.974215
 20
143.545041
  0
LINE
  5
AE
100
AcDbEntity
  8
ALPHA
100
AcDbLine
 10
103.474215
 20
157.401127
 30
0.0
 11
104.674215
 21
157.401127
 31
0.0
  0
LINE
  5
AF
100
AcDbEntity
  8
ALPHA
100
AcDbLine
 10
97.770573
 20
154.951127
 30
0.0
 11
97.974215
 21
154.951127
 31
0.0
  0
LINE
  5
B0
100
AcDbEntity
  8
ALPHA
100
AcDbLine
 10
88.574215
 20
154.951127
 30
0.0
 11
88.174215
 21
154.951127
 31
0.0
  0
LINE
  5
B1
100
AcDbEntity
  8
ALPHA
100
AcDbLine
 10
97.974215
 20
151.451127
 30
0.0
 11
97.770573
 21
151.451127
 31
0.0
  0
LINE
  5
B2
100
AcDbEntity
  8
ALPHA
100
AcDbLine
 10
88.574215
 20
151.451127
 30
0.0
 11
88.174215
 21
151.451127
 31
0.0
  0
LWPOLYLINE
  5
B3
100
AcDbEntity
  8
ALPHA
100
AcDbPolyline
 90
       12
 70
     0
 43
0.0
 10
77.101511
 20
153.201127
 10
77.101511
 20
151.400967
 10
77.101511
 20
149.637454
 10
77.101511
 20
147.946486
 10
77.101511
 20
146.362488
 10
77.101511
 20
144.917704
 10
77.101511
 20
143.641548
 10
77.101511
 20
142.559996
 10
77.101511
 20
141.695068
 10
77.101511
 20
141.06437
 10
77.101511
 20
140.680741
 10
77.101511
 20
140.551991
  0
LINE
  5
C1
100
AcDbEntity
  8
ALPHA
100
AcDbLine
 10
89.174215
 20
163.301127
 30
0.0
 11
89.174215
 21
163.701127
 31
0.0
  0
LINE
  5
C2
100
AcDbEntity
  8
ALPHA
100
AcDbLine
 10
97.770573
 20
143.101127
 30
0.0
 11
89.174215
 21
143.101127
 31
0.0
  0
LINE
  5
C3
100
AcDbEntity
  8
ALPHA
100
AcDbLine
 10
97.950291
 20
143.101127
 30
0.0
 11
97.770573
 21
143.101127
 31
0.0
  0
LINE
  5
C4
100
AcDbEntity
  8
ALPHA
100
AcDbLine
 10
97.770573
 20
163.301127
 30
0.0
 11
97.974215
 21
163.301127
 31
0.0
  0
LINE
  5
C5
100
AcDbEntity
  8
ALPHA
100
AcDbLine
 10
97.770573
 20
163.301127
 30
0.0
 11
89.174215
 21
163.301127
 31
0.0
  0
LINE
  5
C6
100
AcDbEntity
  8
ALPHA
100
AcDbLine
 10
103.474215
 20
160.186827
 30
0.0
 11
103.474215
 21
159.001127
 31
0.0
  0
LINE
  5
C7
100
AcDbEntity
  8
ALPHA
100
AcDbLine
 10
103.474215
 20
160.196014
 30
0.0
 11
103.474215
 21
160.186827
 31
0.0
  0
LINE
  5
C8
100
AcDbEntity
  8
ALPHA
100
AcDbLine
 10
103.474215
 20
160.406681
 30
0.0
 11
103.474215
 21
160.196014
 31
0.0
  0
LINE
  5
C9
100
AcDbEntity
  8
ALPHA
100
AcDbLine
 10
103.474215
 20
161.992032
 30
0.0
 11
103.474215
 21
160.406681
 31
0.0
  0
LINE
  5
CA
100
AcDbEntity
  8
ALPHA
100
AcDbLine
 10
103.474215
 20
148.350354
 30
0.0
 11
103.474215
 21
144.661221
 31
0.0
  0
LWPOLYLINE
  5
CB
100
AcDbEntity
  8
ALPHA
100
AcDbPolyline
 90
        4
 70
     0
 43
0.0
 10
103.474215
 20
144.661221
 10
103.376182
 20
144.520478
 10
103.276175
 20
144.378458
 10
103.174215
 20
144.235109
  0
LWPOLYLINE
  5
D1
100
AcDbEntity
  8
ALPHA
100
AcDbPolyline
 90
        4
 70
     0
 43
0.0
 10
103.174215
 20
162.321982
 10
103.275096
 20
162.211263
 10
103.375096
 20
162.10128
 10
103.474215
 20
161.992032
  0
LINE
  5
D7
100
AcDbEntity
  8
ALPHA
100
AcDbLine
 10
97.974215
 20
154.951127
 30
0.0
 11
97.974215
 21
151.451127
 31
0.0
  0
LINE
  5
D8
100
AcDbEntity
  8
ALPHA
100
AcDbLine
 10
97.974215
 20
143.545041
 30
0.0
 11
97.974215
 21
151.451127
 31
0.0
  0
LINE
  5
D9
100
AcDbEntity
  8
ALPHA
100
AcDbLine
 10
97.974215
 20
143.19335
 30
0.0
 11
97.974215
 21
143.545041
 31
0.0
  0
LINE
  5
DA
100
AcDbEntity
  8
ALPHA
100
AcDbLine
 10
97.974215
 20
154.951127
 30
0.0
 11
97.974215
 21
163.301127
 31
0.0
  0
LINE
  5
DB
100
AcDbEntity
  8
ALPHA
100
AcDbLine
 10
86.574215
 20
164.101127
 30
0.0
 11
86.574215
 21
165.001127
 31
0.0
  0
LINE
  5
DC
100
AcDbEntity
  8
ALPHA
100
AcDbLine
 10
86.462055
 20
163.988968
 30
0.0
 11
86.574215
 21
164.101127
 31
0.0
  0
LINE
  5
DD
100
AcDbEntity
  8
ALPHA
100
AcDbLine
 10
103.474215
 20
157.401127
 30
0.0
 11
103.474215
 21
148.350354
 31
0.0
  0
LINE
  5
DE
100
AcDbEntity
  8
ALPHA
100
AcDbLine
 10
86.374215
 20
165.201127
 30
0.0
 11
85.774215
 21
165.201127
 31
0.0
  0
ARC
  5
DF
100
AcDbEntity
  8
ALPHA
100
AcDbCircle
 10
86.374215
 20
165.001127
 30
0.0
 40
0.2
100
AcDbArc
 50
0.0
 51
90.0
  0
LINE
  5
E0
100
AcDbEntity
  8
ALPHA
100
AcDbLine
 10
88.574215
 20
151.451127
 30
0.0
 11
97.770573
 21
151.451127
 31
0.0
  0
LINE
  5
E1
100
AcDbEntity
  8
ALPHA
100
AcDbLine
 10
88.574215
 20
151.451127
 30
0.0
 11
88.574215
 21
150.701127
 31
0.0
  0
LINE
  5
E2
100
AcDbEntity
  8
ALPHA
100
AcDbLine
 10
88.574215
 20
150.701127
 30
0.0
 11
89.174215
 21
150.201127
 31
0.0
  0
LINE
  5
E3
100
AcDbEntity
  8
ALPHA
100
AcDbLine
 10
89.174215
 20
143.101127
 30
0.0
 11
89.174215
 21
150.201127
 31
0.0
  0
LINE
  5
E4
100
AcDbEntity
  8
ALPHA
100
AcDbLine
 10
89.174215
 20
163.301127
 30
0.0
 11
89.174215
 21
156.201127
 31
0.0
  0
LINE
  5
E5
100
AcDbEntity
  8
ALPHA
100
AcDbLine
 10
89.174215
 20
156.201127
 30
0.0
 11
88.574215
 21
155.701127
 31
0.0
  0
LINE
  5
E6
100
AcDbEntity
  8
ALPHA
100
AcDbLine
 10
88.574215
 20
155.701127
 30
0.0
 11
88.574215
 21
154.951127
 31
0.0
  0
LINE
  5
E7
100
AcDbEntity
  8
ALPHA
100
AcDbLine
 10
97.770573
 20
154.951127
 30
0.0
 11
88.574215
 21
154.951127
 31
0.0
  0
LINE
  5
E8
100
AcDbEntity
  8
ALPHA
100
AcDbLine
 10
84.574215
 20
138.951127
 30
0.0
 11
77.574215
 21
138.951127
 31
0.0
  0
LINE
  5
E9
100
AcDbEntity
  8
ALPHA
100
AcDbLine
 10
84.574215
 20
148.631663
 30
0.0
 11
84.574215
 21
152.046141
 31
0.0
  0
LINE
  5
EA
100
AcDbEntity
  8
ALPHA
100
AcDbLine
 10
84.574215
 20
148.249612
 30
0.0
 11
84.574215
 21
148.631663
 31
0.0
  0
LINE
  5
EB
100
AcDbEntity
  8
ALPHA
100
AcDbLine
 10
84.574215
 20
148.116587
 30
0.0
 11
84.574215
 21
148.249612
 31
0.0
  0
LINE
  5
EC
100
AcDbEntity
  8
ALPHA
100
AcDbLine
 10
84.574215
 20
148.102108
 30
0.0
 11
84.574215
 21
148.116587
 31
0.0
  0
LINE
  5
ED
100
AcDbEntity
  8
ALPHA
100
AcDbLine
 10
84.574215
 20
143.701127
 30
0.0
 11
84.574215
 21
148.102108
 31
0.0
  0
LINE
  5
EE
100
AcDbEntity
  8
ALPHA
100
AcDbLine
 10
84.574215
 20
143.399726
 30
0.0
 11
84.574215
 21
143.701127
 31
0.0
  0
LINE
  5
EF
100
AcDbEntity
  8
ALPHA
100
AcDbLine
 10
84.574215
 20
143.136744
 30
0.0
 11
84.574215
 21
143.399726
 31
0.0
  0
LINE
  5
F0
100
AcDbEntity
  8
ALPHA
100
AcDbLine
 10
84.574215
 20
143.101127
 30
0.0
 11
84.574215
 21
143.136744
 31
0.0
  0
LINE
  5
F1
100
AcDbEntity
  8
ALPHA
100
AcDbLine
 10
84.574215
 20
143.073083
 30
0.0
 11
84.574215
 21
143.101127
 31
0.0
  0
LINE
  5
F2
100
AcDbEntity
  8
ALPHA
100
AcDbLine
 10
84.574215
 20
141.301199
 30
0.0
 11
84.574215
 21
143.073083
 31
0.0
  0
LINE
  5
F3
100
AcDbEntity
  8
ALPHA
100
AcDbLine
 10
84.574215
 20
141.151127
 30
0.0
 11
84.574215
 21
141.301199
 31
0.0
  0
LINE
  5
F4
100
AcDbEntity
  8
ALPHA
100
AcDbLine
 10
84.574215
 20
139.701127
 30
0.0
 11
84.574215
 21
141.151127
 31
0.0
  0
LINE
  5
F5
100
AcDbEntity
  8
ALPHA
100
AcDbLine
 10
84.574215
 20
138.951379
 30
0.0
 11
84.574215
 21
139.701127
 31
0.0
  0
LINE
  5
F6
100
AcDbEntity
  8
ALPHA
100
AcDbLine
 10
89.174215
 20
142.701127
 30
0.0
 11
88.574215
 21
142.701127
 31
0.0
  0
LINE
  5
F7
100
AcDbEntity
  8
ALPHA
100
AcDbLine
 10
89.174215
 20
142.701127
 30
0.0
 11
89.174215
 21
143.101127
 31
0.0
  0
LINE
  5
F8
100
AcDbEntity
  8
ALPHA
100
AcDbLine
 10
84.574215
 20
167.451127
 30
0.0
 11
77.574215
 21
167.451127
 31
0.0
  0
LINE
  5
F9
100
AcDbEntity
  8
ALPHA
100
AcDbLine
 10
84.574215
 20
158.285667
 30
0.0
 11
84.574215
 21
154.356114
 31
0.0
  0
LINE
  5
FA
100
AcDbEntity
  8
ALPHA
100
AcDbLine
 10
84.574215
 20
158.300147
 30
0.0
 11
84.574215
 21
158.285667
 31
0.0
  0
LINE
  5
FB
100
AcDbEntity
  8
ALPHA
100
AcDbLine
 10
84.574215
 20
161.808836
 30
0.0
 11
84.574215
 21
158.300147
 31
0.0
  0
LINE
  5
FC
100
AcDbEntity
  8
ALPHA
100
AcDbLine
 10
84.574215
 20
161.840716
 30
0.0
 11
84.574215
 21
161.808836
 31
0.0
  0
LINE
  5
FD
100
AcDbEntity
  8
ALPHA
100
AcDbLine
 10
84.574215
 20
162.048726
 30
0.0
 11
84.574215
 21
161.840716
 31
0.0
  0
LINE
  5
FE
100
AcDbEntity
  8
ALPHA
100
AcDbLine
 10
84.574215
 20
163.002528
 30
0.0
 11
84.574215
 21
162.048726
 31
0.0
  0
LINE
  5
FF
100
AcDbEntity
  8
ALPHA
100
AcDbLine
 10
84.574215
 20
163.301127
 30
0.0
 11
84.574215
 21
163.002528
 31
0.0
  0
LINE
  5
100
100
AcDbEntity
  8
ALPHA
100
AcDbLine
 10
84.574215
 20
163.329171
 30
0.0
 11
84.574215
 21
163.301127
 31
0.0
  0
LINE
  5
101
100
AcDbEntity
  8
ALPHA
100
AcDbLine
 10
84.574215
 20
163.761115
 30
0.0
 11
84.574215
 21
163.329171
 31
0.0
  0
LINE
  5
102
100
AcDbEntity
  8
ALPHA
100
AcDbLine
 10
84.574215
 20
163.801127
 30
0.0
 11
84.574215
 21
163.761115
 31
0.0
  0
LINE
  5
103
100
AcDbEntity
  8
ALPHA
100
AcDbLine
 10
84.574215
 20
165.151529
 30
0.0
 11
84.574215
 21
163.801127
 31
0.0
  0
LINE
  5
104
100
AcDbEntity
  8
ALPHA
100
AcDbLine
 10
84.574215
 20
165.251127
 30
0.0
 11
84.574215
 21
165.151529
 31
0.0
  0
LINE
  5
105
100
AcDbEntity
  8
ALPHA
100
AcDbLine
 10
84.574215
 20
165.30107
 30
0.0
 11
84.574215
 21
165.251127
 31
0.0
  0
LINE
  5
106
100
AcDbEntity
  8
ALPHA
100
AcDbLine
 10
84.574215
 20
166.701108
 30
0.0
 11
84.574215
 21
165.30107
 31
0.0
  0
LINE
  5
107
100
AcDbEntity
  8
ALPHA
100
AcDbLine
 10
84.574215
 20
167.450875
 30
0.0
 11
84.574215
 21
166.701108
 31
0.0
  0
LINE
  5
108
100
AcDbEntity
  8
ALPHA
100
AcDbLine
 10
89.174215
 20
163.701127
 30
0.0
 11
88.574215
 21
163.701127
 31
0.0
  0
LWPOLYLINE
  5
109
100
AcDbEntity
  8
ALPHA
100
AcDbPolyline
 90
       12
 70
     0
 43
0.0
 10
77.101511
 20
165.850264
 10
77.101511
 20
165.721514
 10
77.101511
 20
165.337885
 10
77.101511
 20
164.707186
 10
77.101511
 20
163.842258
 10
77.101511
 20
162.760707
 10
77.101511
 20
161.48455
 10
77.101511
 20
160.039767
 10
77.101511
 20
158.455768
 10
77.101511
 20
156.764801
 10
77.101511
 20
155.001287
 10
77.101511
 20
153.201127
  0
LINE
  5
117
100
AcDbEntity
  8
ALPHA
100
AcDbLine
 10
97.974215
 20
163.201127
 30
0.0
 11
103.174215
 21
163.201127
 31
0.0
  0
LINE
  5
118
100
AcDbEntity
  8
ALPHA
100
AcDbLine
 10
103.174215
 20
163.201071
 30
0.0
 11
103.174215
 21
162.321982
 31
0.0
  0
LINE
  5
119
100
AcDbEntity
  8
ALPHA
100
AcDbLine
 10
77.101511
 20
165.850264
 30
0.0
 11
77.574215
 21
167.451127
 31
0.0
  0
LINE
  5
11A
100
AcDbEntity
  8
ALPHA
100
AcDbLine
 10
77.101511
 20
140.551991
 30
0.0
 11
77.574215
 21
138.951127
 31
0.0
  0
LINE
  5
11B
100
AcDbEntity
  8
ALPHA
100
AcDbLine
 10
86.374215
 20
165.201127
 30
0.0
 11
85.774215
 21
165.201127
 31
0.0
  0
LINE
  5
11C
100
AcDbEntity
  8
ALPHA
100
AcDbLine
 10
84.574215
 20
154.356114
 30
0.0
 11
84.574215
 21
152.046141
 31
0.0
  0
LWPOLYLINE
  5
11D
100
AcDbEntity
  8
ALPHA
100
AcDbPolyline
 90
       16
 70
     0
 43
0.0
 10
72.574215
 20
165.551127
 10
72.574215
 20
165.483473
 10
72.574215
 20
165.28125
 10
72.574215
 20
164.946675
 10
72.574215
 20
164.483414
 10
72.574215
 20
163.896541
 10
72.574215
 20
163.192487
 10
72.574215
 20
162.378966
 10
72.574215
 20
161.46489
 10
72.574215
 20
160.460275
 10
72.574215
 20
159.376127
 10
72.574215
 20
158.224325
 10
72.574215
 20
157.017487
 10
72.574215
 20
155.768837
 10
72.574215
 20
154.492054
 10
72.574215
 20
153.201127
  0
LWPOLYLINE
  5
12F
100
AcDbEntity
  8
ALPHA
100
AcDbPolyline
 90
       16
 70
     0
 43
0.0
 10
72.44446
 20
165.097019
 10
72.44446
 20
165.079572
 10
72.44446
 20
164.940309
 10
72.44446
 20
164.663413
 10
72.44446
 20
164.252134
 10
72.44446
 20
163.711291
 10
72.44446
 20
163.047226
 10
72.44446
 20
162.267724
 10
72.44446
 20
161.381925
 10
72.44446
 20
160.400214
 10
72.44446
 20
159.3341
 10
72.44446
 20
158.196082
 10
72.44446
 20
156.999504
 10
72.44446
 20
155.758392
 10
72.44446
 20
154.487299
 10
72.44446
 20
153.201127
  0
LWPOLYLINE
  5
141
100
AcDbEntity
  8
ALPHA
100
AcDbPolyline
 90
       16
 70
     0
 43
0.0
 10
72.574215
 20
140.851127
 10
72.574215
 20
140.918782
 10
72.574215
 20
141.121004
 10
72.574215
 20
141.455579
 10
72.574215
 20
141.918841
 10
72.574215
 20
142.505713
 10
72.574215
 20
143.209767
 10
72.574215
 20
144.023289
 10
72.574215
 20
144.937364
 10
72.574215
 20
145.941979
 10
72.574215
 20
147.026127
 10
72.574215
 20
148.17793
 10
72.574215
 20
149.384767
 10
72.574215
 20
150.633418
 10
72.574215
 20
151.910201
 10
72.574215
 20
153.201127
  0
LWPOLYLINE
  5
153
100
AcDbEntity
  8
ALPHA
100
AcDbPolyline
 90
       16
 70
     0
 43
0.0
 10
72.44446
 20
141.305235
 10
72.44446
 20
141.322682
 10
72.44446
 20
141.461946
 10
72.44446
 20
141.738841
 10
72.44446
 20
142.150121
 10
72.44446
 20
142.690964
 10
72.44446
 20
143.355028
 10
72.44446
 20
144.13453
 10
72.44446
 20
145.020329
 10
72.44446
 20
146.00204
 10
72.44446
 20
147.068154
 10
72.44446
 20
148.206172
 10
72.44446
 20
149.402751
 10
72.44446
 20
150.643862
 10
72.44446
 20
151.914955
 10
72.44446
 20
153.201127
  0
LINE
  5
165
100
AcDbEntity
  8
ALPHA
100
AcDbLine
 10
72.074215
 20
153.201127
 30
0.0
 11
72.074215
 21
144.001127
 31
0.0
  0
ARC
  5
166
100
AcDbEntity
  8
ALPHA
100
AcDbCircle
 10
82.074215
 20
144.001127
 30
0.0
 40
10.0
100
AcDbArc
 50
180.0
 51
195.639821
  0
LINE
  5
167
100
AcDbEntity
  8
ALPHA
100
AcDbLine
 10
72.574215
 20
140.851127
 30
0.0
 11
72.44446
 21
141.305235
 31
0.0
  0
LINE
  5
168
100
AcDbEntity
  8
ALPHA
100
AcDbLine
 10
77.101511
 20
140.851127
 30
0.0
 11
72.574215
 21
140.851127
 31
0.0
  0
LINE
  5
169
100
AcDbEntity
  8
ALPHA
100
AcDbLine
 10
72.074215
 20
162.401127
 30
0.0
 11
72.074215
 21
153.201127
 31
0.0
  0
ARC
  5
16A
100
AcDbEntity
  8
ALPHA
100
AcDbCircle
 10
82.074215
 20
162.401127
 30
0.0
 40
10.0
100
AcDbArc
 50
164.360179
 51
180.0
  0
LINE
  5
16B
100
AcDbEntity
  8
ALPHA
100
AcDbLine
 10
72.574215
 20
165.551127
 30
0.0
 11
72.44446
 21
165.097019
 31
0.0
  0
LINE
  5
16C
100
AcDbEntity
  8
ALPHA
100
AcDbLine
 10
77.101511
 20
165.551127
 30
0.0
 11
72.574215
 21
165.551127
 31
0.0
  0
LINE
  5
16D
100
AcDbEntity
  8
ALPHA
100
AcDbLine
 10
85.774215
 20
158.300147
 30
0.0
 11
84.574215
 21
158.300147
 31
0.0
  0
LINE
  5
16E
100
AcDbEntity
  8
ALPHA
100
AcDbLine
 10
85.774215
 20
148.102108
 30
0.0
 11
84.574215
 21
148.102108
 31
0.0
  0
LWPOLYLINE
  5
16F
100
AcDbEntity
  8
ALPHA
100
AcDbPolyline
 90
        5
 70
     0
 43
0.0
 10
88.574215
 20
148.512637
 10
87.995615
 20
148.651983
 10
87.369829
 20
148.81463
 10
86.696168
 20
148.995956
 10
85.974215
 20
149.195682
  0
LINE
  5
176
100
AcDbEntity
  8
ALPHA
100
AcDbLine
 10
85.974215
 20
150.858165
 30
0.0
 11
85.774215
 21
150.858165
 31
0.0
  0
LINE
  5
177
100
AcDbEntity
  8
ALPHA
100
AcDbLine
 10
85.974215
 20
143.239728
 30
0.0
 11
85.774215
 21
143.239728
 31
0.0
  0
LWPOLYLINE
  5
178
100
AcDbEntity
  8
ALPHA
100
AcDbPolyline
 90
        6
 70
     0
 43
0.0
 10
87.962072
 20
155.701127
 10
87.776759
 20
154.699611
 10
87.685548
 20
153.700326
 10
87.685548
 20
152.701928
 10
87.776759
 20
151.702643
 10
87.962072
 20
150.701127
  0
LWPOLYLINE
  5
180
100
AcDbEntity
  8
ALPHA
100
AcDbPolyline
 90
        5
 70
     0
 43
0.0
 10
85.974215
 20
146.331572
 10
86.68985
 20
146.49954
 10
87.360422
 20
146.656116
 10
87.987615
 20
146.800424
 10
88.574215
 20
146.927743
  0
LINE
  5
187
100
AcDbEntity
  8
ALPHA
100
AcDbLine
 10
85.974215
 20
163.638067
 30
0.0
 11
85.774215
 21
163.638067
 31
0.0
  0
LWPOLYLINE
  5
188
100
AcDbEntity
  8
ALPHA
100
AcDbPolyline
 90
        3
 70
     0
 43
0.0
 10
88.574215
 20
163.151909
 10
87.995613
 20
163.21638
 10
87.58386
 20
163.26392
  0
LWPOLYLINE
  5
18D
100
AcDbEntity
  8
ALPHA
100
AcDbPolyline
 90
        5
 70
     0
 43
0.0
 10
85.974215
 20
161.792356
 10
86.696157
 20
161.925147
 10
87.369814
 20
162.043717
 10
87.995598
 20
162.148425
 10
88.574215
 20
162.23687
  0
LINE
  5
194
100
AcDbEntity
  8
ALPHA
100
AcDbLine
 10
85.974215
 20
163.495356
 30
0.0
 11
85.974215
 21
163.638067
 31
0.0
  0
LINE
  5
195
100
AcDbEntity
  8
ALPHA
100
AcDbLine
 10
85.974215
 20
159.579621
 30
0.0
 11
85.974215
 21
161.792321
 31
0.0
  0
LINE
  5
196
100
AcDbEntity
  8
ALPHA
100
AcDbLine
 10
85.974215
 20
143.239728
 30
0.0
 11
85.974215
 21
146.33153
 31
0.0
  0
LINE
  5
197
100
AcDbEntity
  8
ALPHA
100
AcDbLine
 10
85.974215
 20
149.195722
 30
0.0
 11
85.974215
 21
146.331541
 31
0.0
  0
LINE
  5
198
100
AcDbEntity
  8
ALPHA
100
AcDbLine
 10
85.974215
 20
149.195723
 30
0.0
 11
85.974215
 21
150.858165
 31
0.0
  0
LINE
  5
199
100
AcDbEntity
  8
ALPHA
100
AcDbLine
 10
85.974215
 20
159.579621
 30
0.0
 11
85.774215
 21
159.579621
 31
0.0
  0
LINE
  5
19A
100
AcDbEntity
  8
ALPHA
100
AcDbLine
 10
88.574215
 20
146.927743
 30
0.0
 11
88.574215
 21
148.512637
 31
0.0
  0
LINE
  5
19B
100
AcDbEntity
  8
ALPHA
100
AcDbLine
 10
88.574215
 20
162.361199
 30
0.0
 11
88.574215
 21
162.23687
 31
0.0
  0
LINE
  5
19C
100
AcDbEntity
  8
ALPHA
100
AcDbLine
 10
88.574215
 20
163.151909
 30
0.0
 11
88.574215
 21
162.351127
 31
0.0
  0
LINE
  5
19D
100
AcDbEntity
  8
ALPHA
100
AcDbLine
 10
87.074215
 20
163.988968
 30
0.0
 11
87.074215
 21
164.201127
 31
0.0
  0
LINE
  5
19E
100
AcDbEntity
  8
ALPHA
100
AcDbLine
 10
87.074215
 20
163.988968
 30
0.0
 11
85.774215
 21
163.988968
 31
0.0
  0
ARC
  5
19F
100
AcDbEntity
  8
ALPHA
100
AcDbCircle
 10
91.174215
 20
155.701127
 30
0.0
 40
3.0
100
AcDbArc
 50
150.073565
 51
180.0
  0
LINE
  5
1A0
100
AcDbEntity
  8
ALPHA
100
AcDbLine
 10
88.574215
 20
162.23687
 30
0.0
 11
88.574215
 21
157.19779
 31
0.0
  0
LINE
  5
1A1
100
AcDbEntity
  8
ALPHA
100
AcDbLine
 10
88.574215
 20
149.204464
 30
0.0
 11
88.574215
 21
148.512637
 31
0.0
  0
ARC
  5
1A2
100
AcDbEntity
  8
ALPHA
100
AcDbCircle
 10
91.174215
 20
150.701127
 30
0.0
 40
3.0
100
AcDbArc
 50
180.0
 51
209.926435
  0
LINE
  5
1A3
100
AcDbEntity
  8
ALPHA
100
AcDbLine
 10
88.174215
 20
150.701127
 30
0.0
 11
88.174215
 21
155.701127
 31
0.0
  0
LINE
  5
1A4
100
AcDbEntity
  8
ALPHA
100
AcDbLine
 10
87.962072
 20
155.701127
 30
0.0
 11
88.174215
 21
155.701127
 31
0.0
  0
LINE
  5
1A5
100
AcDbEntity
  8
ALPHA
100
AcDbLine
 10
87.962072
 20
150.701127
 30
0.0
 11
88.174215
 21
150.701127
 31
0.0
  0
LINE
  5
1A6
100
AcDbEntity
  8
ALPHA
100
AcDbLine
 10
88.574215
 20
146.927743
 30
0.0
 11
88.574215
 21
142.201127
 31
0.0
  0
LINE
  5
1A7
100
AcDbEntity
  8
ALPHA
100
AcDbLine
 10
85.774215
 20
166.701127
 30
0.0
 11
84.574215
 21
166.701127
 31
0.0
  0
LINE
  5
1A8
100
AcDbEntity
  8
ALPHA
100
AcDbLine
 10
88.574215
 20
142.201127
 30
0.0
 11
85.774215
 21
142.201127
 31
0.0
  0
LINE
  5
1A9
100
AcDbEntity
  8
ALPHA
100
AcDbLine
 10
88.574215
 20
164.201127
 30
0.0
 11
87.074215
 21
164.201127
 31
0.0
  0
LINE
  5
1AA
100
AcDbEntity
  8
ALPHA
100
AcDbLine
 10
88.574215
 20
164.201063
 30
0.0
 11
88.574215
 21
163.151909
 31
0.0
  0
LINE
  5
1AB
100
AcDbEntity
  8
ALPHA
100
AcDbLine
 10
85.774215
 20
165.301065
 30
0.0
 11
85.774215
 21
166.701108
 31
0.0
  0
LINE
  5
1AC
100
AcDbEntity
  8
ALPHA
100
AcDbLine
 10
85.774215
 20
165.162037
 30
0.0
 11
85.774215
 21
165.301065
 31
0.0
  0
LINE
  5
1AD
100
AcDbEntity
  8
ALPHA
100
AcDbLine
 10
85.774215
 20
165.151494
 30
0.0
 11
85.774215
 21
165.162037
 31
0.0
  0
LINE
  5
1AE
100
AcDbEntity
  8
ALPHA
100
AcDbLine
 10
85.774215
 20
163.988968
 30
0.0
 11
85.774215
 21
165.151494
 31
0.0
  0
LINE
  5
1AF
100
AcDbEntity
  8
ALPHA
100
AcDbLine
 10
85.774215
 20
163.801127
 30
0.0
 11
85.774215
 21
163.988968
 31
0.0
  0
LINE
  5
1B0
100
AcDbEntity
  8
ALPHA
100
AcDbLine
 10
85.774215
 20
163.638067
 30
0.0
 11
85.774215
 21
163.801127
 31
0.0
  0
LINE
  5
1B1
100
AcDbEntity
  8
ALPHA
100
AcDbLine
 10
85.774215
 20
159.579621
 30
0.0
 11
85.774215
 21
163.638067
 31
0.0
  0
LINE
  5
1B2
100
AcDbEntity
  8
ALPHA
100
AcDbLine
 10
85.774215
 20
158.477214
 30
0.0
 11
85.774215
 21
159.579621
 31
0.0
  0
LINE
  5
1B3
100
AcDbEntity
  8
ALPHA
100
AcDbLine
 10
85.774215
 20
158.300147
 30
0.0
 11
85.774215
 21
158.477214
 31
0.0
  0
LINE
  5
1B4
100
AcDbEntity
  8
ALPHA
100
AcDbLine
 10
85.774215
 20
158.300147
 30
0.0
 11
85.774215
 21
148.102108
 31
0.0
  0
LINE
  5
1B5
100
AcDbEntity
  8
ALPHA
100
AcDbLine
 10
85.774215
 20
142.201127
 30
0.0
 11
85.774215
 21
139.701146
 31
0.0
  0
LINE
  5
1B6
100
AcDbEntity
  8
ALPHA
100
AcDbLine
 10
85.774215
 20
143.101127
 30
0.0
 11
85.774215
 21
142.201127
 31
0.0
  0
LINE
  5
1B7
100
AcDbEntity
  8
ALPHA
100
AcDbLine
 10
85.774215
 20
143.239728
 30
0.0
 11
85.774215
 21
143.101127
 31
0.0
  0
LINE
  5
1B8
100
AcDbEntity
  8
ALPHA
100
AcDbLine
 10
85.774215
 20
147.925041
 30
0.0
 11
85.774215
 21
143.239728
 31
0.0
  0
LINE
  5
1B9
100
AcDbEntity
  8
ALPHA
100
AcDbLine
 10
85.774215
 20
148.102108
 30
0.0
 11
85.774215
 21
147.925041
 31
0.0
  0
LINE
  5
1BA
100
AcDbEntity
  8
ALPHA
100
AcDbLine
 10
85.774215
 20
139.701127
 30
0.0
 11
84.574215
 21
139.701127
 31
0.0
  0
LWPOLYLINE
  5
1BB
100
AcDbEntity
  8
ALPHA
100
AcDbPolyline
 90
        5
 70
     0
 43
0.0
 10
87.58389
 20
163.263961
 10
87.34486
 20
163.29336
 10
86.898396
 20
163.354738
 10
86.418378
 20
163.426242
 10
85.974215
 20
163.495356
  0
LINE
  5
1C2
100
AcDbEntity
  8
ALPHA
100
AcDbLine
 10
85.974215
 20
162.768062
 30
0.0
 11
85.974215
 21
161.792321
 31
0.0
  0
LINE
  5
1C3
100
AcDbEntity
  8
ALPHA
100
AcDbLine
 10
85.974215
 20
162.799659
 30
0.0
 11
85.974215
 21
162.771304
 31
0.0
  0
LINE
  5
1C4
100
AcDbEntity
  8
ALPHA
100
AcDbLine
 10
85.974215
 20
162.906116
 30
0.0
 11
85.974215
 21
162.799659
 31
0.0
  0
LINE
  5
1C5
100
AcDbEntity
  8
ALPHA
100
AcDbLine
 10
85.974215
 20
163.495324
 30
0.0
 11
85.974215
 21
162.895418
 31
0.0
  0
DIMENSION
  5
1C6
100
AcDbEntity
  8
COTATION1
100
AcDbDimension
  2
*D2
 10
103.474215
 20
117.5
 30
0.0
 11
88.024215
 21
119.75
 31
0.0
  3
SC_STAND
100
AcDbAlignedDimension
 13
72.574215
 23
140.851127
 33
0.0
 14
103.474215
 24
144.661221
 34
0.0
100
AcDbRotatedDimension
  0
DIMENSION
  5
1D8
100
AcDbEntity
  8
COTATION1
100
AcDbDimension
  2
*D3
 10
84.574215
 20
125.0
 30
0.0
 11
78.574215
 21
127.25
 31
0.0
  3
SC_STAND
100
AcDbAlignedDimension
 13
72.574215
 23
140.788627
 33
0.0
 14
84.574215
 24
138.951127
 34
0.0
100
AcDbRotatedDimension
  0
DIMENSION
  5
1E7
100
AcDbEntity
  8
COTATION1
100
AcDbDimension
  2
*D4
 10
84.574215
 20
132.5
 30
0.0
 11
81.074215
 21
134.75
 31
0.0
  3
SC_STAND
100
AcDbAlignedDimension
 13
77.574215
 23
138.951127
 33
0.0
 14
84.574215
 24
138.888627
 34
0.0
100
AcDbRotatedDimension
  0
DIMENSION
  5
1F6
100
AcDbEntity
  8
COTATION1
100
AcDbDimension
  2
*D5
 10
127.5
 20
167.451127
 30
0.0
 11
125.25
 21
153.201127
 31
0.0
  3
SC_STAND
100
AcDbAlignedDimension
 13
84.574215
 23
138.951127
 33
0.0
 14
84.574215
 24
167.451127
 34
0.0
 50
90.0
100
AcDbRotatedDimension
  0
DIMENSION
  5
203
100
AcDbEntity
  8
COTATION1
100
AcDbDimension
  2
*D6
 10
120.0
 20
139.701127
 30
0.0
 11
117.75
 21
153.201127
 31
0.0
  3
SC_STAND
100
AcDbAlignedDimension
 13
85.774215
 23
166.701127
 33
0.0
 14
85.774215
 24
139.701127
 34
0.0
 50
90.0
100
AcDbRotatedDimension
  0
DIMENSION
  5
210
100
AcDbEntity
  8
COTATION1
100
AcDbDimension
  2
*D7
 10
112.5
 20
142.201127
 30
0.0
 11
110.25
 21
153.201127
 31
0.0
  3
SC_STAND
100
AcDbAlignedDimension
 13
88.574215
 23
164.201127
 33
0.0
 14
88.574215
 24
142.201127
 34
0.0
 50
90.0
100
AcDbRotatedDimension
  0
INSERT
  5
26D
100
AcDbEntity
  8
COTATION1
100
AcDbBlockReference
  2
SCH_ISO
 10
0.0
 20
0.0
 30
0.0
  0
VIEWPORT
  5
220
100
AcDbEntity
 67
     1
  8
0
100
AcDbViewport
 10
251.108558
 20
148.5
 30
0.0
 40
8035.473851
 41
4752.0
 68
    -1
 69
     1
1001
ACAD
1000
MVIEW
1002
{
1070
    16
1010
0.0
1020
0.0
1030
0.0
1010
0.0
1020
0.0
1030
1.0
1040
0.0
1040
4752.0
1040
251.108558
1040
148.5
1040
50.0
1040
0.0
1040
0.0
1070
     0
1070
   100
1070
     1
1070
     1
1070
     0
1070
     0
1070
     0
1070
     0
1040
0.0
1040
0.0
1040
0.0
1040
1.0
1040
1.0
1040
0.0
1040
0.0
1070
     0
1002
{
1002
}
1002
}
  0
ENDSEC
  0
SECTION
  2
OBJECTS
  0
DICTIONARY
  5
387
100
AcDbDictionary
  3
ACAD_GROUP
350
388
  3
ACAD_MLINESTYLE
350
395
  3
ACDBVARIABLEDICTIONARY
350
3D8
  0
DICTIONARY
  5
388
102
{ACAD_REACTORS
330
387
102
}
100
AcDbDictionary
  0
DICTIONARY
  5
395
102
{ACAD_REACTORS
330
387
102
}
100
AcDbDictionary
  3
STANDARD
350
396
  0
DICTIONARY
  5
3D8
102
{ACAD_REACTORS
330
387
102
}
100
AcDbDictionary
  3
DIMADEC
350
3D9
  0
MLINESTYLE
  5
396
102
{ACAD_REACTORS
330
395
102
}
100
AcDbMlineStyle
  2
STANDARD
 70
     0
  3

 62
   256
 51
90.0
 52
90.0
 71
     2
 49
0.5
 62
   256
  6
BYLAYER
 49
-0.5
 62
   256
  6
BYLAYER
  0
DICTIONARYVAR
  5
3D9
102
{ACAD_REACTORS
330
3D8
102
}
100
DictionaryVariables
280
     0
  1
0
  0
ENDSEC
  0
EOF
