  0
SECTION
  2
HEADER
  9
$ACADVER
  1
AC1014
  9
$ACADMAINTVER
 70
     0
  9
$DWGCODEPAGE
  3
ANSI_1252
  9
$INSBASE
 10
73.377216
 20
-35.402725
 30
0.0
  9
$EXTMIN
 10
47.999315
 20
-59.89328
 30
0.0
  9
$EXTMAX
 10
99.26445
 20
-0.963969
 30
0.0
  9
$LIMMIN
 10
0.0
 20
0.0
  9
$LIMMAX
 10
210.0
 20
297.0
  9
$ORTHOMODE
 70
     0
  9
$REGENMODE
 70
     1
  9
$FILLMODE
 70
     1
  9
$QTEXTMODE
 70
     0
  9
$MIRRTEXT
 70
     1
  9
$DRAGMODE
 70
     2
  9
$LTSCALE
 40
10.0
  9
$OSMODE
 70
     0
  9
$ATTMODE
 70
     1
  9
$TEXTSIZE
 40
2.9
  9
$TRACEWID
 40
0.05
  9
$TEXTSTYLE
  7
ROMANS
  9
$CLAYER
  8
AXE
  9
$CELTYPE
  6
BYLAYER
  9
$CECOLOR
 62
   256
  9
$CELTSCALE
 40
1.0
  9
$DELOBJ
 70
     1
  9
$DISPSILH
 70
     0
  9
$DIMSCALE
 40
1.0
  9
$DIMASZ
 40
3.0
  9
$DIMEXO
 40
0.0625
  9
$DIMDLI
 40
0.38
  9
$DIMRND
 40
0.01
  9
$DIMDLE
 40
0.0
  9
$DIMEXE
 40
0.18
  9
$DIMTP
 40
0.0
  9
$DIMTM
 40
0.0
  9
$DIMTXT
 40
2.5
  9
$DIMCEN
 40
0.09
  9
$DIMTSZ
 40
0.0
  9
$DIMTOL
 70
     0
  9
$DIMLIM
 70
     0
  9
$DIMTIH
 70
     0
  9
$DIMTOH
 70
     0
  9
$DIMSE1
 70
     0
  9
$DIMSE2
 70
     0
  9
$DIMTAD
 70
     1
  9
$DIMZIN
 70
    12
  9
$DIMBLK
  1
_OPEN
  9
$DIMASO
 70
     1
  9
$DIMSHO
 70
     1
  9
$DIMPOST
  1

  9
$DIMAPOST
  1

  9
$DIMALT
 70
     0
  9
$DIMALTD
 70
     2
  9
$DIMALTF
 40
25.4
  9
$DIMLFAC
 40
1.0
  9
$DIMTOFL
 70
     1
  9
$DIMTVP
 40
0.0
  9
$DIMTIX
 70
     0
  9
$DIMSOXD
 70
     0
  9
$DIMSAH
 70
     0
  9
$DIMBLK1
  1

  9
$DIMBLK2
  1

  9
$DIMSTYLE
  2
SC_STAND
  9
$DIMCLRD
 70
     0
  9
$DIMCLRE
 70
     0
  9
$DIMCLRT
 70
     0
  9
$DIMTFAC
 40
1.0
  9
$DIMGAP
 40
1.0
  9
$DIMJUST
 70
     0
  9
$DIMSD1
 70
     0
  9
$DIMSD2
 70
     0
  9
$DIMTOLJ
 70
     1
  9
$DIMTZIN
 70
    12
  9
$DIMALTZ
 70
    12
  9
$DIMALTTZ
 70
    12
  9
$DIMFIT
 70
     5
  9
$DIMUPT
 70
     0
  9
$DIMUNIT
 70
     2
  9
$DIMDEC
 70
     4
  9
$DIMTDEC
 70
     4
  9
$DIMALTU
 70
     2
  9
$DIMALTTD
 70
     2
  9
$DIMTXSTY
  7
ROMANS
  9
$DIMAUNIT
 70
     0
  9
$LUNITS
 70
     2
  9
$LUPREC
 70
     4
  9
$SKETCHINC
 40
0.1
  9
$FILLETRAD
 40
0.0
  9
$AUNITS
 70
     0
  9
$AUPREC
 70
     0
  9
$MENU
  1
.
  9
$ELEVATION
 40
0.0
  9
$PELEVATION
 40
0.0
  9
$THICKNESS
 40
0.0
  9
$LIMCHECK
 70
     0
  9
$BLIPMODE
 70
     1
  9
$CHAMFERA
 40
0.0
  9
$CHAMFERB
 40
0.0
  9
$CHAMFERC
 40
0.0
  9
$CHAMFERD
 40
0.0
  9
$SKPOLY
 70
     0
  9
$TDCREATE
 40
2451260.710417940
  9
$TDUPDATE
 40
2451387.896134583
  9
$TDINDWG
 40
0.1336619329
  9
$TDUSRTIMER
 40
0.1336619329
  9
$USRTIMER
 70
     1
  9
$ANGBASE
 50
0.0
  9
$ANGDIR
 70
     0
  9
$PDMODE
 70
     0
  9
$PDSIZE
 40
0.0
  9
$PLINEWID
 40
0.0
  9
$COORDS
 70
     2
  9
$SPLFRAME
 70
     0
  9
$SPLINETYPE
 70
     6
  9
$SPLINESEGS
 70
     8
  9
$ATTDIA
 70
     1
  9
$ATTREQ
 70
     1
  9
$HANDLING
 70
     1
  9
$HANDSEED
  5
C7
  9
$SURFTAB1
 70
     6
  9
$SURFTAB2
 70
     6
  9
$SURFTYPE
 70
     6
  9
$SURFU
 70
     6
  9
$SURFV
 70
     6
  9
$UCSNAME
  2

  9
$UCSORG
 10
0.0
 20
0.0
 30
0.0
  9
$UCSXDIR
 10
1.0
 20
0.0
 30
0.0
  9
$UCSYDIR
 10
0.0
 20
1.0
 30
0.0
  9
$PUCSNAME
  2

  9
$PUCSORG
 10
0.0
 20
0.0
 30
0.0
  9
$PUCSXDIR
 10
1.0
 20
0.0
 30
0.0
  9
$PUCSYDIR
 10
0.0
 20
1.0
 30
0.0
  9
$USERI1
 70
     0
  9
$USERI2
 70
     0
  9
$USERI3
 70
     0
  9
$USERI4
 70
     0
  9
$USERI5
 70
     0
  9
$USERR1
 40
0.0
  9
$USERR2
 40
0.0
  9
$USERR3
 40
0.0
  9
$USERR4
 40
0.0
  9
$USERR5
 40
0.0
  9
$WORLDVIEW
 70
     1
  9
$SHADEDGE
 70
     3
  9
$SHADEDIF
 70
    70
  9
$TILEMODE
 70
     1
  9
$MAXACTVP
 70
    16
  9
$PINSBASE
 10
0.0
 20
0.0
 30
0.0
  9
$PLIMCHECK
 70
     0
  9
$PEXTMIN
 10
0.0
 20
0.0
 30
0.0
  9
$PEXTMAX
 10
420.0
 20
297.0
 30
0.0
  9
$PLIMMIN
 10
0.0
 20
0.0
  9
$PLIMMAX
 10
420.0
 20
297.0
  9
$UNITMODE
 70
     0
  9
$VISRETAIN
 70
     0
  9
$PLINEGEN
 70
     0
  9
$PSLTSCALE
 70
     1
  9
$TREEDEPTH
 70
  3020
  9
$PICKSTYLE
 70
     1
  9
$CMLSTYLE
  2
STANDARD
  9
$CMLJUST
 70
     0
  9
$CMLSCALE
 40
1.0
  9
$PROXYGRAPHICS
 70
     1
  9
$MEASUREMENT
 70
     0
  0
ENDSEC
  0
SECTION
  2
CLASSES
  0
CLASS
  1
DICTIONARYVAR
  2
AcDbDictionaryVar
  3
"AutoCAD"
 90
        0
280
     0
281
     0
  0
CLASS
  1
LWPOLYLINE
  2
AcDbPolyline
  3
"AutoCAD"
 90
        0
280
     0
281
     1
  0
ENDSEC
  0
SECTION
  2
TABLES
  0
TABLE
  2
VPORT
  5
98
100
AcDbSymbolTable
 70
     1
  0
VPORT
  5
C2
100
AcDbSymbolTableRecord
100
AcDbViewportTableRecord
  2
*ACTIVE
 70
     0
 10
0.0
 20
0.0
 11
1.0
 21
1.0
 12
27.929687
 22
-22.542078
 13
0.0
 23
0.0
 14
1.0
 24
1.0
 15
0.0
 25
0.0
 16
0.0
 26
0.0
 36
1.0
 17
0.0
 27
0.0
 37
0.0
 40
107.157221
 41
1.671053
 42
50.0
 43
0.0
 44
0.0
 50
0.0
 51
0.0
 71
     0
 72
   100
 73
     1
 74
     1
 75
     0
 76
     0
 77
     0
 78
     2
  0
ENDTAB
  0
TABLE
  2
LTYPE
  5
95
100
AcDbSymbolTable
 70
     2
  0
LTYPE
  5
A1
100
AcDbSymbolTableRecord
100
AcDbLinetypeTableRecord
  2
BYBLOCK
 70
     0
  3

 72
    65
 73
     0
 40
0.0
  0
LTYPE
  5
A2
100
AcDbSymbolTableRecord
100
AcDbLinetypeTableRecord
  2
BYLAYER
 70
     0
  3

 72
    65
 73
     0
 40
0.0
  0
LTYPE
  5
A3
100
AcDbSymbolTableRecord
100
AcDbLinetypeTableRecord
  2
CONTINUOUS
 70
     0
  3
Solid line
 72
    65
 73
     0
 40
0.0
  0
LTYPE
  5
B2
100
AcDbSymbolTableRecord
100
AcDbLinetypeTableRecord
  2
AXES2
 70
     0
  3
___ _ ___ _ ___ _ ___ _ ___ _ ___ _ ___ _ ___ _
 72
    65
 73
     4
 40
1.125
 49
0.75
 74
     0
 49
-0.125
 74
     0
 49
0.125
 74
     0
 49
-0.125
 74
     0
  0
ENDTAB
  0
TABLE
  2
LAYER
  5
92
100
AcDbSymbolTable
 70
     5
  0
LAYER
  5
9E
100
AcDbSymbolTableRecord
100
AcDbLayerTableRecord
  2
0
 70
     0
 62
   255
  6
CONTINUOUS
  0
LAYER
  5
B5
100
AcDbSymbolTableRecord
100
AcDbLayerTableRecord
  2
AXE
 70
     0
 62
    80
  6
AXES2
  0
LAYER
  5
B6
100
AcDbSymbolTableRecord
100
AcDbLayerTableRecord
  2
COTATION1
 70
     0
 62
     2
  6
CONTINUOUS
  0
LAYER
  5
B7
100
AcDbSymbolTableRecord
100
AcDbLayerTableRecord
  2
ALPHA
 70
     0
 62
   254
  6
CONTINUOUS
  0
LAYER
  5
B8
100
AcDbSymbolTableRecord
100
AcDbLayerTableRecord
  2
DEFPOINTS
 70
     0
 62
     7
  6
CONTINUOUS
  0
ENDTAB
  0
TABLE
  2
STYLE
  5
93
100
AcDbSymbolTable
 70
     2
  0
STYLE
  5
9F
100
AcDbSymbolTableRecord
100
AcDbTextStyleTableRecord
  2
STANDARD
 70
     0
 40
0.0
 41
1.0
 50
0.0
 71
     0
 42
0.2
  3
txt
  4

  0
STYLE
  5
B1
100
AcDbSymbolTableRecord
100
AcDbTextStyleTableRecord
  2
ROMANS
 70
     0
 40
0.0
 41
1.0
 50
0.0
 71
     0
 42
2.9
  3
romans.shx
  4

  0
ENDTAB
  0
TABLE
  2
VIEW
  5
96
100
AcDbSymbolTable
 70
     0
  0
ENDTAB
  0
TABLE
  2
UCS
  5
97
100
AcDbSymbolTable
 70
     0
  0
ENDTAB
  0
TABLE
  2
APPID
  5
99
100
AcDbSymbolTable
 70
     1
  0
APPID
  5
A0
100
AcDbSymbolTableRecord
100
AcDbRegAppTableRecord
  2
ACAD
 70
     0
  0
ENDTAB
  0
TABLE
  2
DIMSTYLE
  5
9A
100
AcDbSymbolTable
 70
     1
  0
DIMSTYLE
105
B4
102
{ACAD_REACTORS
330
24
330
3A
330
4C
330
64
102
}
100
AcDbSymbolTableRecord
100
AcDbDimStyleTableRecord
  2
SC_STAND
 70
     0
  3

  4

  5

  6

  7

 40
1.0
 41
3.0
 42
0.0625
 43
0.38
 44
0.18
 45
0.01
 46
0.0
 47
0.0
 48
0.0
140
2.5
141
0.09
142
0.0
143
25.4
144
1.0
145
0.0
146
1.0
147
1.0
 71
     0
 72
     0
 73
     0
 74
     0
 75
     0
 76
     0
 77
     1
 78
    12
170
     0
171
     2
172
     1
173
     0
174
     0
175
     0
176
     0
177
     0
178
     0
270
     2
271
     4
272
     4
273
     2
274
     2
340
B1
275
     0
280
     0
281
     0
282
     0
283
     1
284
    12
285
    12
286
    12
287
     5
288
     0
  0
ENDTAB
  0
TABLE
  2
BLOCK_RECORD
  5
91
100
AcDbSymbolTable
 70
     5
  0
BLOCK_RECORD
  5
A7
100
AcDbSymbolTableRecord
100
AcDbBlockTableRecord
  2
*MODEL_SPACE
  0
BLOCK_RECORD
  5
A4
100
AcDbSymbolTableRecord
100
AcDbBlockTableRecord
  2
*PAPER_SPACE
  0
BLOCK_RECORD
  5
AC
100
AcDbSymbolTableRecord
100
AcDbBlockTableRecord
  2
*D0
  0
BLOCK_RECORD
  5
AD
100
AcDbSymbolTableRecord
100
AcDbBlockTableRecord
  2
*D1
  0
BLOCK_RECORD
  5
AE
100
AcDbSymbolTableRecord
100
AcDbBlockTableRecord
  2
*D2
  0
BLOCK_RECORD
  5
AF
100
AcDbSymbolTableRecord
100
AcDbBlockTableRecord
  2
*D3
  0
BLOCK_RECORD
  5
B0
100
AcDbSymbolTableRecord
100
AcDbBlockTableRecord
  2
_OPEN
  0
ENDTAB
  0
ENDSEC
  0
SECTION
  2
BLOCKS
  0
BLOCK
  5
BB
100
AcDbEntity
  8
0
100
AcDbBlockBegin
  2
*MODEL_SPACE
 70
     0
 10
0.0
 20
0.0
 30
0.0
  3
*MODEL_SPACE
  1

  0
ENDBLK
  5
BC
100
AcDbEntity
  8
0
100
AcDbBlockEnd
  0
BLOCK
  5
B9
100
AcDbEntity
 67
     1
  8
0
100
AcDbBlockBegin
  2
*PAPER_SPACE
 70
     0
 10
0.0
 20
0.0
 30
0.0
  3
*PAPER_SPACE
  1

  0
ENDBLK
  5
BA
100
AcDbEntity
 67
     1
  8
0
100
AcDbBlockEnd
  0
BLOCK
  5
47
100
AcDbEntity
  8
0
100
AcDbBlockBegin
  2
*D0
 70
     1
 10
0.0
 20
0.0
 30
0.0
  3
*D0
  1

  0
LINE
  5
3C
100
AcDbEntity
  8
0
  6
BYBLOCK
 62
     0
100
AcDbLine
 10
76.060265
 20
-47.715225
 30
0.0
 11
76.060265
 21
-59.57328
 31
0.0
  0
LINE
  5
3D
100
AcDbEntity
  8
0
  6
BYBLOCK
 62
     0
100
AcDbLine
 10
63.560265
 20
-47.715225
 30
0.0
 11
63.560265
 21
-59.57328
 31
0.0
  0
LINE
  5
3E
100
AcDbEntity
  8
0
  6
BYBLOCK
 62
     0
100
AcDbLine
 10
79.060265
 20
-59.39328
 30
0.0
 11
82.060265
 21
-59.39328
 31
0.0
  0
LINE
  5
3F
100
AcDbEntity
  8
0
  6
BYBLOCK
 62
     0
100
AcDbLine
 10
60.560265
 20
-59.39328
 30
0.0
 11
57.560265
 21
-59.39328
 31
0.0
  0
LINE
  5
40
100
AcDbEntity
  8
0
  6
BYBLOCK
 62
     0
100
AcDbLine
 10
76.060265
 20
-59.39328
 30
0.0
 11
63.560265
 21
-59.39328
 31
0.0
  0
INSERT
  5
41
100
AcDbEntity
  8
0
  6
BYBLOCK
 62
     0
100
AcDbBlockReference
  2
_OPEN
 10
76.060265
 20
-59.39328
 30
0.0
 41
3.0
 42
3.0
 43
3.0
 50
180.0
  0
INSERT
  5
42
100
AcDbEntity
  8
0
  6
BYBLOCK
 62
     0
100
AcDbBlockReference
  2
_OPEN
 10
63.560265
 20
-59.39328
 30
0.0
 41
3.0
 42
3.0
 43
3.0
  0
TEXT
  5
43
100
AcDbEntity
  8
0
  6
BYBLOCK
 62
     0
100
AcDbText
 10
66.476932
 20
-58.39328
 30
0.0
 40
2.5
  1
12.5
100
AcDbText
  0
POINT
  5
44
100
AcDbEntity
  8
DEFPOINTS
  6
BYBLOCK
 62
     0
100
AcDbPoint
 10
76.060265
 20
-47.652725
 30
0.0
  0
POINT
  5
45
100
AcDbEntity
  8
DEFPOINTS
  6
BYBLOCK
 62
     0
100
AcDbPoint
 10
63.560265
 20
-47.652725
 30
0.0
  0
POINT
  5
46
100
AcDbEntity
  8
DEFPOINTS
  6
BYBLOCK
 62
     0
100
AcDbPoint
 10
63.560265
 20
-59.39328
 30
0.0
  0
ENDBLK
  5
48
100
AcDbEntity
  8
0
100
AcDbBlockEnd
  0
BLOCK
  5
59
100
AcDbEntity
  8
0
100
AcDbBlockBegin
  2
*D1
 70
     1
 10
0.0
 20
0.0
 30
0.0
  3
*D1
  1

  0
LINE
  5
4E
100
AcDbEntity
  8
0
  6
BYBLOCK
 62
     0
100
AcDbLine
 10
63.560265
 20
-32.590225
 30
0.0
 11
63.560265
 21
-26.931772
 31
0.0
  0
LINE
  5
4F
100
AcDbEntity
  8
0
  6
BYBLOCK
 62
     0
100
AcDbLine
 10
66.610265
 20
-33.640225
 30
0.0
 11
66.610265
 21
-26.931772
 31
0.0
  0
LINE
  5
50
100
AcDbEntity
  8
0
  6
BYBLOCK
 62
     0
100
AcDbLine
 10
60.560265
 20
-27.111772
 30
0.0
 11
57.560265
 21
-27.111772
 31
0.0
  0
LINE
  5
51
100
AcDbEntity
  8
0
  6
BYBLOCK
 62
     0
100
AcDbLine
 10
69.610265
 20
-27.111772
 30
0.0
 11
81.693598
 21
-27.111772
 31
0.0
  0
LINE
  5
52
100
AcDbEntity
  8
0
  6
BYBLOCK
 62
     0
100
AcDbLine
 10
63.560265
 20
-27.111772
 30
0.0
 11
66.610265
 21
-27.111772
 31
0.0
  0
INSERT
  5
53
100
AcDbEntity
  8
0
  6
BYBLOCK
 62
     0
100
AcDbBlockReference
  2
_OPEN
 10
63.560265
 20
-27.111772
 30
0.0
 41
3.0
 42
3.0
 43
3.0
  0
INSERT
  5
54
100
AcDbEntity
  8
0
  6
BYBLOCK
 62
     0
100
AcDbBlockReference
  2
_OPEN
 10
66.610265
 20
-27.111772
 30
0.0
 41
3.0
 42
3.0
 43
3.0
 50
180.0
  0
TEXT
  5
55
100
AcDbEntity
  8
0
  6
BYBLOCK
 62
     0
100
AcDbText
 10
73.610265
 20
-26.111772
 30
0.0
 40
2.5
  1
3.05
100
AcDbText
  0
POINT
  5
56
100
AcDbEntity
  8
DEFPOINTS
  6
BYBLOCK
 62
     0
100
AcDbPoint
 10
63.560265
 20
-32.652725
 30
0.0
  0
POINT
  5
57
100
AcDbEntity
  8
DEFPOINTS
  6
BYBLOCK
 62
     0
100
AcDbPoint
 10
66.610265
 20
-33.702725
 30
0.0
  0
POINT
  5
58
100
AcDbEntity
  8
DEFPOINTS
  6
BYBLOCK
 62
     0
100
AcDbPoint
 10
66.610265
 20
-27.111772
 30
0.0
  0
ENDBLK
  5
5A
100
AcDbEntity
  8
0
100
AcDbBlockEnd
  0
BLOCK
  5
71
100
AcDbEntity
  8
0
100
AcDbBlockBegin
  2
*D2
 70
     1
 10
0.0
 20
0.0
 30
0.0
  3
*D2
  1

  0
LINE
  5
66
100
AcDbEntity
  8
0
  6
BYBLOCK
 62
     0
100
AcDbLine
 10
64.847765
 20
-35.402725
 30
0.0
 11
51.319315
 21
-35.402725
 31
0.0
  0
LINE
  5
67
100
AcDbEntity
  8
0
  6
BYBLOCK
 62
     0
100
AcDbLine
 10
63.497765
 20
-32.652725
 30
0.0
 11
51.319315
 21
-32.652725
 31
0.0
  0
LINE
  5
68
100
AcDbEntity
  8
0
  6
BYBLOCK
 62
     0
100
AcDbLine
 10
51.499315
 20
-38.402725
 30
0.0
 11
51.499315
 21
-41.402725
 31
0.0
  0
LINE
  5
69
100
AcDbEntity
  8
0
  6
BYBLOCK
 62
     0
100
AcDbLine
 10
51.499315
 20
-29.652725
 30
0.0
 11
51.499315
 21
-17.152725
 31
0.0
  0
LINE
  5
6A
100
AcDbEntity
  8
0
  6
BYBLOCK
 62
     0
100
AcDbLine
 10
51.499315
 20
-35.402725
 30
0.0
 11
51.499315
 21
-32.652725
 31
0.0
  0
INSERT
  5
6B
100
AcDbEntity
  8
0
  6
BYBLOCK
 62
     0
100
AcDbBlockReference
  2
_OPEN
 10
51.499315
 20
-35.402725
 30
0.0
 41
3.0
 42
3.0
 43
3.0
 50
90.0
  0
INSERT
  5
6C
100
AcDbEntity
  8
0
  6
BYBLOCK
 62
     0
100
AcDbBlockReference
  2
_OPEN
 10
51.499315
 20
-32.652725
 30
0.0
 41
3.0
 42
3.0
 43
3.0
 50
270.0
  0
TEXT
  5
6D
100
AcDbEntity
  8
0
  6
BYBLOCK
 62
     0
100
AcDbText
 10
50.499315
 20
-25.652725
 30
0.0
 40
2.5
  1
2.75
 50
90.0
100
AcDbText
  0
POINT
  5
6E
100
AcDbEntity
  8
DEFPOINTS
  6
BYBLOCK
 62
     0
100
AcDbPoint
 10
64.910265
 20
-35.402725
 30
0.0
  0
POINT
  5
6F
100
AcDbEntity
  8
DEFPOINTS
  6
BYBLOCK
 62
     0
100
AcDbPoint
 10
63.560265
 20
-32.652725
 30
0.0
  0
POINT
  5
70
100
AcDbEntity
  8
DEFPOINTS
  6
BYBLOCK
 62
     0
100
AcDbPoint
 10
51.499315
 20
-32.652725
 30
0.0
  0
ENDBLK
  5
72
100
AcDbEntity
  8
0
100
AcDbBlockEnd
  0
BLOCK
  5
38
100
AcDbEntity
  8
0
100
AcDbBlockBegin
  2
*D3
 70
     1
 10
0.0
 20
0.0
 30
0.0
  3
*D3
  1

  0
LINE
  5
26
100
AcDbEntity
  8
0
  6
BYBLOCK
 62
     0
100
AcDbLine
 10
63.497765
 20
-35.402725
 30
0.0
 11
59.460497
 21
-35.402725
 31
0.0
  0
LINE
  5
27
100
AcDbEntity
  8
0
  6
BYBLOCK
 62
     0
100
AcDbLine
 10
64.847765
 20
-44.902725
 30
0.0
 11
59.460497
 21
-44.902725
 31
0.0
  0
LINE
  5
28
100
AcDbEntity
  8
0
  6
BYBLOCK
 62
     0
100
AcDbLine
 10
59.640497
 20
-32.402725
 30
0.0
 11
59.640497
 21
-29.402725
 31
0.0
  0
LINE
  5
29
100
AcDbEntity
  8
0
  6
BYBLOCK
 62
     0
100
AcDbLine
 10
59.640497
 20
-47.902725
 30
0.0
 11
59.640497
 21
-50.902725
 31
0.0
  0
LINE
  5
2A
100
AcDbEntity
  8
0
  6
BYBLOCK
 62
     0
100
AcDbLine
 10
59.640497
 20
-35.402725
 30
0.0
 11
59.640497
 21
-44.902725
 31
0.0
  0
INSERT
  5
2B
100
AcDbEntity
  8
0
  6
BYBLOCK
 62
     0
100
AcDbBlockReference
  2
_OPEN
 10
59.640497
 20
-35.402725
 30
0.0
 41
3.0
 42
3.0
 43
3.0
 50
270.0
  0
INSERT
  5
32
100
AcDbEntity
  8
0
  6
BYBLOCK
 62
     0
100
AcDbBlockReference
  2
_OPEN
 10
59.640497
 20
-44.902725
 30
0.0
 41
3.0
 42
3.0
 43
3.0
 50
90.0
  0
TEXT
  5
33
100
AcDbEntity
  8
0
  6
BYBLOCK
 62
     0
100
AcDbText
 10
58.640497
 20
-42.652725
 30
0.0
 40
2.5
  1
9.5
 50
90.0
100
AcDbText
  0
POINT
  5
34
100
AcDbEntity
  8
DEFPOINTS
  6
BYBLOCK
 62
     0
100
AcDbPoint
 10
63.560265
 20
-35.402725
 30
0.0
  0
POINT
  5
36
100
AcDbEntity
  8
DEFPOINTS
  6
BYBLOCK
 62
     0
100
AcDbPoint
 10
64.910265
 20
-44.902725
 30
0.0
  0
POINT
  5
37
100
AcDbEntity
  8
DEFPOINTS
  6
BYBLOCK
 62
     0
100
AcDbPoint
 10
59.640497
 20
-44.902725
 30
0.0
  0
ENDBLK
  5
39
100
AcDbEntity
  8
0
100
AcDbBlockEnd
  0
BLOCK
  5
30
100
AcDbEntity
  8
0
100
AcDbBlockBegin
  2
_OPEN
 70
     0
 10
0.0
 20
0.0
 30
0.0
  3
_OPEN
  1

  0
LINE
  5
2D
100
AcDbEntity
  8
0
  6
BYBLOCK
 62
     0
100
AcDbLine
 10
-1.0
 20
0.166667
 30
0.0
 11
0.0
 21
0.0
 31
0.0
  0
LINE
  5
2E
100
AcDbEntity
  8
0
  6
BYBLOCK
 62
     0
100
AcDbLine
 10
0.0
 20
0.0
 30
0.0
 11
-1.0
 21
-0.166667
 31
0.0
  0
LINE
  5
2F
100
AcDbEntity
  8
0
  6
BYBLOCK
 62
     0
100
AcDbLine
 10
0.0
 20
0.0
 30
0.0
 11
-1.0
 21
0.0
 31
0.0
  0
ENDBLK
  5
31
100
AcDbEntity
  8
0
100
AcDbBlockEnd
  0
ENDSEC
  0
SECTION
  2
ENTITIES
  0
LINE
  5
21
100
AcDbEntity
  8
AXE
100
AcDbLine
 10
68.875516
 20
-35.402725
 30
0.0
 11
99.26445
 21
-35.402725
 31
0.0
  0
INSERT
  5
22
100
AcDbEntity
  8
COTATION1
100
AcDbBlockReference
  2
_OPEN
 10
66.610265
 20
-44.902725
 30
0.0
 41
3.0
 42
3.0
 43
3.0
 50
68.23602
1001
ACAD
1000
DSTYLE
1002
{
1070
   284
1070
     0
1070
   340
1005
B0200E020000000E
1070
   287
1070
     3
1070
     5
1000
_OPEN
1070
   285
1070
     0
1070
   286
1070
     0
1002
}
  0
LWPOLYLINE
  5
8B
100
AcDbEntity
  8
COTATION1
100
AcDbPolyline
 90
        3
 70
   128
 43
0.0
 10
65.497913
 20
-47.688883
 10
62.45212
 20
-55.317813
 10
50.95212
 20
-55.317813
1001
ACAD
1000
R13OBJECT
1002
{
1005
22
1002
}
  0
DIMENSION
  5
24
100
AcDbEntity
  8
COTATION1
100
AcDbDimension
  2
*D3
 10
59.640497
 20
-44.902725
 30
0.0
 11
57.390497
 21
-40.152725
 31
0.0
  3
SC_STAND
100
AcDbAlignedDimension
 13
63.560265
 23
-35.402725
 33
0.0
 14
64.910265
 24
-44.902725
 34
0.0
 50
270.0
100
AcDbRotatedDimension
1001
ACAD
1000
DSTYLE
1002
{
1070
   284
1070
     0
1070
   340
1005
E
1070
   287
1070
     3
1070
     5
1000
_OPEN
1070
   285
1070
     0
1070
   286
1070
     0
1002
}
  0
DIMENSION
  5
3A
100
AcDbEntity
  8
COTATION1
100
AcDbDimension
  2
*D0
 10
63.560265
 20
-59.39328
 30
0.0
 11
69.810265
 21
-57.14328
 31
0.0
  3
SC_STAND
100
AcDbAlignedDimension
 13
76.060265
 23
-47.652725
 33
0.0
 14
63.560265
 24
-47.652725
 34
0.0
100
AcDbRotatedDimension
1001
ACAD
1000
DSTYLE
1002
{
1070
   284
1070
     0
1070
   340
1005
E
1070
   287
1070
     3
1070
     5
1000
_OPEN
1070
   285
1070
     0
1070
   286
1070
     0
1002
}
  0
LINE
  5
49
100
AcDbEntity
  8
AXE
100
AcDbLine
 10
73.377216
 20
-51.331427
 30
0.0
 11
73.377216
 21
-27.819085
 31
0.0
  0
TEXT
  5
4A
100
AcDbEntity
  8
COTATION1
100
AcDbText
 10
50.95212
 20
-54.317813
 30
0.0
 40
2.5
  1
%%c
100
AcDbText
  0
TEXT
  5
90
100
AcDbEntity
  8
COTATION1
100
AcDbText
 10
53.45212
 20
-54.317813
 30
0.0
 40
2.5
  1
3.4
100
AcDbText
1001
ACAD
1000
R13OBJECT
1002
{
1005
4A
1002
}
  0
TEXT
  5
4B
100
AcDbEntity
  8
AXE
100
AcDbText
 10
56.793115
 20
-15.963969
 30
0.0
 40
15.0
  1
Y
  7
ROMANS
100
AcDbText
  0
DIMENSION
  5
4C
100
AcDbEntity
  8
COTATION1
100
AcDbDimension
  2
*D1
 10
66.610265
 20
-27.111772
 30
0.0
 11
77.151932
 21
-24.861772
 31
0.0
  3
SC_STAND
100
AcDbAlignedDimension
 13
63.560265
 23
-32.652725
 33
0.0
 14
66.610265
 24
-33.702725
 34
0.0
100
AcDbRotatedDimension
1001
ACAD
1000
DSTYLE
1002
{
1070
   284
1070
     0
1070
   340
1005
E
1070
   287
1070
     3
1070
     5
1000
_OPEN
1070
   285
1070
     0
1070
   286
1070
     0
1002
}
  0
LINE
  5
5B
100
AcDbEntity
  8
ALPHA
  6
CONTINUOUS
100
AcDbLine
 10
63.560265
 20
-47.652725
 30
0.0
 11
76.060265
 21
-47.652725
 31
0.0
  0
ARC
  5
5C
100
AcDbEntity
  8
ALPHA
  6
CONTINUOUS
100
AcDbCircle
 10
66.610265
 20
-44.902725
 30
0.0
 40
3.2
100
AcDbArc
 50
47.520391
 51
132.479609
  0
CIRCLE
  5
5D
100
AcDbEntity
  8
ALPHA
  6
CONTINUOUS
100
AcDbCircle
 10
66.610265
 20
-35.402725
 30
0.0
 40
1.7
  0
CIRCLE
  5
5E
100
AcDbEntity
  8
ALPHA
  6
CONTINUOUS
100
AcDbCircle
 10
66.610265
 20
-44.902725
 30
0.0
 40
1.7
  0
LINE
  5
5F
100
AcDbEntity
  8
AXE
100
AcDbLine
 10
64.495229
 20
-44.902725
 30
0.0
 11
68.734216
 21
-44.902725
 31
0.0
  0
LINE
  5
60
100
AcDbEntity
  8
AXE
100
AcDbLine
 10
64.389254
 20
-35.402725
 30
0.0
 11
68.875516
 21
-35.402725
 31
0.0
  0
LINE
  5
61
100
AcDbEntity
  8
ALPHA
  6
CONTINUOUS
100
AcDbLine
 10
63.560265
 20
-32.652725
 30
0.0
 11
76.060265
 21
-32.652725
 31
0.0
  0
LINE
  5
62
100
AcDbEntity
  8
ALPHA
  6
CONTINUOUS
100
AcDbLine
 10
70.655139
 20
-40.358921
 30
0.0
 11
63.560265
 21
-40.358921
 31
0.0
  0
LINE
  5
63
100
AcDbEntity
  8
ALPHA
  6
CONTINUOUS
100
AcDbLine
 10
63.560265
 20
-37.350697
 30
0.0
 11
70.655139
 21
-37.350697
 31
0.0
  0
DIMENSION
  5
64
100
AcDbEntity
  8
COTATION1
100
AcDbDimension
  2
*D2
 10
51.499315
 20
-32.652725
 30
0.0
 11
49.249315
 21
-21.902725
 31
0.0
  3
SC_STAND
100
AcDbAlignedDimension
 13
64.910265
 23
-35.402725
 33
0.0
 14
63.560265
 24
-32.652725
 34
0.0
 50
270.0
100
AcDbRotatedDimension
1001
ACAD
1000
DSTYLE
1002
{
1070
   284
1070
     0
1070
   340
1005
E
1070
   287
1070
     3
1070
     5
1000
_OPEN
1070
   285
1070
     0
1070
   286
1070
     0
1002
}
  0
LINE
  5
73
100
AcDbEntity
  8
ALPHA
  6
CONTINUOUS
100
AcDbLine
 10
63.560265
 20
-47.652725
 30
0.0
 11
63.560265
 21
-32.652725
 31
0.0
  0
LINE
  5
74
100
AcDbEntity
  8
ALPHA
  6
CONTINUOUS
100
AcDbLine
 10
64.449216
 20
-42.542669
 30
0.0
 11
63.560265
 21
-42.542669
 31
0.0
  0
LINE
  5
75
100
AcDbEntity
  8
ALPHA
  6
CONTINUOUS
100
AcDbLine
 10
63.959056
 20
-41.149344
 30
0.0
 11
63.558825
 21
-41.149344
 31
0.0
  0
ARC
  5
76
100
AcDbEntity
  8
ALPHA
  6
CONTINUOUS
100
AcDbCircle
 10
66.610265
 20
-44.902725
 30
0.0
 40
4.5953
100
AcDbArc
 50
98.585618
 51
125.235558
  0
LINE
  5
77
100
AcDbEntity
  8
AXE
100
AcDbLine
 10
73.377216
 20
-22.088262
 30
0.0
 11
73.377216
 21
-2.915398
 31
0.0
  0
LINE
  5
78
100
AcDbEntity
  8
ALPHA
  6
CONTINUOUS
100
AcDbLine
 10
74.484
 20
-42.542669
 30
0.0
 11
76.060265
 21
-42.542669
 31
0.0
  0
LINE
  5
79
100
AcDbEntity
  8
ALPHA
  6
CONTINUOUS
100
AcDbLine
 10
76.060265
 20
-41.147359
 30
0.0
 11
74.484
 21
-41.147359
 31
0.0
  0
CIRCLE
  5
7A
100
AcDbEntity
  8
ALPHA
  6
CONTINUOUS
100
AcDbCircle
 10
73.377216
 20
-35.402725
 30
0.0
 40
2.221303
  0
LINE
  5
7B
100
AcDbEntity
  8
AXE
100
AcDbLine
 10
66.610265
 20
-37.658497
 30
0.0
 11
66.610265
 21
-33.202611
 31
0.0
  0
LINE
  5
7C
100
AcDbEntity
  8
ALPHA
  6
CONTINUOUS
100
AcDbLine
 10
74.473681
 20
-42.542669
 30
0.0
 11
68.771314
 21
-42.542669
 31
0.0
  0
LINE
  5
7D
100
AcDbEntity
  8
ALPHA
  6
CONTINUOUS
100
AcDbLine
 10
74.472918
 20
-41.149344
 30
0.0
 11
69.261474
 21
-41.149344
 31
0.0
  0
LINE
  5
7E
100
AcDbEntity
  8
AXE
100
AcDbLine
 10
66.610265
 20
-46.959275
 30
0.0
 11
66.610265
 21
-42.857031
 31
0.0
  0
LINE
  5
7F
100
AcDbEntity
  8
ALPHA
  6
CONTINUOUS
100
AcDbLine
 10
69.38256
 20
-42.542669
 30
0.0
 11
69.38256
 21
-47.652725
 31
0.0
  0
ARC
  5
80
100
AcDbEntity
  8
ALPHA
  6
CONTINUOUS
100
AcDbCircle
 10
66.610265
 20
-44.902725
 30
0.0
 40
4.5953
100
AcDbArc
 50
54.764442
 51
81.414382
  0
LINE
  5
81
100
AcDbEntity
  8
ALPHA
  6
CONTINUOUS
100
AcDbLine
 10
70.655139
 20
-37.350697
 30
0.0
 11
70.655139
 21
-40.358921
 31
0.0
  0
LINE
  5
82
100
AcDbEntity
  8
ALPHA
  6
CONTINUOUS
100
AcDbLine
 10
74.484
 20
-41.147359
 30
0.0
 11
74.484
 21
-42.542669
 31
0.0
  0
LINE
  5
83
100
AcDbEntity
  8
ALPHA
  6
CONTINUOUS
100
AcDbLine
 10
75.26753
 20
-42.542669
 30
0.0
 11
75.26753
 21
-47.652725
 31
0.0
  0
LINE
  5
84
100
AcDbEntity
  8
ALPHA
  6
CONTINUOUS
100
AcDbLine
 10
76.060265
 20
-32.652725
 30
0.0
 11
76.060265
 21
-41.147359
 31
0.0
  0
LINE
  5
85
100
AcDbEntity
  8
ALPHA
  6
CONTINUOUS
100
AcDbLine
 10
76.060265
 20
-42.542669
 30
0.0
 11
76.060265
 21
-47.652725
 31
0.0
  0
TEXT
  5
86
100
AcDbEntity
  8
AXE
100
AcDbText
 10
86.166264
 20
-33.085934
 30
0.0
 40
15.0
  1
Z
  7
ROMANS
100
AcDbText
  0
ENDSEC
  0
SECTION
  2
OBJECTS
  0
DICTIONARY
  5
9C
100
AcDbDictionary
  3
ACAD_GROUP
350
9D
  3
ACAD_MLINESTYLE
350
AA
  3
ACDBVARIABLEDICTIONARY
350
BD
  0
DICTIONARY
  5
9D
102
{ACAD_REACTORS
330
9C
102
}
100
AcDbDictionary
  0
DICTIONARY
  5
AA
102
{ACAD_REACTORS
330
9C
102
}
100
AcDbDictionary
  3
STANDARD
350
AB
  0
DICTIONARY
  5
BD
102
{ACAD_REACTORS
330
9C
102
}
100
AcDbDictionary
  3
DIMADEC
350
BE
  0
MLINESTYLE
  5
AB
102
{ACAD_REACTORS
330
AA
102
}
100
AcDbMlineStyle
  2
STANDARD
 70
     0
  3

 62
   256
 51
90.0
 52
90.0
 71
     2
 49
0.5
 62
   256
  6
BYLAYER
 49
-0.5
 62
   256
  6
BYLAYER
  0
DICTIONARYVAR
  5
BE
102
{ACAD_REACTORS
330
BD
102
}
100
DictionaryVariables
280
     0
  1
0
  0
ENDSEC
  0
EOF
