  0
SECTION
  2
HEADER
  9
$ACADVER
  1
AC1014
  9
$ACADMAINTVER
 70
     0
  9
$DWGCODEPAGE
  3
ANSI_1252
  9
$INSBASE
 10
93.894301
 20
236.06014
 30
0.0
  9
$EXTMIN
 10
-10.369264
 20
-8.130006
 30
0.0
  9
$EXTMAX
 10
68.849078
 20
68.599227
 30
0.0
  9
$LIMMIN
 10
0.0
 20
0.0
  9
$LIMMAX
 10
210.0
 20
297.0
  9
$ORTHOMODE
 70
     0
  9
$REGENMODE
 70
     1
  9
$FILLMODE
 70
     1
  9
$QTEXTMODE
 70
     0
  9
$MIRRTEXT
 70
     0
  9
$DRAGMODE
 70
     1
  9
$LTSCALE
 40
7.0
  9
$OSMODE
 70
  4095
  9
$ATTMODE
 70
     1
  9
$TEXTSIZE
 40
2.5
  9
$TRACEWID
 40
0.05
  9
$TEXTSTYLE
  7
STANDARD
  9
$CLAYER
  8
COTATION1
  9
$CELTYPE
  6
BYLAYER
  9
$CECOLOR
 62
   256
  9
$CELTSCALE
 40
1.0
  9
$DELOBJ
 70
     1
  9
$DISPSILH
 70
     0
  9
$DIMSCALE
 40
1.0
  9
$DIMASZ
 40
3.0
  9
$DIMEXO
 40
0.0625
  9
$DIMDLI
 40
0.38
  9
$DIMRND
 40
0.01
  9
$DIMDLE
 40
0.0
  9
$DIMEXE
 40
0.18
  9
$DIMTP
 40
0.0
  9
$DIMTM
 40
0.0
  9
$DIMTXT
 40
2.5
  9
$DIMCEN
 40
0.09
  9
$DIMTSZ
 40
0.0
  9
$DIMTOL
 70
     0
  9
$DIMLIM
 70
     0
  9
$DIMTIH
 70
     0
  9
$DIMTOH
 70
     0
  9
$DIMSE1
 70
     0
  9
$DIMSE2
 70
     0
  9
$DIMTAD
 70
     1
  9
$DIMZIN
 70
    12
  9
$DIMBLK
  1

  9
$DIMASO
 70
     1
  9
$DIMSHO
 70
     0
  9
$DIMPOST
  1

  9
$DIMAPOST
  1

  9
$DIMALT
 70
     0
  9
$DIMALTD
 70
     2
  9
$DIMALTF
 40
25.4
  9
$DIMLFAC
 40
1.0
  9
$DIMTOFL
 70
     1
  9
$DIMTVP
 40
0.0
  9
$DIMTIX
 70
     0
  9
$DIMSOXD
 70
     0
  9
$DIMSAH
 70
     0
  9
$DIMBLK1
  1

  9
$DIMBLK2
  1

  9
$DIMSTYLE
  2
SC_STAND
  9
$DIMCLRD
 70
     0
  9
$DIMCLRE
 70
     0
  9
$DIMCLRT
 70
     0
  9
$DIMTFAC
 40
1.0
  9
$DIMGAP
 40
1.0
  9
$DIMJUST
 70
     0
  9
$DIMSD1
 70
     0
  9
$DIMSD2
 70
     0
  9
$DIMTOLJ
 70
     1
  9
$DIMTZIN
 70
    12
  9
$DIMALTZ
 70
    12
  9
$DIMALTTZ
 70
    12
  9
$DIMFIT
 70
     5
  9
$DIMUPT
 70
     0
  9
$DIMUNIT
 70
     2
  9
$DIMDEC
 70
     3
  9
$DIMTDEC
 70
     3
  9
$DIMALTU
 70
     2
  9
$DIMALTTD
 70
     2
  9
$DIMTXSTY
  7
STANDARD
  9
$DIMAUNIT
 70
     0
  9
$LUNITS
 70
     2
  9
$LUPREC
 70
     3
  9
$SKETCHINC
 40
0.1
  9
$FILLETRAD
 40
0.0625
  9
$AUNITS
 70
     0
  9
$AUPREC
 70
     0
  9
$MENU
  1
ACAD
  9
$ELEVATION
 40
0.0
  9
$PELEVATION
 40
0.0
  9
$THICKNESS
 40
0.0
  9
$LIMCHECK
 70
     0
  9
$BLIPMODE
 70
     1
  9
$CHAMFERA
 40
0.0
  9
$CHAMFERB
 40
0.0
  9
$CHAMFERC
 40
0.0
  9
$CHAMFERD
 40
0.0
  9
$SKPOLY
 70
     0
  9
$TDCREATE
 40
2450953.590960648
  9
$TDUPDATE
 40
2453880.689080035
  9
$TDINDWG
 40
0.0044680324
  9
$TDUSRTIMER
 40
0.0044680324
  9
$USRTIMER
 70
     1
  9
$ANGBASE
 50
0.0
  9
$ANGDIR
 70
     0
  9
$PDMODE
 70
     0
  9
$PDSIZE
 40
0.0
  9
$PLINEWID
 40
0.0
  9
$COORDS
 70
     0
  9
$SPLFRAME
 70
     0
  9
$SPLINETYPE
 70
     6
  9
$SPLINESEGS
 70
     8
  9
$ATTDIA
 70
     0
  9
$ATTREQ
 70
     1
  9
$HANDLING
 70
     1
  9
$HANDSEED
  5
DDC
  9
$SURFTAB1
 70
     6
  9
$SURFTAB2
 70
     6
  9
$SURFTYPE
 70
     6
  9
$SURFU
 70
     6
  9
$SURFV
 70
     6
  9
$UCSNAME
  2

  9
$UCSORG
 10
0.0
 20
0.0
 30
0.0
  9
$UCSXDIR
 10
1.0
 20
0.0
 30
0.0
  9
$UCSYDIR
 10
0.0
 20
1.0
 30
0.0
  9
$PUCSNAME
  2

  9
$PUCSORG
 10
0.0
 20
0.0
 30
0.0
  9
$PUCSXDIR
 10
1.0
 20
0.0
 30
0.0
  9
$PUCSYDIR
 10
0.0
 20
1.0
 30
0.0
  9
$USERI1
 70
     0
  9
$USERI2
 70
     0
  9
$USERI3
 70
     0
  9
$USERI4
 70
     0
  9
$USERI5
 70
     0
  9
$USERR1
 40
0.0
  9
$USERR2
 40
0.0
  9
$USERR3
 40
0.0
  9
$USERR4
 40
0.0
  9
$USERR5
 40
0.0
  9
$WORLDVIEW
 70
     1
  9
$SHADEDGE
 70
     3
  9
$SHADEDIF
 70
    70
  9
$TILEMODE
 70
     1
  9
$MAXACTVP
 70
    32
  9
$PINSBASE
 10
0.0
 20
0.0
 30
0.0
  9
$PLIMCHECK
 70
     0
  9
$PEXTMIN
 10
-3.174999
 20
-3.175
 30
0.0
  9
$PEXTMAX
 10
203.812116
 20
370.276807
 30
0.0
  9
$PLIMMIN
 10
-3.175
 20
-3.175
  9
$PLIMMAX
 10
203.812115
 20
370.276807
  9
$UNITMODE
 70
     0
  9
$VISRETAIN
 70
     0
  9
$PLINEGEN
 70
     0
  9
$PSLTSCALE
 70
     1
  9
$TREEDEPTH
 70
  3020
  9
$PICKSTYLE
 70
     1
  9
$CMLSTYLE
  2
STANDARD
  9
$CMLJUST
 70
     0
  9
$CMLSCALE
 40
1.0
  9
$PROXYGRAPHICS
 70
     1
  9
$MEASUREMENT
 70
     0
  0
ENDSEC
  0
SECTION
  2
CLASSES
  0
CLASS
  1
DICTIONARYVAR
  2
AcDbDictionaryVar
  3
"AutoCAD"
 90
        0
280
     0
281
     0
  0
CLASS
  1
HATCH
  2
AcDbHatch
  3
"ACAD_SEDONA"
 90
        0
280
     0
281
     1
  0
ENDSEC
  0
SECTION
  2
TABLES
  0
TABLE
  2
VPORT
  5
F4
100
AcDbSymbolTable
 70
     2
  0
VPORT
  5
DDB
100
AcDbSymbolTableRecord
100
AcDbViewportTableRecord
  2
*ACTIVE
 70
     0
 10
0.0
 20
0.0
 11
1.0
 21
1.0
 12
29.241257
 22
30.229775
 13
0.0
 23
0.0
 14
1.0
 24
1.0
 15
10.0
 25
10.0
 16
0.0
 26
0.0
 36
1.0
 17
0.0
 27
0.0
 37
0.0
 40
77.648194
 41
1.966667
 42
50.0
 43
0.0
 44
0.0
 50
0.0
 51
0.0
 71
     0
 72
   100
 73
     1
 74
     1
 75
     0
 76
     1
 77
     0
 78
     0
  0
ENDTAB
  0
TABLE
  2
LTYPE
  5
F1
100
AcDbSymbolTable
 70
     5
  0
LTYPE
  5
FD
100
AcDbSymbolTableRecord
100
AcDbLinetypeTableRecord
  2
BYBLOCK
 70
     0
  3

 72
    65
 73
     0
 40
0.0
  0
LTYPE
  5
FE
100
AcDbSymbolTableRecord
100
AcDbLinetypeTableRecord
  2
BYLAYER
 70
     0
  3

 72
    65
 73
     0
 40
0.0
  0
LTYPE
  5
FF
100
AcDbSymbolTableRecord
100
AcDbLinetypeTableRecord
  2
CONTINUOUS
 70
     0
  3
Solid line
 72
    65
 73
     0
 40
0.0
  0
ENDTAB
  0
TABLE
  2
LAYER
  5
EE
100
AcDbSymbolTable
 70
     5
  0
LAYER
  5
FA
100
AcDbSymbolTableRecord
100
AcDbLayerTableRecord
  2
0
 70
     0
 62
     7
  6
CONTINUOUS
  0
LAYER
  5
12C
100
AcDbSymbolTableRecord
100
AcDbLayerTableRecord
  2
ALPHA
 70
     0
 62
   255
  6
CONTINUOUS
  0
LAYER
  5
12F
100
AcDbSymbolTableRecord
100
AcDbLayerTableRecord
  2
COTATION1
 70
     0
 62
     2
  6
CONTINUOUS
  0
LAYER
  5
13B
100
AcDbSymbolTableRecord
100
AcDbLayerTableRecord
  2
ASHADE
 70
     0
 62
     7
  6
CONTINUOUS
  0
LAYER
  5
13E
100
AcDbSymbolTableRecord
100
AcDbLayerTableRecord
  2
DEFPOINTS
 70
     0
 62
     7
  6
CONTINUOUS
  0
ENDTAB
  0
TABLE
  2
STYLE
  5
EF
100
AcDbSymbolTable
 70
     2
  0
STYLE
  5
FB
100
AcDbSymbolTableRecord
100
AcDbTextStyleTableRecord
  2
STANDARD
 70
     0
 40
0.0
 41
1.0
 50
0.0
 71
     0
 42
2.5
  3
txt
  4

  0
ENDTAB
  0
TABLE
  2
VIEW
  5
F2
100
AcDbSymbolTable
 70
     0
  0
ENDTAB
  0
TABLE
  2
UCS
  5
F3
100
AcDbSymbolTable
 70
     0
  0
ENDTAB
  0
TABLE
  2
APPID
  5
F5
100
AcDbSymbolTable
 70
     3
  0
APPID
  5
FC
100
AcDbSymbolTableRecord
100
AcDbRegAppTableRecord
  2
ACAD
 70
     0
  0
APPID
  5
127
100
AcDbSymbolTableRecord
100
AcDbRegAppTableRecord
  2
AVE_RENDER
 70
     0
  0
APPID
  5
128
100
AcDbSymbolTableRecord
100
AcDbRegAppTableRecord
  2
AVE_MATERIAL
 70
     0
  0
ENDTAB
  0
TABLE
  2
DIMSTYLE
  5
F6
100
AcDbSymbolTable
 70
     2
  0
DIMSTYLE
105
129
100
AcDbSymbolTableRecord
100
AcDbDimStyleTableRecord
  2
STANDARD
 70
     0
  3

  4

  5

  6

  7

 40
1.0
 41
0.18
 42
0.0625
 43
0.38
 44
0.18
 45
0.0
 46
0.0
 47
0.0
 48
0.0
140
0.18
141
0.09
142
0.0
143
25.4
144
1.0
145
0.0
146
1.0
147
0.09
 71
     0
 72
     0
 73
     1
 74
     1
 75
     0
 76
     0
 77
     0
 78
     0
170
     0
171
     2
172
     0
173
     0
174
     0
175
     0
176
     0
177
     0
178
     0
270
     2
271
     3
272
     3
273
     2
274
     2
340
FB
275
     0
280
     0
281
     0
282
     0
283
     1
284
    12
285
    12
286
    12
287
     5
288
     0
  0
DIMSTYLE
105
12A
102
{ACAD_REACTORS
330
D7D
330
D95
330
DA2
330
DAF
102
}
100
AcDbSymbolTableRecord
100
AcDbDimStyleTableRecord
  2
SC_STAND
 70
     0
  3

  4

  5

  6

  7

 40
1.0
 41
3.0
 42
0.0625
 43
0.38
 44
0.18
 45
0.01
 46
0.0
 47
0.0
 48
0.0
140
2.5
141
0.09
142
0.0
143
25.4
144
1.0
145
0.0
146
1.0
147
1.0
 71
     0
 72
     0
 73
     0
 74
     0
 75
     0
 76
     0
 77
     1
 78
    12
170
     0
171
     2
172
     1
173
     0
174
     0
175
     0
176
     0
177
     0
178
     0
270
     2
271
     3
272
     3
273
     2
274
     2
340
FB
275
     0
280
     0
281
     0
282
     0
283
     1
284
    12
285
    12
286
    12
287
     5
288
     0
  0
ENDTAB
  0
TABLE
  2
BLOCK_RECORD
  5
ED
100
AcDbSymbolTable
 70
    11
  0
BLOCK_RECORD
  5
103
100
AcDbSymbolTableRecord
100
AcDbBlockTableRecord
  2
*MODEL_SPACE
  0
BLOCK_RECORD
  5
100
100
AcDbSymbolTableRecord
100
AcDbBlockTableRecord
  2
*PAPER_SPACE
  0
BLOCK_RECORD
  5
108
100
AcDbSymbolTableRecord
100
AcDbBlockTableRecord
  2
AVE_RENDER
  0
BLOCK_RECORD
  5
109
100
AcDbSymbolTableRecord
100
AcDbBlockTableRecord
  2
AVE_GLOBAL
  0
BLOCK_RECORD
  5
10A
100
AcDbSymbolTableRecord
100
AcDbBlockTableRecord
  2
SCH_IS
  0
BLOCK_RECORD
  5
D71
100
AcDbSymbolTableRecord
100
AcDbBlockTableRecord
  2
*D7
  0
BLOCK_RECORD
  5
D89
100
AcDbSymbolTableRecord
100
AcDbBlockTableRecord
  2
*D8
  0
BLOCK_RECORD
  5
D96
100
AcDbSymbolTableRecord
100
AcDbBlockTableRecord
  2
*D9
  0
BLOCK_RECORD
  5
DA3
100
AcDbSymbolTableRecord
100
AcDbBlockTableRecord
  2
*D10
  0
ENDTAB
  0
ENDSEC
  0
SECTION
  2
BLOCKS
  0
BLOCK
  5
141
100
AcDbEntity
  8
0
100
AcDbBlockBegin
  2
*MODEL_SPACE
 70
     0
 10
0.0
 20
0.0
 30
0.0
  3
*MODEL_SPACE
  1

  0
ENDBLK
  5
142
100
AcDbEntity
  8
0
100
AcDbBlockEnd
  0
BLOCK
  5
13F
100
AcDbEntity
 67
     1
  8
0
100
AcDbBlockBegin
  2
*PAPER_SPACE
 70
     0
 10
0.0
 20
0.0
 30
0.0
  3
*PAPER_SPACE
  1

  0
ENDBLK
  5
140
100
AcDbEntity
 67
     1
  8
0
100
AcDbBlockEnd
  0
BLOCK
  5
8D
100
AcDbEntity
  8
0
100
AcDbBlockBegin
  2
AVE_RENDER
 70
     0
 10
0.0
 20
0.0
 30
0.0
  3
AVE_RENDER
  1
AVE_RENDER
  0
ENDBLK
  5
8E
100
AcDbEntity
  8
0
100
AcDbBlockEnd
  0
BLOCK
  5
90
100
AcDbEntity
  8
0
100
AcDbBlockBegin
  2
AVE_GLOBAL
 70
     0
 10
0.0
 20
0.0
 30
0.0
  3
AVE_GLOBAL
  1
AVE_GLOBAL
  0
ENDBLK
  5
91
100
AcDbEntity
  8
0
100
AcDbBlockEnd
  0
BLOCK
  5
C9
100
AcDbEntity
  8
0
100
AcDbBlockBegin
  2
SCH_IS
 70
     0
 10
0.0
 20
0.0
 30
0.0
  3
SCH_IS
  1

  0
INSERT
  5
C0
100
AcDbEntity
  8
ASHADE
 62
     1
100
AcDbBlockReference
  2
AVE_RENDER
 10
0.0
 20
0.0
 30
0.0
1001
AVE_RENDER
1002
{
1070
     6
1000
Pref
1070
    50
1070
    20
1070
     1
1070
     0
1000

1070
    10
1070
     1
1070
    30
1040
25.4
1070
     1
1040
0.3
1040
0.7
1040
0.0
1040
10.0
1010
-1.0
1020
-1.0
1030
-1.0
1040
0.3
1070
    49
1070
     0
1070
     0
1010
1.0
1020
1.0
1030
1.0
1040
45.0
1070
     1
1070
     0
1000
WCS
1040
0.0
1002
}
  0
INSERT
  5
C1
100
AcDbEntity
  8
ASHADE
 62
     3
100
AcDbBlockReference
  2
AVE_RENDER
 10
0.0
 20
0.0
 30
0.0
1001
AVE_RENDER
1002
{
1070
     0
1000
Full Opt
1070
     0
1070
     1
1070
     1
1070
     1
1070
     0
1070
     0
1070
     0
1070
     1
1070
     1
1040
0.0001
1040
0.0001
1002
}
  0
INSERT
  5
C2
100
AcDbEntity
  8
ASHADE
 62
     4
100
AcDbBlockReference
  2
AVE_RENDER
 10
0.0
 20
0.0
 30
0.0
1001
AVE_RENDER
1002
{
1070
     0
1000
Quick Opt
1070
     0
1070
     1
1070
     1
1070
     1
1070
     0
1070
     0
1070
     1
1002
}
  0
INSERT
  5
C3
100
AcDbEntity
  8
ASHADE
 62
     5
100
AcDbBlockReference
  2
AVE_RENDER
 10
0.0
 20
0.0
 30
0.0
1001
AVE_RENDER
1002
{
1070
     1
1000
Scanl Opt
1070
     2
1070
     0
1070
     2
1040
2.0
1040
4.0
1070
     0
1070
     1
1070
     0
1040
0.03
1002
}
  0
INSERT
  5
C4
100
AcDbEntity
  8
ASHADE
 62
     6
100
AcDbBlockReference
  2
AVE_RENDER
 10
0.0
 20
0.0
 30
0.0
1001
AVE_RENDER
1002
{
1070
     2
1000
Raytr Opt
1070
     2
1070
     0
1070
     2
1040
2.0
1040
4.0
1070
     0
1070
     1
1070
     1
1040
0.03
1070
     3
1040
0.03
1002
}
  0
INSERT
  5
C5
100
AcDbEntity
  8
ASHADE
 62
     7
100
AcDbBlockReference
  2
AVE_RENDER
 10
0.0
 20
0.0
 30
0.0
1001
AVE_RENDER
1002
{
1070
     0
1000
RFile Opt
1070
     5
1070
   640
1070
   480
1070
 10000
1070
     3
1070
    32
1070
    24
1070
     0
1070
     0
1070
     0
1070
     1
1070
     0
1070
     0
1070
     0
1002
}
  0
INSERT
  5
C6
100
AcDbEntity
  8
ASHADE
 62
     8
100
AcDbBlockReference
  2
AVE_RENDER
 10
0.0
 20
0.0
 30
0.0
1001
AVE_RENDER
1002
{
1070
     0
1000
Fog Opt
1070
     0
1070
     0
1040
0.0
1040
1.0
1040
0.0
1040
1.0
1010
0.5
1020
0.5
1030
0.5
1002
}
  0
INSERT
  5
C7
100
AcDbEntity
  8
ASHADE
 62
     9
100
AcDbBlockReference
  2
AVE_RENDER
 10
0.0
 20
0.0
 30
0.0
1001
AVE_RENDER
1002
{
1070
     0
1000
BG Opt
1070
     0
1070
     1
1010
0.0
1020
0.0
1030
0.0
1010
1.0
1020
0.0
1030
0.0
1010
0.0
1020
1.0
1030
0.0
1010
0.0
1020
0.0
1030
1.0
1040
0.5
1040
0.33
1040
0.0
1000

1070
     1
1000

1070
     1
1070
     1
1040
1.0
1040
1.0
1040
0.0
1040
0.0
1070
     0
1002
}
  0
INSERT
  5
C8
100
AcDbEntity
  8
ASHADE
 62
     1
100
AcDbBlockReference
  2
AVE_GLOBAL
 10
0.0
 20
0.0
 30
0.0
1001
AVE_MATERIAL
1002
{
1000
*GLOBAL*
1000
1
1000
Finition globale.
1002
{
1002
}
1002
{
1070
    63
1002
{
1002
{
1010
-1.0
1020
-1.0
1030
-1.0
1002
}
1040
0.1
1000

1040
0.0
1002
{
1002
}
1040
0.0
1002
{
1002
}
1040
0.0
1002
}
1002
{
1002
{
1010
-1.0
1020
-1.0
1030
-1.0
1002
}
1040
0.7
1000

1040
0.0
1002
{
1002
}
1040
0.0
1002
{
1002
}
1040
0.0
1002
}
1002
{
1002
{
1010
-1.0
1020
-1.0
1030
-1.0
1002
}
1040
0.2
1000

1040
0.0
1002
{
1002
}
1040
0.0
1002
{
1002
}
1040
0.0
1002
}
1002
{
1070
     0
1002
{
1070
     1
1002
{
1040
1.0
1040
1.0
1000

1040
0.0
1002
{
1002
}
1040
0.0
1002
{
1002
}
1040
0.0
1002
}
1002
}
1040
1.0
1040
0.0
1040
0.0
1002
}
1002
{
1040
1.0
1040
1.0
1000

1040
0.0
1002
{
1002
}
1040
0.0
1002
{
1002
}
1040
0.0
1002
}
1002
{
1040
0.5
1040
1.0
1000

1040
0.0
1002
{
1002
}
1040
0.0
1002
{
1002
}
1040
0.0
1002
}
1002
{
1070
     0
1040
0.0
1002
{
1002
}
1040
1.0
1002
{
1002
}
1040
0.0
1002
}
1002
{
1040
0.0
1002
{
1002
{
1010
0.0
1020
0.0
1030
0.0
1002
}
1040
1.0
1000

1040
0.0
1002
{
1002
}
1040
0.0
1002
{
1002
}
1040
0.0
1002
}
1002
}
1002
{
1002
{
1070
     1
1002
{
1040
0.0
1040
1.0
1000

1040
0.0
1002
{
1002
}
1040
0.0
1002
{
1002
}
1040
0.0
1002
}
1002
}
1040
0.0
1002
{
1002
}
1010
1.0
1020
0.0
1030
0.0
1010
0.0
1020
1.0
1030
0.0
1010
0.0
1020
0.0
1030
1.0
1070
     0
1002
}
1002
{
1002
{
1040
1.0
1040
1.0
1002
{
1070
     1
1002
{
1040
1.0
1040
1.0
1000

1040
0.0
1002
{
1002
}
1040
0.0
1002
{
1002
}
1040
0.0
1002
}
1002
}
1002
}
1070
     0
1040
0.0
1002
{
1002
}
1002
}
1002
{
1002
}
1002
}
1002
{
1071
        3
1070
     3
1070
     0
1002
{
1070
     2
1070
     0
1070
     0
1040
0.0
1002
}
1070
     0
1070
     2
1002
{
1002
}
1002
}
1002
{
1040
8030.0
1040
190.300003
1040
0.305
1040
228.0
1040
545.0
1040
14.0
1040
17.4
1040
0.456
1002
}
1002
}
  0
ENDBLK
  5
CA
100
AcDbEntity
  8
0
100
AcDbBlockEnd
  0
BLOCK
  5
D7E
100
AcDbEntity
  8
0
100
AcDbBlockBegin
  2
*D7
 70
     1
 10
0.0
 20
0.0
 30
0.0
  3
*D7
  1

  0
LINE
  5
D7F
100
AcDbEntity
  8
0
  6
BYBLOCK
 62
     0
100
AcDbLine
 10
-1.027056
 20
54.946153
 30
0.0
 11
-1.027056
 21
65.279227
 31
0.0
  0
LINE
  5
D80
100
AcDbEntity
  8
0
  6
BYBLOCK
 62
     0
100
AcDbLine
 10
58.973072
 20
54.946153
 30
0.0
 11
58.973072
 21
65.279227
 31
0.0
  0
LINE
  5
D81
100
AcDbEntity
  8
0
  6
BYBLOCK
 62
     0
100
AcDbLine
 10
1.972944
 20
65.099227
 30
0.0
 11
55.973072
 21
65.099227
 31
0.0
  0
SOLID
  5
D82
100
AcDbEntity
  8
0
  6
BYBLOCK
 62
     0
100
AcDbTrace
 10
1.972944
 20
65.599227
 30
0.0
 11
1.972944
 21
64.599227
 31
0.0
 12
-1.027056
 22
65.099227
 32
0.0
 13
-1.027056
 23
65.099227
 33
0.0
  0
SOLID
  5
D83
100
AcDbEntity
  8
0
  6
BYBLOCK
 62
     0
100
AcDbTrace
 10
55.973072
 20
65.599227
 30
0.0
 11
55.973072
 21
64.599227
 31
0.0
 12
58.973072
 22
65.099227
 32
0.0
 13
58.973072
 23
65.099227
 33
0.0
  0
MTEXT
  5
D84
100
AcDbEntity
  8
0
  6
BYBLOCK
 62
     0
100
AcDbMText
 10
28.973008
 20
67.349227
 30
0.0
 40
2.5
 41
0.0
 71
     5
 72
     1
  1
\A1;60
  0
POINT
  5
D85
100
AcDbEntity
  8
DEFPOINTS
  6
BYBLOCK
 62
     0
100
AcDbPoint
 10
-1.027056
 20
54.883653
 30
0.0
  0
POINT
  5
D86
100
AcDbEntity
  8
DEFPOINTS
  6
BYBLOCK
 62
     0
100
AcDbPoint
 10
58.973072
 20
54.883653
 30
0.0
  0
POINT
  5
D87
100
AcDbEntity
  8
DEFPOINTS
  6
BYBLOCK
 62
     0
100
AcDbPoint
 10
58.973072
 20
65.099227
 30
0.0
  0
ENDBLK
  5
D88
100
AcDbEntity
  8
0
100
AcDbBlockEnd
  0
BLOCK
  5
D8A
100
AcDbEntity
  8
0
100
AcDbBlockBegin
  2
*D8
 70
     1
 10
0.0
 20
0.0
 30
0.0
  3
*D8
  1

  0
LINE
  5
D8B
100
AcDbEntity
  8
0
  6
BYBLOCK
 62
     0
100
AcDbLine
 10
54.035704
 20
59.883692
 30
0.0
 11
68.529078
 21
59.883692
 31
0.0
  0
LINE
  5
D8C
100
AcDbEntity
  8
0
  6
BYBLOCK
 62
     0
100
AcDbLine
 10
54.035704
 20
-0.116091
 30
0.0
 11
68.529078
 21
-0.116091
 31
0.0
  0
LINE
  5
D8D
100
AcDbEntity
  8
0
  6
BYBLOCK
 62
     0
100
AcDbLine
 10
68.349078
 20
56.883692
 30
0.0
 11
68.349078
 21
2.883909
 31
0.0
  0
SOLID
  5
D8E
100
AcDbEntity
  8
0
  6
BYBLOCK
 62
     0
100
AcDbTrace
 10
67.849078
 20
56.883692
 30
0.0
 11
68.849078
 21
56.883692
 31
0.0
 12
68.349078
 22
59.883692
 32
0.0
 13
68.349078
 23
59.883692
 33
0.0
  0
SOLID
  5
D8F
100
AcDbEntity
  8
0
  6
BYBLOCK
 62
     0
100
AcDbTrace
 10
67.849078
 20
2.883909
 30
0.0
 11
68.849078
 21
2.883909
 31
0.0
 12
68.349078
 22
-0.116091
 32
0.0
 13
68.349078
 23
-0.116091
 33
0.0
  0
MTEXT
  5
D90
100
AcDbEntity
  8
0
  6
BYBLOCK
 62
     0
100
AcDbMText
 10
66.099078
 20
29.8838
 30
0.0
 40
2.5
 41
0.0
 71
     5
 72
     1
  1
\A1;60
 11
0.0
 21
1.0
 31
0.0
  0
POINT
  5
D91
100
AcDbEntity
  8
DEFPOINTS
  6
BYBLOCK
 62
     0
100
AcDbPoint
 10
53.973204
 20
59.883692
 30
0.0
  0
POINT
  5
D92
100
AcDbEntity
  8
DEFPOINTS
  6
BYBLOCK
 62
     0
100
AcDbPoint
 10
53.973204
 20
-0.116091
 30
0.0
  0
POINT
  5
D93
100
AcDbEntity
  8
DEFPOINTS
  6
BYBLOCK
 62
     0
100
AcDbPoint
 10
68.349078
 20
-0.116091
 30
0.0
  0
ENDBLK
  5
D94
100
AcDbEntity
  8
0
100
AcDbBlockEnd
  0
BLOCK
  5
D97
100
AcDbEntity
  8
0
100
AcDbBlockBegin
  2
*D9
 70
     1
 10
0.0
 20
0.0
 30
0.0
  3
*D9
  1

  0
LINE
  5
D98
100
AcDbEntity
  8
0
  6
BYBLOCK
 62
     0
100
AcDbLine
 10
4.973095
 20
5.821387
 30
0.0
 11
4.973095
 21
-7.810006
 31
0.0
  0
LINE
  5
D99
100
AcDbEntity
  8
0
  6
BYBLOCK
 62
     0
100
AcDbLine
 10
52.973093
 20
5.821387
 30
0.0
 11
52.973093
 21
-7.810006
 31
0.0
  0
LINE
  5
D9A
100
AcDbEntity
  8
0
  6
BYBLOCK
 62
     0
100
AcDbLine
 10
7.973095
 20
-7.630006
 30
0.0
 11
49.973093
 21
-7.630006
 31
0.0
  0
SOLID
  5
D9B
100
AcDbEntity
  8
0
  6
BYBLOCK
 62
     0
100
AcDbTrace
 10
7.973095
 20
-7.130006
 30
0.0
 11
7.973095
 21
-8.130006
 31
0.0
 12
4.973095
 22
-7.630006
 32
0.0
 13
4.973095
 23
-7.630006
 33
0.0
  0
SOLID
  5
D9C
100
AcDbEntity
  8
0
  6
BYBLOCK
 62
     0
100
AcDbTrace
 10
49.973093
 20
-7.130006
 30
0.0
 11
49.973093
 21
-8.130006
 31
0.0
 12
52.973093
 22
-7.630006
 32
0.0
 13
52.973093
 23
-7.630006
 33
0.0
  0
MTEXT
  5
D9D
100
AcDbEntity
  8
0
  6
BYBLOCK
 62
     0
100
AcDbMText
 10
28.973094
 20
-5.380006
 30
0.0
 40
2.5
 41
0.0
 71
     5
 72
     1
  1
\A1;48
  0
POINT
  5
D9E
100
AcDbEntity
  8
DEFPOINTS
  6
BYBLOCK
 62
     0
100
AcDbPoint
 10
4.973095
 20
5.883887
 30
0.0
  0
POINT
  5
D9F
100
AcDbEntity
  8
DEFPOINTS
  6
BYBLOCK
 62
     0
100
AcDbPoint
 10
52.973093
 20
5.883887
 30
0.0
  0
POINT
  5
DA0
100
AcDbEntity
  8
DEFPOINTS
  6
BYBLOCK
 62
     0
100
AcDbPoint
 10
52.973093
 20
-7.630006
 30
0.0
  0
ENDBLK
  5
DA1
100
AcDbEntity
  8
0
100
AcDbBlockEnd
  0
BLOCK
  5
DBB
100
AcDbEntity
  8
0
100
AcDbBlockBegin
  2
*D10
 70
     1
 10
0.0
 20
0.0
 30
0.0
  3
*D10
  1

  0
LINE
  5
DBC
100
AcDbEntity
  8
0
  6
BYBLOCK
 62
     0
100
AcDbLine
 10
4.910595
 20
5.883887
 30
0.0
 11
-7.049264
 21
5.883887
 31
0.0
  0
LINE
  5
DBD
100
AcDbEntity
  8
0
  6
BYBLOCK
 62
     0
100
AcDbLine
 10
4.910595
 20
53.884058
 30
0.0
 11
-7.049264
 21
53.884058
 31
0.0
  0
LINE
  5
DBE
100
AcDbEntity
  8
0
  6
BYBLOCK
 62
     0
100
AcDbLine
 10
-6.869264
 20
8.883887
 30
0.0
 11
-6.869264
 21
50.884058
 31
0.0
  0
SOLID
  5
DBF
100
AcDbEntity
  8
0
  6
BYBLOCK
 62
     0
100
AcDbTrace
 10
-7.369264
 20
8.883887
 30
0.0
 11
-6.369264
 21
8.883887
 31
0.0
 12
-6.869264
 22
5.883887
 32
0.0
 13
-6.869264
 23
5.883887
 33
0.0
  0
SOLID
  5
DC0
100
AcDbEntity
  8
0
  6
BYBLOCK
 62
     0
100
AcDbTrace
 10
-7.369264
 20
50.884058
 30
0.0
 11
-6.369264
 21
50.884058
 31
0.0
 12
-6.869264
 22
53.884058
 32
0.0
 13
-6.869264
 23
53.884058
 33
0.0
  0
MTEXT
  5
DC1
100
AcDbEntity
  8
0
  6
BYBLOCK
 62
     0
100
AcDbMText
 10
-9.119264
 20
29.883973
 30
0.0
 40
2.5
 41
0.0
 71
     5
 72
     1
  1
\A1;48
 11
0.0
 21
1.0
 31
0.0
  0
POINT
  5
DC2
100
AcDbEntity
  8
DEFPOINTS
  6
BYBLOCK
 62
     0
100
AcDbPoint
 10
4.973095
 20
5.883887
 30
0.0
  0
POINT
  5
DC3
100
AcDbEntity
  8
DEFPOINTS
  6
BYBLOCK
 62
     0
100
AcDbPoint
 10
4.973095
 20
53.884058
 30
0.0
  0
POINT
  5
DC4
100
AcDbEntity
  8
DEFPOINTS
  6
BYBLOCK
 62
     0
100
AcDbPoint
 10
-6.869264
 20
53.884058
 30
0.0
  0
ENDBLK
  5
DC5
100
AcDbEntity
  8
0
100
AcDbBlockEnd
  0
ENDSEC
  0
SECTION
  2
ENTITIES
  0
INSERT
  5
CC
100
AcDbEntity
  8
0
100
AcDbBlockReference
  2
SCH_IS
 10
-68.718396
 20
-140.042541
 30
0.0
  0
INSERT
  5
EC
100
AcDbEntity
  8
COTATION1
100
AcDbBlockReference
  2
SCH_IS
 10
0.0
 20
0.0
 30
0.0
  0
LINE
  5
D1E
100
AcDbEntity
  8
ALPHA
100
AcDbLine
 10
32.473053
 20
49.883613
 30
0.0
 11
25.472963
 21
49.883613
 31
0.0
  0
LINE
  5
D1F
100
AcDbEntity
  8
ALPHA
100
AcDbLine
 10
46.223118
 20
7.633996
 30
0.0
 11
11.722898
 21
7.633996
 31
0.0
  0
LINE
  5
D20
100
AcDbEntity
  8
ALPHA
100
AcDbLine
 10
11.722898
 20
52.13395
 30
0.0
 11
46.223118
 21
52.13395
 31
0.0
  0
LINE
  5
D21
100
AcDbEntity
  8
ALPHA
100
AcDbLine
 10
36.472808
 20
22.134058
 30
0.0
 11
21.472863
 21
22.134058
 31
0.0
  0
LINE
  5
D22
100
AcDbEntity
  8
ALPHA
100
AcDbLine
 10
32.473053
 20
20.38395
 30
0.0
 11
25.472963
 21
20.38395
 31
0.0
  0
LINE
  5
D23
100
AcDbEntity
  8
ALPHA
100
AcDbLine
 10
53.973204
 20
-0.116091
 30
0.0
 11
3.973156
 21
-0.116091
 31
0.0
  0
LINE
  5
D24
100
AcDbEntity
  8
ALPHA
100
AcDbLine
 10
3.973156
 20
59.883692
 30
0.0
 11
53.973204
 21
59.883692
 31
0.0
  0
LINE
  5
D25
100
AcDbEntity
  8
ALPHA
100
AcDbLine
 10
6.723031
 20
12.633863
 30
0.0
 11
6.723031
 21
47.134083
 31
0.0
  0
LINE
  5
D26
100
AcDbEntity
  8
ALPHA
100
AcDbLine
 10
19.723099
 20
26.133814
 30
0.0
 11
19.723099
 21
33.384362
 31
0.0
  0
LINE
  5
D27
100
AcDbEntity
  8
ALPHA
100
AcDbLine
 10
20.993305
 20
32.114155
 30
0.0
 11
20.993305
 21
24.863952
 31
0.0
  0
LINE
  5
D28
100
AcDbEntity
  8
ALPHA
100
AcDbLine
 10
-1.027056
 20
4.883432
 30
0.0
 11
-1.027056
 21
54.883653
 31
0.0
  0
CIRCLE
  5
D29
100
AcDbEntity
  8
ALPHA
100
AcDbCircle
 10
10.973073
 20
11.883866
 30
0.0
 40
1.749936
  0
LINE
  5
D2A
100
AcDbEntity
  8
ALPHA
100
AcDbLine
 10
6.723031
 20
16.134424
 30
0.0
 11
10.222903
 21
16.134424
 31
0.0
  0
SPLINE
  5
D2B
100
AcDbEntity
  8
ALPHA
100
AcDbSpline
210
0.0
220
0.0
230
-1.0
 70
     8
 71
     3
 72
     8
 73
     4
 74
     0
 42
0.0000001
 43
0.0000001
 40
0.0
 40
0.0
 40
0.0
 40
0.0
 40
1.0
 40
1.0
 40
1.0
 40
1.0
 10
11.72289796454441
 20
7.633995768946974
 30
0.0
 10
8.961653932426372
 20
7.633995768946974
 30
0.0
 10
6.723030885551366
 20
9.872618815821979
 30
0.0
 10
6.723030885551366
 20
12.63386284794003
 30
0.0
  0
SPLINE
  5
D2C
100
AcDbEntity
  8
ALPHA
100
AcDbSpline
210
0.0
220
0.0
230
-1.0
 70
     8
 71
     3
 72
     8
 73
     4
 74
     0
 42
0.0000001
 43
0.0000001
 40
0.0
 40
0.0
 40
0.0
 40
0.0
 40
1.0
 40
1.0
 40
1.0
 40
1.0
 10
3.973155668537486
 20
-0.1160910366085801
 30
0.0
 10
1.211567126870818
 20
-0.1160910366085801
 30
0.0
 10
-1.027055920004187
 20
2.122532010266425
 30
0.0
 10
-1.027055920004187
 20
4.883431532835857
 30
0.0
  0
CIRCLE
  5
D2D
100
AcDbEntity
  8
ALPHA
100
AcDbCircle
 10
4.973095
 20
5.883887
 30
0.0
 40
1.749936
  0
LINE
  5
D2E
100
AcDbEntity
  8
ALPHA
100
AcDbLine
 10
15.22277
 20
11.134557
 30
0.0
 11
15.22277
 21
7.633996
 31
0.0
  0
SPLINE
  5
D2F
100
AcDbEntity
  8
ALPHA
100
AcDbSpline
210
0.0
220
0.0
230
1.0
 70
     8
 71
     3
 72
     8
 73
     4
 74
     0
 42
0.0000001
 43
0.0000001
 40
0.0
 40
0.0
 40
0.0
 40
0.0
 40
1.0
 40
1.0
 40
1.0
 40
1.0
 10
10.22290338989162
 20
16.13442437137753
 30
0.0
 10
12.98414742200969
 20
16.13442437137753
 30
0.0
 10
15.2227704688847
 20
13.89580132450253
 30
0.0
 10
15.2227704688847
 20
11.13455729238447
 30
0.0
  0
LINE
  5
D30
100
AcDbEntity
  8
ALPHA
100
AcDbLine
 10
25.472963
 20
20.38395
 30
0.0
 11
23.723199
 21
22.134058
 31
0.0
  0
LINE
  5
D31
100
AcDbEntity
  8
ALPHA
100
AcDbLine
 10
21.472863
 20
24.384395
 30
0.0
 11
19.723099
 21
26.133814
 31
0.0
  0
LINE
  5
D32
100
AcDbEntity
  8
ALPHA
100
AcDbLine
 10
21.472863
 20
22.134058
 30
0.0
 11
21.472863
 21
24.384395
 31
0.0
  0
CIRCLE
  5
D33
100
AcDbEntity
  8
ALPHA
100
AcDbCircle
 10
10.973073
 20
47.883735
 30
0.0
 40
1.749936
  0
LINE
  5
D34
100
AcDbEntity
  8
ALPHA
100
AcDbLine
 10
14.965422
 20
33.384362
 30
0.0
 11
6.723031
 21
41.626581
 31
0.0
  0
LINE
  5
D35
100
AcDbEntity
  8
ALPHA
100
AcDbLine
 10
6.723031
 20
43.633693
 30
0.0
 11
10.222903
 21
43.633693
 31
0.0
  0
SPLINE
  5
D36
100
AcDbEntity
  8
ALPHA
100
AcDbSpline
210
0.0
220
0.0
230
1.0
 70
     8
 71
     3
 72
     8
 73
     4
 74
     0
 42
0.0000001
 43
0.0000001
 40
0.0
 40
0.0
 40
0.0
 40
0.0
 40
1.0
 40
1.0
 40
1.0
 40
1.0
 10
6.723030885551366
 20
47.13408257450251
 30
0.0
 10
6.723030885551366
 20
49.89532660662058
 30
0.0
 10
8.961653932426372
 20
52.13394965349559
 30
0.0
 10
11.72289796454441
 20
52.13394965349559
 30
0.0
  0
SPLINE
  5
D37
100
AcDbEntity
  8
ALPHA
100
AcDbSpline
210
0.0
220
0.0
230
-1.0
 70
     8
 71
     3
 72
     8
 73
     4
 74
     0
 42
0.0000001
 43
0.0000001
 40
0.0
 40
0.0
 40
0.0
 40
0.0
 40
1.0
 40
1.0
 40
1.0
 40
1.0
 10
-1.027055920004187
 20
54.88365261573517
 30
0.0
 10
-1.027055920004187
 20
57.64506890262751
 30
0.0
 10
1.211567126870818
 20
59.88369194950251
 30
0.0
 10
3.973155668537486
 20
59.88369194950251
 30
0.0
  0
CIRCLE
  5
D38
100
AcDbEntity
  8
ALPHA
100
AcDbCircle
 10
4.973095
 20
53.884058
 30
0.0
 40
1.749936
  0
LINE
  5
D39
100
AcDbEntity
  8
ALPHA
100
AcDbLine
 10
25.472963
 20
49.883613
 30
0.0
 11
23.723199
 21
48.133849
 31
0.0
  0
LINE
  5
D3A
100
AcDbEntity
  8
ALPHA
100
AcDbLine
 10
19.904311
 20
52.13395
 30
0.0
 11
19.904311
 21
46.552034
 31
0.0
  0
LINE
  5
D3B
100
AcDbEntity
  8
ALPHA
100
AcDbLine
 10
15.22277
 20
48.63356
 30
0.0
 11
15.22277
 21
52.13395
 31
0.0
  0
LINE
  5
D3C
100
AcDbEntity
  8
ALPHA
100
AcDbLine
 10
19.904311
 20
46.552034
 30
0.0
 11
18.436356
 21
45.083906
 31
0.0
  0
LINE
  5
D3D
100
AcDbEntity
  8
ALPHA
100
AcDbLine
 10
18.436356
 20
35.681207
 30
0.0
 11
19.956676
 21
34.160887
 31
0.0
  0
LINE
  5
D3E
100
AcDbEntity
  8
ALPHA
100
AcDbLine
 10
19.723099
 20
33.384362
 30
0.0
 11
14.965422
 21
33.384362
 31
0.0
  0
LINE
  5
D3F
100
AcDbEntity
  8
ALPHA
100
AcDbLine
 10
14.965422
 20
33.384362
 30
0.0
 11
14.965422
 21
44.295668
 31
0.0
  0
LINE
  5
D40
100
AcDbEntity
  8
ALPHA
100
AcDbLine
 10
18.436356
 20
45.083906
 30
0.0
 11
18.436356
 21
35.681207
 31
0.0
  0
SPLINE
  5
D41
100
AcDbEntity
  8
ALPHA
100
AcDbSpline
210
0.0
220
0.0
230
-1.0
 70
     8
 71
     3
 72
     8
 73
     4
 74
     0
 42
0.0000001
 43
0.0000001
 40
0.0
 40
0.0
 40
0.0
 40
0.0
 40
1.0
 40
1.0
 40
1.0
 40
1.0
 10
10.22290338989162
 20
43.63369330583933
 30
0.0
 10
12.98414742200969
 20
43.63369330583933
 30
0.0
 10
15.2227704688847
 20
45.87231635271433
 30
0.0
 10
15.2227704688847
 20
48.63356038483238
 30
0.0
  0
LINE
  5
D42
100
AcDbEntity
  8
ALPHA
100
AcDbLine
 10
14.965422
 20
44.295668
 30
0.0
 11
18.436356
 21
44.295668
 31
0.0
  0
LINE
  5
D43
100
AcDbEntity
  8
ALPHA
100
AcDbLine
 10
19.723099
 20
44.133749
 30
0.0
 11
19.723099
 21
36.133204
 31
0.0
  0
LINE
  5
D44
100
AcDbEntity
  8
ALPHA
100
AcDbLine
 10
20.959199
 20
34.897103
 30
0.0
 11
20.959199
 21
34.160887
 31
0.0
  0
LINE
  5
D45
100
AcDbEntity
  8
ALPHA
100
AcDbLine
 10
19.723099
 20
33.384362
 30
0.0
 11
20.993305
 21
32.114155
 31
0.0
  0
LINE
  5
D46
100
AcDbEntity
  8
ALPHA
100
AcDbLine
 10
20.959199
 20
34.160887
 30
0.0
 11
19.956676
 21
34.160887
 31
0.0
  0
LINE
  5
D47
100
AcDbEntity
  8
ALPHA
100
AcDbLine
 10
19.723099
 20
36.133204
 30
0.0
 11
20.959199
 21
34.897103
 31
0.0
  0
LINE
  5
D48
100
AcDbEntity
  8
ALPHA
100
AcDbLine
 10
23.723199
 20
48.133849
 30
0.0
 11
21.472863
 21
48.133849
 31
0.0
  0
LINE
  5
D49
100
AcDbEntity
  8
ALPHA
100
AcDbLine
 10
21.472863
 20
48.133849
 30
0.0
 11
21.472863
 21
45.883513
 31
0.0
  0
LINE
  5
D4A
100
AcDbEntity
  8
ALPHA
100
AcDbLine
 10
21.472863
 20
45.883513
 30
0.0
 11
19.723099
 21
44.133749
 31
0.0
  0
LINE
  5
D4B
100
AcDbEntity
  8
ALPHA
100
AcDbLine
 10
51.222985
 20
47.134083
 30
0.0
 11
51.222985
 21
12.633863
 31
0.0
  0
LINE
  5
D4C
100
AcDbEntity
  8
ALPHA
100
AcDbLine
 10
36.952366
 20
24.863952
 30
0.0
 11
36.952366
 21
32.114155
 31
0.0
  0
LINE
  5
D4D
100
AcDbEntity
  8
ALPHA
100
AcDbLine
 10
38.222572
 20
33.384362
 30
0.0
 11
38.222572
 21
26.133814
 31
0.0
  0
LINE
  5
D4E
100
AcDbEntity
  8
ALPHA
100
AcDbLine
 10
58.973072
 20
54.883653
 30
0.0
 11
58.973072
 21
4.883432
 31
0.0
  0
CIRCLE
  5
D4F
100
AcDbEntity
  8
ALPHA
100
AcDbCircle
 10
46.972943
 20
11.883866
 30
0.0
 40
1.749936
  0
LINE
  5
D50
100
AcDbEntity
  8
ALPHA
100
AcDbLine
 10
51.222985
 20
16.134424
 30
0.0
 11
47.723112
 21
16.134424
 31
0.0
  0
SPLINE
  5
D51
100
AcDbEntity
  8
ALPHA
100
AcDbSpline
210
0.0
220
0.0
230
-1.0
 70
     8
 71
     3
 72
     8
 73
     4
 74
     0
 42
0.0000001
 43
0.0000001
 40
0.0
 40
0.0
 40
0.0
 40
0.0
 40
1.0
 40
1.0
 40
1.0
 40
1.0
 10
51.22298477009997
 20
12.63386284794003
 30
0.0
 10
51.22298477009997
 20
9.872618815821979
 30
0.0
 10
48.98436172322496
 20
7.633995768946974
 30
0.0
 10
46.22311769110692
 20
7.633995768946974
 30
0.0
  0
LINE
  5
D52
100
AcDbEntity
  8
ALPHA
100
AcDbLine
 10
42.723245
 20
11.134557
 30
0.0
 11
42.723245
 21
7.633996
 31
0.0
  0
LINE
  5
D53
100
AcDbEntity
  8
ALPHA
100
AcDbLine
 10
34.222817
 20
22.134058
 30
0.0
 11
32.473053
 21
20.38395
 31
0.0
  0
LINE
  5
D54
100
AcDbEntity
  8
ALPHA
100
AcDbLine
 10
38.222572
 20
26.133814
 30
0.0
 11
36.473153
 21
24.384395
 31
0.0
  0
LINE
  5
D55
100
AcDbEntity
  8
ALPHA
100
AcDbLine
 10
36.473153
 20
24.384395
 30
0.0
 11
36.472808
 21
22.134058
 31
0.0
  0
SPLINE
  5
D56
100
AcDbEntity
  8
ALPHA
100
AcDbSpline
210
0.0
220
0.0
230
-1.0
 70
     8
 71
     3
 72
     8
 73
     4
 74
     0
 42
0.0000001
 43
0.0000001
 40
0.0
 40
0.0
 40
0.0
 40
0.0
 40
1.0
 40
1.0
 40
1.0
 40
1.0
 10
47.72311226575967
 20
16.13442437137753
 30
0.0
 10
44.96186823364164
 20
16.13442437137753
 30
0.0
 10
42.72324518676663
 20
13.89580132450253
 30
0.0
 10
42.72324518676663
 20
11.13455729238447
 30
0.0
  0
SPLINE
  5
D57
100
AcDbEntity
  8
ALPHA
100
AcDbSpline
210
0.0
220
0.0
230
1.0
 70
     8
 71
     3
 72
     8
 73
     4
 74
     0
 42
0.0000001
 43
0.0000001
 40
0.0
 40
0.0
 40
0.0
 40
0.0
 40
1.0
 40
1.0
 40
1.0
 40
1.0
 10
58.97307157565553
 20
4.883431532835857
 30
0.0
 10
58.97307157565553
 20
2.122532010266425
 30
0.0
 10
56.73479303832914
 20
-0.1160910366085801
 30
0.0
 10
53.97320449666247
 20
-0.1160910366085801
 30
0.0
  0
CIRCLE
  5
D58
100
AcDbEntity
  8
ALPHA
100
AcDbCircle
 10
52.973093
 20
5.883887
 30
0.0
 40
1.749764
  0
CIRCLE
  5
D59
100
AcDbEntity
  8
ALPHA
100
AcDbCircle
 10
46.972943
 20
47.883735
 30
0.0
 40
1.749936
  0
LINE
  5
D5A
100
AcDbEntity
  8
ALPHA
100
AcDbLine
 10
42.980594
 20
33.384362
 30
0.0
 11
51.222985
 21
41.626581
 31
0.0
  0
LINE
  5
D5B
100
AcDbEntity
  8
ALPHA
100
AcDbLine
 10
51.222985
 20
43.633693
 30
0.0
 11
47.723112
 21
43.633693
 31
0.0
  0
SPLINE
  5
D5C
100
AcDbEntity
  8
ALPHA
100
AcDbSpline
210
0.0
220
0.0
230
1.0
 70
     8
 71
     3
 72
     8
 73
     4
 74
     0
 42
0.0000001
 43
0.0000001
 40
0.0
 40
0.0
 40
0.0
 40
0.0
 40
1.0
 40
1.0
 40
1.0
 40
1.0
 10
46.22311769110692
 20
52.13394965349559
 30
0.0
 10
48.98436172322496
 20
52.13394965349559
 30
0.0
 10
51.22298477009997
 20
49.89532660662058
 30
0.0
 10
51.22298477009997
 20
47.13408257450251
 30
0.0
  0
LINE
  5
D5D
100
AcDbEntity
  8
ALPHA
100
AcDbLine
 10
38.041705
 20
52.13395
 30
0.0
 11
38.041705
 21
46.552034
 31
0.0
  0
LINE
  5
D5E
100
AcDbEntity
  8
ALPHA
100
AcDbLine
 10
42.723245
 20
48.63356
 30
0.0
 11
42.723245
 21
52.13395
 31
0.0
  0
LINE
  5
D5F
100
AcDbEntity
  8
ALPHA
100
AcDbLine
 10
34.222817
 20
48.133849
 30
0.0
 11
32.473053
 21
49.883613
 31
0.0
  0
LINE
  5
D60
100
AcDbEntity
  8
ALPHA
100
AcDbLine
 10
38.041705
 20
46.552034
 30
0.0
 11
39.50966
 21
45.083906
 31
0.0
  0
LINE
  5
D61
100
AcDbEntity
  8
ALPHA
100
AcDbLine
 10
39.50966
 20
35.681207
 30
0.0
 11
37.989339
 21
34.160887
 31
0.0
  0
LINE
  5
D62
100
AcDbEntity
  8
ALPHA
100
AcDbLine
 10
38.222917
 20
33.384362
 30
0.0
 11
42.980594
 21
33.384362
 31
0.0
  0
LINE
  5
D63
100
AcDbEntity
  8
ALPHA
100
AcDbLine
 10
38.222917
 20
36.133204
 30
0.0
 11
38.222917
 21
44.133749
 31
0.0
  0
LINE
  5
D64
100
AcDbEntity
  8
ALPHA
100
AcDbLine
 10
36.986817
 20
34.160887
 30
0.0
 11
36.986817
 21
34.897103
 31
0.0
  0
LINE
  5
D65
100
AcDbEntity
  8
ALPHA
100
AcDbLine
 10
36.952366
 20
32.114155
 30
0.0
 11
38.222572
 21
33.384362
 31
0.0
  0
LINE
  5
D66
100
AcDbEntity
  8
ALPHA
100
AcDbLine
 10
37.989339
 20
34.160887
 30
0.0
 11
36.986817
 21
34.160887
 31
0.0
  0
LINE
  5
D67
100
AcDbEntity
  8
ALPHA
100
AcDbLine
 10
36.986817
 20
34.897103
 30
0.0
 11
38.222917
 21
36.133204
 31
0.0
  0
LINE
  5
D68
100
AcDbEntity
  8
ALPHA
100
AcDbLine
 10
36.473153
 20
48.133849
 30
0.0
 11
34.222817
 21
48.133849
 31
0.0
  0
LINE
  5
D69
100
AcDbEntity
  8
ALPHA
100
AcDbLine
 10
36.473153
 20
45.883513
 30
0.0
 11
36.473153
 21
48.133849
 31
0.0
  0
LINE
  5
D6A
100
AcDbEntity
  8
ALPHA
100
AcDbLine
 10
38.222917
 20
44.133749
 30
0.0
 11
36.473153
 21
45.883513
 31
0.0
  0
LINE
  5
D6B
100
AcDbEntity
  8
ALPHA
100
AcDbLine
 10
42.980594
 20
33.384362
 30
0.0
 11
42.980594
 21
44.295668
 31
0.0
  0
LINE
  5
D6C
100
AcDbEntity
  8
ALPHA
100
AcDbLine
 10
39.50966
 20
45.083906
 30
0.0
 11
39.50966
 21
35.681207
 31
0.0
  0
SPLINE
  5
D6D
100
AcDbEntity
  8
ALPHA
100
AcDbSpline
210
0.0
220
0.0
230
-1.0
 70
     8
 71
     3
 72
     8
 73
     4
 74
     0
 42
0.0000001
 43
0.0000001
 40
0.0
 40
0.0
 40
0.0
 40
0.0
 40
1.0
 40
1.0
 40
1.0
 40
1.0
 10
47.72311226575967
 20
43.63369330583933
 30
0.0
 10
44.96186823364164
 20
43.63369330583933
 30
0.0
 10
42.72324518676663
 20
45.87231635271433
 30
0.0
 10
42.72324518676663
 20
48.63356038483238
 30
0.0
  0
LINE
  5
D6E
100
AcDbEntity
  8
ALPHA
100
AcDbLine
 10
42.980594
 20
44.295668
 30
0.0
 11
39.50966
 21
44.295668
 31
0.0
  0
SPLINE
  5
D6F
100
AcDbEntity
  8
ALPHA
100
AcDbSpline
210
0.0
220
0.0
230
1.0
 70
     8
 71
     3
 72
     8
 73
     4
 74
     0
 42
0.0000001
 43
0.0000001
 40
0.0
 40
0.0
 40
0.0
 40
0.0
 40
1.0
 40
1.0
 40
1.0
 40
1.0
 10
53.97320449666247
 20
59.88369194950251
 30
0.0
 10
56.73479303832914
 20
59.88369194950251
 30
0.0
 10
58.97307157565553
 20
57.64506890262751
 30
0.0
 10
58.97307157565553
 20
54.88365261573517
 30
0.0
  0
CIRCLE
  5
D70
100
AcDbEntity
  8
ALPHA
100
AcDbCircle
 10
52.973093
 20
53.884058
 30
0.0
 40
1.749764
  0
DIMENSION
  5
D7D
100
AcDbEntity
  8
COTATION1
100
AcDbDimension
  2
*D7
 10
58.973072
 20
65.099227
 30
0.0
 11
28.973008
 21
67.349227
 31
0.0
 70
    32
  3
SC_STAND
100
AcDbAlignedDimension
 13
-1.027056
 23
54.883653
 33
0.0
 14
58.973072
 24
54.883653
 34
0.0
100
AcDbRotatedDimension
  0
DIMENSION
  5
D95
100
AcDbEntity
  8
COTATION1
100
AcDbDimension
  2
*D8
 10
68.349078
 20
-0.116091
 30
0.0
 11
66.099078
 21
29.8838
 31
0.0
 70
    32
  3
SC_STAND
100
AcDbAlignedDimension
 13
53.973204
 23
59.883692
 33
0.0
 14
53.973204
 24
-0.116091
 34
0.0
 50
90.0
100
AcDbRotatedDimension
  0
DIMENSION
  5
DA2
100
AcDbEntity
  8
COTATION1
100
AcDbDimension
  2
*D9
 10
52.973093
 20
-7.630006
 30
0.0
 11
28.973094
 21
-5.380006
 31
0.0
 70
    32
  3
SC_STAND
100
AcDbAlignedDimension
 13
4.973095
 23
5.883887
 33
0.0
 14
52.973093
 24
5.883887
 34
0.0
100
AcDbRotatedDimension
  0
DIMENSION
  5
DAF
100
AcDbEntity
  8
COTATION1
100
AcDbDimension
  2
*D10
 10
-6.869264
 20
53.884058
 30
0.0
 11
-9.119264
 21
29.883973
 31
0.0
 70
    32
  3
SC_STAND
100
AcDbAlignedDimension
 13
4.973095
 23
5.883887
 33
0.0
 14
4.973095
 24
53.884058
 34
0.0
 50
90.0
100
AcDbRotatedDimension
  0
ENDSEC
  0
SECTION
  2
OBJECTS
  0
DICTIONARY
  5
F8
100
AcDbDictionary
  3
ACAD_GROUP
350
F9
  3
ACAD_MLINESTYLE
350
106
  3
ACDBVARIABLEDICTIONARY
350
143
  0
DICTIONARY
  5
F9
102
{ACAD_REACTORS
330
F8
102
}
100
AcDbDictionary
  0
DICTIONARY
  5
106
102
{ACAD_REACTORS
330
F8
102
}
100
AcDbDictionary
  3
STANDARD
350
107
  0
DICTIONARY
  5
143
102
{ACAD_REACTORS
330
F8
102
}
100
AcDbDictionary
  3
DIMADEC
350
144
  0
MLINESTYLE
  5
107
102
{ACAD_REACTORS
330
106
102
}
100
AcDbMlineStyle
  2
STANDARD
 70
     0
  3

 62
   256
 51
90.0
 52
90.0
 71
     2
 49
0.5
 62
   256
  6
BYLAYER
 49
-0.5
 62
   256
  6
BYLAYER
  0
DICTIONARYVAR
  5
144
102
{ACAD_REACTORS
330
143
102
}
100
DictionaryVariables
280
     0
  1
0
  0
ENDSEC
  0
EOF
