  0
SECTION
  2
HEADER
  9
$ACADVER
  1
AC1014
  9
$ACADMAINTVER
 70
     0
  9
$DWGCODEPAGE
  3
ANSI_1252
  9
$INSBASE
 10
128.372147
 20
98.162778
 30
0.0
  9
$EXTMIN
 10
70.581775
 20
60.018333
 30
0.0
  9
$EXTMAX
 10
174.262232
 20
119.525185
 30
0.0
  9
$LIMMIN
 10
0.0
 20
0.0
  9
$LIMMAX
 10
210.0
 20
297.0
  9
$ORTHOMODE
 70
     1
  9
$REGENMODE
 70
     1
  9
$FILLMODE
 70
     1
  9
$QTEXTMODE
 70
     0
  9
$MIRRTEXT
 70
     1
  9
$DRAGMODE
 70
     2
  9
$LTSCALE
 40
7.0
  9
$OSMODE
 70
     0
  9
$ATTMODE
 70
     1
  9
$TEXTSIZE
 40
0.2
  9
$TRACEWID
 40
0.05
  9
$TEXTSTYLE
  7
STANDARD
  9
$CLAYER
  8
COTATION1
  9
$CELTYPE
  6
BYLAYER
  9
$CECOLOR
 62
   256
  9
$CELTSCALE
 40
1.0
  9
$DELOBJ
 70
     1
  9
$DISPSILH
 70
     0
  9
$DIMSCALE
 40
1.0
  9
$DIMASZ
 40
3.0
  9
$DIMEXO
 40
0.0625
  9
$DIMDLI
 40
0.38
  9
$DIMRND
 40
0.01
  9
$DIMDLE
 40
0.0
  9
$DIMEXE
 40
0.18
  9
$DIMTP
 40
0.0
  9
$DIMTM
 40
0.0
  9
$DIMTXT
 40
2.5
  9
$DIMCEN
 40
0.09
  9
$DIMTSZ
 40
0.0
  9
$DIMTOL
 70
     0
  9
$DIMLIM
 70
     0
  9
$DIMTIH
 70
     0
  9
$DIMTOH
 70
     0
  9
$DIMSE1
 70
     0
  9
$DIMSE2
 70
     0
  9
$DIMTAD
 70
     1
  9
$DIMZIN
 70
    12
  9
$DIMBLK
  1

  9
$DIMASO
 70
     1
  9
$DIMSHO
 70
     1
  9
$DIMPOST
  1

  9
$DIMAPOST
  1

  9
$DIMALT
 70
     0
  9
$DIMALTD
 70
     2
  9
$DIMALTF
 40
25.4
  9
$DIMLFAC
 40
1.0
  9
$DIMTOFL
 70
     1
  9
$DIMTVP
 40
0.0
  9
$DIMTIX
 70
     0
  9
$DIMSOXD
 70
     0
  9
$DIMSAH
 70
     0
  9
$DIMBLK1
  1

  9
$DIMBLK2
  1

  9
$DIMSTYLE
  2
SC_STAND
  9
$DIMCLRD
 70
     0
  9
$DIMCLRE
 70
     0
  9
$DIMCLRT
 70
     0
  9
$DIMTFAC
 40
1.0
  9
$DIMGAP
 40
1.0
  9
$DIMJUST
 70
     0
  9
$DIMSD1
 70
     0
  9
$DIMSD2
 70
     0
  9
$DIMTOLJ
 70
     1
  9
$DIMTZIN
 70
    12
  9
$DIMALTZ
 70
    12
  9
$DIMALTTZ
 70
    12
  9
$DIMFIT
 70
     5
  9
$DIMUPT
 70
     0
  9
$DIMUNIT
 70
     2
  9
$DIMDEC
 70
     4
  9
$DIMTDEC
 70
     4
  9
$DIMALTU
 70
     2
  9
$DIMALTTD
 70
     2
  9
$DIMTXSTY
  7
STANDARD
  9
$DIMAUNIT
 70
     0
  9
$LUNITS
 70
     2
  9
$LUPREC
 70
     4
  9
$SKETCHINC
 40
0.1
  9
$FILLETRAD
 40
0.0
  9
$AUNITS
 70
     0
  9
$AUPREC
 70
     0
  9
$MENU
  1
acad
  9
$ELEVATION
 40
0.0
  9
$PELEVATION
 40
0.0
  9
$THICKNESS
 40
0.0
  9
$LIMCHECK
 70
     0
  9
$BLIPMODE
 70
     1
  9
$CHAMFERA
 40
0.0
  9
$CHAMFERB
 40
0.0
  9
$CHAMFERC
 40
0.0
  9
$CHAMFERD
 40
0.0
  9
$SKPOLY
 70
     0
  9
$TDCREATE
 40
2451086.412770717
  9
$TDUPDATE
 40
2451387.897122928
  9
$TDINDWG
 40
0.0000379745
  9
$TDUSRTIMER
 40
0.0000379745
  9
$USRTIMER
 70
     1
  9
$ANGBASE
 50
0.0
  9
$ANGDIR
 70
     0
  9
$PDMODE
 70
     0
  9
$PDSIZE
 40
0.0
  9
$PLINEWID
 40
0.0
  9
$COORDS
 70
     1
  9
$SPLFRAME
 70
     0
  9
$SPLINETYPE
 70
     6
  9
$SPLINESEGS
 70
     8
  9
$ATTDIA
 70
     0
  9
$ATTREQ
 70
     1
  9
$HANDLING
 70
     1
  9
$HANDSEED
  5
517
  9
$SURFTAB1
 70
     6
  9
$SURFTAB2
 70
     6
  9
$SURFTYPE
 70
     6
  9
$SURFU
 70
     6
  9
$SURFV
 70
     6
  9
$UCSNAME
  2

  9
$UCSORG
 10
0.0
 20
0.0
 30
0.0
  9
$UCSXDIR
 10
1.0
 20
0.0
 30
0.0
  9
$UCSYDIR
 10
0.0
 20
1.0
 30
0.0
  9
$PUCSNAME
  2

  9
$PUCSORG
 10
0.0
 20
0.0
 30
0.0
  9
$PUCSXDIR
 10
1.0
 20
0.0
 30
0.0
  9
$PUCSYDIR
 10
0.0
 20
1.0
 30
0.0
  9
$USERI1
 70
     0
  9
$USERI2
 70
     0
  9
$USERI3
 70
     0
  9
$USERI4
 70
     0
  9
$USERI5
 70
     0
  9
$USERR1
 40
0.0
  9
$USERR2
 40
0.0
  9
$USERR3
 40
0.0
  9
$USERR4
 40
0.0
  9
$USERR5
 40
0.0
  9
$WORLDVIEW
 70
     1
  9
$SHADEDGE
 70
     3
  9
$SHADEDIF
 70
    70
  9
$TILEMODE
 70
     1
  9
$MAXACTVP
 70
    16
  9
$PINSBASE
 10
0.0
 20
0.0
 30
0.0
  9
$PLIMCHECK
 70
     0
  9
$PEXTMIN
 10
1.000000E+20
 20
1.000000E+20
 30
1.000000E+20
  9
$PEXTMAX
 10
-1.000000E+20
 20
-1.000000E+20
 30
-1.000000E+20
  9
$PLIMMIN
 10
0.0
 20
0.0
  9
$PLIMMAX
 10
12.0
 20
9.0
  9
$UNITMODE
 70
     0
  9
$VISRETAIN
 70
     0
  9
$PLINEGEN
 70
     0
  9
$PSLTSCALE
 70
     1
  9
$TREEDEPTH
 70
  3020
  9
$PICKSTYLE
 70
     1
  9
$CMLSTYLE
  2
STANDARD
  9
$CMLJUST
 70
     0
  9
$CMLSCALE
 40
1.0
  9
$PROXYGRAPHICS
 70
     1
  9
$MEASUREMENT
 70
     0
  0
ENDSEC
  0
SECTION
  2
CLASSES
  0
CLASS
  1
DICTIONARYVAR
  2
AcDbDictionaryVar
  3
"AutoCAD"
 90
        0
280
     0
281
     0
  0
CLASS
  1
LWPOLYLINE
  2
AcDbPolyline
  3
"AutoCAD"
 90
        0
280
     0
281
     1
  0
ENDSEC
  0
SECTION
  2
TABLES
  0
TABLE
  2
VPORT
  5
4ED
100
AcDbSymbolTable
 70
     1
  0
VPORT
  5
512
100
AcDbSymbolTableRecord
100
AcDbViewportTableRecord
  2
*ACTIVE
 70
     0
 10
0.0
 20
0.0
 11
1.0
 21
1.0
 12
225.654671
 22
135.037441
 13
0.0
 23
0.0
 14
1.0
 24
1.0
 15
0.0
 25
0.0
 16
0.0
 26
0.0
 36
1.0
 17
0.0
 27
0.0
 37
0.0
 40
270.074882
 41
1.671053
 42
50.0
 43
0.0
 44
0.0
 50
0.0
 51
0.0
 71
     0
 72
   100
 73
     1
 74
     1
 75
     0
 76
     0
 77
     0
 78
     0
  0
ENDTAB
  0
TABLE
  2
LTYPE
  5
4EA
100
AcDbSymbolTable
 70
     1
  0
LTYPE
  5
4F6
100
AcDbSymbolTableRecord
100
AcDbLinetypeTableRecord
  2
BYBLOCK
 70
     0
  3

 72
    65
 73
     0
 40
0.0
  0
LTYPE
  5
4F7
100
AcDbSymbolTableRecord
100
AcDbLinetypeTableRecord
  2
BYLAYER
 70
     0
  3

 72
    65
 73
     0
 40
0.0
  0
LTYPE
  5
4F8
100
AcDbSymbolTableRecord
100
AcDbLinetypeTableRecord
  2
CONTINUOUS
 70
     0
  3
Solid line
 72
    65
 73
     0
 40
0.0
  0
ENDTAB
  0
TABLE
  2
LAYER
  5
4E7
100
AcDbSymbolTable
 70
     4
  0
LAYER
  5
4F3
100
AcDbSymbolTableRecord
100
AcDbLayerTableRecord
  2
0
 70
     0
 62
     7
  6
CONTINUOUS
  0
LAYER
  5
506
100
AcDbSymbolTableRecord
100
AcDbLayerTableRecord
  2
COTATION1
 70
     0
 62
     2
  6
CONTINUOUS
  0
LAYER
  5
507
100
AcDbSymbolTableRecord
100
AcDbLayerTableRecord
  2
ALPHA
 70
     0
 62
   255
  6
CONTINUOUS
  0
LAYER
  5
508
100
AcDbSymbolTableRecord
100
AcDbLayerTableRecord
  2
DEFPOINTS
 70
     0
 62
     7
  6
CONTINUOUS
  0
ENDTAB
  0
TABLE
  2
STYLE
  5
4E8
100
AcDbSymbolTable
 70
     2
  0
STYLE
  5
4F4
100
AcDbSymbolTableRecord
100
AcDbTextStyleTableRecord
  2
STANDARD
 70
     0
 40
0.0
 41
1.0
 50
0.0
 71
     0
 42
0.2
  3
txt
  4

  0
STYLE
  5
503
100
AcDbSymbolTableRecord
100
AcDbTextStyleTableRecord
  2
ROMANS
 70
     0
 40
0.0
 41
1.0
 50
0.0
 71
     0
 42
2.9
  3
romans.shx
  4

  0
ENDTAB
  0
TABLE
  2
VIEW
  5
4EB
100
AcDbSymbolTable
 70
     0
  0
ENDTAB
  0
TABLE
  2
UCS
  5
4EC
100
AcDbSymbolTable
 70
     0
  0
ENDTAB
  0
TABLE
  2
APPID
  5
4EE
100
AcDbSymbolTable
 70
     1
  0
APPID
  5
4F5
100
AcDbSymbolTableRecord
100
AcDbRegAppTableRecord
  2
ACAD
 70
     0
  0
ENDTAB
  0
TABLE
  2
DIMSTYLE
  5
4EF
100
AcDbSymbolTable
 70
     1
  0
DIMSTYLE
105
505
102
{ACAD_REACTORS
330
1F
330
2D
102
}
100
AcDbSymbolTableRecord
100
AcDbDimStyleTableRecord
  2
SC_STAND
 70
     0
  3

  4

  5

  6

  7

 40
1.0
 41
3.0
 42
0.0625
 43
0.38
 44
0.18
 45
0.01
 46
0.0
 47
0.0
 48
0.0
140
2.5
141
0.09
142
0.0
143
25.4
144
1.0
145
0.0
146
1.0
147
1.0
 71
     0
 72
     0
 73
     0
 74
     0
 75
     0
 76
     0
 77
     1
 78
    12
170
     0
171
     2
172
     1
173
     0
174
     0
175
     0
176
     0
177
     0
178
     0
270
     2
271
     4
272
     4
273
     2
274
     2
340
4F4
275
     0
280
     0
281
     0
282
     0
283
     1
284
    12
285
    12
286
    12
287
     5
288
     0
  0
ENDTAB
  0
TABLE
  2
BLOCK_RECORD
  5
4E6
100
AcDbSymbolTable
 70
     2
  0
BLOCK_RECORD
  5
4FC
100
AcDbSymbolTableRecord
100
AcDbBlockTableRecord
  2
*MODEL_SPACE
  0
BLOCK_RECORD
  5
4F9
100
AcDbSymbolTableRecord
100
AcDbBlockTableRecord
  2
*PAPER_SPACE
  0
BLOCK_RECORD
  5
501
100
AcDbSymbolTableRecord
100
AcDbBlockTableRecord
  2
*D0
  0
BLOCK_RECORD
  5
502
100
AcDbSymbolTableRecord
100
AcDbBlockTableRecord
  2
*D1
  0
ENDTAB
  0
ENDSEC
  0
SECTION
  2
BLOCKS
  0
BLOCK
  5
50B
100
AcDbEntity
  8
0
100
AcDbBlockBegin
  2
*MODEL_SPACE
 70
     0
 10
0.0
 20
0.0
 30
0.0
  3
*MODEL_SPACE
  1

  0
ENDBLK
  5
50C
100
AcDbEntity
  8
0
100
AcDbBlockEnd
  0
BLOCK
  5
509
100
AcDbEntity
 67
     1
  8
0
100
AcDbBlockBegin
  2
*PAPER_SPACE
 70
     0
 10
0.0
 20
0.0
 30
0.0
  3
*PAPER_SPACE
  1

  0
ENDBLK
  5
50A
100
AcDbEntity
 67
     1
  8
0
100
AcDbBlockEnd
  0
BLOCK
  5
38
100
AcDbEntity
  8
0
100
AcDbBlockBegin
  2
*D0
 70
     1
 10
0.0
 20
0.0
 30
0.0
  3
*D0
  1
AVE_GLOBAL
  0
LINE
  5
2F
100
AcDbEntity
  8
0
  6
BYBLOCK
 62
     0
100
AcDbLine
 10
84.117309
 20
85.062685
 30
0.0
 11
84.117309
 21
60.338333
 31
0.0
  0
LINE
  5
30
100
AcDbEntity
  8
0
  6
BYBLOCK
 62
     0
100
AcDbLine
 10
164.317309
 20
81.262685
 30
0.0
 11
164.317309
 21
60.338333
 31
0.0
  0
LINE
  5
31
100
AcDbEntity
  8
0
  6
BYBLOCK
 62
     0
100
AcDbLine
 10
87.117309
 20
60.518333
 30
0.0
 11
161.317309
 21
60.518333
 31
0.0
  0
SOLID
  5
32
100
AcDbEntity
  8
0
  6
BYBLOCK
 62
     0
100
AcDbTrace
 10
87.117309
 20
61.018333
 30
0.0
 11
87.117309
 21
60.018333
 31
0.0
 12
84.117309
 22
60.518333
 32
0.0
 13
84.117309
 23
60.518333
 33
0.0
  0
SOLID
  5
33
100
AcDbEntity
  8
0
  6
BYBLOCK
 62
     0
100
AcDbTrace
 10
161.317309
 20
61.018333
 30
0.0
 11
161.317309
 21
60.018333
 31
0.0
 12
164.317309
 22
60.518333
 32
0.0
 13
164.317309
 23
60.518333
 33
0.0
  0
TEXT
  5
34
100
AcDbEntity
  8
0
  6
BYBLOCK
 62
     0
100
AcDbText
 10
120.050642
 20
61.518333
 30
0.0
 40
2.5
  1
80.2
  7
ROMANS
100
AcDbText
  0
POINT
  5
35
100
AcDbEntity
  8
DEFPOINTS
  6
BYBLOCK
 62
     0
100
AcDbPoint
 10
84.117309
 20
85.125185
 30
0.0
  0
POINT
  5
36
100
AcDbEntity
  8
DEFPOINTS
  6
BYBLOCK
 62
     0
100
AcDbPoint
 10
164.317309
 20
81.325185
 30
0.0
  0
POINT
  5
37
100
AcDbEntity
  8
DEFPOINTS
  6
BYBLOCK
 62
     0
100
AcDbPoint
 10
164.317309
 20
60.518333
 30
0.0
  0
ENDBLK
  5
39
100
AcDbEntity
  8
0
100
AcDbBlockEnd
  0
BLOCK
  5
2B
100
AcDbEntity
  8
0
100
AcDbBlockBegin
  2
*D1
 70
     1
 10
0.0
 20
0.0
 30
0.0
  3
*D1
  1
AVE_GLOBAL
  0
LINE
  5
21
100
AcDbEntity
  8
0
  6
BYBLOCK
 62
     0
100
AcDbLine
 10
160.258593
 20
79.825185
 30
0.0
 11
173.942232
 21
79.825185
 31
0.0
  0
LINE
  5
22
100
AcDbEntity
  8
0
  6
BYBLOCK
 62
     0
100
AcDbLine
 10
160.258593
 20
111.825185
 30
0.0
 11
173.942232
 21
111.825185
 31
0.0
  0
LINE
  5
23
100
AcDbEntity
  8
0
  6
BYBLOCK
 62
     0
100
AcDbLine
 10
173.762232
 20
82.825185
 30
0.0
 11
173.762232
 21
108.825185
 31
0.0
  0
SOLID
  5
24
100
AcDbEntity
  8
0
  6
BYBLOCK
 62
     0
100
AcDbTrace
 10
173.262232
 20
82.825185
 30
0.0
 11
174.262232
 21
82.825185
 31
0.0
 12
173.762232
 22
79.825185
 32
0.0
 13
173.762232
 23
79.825185
 33
0.0
  0
SOLID
  5
25
100
AcDbEntity
  8
0
  6
BYBLOCK
 62
     0
100
AcDbTrace
 10
173.262232
 20
108.825185
 30
0.0
 11
174.262232
 21
108.825185
 31
0.0
 12
173.762232
 22
111.825185
 32
0.0
 13
173.762232
 23
111.825185
 33
0.0
  0
TEXT
  5
26
100
AcDbEntity
  8
0
  6
BYBLOCK
 62
     0
100
AcDbText
 10
172.762232
 20
93.444233
 30
0.0
 40
2.5
  1
32
 50
90.0
  7
ROMANS
100
AcDbText
  0
POINT
  5
27
100
AcDbEntity
  8
DEFPOINTS
  6
BYBLOCK
 62
     0
100
AcDbPoint
 10
160.196093
 20
79.825185
 30
0.0
  0
POINT
  5
29
100
AcDbEntity
  8
DEFPOINTS
  6
BYBLOCK
 62
     0
100
AcDbPoint
 10
160.196093
 20
111.825185
 30
0.0
  0
POINT
  5
2A
100
AcDbEntity
  8
DEFPOINTS
  6
BYBLOCK
 62
     0
100
AcDbPoint
 10
173.762232
 20
111.825185
 30
0.0
  0
ENDBLK
  5
2C
100
AcDbEntity
  8
0
100
AcDbBlockEnd
  0
ENDSEC
  0
SECTION
  2
ENTITIES
  0
DIMENSION
  5
1F
100
AcDbEntity
  8
COTATION1
100
AcDbDimension
  2
*D1
 10
173.762232
 20
111.825185
 30
0.0
 11
171.512232
 21
95.825185
 31
0.0
  3
SC_STAND
100
AcDbAlignedDimension
 13
160.196093
 23
79.825185
 33
0.0
 14
160.196093
 24
111.825185
 34
0.0
 50
90.0
100
AcDbRotatedDimension
  0
DIMENSION
  5
2D
100
AcDbEntity
  8
COTATION1
100
AcDbDimension
  2
*D0
 10
164.317309
 20
60.518333
 30
0.0
 11
124.217309
 21
62.768333
 31
0.0
  3
SC_STAND
100
AcDbAlignedDimension
 13
84.117309
 23
85.125185
 33
0.0
 14
164.317309
 24
81.325185
 34
0.0
100
AcDbRotatedDimension
  0
LWPOLYLINE
  5
3A
100
AcDbEntity
  8
ALPHA
100
AcDbPolyline
 90
        4
 70
     0
 43
0.0
 10
96.517309
 20
92.539185
 10
96.517309
 20
93.293783
 10
96.517309
 20
94.232607
 10
96.517309
 20
95.275185
  0
LWPOLYLINE
  5
41
100
AcDbEntity
  8
ALPHA
100
AcDbPolyline
 90
        5
 70
     0
 43
0.0
 10
96.517309
 20
97.775185
 10
96.517309
 20
98.657767
 10
96.517309
 20
99.410572
 10
96.517309
 20
100.040555
 10
96.517309
 20
100.142249
  0
LINE
  5
48
100
AcDbEntity
  8
ALPHA
100
AcDbLine
 10
96.374783
 20
106.725185
 30
0.0
 11
97.117309
 21
107.025185
 31
0.0
  0
LINE
  5
49
100
AcDbEntity
  8
ALPHA
100
AcDbLine
 10
101.617309
 20
95.725185
 30
0.0
 11
101.617309
 21
107.225185
 31
0.0
  0
LINE
  5
4A
100
AcDbEntity
  8
ALPHA
100
AcDbLine
 10
100.617309
 20
108.225185
 30
0.0
 11
99.117309
 21
108.225185
 31
0.0
  0
LINE
  5
4B
100
AcDbEntity
  8
ALPHA
100
AcDbLine
 10
98.117309
 20
107.225185
 30
0.0
 11
98.117309
 21
95.725185
 31
0.0
  0
LINE
  5
4C
100
AcDbEntity
  8
ALPHA
100
AcDbLine
 10
99.117309
 20
94.725185
 30
0.0
 11
100.617309
 21
94.725185
 31
0.0
  0
LINE
  5
4D
100
AcDbEntity
  8
ALPHA
100
AcDbLine
 10
105.717309
 20
109.925185
 30
0.0
 11
105.717309
 21
84.725185
 31
0.0
  0
LINE
  5
4E
100
AcDbEntity
  8
ALPHA
100
AcDbLine
 10
105.717309
 20
84.725185
 30
0.0
 11
115.717309
 21
84.725185
 31
0.0
  0
LINE
  5
4F
100
AcDbEntity
  8
ALPHA
100
AcDbLine
 10
115.717309
 20
84.725185
 30
0.0
 11
115.717309
 21
109.925185
 31
0.0
  0
LINE
  5
50
100
AcDbEntity
  8
ALPHA
100
AcDbLine
 10
115.717309
 20
109.925185
 30
0.0
 11
105.717309
 21
109.925185
 31
0.0
  0
LINE
  5
51
100
AcDbEntity
  8
ALPHA
100
AcDbLine
 10
100.617309
 20
84.611094
 30
0.0
 11
100.617309
 21
93.625185
 31
0.0
  0
LINE
  5
52
100
AcDbEntity
  8
ALPHA
100
AcDbLine
 10
97.117309
 20
93.625185
 30
0.0
 11
100.617309
 21
93.625185
 31
0.0
  0
LINE
  5
53
100
AcDbEntity
  8
ALPHA
100
AcDbLine
 10
97.117309
 20
95.275185
 30
0.0
 11
97.117309
 21
93.625185
 31
0.0
  0
LINE
  5
54
100
AcDbEntity
  8
ALPHA
100
AcDbLine
 10
97.117309
 20
95.275185
 30
0.0
 11
97.317309
 21
95.275185
 31
0.0
  0
LINE
  5
55
100
AcDbEntity
  8
ALPHA
100
AcDbLine
 10
97.317309
 20
95.275185
 30
0.0
 11
97.317309
 21
97.775185
 31
0.0
  0
LINE
  5
56
100
AcDbEntity
  8
ALPHA
100
AcDbLine
 10
97.117309
 20
97.775185
 30
0.0
 11
97.317309
 21
97.775185
 31
0.0
  0
LINE
  5
57
100
AcDbEntity
  8
ALPHA
100
AcDbLine
 10
97.117309
 20
100.711677
 30
0.0
 11
97.117309
 21
97.775185
 31
0.0
  0
LINE
  5
58
100
AcDbEntity
  8
ALPHA
100
AcDbLine
 10
97.117309
 20
107.225185
 30
0.0
 11
97.117309
 21
106.725185
 31
0.0
  0
LINE
  5
59
100
AcDbEntity
  8
ALPHA
100
AcDbLine
 10
97.117309
 20
109.025185
 30
0.0
 11
100.417309
 21
109.025185
 31
0.0
  0
LINE
  5
5A
100
AcDbEntity
  8
ALPHA
100
AcDbLine
 10
102.217309
 20
110.404822
 30
0.0
 11
100.417309
 21
109.025185
 31
0.0
  0
LINE
  5
5B
100
AcDbEntity
  8
ALPHA
100
AcDbLine
 10
109.117309
 20
112.125185
 30
0.0
 11
102.217309
 21
110.404822
 31
0.0
  0
LINE
  5
5C
100
AcDbEntity
  8
ALPHA
100
AcDbLine
 10
136.717309
 20
112.125185
 30
0.0
 11
109.117309
 21
112.125185
 31
0.0
  0
LINE
  5
5D
100
AcDbEntity
  8
ALPHA
100
AcDbLine
 10
136.717309
 20
112.125185
 30
0.0
 11
136.717309
 21
108.755151
 31
0.0
  0
LINE
  5
5E
100
AcDbEntity
  8
ALPHA
100
AcDbLine
 10
136.717309
 20
108.755151
 30
0.0
 11
139.060194
 21
106.789237
 31
0.0
  0
ARC
  5
5F
100
AcDbEntity
  8
ALPHA
100
AcDbCircle
 10
139.317309
 20
107.095655
 30
0.0
 40
0.4
100
AcDbArc
 50
230.0
 51
0.0
  0
LINE
  5
60
100
AcDbEntity
  8
ALPHA
100
AcDbLine
 10
139.717309
 20
107.095655
 30
0.0
 11
139.717309
 21
107.938316
 31
0.0
  0
LINE
  5
61
100
AcDbEntity
  8
ALPHA
100
AcDbLine
 10
140.717309
 20
108.525185
 30
0.0
 11
139.930912
 21
108.525185
 31
0.0
  0
LINE
  5
62
100
AcDbEntity
  8
ALPHA
100
AcDbLine
 10
140.717309
 20
108.125185
 30
0.0
 11
140.717309
 21
108.525185
 31
0.0
  0
LINE
  5
63
100
AcDbEntity
  8
ALPHA
100
AcDbLine
 10
140.717309
 20
92.025185
 30
0.0
 11
140.717309
 21
99.625185
 31
0.0
  0
LINE
  5
64
100
AcDbEntity
  8
ALPHA
100
AcDbLine
 10
140.717309
 20
80.725185
 30
0.0
 11
140.717309
 21
89.625185
 31
0.0
  0
LINE
  5
65
100
AcDbEntity
  8
ALPHA
100
AcDbLine
 10
130.317309
 20
80.725185
 30
0.0
 11
140.717309
 21
80.725185
 31
0.0
  0
LINE
  5
66
100
AcDbEntity
  8
ALPHA
100
AcDbLine
 10
130.317309
 20
80.725185
 30
0.0
 11
130.317309
 21
83.625185
 31
0.0
  0
LINE
  5
67
100
AcDbEntity
  8
ALPHA
100
AcDbLine
 10
100.617309
 20
84.611094
 30
0.0
 11
103.057517
 21
83.625185
 31
0.0
  0
LINE
  5
68
100
AcDbEntity
  8
ALPHA
100
AcDbLine
 10
100.117309
 20
84.725185
 30
0.0
 11
100.334922
 21
84.725185
 31
0.0
  0
LINE
  5
69
100
AcDbEntity
  8
ALPHA
100
AcDbLine
 10
97.117309
 20
97.625185
 30
0.0
 11
97.117309
 21
97.775185
 31
0.0
  0
LINE
  5
6A
100
AcDbEntity
  8
ALPHA
100
AcDbLine
 10
97.117309
 20
95.275185
 30
0.0
 11
97.117309
 21
95.425185
 31
0.0
  0
LINE
  5
6B
100
AcDbEntity
  8
ALPHA
100
AcDbLine
 10
103.517309
 20
110.728949
 30
0.0
 11
103.517309
 21
111.965685
 31
0.0
  0
LINE
  5
6C
100
AcDbEntity
  8
ALPHA
100
AcDbLine
 10
103.517309
 20
111.965685
 30
0.0
 11
108.969967
 21
113.325185
 31
0.0
  0
LINE
  5
6D
100
AcDbEntity
  8
ALPHA
100
AcDbLine
 10
108.969967
 20
113.325185
 30
0.0
 11
136.717309
 21
113.325185
 31
0.0
  0
LINE
  5
6E
100
AcDbEntity
  8
ALPHA
100
AcDbLine
 10
136.717309
 20
113.325185
 30
0.0
 11
136.717309
 21
112.125185
 31
0.0
  0
LINE
  5
6F
100
AcDbEntity
  8
ALPHA
100
AcDbLine
 10
131.917309
 20
80.725185
 30
0.0
 11
131.917309
 21
79.525185
 31
0.0
  0
LINE
  5
70
100
AcDbEntity
  8
ALPHA
100
AcDbLine
 10
131.917309
 20
79.525185
 30
0.0
 11
129.780545
 21
79.525185
 31
0.0
  0
LINE
  5
71
100
AcDbEntity
  8
ALPHA
100
AcDbLine
 10
129.780545
 20
79.525185
 30
0.0
 11
126.324459
 21
82.425185
 31
0.0
  0
LINE
  5
72
100
AcDbEntity
  8
ALPHA
100
AcDbLine
 10
126.324459
 20
82.425185
 30
0.0
 11
103.517309
 21
82.425185
 31
0.0
  0
LINE
  5
73
100
AcDbEntity
  8
ALPHA
100
AcDbLine
 10
103.517309
 20
82.425185
 30
0.0
 11
103.517309
 21
83.625185
 31
0.0
  0
ARC
  5
74
100
AcDbEntity
  8
ALPHA
100
AcDbCircle
 10
99.117309
 20
107.225185
 30
0.0
 40
1.0
100
AcDbArc
 50
90.0
 51
180.0
  0
ARC
  5
75
100
AcDbEntity
  8
ALPHA
100
AcDbCircle
 10
100.617309
 20
107.225185
 30
0.0
 40
1.0
100
AcDbArc
 50
0.0
 51
90.0
  0
ARC
  5
76
100
AcDbEntity
  8
ALPHA
100
AcDbCircle
 10
100.617309
 20
95.725185
 30
0.0
 40
1.0
100
AcDbArc
 50
270.0
 51
0.0
  0
ARC
  5
77
100
AcDbEntity
  8
ALPHA
100
AcDbCircle
 10
99.117309
 20
95.725185
 30
0.0
 40
1.0
100
AcDbArc
 50
180.0
 51
270.0
  0
LINE
  5
78
100
AcDbEntity
  8
ALPHA
100
AcDbLine
 10
97.117309
 20
91.625185
 30
0.0
 11
97.117309
 21
93.625185
 31
0.0
  0
LINE
  5
79
100
AcDbEntity
  8
ALPHA
100
AcDbLine
 10
140.717309
 20
112.125185
 30
0.0
 11
136.717309
 21
112.125185
 31
0.0
  0
LINE
  5
7A
100
AcDbEntity
  8
ALPHA
100
AcDbLine
 10
140.717309
 20
108.625185
 30
0.0
 11
140.717309
 21
108.525185
 31
0.0
  0
LINE
  5
7B
100
AcDbEntity
  8
ALPHA
100
AcDbLine
 10
140.717309
 20
112.125185
 30
0.0
 11
140.717309
 21
111.425185
 31
0.0
  0
LINE
  5
7C
100
AcDbEntity
  8
ALPHA
100
AcDbLine
 10
140.717309
 20
92.525185
 30
0.0
 11
141.217309
 21
92.525185
 31
0.0
  0
LINE
  5
7D
100
AcDbEntity
  8
ALPHA
100
AcDbLine
 10
140.717309
 20
108.525185
 30
0.0
 11
141.717309
 21
108.525185
 31
0.0
  0
LINE
  5
7E
100
AcDbEntity
  8
ALPHA
100
AcDbLine
 10
143.117309
 20
109.65916
 30
0.0
 11
143.017309
 21
109.65916
 31
0.0
  0
LINE
  5
7F
100
AcDbEntity
  8
ALPHA
100
AcDbLine
 10
143.017309
 20
108.525185
 30
0.0
 11
143.117309
 21
108.525185
 31
0.0
  0
LINE
  5
80
100
AcDbEntity
  8
ALPHA
100
AcDbLine
 10
141.717309
 20
108.125185
 30
0.0
 11
141.717309
 21
108.525185
 31
0.0
  0
LINE
  5
81
100
AcDbEntity
  8
ALPHA
100
AcDbLine
 10
140.717309
 20
98.525185
 30
0.0
 11
141.217309
 21
98.525185
 31
0.0
  0
LINE
  5
82
100
AcDbEntity
  8
ALPHA
100
AcDbLine
 10
141.717309
 20
108.525185
 30
0.0
 11
142.217309
 21
108.525185
 31
0.0
  0
LINE
  5
83
100
AcDbEntity
  8
ALPHA
100
AcDbLine
 10
97.117309
 20
97.775185
 30
0.0
 11
96.517309
 21
97.775185
 31
0.0
  0
LINE
  5
84
100
AcDbEntity
  8
ALPHA
100
AcDbLine
 10
96.517309
 20
95.275185
 30
0.0
 11
97.117309
 21
95.275185
 31
0.0
  0
LINE
  5
85
100
AcDbEntity
  8
ALPHA
100
AcDbLine
 10
103.057517
 20
83.625185
 30
0.0
 11
130.317309
 21
83.625185
 31
0.0
  0
LINE
  5
86
100
AcDbEntity
  8
ALPHA
100
AcDbLine
 10
100.117309
 20
84.813107
 30
0.0
 11
100.617309
 21
84.611094
 31
0.0
  0
LINE
  5
87
100
AcDbEntity
  8
ALPHA
100
AcDbLine
 10
140.717309
 20
84.025185
 30
0.0
 11
143.934922
 21
84.025185
 31
0.0
  0
LINE
  5
88
100
AcDbEntity
  8
ALPHA
100
AcDbLine
 10
140.717309
 20
85.325185
 30
0.0
 11
146.217309
 21
83.103041
 31
0.0
  0
ARC
  5
89
100
AcDbEntity
  8
ALPHA
100
AcDbCircle
 10
145.717309
 20
84.922856
 30
0.0
 40
0.5
100
AcDbArc
 50
248.0
 51
0.0
  0
ARC
  5
8A
100
AcDbEntity
  8
ALPHA
100
AcDbCircle
 10
142.217309
 20
89.125185
 30
0.0
 40
0.5
100
AcDbArc
 50
90.0
 51
180.0
  0
LINE
  5
8B
100
AcDbEntity
  8
ALPHA
100
AcDbLine
 10
141.717309
 20
86.336948
 30
0.0
 11
141.717309
 21
89.125185
 31
0.0
  0
ARC
  5
8C
100
AcDbEntity
  8
ALPHA
100
AcDbCircle
 10
142.217309
 20
86.336948
 30
0.0
 40
0.5
100
AcDbArc
 50
180.0
 51
248.0
  0
LINE
  5
8D
100
AcDbEntity
  8
ALPHA
100
AcDbLine
 10
145.530006
 20
84.459264
 30
0.0
 11
142.030006
 21
85.873356
 31
0.0
  0
LINE
  5
8E
100
AcDbEntity
  8
ALPHA
100
AcDbLine
 10
163.840608
 20
110.49869
 30
0.0
 11
163.840608
 21
108.325185
 31
0.0
  0
LINE
  5
8F
100
AcDbEntity
  8
ALPHA
100
AcDbLine
 10
159.317309
 20
79.825185
 30
0.0
 11
159.317309
 21
81.110203
 31
0.0
  0
ARC
  5
90
100
AcDbEntity
  8
ALPHA
100
AcDbCircle
 10
158.317309
 20
81.110203
 30
0.0
 40
1.0
100
AcDbArc
 50
0.0
 51
100.0
  0
LINE
  5
91
100
AcDbEntity
  8
ALPHA
100
AcDbLine
 10
158.143661
 20
82.09501
 30
0.0
 11
151.577783
 21
80.937269
 31
0.0
  0
LINE
  5
92
100
AcDbEntity
  8
ALPHA
100
AcDbLine
 10
146.217309
 20
83.103041
 30
0.0
 11
151.577783
 21
80.937269
 31
0.0
  0
LINE
  5
93
100
AcDbEntity
  8
ALPHA
100
AcDbLine
 10
146.217309
 20
88.625185
 30
0.0
 11
146.217309
 21
83.103041
 31
0.0
  0
ARC
  5
94
100
AcDbEntity
  8
ALPHA
100
AcDbCircle
 10
145.217309
 20
88.625185
 30
0.0
 40
1.0
100
AcDbArc
 50
0.0
 51
90.0
  0
LINE
  5
95
100
AcDbEntity
  8
ALPHA
100
AcDbLine
 10
140.717309
 20
89.625185
 30
0.0
 11
145.217309
 21
89.625185
 31
0.0
  0
LINE
  5
96
100
AcDbEntity
  8
ALPHA
100
AcDbLine
 10
140.717309
 20
92.025185
 30
0.0
 11
140.717309
 21
89.625185
 31
0.0
  0
LINE
  5
97
100
AcDbEntity
  8
ALPHA
100
AcDbLine
 10
140.717309
 20
92.025185
 30
0.0
 11
141.217309
 21
92.025185
 31
0.0
  0
LINE
  5
98
100
AcDbEntity
  8
ALPHA
100
AcDbLine
 10
141.217309
 20
92.025185
 30
0.0
 11
141.217309
 21
99.625185
 31
0.0
  0
LINE
  5
99
100
AcDbEntity
  8
ALPHA
100
AcDbLine
 10
140.717309
 20
99.625185
 30
0.0
 11
141.217309
 21
99.625185
 31
0.0
  0
LINE
  5
9A
100
AcDbEntity
  8
ALPHA
100
AcDbLine
 10
140.717309
 20
99.625185
 30
0.0
 11
140.717309
 21
108.125185
 31
0.0
  0
LINE
  5
9B
100
AcDbEntity
  8
ALPHA
100
AcDbLine
 10
143.117309
 20
108.125185
 30
0.0
 11
140.717309
 21
108.125185
 31
0.0
  0
LINE
  5
9C
100
AcDbEntity
  8
ALPHA
100
AcDbLine
 10
151.175203
 20
110.784087
 30
0.0
 11
143.117309
 21
108.125185
 31
0.0
  0
LINE
  5
9D
100
AcDbEntity
  8
ALPHA
100
AcDbLine
 10
151.175203
 20
110.784087
 30
0.0
 11
158.143661
 21
109.55536
 31
0.0
  0
ARC
  5
9E
100
AcDbEntity
  8
ALPHA
100
AcDbCircle
 10
158.317309
 20
110.540168
 30
0.0
 40
1.0
100
AcDbArc
 50
260.0
 51
0.0
  0
LINE
  5
9F
100
AcDbEntity
  8
ALPHA
100
AcDbLine
 10
159.317309
 20
111.825185
 30
0.0
 11
159.317309
 21
110.540168
 31
0.0
  0
LINE
  5
A0
100
AcDbEntity
  8
ALPHA
100
AcDbLine
 10
160.196093
 20
111.825185
 30
0.0
 11
159.317309
 21
111.825185
 31
0.0
  0
LINE
  5
A1
100
AcDbEntity
  8
ALPHA
100
AcDbLine
 10
160.196093
 20
111.825185
 30
0.0
 11
160.317309
 21
111.781066
 31
0.0
  0
LINE
  5
A2
100
AcDbEntity
  8
ALPHA
100
AcDbLine
 10
160.317309
 20
111.781066
 30
0.0
 11
160.317309
 21
106.825185
 31
0.0
  0
LINE
  5
A3
100
AcDbEntity
  8
ALPHA
100
AcDbLine
 10
160.317309
 20
106.825185
 30
0.0
 11
162.771354
 21
106.825185
 31
0.0
  0
LINE
  5
A4
100
AcDbEntity
  8
ALPHA
100
AcDbLine
 10
162.771354
 20
106.825185
 30
0.0
 11
163.317309
 21
108.325185
 31
0.0
  0
LINE
  5
A5
100
AcDbEntity
  8
ALPHA
100
AcDbLine
 10
163.840608
 20
108.325185
 30
0.0
 11
163.317309
 21
108.325185
 31
0.0
  0
LINE
  5
A6
100
AcDbEntity
  8
ALPHA
100
AcDbLine
 10
164.317309
 20
81.325185
 30
0.0
 11
164.317309
 21
107.925185
 31
0.0
  0
LINE
  5
A7
100
AcDbEntity
  8
ALPHA
100
AcDbLine
 10
164.317309
 20
81.325185
 30
0.0
 11
160.196093
 21
79.825185
 31
0.0
  0
LINE
  5
A8
100
AcDbEntity
  8
ALPHA
100
AcDbLine
 10
159.317309
 20
79.825185
 30
0.0
 11
160.196093
 21
79.825185
 31
0.0
  0
LINE
  5
A9
100
AcDbEntity
  8
ALPHA
100
AcDbLine
 10
154.330287
 20
79.825185
 30
0.0
 11
151.577783
 21
80.937269
 31
0.0
  0
LINE
  5
AA
100
AcDbEntity
  8
ALPHA
100
AcDbLine
 10
154.330287
 20
79.825185
 30
0.0
 11
159.317309
 21
79.825185
 31
0.0
  0
LINE
  5
AB
100
AcDbEntity
  8
ALPHA
100
AcDbLine
 10
159.317309
 20
111.825185
 30
0.0
 11
154.330287
 21
111.825185
 31
0.0
  0
LINE
  5
AC
100
AcDbEntity
  8
ALPHA
100
AcDbLine
 10
154.330287
 20
111.825185
 30
0.0
 11
151.175203
 21
110.784087
 31
0.0
  0
LINE
  5
AD
100
AcDbEntity
  8
ALPHA
100
AcDbLine
 10
143.117309
 20
108.125185
 30
0.0
 11
143.117309
 21
111.325185
 31
0.0
  0
LINE
  5
AE
100
AcDbEntity
  8
ALPHA
100
AcDbLine
 10
143.617309
 20
111.825185
 30
0.0
 11
154.330287
 21
111.825185
 31
0.0
  0
LINE
  5
AF
100
AcDbEntity
  8
ALPHA
100
AcDbLine
 10
143.617309
 20
111.825185
 30
0.0
 11
143.117309
 21
111.325185
 31
0.0
  0
LINE
  5
B0
100
AcDbEntity
  8
ALPHA
100
AcDbLine
 10
163.840608
 20
110.49869
 30
0.0
 11
160.317309
 21
111.781066
 31
0.0
  0
LINE
  5
B1
100
AcDbEntity
  8
ALPHA
100
AcDbLine
 10
164.317309
 20
107.925185
 30
0.0
 11
163.840608
 21
108.325185
 31
0.0
  0
LINE
  5
B2
100
AcDbEntity
  8
ALPHA
100
AcDbLine
 10
164.317309
 20
110.325185
 30
0.0
 11
164.317309
 21
107.925185
 31
0.0
  0
LINE
  5
B3
100
AcDbEntity
  8
ALPHA
100
AcDbLine
 10
164.317309
 20
110.325185
 30
0.0
 11
163.840608
 21
110.49869
 31
0.0
  0
LINE
  5
B4
100
AcDbEntity
  8
ALPHA
100
AcDbLine
 10
87.989946
 20
81.936375
 30
0.0
 11
93.788245
 21
83.479013
 31
0.0
  0
LINE
  5
B5
100
AcDbEntity
  8
ALPHA
100
AcDbLine
 10
90.788882
 20
76.472315
 30
0.0
 11
95.330883
 21
77.680715
 31
0.0
  0
LINE
  5
B6
100
AcDbEntity
  8
ALPHA
100
AcDbLine
 10
86.884389
 20
86.091823
 30
0.0
 11
92.682687
 21
87.634461
 31
0.0
  0
LINE
  5
B7
100
AcDbEntity
  8
ALPHA
100
AcDbLine
 10
87.861393
 20
82.419567
 30
0.0
 11
93.659691
 21
83.962205
 31
0.0
  0
LINE
  5
B8
100
AcDbEntity
  8
ALPHA
100
AcDbLine
 10
96.307887
 20
74.008459
 30
0.0
 11
96.597802
 21
74.085591
 31
0.0
  0
LINE
  5
B9
100
AcDbEntity
  8
ALPHA
100
AcDbLine
 10
91.331965
 20
78.582896
 30
0.0
 11
92.177241
 21
78.507434
 31
0.0
  0
LINE
  5
BA
100
AcDbEntity
  8
ALPHA
100
AcDbLine
 10
90.690656
 20
78.412276
 30
0.0
 11
91.331965
 21
78.582896
 31
0.0
  0
ARC
  5
BB
100
AcDbEntity
  8
ALPHA
100
AcDbCircle
 10
91.660414
 20
79.808545
 30
0.0
 40
1.7
100
AcDbArc
 50
134.578217
 51
235.218647
  0
LINE
  5
BC
100
AcDbEntity
  8
ALPHA
100
AcDbLine
 10
91.565037
 20
80.921435
 30
0.0
 11
90.467214
 21
81.019443
 31
0.0
  0
LINE
  5
BD
100
AcDbEntity
  8
ALPHA
100
AcDbLine
 10
92.21451
 20
81.094227
 30
0.0
 11
91.565037
 21
80.921435
 31
0.0
  0
ARC
  5
BE
100
AcDbEntity
  8
ALPHA
100
AcDbCircle
 10
91.660414
 20
79.808545
 30
0.0
 40
1.4
100
AcDbArc
 50
291.663933
 51
66.685221
  0
LINE
  5
BF
100
AcDbEntity
  8
ALPHA
100
AcDbLine
 10
89.990065
 20
76.363268
 30
0.0
 11
90.666533
 21
76.543242
 31
0.0
  0
LINE
  5
C0
100
AcDbEntity
  8
ALPHA
100
AcDbLine
 10
79.088756
 20
117.337912
 30
0.0
 11
80.518369
 21
117.718261
 31
0.0
  0
LINE
  5
C1
100
AcDbEntity
  8
ALPHA
100
AcDbLine
 10
85.448308
 20
114.123164
 30
0.0
 11
81.419727
 21
117.516692
 31
0.0
  0
LINE
  5
C2
100
AcDbEntity
  8
ALPHA
100
AcDbLine
 10
92.925546
 20
73.108587
 30
0.0
 11
96.307887
 21
74.008459
 31
0.0
  0
LINE
  5
C3
100
AcDbEntity
  8
ALPHA
100
AcDbLine
 10
95.6627
 20
76.433518
 30
0.0
 11
95.330883
 21
77.680715
 31
0.0
  0
LINE
  5
C4
100
AcDbEntity
  8
ALPHA
100
AcDbLine
 10
95.665121
 20
76.424417
 30
0.0
 11
95.6627
 21
76.433518
 31
0.0
  0
LINE
  5
C5
100
AcDbEntity
  8
ALPHA
100
AcDbLine
 10
96.291167
 20
74.071303
 30
0.0
 11
95.665121
 21
76.424417
 31
0.0
  0
ARC
  5
C6
100
AcDbEntity
  8
ALPHA
100
AcDbCircle
 10
79.217309
 20
116.854721
 30
0.0
 40
0.5
100
AcDbArc
 50
104.898432
 51
194.898432
  0
LINE
  5
C7
100
AcDbEntity
  8
ALPHA
100
AcDbLine
 10
92.313801
 20
73.463225
 30
0.0
 11
91.645325
 21
75.975821
 31
0.0
  0
ARC
  5
C8
100
AcDbEntity
  8
ALPHA
100
AcDbCircle
 10
89.861512
 20
76.84646
 30
0.0
 40
0.5
100
AcDbArc
 50
194.898432
 51
284.898432
  0
LINE
  5
C9
100
AcDbEntity
  8
ALPHA
100
AcDbLine
 10
90.788882
 20
76.472315
 30
0.0
 11
90.666533
 21
76.543242
 31
0.0
  0
LINE
  5
CA
100
AcDbEntity
  8
ALPHA
100
AcDbLine
 10
91.645325
 20
75.975821
 30
0.0
 11
90.788882
 21
76.472315
 31
0.0
  0
ARC
  5
CB
100
AcDbEntity
  8
ALPHA
100
AcDbCircle
 10
84.804057
 20
113.35835
 30
0.0
 40
1.0
100
AcDbArc
 50
14.898432
 51
49.890452
  0
ARC
  5
CC
100
AcDbEntity
  8
ALPHA
100
AcDbCircle
 10
80.775476
 20
116.751878
 30
0.0
 40
1.0
100
AcDbArc
 50
49.890452
 51
104.898432
  0
LINE
  5
CD
100
AcDbEntity
  8
ALPHA
100
AcDbLine
 10
96.291167
 20
74.071303
 30
0.0
 11
96.307887
 21
74.008459
 31
0.0
  0
LINE
  5
CE
100
AcDbEntity
  8
ALPHA
100
AcDbLine
 10
95.955036
 20
76.501548
 30
0.0
 11
96.597802
 21
74.085591
 31
0.0
  0
LINE
  5
CF
100
AcDbEntity
  8
ALPHA
100
AcDbLine
 10
95.665121
 20
76.424417
 30
0.0
 11
95.955036
 21
76.501548
 31
0.0
  0
LINE
  5
D0
100
AcDbEntity
  8
ALPHA
100
AcDbLine
 10
87.989946
 20
81.936375
 30
0.0
 11
87.861393
 21
82.419567
 31
0.0
  0
LINE
  5
D1
100
AcDbEntity
  8
ALPHA
100
AcDbLine
 10
93.788245
 20
83.479013
 30
0.0
 11
93.659691
 21
83.962205
 31
0.0
  0
LINE
  5
D2
100
AcDbEntity
  8
ALPHA
100
AcDbLine
 10
90.317309
 20
96.525185
 30
0.0
 11
92.682687
 21
87.634461
 31
0.0
  0
LINE
  5
D3
100
AcDbEntity
  8
ALPHA
100
AcDbLine
 10
85.77044
 20
113.615456
 30
0.0
 11
90.317309
 21
96.525185
 31
0.0
  0
LINE
  5
D4
100
AcDbEntity
  8
ALPHA
100
AcDbLine
 10
93.659691
 20
83.962205
 30
0.0
 11
87.861393
 21
82.419567
 31
0.0
  0
LINE
  5
D5
100
AcDbEntity
  8
ALPHA
100
AcDbLine
 10
93.788245
 20
83.479013
 30
0.0
 11
95.330883
 21
77.680715
 31
0.0
  0
LINE
  5
D6
100
AcDbEntity
  8
ALPHA
100
AcDbLine
 10
93.016926
 20
86.378163
 30
0.0
 11
92.682687
 21
87.634461
 31
0.0
  0
LINE
  5
D7
100
AcDbEntity
  8
ALPHA
100
AcDbLine
 10
93.659691
 20
83.962205
 30
0.0
 11
93.016926
 21
86.378163
 31
0.0
  0
LINE
  5
D8
100
AcDbEntity
  8
ALPHA
100
AcDbLine
 10
87.218627
 20
84.835525
 30
0.0
 11
86.884389
 21
86.091823
 31
0.0
  0
LINE
  5
D9
100
AcDbEntity
  8
ALPHA
100
AcDbLine
 10
87.861393
 20
82.419567
 30
0.0
 11
87.218627
 21
84.835525
 31
0.0
  0
LINE
  5
DA
100
AcDbEntity
  8
ALPHA
100
AcDbLine
 10
96.307887
 20
74.008459
 30
0.0
 11
92.925546
 21
73.108587
 31
0.0
  0
LINE
  5
DB
100
AcDbEntity
  8
ALPHA
100
AcDbLine
 10
92.925546
 20
73.108587
 30
0.0
 11
92.313801
 21
73.463225
 31
0.0
  0
LINE
  5
DC
100
AcDbEntity
  8
ALPHA
100
AcDbLine
 10
87.989946
 20
81.936375
 30
0.0
 11
89.37832
 21
76.717906
 31
0.0
  0
LINE
  5
DD
100
AcDbEntity
  8
ALPHA
100
AcDbLine
 10
78.734117
 20
116.726167
 30
0.0
 11
86.884389
 21
86.091823
 31
0.0
  0
LINE
  5
DE
100
AcDbEntity
  8
ALPHA
100
AcDbLine
 10
88.617309
 20
112.525185
 30
0.0
 11
90.317309
 21
112.525185
 31
0.0
  0
LINE
  5
DF
100
AcDbEntity
  8
ALPHA
100
AcDbLine
 10
92.23287
 20
89.325185
 30
0.0
 11
92.726395
 21
89.325185
 31
0.0
  0
LINE
  5
E0
100
AcDbEntity
  8
ALPHA
100
AcDbLine
 10
85.491048
 20
89.325185
 30
0.0
 11
86.024152
 21
89.325185
 31
0.0
  0
LINE
  5
E1
100
AcDbEntity
  8
ALPHA
100
AcDbLine
 10
96.117309
 20
113.15916
 30
0.0
 11
92.617309
 21
113.15916
 31
0.0
  0
LINE
  5
E2
100
AcDbEntity
  8
ALPHA
100
AcDbLine
 10
85.491048
 20
91.32896
 30
0.0
 11
85.491048
 21
89.325185
 31
0.0
  0
LWPOLYLINE
  5
E3
100
AcDbEntity
  8
ALPHA
100
AcDbPolyline
 90
       11
 70
     0
 43
0.0
 10
84.117309
 20
88.583635
 10
84.351318
 20
88.624013
 10
84.563459
 20
88.672346
 10
84.754974
 20
88.727792
 10
84.926756
 20
88.789991
 10
85.079306
 20
88.859009
 10
85.212312
 20
88.935275
 10
85.324546
 20
89.019751
 10
85.413361
 20
89.114374
 10
85.472177
 20
89.220582
 10
85.491048
 20
89.325185
  0
LWPOLYLINE
  5
F0
100
AcDbEntity
  8
ALPHA
100
AcDbPolyline
 90
        4
 70
     0
 43
0.0
 10
84.117309
 20
85.231016
 10
85.544378
 20
85.273235
 10
86.851937
 20
85.31803
 10
87.087696
 20
85.327652
  0
LINE
  5
F6
100
AcDbEntity
  8
ALPHA
100
AcDbLine
 10
97.558463
 20
81.325185
 30
0.0
 11
94.700508
 21
81.325185
 31
0.0
  0
LINE
  5
F7
100
AcDbEntity
  8
ALPHA
100
AcDbLine
 10
99.886929
 20
80.186957
 30
0.0
 11
99.938378
 21
80.101208
 31
0.0
  0
LINE
  5
F8
100
AcDbEntity
  8
ALPHA
100
AcDbLine
 10
99.795706
 20
80.132224
 30
0.0
 11
99.847155
 21
80.046474
 31
0.0
  0
LINE
  5
F9
100
AcDbEntity
  8
ALPHA
100
AcDbLine
 10
99.613261
 20
80.022756
 30
0.0
 11
99.66471
 21
79.937007
 31
0.0
  0
LINE
  5
FA
100
AcDbEntity
  8
ALPHA
100
AcDbLine
 10
97.617309
 20
78.485185
 30
0.0
 11
96.353409
 21
78.485185
 31
0.0
  0
LINE
  5
FB
100
AcDbEntity
  8
ALPHA
100
AcDbLine
 10
100.117309
 20
82.802536
 30
0.0
 11
97.558463
 21
81.325185
 31
0.0
  0
LWPOLYLINE
  5
FC
100
AcDbEntity
  8
ALPHA
100
AcDbPolyline
 90
        5
 70
     0
 43
0.0
 10
97.558463
 20
81.325185
 10
97.468115
 20
81.052677
 10
97.363732
 20
80.805295
 10
97.231674
 20
80.603567
 10
97.058463
 20
80.45916
  0
LINE
  5
103
100
AcDbEntity
  8
ALPHA
100
AcDbLine
 10
99.339593
 20
79.858556
 30
0.0
 11
99.391042
 21
79.772806
 31
0.0
  0
LINE
  5
104
100
AcDbEntity
  8
ALPHA
100
AcDbLine
 10
99.157147
 20
79.749088
 30
0.0
 11
99.208597
 21
79.663339
 31
0.0
  0
LINE
  5
105
100
AcDbEntity
  8
ALPHA
100
AcDbLine
 10
99.065925
 20
79.694355
 30
0.0
 11
99.117374
 21
79.608605
 31
0.0
  0
LINE
  5
106
100
AcDbEntity
  8
ALPHA
100
AcDbLine
 10
96.172727
 20
79.025185
 30
0.0
 11
97.561912
 21
79.025185
 31
0.0
  0
LINE
  5
107
100
AcDbEntity
  8
ALPHA
100
AcDbLine
 10
98.746645
 20
79.502787
 30
0.0
 11
98.798095
 21
79.417038
 31
0.0
  0
LINE
  5
108
100
AcDbEntity
  8
ALPHA
100
AcDbLine
 10
98.655423
 20
79.448054
 30
0.0
 11
98.706872
 21
79.362304
 31
0.0
  0
LINE
  5
109
100
AcDbEntity
  8
ALPHA
100
AcDbLine
 10
98.472977
 20
79.338586
 30
0.0
 11
98.524427
 21
79.252837
 31
0.0
  0
LINE
  5
10A
100
AcDbEntity
  8
ALPHA
100
AcDbLine
 10
98.153698
 20
79.147019
 30
0.0
 11
98.205148
 21
79.06127
 31
0.0
  0
LINE
  5
10B
100
AcDbEntity
  8
ALPHA
100
AcDbLine
 10
98.016864
 20
79.064918
 30
0.0
 11
98.068314
 21
78.979169
 31
0.0
  0
LINE
  5
10C
100
AcDbEntity
  8
ALPHA
100
AcDbLine
 10
97.925642
 20
79.010185
 30
0.0
 11
97.977091
 21
78.924436
 31
0.0
  0
LINE
  5
10D
100
AcDbEntity
  8
ALPHA
100
AcDbLine
 10
97.834419
 20
78.955451
 30
0.0
 11
97.885868
 21
78.869702
 31
0.0
  0
LINE
  5
10E
100
AcDbEntity
  8
ALPHA
100
AcDbLine
 10
97.561912
 20
79.025185
 30
0.0
 11
100.117309
 21
80.558423
 31
0.0
  0
LINE
  5
10F
100
AcDbEntity
  8
ALPHA
100
AcDbLine
 10
92.617309
 20
113.525185
 30
0.0
 11
90.317309
 21
113.525185
 31
0.0
  0
LINE
  5
110
100
AcDbEntity
  8
ALPHA
100
AcDbLine
 10
89.817309
 20
104.525185
 30
0.0
 11
89.817309
 21
105.525185
 31
0.0
  0
LINE
  5
111
100
AcDbEntity
  8
ALPHA
100
AcDbLine
 10
99.102032
 20
81.639015
 30
0.0
 11
99.202032
 21
81.46581
 31
0.0
  0
LWPOLYLINE
  5
112
100
AcDbEntity
  8
ALPHA
100
AcDbPolyline
 90
        5
 70
     0
 43
0.0
 10
97.561912
 20
79.025185
 10
97.583444
 20
78.947449
 10
97.601461
 20
78.882402
 10
97.613237
 20
78.839887
 10
97.617309
 20
78.825185
  0
LINE
  5
119
100
AcDbEntity
  8
ALPHA
100
AcDbLine
 10
86.005447
 20
112.73214
 30
0.0
 11
88.317309
 21
112.73214
 31
0.0
  0
LINE
  5
11A
100
AcDbEntity
  8
ALPHA
100
AcDbLine
 10
87.401744
 20
107.48389
 30
0.0
 11
88.317309
 21
107.48389
 31
0.0
  0
LINE
  5
11B
100
AcDbEntity
  8
ALPHA
100
AcDbLine
 10
87.213659
 20
108.190845
 30
0.0
 11
88.317309
 21
108.190845
 31
0.0
  0
LWPOLYLINE
  5
11C
100
AcDbEntity
  8
ALPHA
100
AcDbPolyline
 90
        7
 70
     0
 43
0.0
 10
88.617309
 20
112.525185
 10
88.617309
 20
112.066946
 10
88.617309
 20
111.633086
 10
88.617309
 20
111.24669
 10
88.617309
 20
110.928313
 10
88.617309
 20
110.694896
 10
88.617309
 20
110.602297
  0
LINE
  5
125
100
AcDbEntity
  8
ALPHA
100
AcDbLine
 10
88.617309
 20
115.025185
 30
0.0
 11
88.617309
 21
112.525185
 31
0.0
  0
LWPOLYLINE
  5
126
100
AcDbEntity
  8
ALPHA
100
AcDbPolyline
 90
        6
 70
     0
 43
0.0
 10
88.617309
 20
112.525185
 10
88.524604
 20
112.525185
 10
88.440973
 20
112.525185
 10
88.374604
 20
112.525185
 10
88.331992
 20
112.525185
 10
88.317309
 20
112.525185
  0
LINE
  5
12E
100
AcDbEntity
  8
ALPHA
100
AcDbLine
 10
93.906615
 20
85.79788
 30
0.0
 11
93.17131
 21
85.79788
 31
0.0
  0
LINE
  5
12F
100
AcDbEntity
  8
ALPHA
100
AcDbLine
 10
94.008645
 20
85.492943
 30
0.0
 11
93.252438
 21
85.492943
 31
0.0
  0
ARC
  5
130
100
AcDbEntity
  8
ALPHA
100
AcDbCircle
 10
97.117309
 20
98.775185
 30
0.0
 40
1.5
100
AcDbArc
 50
104.477512
 51
180.0
  0
LINE
  5
131
100
AcDbEntity
  8
ALPHA
100
AcDbLine
 10
84.117309
 20
88.525185
 30
0.0
 11
84.117309
 21
88.583635
 31
0.0
  0
LINE
  5
132
100
AcDbEntity
  8
ALPHA
100
AcDbLine
 10
92.44571
 20
88.525185
 30
0.0
 11
92.994072
 21
88.525185
 31
0.0
  0
LINE
  5
133
100
AcDbEntity
  8
ALPHA
100
AcDbLine
 10
84.117309
 20
88.525185
 30
0.0
 11
86.236992
 21
88.525185
 31
0.0
  0
LINE
  5
134
100
AcDbEntity
  8
ALPHA
100
AcDbLine
 10
96.117309
 20
115.025185
 30
0.0
 11
96.117309
 21
113.15916
 31
0.0
  0
LINE
  5
135
100
AcDbEntity
  8
ALPHA
100
AcDbLine
 10
96.117309
 20
115.025185
 30
0.0
 11
92.617309
 21
115.025185
 31
0.0
  0
LINE
  5
136
100
AcDbEntity
  8
ALPHA
100
AcDbLine
 10
96.117309
 20
107.225185
 30
0.0
 11
96.117309
 21
106.725185
 31
0.0
  0
LINE
  5
137
100
AcDbEntity
  8
ALPHA
100
AcDbLine
 10
96.117309
 20
107.475185
 30
0.0
 11
96.117309
 21
107.225185
 31
0.0
  0
LINE
  5
138
100
AcDbEntity
  8
ALPHA
100
AcDbLine
 10
96.117309
 20
113.15916
 30
0.0
 11
96.117309
 21
109.225185
 31
0.0
  0
LINE
  5
139
100
AcDbEntity
  8
ALPHA
100
AcDbLine
 10
97.117309
 20
106.725185
 30
0.0
 11
97.117309
 21
100.711677
 31
0.0
  0
LINE
  5
13A
100
AcDbEntity
  8
ALPHA
100
AcDbLine
 10
100.117309
 20
82.802536
 30
0.0
 11
100.117309
 21
88.831781
 31
0.0
  0
LINE
  5
13B
100
AcDbEntity
  8
ALPHA
100
AcDbLine
 10
100.117309
 20
80.558423
 30
0.0
 11
100.117309
 21
82.225185
 31
0.0
  0
LINE
  5
13C
100
AcDbEntity
  8
ALPHA
100
AcDbLine
 10
84.117309
 20
96.492418
 30
0.0
 11
84.117309
 21
88.583635
 31
0.0
  0
LINE
  5
13D
100
AcDbEntity
  8
ALPHA
100
AcDbLine
 10
86.852198
 20
86.035373
 30
0.0
 11
86.880862
 21
86.033636
 31
0.0
  0
LWPOLYLINE
  5
13E
100
AcDbEntity
  8
ALPHA
100
AcDbPolyline
 90
        3
 70
     0
 43
0.0
 10
84.117309
 20
86.178918
 10
85.544743
 20
86.10704
 10
86.852198
 20
86.035373
  0
LINE
  5
143
100
AcDbEntity
  8
ALPHA
100
AcDbLine
 10
94.700508
 20
83.425185
 30
0.0
 11
94.700508
 21
81.325185
 31
0.0
  0
LINE
  5
144
100
AcDbEntity
  8
ALPHA
100
AcDbLine
 10
97.058463
 20
80.45916
 30
0.0
 11
96.826412
 21
80.325185
 31
0.0
  0
LINE
  5
145
100
AcDbEntity
  8
ALPHA
100
AcDbLine
 10
96.826412
 20
80.325185
 30
0.0
 11
94.700508
 21
80.325185
 31
0.0
  0
LINE
  5
146
100
AcDbEntity
  8
ALPHA
100
AcDbLine
 10
94.700508
 20
81.325185
 30
0.0
 11
94.700508
 21
80.325185
 31
0.0
  0
LINE
  5
147
100
AcDbEntity
  8
ALPHA
100
AcDbLine
 10
100.117309
 20
82.802536
 30
0.0
 11
100.117309
 21
82.225185
 31
0.0
  0
LINE
  5
148
100
AcDbEntity
  8
ALPHA
100
AcDbLine
 10
100.117309
 20
82.225185
 30
0.0
 11
97.058463
 21
80.45916
 31
0.0
  0
LINE
  5
149
100
AcDbEntity
  8
ALPHA
100
AcDbLine
 10
99.72574
 20
89.625388
 30
0.0
 11
95.813093
 21
92.625084
 31
0.0
  0
ARC
  5
14A
100
AcDbEntity
  8
ALPHA
100
AcDbCircle
 10
99.117309
 20
88.831781
 30
0.0
 40
1.0
100
AcDbArc
 50
0.0
 51
52.52382
  0
ARC
  5
14B
100
AcDbEntity
  8
ALPHA
100
AcDbCircle
 10
96.617309
 20
100.711677
 30
0.0
 40
0.5
100
AcDbArc
 50
284.477512
 51
0.0
  0
ARC
  5
14C
100
AcDbEntity
  8
ALPHA
100
AcDbCircle
 10
96.117309
 20
93.021887
 30
0.0
 40
0.5
100
AcDbArc
 50
180.0
 51
232.52382
  0
LINE
  5
14D
100
AcDbEntity
  8
ALPHA
100
AcDbLine
 10
98.833511
 20
81.253044
 30
0.0
 11
97.359425
 21
80.40198
 31
0.0
  0
LINE
  5
14E
100
AcDbEntity
  8
ALPHA
100
AcDbLine
 10
99.202032
 20
81.46581
 30
0.0
 11
98.833511
 21
81.253044
 31
0.0
  0
LINE
  5
14F
100
AcDbEntity
  8
ALPHA
100
AcDbLine
 10
99.524489
 20
81.65198
 30
0.0
 11
99.202032
 21
81.46581
 31
0.0
  0
LINE
  5
150
100
AcDbEntity
  8
ALPHA
100
AcDbLine
 10
99.424489
 20
81.825185
 30
0.0
 11
99.524489
 21
81.65198
 31
0.0
  0
LINE
  5
151
100
AcDbEntity
  8
ALPHA
100
AcDbLine
 10
98.733511
 20
81.426249
 30
0.0
 11
98.833511
 21
81.253044
 31
0.0
  0
LINE
  5
152
100
AcDbEntity
  8
ALPHA
100
AcDbLine
 10
97.259425
 20
80.575185
 30
0.0
 11
97.359425
 21
80.40198
 31
0.0
  0
LINE
  5
153
100
AcDbEntity
  8
ALPHA
100
AcDbLine
 10
99.734296
 20
81.888583
 30
0.0
 11
99.474489
 21
81.738583
 31
0.0
  0
LINE
  5
154
100
AcDbEntity
  8
ALPHA
100
AcDbLine
 10
99.684296
 20
81.975185
 30
0.0
 11
99.734296
 21
81.888583
 31
0.0
  0
LINE
  5
155
100
AcDbEntity
  8
ALPHA
100
AcDbLine
 10
97.885868
 20
78.869702
 30
0.0
 11
97.840257
 21
78.842335
 31
0.0
  0
LINE
  5
156
100
AcDbEntity
  8
ALPHA
100
AcDbLine
 10
97.977091
 20
78.924436
 30
0.0
 11
97.885868
 21
78.869702
 31
0.0
  0
LINE
  5
157
100
AcDbEntity
  8
ALPHA
100
AcDbLine
 10
98.068314
 20
78.979169
 30
0.0
 11
97.977091
 21
78.924436
 31
0.0
  0
LINE
  5
158
100
AcDbEntity
  8
ALPHA
100
AcDbLine
 10
98.205148
 20
79.06127
 30
0.0
 11
98.068314
 21
78.979169
 31
0.0
  0
LINE
  5
159
100
AcDbEntity
  8
ALPHA
100
AcDbLine
 10
98.341982
 20
79.14337
 30
0.0
 11
98.205148
 21
79.06127
 31
0.0
  0
LINE
  5
15A
100
AcDbEntity
  8
ALPHA
100
AcDbLine
 10
98.524427
 20
79.252837
 30
0.0
 11
98.341982
 21
79.14337
 31
0.0
  0
LINE
  5
15B
100
AcDbEntity
  8
ALPHA
100
AcDbLine
 10
98.706872
 20
79.362304
 30
0.0
 11
98.524427
 21
79.252837
 31
0.0
  0
LINE
  5
15C
100
AcDbEntity
  8
ALPHA
100
AcDbLine
 10
88.552795
 20
110.602297
 30
0.0
 11
90.317309
 21
110.602297
 31
0.0
  0
LINE
  5
15D
100
AcDbEntity
  8
ALPHA
100
AcDbLine
 10
88.317309
 20
110.232858
 30
0.0
 11
88.317309
 21
107.48389
 31
0.0
  0
LINE
  5
15E
100
AcDbEntity
  8
ALPHA
100
AcDbLine
 10
88.317309
 20
110.29822
 30
0.0
 11
88.317309
 21
110.232858
 31
0.0
  0
LINE
  5
15F
100
AcDbEntity
  8
ALPHA
100
AcDbLine
 10
98.798095
 20
79.417038
 30
0.0
 11
98.706872
 21
79.362304
 31
0.0
  0
LINE
  5
160
100
AcDbEntity
  8
ALPHA
100
AcDbLine
 10
98.843706
 20
79.444405
 30
0.0
 11
98.798095
 21
79.417038
 31
0.0
  0
LINE
  5
161
100
AcDbEntity
  8
ALPHA
100
AcDbLine
 10
99.026152
 20
79.553872
 30
0.0
 11
98.843706
 21
79.444405
 31
0.0
  0
LINE
  5
162
100
AcDbEntity
  8
ALPHA
100
AcDbLine
 10
99.117374
 20
79.608605
 30
0.0
 11
99.026152
 21
79.553872
 31
0.0
  0
LINE
  5
163
100
AcDbEntity
  8
ALPHA
100
AcDbLine
 10
99.208597
 20
79.663339
 30
0.0
 11
99.117374
 21
79.608605
 31
0.0
  0
LINE
  5
164
100
AcDbEntity
  8
ALPHA
100
AcDbLine
 10
99.391042
 20
79.772806
 30
0.0
 11
99.208597
 21
79.663339
 31
0.0
  0
LINE
  5
165
100
AcDbEntity
  8
ALPHA
100
AcDbLine
 10
99.482265
 20
79.82754
 30
0.0
 11
99.391042
 21
79.772806
 31
0.0
  0
LINE
  5
166
100
AcDbEntity
  8
ALPHA
100
AcDbLine
 10
99.66471
 20
79.937007
 30
0.0
 11
99.482265
 21
79.82754
 31
0.0
  0
LINE
  5
167
100
AcDbEntity
  8
ALPHA
100
AcDbLine
 10
99.847155
 20
80.046474
 30
0.0
 11
99.66471
 21
79.937007
 31
0.0
  0
LINE
  5
168
100
AcDbEntity
  8
ALPHA
100
AcDbLine
 10
99.938378
 20
80.101208
 30
0.0
 11
99.847155
 21
80.046474
 31
0.0
  0
LINE
  5
169
100
AcDbEntity
  8
ALPHA
100
AcDbLine
 10
99.983989
 20
80.128575
 30
0.0
 11
99.938378
 21
80.101208
 31
0.0
  0
LINE
  5
16A
100
AcDbEntity
  8
ALPHA
100
AcDbLine
 10
99.93254
 20
80.214324
 30
0.0
 11
99.983989
 21
80.128575
 31
0.0
  0
LINE
  5
16B
100
AcDbEntity
  8
ALPHA
100
AcDbLine
 10
99.430815
 20
79.913289
 30
0.0
 11
99.482265
 21
79.82754
 31
0.0
  0
LINE
  5
16C
100
AcDbEntity
  8
ALPHA
100
AcDbLine
 10
98.974702
 20
79.639621
 30
0.0
 11
99.026152
 21
79.553872
 31
0.0
  0
LINE
  5
16D
100
AcDbEntity
  8
ALPHA
100
AcDbLine
 10
98.792257
 20
79.530154
 30
0.0
 11
98.843706
 21
79.444405
 31
0.0
  0
LINE
  5
16E
100
AcDbEntity
  8
ALPHA
100
AcDbLine
 10
98.290532
 20
79.229119
 30
0.0
 11
98.341982
 21
79.14337
 31
0.0
  0
LINE
  5
16F
100
AcDbEntity
  8
ALPHA
100
AcDbLine
 10
97.788808
 20
78.928085
 30
0.0
 11
97.840257
 21
78.842335
 31
0.0
  0
LINE
  5
170
100
AcDbEntity
  8
ALPHA
100
AcDbLine
 10
93.817309
 20
85.125185
 30
0.0
 11
93.817309
 21
85.129243
 31
0.0
  0
LINE
  5
171
100
AcDbEntity
  8
ALPHA
100
AcDbLine
 10
92.617309
 20
115.025185
 30
0.0
 11
90.317309
 21
115.025185
 31
0.0
  0
LINE
  5
172
100
AcDbEntity
  8
ALPHA
100
AcDbLine
 10
85.927482
 20
113.025185
 30
0.0
 11
88.317309
 21
113.025185
 31
0.0
  0
LINE
  5
173
100
AcDbEntity
  8
ALPHA
100
AcDbLine
 10
95.737753
 20
80.325185
 30
0.0
 11
96.172727
 21
79.025185
 31
0.0
  0
LWPOLYLINE
  5
174
100
AcDbEntity
  8
ALPHA
100
AcDbPolyline
 90
        5
 70
     0
 43
0.0
 10
88.317309
 20
110.29822
 10
88.33486
 20
110.402802
 10
88.385061
 20
110.494936
 10
88.460889
 20
110.563723
 10
88.552795
 20
110.602297
  0
LINE
  5
17B
100
AcDbEntity
  8
ALPHA
100
AcDbLine
 10
88.317309
 20
115.025185
 30
0.0
 11
88.317309
 21
112.525185
 31
0.0
  0
LINE
  5
17C
100
AcDbEntity
  8
ALPHA
100
AcDbLine
 10
88.617309
 20
115.025185
 30
0.0
 11
88.317309
 21
115.025185
 31
0.0
  0
LINE
  5
17D
100
AcDbEntity
  8
ALPHA
100
AcDbLine
 10
87.141563
 20
85.125185
 30
0.0
 11
84.117309
 21
85.125185
 31
0.0
  0
LINE
  5
17E
100
AcDbEntity
  8
ALPHA
100
AcDbLine
 10
93.817309
 20
85.125185
 30
0.0
 11
93.35028
 21
85.125185
 31
0.0
  0
LINE
  5
17F
100
AcDbEntity
  8
ALPHA
100
AcDbLine
 10
90.317309
 20
105.525185
 30
0.0
 11
89.817309
 21
105.525185
 31
0.0
  0
LINE
  5
180
100
AcDbEntity
  8
ALPHA
100
AcDbLine
 10
90.317309
 20
104.525185
 30
0.0
 11
89.817309
 21
104.525185
 31
0.0
  0
LINE
  5
181
100
AcDbEntity
  8
ALPHA
100
AcDbLine
 10
87.922858
 20
105.525185
 30
0.0
 11
89.817309
 21
105.525185
 31
0.0
  0
LINE
  5
182
100
AcDbEntity
  8
ALPHA
100
AcDbLine
 10
88.188908
 20
104.525185
 30
0.0
 11
89.817309
 21
104.525185
 31
0.0
  0
LINE
  5
183
100
AcDbEntity
  8
ALPHA
100
AcDbLine
 10
93.817309
 20
85.129243
 30
0.0
 11
94.130338
 21
85.129243
 31
0.0
  0
LINE
  5
184
100
AcDbEntity
  8
ALPHA
100
AcDbLine
 10
96.239646
 20
78.825185
 30
0.0
 11
97.617309
 21
78.825185
 31
0.0
  0
LINE
  5
185
100
AcDbEntity
  8
ALPHA
100
AcDbLine
 10
100.117309
 20
80.558423
 30
0.0
 11
100.117309
 21
80.325185
 31
0.0
  0
LINE
  5
186
100
AcDbEntity
  8
ALPHA
100
AcDbLine
 10
97.617309
 20
78.825185
 30
0.0
 11
100.117309
 21
80.325185
 31
0.0
  0
LINE
  5
187
100
AcDbEntity
  8
ALPHA
100
AcDbLine
 10
97.617309
 20
76.275185
 30
0.0
 11
96.01526
 21
76.275185
 31
0.0
  0
LINE
  5
188
100
AcDbEntity
  8
ALPHA
100
AcDbLine
 10
97.617309
 20
76.640949
 30
0.0
 11
97.617309
 21
78.485185
 31
0.0
  0
LINE
  5
189
100
AcDbEntity
  8
ALPHA
100
AcDbLine
 10
97.617309
 20
76.54659
 30
0.0
 11
97.617309
 21
76.640949
 31
0.0
  0
LINE
  5
18A
100
AcDbEntity
  8
ALPHA
100
AcDbLine
 10
97.617309
 20
76.275288
 30
0.0
 11
97.617309
 21
76.54659
 31
0.0
  0
LINE
  5
18B
100
AcDbEntity
  8
ALPHA
100
AcDbLine
 10
94.317309
 20
82.775185
 30
0.0
 11
93.975498
 21
82.775185
 31
0.0
  0
LINE
  5
18C
100
AcDbEntity
  8
ALPHA
100
AcDbLine
 10
84.117309
 20
86.058333
 30
0.0
 11
84.117309
 21
85.231072
 31
0.0
  0
LINE
  5
18D
100
AcDbEntity
  8
ALPHA
100
AcDbLine
 10
84.117309
 20
86.179799
 30
0.0
 11
84.117309
 21
86.058333
 31
0.0
  0
LINE
  5
18E
100
AcDbEntity
  8
ALPHA
100
AcDbLine
 10
88.617309
 20
115.025185
 30
0.0
 11
90.317309
 21
115.025185
 31
0.0
  0
LINE
  5
18F
100
AcDbEntity
  8
ALPHA
100
AcDbLine
 10
97.617309
 20
78.825185
 30
0.0
 11
97.617309
 21
78.485185
 31
0.0
  0
LINE
  5
190
100
AcDbEntity
  8
ALPHA
100
AcDbLine
 10
96.239646
 20
78.825185
 30
0.0
 11
96.353409
 21
78.485185
 31
0.0
  0
LINE
  5
191
100
AcDbEntity
  8
ALPHA
100
AcDbLine
 10
95.617309
 20
98.775185
 30
0.0
 11
95.617309
 21
93.021887
 31
0.0
  0
LINE
  5
192
100
AcDbEntity
  8
ALPHA
100
AcDbLine
 10
96.117309
 20
106.725185
 30
0.0
 11
97.117309
 21
106.725185
 31
0.0
  0
LINE
  5
193
100
AcDbEntity
  8
ALPHA
100
AcDbLine
 10
95.117309
 20
107.475185
 30
0.0
 11
96.117309
 21
107.475185
 31
0.0
  0
LINE
  5
194
100
AcDbEntity
  8
ALPHA
100
AcDbLine
 10
95.117309
 20
107.475185
 30
0.0
 11
92.617309
 21
109.475185
 31
0.0
  0
LINE
  5
195
100
AcDbEntity
  8
ALPHA
100
AcDbLine
 10
92.617309
 20
113.525185
 30
0.0
 11
92.617309
 21
109.475185
 31
0.0
  0
LINE
  5
196
100
AcDbEntity
  8
ALPHA
100
AcDbLine
 10
90.317309
 20
96.525185
 30
0.0
 11
90.317309
 21
113.525185
 31
0.0
  0
LINE
  5
197
100
AcDbEntity
  8
ALPHA
100
AcDbLine
 10
94.700508
 20
83.425185
 30
0.0
 11
90.317309
 21
96.525185
 31
0.0
  0
LINE
  5
198
100
AcDbEntity
  8
ALPHA
100
AcDbLine
 10
90.317309
 20
115.025185
 30
0.0
 11
92.617309
 21
115.025185
 31
0.0
  0
LINE
  5
199
100
AcDbEntity
  8
ALPHA
100
AcDbLine
 10
90.317309
 20
115.025185
 30
0.0
 11
90.317309
 21
113.525185
 31
0.0
  0
LINE
  5
19A
100
AcDbEntity
  8
ALPHA
100
AcDbLine
 10
92.617309
 20
115.025185
 30
0.0
 11
92.617309
 21
113.525185
 31
0.0
  0
LINE
  5
19B
100
AcDbEntity
  8
ALPHA
100
AcDbLine
 10
84.117309
 20
85.125185
 30
0.0
 11
84.117309
 21
85.231072
 31
0.0
  0
LINE
  5
19C
100
AcDbEntity
  8
ALPHA
100
AcDbLine
 10
84.117309
 20
86.179799
 30
0.0
 11
84.117309
 21
88.525185
 31
0.0
  0
LINE
  5
19D
100
AcDbEntity
  8
ALPHA
100
AcDbLine
 10
85.927482
 20
113.025185
 30
0.0
 11
88.317309
 21
113.025185
 31
0.0
  0
LINE
  5
19E
100
AcDbEntity
  8
ALPHA
100
AcDbLine
 10
88.317309
 20
112.525185
 30
0.0
 11
88.317309
 21
110.349205
 31
0.0
  0
LINE
  5
19F
100
AcDbEntity
  8
ALPHA
100
AcDbLine
 10
88.317309
 20
112.525185
 30
0.0
 11
88.317309
 21
110.29822
 31
0.0
  0
LINE
  5
1A0
100
AcDbEntity
  8
ALPHA
100
AcDbLine
 10
97.617309
 20
78.825185
 30
0.0
 11
96.239646
 21
78.825185
 31
0.0
  0
LINE
  5
1A1
100
AcDbEntity
  8
ALPHA
100
AcDbLine
 10
96.239646
 20
78.825185
 30
0.0
 11
96.172727
 21
79.025185
 31
0.0
  0
LINE
  5
1A2
100
AcDbEntity
  8
ALPHA
100
AcDbLine
 10
97.617309
 20
78.825185
 30
0.0
 11
100.117309
 21
80.325185
 31
0.0
  0
LWPOLYLINE
  5
1A3
100
AcDbEntity
  8
ALPHA
100
AcDbPolyline
 90
       10
 70
     0
 43
0.0
 10
76.617309
 20
91.025185
 10
76.617309
 20
91.108743
 10
76.617309
 20
91.356876
 10
76.617309
 20
91.762046
 10
76.617309
 20
92.311941
 10
76.617309
 20
92.989854
 10
76.617309
 20
93.775185
 10
76.617309
 20
94.644075
 10
76.617309
 20
95.57012
 10
76.617309
 20
96.525185
  0
LWPOLYLINE
  5
1AF
100
AcDbEntity
  8
ALPHA
100
AcDbPolyline
 90
       10
 70
     0
 43
0.0
 10
76.617309
 20
102.025185
 10
76.617309
 20
101.941628
 10
76.617309
 20
101.693495
 10
76.617309
 20
101.288325
 10
76.617309
 20
100.73843
 10
76.617309
 20
100.060517
 10
76.617309
 20
99.275185
 10
76.617309
 20
98.406296
 10
76.617309
 20
97.48025
 10
76.617309
 20
96.525185
  0
LINE
  5
1BB
100
AcDbEntity
  8
ALPHA
100
AcDbLine
 10
71.617309
 20
96.525185
 30
0.0
 11
71.617309
 21
96.025185
 31
0.0
  0
ARC
  5
1BC
100
AcDbEntity
  8
ALPHA
100
AcDbCircle
 10
76.617309
 20
96.025185
 30
0.0
 40
5.0
100
AcDbArc
 50
180.0
 51
270.0
  0
LINE
  5
1BD
100
AcDbEntity
  8
ALPHA
100
AcDbLine
 10
71.617309
 20
96.025185
 30
0.0
 11
71.617309
 21
96.525185
 31
0.0
  0
LINE
  5
1BE
100
AcDbEntity
  8
ALPHA
100
AcDbLine
 10
84.117309
 20
91.025185
 30
0.0
 11
76.617309
 21
91.025185
 31
0.0
  0
LINE
  5
1BF
100
AcDbEntity
  8
ALPHA
100
AcDbLine
 10
71.617309
 20
97.025185
 30
0.0
 11
71.617309
 21
96.525185
 31
0.0
  0
ARC
  5
1C0
100
AcDbEntity
  8
ALPHA
100
AcDbCircle
 10
76.617309
 20
97.025185
 30
0.0
 40
5.0
100
AcDbArc
 50
90.0
 51
180.0
  0
LINE
  5
1C1
100
AcDbEntity
  8
ALPHA
100
AcDbLine
 10
71.617309
 20
97.025185
 30
0.0
 11
71.617309
 21
96.525185
 31
0.0
  0
LINE
  5
1C2
100
AcDbEntity
  8
ALPHA
100
AcDbLine
 10
82.645316
 20
102.025185
 30
0.0
 11
76.617309
 21
102.025185
 31
0.0
  0
LINE
  5
1C3
100
AcDbEntity
  8
ALPHA
100
AcDbLine
 10
96.117309
 20
113.15916
 30
0.0
 11
97.117309
 21
113.15916
 31
0.0
  0
LINE
  5
1C4
100
AcDbEntity
  8
ALPHA
100
AcDbLine
 10
96.531523
 20
92.524972
 30
0.0
 11
95.617309
 21
93.439185
 31
0.0
  0
LINE
  5
1C5
100
AcDbEntity
  8
ALPHA
100
AcDbLine
 10
97.117309
 20
115.025185
 30
0.0
 11
96.117309
 21
115.025185
 31
0.0
  0
ARC
  5
1C6
100
AcDbEntity
  8
ALPHA
100
AcDbCircle
 10
95.117309
 20
91.110758
 30
0.0
 40
2.0
100
AcDbArc
 50
17.256926
 51
45.0
  0
LINE
  5
1C7
100
AcDbEntity
  8
ALPHA
100
AcDbLine
 10
94.700508
 20
82.575185
 30
0.0
 11
94.317309
 21
82.575185
 31
0.0
  0
LINE
  5
1C8
100
AcDbEntity
  8
ALPHA
100
AcDbLine
 10
97.117309
 20
107.225185
 30
0.0
 11
96.117309
 21
107.225185
 31
0.0
  0
LINE
  5
1C9
100
AcDbEntity
  8
ALPHA
100
AcDbLine
 10
96.117309
 20
109.225185
 30
0.0
 11
97.117309
 21
109.225185
 31
0.0
  0
LINE
  5
1CA
100
AcDbEntity
  8
ALPHA
100
AcDbLine
 10
96.117309
 20
107.475185
 30
0.0
 11
96.117309
 21
109.225185
 31
0.0
  0
LINE
  5
1CB
100
AcDbEntity
  8
ALPHA
100
AcDbLine
 10
96.117309
 20
107.225185
 30
0.0
 11
96.117309
 21
107.475185
 31
0.0
  0
LINE
  5
1CC
100
AcDbEntity
  8
ALPHA
100
AcDbLine
 10
94.700508
 20
82.575185
 30
0.0
 11
94.317309
 21
82.575185
 31
0.0
  0
LINE
  5
1CD
100
AcDbEntity
  8
ALPHA
100
AcDbLine
 10
94.317309
 20
82.742654
 30
0.0
 11
94.317309
 21
84.570446
 31
0.0
  0
LINE
  5
1CE
100
AcDbEntity
  8
ALPHA
100
AcDbLine
 10
94.317309
 20
82.575185
 30
0.0
 11
94.317309
 21
82.742654
 31
0.0
  0
LINE
  5
1CF
100
AcDbEntity
  8
ALPHA
100
AcDbLine
 10
97.117309
 20
115.025185
 30
0.0
 11
97.117309
 21
113.15916
 31
0.0
  0
LINE
  5
1D0
100
AcDbEntity
  8
ALPHA
100
AcDbLine
 10
97.117309
 20
113.15916
 30
0.0
 11
97.117309
 21
109.225185
 31
0.0
  0
LINE
  5
1D1
100
AcDbEntity
  8
ALPHA
100
AcDbLine
 10
97.117309
 20
107.225185
 30
0.0
 11
97.117309
 21
109.225185
 31
0.0
  0
LWPOLYLINE
  5
1D2
100
AcDbEntity
  8
ALPHA
100
AcDbPolyline
 90
        4
 70
     0
 43
0.0
 10
80.973444
 20
83.365359
 10
81.004195
 20
83.53976
 10
81.026632
 20
83.667001
 10
81.034221
 20
83.710042
  0
LINE
  5
1D8
100
AcDbEntity
  8
ALPHA
100
AcDbLine
 10
80.967893
 20
83.333879
 30
0.0
 11
80.973444
 21
83.365359
 31
0.0
  0
LWPOLYLINE
  5
1D9
100
AcDbEntity
  8
ALPHA
100
AcDbPolyline
 90
       10
 70
     0
 43
0.0
 10
80.405956
 20
80.146974
 10
80.454538
 20
80.422496
 10
80.513276
 20
80.755619
 10
80.579604
 20
81.131782
 10
80.650622
 20
81.534546
 10
80.723227
 20
81.946307
 10
80.794245
 20
82.349071
 10
80.860573
 20
82.725234
 10
80.919311
 20
83.058356
 10
80.967893
 20
83.333879
  0
LINE
  5
1E5
100
AcDbEntity
  8
ALPHA
100
AcDbLine
 10
80.400405
 20
80.115494
 30
0.0
 11
80.405956
 21
80.146974
 31
0.0
  0
LWPOLYLINE
  5
1E6
100
AcDbEntity
  8
ALPHA
100
AcDbPolyline
 90
        4
 70
     0
 43
0.0
 10
80.339628
 20
79.770811
 10
80.347217
 20
79.813852
 10
80.369653
 20
79.941093
 10
80.400405
 20
80.115494
  0
LWPOLYLINE
  5
1EC
100
AcDbEntity
  8
ALPHA
100
AcDbPolyline
 90
        8
 70
     0
 43
0.0
 10
100.903391
 20
75.459523
 10
100.927379
 20
75.595568
 10
100.962928
 20
75.797177
 10
101.009105
 20
76.059058
 10
101.064697
 20
76.37434
 10
101.128247
 20
76.734748
 10
101.198086
 20
77.130823
 10
101.272381
 20
77.55217
  0
LWPOLYLINE
  5
1F6
100
AcDbEntity
  8
ALPHA
100
AcDbPolyline
 90
        8
 70
     0
 43
0.0
 10
101.463394
 20
78.635459
 10
101.537689
 20
79.056807
 10
101.607527
 20
79.452882
 10
101.671077
 20
79.813289
 10
101.72667
 20
80.128571
 10
101.772847
 20
80.390453
 10
101.808396
 20
80.592061
 10
101.832384
 20
80.728106
  0
LWPOLYLINE
  5
200
100
AcDbEntity
  8
ALPHA
100
AcDbPolyline
 90
        3
 70
     0
 43
0.0
 10
101.832384
 20
80.728106
 10
101.588601
 20
80.781355
 10
101.343368
 20
80.834143
  0
LWPOLYLINE
  5
205
100
AcDbEntity
  8
ALPHA
100
AcDbPolyline
 90
        3
 70
     0
 43
0.0
 10
100.407599
 20
75.527135
 10
100.656097
 20
75.492864
 10
100.903391
 20
75.459523
  0
LINE
  5
20A
100
AcDbEntity
  8
ALPHA
100
AcDbLine
 10
80.339628
 20
79.770811
 30
0.0
 11
78.717309
 21
82.087723
 31
0.0
  0
LINE
  5
20B
100
AcDbEntity
  8
ALPHA
100
AcDbLine
 10
101.272381
 20
77.55217
 30
0.0
 11
100.779977
 21
77.638995
 31
0.0
  0
LINE
  5
20C
100
AcDbEntity
  8
ALPHA
100
AcDbLine
 10
81.034221
 20
83.710042
 30
0.0
 11
78.717309
 21
82.087723
 31
0.0
  0
LINE
  5
20D
100
AcDbEntity
  8
ALPHA
100
AcDbLine
 10
88.971008
 20
78.248866
 30
0.0
 11
80.339628
 21
79.770811
 31
0.0
  0
LINE
  5
20E
100
AcDbEntity
  8
ALPHA
100
AcDbLine
 10
98.066168
 20
76.645144
 30
0.0
 11
97.617309
 21
76.72429
 31
0.0
  0
LINE
  5
20F
100
AcDbEntity
  8
ALPHA
100
AcDbLine
 10
98.854014
 20
76.506225
 30
0.0
 11
98.066168
 21
76.645144
 31
0.0
  0
LINE
  5
210
100
AcDbEntity
  8
ALPHA
100
AcDbLine
 10
101.343368
 20
80.834143
 30
0.0
 11
101.353016
 21
80.88886
 31
0.0
  0
LINE
  5
211
100
AcDbEntity
  8
ALPHA
100
AcDbLine
 10
87.837202
 20
82.510493
 30
0.0
 11
81.034221
 21
83.710042
 31
0.0
  0
LINE
  5
212
100
AcDbEntity
  8
ALPHA
100
AcDbLine
 10
100.779977
 20
77.638995
 30
0.0
 11
100.97099
 21
78.722283
 31
0.0
  0
LINE
  5
213
100
AcDbEntity
  8
ALPHA
100
AcDbLine
 10
100.397951
 20
75.472417
 30
0.0
 11
98.723778
 21
75.767619
 31
0.0
  0
LINE
  5
214
100
AcDbEntity
  8
ALPHA
100
AcDbLine
 10
100.397951
 20
75.472417
 30
0.0
 11
100.407599
 21
75.527135
 31
0.0
  0
LINE
  5
215
100
AcDbEntity
  8
ALPHA
100
AcDbLine
 10
98.863644
 20
76.560839
 30
0.0
 11
99.428826
 21
79.766144
 31
0.0
  0
LINE
  5
216
100
AcDbEntity
  8
ALPHA
100
AcDbLine
 10
98.854014
 20
76.506225
 30
0.0
 11
98.863644
 21
76.560839
 31
0.0
  0
LINE
  5
217
100
AcDbEntity
  8
ALPHA
100
AcDbLine
 10
98.723778
 20
75.767619
 30
0.0
 11
98.854014
 21
76.506225
 31
0.0
  0
LINE
  5
218
100
AcDbEntity
  8
ALPHA
100
AcDbLine
 10
101.353016
 20
80.88886
 30
0.0
 11
100.117309
 21
81.106749
 31
0.0
  0
LINE
  5
219
100
AcDbEntity
  8
ALPHA
100
AcDbLine
 10
101.463394
 20
78.635459
 30
0.0
 11
100.97099
 21
78.722283
 31
0.0
  0
LINE
  5
21A
100
AcDbEntity
  8
ALPHA
100
AcDbLine
 10
88.971008
 20
78.248866
 30
0.0
 11
80.339628
 21
79.770811
 31
0.0
  0
LINE
  5
21B
100
AcDbEntity
  8
ALPHA
100
AcDbLine
 10
98.066168
 20
76.645144
 30
0.0
 11
97.617309
 21
76.72429
 31
0.0
  0
LINE
  5
21C
100
AcDbEntity
  8
ALPHA
100
AcDbLine
 10
98.854014
 20
76.506225
 30
0.0
 11
98.066168
 21
76.645144
 31
0.0
  0
LINE
  5
21D
100
AcDbEntity
  8
ALPHA
100
AcDbLine
 10
87.837202
 20
82.510493
 30
0.0
 11
81.034221
 21
83.710042
 31
0.0
  0
LINE
  5
21E
100
AcDbEntity
  8
ALPHA
100
AcDbLine
 10
100.397951
 20
75.472417
 30
0.0
 11
98.723778
 21
75.767619
 31
0.0
  0
LINE
  5
21F
100
AcDbEntity
  8
ALPHA
100
AcDbLine
 10
101.353016
 20
80.88886
 30
0.0
 11
100.117309
 21
81.106749
 31
0.0
  0
LINE
  5
220
100
AcDbEntity
  8
ALPHA
100
AcDbLine
 10
102.071493
 20
80.356528
 30
0.0
 11
101.758836
 21
78.583364
 31
0.0
  0
LINE
  5
221
100
AcDbEntity
  8
ALPHA
100
AcDbLine
 10
101.567823
 20
77.500076
 30
0.0
 11
101.255166
 21
75.726912
 31
0.0
  0
LWPOLYLINE
  5
222
100
AcDbEntity
  8
ALPHA
100
AcDbPolyline
 90
        7
 70
     0
 43
0.0
 10
102.071493
 20
80.356528
 10
102.075525
 20
80.438732
 10
102.058859
 20
80.520414
 10
102.023745
 20
80.593144
 10
101.972236
 20
80.654487
 10
101.906086
 20
80.701196
 10
101.832384
 20
80.728106
  0
LWPOLYLINE
  5
22B
100
AcDbEntity
  8
ALPHA
100
AcDbPolyline
 90
        7
 70
     0
 43
0.0
 10
100.903391
 20
75.459523
 10
100.981852
 20
75.459602
 10
101.059987
 20
75.480871
 10
101.129371
 20
75.520896
 10
101.187242
 20
75.577231
 10
101.23084
 20
75.648287
 10
101.255166
 20
75.726912
  0
LINE
  5
234
100
AcDbEntity
  8
ALPHA
100
AcDbLine
 10
101.463394
 20
78.635459
 30
0.0
 11
101.758836
 21
78.583364
 31
0.0
  0
LINE
  5
235
100
AcDbEntity
  8
ALPHA
100
AcDbLine
 10
102.071493
 20
80.356528
 30
0.0
 11
101.758836
 21
78.583364
 31
0.0
  0
LINE
  5
236
100
AcDbEntity
  8
ALPHA
100
AcDbLine
 10
101.567823
 20
77.500076
 30
0.0
 11
101.255166
 21
75.726912
 31
0.0
  0
LINE
  5
237
100
AcDbEntity
  8
ALPHA
100
AcDbLine
 10
101.567823
 20
77.500076
 30
0.0
 11
101.272381
 21
77.55217
 31
0.0
  0
LWPOLYLINE
  5
238
100
AcDbEntity
  8
ALPHA
100
AcDbPolyline
 90
       36
 70
     0
 43
0.0
 10
98.132495
 20
77.021307
 10
98.14129
 20
77.071185
 10
98.150563
 20
77.123774
 10
98.160297
 20
77.178976
 10
98.170474
 20
77.236694
 10
98.181077
 20
77.296829
 10
98.192089
 20
77.359282
 10
98.20349
 20
77.423938
 10
98.215258
 20
77.490679
 10
98.227374
 20
77.559389
 10
98.239816
 20
77.629951
 10
98.252563
 20
77.702245
 10
98.265593
 20
77.776141
 10
98.278882
 20
77.851506
 10
98.292407
 20
77.928208
 10
98.306144
 20
78.006115
 10
98.320069
 20
78.085091
 10
98.334159
 20
78.164998
 10
98.348388
 20
78.245692
 10
98.36273
 20
78.327033
 10
98.377162
 20
78.408878
 10
98.391657
 20
78.491086
 10
98.406191
 20
78.573511
 10
98.420737
 20
78.656008
 10
98.435271
 20
78.738433
 10
98.449766
 20
78.82064
 10
98.464198
 20
78.902485
 10
98.47854
 20
78.983826
 10
98.492769
 20
79.064521
 10
98.506859
 20
79.144427
 10
98.520784
 20
79.223404
 10
98.521866
 20
79.229539
 10
98.522947
 20
79.235667
 10
98.524026
 20
79.241788
 10
98.525104
 20
79.247903
 10
98.526181
 20
79.25401
  0
LWPOLYLINE
  5
25E
100
AcDbEntity
  8
ALPHA
100
AcDbPolyline
 90
        6
 70
     0
 43
0.0
 10
98.124195
 20
76.974233
 10
98.125815
 20
76.98342
 10
98.127455
 20
76.992721
 10
98.129115
 20
77.002136
 10
98.130795
 20
77.011665
 10
98.132495
 20
77.021307
  0
LWPOLYLINE
  5
266
100
AcDbEntity
  8
ALPHA
100
AcDbPolyline
 90
       16
 70
     0
 43
0.0
 10
98.066168
 20
76.645144
 10
98.066496
 20
76.647004
 10
98.067415
 20
76.65222
 10
98.06893
 20
76.66081
 10
98.071043
 20
76.672793
 10
98.073757
 20
76.688185
 10
98.077073
 20
76.706992
 10
98.080984
 20
76.729174
 10
98.085481
 20
76.754676
 10
98.090554
 20
76.783444
 10
98.096193
 20
76.815426
 10
98.101106
 20
76.843287
 10
98.106369
 20
76.873134
 10
98.111975
 20
76.904931
 10
98.117919
 20
76.938643
 10
98.124195
 20
76.974233
  0
LWPOLYLINE
  5
278
100
AcDbEntity
  8
ALPHA
100
AcDbPolyline
 90
       16
 70
     0
 43
0.0
 10
98.124195
 20
76.974233
 10
98.117919
 20
76.938643
 10
98.111975
 20
76.904931
 10
98.106369
 20
76.873134
 10
98.101106
 20
76.843287
 10
98.096193
 20
76.815426
 10
98.090554
 20
76.783444
 10
98.085481
 20
76.754676
 10
98.080984
 20
76.729174
 10
98.077073
 20
76.706992
 10
98.073757
 20
76.688185
 10
98.071043
 20
76.672793
 10
98.06893
 20
76.66081
 10
98.067415
 20
76.65222
 10
98.066496
 20
76.647004
 10
98.066168
 20
76.645144
  0
LWPOLYLINE
  5
28A
100
AcDbEntity
  8
ALPHA
100
AcDbPolyline
 90
        6
 70
     0
 43
0.0
 10
98.126889
 20
76.989511
 10
98.126346
 20
76.98643
 10
98.125805
 20
76.983362
 10
98.125266
 20
76.980306
 10
98.124729
 20
76.977263
 10
98.124195
 20
76.974233
  0
LWPOLYLINE
  5
292
100
AcDbEntity
  8
ALPHA
100
AcDbPolyline
 90
       16
 70
     0
 43
0.0
 10
80.397655
 20
80.0999
 10
80.39138
 20
80.06431
 10
80.385436
 20
80.030599
 10
80.379829
 20
79.998801
 10
80.374566
 20
79.968954
 10
80.369653
 20
79.941093
 10
80.364014
 20
79.909112
 10
80.358942
 20
79.880343
 10
80.354445
 20
79.854841
 10
80.350534
 20
79.832659
 10
80.347217
 20
79.813852
 10
80.344503
 20
79.79846
 10
80.342391
 20
79.786478
 10
80.340876
 20
79.777887
 10
80.339956
 20
79.772671
 10
80.339628
 20
79.770811
  0
LWPOLYLINE
  5
2A4
100
AcDbEntity
  8
ALPHA
100
AcDbPolyline
 90
        6
 70
     0
 43
0.0
 10
80.405956
 20
80.146974
 10
80.404256
 20
80.137332
 10
80.402576
 20
80.127803
 10
80.400915
 20
80.118388
 10
80.399275
 20
80.109087
 10
80.397655
 20
80.0999
  0
LWPOLYLINE
  5
2AC
100
AcDbEntity
  8
ALPHA
100
AcDbPolyline
 90
       46
 70
     0
 43
0.0
 10
80.967893
 20
83.333879
 10
80.959098
 20
83.284001
 10
80.949825
 20
83.231412
 10
80.940092
 20
83.17621
 10
80.929915
 20
83.118492
 10
80.919311
 20
83.058356
 10
80.908299
 20
82.995904
 10
80.896898
 20
82.931248
 10
80.88513
 20
82.864506
 10
80.873015
 20
82.795796
 10
80.860573
 20
82.725234
 10
80.847825
 20
82.65294
 10
80.834795
 20
82.579045
 10
80.821507
 20
82.503679
 10
80.807982
 20
82.426977
 10
80.794245
 20
82.349071
 10
80.780319
 20
82.270095
 10
80.76623
 20
82.190188
 10
80.752001
 20
82.109493
 10
80.737658
 20
82.028153
 10
80.723227
 20
81.946307
 10
80.708731
 20
81.8641
 10
80.694198
 20
81.781675
 10
80.679651
 20
81.699178
 10
80.665117
 20
81.616753
 10
80.650622
 20
81.534546
 10
80.636191
 20
81.4527
 10
80.621848
 20
81.371359
 10
80.607619
 20
81.290665
 10
80.59353
 20
81.210758
 10
80.579604
 20
81.131782
 10
80.565867
 20
81.053875
 10
80.552342
 20
80.977173
 10
80.539053
 20
80.901808
 10
80.526024
 20
80.827913
 10
80.513276
 20
80.755619
 10
80.500834
 20
80.685057
 10
80.488719
 20
80.616346
 10
80.47695
 20
80.549605
 10
80.46555
 20
80.484949
 10
80.454538
 20
80.422496
 10
80.443934
 20
80.362361
 10
80.433757
 20
80.304643
 10
80.424023
 20
80.249441
 10
80.414751
 20
80.196852
 10
80.405956
 20
80.146974
  0
LWPOLYLINE
  5
2DC
100
AcDbEntity
  8
ALPHA
100
AcDbPolyline
 90
        6
 70
     0
 43
0.0
 10
80.976194
 20
83.380953
 10
80.974574
 20
83.371766
 10
80.972934
 20
83.362465
 10
80.971273
 20
83.353049
 10
80.969593
 20
83.343521
 10
80.967893
 20
83.333879
  0
LWPOLYLINE
  5
2E4
100
AcDbEntity
  8
ALPHA
100
AcDbPolyline
 90
       16
 70
     0
 43
0.0
 10
81.034221
 20
83.710042
 10
81.033893
 20
83.708182
 10
81.032973
 20
83.702965
 10
81.031458
 20
83.694375
 10
81.029346
 20
83.682393
 10
81.026632
 20
83.667001
 10
81.023315
 20
83.648193
 10
81.019404
 20
83.626012
 10
81.014907
 20
83.60051
 10
81.009835
 20
83.571741
 10
81.004195
 20
83.53976
 10
80.999283
 20
83.511899
 10
80.99402
 20
83.482051
 10
80.988413
 20
83.450254
 10
80.982469
 20
83.416543
 10
80.976194
 20
83.380953
  0
LINE
  5
2F6
100
AcDbEntity
  8
ALPHA
 62
    80
100
AcDbLine
 10
80.973444
 20
83.365359
 30
0.0
 11
87.93641
 21
82.1376
 31
0.0
  0
LINE
  5
2F7
100
AcDbEntity
  8
ALPHA
100
AcDbLine
 10
97.617309
 20
77.079689
 30
0.0
 11
98.126945
 21
76.989826
 31
0.0
  0
LINE
  5
2F8
100
AcDbEntity
  8
ALPHA
 62
    80
100
AcDbLine
 10
80.400405
 20
80.115494
 30
0.0
 11
88.8718
 21
78.621758
 31
0.0
  0
LWPOLYLINE
  5
2F9
100
AcDbEntity
  8
ALPHA
100
AcDbPolyline
 90
       11
 70
     0
 43
0.0
 10
98.526781
 20
79.257413
 10
98.473509
 20
78.955289
 10
98.416949
 20
78.634523
 10
98.361235
 20
78.318552
 10
98.306581
 20
78.008598
 10
98.256145
 20
77.722561
 10
98.212629
 20
77.475766
 10
98.1762
 20
77.269168
 10
98.149133
 20
77.115663
 10
98.132693
 20
77.02243
 10
98.126945
 20
76.989826
  0
LINE
  5
306
100
AcDbEntity
  8
ALPHA
 62
    80
100
AcDbLine
 10
80.973444
 20
83.365359
 30
0.0
 11
87.93641
 21
82.1376
 31
0.0
  0
LINE
  5
307
100
AcDbEntity
  8
ALPHA
100
AcDbLine
 10
97.617309
 20
77.079689
 30
0.0
 11
98.126945
 21
76.989826
 31
0.0
  0
LINE
  5
308
100
AcDbEntity
  8
ALPHA
 62
    80
100
AcDbLine
 10
80.400405
 20
80.115494
 30
0.0
 11
88.8718
 21
78.621758
 31
0.0
  0
LINE
  5
309
100
AcDbEntity
  8
ALPHA
100
AcDbLine
 10
92.217309
 20
115.539287
 30
0.0
 11
90.717309
 21
115.539287
 31
0.0
  0
LINE
  5
30A
100
AcDbEntity
  8
ALPHA
100
AcDbLine
 10
90.717309
 20
119.025185
 30
0.0
 11
92.217309
 21
119.025185
 31
0.0
  0
LINE
  5
30B
100
AcDbEntity
  8
ALPHA
100
AcDbLine
 10
92.217309
 20
119.025185
 30
0.0
 11
92.217309
 21
115.539287
 31
0.0
  0
LINE
  5
30C
100
AcDbEntity
  8
ALPHA
100
AcDbLine
 10
90.717309
 20
115.539287
 30
0.0
 11
90.717309
 21
119.025185
 31
0.0
  0
LINE
  5
30D
100
AcDbEntity
  8
ALPHA
100
AcDbLine
 10
90.717309
 20
115.025185
 30
0.0
 11
90.717309
 21
115.539287
 31
0.0
  0
LINE
  5
30E
100
AcDbEntity
  8
ALPHA
100
AcDbLine
 10
90.717309
 20
119.025185
 30
0.0
 11
90.717309
 21
119.525185
 31
0.0
  0
LINE
  5
30F
100
AcDbEntity
  8
ALPHA
100
AcDbLine
 10
90.717309
 20
119.525185
 30
0.0
 11
92.217309
 21
119.525185
 31
0.0
  0
LINE
  5
310
100
AcDbEntity
  8
ALPHA
100
AcDbLine
 10
92.217309
 20
119.025185
 30
0.0
 11
92.217309
 21
119.525185
 31
0.0
  0
LINE
  5
311
100
AcDbEntity
  8
ALPHA
100
AcDbLine
 10
92.217309
 20
115.025185
 30
0.0
 11
92.217309
 21
115.539287
 31
0.0
  0
LINE
  5
312
100
AcDbEntity
  8
ALPHA
100
AcDbLine
 10
95.617309
 20
95.425185
 30
0.0
 11
97.317309
 21
95.425185
 31
0.0
  0
LINE
  5
313
100
AcDbEntity
  8
ALPHA
100
AcDbLine
 10
95.617309
 20
97.625185
 30
0.0
 11
97.317309
 21
97.625185
 31
0.0
  0
LINE
  5
314
100
AcDbEntity
  8
ALPHA
100
AcDbLine
 10
141.217309
 20
97.825185
 30
0.0
 11
140.717309
 21
97.825185
 31
0.0
  0
LINE
  5
315
100
AcDbEntity
  8
ALPHA
100
AcDbLine
 10
140.717309
 20
93.825185
 30
0.0
 11
141.217309
 21
93.825185
 31
0.0
  0
LINE
  5
316
100
AcDbEntity
  8
ALPHA
100
AcDbLine
 10
141.917309
 20
108.625185
 30
0.0
 11
141.917309
 21
111.425185
 31
0.0
  0
LINE
  5
317
100
AcDbEntity
  8
ALPHA
100
AcDbLine
 10
141.917309
 20
111.425185
 30
0.0
 11
138.64936
 21
111.425185
 31
0.0
  0
LINE
  5
318
100
AcDbEntity
  8
ALPHA
100
AcDbLine
 10
136.917309
 20
110.425185
 30
0.0
 11
136.917309
 21
109.113008
 31
0.0
  0
LINE
  5
319
100
AcDbEntity
  8
ALPHA
100
AcDbLine
 10
136.917309
 20
109.113008
 30
0.0
 11
139.170953
 21
107.221976
 31
0.0
  0
ARC
  5
31A
100
AcDbEntity
  8
ALPHA
100
AcDbCircle
 10
139.299511
 20
107.375185
 30
0.0
 40
0.2
100
AcDbArc
 50
230.0
 51
340.0
  0
LINE
  5
31B
100
AcDbEntity
  8
ALPHA
100
AcDbLine
 10
139.487449
 20
107.306781
 30
0.0
 11
139.967309
 21
108.625185
 31
0.0
  0
LINE
  5
31C
100
AcDbEntity
  8
ALPHA
100
AcDbLine
 10
136.917309
 20
110.425185
 30
0.0
 11
138.64936
 21
111.425185
 31
0.0
  0
LINE
  5
31D
100
AcDbEntity
  8
ALPHA
100
AcDbLine
 10
141.917309
 20
108.625185
 30
0.0
 11
139.967309
 21
108.625185
 31
0.0
  0
LINE
  5
31E
100
AcDbEntity
  8
ALPHA
100
AcDbLine
 10
143.017309
 20
111.425185
 30
0.0
 11
143.017309
 21
108.625185
 31
0.0
  0
LINE
  5
31F
100
AcDbEntity
  8
ALPHA
100
AcDbLine
 10
143.017309
 20
108.625185
 30
0.0
 11
143.017309
 21
108.125185
 31
0.0
  0
LINE
  5
320
100
AcDbEntity
  8
ALPHA
100
AcDbLine
 10
142.217309
 20
108.625185
 30
0.0
 11
142.217309
 21
108.125185
 31
0.0
  0
LINE
  5
321
100
AcDbEntity
  8
ALPHA
100
AcDbLine
 10
143.017309
 20
111.425185
 30
0.0
 11
143.017309
 21
108.625185
 31
0.0
  0
LINE
  5
322
100
AcDbEntity
  8
ALPHA
100
AcDbLine
 10
142.217309
 20
111.425185
 30
0.0
 11
141.917309
 21
111.425185
 31
0.0
  0
LINE
  5
323
100
AcDbEntity
  8
ALPHA
100
AcDbLine
 10
143.017309
 20
111.425185
 30
0.0
 11
142.217309
 21
111.425185
 31
0.0
  0
LINE
  5
324
100
AcDbEntity
  8
ALPHA
100
AcDbLine
 10
142.217309
 20
108.625185
 30
0.0
 11
141.917309
 21
108.625185
 31
0.0
  0
LINE
  5
325
100
AcDbEntity
  8
ALPHA
100
AcDbLine
 10
143.017309
 20
108.625185
 30
0.0
 11
142.217309
 21
108.625185
 31
0.0
  0
LINE
  5
326
100
AcDbEntity
  8
ALPHA
100
AcDbLine
 10
99.017309
 20
109.025185
 30
0.0
 11
99.017309
 21
112.425185
 31
0.0
  0
LINE
  5
327
100
AcDbEntity
  8
ALPHA
100
AcDbLine
 10
99.017309
 20
112.425185
 30
0.0
 11
97.117309
 21
112.425185
 31
0.0
  0
LINE
  5
328
100
AcDbEntity
  8
ALPHA
100
AcDbLine
 10
100.317309
 20
112.425185
 30
0.0
 11
100.317309
 21
109.025185
 31
0.0
  0
LINE
  5
329
100
AcDbEntity
  8
ALPHA
100
AcDbLine
 10
100.317309
 20
112.425185
 30
0.0
 11
100.317309
 21
109.025185
 31
0.0
  0
LINE
  5
32A
100
AcDbEntity
  8
ALPHA
100
AcDbLine
 10
99.517309
 20
112.425185
 30
0.0
 11
99.017309
 21
112.425185
 31
0.0
  0
LINE
  5
32B
100
AcDbEntity
  8
ALPHA
100
AcDbLine
 10
100.317309
 20
112.425185
 30
0.0
 11
99.517309
 21
112.425185
 31
0.0
  0
LINE
  5
32C
100
AcDbEntity
  8
ALPHA
100
AcDbLine
 10
90.817954
 20
79.349791
 30
0.0
 11
90.74816
 21
78.953973
 31
0.0
  0
LINE
  5
32D
100
AcDbEntity
  8
ALPHA
100
AcDbLine
 10
91.095457
 20
80.923589
 30
0.0
 11
91.025663
 21
80.527771
 31
0.0
  0
LWPOLYLINE
  5
32E
100
AcDbEntity
  8
ALPHA
100
AcDbPolyline
 90
        8
 70
     0
 43
0.0
 10
90.443373
 20
80.104821
 10
90.476598
 20
80.218194
 10
90.5333
 20
80.320479
 10
90.61048
 20
80.407007
 10
90.703074
 20
80.472948
 10
90.806809
 20
80.516037
 10
90.915915
 20
80.534425
 10
91.025663
 20
80.527771
  0
LWPOLYLINE
  5
338
100
AcDbEntity
  8
ALPHA
100
AcDbPolyline
 90
        8
 70
     0
 43
0.0
 10
90.513166
 20
80.500639
 10
90.546391
 20
80.614012
 10
90.603094
 20
80.716297
 10
90.680274
 20
80.802824
 10
90.772868
 20
80.868766
 10
90.876602
 20
80.911855
 10
90.985709
 20
80.930243
 10
91.095457
 20
80.923589
  0
LINE
  5
342
100
AcDbEntity
  8
ALPHA
100
AcDbLine
 10
92.787569
 20
79.002495
 30
0.0
 11
90.817954
 21
79.349791
 31
0.0
  0
LINE
  5
343
100
AcDbEntity
  8
ALPHA
100
AcDbLine
 10
92.995279
 20
80.180475
 30
0.0
 11
91.025663
 21
80.527771
 31
0.0
  0
LINE
  5
344
100
AcDbEntity
  8
ALPHA
100
AcDbLine
 10
90.74816
 20
78.953973
 30
0.0
 11
92.442153
 21
78.655277
 31
0.0
  0
LWPOLYLINE
  5
345
100
AcDbEntity
  8
ALPHA
100
AcDbPolyline
 90
        8
 70
     0
 43
0.0
 10
90.345643
 20
79.550571
 10
90.338089
 20
79.432672
 10
90.356389
 20
79.317162
 10
90.39932
 20
79.209456
 10
90.463776
 20
79.115822
 10
90.546517
 20
79.039852
 10
90.642755
 20
78.985257
 10
90.74816
 20
78.953973
  0
LWPOLYLINE
  5
34F
100
AcDbEntity
  8
ALPHA
100
AcDbPolyline
 90
        8
 70
     0
 43
0.0
 10
90.415437
 20
79.946389
 10
90.407883
 20
79.82849
 10
90.426182
 20
79.71298
 10
90.469113
 20
79.605273
 10
90.53357
 20
79.511639
 10
90.616311
 20
79.43567
 10
90.712548
 20
79.381074
 10
90.817954
 20
79.349791
  0
LINE
  5
359
100
AcDbEntity
  8
ALPHA
100
AcDbLine
 10
91.551246
 20
80.843221
 30
0.0
 11
92.794855
 21
80.623939
 31
0.0
  0
LINE
  5
35A
100
AcDbEntity
  8
ALPHA
100
AcDbLine
 10
91.095457
 20
80.923589
 30
0.0
 11
91.551246
 21
80.843221
 31
0.0
  0
LINE
  5
35B
100
AcDbEntity
  8
ALPHA
100
AcDbLine
 10
90.415437
 20
79.946389
 30
0.0
 11
90.345643
 21
79.550571
 31
0.0
  0
LINE
  5
35C
100
AcDbEntity
  8
ALPHA
100
AcDbLine
 10
90.513166
 20
80.500639
 30
0.0
 11
90.443373
 21
80.104821
 31
0.0
  0
LINE
  5
35D
100
AcDbEntity
  8
ALPHA
100
AcDbLine
 10
90.345643
 20
79.550571
 30
0.0
 11
90.415437
 21
79.946389
 31
0.0
  0
LINE
  5
35E
100
AcDbEntity
  8
ALPHA
100
AcDbLine
 10
91.641351
 20
75.953285
 30
0.0
 11
89.769542
 21
76.283336
 31
0.0
  0
LINE
  5
35F
100
AcDbEntity
  8
ALPHA
100
AcDbLine
 10
91.651811
 20
75.951441
 30
0.0
 11
91.641351
 21
75.953285
 31
0.0
  0
LINE
  5
360
100
AcDbEntity
  8
ALPHA
100
AcDbLine
 10
90.443373
 20
80.104821
 30
0.0
 11
90.513166
 21
80.500639
 31
0.0
  0
LINE
  5
361
100
AcDbEntity
  8
ALPHA
100
AcDbLine
 10
90.23263
 20
78.909643
 30
0.0
 11
90.345643
 21
79.550571
 31
0.0
  0
LINE
  5
362
100
AcDbEntity
  8
ALPHA
100
AcDbLine
 10
89.769542
 20
76.283336
 30
0.0
 11
89.782754
 21
76.358268
 31
0.0
  0
LINE
  5
363
100
AcDbEntity
  8
ALPHA
100
AcDbLine
 10
90.415437
 20
79.946389
 30
0.0
 11
90.443373
 21
80.104821
 31
0.0
  0
LINE
  5
364
100
AcDbEntity
  8
ALPHA
100
AcDbLine
 10
90.602515
 20
81.007364
 30
0.0
 11
90.513166
 21
80.500639
 31
0.0
  0
LINE
  5
365
100
AcDbEntity
  8
ALPHA
100
AcDbLine
 10
92.996431
 20
80.187008
 30
0.0
 11
92.995279
 21
80.180475
 31
0.0
  0
LINE
  5
366
100
AcDbEntity
  8
ALPHA
100
AcDbLine
 10
92.787569
 20
79.002495
 30
0.0
 11
92.995279
 21
80.180475
 31
0.0
  0
LINE
  5
367
100
AcDbEntity
  8
ALPHA
100
AcDbLine
 10
92.787569
 20
79.002495
 30
0.0
 11
92.784129
 21
78.982983
 31
0.0
  0
ENDSEC
  0
SECTION
  2
OBJECTS
  0
DICTIONARY
  5
4F1
100
AcDbDictionary
  3
ACAD_GROUP
350
4F2
  3
ACAD_MLINESTYLE
350
4FF
  3
ACDBVARIABLEDICTIONARY
350
50D
  0
DICTIONARY
  5
4F2
102
{ACAD_REACTORS
330
4F1
102
}
100
AcDbDictionary
  0
DICTIONARY
  5
4FF
102
{ACAD_REACTORS
330
4F1
102
}
100
AcDbDictionary
  3
STANDARD
350
500
  0
DICTIONARY
  5
50D
102
{ACAD_REACTORS
330
4F1
102
}
100
AcDbDictionary
  3
DIMADEC
350
50E
  0
MLINESTYLE
  5
500
102
{ACAD_REACTORS
330
4FF
102
}
100
AcDbMlineStyle
  2
STANDARD
 70
     0
  3

 62
   256
 51
90.0
 52
90.0
 71
     2
 49
0.5
 62
   256
  6
BYLAYER
 49
-0.5
 62
   256
  6
BYLAYER
  0
DICTIONARYVAR
  5
50E
102
{ACAD_REACTORS
330
50D
102
}
100
DictionaryVariables
280
     0
  1
0
  0
ENDSEC
  0
EOF
