  0
SECTION
  2
HEADER
  9
$ACADVER
  1
AC1009
  9
$INSBASE
 10
402.590624
 20
-1.041018
 30
0.0
  9
$EXTMIN
 10
-4.792385
 20
0.724096
 30
0.0
  9
$EXTMAX
 10
60.491102
 20
95.524096
 30
0.0
  9
$LIMMIN
 10
-407.970438
 20
-367.832444
  9
$LIMMAX
 10
429.804077
 20
234.370848
  9
$ORTHOMODE
 70
     1
  9
$REGENMODE
 70
     1
  9
$FILLMODE
 70
     1
  9
$QTEXTMODE
 70
     0
  9
$MIRRTEXT
 70
     1
  9
$DRAGMODE
 70
     2
  9
$LTSCALE
 40
10.0
  9
$OSMODE
 70
    35
  9
$ATTMODE
 70
     1
  9
$TEXTSIZE
 40
6.0
  9
$TRACEWID
 40
1.0
  9
$TEXTSTYLE
  7
ROMANS
  9
$CLAYER
  8
COTATION1
  9
$CELTYPE
  6
BYLAYER
  9
$CECOLOR
 62
   256
  9
$DIMSCALE
 40
1.0
  9
$DIMASZ
 40
5.0
  9
$DIMEXO
 40
2.0
  9
$DIMDLI
 40
0.38
  9
$DIMRND
 40
0.0
  9
$DIMDLE
 40
0.0
  9
$DIMEXE
 40
2.5
  9
$DIMTP
 40
0.0
  9
$DIMTM
 40
0.0
  9
$DIMTXT
 40
2.5
  9
$DIMCEN
 40
0.0
  9
$DIMTSZ
 40
0.0
  9
$DIMTOL
 70
     0
  9
$DIMLIM
 70
     0
  9
$DIMTIH
 70
     1
  9
$DIMTOH
 70
     1
  9
$DIMSE1
 70
     0
  9
$DIMSE2
 70
     0
  9
$DIMTAD
 70
     1
  9
$DIMZIN
 70
    12
  9
$DIMBLK
  1
OPEN30
  9
$DIMASO
 70
     1
  9
$DIMSHO
 70
     1
  9
$DIMPOST
  1

  9
$DIMAPOST
  1

  9
$DIMALT
 70
     0
  9
$DIMALTD
 70
     2
  9
$DIMALTF
 40
25.4
  9
$DIMLFAC
 40
1.0
  9
$DIMTOFL
 70
     0
  9
$DIMTVP
 40
0.0
  9
$DIMTIX
 70
     0
  9
$DIMSOXD
 70
     0
  9
$DIMSAH
 70
     0
  9
$DIMBLK1
  1

  9
$DIMBLK2
  1

  9
$DIMSTYLE
  2
SC_DEFAUT
  9
$DIMCLRD
 70
     0
  9
$DIMCLRE
 70
     0
  9
$DIMCLRT
 70
     0
  9
$DIMTFAC
 40
1.0
  9
$DIMGAP
 40
2.0
  9
$LUNITS
 70
     2
  9
$LUPREC
 70
     1
  9
$SKETCHINC
 40
0.1
  9
$FILLETRAD
 40
0.0
  9
$AUNITS
 70
     0
  9
$AUPREC
 70
     0
  9
$MENU
  1
acad
  9
$ELEVATION
 40
0.0
  9
$PELEVATION
 40
0.0
  9
$THICKNESS
 40
0.0
  9
$LIMCHECK
 70
     0
  9
$BLIPMODE
 70
     0
  9
$CHAMFERA
 40
0.0
  9
$CHAMFERB
 40
0.0
  9
$SKPOLY
 70
     0
  9
$TDCREATE
 40
2450373.687919
  9
$TDUPDATE
 40
2453038.423227
  9
$TDINDWG
 40
1.10734
  9
$TDUSRTIMER
 40
1.10734
  9
$USRTIMER
 70
     1
  9
$ANGBASE
 50
0.0
  9
$ANGDIR
 70
     0
  9
$PDMODE
 70
    32
  9
$PDSIZE
 40
0.0
  9
$PLINEWID
 40
0.0
  9
$COORDS
 70
     1
  9
$SPLFRAME
 70
     0
  9
$SPLINETYPE
 70
     6
  9
$SPLINESEGS
 70
     8
  9
$ATTDIA
 70
     0
  9
$ATTREQ
 70
     1
  9
$HANDLING
 70
     1
  9
$HANDSEED
  5
B857
  9
$SURFTAB1
 70
     6
  9
$SURFTAB2
 70
     6
  9
$SURFTYPE
 70
     6
  9
$SURFU
 70
     6
  9
$SURFV
 70
     6
  9
$UCSNAME
  2

  9
$UCSORG
 10
0.0
 20
0.0
 30
0.0
  9
$UCSXDIR
 10
1.0
 20
0.0
 30
0.0
  9
$UCSYDIR
 10
0.0
 20
1.0
 30
0.0
  9
$PUCSNAME
  2

  9
$PUCSORG
 10
0.0
 20
0.0
 30
0.0
  9
$PUCSXDIR
 10
1.0
 20
0.0
 30
0.0
  9
$PUCSYDIR
 10
0.0
 20
1.0
 30
0.0
  9
$USERI1
 70
     0
  9
$USERI2
 70
     0
  9
$USERI3
 70
     0
  9
$USERI4
 70
     0
  9
$USERI5
 70
     0
  9
$USERR1
 40
0.0
  9
$USERR2
 40
0.0
  9
$USERR3
 40
0.0
  9
$USERR4
 40
0.0
  9
$USERR5
 40
0.0
  9
$WORLDVIEW
 70
     1
  9
$SHADEDGE
 70
     3
  9
$SHADEDIF
 70
    70
  9
$TILEMODE
 70
     1
  9
$MAXACTVP
 70
    16
  9
$PLIMCHECK
 70
     0
  9
$PEXTMIN
 10
-1.452248
 20
-0.437698
 30
0.0
  9
$PEXTMAX
 10
12.749749
 20
8.310198
 30
0.0
  9
$PLIMMIN
 10
0.0
 20
0.0
  9
$PLIMMAX
 10
12.0
 20
9.0
  9
$UNITMODE
 70
     0
  9
$VISRETAIN
 70
     0
  9
$PLINEGEN
 70
     0
  9
$PSLTSCALE
 70
     0
  0
ENDSEC
  0
SECTION
  2
TABLES
  0
TABLE
  2
VPORT
 70
     2
  0
VPORT
  2
*ACTIVE
 70
     0
 10
0.0
 20
0.0
 11
1.0
 21
1.0
 12
27.854859
 22
48.130366
 13
0.0
 23
0.0
 14
1.0
 24
1.0
 15
10.0
 25
10.0
 16
0.0
 26
0.0
 36
1.0
 17
0.0
 27
0.0
 37
0.0
 40
95.51242
 41
1.466346
 42
50.0
 43
0.0
 44
0.0
 50
0.0
 51
0.0
 71
     0
 72
   100
 73
     1
 74
     0
 75
     0
 76
     0
 77
     0
 78
     0
  0
ENDTAB
  0
TABLE
  2
LTYPE
 70
     2
  0
LTYPE
  2
CONTINUOUS
 70
     0
  3
Solid line
 72
    65
 73
     0
 40
0.0
  0
LTYPE
  2
AXES2
 70
     0
  3
___ _ ___ _ ___ _ ___ _ ___ _ ___ _ ___ _ ___ _
 72
    65
 73
     4
 40
1.125
 49
0.75
 49
-0.125
 49
0.125
 49
-0.125
  0
ENDTAB
  0
TABLE
  2
LAYER
 70
     5
  0
LAYER
  2
0
 70
     0
 62
   255
  6
CONTINUOUS
  0
LAYER
  2
COTATION1
 70
     0
 62
     2
  6
CONTINUOUS
  0
LAYER
  2
AXE
 70
     0
 62
    80
  6
AXES2
  0
LAYER
  2
DEFPOINTS
 70
     0
 62
     7
  6
CONTINUOUS
  0
LAYER
  2
ALPHA
 70
     0
 62
   254
  6
CONTINUOUS
  0
ENDTAB
  0
TABLE
  2
STYLE
 70
     2
  0
STYLE
  2
ROMANS
 70
     0
 40
0.0
 41
1.0
 50
0.0
 71
     0
 42
6.0
  3
romans
  4

  0
STYLE
  2
STANDARD
 70
     0
 40
0.0
 41
1.0
 50
0.0
 71
     0
 42
0.2
  3
txt
  4

  0
ENDTAB
  0
TABLE
  2
VIEW
 70
     0
  0
ENDTAB
  0
TABLE
  2
UCS
 70
     0
  0
ENDTAB
  0
TABLE
  2
APPID
 70
     1
  0
APPID
  2
ACAD
 70
     0
  0
ENDTAB
  0
TABLE
  2
DIMSTYLE
 70
     2
  0
DIMSTYLE
  2
SC_DEFAUT
 70
     0
  3

  4

  5
OPEN30
  6

  7

 40
1.0
 41
5.0
 42
2.0
 43
0.38
 44
2.5
 45
0.0
 46
0.0
 47
0.0
 48
0.0
140
2.5
141
0.0
142
0.0
143
25.4
144
1.0
145
0.0
146
1.0
147
2.0
 71
     0
 72
     0
 73
     1
 74
     1
 75
     0
 76
     0
 77
     1
 78
    12
170
     0
171
     2
172
     0
173
     0
174
     0
175
     0
176
     0
177
     0
178
     0
  0
DIMSTYLE
  2
STANDARD
 70
     0
  3

  4

  5

  6

  7

 40
1.0
 41
0.18
 42
0.0625
 43
0.38
 44
0.18
 45
0.0
 46
0.0
 47
0.0
 48
0.0
140
0.18
141
0.09
142
0.0
143
25.4
144
1.0
145
0.0
146
1.0
147
0.09
 71
     0
 72
     0
 73
     1
 74
     1
 75
     0
 76
     0
 77
     0
 78
     0
170
     0
171
     2
172
     0
173
     0
174
     0
175
     0
176
     0
177
     0
178
     0
  0
ENDTAB
  0
ENDSEC
  0
SECTION
  2
BLOCKS
  0
BLOCK
  8
0
  2
$MODEL_SPACE
 70
     0
 10
0.0
 20
0.0
 30
0.0
  3
$MODEL_SPACE
  1

  0
ENDBLK
  5
B612
  8
0
  0
BLOCK
 67
     1
  8
0
  2
$PAPER_SPACE
 70
     0
 10
0.0
 20
0.0
 30
0.0
  3
$PAPER_SPACE
  1

  0
ENDBLK
  5
B610
 67
     1
  8
0
  0
BLOCK
  8
0
  2
COTE
 70
     0
 10
0.0
 20
0.0
 30
0.0
  3
COTE
  1

  0
ENDBLK
  5
F
  8
0
  0
BLOCK
  8
0
  2
FOND
 70
     0
 10
0.0
 20
0.0
 30
0.0
  3
FOND
  1

  0
ENDBLK
  5
75
  8
0
  0
BLOCK
  8
0
  2
_OPEN30
 70
     0
 10
0.0
 20
0.0
 30
0.0
  3
_OPEN30
  1

  0
LINE
  5
4B05
  8
COTATION1
 62
     0
 10
-1.0
 20
0.267949
 30
0.0
 11
0.0
 21
0.0
 31
0.0
1001
ACAD
1000
RTLwPs
1070
   158
  0
LINE
  5
4B06
  8
COTATION1
 62
     0
 10
0.0
 20
0.0
 30
0.0
 11
-1.0
 21
-0.267949
 31
0.0
1001
ACAD
1000
RTLwPs
1070
   158
  0
LINE
  5
4B07
  8
COTATION1
 62
     0
 10
0.0
 20
0.0
 30
0.0
 11
-1.0
 21
0.0
 31
0.0
1001
ACAD
1000
RTLwPs
1070
   158
  0
ENDBLK
  5
4B09
  8
0
  0
BLOCK
  8
0
  2
*D3
 70
     1
 10
0.0
 20
0.0
 30
0.0
  3
*D3
  1

  0
LINE
  5
B360
  8
COTATION1
 62
     0
 10
18.845699
 20
68.051154
 30
0.0
 11
18.845699
 21
93.524096
 31
0.0
1001
ACAD
1000
RTLwPs
1070
   158
  0
LINE
  5
B361
  8
COTATION1
 62
     0
 10
50.491102
 20
77.819043
 30
0.0
 11
50.491102
 21
93.524096
 31
0.0
1001
ACAD
1000
RTLwPs
1070
   158
  0
LINE
  5
B362
  8
COTATION1
 62
     0
 10
23.845699
 20
91.024096
 30
0.0
 11
45.491102
 21
91.024096
 31
0.0
1001
ACAD
1000
RTLwPs
1070
   158
  0
INSERT
  5
B363
  8
COTATION1
 62
     0
  2
_OPEN30
 10
18.845699
 20
91.024096
 30
0.0
 41
5.0
 42
5.0
 43
5.0
 50
180.0
1001
ACAD
1000
RTLwPs
1070
   158
  0
INSERT
  5
B364
  8
COTATION1
 62
     0
  2
_OPEN30
 10
50.491102
 20
91.024096
 30
0.0
 41
5.0
 42
5.0
 43
5.0
1001
ACAD
1000
RTLwPs
1070
   158
  0
TEXT
  5
B365
  8
COTATION1
 62
     0
 10
30.501734
 20
93.024096
 30
0.0
 40
2.5
  1
31.6
1001
ACAD
1000
MTEXTBEGIN
1070
    73
1070
     1
1070
    44
1040
1.0
1070
    74
1070
     0
1000
MTEXTEND
  0
POINT
  5
B366
  8
DEFPOINTS
 62
     0
 10
18.845699
 20
66.051154
 30
0.0
  0
POINT
  5
B367
  8
DEFPOINTS
 62
     0
 10
50.491102
 20
75.819043
 30
0.0
  0
POINT
  5
B368
  8
DEFPOINTS
 62
     0
 10
50.491102
 20
91.024096
 30
0.0
  0
ENDBLK
  5
B05F
  8
0
  0
ENDSEC
  0
SECTION
  2
ENTITIES
  0
INSERT
  5
A
  8
0
  2
COTE
 10
0.0
 20
0.0
 30
0.0
  0
INSERT
  5
17
  8
0
  2
COTE
 10
284.010391
 20
6.373258
 30
0.0
  0
INSERT
  5
72
  8
0
  2
FOND
 10
0.0
 20
0.0
 30
0.0
  0
TEXT
  5
B031
  8
AXE
 10
32.943483
 20
0.724096
 30
0.0
 40
5.0
  1
Y
 72
     2
 11
36.991102
 21
0.724096
 31
0.0
  0
LINE
  5
B032
  8
AXE
 10
37.991102
 20
0.724096
 30
0.0
 11
37.991102
 21
81.024096
 31
0.0
  0
LINE
  5
B034
  8
AXE
 10
14.591102
 20
43.374096
 30
0.0
 11
60.491102
 21
43.374096
 31
0.0
  0
TEXT
  5
B035
  8
AXE
 10
56.443483
 20
44.374096
 30
0.0
 40
5.0
  1
Z
 72
     2
 11
60.491102
 21
44.374096
 31
0.0
  0
DIMENSION
  5
B053
  8
COTATION1
  2
*D3
 10
50.491102
 20
91.024096
 30
0.0
 11
34.6684
 21
94.274096
 31
0.0
 13
18.845699
 23
66.051154
 33
0.0
 14
50.491102
 24
75.819043
 34
0.0
  0
POLYLINE
  5
B1E1
  8
ALPHA
 66
     1
 10
0.0
 20
0.0
 30
0.0
  0
VERTEX
  5
B618
  8
ALPHA
 10
32.194441
 20
75.73609
 30
0.0
  0
VERTEX
  5
B619
  8
ALPHA
 10
33.304403
 20
75.625006
 30
0.0
  0
VERTEX
  5
B61A
  8
ALPHA
 10
34.556514
 20
75.527542
 30
0.0
  0
VERTEX
  5
B61B
  8
ALPHA
 10
35.893726
 20
75.456411
 30
0.0
  0
VERTEX
  5
B61C
  8
ALPHA
 10
37.28913
 20
75.418771
 30
0.0
  0
VERTEX
  5
B61D
  8
ALPHA
 10
38.693079
 20
75.418771
 30
0.0
  0
VERTEX
  5
B61E
  8
ALPHA
 10
40.088471
 20
75.456411
 30
0.0
  0
VERTEX
  5
B61F
  8
ALPHA
 10
41.425674
 20
75.527541
 30
0.0
  0
VERTEX
  5
B620
  8
ALPHA
 10
42.677794
 20
75.625005
 30
0.0
  0
SEQEND
  5
B621
  8
ALPHA
  0
LINE
  5
B1E2
  8
ALPHA
 10
25.991102
 20
76.024096
 30
0.0
 11
50.191102
 21
76.024096
 31
0.0
  0
LINE
  5
B1E3
  8
ALPHA
 10
50.491102
 20
74.217988
 30
0.0
 11
25.991102
 21
74.25028
 31
0.0
  0
LINE
  5
B1E4
  8
ALPHA
 10
50.491102
 20
73.247559
 30
0.0
 11
25.988484
 21
73.279326
 31
0.0
  0
LINE
  5
B1E5
  8
0
  6
CONTINUOUS
 62
     2
 10
42.269562
 20
18.874096
 30
0.0
 11
0.207615
 21
18.874096
 31
0.0
  0
LINE
  5
B1E6
  8
ALPHA
 10
50.191102
 20
17.324096
 30
0.0
 11
38.1237
 21
17.324096
 31
0.0
  0
LINE
  5
B1E7
  8
ALPHA
 10
37.983808
 20
17.024096
 30
0.0
 11
50.191102
 21
17.024096
 31
0.0
  0
LINE
  5
B1E8
  8
ALPHA
 10
38.241102
 20
16.074096
 30
0.0
 11
39.150853
 21
16.074096
 31
0.0
  0
LINE
  5
B1E9
  8
ALPHA
 10
33.841102
 20
10.924096
 30
0.0
 11
39.723327
 21
10.924096
 31
0.0
  0
ARC
  5
B1EB
  8
ALPHA
 10
-164.981324
 20
7.57426
 30
0.0
 40
200.0
 50
2.157985
 51
15.290022
  0
ARC
  5
B1EC
  8
ALPHA
 10
-164.881324
 20
7.47426
 30
0.0
 40
197.0
 50
2.31277
 51
16.335302
  0
ARC
  5
B1ED
  8
ALPHA
 10
-164.881324
 20
7.47426
 30
0.0
 40
199.8
 50
2.352092
 51
15.343501
  0
LINE
  5
B1EE
  8
ALPHA
 10
21.941879
 20
59.302216
 30
0.0
 11
21.941879
 21
15.306498
 31
0.0
  0
LINE
  5
B1EF
  8
ALPHA
 10
20.984005
 20
59.302216
 30
0.0
 11
20.984005
 21
15.306498
 31
0.0
  0
LINE
  5
B1F0
  8
ALPHA
 10
20.091102
 20
61.097524
 30
0.0
 11
20.091102
 21
15.881791
 31
0.0
  0
LINE
  5
B1F1
  8
0
  6
CONTINUOUS
 62
     2
 10
0.207615
 20
21.374096
 30
0.0
 11
0.207615
 21
26.374096
 31
0.0
  0
SOLID
  5
B1F2
  8
0
  6
CONTINUOUS
 62
     2
 10
1.65099
 20
18.874096
 30
0.0
 11
-1.235761
 21
18.874096
 31
0.0
 12
0.207615
 22
21.374096
 32
0.0
 13
0.207615
 23
21.374096
 33
0.0
  0
ARC
  5
B1F3
  8
ALPHA
 10
33.841102
 20
34.424096
 30
0.0
 40
23.5
 50
235.481871
 51
270.0
  0
POLYLINE
  5
B1F4
  8
ALPHA
 66
     1
 10
0.0
 20
0.0
 30
0.0
  0
VERTEX
  5
B622
  8
ALPHA
 10
33.841102
 20
10.924096
 30
0.0
  0
VERTEX
  5
B623
  8
ALPHA
 10
32.915211
 20
11.011061
 30
0.0
  0
VERTEX
  5
B624
  8
ALPHA
 10
31.995926
 20
11.134746
 30
0.0
  0
VERTEX
  5
B625
  8
ALPHA
 10
31.083288
 20
11.294902
 30
0.0
  0
VERTEX
  5
B626
  8
ALPHA
 10
30.177436
 20
11.491417
 30
0.0
  0
VERTEX
  5
B627
  8
ALPHA
 10
29.281067
 20
11.723705
 30
0.0
  0
VERTEX
  5
B628
  8
ALPHA
 10
28.39802
 20
11.990639
 30
0.0
  0
VERTEX
  5
B629
  8
ALPHA
 10
27.528928
 20
12.291793
 30
0.0
  0
VERTEX
  5
B62A
  8
ALPHA
 10
26.675007
 20
12.626555
 30
0.0
  0
VERTEX
  5
B62B
  8
ALPHA
 10
25.837692
 20
12.994164
 30
0.0
  0
VERTEX
  5
B62C
  8
ALPHA
 10
25.018249
 20
13.393859
 30
0.0
  0
VERTEX
  5
B62D
  8
ALPHA
 10
24.217869
 20
13.824867
 30
0.0
  0
VERTEX
  5
B62E
  8
ALPHA
 10
23.43808
 20
14.286077
 30
0.0
  0
VERTEX
  5
B62F
  8
ALPHA
 10
22.679747
 20
14.776538
 30
0.0
  0
VERTEX
  5
B630
  8
ALPHA
 10
21.943435
 20
15.295442
 30
0.0
  0
SEQEND
  5
B631
  8
ALPHA
  0
ARC
  5
B1F5
  8
ALPHA
 10
21.091102
 20
15.885284
 30
0.0
 40
1.0
 50
180.000002
 51
235.481895
  0
POLYLINE
  5
B1F6
  8
ALPHA
 66
     1
 10
0.0
 20
0.0
 30
0.0
  0
VERTEX
  5
B632
  8
ALPHA
 10
21.943435
 20
15.295442
 30
0.0
  0
VERTEX
  5
B633
  8
ALPHA
 10
21.427906
 20
15.147855
 30
0.0
  0
VERTEX
  5
B634
  8
ALPHA
 10
21.225969
 20
15.090235
 30
0.0
  0
VERTEX
  5
B635
  8
ALPHA
 10
21.085929
 20
15.050442
 30
0.0
  0
VERTEX
  5
B636
  8
ALPHA
 10
21.019951
 20
15.031931
 30
0.0
  0
SEQEND
  5
B637
  8
ALPHA
  0
POLYLINE
  5
B1F7
  8
ALPHA
 66
     1
 10
0.0
 20
0.0
 30
0.0
  0
VERTEX
  5
B638
  8
ALPHA
 10
21.943435
 20
15.295442
 30
0.0
  0
VERTEX
  5
B639
  8
ALPHA
 10
21.799413
 20
15.08935
 30
0.0
  0
VERTEX
  5
B63A
  8
ALPHA
 10
21.66978
 20
14.893376
 30
0.0
  0
VERTEX
  5
B63B
  8
ALPHA
 10
21.563476
 20
14.721826
 30
0.0
  0
VERTEX
  5
B63C
  8
ALPHA
 10
21.487997
 20
14.586563
 30
0.0
  0
VERTEX
  5
B63D
  8
ALPHA
 10
21.448821
 20
14.496253
 30
0.0
  0
VERTEX
  5
B63E
  8
ALPHA
 10
21.44877
 20
14.45712
 30
0.0
  0
SEQEND
  5
B63F
  8
ALPHA
  0
POLYLINE
  5
B1F8
  8
ALPHA
 66
     1
 10
0.0
 20
0.0
 30
0.0
  0
VERTEX
  5
B640
  8
ALPHA
 10
20.984031
 20
15.306498
 30
0.0
  0
VERTEX
  5
B641
  8
ALPHA
 10
20.992426
 20
15.167818
 30
0.0
  0
VERTEX
  5
B642
  8
ALPHA
 10
21.019949
 20
15.03193
 30
0.0
  0
SEQEND
  5
B643
  8
ALPHA
  0
POLYLINE
  5
B1F9
  8
ALPHA
 66
     1
 10
0.0
 20
0.0
 30
0.0
  0
VERTEX
  5
B644
  8
ALPHA
 10
21.941879
 20
15.306498
 30
0.0
  0
VERTEX
  5
B645
  8
ALPHA
 10
21.942266
 20
15.300947
 30
0.0
  0
VERTEX
  5
B646
  8
ALPHA
 10
21.943435
 20
15.295442
 30
0.0
  0
SEQEND
  5
B647
  8
ALPHA
  0
POLYLINE
  5
B1FA
  8
ALPHA
 66
     1
 10
0.0
 20
0.0
 30
0.0
  0
VERTEX
  5
B648
  8
ALPHA
 10
21.019951
 20
15.031931
 30
0.0
  0
VERTEX
  5
B649
  8
ALPHA
 10
21.056851
 20
14.923177
 30
0.0
  0
VERTEX
  5
B64A
  8
ALPHA
 10
21.109318
 20
14.813521
 30
0.0
  0
VERTEX
  5
B64B
  8
ALPHA
 10
21.176914
 20
14.708324
 30
0.0
  0
VERTEX
  5
B64C
  8
ALPHA
 10
21.257839
 20
14.612043
 30
0.0
  0
VERTEX
  5
B64D
  8
ALPHA
 10
21.349288
 20
14.527839
 30
0.0
  0
VERTEX
  5
B64E
  8
ALPHA
 10
21.44877
 20
14.45712
 30
0.0
  0
SEQEND
  5
B64F
  8
ALPHA
  0
LINE
  5
B1FB
  8
ALPHA
 10
21.941879
 20
15.306498
 30
0.0
 11
20.984005
 21
15.306498
 31
0.0
  0
LINE
  5
B1FC
  8
ALPHA
 10
20.091102
 20
15.885284
 30
0.0
 11
20.137318
 21
15.853849
 31
0.0
  0
POLYLINE
  5
B1FD
  8
ALPHA
 66
     1
 10
0.0
 20
0.0
 30
0.0
  0
VERTEX
  5
B650
  8
ALPHA
 10
20.137318
 20
15.853849
 30
0.0
  0
VERTEX
  5
B651
  8
ALPHA
 10
20.219905
 20
15.798085
 30
0.0
  0
VERTEX
  5
B652
  8
ALPHA
 10
20.344693
 20
15.714823
 30
0.0
  0
VERTEX
  5
B653
  8
ALPHA
 10
20.51271
 20
15.604584
 30
0.0
  0
VERTEX
  5
B654
  8
ALPHA
 10
20.72529
 20
15.468124
 30
0.0
  0
VERTEX
  5
B655
  8
ALPHA
 10
20.984005
 20
15.306498
 30
0.0
  0
SEQEND
  5
B656
  8
ALPHA
  0
LINE
  5
B1FE
  8
ALPHA
 10
32.379031
 20
10.974096
 30
0.0
 11
25.369227
 21
10.974096
 31
0.0
  0
LINE
  5
B1FF
  8
ALPHA
 10
29.754213
 20
11.286793
 30
0.0
 11
24.905635
 21
11.286793
 31
0.0
  0
ARC
  5
B200
  8
ALPHA
 10
25.369227
 20
11.474096
 30
0.0
 40
0.5
 50
202.0
 51
270.0
  0
LINE
  5
B201
  8
ALPHA
 10
24.905635
 20
11.286793
 30
0.0
 11
24.217667
 21
12.989574
 31
0.0
  0
LINE
  5
B203
  8
ALPHA
 10
34.750343
 20
15.674096
 30
0.0
 11
31.946928
 21
15.698561
 31
0.0
  0
LINE
  5
B204
  8
ALPHA
 10
34.760455
 20
15.424096
 30
0.0
 11
31.958204
 21
15.424096
 31
0.0
  0
LINE
  5
B205
  8
ALPHA
 10
31.892378
 20
16.54413
 30
0.0
 11
31.881189
 21
16.544227
 31
0.0
  0
LINE
  5
B206
  8
ALPHA
 10
31.879135
 20
16.574096
 30
0.0
 11
31.890445
 21
16.574096
 31
0.0
  0
LINE
  5
B207
  8
ALPHA
 10
38.1237
 20
17.324096
 30
0.0
 11
37.678487
 21
16.369332
 31
0.0
  0
LINE
  5
B208
  8
ALPHA
 10
37.337617
 20
14.624096
 30
0.0
 11
35.376481
 21
14.624096
 31
0.0
  0
LINE
  5
B209
  8
ALPHA
 10
35.285612
 20
14.274096
 30
0.0
 11
37.453931
 21
14.274096
 31
0.0
  0
ARC
  5
B20A
  8
ALPHA
 10
35.376481
 20
15.124096
 30
0.0
 40
0.5
 50
182.157985
 51
270.0
  0
ARC
  5
B20B
  8
ALPHA
 10
35.285612
 20
14.774096
 30
0.0
 40
0.5
 50
182.088579
 51
270.0
  0
ARC
  5
B20C
  8
ALPHA
 10
-164.881324
 20
7.47426
 30
0.0
 40
199.8
 50
2.088579
 51
2.280342
  0
LINE
  5
B20D
  8
ALPHA
 10
35.741102
 20
14.624096
 30
0.0
 11
35.815497
 21
14.274096
 31
0.0
  0
ARC
  5
B20E
  8
ALPHA
 10
37.337617
 20
14.824096
 30
0.0
 40
0.2
 50
270.0
 51
11.802892
  0
ARC
  5
B20F
  8
ALPHA
 10
39.491102
 20
15.274096
 30
0.0
 40
2.0
 50
180.0
 51
191.802892
  0
ARC
  5
B210
  8
ALPHA
 10
39.491102
 20
15.524096
 30
0.0
 40
2.0
 50
155.0
 51
180.0
  0
ARC
  5
B211
  8
ALPHA
 10
37.453931
 20
14.574096
 30
0.0
 40
0.3
 50
270.0
 51
21.688806
  0
ARC
  5
B212
  8
ALPHA
 10
38.241102
 20
15.424096
 30
0.0
 40
0.65
 50
90.0
 51
180.0
  0
ARC
  5
B213
  8
ALPHA
 10
39.591102
 20
15.424096
 30
0.0
 40
2.0
 50
180.0
 51
201.688806
  0
LINE
  5
B214
  8
ALPHA
 10
37.491102
 20
15.524096
 30
0.0
 11
37.491102
 21
15.274096
 31
0.0
  0
LINE
  5
B215
  8
ALPHA
 10
34.787741
 20
16.574096
 30
0.0
 11
34.693206
 21
16.574096
 31
0.0
  0
LINE
  5
B216
  8
0
  6
CONTINUOUS
 62
     2
 10
25.991102
 20
76.024096
 30
0.0
 11
0.207615
 21
76.024096
 31
0.0
  0
LINE
  5
B217
  8
0
  6
CONTINUOUS
 62
     2
 10
-4.792385
 20
31.374096
 30
0.0
 11
5.207615
 21
31.374096
 31
0.0
  0
LINE
  5
B218
  8
0
  6
CONTINUOUS
 62
     2
 10
5.207615
 20
26.374096
 30
0.0
 11
-4.792385
 21
26.374096
 31
0.0
  0
TEXT
  5
B219
  8
0
  6
CONTINUOUS
 62
     2
 10
-3.542385
 20
27.624096
 30
0.0
 40
2.5
  1
ENTRY
 41
0.642857
  7
STANDARD
 72
     5
 11
3.957615
 21
27.624096
 31
0.0
  0
LINE
  5
B21A
  8
0
  6
CONTINUOUS
 62
     2
 10
-4.792385
 20
26.374096
 30
0.0
 11
-4.792385
 21
31.374096
 31
0.0
  0
LINE
  5
B21B
  8
0
  6
CONTINUOUS
 62
     2
 10
-4.042385
 20
88.524096
 30
0.0
 11
4.457615
 21
88.524096
 31
0.0
  0
LINE
  5
B21C
  8
0
  6
CONTINUOUS
 62
     2
 10
4.457615
 20
83.524096
 30
0.0
 11
-4.042385
 21
83.524096
 31
0.0
  0
TEXT
  5
B21D
  8
0
  6
CONTINUOUS
 62
     2
 10
-2.792385
 20
84.774096
 30
0.0
 40
2.5
  1
HEAD
 41
0.654545
  7
STANDARD
 72
     5
 11
3.207615
 21
84.774096
 31
0.0
  0
LINE
  5
B21E
  8
0
  6
CONTINUOUS
 62
     2
 10
-4.042385
 20
83.524096
 30
0.0
 11
-4.042385
 21
88.524096
 31
0.0
  0
LINE
  5
B21F
  8
0
  6
CONTINUOUS
 62
     2
 10
0.207615
 20
78.524096
 30
0.0
 11
0.207615
 21
83.524096
 31
0.0
  0
SOLID
  5
B220
  8
0
  6
CONTINUOUS
 62
     2
 10
1.65099
 20
76.024096
 30
0.0
 11
-1.235761
 21
76.024096
 31
0.0
 12
0.207615
 22
78.524096
 32
0.0
 13
0.207615
 23
78.524096
 33
0.0
  0
LINE
  5
B221
  8
0
  6
CONTINUOUS
 62
     2
 10
4.457615
 20
88.524096
 30
0.0
 11
4.457615
 21
83.524096
 31
0.0
  0
LINE
  5
B223
  8
ALPHA
 10
25.98859
 20
73.408754
 30
0.0
 11
25.988484
 21
60.318972
 31
0.0
  0
LINE
  5
B224
  8
ALPHA
 10
25.491102
 20
75.524096
 30
0.0
 11
25.491102
 21
60.496547
 31
0.0
  0
POLYLINE
  5
B225
  8
ALPHA
 66
     1
 10
0.0
 20
0.0
 30
0.0
  0
VERTEX
  5
B657
  8
ALPHA
 10
21.260057
 20
64.793286
 30
0.0
  0
VERTEX
  5
B658
  8
ALPHA
 10
21.277525
 20
64.986446
 30
0.0
  0
VERTEX
  5
B659
  8
ALPHA
 10
21.302954
 20
65.208917
 30
0.0
  0
VERTEX
  5
B65A
  8
ALPHA
 10
21.33883
 20
65.471866
 30
0.0
  0
VERTEX
  5
B65B
  8
ALPHA
 10
21.388808
 20
65.790754
 30
0.0
  0
VERTEX
  5
B65C
  8
ALPHA
 10
21.457467
 20
66.183722
 30
0.0
  0
VERTEX
  5
B65D
  8
ALPHA
 10
21.545894
 20
66.650358
 30
0.0
  0
VERTEX
  5
B65E
  8
ALPHA
 10
21.641948
 20
67.130519
 30
0.0
  0
VERTEX
  5
B65F
  8
ALPHA
 10
21.735996
 20
67.585331
 30
0.0
  0
VERTEX
  5
B660
  8
ALPHA
 10
21.826949
 20
68.016045
 30
0.0
  0
VERTEX
  5
B661
  8
ALPHA
 10
21.913986
 20
68.422062
 30
0.0
  0
VERTEX
  5
B662
  8
ALPHA
 10
21.996921
 20
68.804259
 30
0.0
  0
VERTEX
  5
B663
  8
ALPHA
 10
22.075333
 20
69.161698
 30
0.0
  0
VERTEX
  5
B664
  8
ALPHA
 10
22.149158
 20
69.494722
 30
0.0
  0
VERTEX
  5
B665
  8
ALPHA
 10
22.218645
 20
69.804819
 30
0.0
  0
VERTEX
  5
B666
  8
ALPHA
 10
22.284153
 20
70.093903
 30
0.0
  0
VERTEX
  5
B667
  8
ALPHA
 10
22.345866
 20
70.363133
 30
0.0
  0
VERTEX
  5
B668
  8
ALPHA
 10
22.403841
 20
70.613143
 30
0.0
  0
VERTEX
  5
B669
  8
ALPHA
 10
22.458313
 20
70.845347
 30
0.0
  0
VERTEX
  5
B66A
  8
ALPHA
 10
22.509089
 20
71.059566
 30
0.0
  0
VERTEX
  5
B66B
  8
ALPHA
 10
22.554959
 20
71.251295
 30
0.0
  0
VERTEX
  5
B66C
  8
ALPHA
 10
22.598172
 20
71.430288
 30
0.0
  0
VERTEX
  5
B66D
  8
ALPHA
 10
22.643236
 20
71.615103
 30
0.0
  0
VERTEX
  5
B66E
  8
ALPHA
 10
22.695393
 20
71.826296
 30
0.0
  0
VERTEX
  5
B66F
  8
ALPHA
 10
22.754958
 20
72.063507
 30
0.0
  0
SEQEND
  5
B670
  8
ALPHA
  0
POLYLINE
  5
B226
  8
ALPHA
 66
     1
 10
0.0
 20
0.0
 30
0.0
  0
VERTEX
  5
B671
  8
ALPHA
 10
20.260488
 20
64.403198
 30
0.0
  0
VERTEX
  5
B672
  8
ALPHA
 10
20.268601
 20
64.571144
 30
0.0
  0
VERTEX
  5
B673
  8
ALPHA
 10
20.278341
 20
64.758353
 30
0.0
  0
VERTEX
  5
B674
  8
ALPHA
 10
20.290462
 20
64.972805
 30
0.0
  0
VERTEX
  5
B675
  8
ALPHA
 10
20.306112
 20
65.224963
 30
0.0
  0
VERTEX
  5
B676
  8
ALPHA
 10
20.327131
 20
65.529274
 30
0.0
  0
VERTEX
  5
B677
  8
ALPHA
 10
20.356278
 20
65.902625
 30
0.0
  0
VERTEX
  5
B678
  8
ALPHA
 10
20.395797
 20
66.344408
 30
0.0
  0
VERTEX
  5
B679
  8
ALPHA
 10
20.442302
 20
66.798013
 30
0.0
  0
VERTEX
  5
B67A
  8
ALPHA
 10
20.492057
 20
67.227325
 30
0.0
  0
VERTEX
  5
B67B
  8
ALPHA
 10
20.54449
 20
67.633977
 30
0.0
  0
VERTEX
  5
B67C
  8
ALPHA
 10
20.598815
 20
68.017645
 30
0.0
  0
VERTEX
  5
B67D
  8
ALPHA
 10
20.654435
 20
68.379278
 30
0.0
  0
VERTEX
  5
B67E
  8
ALPHA
 10
20.710503
 20
68.718023
 30
0.0
  0
SEQEND
  5
B67F
  8
ALPHA
  0
LINE
  5
B227
  8
ALPHA
 10
20.631639
 20
68.47127
 30
0.0
 11
20.658895
 21
68.648375
 31
0.0
  0
LINE
  5
B228
  8
ALPHA
 10
25.491102
 20
64.649184
 30
0.0
 11
21.24889
 21
64.620989
 31
0.0
  0
LINE
  5
B229
  8
ALPHA
 10
24.468372
 20
61.840539
 30
0.0
 11
21.414129
 21
61.817401
 31
0.0
  0
LINE
  5
B22A
  8
ALPHA
 10
24.908773
 20
60.282582
 30
0.0
 11
21.966793
 21
60.249894
 31
0.0
  0
LINE
  5
B22B
  8
ALPHA
 10
25.158139
 20
59.378038
 30
0.0
 11
21.980197
 21
59.342923
 31
0.0
  0
LINE
  5
B22C
  8
0
  6
CONTINUOUS
 62
     2
 10
5.207615
 20
31.374096
 30
0.0
 11
5.207615
 21
26.374096
 31
0.0
  0
POLYLINE
  5
B22D
  8
ALPHA
 66
     1
 10
0.0
 20
0.0
 30
0.0
  0
VERTEX
  5
B680
  8
ALPHA
 10
21.245804
 20
62.974904
 30
0.0
  0
VERTEX
  5
B681
  8
ALPHA
 10
20.946667
 20
62.933174
 30
0.0
  0
VERTEX
  5
B682
  8
ALPHA
 10
20.675989
 20
62.831811
 30
0.0
  0
VERTEX
  5
B683
  8
ALPHA
 10
20.458674
 20
62.680141
 30
0.0
  0
VERTEX
  5
B684
  8
ALPHA
 10
20.314717
 20
62.492117
 30
0.0
  0
VERTEX
  5
B685
  8
ALPHA
 10
20.257363
 20
62.28504
 30
0.0
  0
SEQEND
  5
B686
  8
ALPHA
  0
POLYLINE
  5
B22E
  8
ALPHA
 66
     1
 10
0.0
 20
0.0
 30
0.0
  0
VERTEX
  5
B687
  8
ALPHA
 10
21.407833
 20
61.831606
 30
0.0
  0
VERTEX
  5
B688
  8
ALPHA
 10
21.386505
 20
61.890112
 30
0.0
  0
VERTEX
  5
B689
  8
ALPHA
 10
21.366388
 20
61.961695
 30
0.0
  0
VERTEX
  5
B68A
  8
ALPHA
 10
21.347369
 20
62.046434
 30
0.0
  0
VERTEX
  5
B68B
  8
ALPHA
 10
21.329467
 20
62.144038
 30
0.0
  0
VERTEX
  5
B68C
  8
ALPHA
 10
21.312709
 20
62.254052
 30
0.0
  0
VERTEX
  5
B68D
  8
ALPHA
 10
21.297069
 20
62.376281
 30
0.0
  0
VERTEX
  5
B68E
  8
ALPHA
 10
21.282582
 20
62.509969
 30
0.0
  0
VERTEX
  5
B68F
  8
ALPHA
 10
21.26922
 20
62.654713
 30
0.0
  0
VERTEX
  5
B690
  8
ALPHA
 10
21.256961
 20
62.810011
 30
0.0
  0
VERTEX
  5
B691
  8
ALPHA
 10
21.245804
 20
62.974903
 30
0.0
  0
SEQEND
  5
B692
  8
ALPHA
  0
POLYLINE
  5
B22F
  8
ALPHA
 66
     1
 10
0.0
 20
0.0
 30
0.0
  0
VERTEX
  5
B693
  8
ALPHA
 10
20.250378
 20
62.441022
 30
0.0
  0
VERTEX
  5
B694
  8
ALPHA
 10
20.246955
 20
62.530827
 30
0.0
  0
VERTEX
  5
B695
  8
ALPHA
 10
20.245133
 20
62.583801
 30
0.0
  0
VERTEX
  5
B696
  8
ALPHA
 10
20.243251
 20
62.643557
 30
0.0
  0
VERTEX
  5
B697
  8
ALPHA
 10
20.241355
 20
62.710506
 30
0.0
  0
VERTEX
  5
B698
  8
ALPHA
 10
20.239495
 20
62.785461
 30
0.0
  0
VERTEX
  5
B699
  8
ALPHA
 10
20.237732
 20
62.869578
 30
0.0
  0
VERTEX
  5
B69A
  8
ALPHA
 10
20.236159
 20
62.963531
 30
0.0
  0
VERTEX
  5
B69B
  8
ALPHA
 10
20.234891
 20
63.068284
 30
0.0
  0
VERTEX
  5
B69C
  8
ALPHA
 10
20.234064
 20
63.186042
 30
0.0
  0
VERTEX
  5
B69D
  8
ALPHA
 10
20.233876
 20
63.319373
 30
0.0
  0
VERTEX
  5
B69E
  8
ALPHA
 10
20.234615
 20
63.471248
 30
0.0
  0
VERTEX
  5
B69F
  8
ALPHA
 10
20.236685
 20
63.64518
 30
0.0
  0
VERTEX
  5
B6A0
  8
ALPHA
 10
20.240669
 20
63.845921
 30
0.0
  0
VERTEX
  5
B6A1
  8
ALPHA
 10
20.247452
 20
64.080312
 30
0.0
  0
VERTEX
  5
B6A2
  8
ALPHA
 10
20.258115
 20
64.351354
 30
0.0
  0
SEQEND
  5
B6A3
  8
ALPHA
  0
POLYLINE
  5
B230
  8
ALPHA
 66
     1
 10
0.0
 20
0.0
 30
0.0
  0
VERTEX
  5
B6A4
  8
ALPHA
 10
20.098463
 20
62.704717
 30
0.0
  0
VERTEX
  5
B6A5
  8
ALPHA
 10
20.105876
 20
62.966488
 30
0.0
  0
VERTEX
  5
B6A6
  8
ALPHA
 10
20.117753
 20
63.29532
 30
0.0
  0
VERTEX
  5
B6A7
  8
ALPHA
 10
20.134938
 20
63.675288
 30
0.0
  0
VERTEX
  5
B6A8
  8
ALPHA
 10
20.157533
 20
64.085424
 30
0.0
  0
SEQEND
  5
B6A9
  8
ALPHA
  0
LINE
  5
B231
  8
ALPHA
 10
19.974348
 20
61.358691
 30
0.0
 11
20.037232
 21
61.1919
 31
0.0
  0
LINE
  5
B232
  8
ALPHA
 10
20.031735
 20
61.372174
 30
0.0
 11
19.973632
 21
61.526217
 31
0.0
  0
LINE
  5
B233
  8
ALPHA
 10
20.061801
 20
61.989006
 30
0.0
 11
19.87039
 21
61.797596
 31
0.0
  0
LINE
  5
B234
  8
ALPHA
 10
19.973632
 20
61.526217
 30
0.0
 11
19.920386
 21
61.66659
 31
0.0
  0
LINE
  5
B235
  8
ALPHA
 10
19.938164
 20
61.454131
 30
0.0
 11
19.974348
 21
61.358691
 31
0.0
  0
LINE
  5
B236
  8
ALPHA
 10
19.890125
 20
61.580334
 30
0.0
 11
19.938164
 21
61.454131
 31
0.0
  0
LINE
  5
B237
  8
ALPHA
 10
19.920386
 20
61.66659
 30
0.0
 11
19.870395
 21
61.797591
 31
0.0
  0
LINE
  5
B238
  8
ALPHA
 10
19.847835
 20
61.690817
 30
0.0
 11
19.890125
 21
61.580334
 31
0.0
  0
POLYLINE
  5
B239
  8
ALPHA
 66
     1
 10
0.0
 20
0.0
 30
0.0
  0
VERTEX
  5
B6AA
  8
ALPHA
 10
19.870395
 20
61.797591
 30
0.0
  0
VERTEX
  5
B6AB
  8
ALPHA
 10
19.85332
 20
61.774773
 30
0.0
  0
VERTEX
  5
B6AC
  8
ALPHA
 10
19.841324
 20
61.73349
 30
0.0
  0
VERTEX
  5
B6AD
  8
ALPHA
 10
19.847764
 20
61.691002
 30
0.0
  0
SEQEND
  5
B6AE
  8
ALPHA
  0
ARC
  5
B23A
  8
ALPHA
 10
19.991102
 20
62.059705
 30
0.0
 40
0.1
 50
315.0
 51
359.999964
  0
POLYLINE
  5
B23B
  8
ALPHA
 66
     1
 10
0.0
 20
0.0
 30
0.0
  0
VERTEX
  5
B6AF
  8
ALPHA
 10
21.414129
 20
61.817401
 30
0.0
  0
VERTEX
  5
B6B0
  8
ALPHA
 10
21.110866
 20
61.763809
 30
0.0
  0
VERTEX
  5
B6B1
  8
ALPHA
 10
20.837236
 20
61.622271
 30
0.0
  0
VERTEX
  5
B6B2
  8
ALPHA
 10
20.619227
 20
61.406227
 30
0.0
  0
VERTEX
  5
B6B3
  8
ALPHA
 10
20.477545
 20
61.136199
 30
0.0
  0
VERTEX
  5
B6B4
  8
ALPHA
 10
20.425647
 20
60.837833
 30
0.0
  0
SEQEND
  5
B6B5
  8
ALPHA
  0
POLYLINE
  5
B23C
  8
ALPHA
 66
     1
 10
0.0
 20
0.0
 30
0.0
  0
VERTEX
  5
B6B6
  8
ALPHA
 10
21.966794
 20
60.249852
 30
0.0
  0
VERTEX
  5
B6B7
  8
ALPHA
 10
21.669271
 20
60.192811
 30
0.0
  0
VERTEX
  5
B6B8
  8
ALPHA
 10
21.400219
 20
60.053713
 30
0.0
  0
VERTEX
  5
B6B9
  8
ALPHA
 10
21.184174
 20
59.845382
 30
0.0
  0
VERTEX
  5
B6BA
  8
ALPHA
 10
21.041046
 20
59.587007
 30
0.0
  0
VERTEX
  5
B6BB
  8
ALPHA
 10
20.984021
 20
59.302216
 30
0.0
  0
SEQEND
  5
B6BC
  8
ALPHA
  0
POLYLINE
  5
B23D
  8
ALPHA
 66
     1
 10
0.0
 20
0.0
 30
0.0
  0
VERTEX
  5
B6BD
  8
ALPHA
 10
21.980197
 20
59.342923
 30
0.0
  0
VERTEX
  5
B6BE
  8
ALPHA
 10
21.968243
 20
59.340848
 30
0.0
  0
VERTEX
  5
B6BF
  8
ALPHA
 10
21.957533
 20
59.335056
 30
0.0
  0
VERTEX
  5
B6C0
  8
ALPHA
 10
21.949098
 20
59.326084
 30
0.0
  0
VERTEX
  5
B6C1
  8
ALPHA
 10
21.943713
 20
59.31476
 30
0.0
  0
VERTEX
  5
B6C2
  8
ALPHA
 10
21.941879
 20
59.302216
 30
0.0
  0
SEQEND
  5
B6C3
  8
ALPHA
  0
LINE
  5
B23E
  8
ALPHA
 10
21.941879
 20
59.302216
 30
0.0
 11
20.984005
 21
59.302216
 31
0.0
  0
POLYLINE
  5
B23F
  8
ALPHA
 66
     1
 10
0.0
 20
0.0
 30
0.0
  0
VERTEX
  5
B6C4
  8
ALPHA
 10
20.369985
 20
60.98445
 30
0.0
  0
VERTEX
  5
B6C5
  8
ALPHA
 10
20.357708
 20
60.992779
 30
0.0
  0
VERTEX
  5
B6C6
  8
ALPHA
 10
20.345609
 20
61.001113
 30
0.0
  0
VERTEX
  5
B6C7
  8
ALPHA
 10
20.333598
 20
61.009517
 30
0.0
  0
VERTEX
  5
B6C8
  8
ALPHA
 10
20.321592
 20
61.018054
 30
0.0
  0
SEQEND
  5
B6C9
  8
ALPHA
  0
POLYLINE
  5
B240
  8
ALPHA
 66
     1
 10
0.0
 20
0.0
 30
0.0
  0
VERTEX
  5
B6CA
  8
ALPHA
 10
20.406397
 20
60.960436
 30
0.0
  0
VERTEX
  5
B6CB
  8
ALPHA
 10
20.395463
 20
60.967544
 30
0.0
  0
VERTEX
  5
B6CC
  8
ALPHA
 10
20.382538
 20
60.976059
 30
0.0
  0
VERTEX
  5
B6CD
  8
ALPHA
 10
20.369985
 20
60.98445
 30
0.0
  0
SEQEND
  5
B6CE
  8
ALPHA
  0
POLYLINE
  5
B241
  8
ALPHA
 66
     1
 10
0.0
 20
0.0
 30
0.0
  0
VERTEX
  5
B6CF
  8
ALPHA
 10
20.404066
 20
60.825054
 30
0.0
  0
VERTEX
  5
B6D0
  8
ALPHA
 10
20.390422
 20
60.833781
 30
0.0
  0
VERTEX
  5
B6D1
  8
ALPHA
 10
20.377239
 20
60.842346
 30
0.0
  0
VERTEX
  5
B6D2
  8
ALPHA
 10
20.364415
 20
60.850809
 30
0.0
  0
VERTEX
  5
B6D3
  8
ALPHA
 10
20.351843
 20
60.859239
 30
0.0
  0
VERTEX
  5
B6D4
  8
ALPHA
 10
20.339421
 20
60.867707
 30
0.0
  0
VERTEX
  5
B6D5
  8
ALPHA
 10
20.32705
 20
60.876284
 30
0.0
  0
SEQEND
  5
B6D6
  8
ALPHA
  0
LINE
  5
B242
  8
ALPHA
 10
20.226321
 20
60.952963
 30
0.0
 11
20.208747
 21
60.968
 31
0.0
  0
POLYLINE
  5
B243
  8
ALPHA
 66
     1
 10
0.0
 20
0.0
 30
0.0
  0
VERTEX
  5
B6D7
  8
ALPHA
 10
20.23863
 20
61.081649
 30
0.0
  0
VERTEX
  5
B6D8
  8
ALPHA
 10
20.221896
 20
61.095705
 30
0.0
  0
VERTEX
  5
B6D9
  8
ALPHA
 10
20.204674
 20
61.110736
 30
0.0
  0
VERTEX
  5
B6DA
  8
ALPHA
 10
20.187092
 20
61.126768
 30
0.0
  0
VERTEX
  5
B6DB
  8
ALPHA
 10
20.169299
 20
61.143837
 30
0.0
  0
VERTEX
  5
B6DC
  8
ALPHA
 10
20.151497
 20
61.161961
 30
0.0
  0
VERTEX
  5
B6DD
  8
ALPHA
 10
20.133904
 20
61.18118
 30
0.0
  0
VERTEX
  5
B6DE
  8
ALPHA
 10
20.116753
 20
61.201568
 30
0.0
  0
SEQEND
  5
B6DF
  8
ALPHA
  0
LINE
  5
B244
  8
ALPHA
 10
20.243341
 20
60.938966
 30
0.0
 11
20.226321
 21
60.952963
 31
0.0
  0
POLYLINE
  5
B245
  8
ALPHA
 66
     1
 10
0.0
 20
0.0
 30
0.0
  0
VERTEX
  5
B6E0
  8
ALPHA
 10
20.321592
 20
61.018054
 30
0.0
  0
VERTEX
  5
B6E1
  8
ALPHA
 10
20.30948
 20
61.026816
 30
0.0
  0
VERTEX
  5
B6E2
  8
ALPHA
 10
20.297025
 20
61.03599
 30
0.0
  0
VERTEX
  5
B6E3
  8
ALPHA
 10
20.283908
 20
61.045848
 30
0.0
  0
VERTEX
  5
B6E4
  8
ALPHA
 10
20.269832
 20
61.056666
 30
0.0
  0
VERTEX
  5
B6E5
  8
ALPHA
 10
20.254689
 20
61.068606
 30
0.0
  0
VERTEX
  5
B6E6
  8
ALPHA
 10
20.23863
 20
61.081649
 30
0.0
  0
SEQEND
  5
B6E7
  8
ALPHA
  0
POLYLINE
  5
B246
  8
ALPHA
 66
     1
 10
0.0
 20
0.0
 30
0.0
  0
VERTEX
  5
B6E8
  8
ALPHA
 10
20.32705
 20
60.876284
 30
0.0
  0
VERTEX
  5
B6E9
  8
ALPHA
 10
20.314635
 20
60.885046
 30
0.0
  0
VERTEX
  5
B6EA
  8
ALPHA
 10
20.302012
 20
60.894123
 30
0.0
  0
VERTEX
  5
B6EB
  8
ALPHA
 10
20.28884
 20
60.903791
 30
0.0
  0
VERTEX
  5
B6EC
  8
ALPHA
 10
20.274781
 20
60.914349
 30
0.0
  0
VERTEX
  5
B6ED
  8
ALPHA
 10
20.259582
 20
60.926064
 30
0.0
  0
VERTEX
  5
B6EE
  8
ALPHA
 10
20.243341
 20
60.938966
 30
0.0
  0
SEQEND
  5
B6EF
  8
ALPHA
  0
POLYLINE
  5
B247
  8
ALPHA
 66
     1
 10
0.0
 20
0.0
 30
0.0
  0
VERTEX
  5
B6F0
  8
ALPHA
 10
20.168027
 20
61.005716
 30
0.0
  0
VERTEX
  5
B6F1
  8
ALPHA
 10
20.154259
 20
61.019633
 30
0.0
  0
VERTEX
  5
B6F2
  8
ALPHA
 10
20.136176
 20
61.039115
 30
0.0
  0
VERTEX
  5
B6F3
  8
ALPHA
 10
20.118527
 20
61.05983
 30
0.0
  0
VERTEX
  5
B6F4
  8
ALPHA
 10
20.101629
 20
61.081857
 30
0.0
  0
VERTEX
  5
B6F5
  8
ALPHA
 10
20.085898
 20
61.105268
 30
0.0
  0
VERTEX
  5
B6F6
  8
ALPHA
 10
20.07186
 20
61.130138
 30
0.0
  0
VERTEX
  5
B6F7
  8
ALPHA
 10
20.060198
 20
61.156538
 30
0.0
  0
SEQEND
  5
B6F8
  8
ALPHA
  0
LINE
  5
B248
  8
ALPHA
 10
20.311749
 20
60.86412
 30
0.0
 11
20.168027
 21
61.005716
 31
0.0
  0
POLYLINE
  5
B249
  8
ALPHA
 66
     1
 10
0.0
 20
0.0
 30
0.0
  0
VERTEX
  5
B6F9
  8
ALPHA
 10
20.311752
 20
60.864117
 30
0.0
  0
VERTEX
  5
B6FA
  8
ALPHA
 10
20.314228
 20
60.861727
 30
0.0
  0
VERTEX
  5
B6FB
  8
ALPHA
 10
20.321869
 20
60.854955
 30
0.0
  0
VERTEX
  5
B6FC
  8
ALPHA
 10
20.329065
 20
60.849356
 30
0.0
  0
VERTEX
  5
B6FD
  8
ALPHA
 10
20.335858
 20
60.844713
 30
0.0
  0
VERTEX
  5
B6FE
  8
ALPHA
 10
20.342236
 20
60.840882
 30
0.0
  0
VERTEX
  5
B6FF
  8
ALPHA
 10
20.348164
 20
60.837754
 30
0.0
  0
VERTEX
  5
B700
  8
ALPHA
 10
20.353635
 20
60.835215
 30
0.0
  0
VERTEX
  5
B701
  8
ALPHA
 10
20.358726
 20
60.833139
 30
0.0
  0
VERTEX
  5
B702
  8
ALPHA
 10
20.363538
 20
60.831418
 30
0.0
  0
VERTEX
  5
B703
  8
ALPHA
 10
20.368177
 20
60.829972
 30
0.0
  0
VERTEX
  5
B704
  8
ALPHA
 10
20.372743
 20
60.828746
 30
0.0
  0
VERTEX
  5
B705
  8
ALPHA
 10
20.377327
 20
60.827704
 30
0.0
  0
VERTEX
  5
B706
  8
ALPHA
 10
20.382025
 20
60.826824
 30
0.0
  0
VERTEX
  5
B707
  8
ALPHA
 10
20.386938
 20
60.826102
 30
0.0
  0
VERTEX
  5
B708
  8
ALPHA
 10
20.392173
 20
60.825545
 30
0.0
  0
VERTEX
  5
B709
  8
ALPHA
 10
20.397843
 20
60.82518
 30
0.0
  0
VERTEX
  5
B70A
  8
ALPHA
 10
20.404066
 20
60.825054
 30
0.0
  0
SEQEND
  5
B70B
  8
ALPHA
  0
POLYLINE
  5
B24A
  8
ALPHA
 66
     1
 10
0.0
 20
0.0
 30
0.0
  0
VERTEX
  5
B70C
  8
ALPHA
 10
20.208747
 20
60.968
 30
0.0
  0
VERTEX
  5
B70D
  8
ALPHA
 10
20.190766
 20
60.984102
 30
0.0
  0
VERTEX
  5
B70E
  8
ALPHA
 10
20.172533
 20
61.001307
 30
0.0
  0
SEQEND
  5
B70F
  8
ALPHA
  0
LINE
  5
B24B
  8
ALPHA
 10
20.116753
 20
61.201568
 30
0.0
 11
20.100351
 21
61.223202
 31
0.0
  0
POLYLINE
  5
B24C
  8
ALPHA
 66
     1
 10
0.0
 20
0.0
 30
0.0
  0
VERTEX
  5
B710
  8
ALPHA
 10
20.297998
 20
60.854626
 30
0.0
  0
VERTEX
  5
B711
  8
ALPHA
 10
20.30686
 20
60.839512
 30
0.0
  0
VERTEX
  5
B712
  8
ALPHA
 10
20.315084
 20
60.827955
 30
0.0
  0
VERTEX
  5
B713
  8
ALPHA
 10
20.322738
 20
60.819213
 30
0.0
  0
VERTEX
  5
B714
  8
ALPHA
 10
20.329893
 20
60.812705
 30
0.0
  0
VERTEX
  5
B715
  8
ALPHA
 10
20.336566
 20
60.808019
 30
0.0
  0
VERTEX
  5
B716
  8
ALPHA
 10
20.342749
 20
60.804821
 30
0.0
  0
VERTEX
  5
B717
  8
ALPHA
 10
20.348483
 20
60.802801
 30
0.0
  0
VERTEX
  5
B718
  8
ALPHA
 10
20.35382
 20
60.801712
 30
0.0
  0
VERTEX
  5
B719
  8
ALPHA
 10
20.358768
 20
60.801363
 30
0.0
  0
VERTEX
  5
B71A
  8
ALPHA
 10
20.363315
 20
60.801588
 30
0.0
  0
VERTEX
  5
B71B
  8
ALPHA
 10
20.367468
 20
60.80224
 30
0.0
  0
VERTEX
  5
B71C
  8
ALPHA
 10
20.371298
 20
60.80321
 30
0.0
  0
VERTEX
  5
B71D
  8
ALPHA
 10
20.374888
 20
60.804434
 30
0.0
  0
VERTEX
  5
B71E
  8
ALPHA
 10
20.378322
 20
60.805885
 30
0.0
  0
VERTEX
  5
B71F
  8
ALPHA
 10
20.381676
 20
60.807563
 30
0.0
  0
VERTEX
  5
B720
  8
ALPHA
 10
20.385019
 20
60.809486
 30
0.0
  0
VERTEX
  5
B721
  8
ALPHA
 10
20.388421
 20
60.811698
 30
0.0
  0
VERTEX
  5
B722
  8
ALPHA
 10
20.391953
 20
60.81426
 30
0.0
  0
VERTEX
  5
B723
  8
ALPHA
 10
20.395687
 20
60.81726
 30
0.0
  0
SEQEND
  5
B724
  8
ALPHA
  0
POLYLINE
  5
B24D
  8
ALPHA
 66
     1
 10
0.0
 20
0.0
 30
0.0
  0
VERTEX
  5
B725
  8
ALPHA
 10
20.100351
 20
61.223202
 30
0.0
  0
VERTEX
  5
B726
  8
ALPHA
 10
20.085093
 20
61.24615
 30
0.0
  0
VERTEX
  5
B727
  8
ALPHA
 10
20.071484
 20
61.270491
 30
0.0
  0
SEQEND
  5
B728
  8
ALPHA
  0
POLYLINE
  5
B24E
  8
ALPHA
 66
     1
 10
0.0
 20
0.0
 30
0.0
  0
VERTEX
  5
B729
  8
ALPHA
 10
21.966793
 20
60.249894
 30
0.0
  0
VERTEX
  5
B72A
  8
ALPHA
 10
21.805168
 20
60.713431
 30
0.0
  0
VERTEX
  5
B72B
  8
ALPHA
 10
21.658915
 20
61.129174
 30
0.0
  0
VERTEX
  5
B72C
  8
ALPHA
 10
21.52844
 20
61.497173
 30
0.0
  0
VERTEX
  5
B72D
  8
ALPHA
 10
21.414129
 20
61.817401
 30
0.0
  0
SEQEND
  5
B72E
  8
ALPHA
  0
LINE
  5
B24F
  8
ALPHA
 10
20.071484
 20
61.270491
 30
0.0
 11
20.060179
 21
61.2963
 31
0.0
  0
POLYLINE
  5
B250
  8
ALPHA
 66
     1
 10
0.0
 20
0.0
 30
0.0
  0
VERTEX
  5
B72F
  8
ALPHA
 10
21.414129
 20
61.817401
 30
0.0
  0
VERTEX
  5
B730
  8
ALPHA
 10
21.41097
 20
61.824362
 30
0.0
  0
VERTEX
  5
B731
  8
ALPHA
 10
21.407833
 20
61.831606
 30
0.0
  0
SEQEND
  5
B732
  8
ALPHA
  0
POLYLINE
  5
B251
  8
ALPHA
 66
     1
 10
0.0
 20
0.0
 30
0.0
  0
VERTEX
  5
B733
  8
ALPHA
 10
20.037242
 20
61.191817
 30
0.0
  0
VERTEX
  5
B734
  8
ALPHA
 10
20.057091
 20
61.148185
 30
0.0
  0
VERTEX
  5
B735
  8
ALPHA
 10
20.057538
 20
61.147514
 30
0.0
  0
SEQEND
  5
B736
  8
ALPHA
  0
POLYLINE
  5
B252
  8
ALPHA
 66
     1
 10
0.0
 20
0.0
 30
0.0
  0
VERTEX
  5
B737
  8
ALPHA
 10
20.03724
 20
61.191821
 30
0.0
  0
VERTEX
  5
B738
  8
ALPHA
 10
20.058046
 20
61.146406
 30
0.0
  0
VERTEX
  5
B739
  8
ALPHA
 10
20.10829
 20
61.071508
 30
0.0
  0
VERTEX
  5
B73A
  8
ALPHA
 10
20.168027
 20
61.005716
 30
0.0
  0
SEQEND
  5
B73B
  8
ALPHA
  0
POLYLINE
  5
B253
  8
ALPHA
 66
     1
 10
0.0
 20
0.0
 30
0.0
  0
VERTEX
  5
B73C
  8
ALPHA
 10
20.294553
 20
61.368056
 30
0.0
  0
VERTEX
  5
B73D
  8
ALPHA
 10
20.281355
 20
61.410517
 30
0.0
  0
VERTEX
  5
B73E
  8
ALPHA
 10
20.271841
 20
61.439819
 30
0.0
  0
VERTEX
  5
B73F
  8
ALPHA
 10
20.262918
 20
61.465814
 30
0.0
  0
VERTEX
  5
B740
  8
ALPHA
 10
20.254548
 20
61.488566
 30
0.0
  0
SEQEND
  5
B741
  8
ALPHA
  0
POLYLINE
  5
B254
  8
ALPHA
 66
     1
 10
0.0
 20
0.0
 30
0.0
  0
VERTEX
  5
B742
  8
ALPHA
 10
20.037232
 20
61.1919
 30
0.0
  0
VERTEX
  5
B743
  8
ALPHA
 10
20.034397
 20
61.200692
 30
0.0
  0
VERTEX
  5
B744
  8
ALPHA
 10
20.034393
 20
61.251838
 30
0.0
  0
VERTEX
  5
B745
  8
ALPHA
 10
20.060182
 20
61.296361
 30
0.0
  0
SEQEND
  5
B746
  8
ALPHA
  0
POLYLINE
  5
B255
  8
ALPHA
 66
     1
 10
0.0
 20
0.0
 30
0.0
  0
VERTEX
  5
B747
  8
ALPHA
 10
20.30116
 20
61.348097
 30
0.0
  0
VERTEX
  5
B748
  8
ALPHA
 10
20.29778
 20
61.358149
 30
0.0
  0
VERTEX
  5
B749
  8
ALPHA
 10
20.294553
 20
61.368056
 30
0.0
  0
SEQEND
  5
B74A
  8
ALPHA
  0
POLYLINE
  5
B256
  8
ALPHA
 66
     1
 10
0.0
 20
0.0
 30
0.0
  0
VERTEX
  5
B74B
  8
ALPHA
 10
20.984005
 20
59.302216
 30
0.0
  0
VERTEX
  5
B74C
  8
ALPHA
 10
20.852133
 20
59.669289
 30
0.0
  0
VERTEX
  5
B74D
  8
ALPHA
 10
20.730149
 20
60.006373
 30
0.0
  0
VERTEX
  5
B74E
  8
ALPHA
 10
20.618262
 20
60.313517
 30
0.0
  0
VERTEX
  5
B74F
  8
ALPHA
 10
20.516704
 20
60.590659
 30
0.0
  0
VERTEX
  5
B750
  8
ALPHA
 10
20.425647
 20
60.83783
 30
0.0
  0
SEQEND
  5
B751
  8
ALPHA
  0
LINE
  5
B257
  8
ALPHA
 10
20.060182
 20
61.296361
 30
0.0
 11
20.031735
 21
61.372174
 31
0.0
  0
POLYLINE
  5
B258
  8
ALPHA
 66
     1
 10
0.0
 20
0.0
 30
0.0
  0
VERTEX
  5
B752
  8
ALPHA
 10
20.257364
 20
62.28504
 30
0.0
  0
VERTEX
  5
B753
  8
ALPHA
 10
20.19304
 20
62.455646
 30
0.0
  0
VERTEX
  5
B754
  8
ALPHA
 10
20.148362
 20
62.573624
 30
0.0
  0
VERTEX
  5
B755
  8
ALPHA
 10
20.098408
 20
62.704709
 30
0.0
  0
SEQEND
  5
B756
  8
ALPHA
  0
POLYLINE
  5
B259
  8
ALPHA
 66
     1
 10
0.0
 20
0.0
 30
0.0
  0
VERTEX
  5
B757
  8
ALPHA
 10
20.283723
 20
61.557853
 30
0.0
  0
VERTEX
  5
B758
  8
ALPHA
 10
20.208453
 20
61.755198
 30
0.0
  0
VERTEX
  5
B759
  8
ALPHA
 10
20.15132
 20
61.903682
 30
0.0
  0
SEQEND
  5
B75A
  8
ALPHA
  0
POLYLINE
  5
B25A
  8
ALPHA
 66
     1
 10
0.0
 20
0.0
 30
0.0
  0
VERTEX
  5
B75B
  8
ALPHA
 10
20.254541
 20
61.488566
 30
0.0
  0
VERTEX
  5
B75C
  8
ALPHA
 10
20.179228
 20
61.685345
 30
0.0
  0
VERTEX
  5
B75D
  8
ALPHA
 10
20.122064
 20
61.83341
 30
0.0
  0
SEQEND
  5
B75E
  8
ALPHA
  0
LINE
  5
B25B
  8
ALPHA
 10
20.15132
 20
61.903682
 30
0.0
 11
20.091102
 21
62.0597
 31
0.0
  0
LINE
  5
B25C
  8
ALPHA
 10
20.122064
 20
61.83341
 30
0.0
 11
20.061813
 21
61.988995
 31
0.0
  0
POLYLINE
  5
B25D
  8
ALPHA
 66
     1
 10
0.0
 20
0.0
 30
0.0
  0
VERTEX
  5
B75F
  8
ALPHA
 10
20.278165
 20
60.899447
 30
0.0
  0
VERTEX
  5
B760
  8
ALPHA
 10
20.288445
 20
60.874223
 30
0.0
  0
VERTEX
  5
B761
  8
ALPHA
 10
20.297998
 20
60.854626
 30
0.0
  0
SEQEND
  5
B762
  8
ALPHA
  0
POLYLINE
  5
B25E
  8
ALPHA
 66
     1
 10
0.0
 20
0.0
 30
0.0
  0
VERTEX
  5
B763
  8
ALPHA
 10
20.406693
 20
60.959646
 30
0.0
  0
VERTEX
  5
B764
  8
ALPHA
 10
20.409898
 20
60.936197
 30
0.0
  0
VERTEX
  5
B765
  8
ALPHA
 10
20.411381
 20
60.923264
 30
0.0
  0
VERTEX
  5
B766
  8
ALPHA
 10
20.412653
 20
60.909443
 30
0.0
  0
VERTEX
  5
B767
  8
ALPHA
 10
20.413648
 20
60.894121
 30
0.0
  0
VERTEX
  5
B768
  8
ALPHA
 10
20.414152
 20
60.876992
 30
0.0
  0
VERTEX
  5
B769
  8
ALPHA
 10
20.413825
 20
60.860315
 30
0.0
  0
VERTEX
  5
B76A
  8
ALPHA
 10
20.412773
 20
60.847792
 30
0.0
  0
VERTEX
  5
B76B
  8
ALPHA
 10
20.411375
 20
60.839275
 30
0.0
  0
VERTEX
  5
B76C
  8
ALPHA
 10
20.409782
 20
60.833353
 30
0.0
  0
VERTEX
  5
B76D
  8
ALPHA
 10
20.408027
 20
60.829226
 30
0.0
  0
VERTEX
  5
B76E
  8
ALPHA
 10
20.406121
 20
60.826523
 30
0.0
  0
VERTEX
  5
B76F
  8
ALPHA
 10
20.404066
 20
60.825054
 30
0.0
  0
SEQEND
  5
B770
  8
ALPHA
  0
LINE
  5
B25F
  8
ALPHA
 10
20.425647
 20
60.83783
 30
0.0
 11
20.413483
 21
60.917431
 31
0.0
  0
LINE
  5
B260
  8
ALPHA
 10
20.413483
 20
60.917431
 30
0.0
 11
20.406693
 21
60.959646
 31
0.0
  0
LINE
  5
B261
  8
ALPHA
 10
20.404505
 20
60.977576
 30
0.0
 11
20.384707
 21
61.066449
 31
0.0
  0
POLYLINE
  5
B262
  8
ALPHA
 66
     1
 10
0.0
 20
0.0
 30
0.0
  0
VERTEX
  5
B771
  8
ALPHA
 10
20.384707
 20
61.066449
 30
0.0
  0
VERTEX
  5
B772
  8
ALPHA
 10
20.378152
 20
61.095106
 30
0.0
  0
VERTEX
  5
B773
  8
ALPHA
 10
20.370505
 20
61.126958
 30
0.0
  0
VERTEX
  5
B774
  8
ALPHA
 10
20.361378
 20
61.162344
 30
0.0
  0
VERTEX
  5
B775
  8
ALPHA
 10
20.350273
 20
61.201638
 30
0.0
  0
VERTEX
  5
B776
  8
ALPHA
 10
20.336641
 20
61.245288
 30
0.0
  0
VERTEX
  5
B777
  8
ALPHA
 10
20.320092
 20
61.29394
 30
0.0
  0
VERTEX
  5
B778
  8
ALPHA
 10
20.30116
 20
61.348097
 30
0.0
  0
SEQEND
  5
B779
  8
ALPHA
  0
LINE
  5
B263
  8
ALPHA
 10
20.408847
 20
60.958855
 30
0.0
 11
20.404505
 21
60.977576
 31
0.0
  0
POLYLINE
  5
B264
  8
ALPHA
 66
     1
 10
0.0
 20
0.0
 30
0.0
  0
VERTEX
  5
B77A
  8
ALPHA
 10
20.326909
 20
61.404668
 30
0.0
  0
VERTEX
  5
B77B
  8
ALPHA
 10
20.323986
 20
61.41659
 30
0.0
  0
VERTEX
  5
B77C
  8
ALPHA
 10
20.321185
 20
61.428367
 30
0.0
  0
VERTEX
  5
B77D
  8
ALPHA
 10
20.31852
 20
61.440007
 30
0.0
  0
SEQEND
  5
B77E
  8
ALPHA
  0
POLYLINE
  5
B265
  8
ALPHA
 66
     1
 10
0.0
 20
0.0
 30
0.0
  0
VERTEX
  5
B77F
  8
ALPHA
 10
20.31852
 20
61.440007
 30
0.0
  0
VERTEX
  5
B780
  8
ALPHA
 10
20.309389
 20
61.475647
 30
0.0
  0
VERTEX
  5
B781
  8
ALPHA
 10
20.300551
 20
61.507093
 30
0.0
  0
VERTEX
  5
B782
  8
ALPHA
 10
20.291998
 20
61.534458
 30
0.0
  0
VERTEX
  5
B783
  8
ALPHA
 10
20.283723
 20
61.557853
 30
0.0
  0
SEQEND
  5
B784
  8
ALPHA
  0
LINE
  5
B266
  8
ALPHA
 10
20.408847
 20
60.958855
 30
0.0
 11
20.401082
 21
61.027618
 31
0.0
  0
POLYLINE
  5
B267
  8
ALPHA
 66
     1
 10
0.0
 20
0.0
 30
0.0
  0
VERTEX
  5
B785
  8
ALPHA
 10
20.401082
 20
61.027618
 30
0.0
  0
VERTEX
  5
B786
  8
ALPHA
 10
20.397874
 20
61.054333
 30
0.0
  0
VERTEX
  5
B787
  8
ALPHA
 10
20.39412
 20
61.083738
 30
0.0
  0
VERTEX
  5
B788
  8
ALPHA
 10
20.389622
 20
61.11617
 30
0.0
  0
VERTEX
  5
B789
  8
ALPHA
 10
20.384101
 20
61.152033
 30
0.0
  0
VERTEX
  5
B78A
  8
ALPHA
 10
20.37718
 20
61.191789
 30
0.0
  0
VERTEX
  5
B78B
  8
ALPHA
 10
20.36838
 20
61.23601
 30
0.0
  0
VERTEX
  5
B78C
  8
ALPHA
 10
20.357173
 20
61.285459
 30
0.0
  0
VERTEX
  5
B78D
  8
ALPHA
 10
20.343186
 20
61.34128
 30
0.0
  0
VERTEX
  5
B78E
  8
ALPHA
 10
20.326909
 20
61.404668
 30
0.0
  0
SEQEND
  5
B78F
  8
ALPHA
  0
POLYLINE
  5
B268
  8
ALPHA
 66
     1
 10
0.0
 20
0.0
 30
0.0
  0
VERTEX
  5
B790
  8
ALPHA
 10
21.980197
 20
59.342923
 30
0.0
  0
VERTEX
  5
B791
  8
ALPHA
 10
21.976723
 20
59.635074
 30
0.0
  0
VERTEX
  5
B792
  8
ALPHA
 10
21.973105
 20
59.899504
 30
0.0
  0
VERTEX
  5
B793
  8
ALPHA
 10
21.969688
 20
60.111123
 30
0.0
  0
VERTEX
  5
B794
  8
ALPHA
 10
21.966794
 20
60.249852
 30
0.0
  0
SEQEND
  5
B795
  8
ALPHA
  0
LINE
  5
B269
  8
ALPHA
 10
20.253708
 20
62.362898
 30
0.0
 11
20.250378
 21
62.441022
 31
0.0
  0
LINE
  5
B26A
  8
ALPHA
 10
20.257363
 20
62.28504
 30
0.0
 11
20.253708
 21
62.362898
 31
0.0
  0
POLYLINE
  5
B26B
  8
ALPHA
 66
     1
 10
0.0
 20
0.0
 30
0.0
  0
VERTEX
  5
B796
  8
ALPHA
 10
20.31852
 20
61.440007
 30
0.0
  0
VERTEX
  5
B797
  8
ALPHA
 10
20.306699
 20
61.56064
 30
0.0
  0
VERTEX
  5
B798
  8
ALPHA
 10
20.295542
 20
61.689757
 30
0.0
  0
VERTEX
  5
B799
  8
ALPHA
 10
20.285038
 20
61.827088
 30
0.0
  0
VERTEX
  5
B79A
  8
ALPHA
 10
20.275177
 20
61.972374
 30
0.0
  0
VERTEX
  5
B79B
  8
ALPHA
 10
20.265953
 20
62.125215
 30
0.0
  0
VERTEX
  5
B79C
  8
ALPHA
 10
20.257364
 20
62.28504
 30
0.0
  0
SEQEND
  5
B79D
  8
ALPHA
  0
POLYLINE
  5
B26C
  8
ALPHA
 66
     1
 10
0.0
 20
0.0
 30
0.0
  0
VERTEX
  5
B79E
  8
ALPHA
 10
20.31852
 20
61.440007
 30
0.0
  0
VERTEX
  5
B79F
  8
ALPHA
 10
20.315141
 20
61.417342
 30
0.0
  0
VERTEX
  5
B7A0
  8
ALPHA
 10
20.305929
 20
61.396147
 30
0.0
  0
VERTEX
  5
B7A1
  8
ALPHA
 10
20.2915
 20
61.377839
 30
0.0
  0
SEQEND
  5
B7A2
  8
ALPHA
  0
POLYLINE
  5
B26D
  8
ALPHA
 66
     1
 10
0.0
 20
0.0
 30
0.0
  0
VERTEX
  5
B7A3
  8
ALPHA
 10
20.28372
 20
61.557853
 30
0.0
  0
VERTEX
  5
B7A4
  8
ALPHA
 10
20.280184
 20
61.532549
 30
0.0
  0
VERTEX
  5
B7A5
  8
ALPHA
 10
20.270237
 20
61.50893
 30
0.0
  0
VERTEX
  5
B7A6
  8
ALPHA
 10
20.254541
 20
61.488566
 30
0.0
  0
SEQEND
  5
B7A7
  8
ALPHA
  0
POLYLINE
  5
B26E
  8
ALPHA
 66
     1
 10
0.0
 20
0.0
 30
0.0
  0
VERTEX
  5
B7A8
  8
ALPHA
 10
20.098408
 20
62.704709
 30
0.0
  0
VERTEX
  5
B7A9
  8
ALPHA
 10
20.091948
 20
62.45534
 30
0.0
  0
VERTEX
  5
B7AA
  8
ALPHA
 10
20.091102
 20
62.424096
 30
0.0
  0
SEQEND
  5
B7AB
  8
ALPHA
  0
LINE
  5
B26F
  8
ALPHA
 10
20.091102
 20
62.424096
 30
0.0
 11
20.091102
 21
62.053432
 31
0.0
  0
POLYLINE
  5
B270
  8
ALPHA
 66
     1
 10
0.0
 20
0.0
 30
0.0
  0
VERTEX
  5
B7AC
  8
ALPHA
 10
20.395687
 20
60.81726
 30
0.0
  0
VERTEX
  5
B7AD
  8
ALPHA
 10
20.399699
 20
60.820811
 30
0.0
  0
VERTEX
  5
B7AE
  8
ALPHA
 10
20.404066
 20
60.825054
 30
0.0
  0
SEQEND
  5
B7AF
  8
ALPHA
  0
LINE
  5
B271
  8
ALPHA
 10
20.254541
 20
61.488566
 30
0.0
 11
20.060182
 21
61.296361
 31
0.0
  0
LINE
  5
B272
  8
ALPHA
 10
20.547524
 20
68.397193
 30
0.0
 11
19.799577
 21
68.331756
 31
0.0
  0
LINE
  5
B273
  8
ALPHA
 10
20.10671
 20
62.989565
 30
0.0
 11
19.799577
 21
63.016435
 31
0.0
  0
ARC
  5
B274
  8
ALPHA
 10
19.843155
 20
67.833659
 30
0.0
 40
0.5
 50
95.0
 51
107.704361
  0
ARC
  5
B275
  8
ALPHA
 10
19.843155
 20
63.514533
 30
0.0
 40
0.5
 50
252.295639
 51
265.0
  0
LINE
  5
B276
  8
ALPHA
 10
18.960984
 20
66.044096
 30
0.0
 11
18.850029
 21
66.044096
 31
0.0
  0
LINE
  5
B277
  8
ALPHA
 10
18.850029
 20
65.304096
 30
0.0
 11
18.960984
 21
65.304096
 31
0.0
  0
LINE
  5
B278
  8
ALPHA
 10
18.878707
 20
66.410317
 30
0.0
 11
18.910237
 21
66.392942
 31
0.0
  0
POLYLINE
  5
B279
  8
ALPHA
 66
     1
 10
0.0
 20
0.0
 30
0.0
  0
VERTEX
  5
B7B0
  8
ALPHA
 10
19.691102
 20
63.096233
 30
0.0
  0
VERTEX
  5
B7B1
  8
ALPHA
 10
19.604827
 20
63.134338
 30
0.0
  0
VERTEX
  5
B7B2
  8
ALPHA
 10
19.526315
 20
63.188802
 30
0.0
  0
VERTEX
  5
B7B3
  8
ALPHA
 10
19.458195
 20
63.258651
 30
0.0
  0
VERTEX
  5
B7B4
  8
ALPHA
 10
19.404494
 20
63.340245
 30
0.0
  0
SEQEND
  5
B7B5
  8
ALPHA
  0
POLYLINE
  5
B27A
  8
ALPHA
 66
     1
 10
0.0
 20
0.0
 30
0.0
  0
VERTEX
  5
B7B6
  8
ALPHA
 10
18.850029
 20
66.044096
 30
0.0
  0
VERTEX
  5
B7B7
  8
ALPHA
 10
18.847642
 20
66.045892
 30
0.0
  0
VERTEX
  5
B7B8
  8
ALPHA
 10
18.845699
 20
66.051154
 30
0.0
  0
SEQEND
  5
B7B9
  8
ALPHA
  0
POLYLINE
  5
B27B
  8
ALPHA
 66
     1
 10
0.0
 20
0.0
 30
0.0
  0
VERTEX
  5
B7BA
  8
ALPHA
 10
18.964125
 20
64.752061
 30
0.0
  0
VERTEX
  5
B7BB
  8
ALPHA
 10
18.930994
 20
64.81184
 30
0.0
  0
VERTEX
  5
B7BC
  8
ALPHA
 10
18.903373
 20
64.86975
 30
0.0
  0
VERTEX
  5
B7BD
  8
ALPHA
 10
18.880567
 20
64.925531
 30
0.0
  0
SEQEND
  5
B7BE
  8
ALPHA
  0
POLYLINE
  5
B27C
  8
ALPHA
 66
     1
 10
0.0
 20
0.0
 30
0.0
  0
VERTEX
  5
B7BF
  8
ALPHA
 10
18.846797
 20
65.300571
 30
0.0
  0
VERTEX
  5
B7C0
  8
ALPHA
 10
18.866663
 20
65.17762
 30
0.0
  0
VERTEX
  5
B7C1
  8
ALPHA
 10
18.892003
 20
65.046301
 30
0.0
  0
VERTEX
  5
B7C2
  8
ALPHA
 10
18.924011
 20
64.904938
 30
0.0
  0
VERTEX
  5
B7C3
  8
ALPHA
 10
18.964125
 20
64.752061
 30
0.0
  0
SEQEND
  5
B7C4
  8
ALPHA
  0
POLYLINE
  5
B27D
  8
ALPHA
 66
     1
 10
0.0
 20
0.0
 30
0.0
  0
VERTEX
  5
B7C5
  8
ALPHA
 10
18.880567
 20
64.925531
 30
0.0
  0
VERTEX
  5
B7C6
  8
ALPHA
 10
18.909485
 20
64.755194
 30
0.0
  0
VERTEX
  5
B7C7
  8
ALPHA
 10
18.947833
 20
64.570259
 30
0.0
  0
VERTEX
  5
B7C8
  8
ALPHA
 10
18.998909
 20
64.365616
 30
0.0
  0
VERTEX
  5
B7C9
  8
ALPHA
 10
19.066504
 20
64.138708
 30
0.0
  0
VERTEX
  5
B7CA
  8
ALPHA
 10
19.154058
 20
63.890938
 30
0.0
  0
VERTEX
  5
B7CB
  8
ALPHA
 10
19.265377
 20
63.623993
 30
0.0
  0
VERTEX
  5
B7CC
  8
ALPHA
 10
19.404494
 20
63.340245
 30
0.0
  0
SEQEND
  5
B7CD
  8
ALPHA
  0
LINE
  5
B27E
  8
ALPHA
 10
19.799577
 20
63.016435
 30
0.0
 11
19.799577
 21
68.331756
 31
0.0
  0
LINE
  5
B27F
  8
ALPHA
 10
19.691102
 20
68.251958
 30
0.0
 11
19.691102
 21
68.309978
 31
0.0
  0
LINE
  5
B280
  8
ALPHA
 10
19.691102
 20
63.038214
 30
0.0
 11
19.691102
 21
63.096233
 31
0.0
  0
LINE
  5
B281
  8
ALPHA
 10
19.404494
 20
63.340245
 30
0.0
 11
19.404494
 21
68.007946
 31
0.0
  0
POLYLINE
  5
B282
  8
ALPHA
 66
     1
 10
0.0
 20
0.0
 30
0.0
  0
VERTEX
  5
B7CE
  8
ALPHA
 10
18.960984
 20
65.304096
 30
0.0
  0
VERTEX
  5
B7CF
  8
ALPHA
 10
18.951291
 20
65.48856
 30
0.0
  0
VERTEX
  5
B7D0
  8
ALPHA
 10
18.94804
 20
65.674096
 30
0.0
  0
VERTEX
  5
B7D1
  8
ALPHA
 10
18.951291
 20
65.859632
 30
0.0
  0
VERTEX
  5
B7D2
  8
ALPHA
 10
18.960984
 20
66.044096
 30
0.0
  0
SEQEND
  5
B7D3
  8
ALPHA
  0
POLYLINE
  5
B283
  8
ALPHA
 66
     1
 10
0.0
 20
0.0
 30
0.0
  0
VERTEX
  5
B7D4
  8
ALPHA
 10
18.955433
 20
66.573068
 30
0.0
  0
VERTEX
  5
B7D5
  8
ALPHA
 10
18.90757
 20
66.382313
 30
0.0
  0
VERTEX
  5
B7D6
  8
ALPHA
 10
18.871887
 20
66.209384
 30
0.0
  0
VERTEX
  5
B7D7
  8
ALPHA
 10
18.845699
 20
66.051154
 30
0.0
  0
SEQEND
  5
B7D8
  8
ALPHA
  0
POLYLINE
  5
B284
  8
ALPHA
 66
     1
 10
0.0
 20
0.0
 30
0.0
  0
VERTEX
  5
B7D9
  8
ALPHA
 10
18.846797
 20
65.300571
 30
0.0
  0
VERTEX
  5
B7DA
  8
ALPHA
 10
18.848308
 20
65.303205
 30
0.0
  0
VERTEX
  5
B7DB
  8
ALPHA
 10
18.850029
 20
65.304096
 30
0.0
  0
SEQEND
  5
B7DC
  8
ALPHA
  0
POLYLINE
  5
B285
  8
ALPHA
 66
     1
 10
0.0
 20
0.0
 30
0.0
  0
VERTEX
  5
B7DD
  8
ALPHA
 10
19.404494
 20
68.007946
 30
0.0
  0
VERTEX
  5
B7DE
  8
ALPHA
 10
19.264044
 20
67.721244
 30
0.0
  0
VERTEX
  5
B7DF
  8
ALPHA
 10
19.151945
 20
67.451733
 30
0.0
  0
VERTEX
  5
B7E0
  8
ALPHA
 10
19.064038
 20
67.201852
 30
0.0
  0
VERTEX
  5
B7E1
  8
ALPHA
 10
18.996401
 20
66.973327
 30
0.0
  0
VERTEX
  5
B7E2
  8
ALPHA
 10
18.945484
 20
66.767543
 30
0.0
  0
VERTEX
  5
B7E3
  8
ALPHA
 10
18.907372
 20
66.581666
 30
0.0
  0
VERTEX
  5
B7E4
  8
ALPHA
 10
18.878707
 20
66.410317
 30
0.0
  0
SEQEND
  5
B7E5
  8
ALPHA
  0
POLYLINE
  5
B286
  8
ALPHA
 66
     1
 10
0.0
 20
0.0
 30
0.0
  0
VERTEX
  5
B7E6
  8
ALPHA
 10
18.878707
 20
66.410317
 30
0.0
  0
VERTEX
  5
B7E7
  8
ALPHA
 10
18.899934
 20
66.462866
 30
0.0
  0
VERTEX
  5
B7E8
  8
ALPHA
 10
18.925203
 20
66.516938
 30
0.0
  0
VERTEX
  5
B7E9
  8
ALPHA
 10
18.955433
 20
66.573068
 30
0.0
  0
SEQEND
  5
B7EA
  8
ALPHA
  0
LINE
  5
B287
  8
ALPHA
 10
18.915046
 20
64.94453
 30
0.0
 11
18.880567
 21
64.925531
 31
0.0
  0
POLYLINE
  5
B288
  8
ALPHA
 66
     1
 10
0.0
 20
0.0
 30
0.0
  0
VERTEX
  5
B7EB
  8
ALPHA
 10
19.404494
 20
68.007946
 30
0.0
  0
VERTEX
  5
B7EC
  8
ALPHA
 10
19.458195
 20
68.089541
 30
0.0
  0
VERTEX
  5
B7ED
  8
ALPHA
 10
19.526315
 20
68.15939
 30
0.0
  0
VERTEX
  5
B7EE
  8
ALPHA
 10
19.604827
 20
68.213854
 30
0.0
  0
VERTEX
  5
B7EF
  8
ALPHA
 10
19.691102
 20
68.251958
 30
0.0
  0
SEQEND
  5
B7F0
  8
ALPHA
  0
ARC
  5
B289
  8
ALPHA
 10
20.591102
 20
67.899096
 30
0.0
 40
0.5
 50
86.664142
 51
95.0
  0
POLYLINE
  5
B28A
  8
ALPHA
 66
     1
 10
0.0
 20
0.0
 30
0.0
  0
VERTEX
  5
B7F1
  8
ALPHA
 10
21.24889
 20
64.620989
 30
0.0
  0
VERTEX
  5
B7F2
  8
ALPHA
 10
20.954466
 20
64.622188
 30
0.0
  0
VERTEX
  5
B7F3
  8
ALPHA
 10
20.68702
 20
64.597833
 30
0.0
  0
VERTEX
  5
B7F4
  8
ALPHA
 10
20.47038
 20
64.550097
 30
0.0
  0
VERTEX
  5
B7F5
  8
ALPHA
 10
20.323851
 20
64.483233
 30
0.0
  0
VERTEX
  5
B7F6
  8
ALPHA
 10
20.260488
 20
64.403198
 30
0.0
  0
SEQEND
  5
B7F7
  8
ALPHA
  0
LINE
  5
B28B
  8
ALPHA
 10
20.547524
 20
67.898959
 30
0.0
 11
20.547524
 21
68.397193
 31
0.0
  0
POLYLINE
  5
B28C
  8
ALPHA
 66
     1
 10
0.0
 20
0.0
 30
0.0
  0
VERTEX
  5
B7F8
  8
ALPHA
 10
21.238877
 20
63.096339
 30
0.0
  0
VERTEX
  5
B7F9
  8
ALPHA
 10
21.235485
 20
63.16623
 30
0.0
  0
VERTEX
  5
B7FA
  8
ALPHA
 10
21.23368
 20
63.20745
 30
0.0
  0
VERTEX
  5
B7FB
  8
ALPHA
 10
21.231815
 20
63.253942
 30
0.0
  0
VERTEX
  5
B7FC
  8
ALPHA
 10
21.229937
 20
63.306022
 30
0.0
  0
VERTEX
  5
B7FD
  8
ALPHA
 10
21.228096
 20
63.364322
 30
0.0
  0
VERTEX
  5
B7FE
  8
ALPHA
 10
21.22635
 20
63.429737
 30
0.0
  0
VERTEX
  5
B7FF
  8
ALPHA
 10
21.224793
 20
63.502789
 30
0.0
  0
VERTEX
  5
B800
  8
ALPHA
 10
21.223537
 20
63.584224
 30
0.0
  0
VERTEX
  5
B801
  8
ALPHA
 10
21.222717
 20
63.675752
 30
0.0
  0
VERTEX
  5
B802
  8
ALPHA
 10
21.222529
 20
63.779363
 30
0.0
  0
VERTEX
  5
B803
  8
ALPHA
 10
21.223254
 20
63.89736
 30
0.0
  0
VERTEX
  5
B804
  8
ALPHA
 10
21.225291
 20
64.032464
 30
0.0
  0
VERTEX
  5
B805
  8
ALPHA
 10
21.229214
 20
64.188355
 30
0.0
  0
VERTEX
  5
B806
  8
ALPHA
 10
21.23589
 20
64.370333
 30
0.0
  0
VERTEX
  5
B807
  8
ALPHA
 10
21.246383
 20
64.580722
 30
0.0
  0
SEQEND
  5
B808
  8
ALPHA
  0
LINE
  5
B28D
  8
ALPHA
 10
21.242179
 20
63.035526
 30
0.0
 11
21.238877
 21
63.096339
 31
0.0
  0
LINE
  5
B28E
  8
ALPHA
 10
21.245804
 20
62.974904
 30
0.0
 11
21.242179
 21
63.035526
 31
0.0
  0
POLYLINE
  5
B28F
  8
ALPHA
 66
     1
 10
0.0
 20
0.0
 30
0.0
  0
VERTEX
  5
B809
  8
ALPHA
 10
20.185775
 20
64.518067
 30
0.0
  0
VERTEX
  5
B80A
  8
ALPHA
 10
20.22012
 20
64.972176
 30
0.0
  0
VERTEX
  5
B80B
  8
ALPHA
 10
20.259735
 20
65.433012
 30
0.0
  0
VERTEX
  5
B80C
  8
ALPHA
 10
20.300913
 20
65.86328
 30
0.0
  0
VERTEX
  5
B80D
  8
ALPHA
 10
20.340292
 20
66.240874
 30
0.0
  0
VERTEX
  5
B80E
  8
ALPHA
 10
20.378271
 20
66.580767
 30
0.0
  0
VERTEX
  5
B80F
  8
ALPHA
 10
20.415611
 20
66.896115
 30
0.0
  0
VERTEX
  5
B810
  8
ALPHA
 10
20.451857
 20
67.18726
 30
0.0
  0
VERTEX
  5
B811
  8
ALPHA
 10
20.486508
 20
67.453771
 30
0.0
  0
VERTEX
  5
B812
  8
ALPHA
 10
20.519227
 20
67.696114
 30
0.0
  0
VERTEX
  5
B813
  8
ALPHA
 10
20.549302
 20
67.911702
 30
0.0
  0
VERTEX
  5
B814
  8
ALPHA
 10
20.575352
 20
68.093343
 30
0.0
  0
VERTEX
  5
B815
  8
ALPHA
 10
20.597538
 20
68.244571
 30
0.0
  0
VERTEX
  5
B816
  8
ALPHA
 10
20.616075
 20
68.368629
 30
0.0
  0
VERTEX
  5
B817
  8
ALPHA
 10
20.631639
 20
68.47127
 30
0.0
  0
SEQEND
  5
B818
  8
ALPHA
  0
LINE
  5
B290
  8
ALPHA
 10
20.157533
 20
64.085424
 30
0.0
 11
20.185775
 21
64.518067
 31
0.0
  0
POLYLINE
  5
B291
  8
ALPHA
 66
     1
 10
0.0
 20
0.0
 30
0.0
  0
VERTEX
  5
B819
  8
ALPHA
 10
21.246383
 20
64.580722
 30
0.0
  0
VERTEX
  5
B81A
  8
ALPHA
 10
21.248001
 20
64.607484
 30
0.0
  0
VERTEX
  5
B81B
  8
ALPHA
 10
21.260057
 20
64.793286
 30
0.0
  0
SEQEND
  5
B81C
  8
ALPHA
  0
LINE
  5
B292
  8
ALPHA
 10
20.258115
 20
64.351354
 30
0.0
 11
20.260488
 21
64.403198
 31
0.0
  0
LINE
  5
B293
  8
ALPHA
 10
24.934769
 20
60.189065
 30
0.0
 11
27.845723
 21
60.165107
 31
0.0
  0
LINE
  5
B294
  8
ALPHA
 10
25.988484
 20
60.318972
 30
0.0
 11
27.939347
 21
60.315275
 31
0.0
  0
LINE
  5
B295
  8
ALPHA
 10
25.065055
 20
59.71766
 30
0.0
 11
27.967511
 21
59.7176
 31
0.0
  0
LINE
  5
B296
  8
ALPHA
 10
24.266691
 20
62.538117
 30
0.0
 11
25.491102
 21
62.534801
 31
0.0
  0
POLYLINE
  5
B297
  8
ALPHA
 66
     1
 10
0.0
 20
0.0
 30
0.0
  0
VERTEX
  5
B81D
  8
ALPHA
 10
25.988484
 20
60.318972
 30
0.0
  0
VERTEX
  5
B81E
  8
ALPHA
 10
25.838805
 20
60.327558
 30
0.0
  0
VERTEX
  5
B81F
  8
ALPHA
 10
25.69884
 20
60.352972
 30
0.0
  0
VERTEX
  5
B820
  8
ALPHA
 10
25.589216
 20
60.391697
 30
0.0
  0
VERTEX
  5
B821
  8
ALPHA
 10
25.51645
 20
60.441436
 30
0.0
  0
VERTEX
  5
B822
  8
ALPHA
 10
25.491102
 20
60.496547
 30
0.0
  0
SEQEND
  5
B823
  8
ALPHA
  0
LINE
  5
B298
  8
ALPHA
 10
24.166216
 20
62.88209
 30
0.0
 11
25.491102
 21
62.879147
 31
0.0
  0
LINE
  5
B299
  8
ALPHA
 10
28.105708
 20
59.64689
 30
0.0
 11
27.984981
 21
59.64689
 31
0.0
  0
ARC
  5
B29A
  8
ALPHA
 10
22.914752
 20
71.601555
 30
0.0
 40
1.5
 50
90.500002
 51
163.207254
  0
POLYLINE
  5
B29B
  8
ALPHA
 66
     1
 10
0.0
 20
0.0
 30
0.0
  0
VERTEX
  5
B824
  8
ALPHA
 10
22.80559
 20
72.260077
 30
0.0
  0
VERTEX
  5
B825
  8
ALPHA
 10
22.40871
 20
72.284219
 30
0.0
  0
VERTEX
  5
B826
  8
ALPHA
 10
22.042479
 20
72.232483
 30
0.0
  0
VERTEX
  5
B827
  8
ALPHA
 10
21.734274
 20
72.108737
 30
0.0
  0
VERTEX
  5
B828
  8
ALPHA
 10
21.507138
 20
71.922231
 30
0.0
  0
VERTEX
  5
B829
  8
ALPHA
 10
21.378049
 20
71.686909
 30
0.0
  0
SEQEND
  5
B82A
  8
ALPHA
  0
POLYLINE
  5
B29C
  8
ALPHA
 66
     1
 10
0.0
 20
0.0
 30
0.0
  0
VERTEX
  5
B82B
  8
ALPHA
 10
20.766365
 20
69.03419
 30
0.0
  0
VERTEX
  5
B82C
  8
ALPHA
 10
20.821615
 20
69.329139
 30
0.0
  0
VERTEX
  5
B82D
  8
ALPHA
 10
20.876009
 20
69.604619
 30
0.0
  0
VERTEX
  5
B82E
  8
ALPHA
 10
20.929235
 20
69.861652
 30
0.0
  0
VERTEX
  5
B82F
  8
ALPHA
 10
20.980927
 20
70.100768
 30
0.0
  0
VERTEX
  5
B830
  8
ALPHA
 10
21.030931
 20
70.323233
 30
0.0
  0
VERTEX
  5
B831
  8
ALPHA
 10
21.078734
 20
70.52874
 30
0.0
  0
VERTEX
  5
B832
  8
ALPHA
 10
21.122866
 20
70.712926
 30
0.0
  0
VERTEX
  5
B833
  8
ALPHA
 10
21.165233
 20
70.885117
 30
0.0
  0
VERTEX
  5
B834
  8
ALPHA
 10
21.210205
 20
71.063187
 30
0.0
  0
VERTEX
  5
B835
  8
ALPHA
 10
21.263228
 20
71.267047
 30
0.0
  0
VERTEX
  5
B836
  8
ALPHA
 10
21.325005
 20
71.496516
 30
0.0
  0
SEQEND
  5
B837
  8
ALPHA
  0
LINE
  5
B29D
  8
ALPHA
 10
20.710503
 20
68.718023
 30
0.0
 11
20.766365
 21
69.03419
 31
0.0
  0
POLYLINE
  5
B29E
  8
ALPHA
 66
     1
 10
0.0
 20
0.0
 30
0.0
  0
VERTEX
  5
B838
  8
ALPHA
 10
20.694877
 20
68.878151
 30
0.0
  0
VERTEX
  5
B839
  8
ALPHA
 10
20.702043
 20
68.92197
 30
0.0
  0
VERTEX
  5
B83A
  8
ALPHA
 10
20.707114
 20
68.951843
 30
0.0
  0
VERTEX
  5
B83B
  8
ALPHA
 10
20.709068
 20
68.963021
 30
0.0
  0
SEQEND
  5
B83C
  8
ALPHA
  0
POLYLINE
  5
B29F
  8
ALPHA
 66
     1
 10
0.0
 20
0.0
 30
0.0
  0
VERTEX
  5
B83D
  8
ALPHA
 10
20.658895
 20
68.648375
 30
0.0
  0
VERTEX
  5
B83E
  8
ALPHA
 10
20.684116
 20
68.810318
 30
0.0
  0
VERTEX
  5
B83F
  8
ALPHA
 10
20.694877
 20
68.878151
 30
0.0
  0
SEQEND
  5
B840
  8
ALPHA
  0
LINE
  5
B2A0
  8
ALPHA
 10
21.47686
 20
72.028686
 30
0.0
 11
21.478718
 21
72.034921
 31
0.0
  0
LINE
  5
B2A1
  8
ALPHA
 10
21.454138
 20
71.951601
 30
0.0
 11
21.47686
 21
72.028686
 31
0.0
  0
LINE
  5
B2A2
  8
ALPHA
 10
21.433837
 20
71.881856
 30
0.0
 11
21.454138
 21
71.951601
 31
0.0
  0
LINE
  5
B2A3
  8
ALPHA
 10
21.408266
 20
71.793055
 30
0.0
 11
21.433837
 21
71.881856
 31
0.0
  0
LINE
  5
B2A4
  8
ALPHA
 10
21.378049
 20
71.686909
 30
0.0
 11
21.408266
 21
71.793055
 31
0.0
  0
POLYLINE
  5
B2A5
  8
ALPHA
 66
     1
 10
0.0
 20
0.0
 30
0.0
  0
VERTEX
  5
B841
  8
ALPHA
 10
21.325005
 20
71.496516
 30
0.0
  0
VERTEX
  5
B842
  8
ALPHA
 10
21.342464
 20
71.559845
 30
0.0
  0
VERTEX
  5
B843
  8
ALPHA
 10
21.360128
 20
71.623255
 30
0.0
  0
VERTEX
  5
B844
  8
ALPHA
 10
21.378049
 20
71.686909
 30
0.0
  0
SEQEND
  5
B845
  8
ALPHA
  0
LINE
  5
B2A6
  8
ALPHA
 10
21.478718
 20
72.034921
 30
0.0
 11
20.709075
 21
68.963017
 31
0.0
  0
LINE
  5
B2A7
  8
ALPHA
 10
30.137462
 20
76.002223
 30
0.0
 11
30.570108
 21
75.939827
 31
0.0
  0
LINE
  5
B2A8
  8
ALPHA
 10
25.991102
 20
76.024096
 30
0.0
 11
25.991102
 21
74.25028
 31
0.0
  0
LINE
  5
B2A9
  8
ALPHA
 10
22.80559
 20
72.260077
 30
0.0
 11
25.491102
 21
72.275559
 31
0.0
  0
LINE
  5
B2AA
  8
ALPHA
 10
22.901464
 20
73.101496
 30
0.0
 11
25.491102
 21
73.124096
 31
0.0
  0
POLYLINE
  5
B2AB
  8
ALPHA
 66
     1
 10
0.0
 20
0.0
 30
0.0
  0
VERTEX
  5
B846
  8
ALPHA
 10
22.87821
 20
72.900169
 30
0.0
  0
VERTEX
  5
B847
  8
ALPHA
 10
22.899889
 20
73.086435
 30
0.0
  0
VERTEX
  5
B848
  8
ALPHA
 10
22.901466
 20
73.099833
 30
0.0
  0
VERTEX
  5
B849
  8
ALPHA
 10
22.901661
 20
73.101498
 30
0.0
  0
SEQEND
  5
B84A
  8
ALPHA
  0
LINE
  5
B2AC
  8
ALPHA
 10
22.858837
 20
72.731573
 30
0.0
 11
22.87821
 21
72.900169
 31
0.0
  0
LINE
  5
B2AD
  8
ALPHA
 10
22.834432
 20
72.51684
 30
0.0
 11
22.858837
 21
72.731573
 31
0.0
  0
LINE
  5
B2AE
  8
ALPHA
 10
22.80559
 20
72.260077
 30
0.0
 11
22.834432
 21
72.51684
 31
0.0
  0
POLYLINE
  5
B2AF
  8
ALPHA
 66
     1
 10
0.0
 20
0.0
 30
0.0
  0
VERTEX
  5
B84B
  8
ALPHA
 10
22.754958
 20
72.063507
 30
0.0
  0
VERTEX
  5
B84C
  8
ALPHA
 10
22.771622
 20
72.128893
 30
0.0
  0
VERTEX
  5
B84D
  8
ALPHA
 10
22.788483
 20
72.19436
 30
0.0
  0
VERTEX
  5
B84E
  8
ALPHA
 10
22.80559
 20
72.260077
 30
0.0
  0
SEQEND
  5
B84F
  8
ALPHA
  0
POLYLINE
  5
B2B0
  8
ALPHA
 66
     1
 10
0.0
 20
0.0
 30
0.0
  0
VERTEX
  5
B850
  8
ALPHA
 10
25.991102
 20
74.25028
 30
0.0
  0
VERTEX
  5
B851
  8
ALPHA
 10
25.79976
 20
74.213326
 30
0.0
  0
VERTEX
  5
B852
  8
ALPHA
 10
25.637549
 20
74.108088
 30
0.0
  0
VERTEX
  5
B853
  8
ALPHA
 10
25.529162
 20
73.950588
 30
0.0
  0
VERTEX
  5
B854
  8
ALPHA
 10
25.491102
 20
73.764805
 30
0.0
  0
SEQEND
  5
B855
  8
ALPHA
  0
LINE
  5
B2B1
  8
ALPHA
 10
25.988484
 20
73.279326
 30
0.0
 11
25.491102
 21
73.279326
 31
0.0
  0
LINE
  5
B2B2
  8
ALPHA
 10
25.991102
 20
74.25028
 30
0.0
 11
25.990386
 21
74.151861
 31
0.0
  0
LINE
  5
B2B3
  8
ALPHA
 10
25.990386
 20
74.151861
 30
0.0
 11
25.989624
 21
73.960075
 31
0.0
  0
LINE
  5
B2B4
  8
ALPHA
 10
25.989624
 20
73.960075
 30
0.0
 11
25.988987
 21
73.693598
 31
0.0
  0
LINE
  5
B2B5
  8
ALPHA
 10
25.988987
 20
73.693598
 30
0.0
 11
25.98859
 21
73.408754
 31
0.0
  0
ARC
  5
B2B6
  8
ALPHA
 10
25.991102
 20
75.524096
 30
0.0
 40
0.5
 50
90.0
 51
180.0
  0
LINE
  5
B2B7
  8
ALPHA
 10
29.991102
 20
76.024096
 30
0.0
 11
30.137462
 21
76.002223
 31
0.0
  0
LINE
  5
B2B9
  8
ALPHA
 10
30.570108
 20
75.939827
 30
0.0
 11
31.266263
 21
75.846573
 31
0.0
  0
LINE
  5
B2BA
  8
ALPHA
 10
31.266263
 20
75.846573
 30
0.0
 11
32.194441
 21
75.73609
 31
0.0
  0
LINE
  5
B2BB
  8
ALPHA
 10
50.491102
 20
30.024096
 30
0.0
 11
50.491102
 21
22.024096
 31
0.0
  0
LINE
  5
B2BC
  8
ALPHA
 10
50.191102
 20
11.024096
 30
0.0
 11
50.191102
 21
58.024687
 31
0.0
  0
LINE
  5
B2BE
  8
ALPHA
 10
40.230008
 20
11.024096
 30
0.0
 11
50.191102
 21
11.024096
 31
0.0
  0
ARC
  5
B2BF
  8
ALPHA
 10
39.723327
 20
12.424096
 30
0.0
 40
1.5
 50
270.0
 51
20.0
  0
LINE
  5
B2C0
  8
ALPHA
 10
45.612977
 20
10.974096
 30
0.0
 11
40.086173
 21
10.974096
 31
0.0
  0
LINE
  5
B2C1
  8
ALPHA
 10
40.278484
 20
15.28452
 30
0.0
 11
41.132866
 21
12.937126
 31
0.0
  0
ARC
  5
B2C2
  8
ALPHA
 10
39.150853
 20
14.874096
 30
0.0
 40
1.2
 50
20.0
 51
90.0
  0
ARC
  5
B2C3
  8
ALPHA
 10
45.612977
 20
11.474096
 30
0.0
 40
0.5
 50
270.0
 51
294.521028
  0
LINE
  5
B2C4
  8
ALPHA
 10
50.491102
 20
22.024096
 30
0.0
 11
50.191102
 21
22.024096
 31
0.0
  0
LINE
  5
B2C5
  8
ALPHA
 10
50.491102
 20
75.819043
 30
0.0
 11
50.491102
 21
58.024096
 31
0.0
  0
LINE
  5
B2C6
  8
ALPHA
 10
50.491102
 20
30.024096
 30
0.0
 11
50.191102
 21
30.024096
 31
0.0
  0
LINE
  5
B2C7
  8
ALPHA
 10
50.491102
 20
58.024096
 30
0.0
 11
50.191102
 21
58.024687
 31
0.0
  0
LINE
  5
B2C8
  8
ALPHA
 10
43.787754
 20
75.736089
 30
0.0
 11
44.715938
 21
75.846573
 31
0.0
  0
LINE
  5
B2C9
  8
ALPHA
 10
42.677794
 20
75.625005
 30
0.0
 11
43.787754
 21
75.736089
 31
0.0
  0
LINE
  5
B2CA
  8
ALPHA
 10
44.715938
 20
75.846573
 30
0.0
 11
45.412089
 21
75.939826
 31
0.0
  0
LINE
  5
B2CB
  8
ALPHA
 10
45.412089
 20
75.939826
 30
0.0
 11
45.844742
 21
76.002223
 31
0.0
  0
LINE
  5
B2CC
  8
ALPHA
 10
45.844742
 20
76.002223
 30
0.0
 11
45.991102
 21
76.024096
 31
0.0
  0
LINE
  5
B2CE
  8
ALPHA
 10
50.191102
 20
75.819043
 30
0.0
 11
50.491102
 21
75.819043
 31
0.0
  0
LINE
  5
B2CF
  8
ALPHA
 10
50.191102
 20
75.819043
 30
0.0
 11
50.191102
 21
76.024083
 31
0.0
  0
ENDSEC
  0
EOF
