  0
SECTION
  2
HEADER
  9
$ACADVER
  1
AC1009
  9
$INSBASE
 10
402.590624
 20
-1.041018
 30
0.0
  9
$EXTMIN
 10
139.730093
 20
9.228457
 30
0.0
  9
$EXTMAX
 10
228.602805
 20
205.328457
 30
0.0
  9
$LIMMIN
 10
-407.970438
 20
-367.832444
  9
$LIMMAX
 10
429.804077
 20
234.370848
  9
$ORTHOMODE
 70
     1
  9
$REGENMODE
 70
     1
  9
$FILLMODE
 70
     1
  9
$QTEXTMODE
 70
     0
  9
$MIRRTEXT
 70
     1
  9
$DRAGMODE
 70
     2
  9
$LTSCALE
 40
10.0
  9
$OSMODE
 70
    37
  9
$ATTMODE
 70
     1
  9
$TEXTSIZE
 40
6.0
  9
$TRACEWID
 40
1.0
  9
$TEXTSTYLE
  7
ROMANS
  9
$CLAYER
  8
ALPHA
  9
$CELTYPE
  6
BYLAYER
  9
$CECOLOR
 62
   256
  9
$DIMSCALE
 40
1.0
  9
$DIMASZ
 40
5.0
  9
$DIMEXO
 40
2.0
  9
$DIMDLI
 40
0.38
  9
$DIMRND
 40
0.0
  9
$DIMDLE
 40
0.0
  9
$DIMEXE
 40
2.5
  9
$DIMTP
 40
0.0
  9
$DIMTM
 40
0.0
  9
$DIMTXT
 40
2.5
  9
$DIMCEN
 40
0.0
  9
$DIMTSZ
 40
0.0
  9
$DIMTOL
 70
     0
  9
$DIMLIM
 70
     0
  9
$DIMTIH
 70
     1
  9
$DIMTOH
 70
     1
  9
$DIMSE1
 70
     0
  9
$DIMSE2
 70
     0
  9
$DIMTAD
 70
     1
  9
$DIMZIN
 70
    12
  9
$DIMBLK
  1
OPEN30
  9
$DIMASO
 70
     1
  9
$DIMSHO
 70
     1
  9
$DIMPOST
  1

  9
$DIMAPOST
  1

  9
$DIMALT
 70
     0
  9
$DIMALTD
 70
     2
  9
$DIMALTF
 40
25.4
  9
$DIMLFAC
 40
1.0
  9
$DIMTOFL
 70
     0
  9
$DIMTVP
 40
0.0
  9
$DIMTIX
 70
     0
  9
$DIMSOXD
 70
     0
  9
$DIMSAH
 70
     0
  9
$DIMBLK1
  1

  9
$DIMBLK2
  1

  9
$DIMSTYLE
  2
SC_DEFAUT
  9
$DIMCLRD
 70
     0
  9
$DIMCLRE
 70
     0
  9
$DIMCLRT
 70
     0
  9
$DIMTFAC
 40
1.0
  9
$DIMGAP
 40
2.0
  9
$LUNITS
 70
     2
  9
$LUPREC
 70
     1
  9
$SKETCHINC
 40
0.1
  9
$FILLETRAD
 40
0.0
  9
$AUNITS
 70
     0
  9
$AUPREC
 70
     0
  9
$MENU
  1
acad
  9
$ELEVATION
 40
0.0
  9
$PELEVATION
 40
0.0
  9
$THICKNESS
 40
0.0
  9
$LIMCHECK
 70
     0
  9
$BLIPMODE
 70
     0
  9
$CHAMFERA
 40
0.0
  9
$CHAMFERB
 40
0.0
  9
$SKPOLY
 70
     0
  9
$TDCREATE
 40
2450373.687919
  9
$TDUPDATE
 40
2452849.662592
  9
$TDINDWG
 40
1.655881
  9
$TDUSRTIMER
 40
1.655881
  9
$USRTIMER
 70
     1
  9
$ANGBASE
 50
0.0
  9
$ANGDIR
 70
     0
  9
$PDMODE
 70
    32
  9
$PDSIZE
 40
0.0
  9
$PLINEWID
 40
0.0
  9
$COORDS
 70
     1
  9
$SPLFRAME
 70
     0
  9
$SPLINETYPE
 70
     6
  9
$SPLINESEGS
 70
     8
  9
$ATTDIA
 70
     0
  9
$ATTREQ
 70
     1
  9
$HANDLING
 70
     1
  9
$HANDSEED
  5
12DE1
  9
$SURFTAB1
 70
     6
  9
$SURFTAB2
 70
     6
  9
$SURFTYPE
 70
     6
  9
$SURFU
 70
     6
  9
$SURFV
 70
     6
  9
$UCSNAME
  2

  9
$UCSORG
 10
0.0
 20
0.0
 30
0.0
  9
$UCSXDIR
 10
1.0
 20
0.0
 30
0.0
  9
$UCSYDIR
 10
0.0
 20
1.0
 30
0.0
  9
$PUCSNAME
  2

  9
$PUCSORG
 10
0.0
 20
0.0
 30
0.0
  9
$PUCSXDIR
 10
1.0
 20
0.0
 30
0.0
  9
$PUCSYDIR
 10
0.0
 20
1.0
 30
0.0
  9
$USERI1
 70
     0
  9
$USERI2
 70
     0
  9
$USERI3
 70
     0
  9
$USERI4
 70
     0
  9
$USERI5
 70
     0
  9
$USERR1
 40
0.0
  9
$USERR2
 40
0.0
  9
$USERR3
 40
0.0
  9
$USERR4
 40
0.0
  9
$USERR5
 40
0.0
  9
$WORLDVIEW
 70
     1
  9
$SHADEDGE
 70
     3
  9
$SHADEDIF
 70
    70
  9
$TILEMODE
 70
     1
  9
$MAXACTVP
 70
    16
  9
$PLIMCHECK
 70
     0
  9
$PEXTMIN
 10
-1.452248
 20
-0.437698
 30
0.0
  9
$PEXTMAX
 10
12.749749
 20
8.310198
 30
0.0
  9
$PLIMMIN
 10
0.0
 20
0.0
  9
$PLIMMAX
 10
12.0
 20
9.0
  9
$UNITMODE
 70
     0
  9
$VISRETAIN
 70
     0
  9
$PLINEGEN
 70
     0
  9
$PSLTSCALE
 70
     0
  0
ENDSEC
  0
SECTION
  2
TABLES
  0
TABLE
  2
VPORT
 70
     2
  0
VPORT
  2
*ACTIVE
 70
     0
 10
0.0
 20
0.0
 11
1.0
 21
1.0
 12
184.164184
 22
107.283865
 13
0.0
 23
0.0
 14
1.0
 24
1.0
 15
10.0
 25
10.0
 16
0.0
 26
0.0
 36
1.0
 17
0.0
 27
0.0
 37
0.0
 40
197.815696
 41
1.56
 42
50.0
 43
0.0
 44
0.0
 50
0.0
 51
0.0
 71
     0
 72
   100
 73
     1
 74
     0
 75
     0
 76
     0
 77
     0
 78
     0
  0
ENDTAB
  0
TABLE
  2
LTYPE
 70
     3
  0
LTYPE
  2
CONTINUOUS
 70
     0
  3
Solid line
 72
    65
 73
     0
 40
0.0
  0
LTYPE
  2
AXES2
 70
     0
  3
___ _ ___ _ ___ _ ___ _ ___ _ ___ _ ___ _ ___ _
 72
    65
 73
     4
 40
1.125
 49
0.75
 49
-0.125
 49
0.125
 49
-0.125
  0
LTYPE
  2
CACHE2
 70
     0
  3
Caché (x.5) _ _ _ _ _ _ _ _ _ _ _ _ _ _ _ _ _
 72
    65
 73
     2
 40
0.1875
 49
0.125
 49
-0.0625
  0
ENDTAB
  0
TABLE
  2
LAYER
 70
     6
  0
LAYER
  2
0
 70
     0
 62
   255
  6
CONTINUOUS
  0
LAYER
  2
COTATION1
 70
     0
 62
     2
  6
CONTINUOUS
  0
LAYER
  2
AXE
 70
     0
 62
    80
  6
AXES2
  0
LAYER
  2
DEFPOINTS
 70
     0
 62
     7
  6
CONTINUOUS
  0
LAYER
  2
ALPHA
 70
     0
 62
   254
  6
CONTINUOUS
  0
LAYER
  2
POINTILLE_COURT
 70
     0
 62
    41
  6
CACHE2
  0
ENDTAB
  0
TABLE
  2
STYLE
 70
     2
  0
STYLE
  2
ROMANS
 70
     0
 40
0.0
 41
1.0
 50
0.0
 71
     0
 42
6.0
  3
romans
  4

  0
STYLE
  2
STANDARD
 70
     0
 40
0.2
 41
1.0
 50
0.0
 71
     0
 42
0.2
  3
txt
  4

  0
ENDTAB
  0
TABLE
  2
VIEW
 70
     0
  0
ENDTAB
  0
TABLE
  2
UCS
 70
     0
  0
ENDTAB
  0
TABLE
  2
APPID
 70
     1
  0
APPID
  2
ACAD
 70
     0
  0
ENDTAB
  0
TABLE
  2
DIMSTYLE
 70
     1
  0
DIMSTYLE
  2
SC_DEFAUT
 70
     0
  3

  4

  5
OPEN30
  6

  7

 40
1.0
 41
5.0
 42
2.0
 43
0.38
 44
2.5
 45
0.0
 46
0.0
 47
0.0
 48
0.0
140
2.5
141
0.0
142
0.0
143
25.4
144
1.0
145
0.0
146
1.0
147
2.0
 71
     0
 72
     0
 73
     1
 74
     1
 75
     0
 76
     0
 77
     1
 78
    12
170
     0
171
     2
172
     0
173
     0
174
     0
175
     0
176
     0
177
     0
178
     0
  0
ENDTAB
  0
ENDSEC
  0
SECTION
  2
BLOCKS
  0
BLOCK
  8
0
  2
$MODEL_SPACE
 70
     0
 10
0.0
 20
0.0
 30
0.0
  3
$MODEL_SPACE
  1

  0
ENDBLK
  5
12DB8
  8
0
  0
BLOCK
 67
     1
  8
0
  2
$PAPER_SPACE
 70
     0
 10
0.0
 20
0.0
 30
0.0
  3
$PAPER_SPACE
  1

  0
ENDBLK
  5
12DB6
 67
     1
  8
0
  0
BLOCK
  8
0
  2
COTE
 70
     0
 10
0.0
 20
0.0
 30
0.0
  3
COTE
  1

  0
ENDBLK
  5
F
  8
0
  0
BLOCK
  8
0
  2
FOND
 70
     0
 10
0.0
 20
0.0
 30
0.0
  3
FOND
  1

  0
ENDBLK
  5
75
  8
0
  0
BLOCK
  8
0
  2
_OPEN30
 70
     0
 10
0.0
 20
0.0
 30
0.0
  3
_OPEN30
  1

  0
LINE
  5
4B05
  8
COTATION1
 62
     0
 10
-1.0
 20
0.267949
 30
0.0
 11
0.0
 21
0.0
 31
0.0
1001
ACAD
1000
RTLwPs
1070
   158
  0
LINE
  5
4B06
  8
COTATION1
 62
     0
 10
0.0
 20
0.0
 30
0.0
 11
-1.0
 21
-0.267949
 31
0.0
1001
ACAD
1000
RTLwPs
1070
   158
  0
LINE
  5
4B07
  8
COTATION1
 62
     0
 10
0.0
 20
0.0
 30
0.0
 11
-1.0
 21
0.0
 31
0.0
1001
ACAD
1000
RTLwPs
1070
   158
  0
ENDBLK
  5
4B09
  8
0
  0
BLOCK
  8
0
  2
*D3
 70
     1
 10
0.0
 20
0.0
 30
0.0
  3
*D3
  1

  0
LINE
  5
12C95
  8
COTATION1
 62
     0
 10
182.268189
 20
175.828457
 30
0.0
 11
226.63852
 21
175.828457
 31
0.0
1001
ACAD
1000
RTLwPs
1070
   158
  0
LINE
  5
12C96
  8
COTATION1
 62
     0
 10
203.518189
 20
67.728457
 30
0.0
 11
226.63852
 21
67.728457
 31
0.0
1001
ACAD
1000
RTLwPs
1070
   158
  0
LINE
  5
12C97
  8
COTATION1
 62
     0
 10
224.13852
 20
170.828457
 30
0.0
 11
224.13852
 21
125.028457
 31
0.0
1001
ACAD
1000
RTLwPs
1070
   158
  0
LINE
  5
12C98
  8
COTATION1
 62
     0
 10
224.13852
 20
72.728457
 30
0.0
 11
224.13852
 21
118.528457
 31
0.0
1001
ACAD
1000
RTLwPs
1070
   158
  0
INSERT
  5
12C99
  8
COTATION1
 62
     0
  2
_OPEN30
 10
224.13852
 20
175.828457
 30
0.0
 41
5.0
 42
5.0
 43
5.0
 50
90.0
1001
ACAD
1000
RTLwPs
1070
   158
  0
INSERT
  5
12C9A
  8
COTATION1
 62
     0
  2
_OPEN30
 10
224.13852
 20
67.728457
 30
0.0
 41
5.0
 42
5.0
 43
5.0
 50
270.0
1001
ACAD
1000
RTLwPs
1070
   158
  0
TEXT
  5
12C9B
  8
COTATION1
 62
     0
 10
218.959948
 20
120.528457
 30
0.0
 40
2.5
  1
108.1
1001
ACAD
1000
MTEXTBEGIN
1070
    73
1070
     1
1070
    44
1040
1.0
1070
    74
1070
     0
1000
MTEXTEND
1000
MTEXTBEGIN
1070
    73
1070
     1
1070
    44
1040
1.0
1070
    74
1070
     0
1000
MTEXTEND
  0
POINT
  5
12C9C
  8
DEFPOINTS
 62
     0
 10
180.268189
 20
175.828457
 30
0.0
  0
POINT
  5
12C9D
  8
DEFPOINTS
 62
     0
 10
201.518189
 20
67.728457
 30
0.0
  0
POINT
  5
12C9E
  8
DEFPOINTS
 62
     0
 10
224.13852
 20
67.728457
 30
0.0
  0
ENDBLK
  5
FAFF
  8
0
  0
BLOCK
  8
0
  2
*D4
 70
     1
 10
0.0
 20
0.0
 30
0.0
  3
*D4
  1

  0
LINE
  5
FB95
  8
COTATION1
 62
     0
 10
176.518189
 20
112.728457
 30
0.0
 11
176.518189
 21
39.228457
 31
0.0
1001
ACAD
1000
RTLwPs
1070
   158
  0
LINE
  5
FB96
  8
COTATION1
 62
     0
 10
201.518189
 20
65.728457
 30
0.0
 11
201.518189
 21
39.228457
 31
0.0
1001
ACAD
1000
RTLwPs
1070
   158
  0
LINE
  5
FB97
  8
COTATION1
 62
     0
 10
181.518189
 20
41.728457
 30
0.0
 11
196.518189
 21
41.728457
 31
0.0
1001
ACAD
1000
RTLwPs
1070
   158
  0
INSERT
  5
FB98
  8
COTATION1
 62
     0
  2
_OPEN30
 10
176.518189
 20
41.728457
 30
0.0
 41
5.0
 42
5.0
 43
5.0
 50
180.0
1001
ACAD
1000
RTLwPs
1070
   158
  0
INSERT
  5
FB99
  8
COTATION1
 62
     0
  2
_OPEN30
 10
201.518189
 20
41.728457
 30
0.0
 41
5.0
 42
5.0
 43
5.0
1001
ACAD
1000
RTLwPs
1070
   158
  0
TEXT
  5
FB9A
  8
COTATION1
 62
     0
 10
186.637236
 20
43.728457
 30
0.0
 40
2.5
  1
25
1001
ACAD
1000
MTEXTBEGIN
1070
    73
1070
     1
1070
    44
1040
1.0
1070
    74
1070
     0
1000
MTEXTEND
1000
MTEXTBEGIN
1070
    73
1070
     1
1070
    44
1040
1.0
1070
    74
1070
     0
1000
MTEXTEND
1000
MTEXTBEGIN
1070
    73
1070
     1
1070
    44
1040
1.0
1070
    74
1070
     0
1000
MTEXTEND
1000
MTEXTBEGIN
1070
    73
1070
     1
1070
    44
1040
1.0
1070
    74
1070
     0
1000
MTEXTEND
1000
MTEXTBEGIN
1070
    73
1070
     1
1070
    44
1040
1.0
1070
    74
1070
     0
1000
MTEXTEND
1000
MTEXTBEGIN
1070
    73
1070
     1
1070
    44
1040
1.0
1070
    74
1070
     0
1000
MTEXTEND
1000
MTEXTBEGIN
1070
    73
1070
     1
1070
    44
1040
1.0
1070
    74
1070
     0
1000
MTEXTEND
1000
MTEXTBEGIN
1070
    73
1070
     1
1070
    44
1040
1.0
1070
    74
1070
     0
1000
MTEXTEND
1000
MTEXTBEGIN
1070
    73
1070
     1
1070
    44
1040
1.0
1070
    74
1070
     0
1000
MTEXTEND
1000
MTEXTBEGIN
1070
    73
1070
     1
1070
    44
1040
1.0
1070
    74
1070
     0
1000
MTEXTEND
1000
MTEXTBEGIN
1070
    73
1070
     1
1070
    44
1040
1.0
1070
    74
1070
     0
1000
MTEXTEND
1000
MTEXTBEGIN
1070
    73
1070
     1
1070
    44
1040
1.0
1070
    74
1070
     0
1000
MTEXTEND
1000
MTEXTBEGIN
1070
    73
1070
     1
1070
    44
1040
1.0
1070
    74
1070
     0
1000
MTEXTEND
  0
POINT
  5
FB9B
  8
DEFPOINTS
 62
     0
 10
176.518189
 20
114.728457
 30
0.0
  0
POINT
  5
FB9C
  8
DEFPOINTS
 62
     0
 10
201.518189
 20
67.728457
 30
0.0
  0
POINT
  5
FB9D
  8
DEFPOINTS
 62
     0
 10
201.518189
 20
41.728457
 30
0.0
  0
ENDBLK
  5
FB6D
  8
0
  0
BLOCK
  8
0
  2
*D5
 70
     1
 10
0.0
 20
0.0
 30
0.0
  3
*D5
  1

  0
LINE
  5
FBB0
  8
COTATION1
 62
     0
 10
171.518189
 20
65.728457
 30
0.0
 11
171.518189
 21
29.228457
 31
0.0
1001
ACAD
1000
RTLwPs
1070
   158
  0
LINE
  5
FBB1
  8
COTATION1
 62
     0
 10
201.518189
 20
65.728457
 30
0.0
 11
201.518189
 21
29.228457
 31
0.0
1001
ACAD
1000
RTLwPs
1070
   158
  0
LINE
  5
FBB2
  8
COTATION1
 62
     0
 10
176.518189
 20
31.728457
 30
0.0
 11
196.518189
 21
31.728457
 31
0.0
1001
ACAD
1000
RTLwPs
1070
   158
  0
INSERT
  5
FBB3
  8
COTATION1
 62
     0
  2
_OPEN30
 10
171.518189
 20
31.728457
 30
0.0
 41
5.0
 42
5.0
 43
5.0
 50
180.0
1001
ACAD
1000
RTLwPs
1070
   158
  0
INSERT
  5
FBB4
  8
COTATION1
 62
     0
  2
_OPEN30
 10
201.518189
 20
31.728457
 30
0.0
 41
5.0
 42
5.0
 43
5.0
1001
ACAD
1000
RTLwPs
1070
   158
  0
TEXT
  5
FBB5
  8
COTATION1
 62
     0
 10
184.137236
 20
33.728457
 30
0.0
 40
2.5
  1
30
1001
ACAD
1000
MTEXTBEGIN
1070
    73
1070
     1
1070
    44
1040
1.0
1070
    74
1070
     0
1000
MTEXTEND
1000
MTEXTBEGIN
1070
    73
1070
     1
1070
    44
1040
1.0
1070
    74
1070
     0
1000
MTEXTEND
1000
MTEXTBEGIN
1070
    73
1070
     1
1070
    44
1040
1.0
1070
    74
1070
     0
1000
MTEXTEND
1000
MTEXTBEGIN
1070
    73
1070
     1
1070
    44
1040
1.0
1070
    74
1070
     0
1000
MTEXTEND
1000
MTEXTBEGIN
1070
    73
1070
     1
1070
    44
1040
1.0
1070
    74
1070
     0
1000
MTEXTEND
1000
MTEXTBEGIN
1070
    73
1070
     1
1070
    44
1040
1.0
1070
    74
1070
     0
1000
MTEXTEND
1000
MTEXTBEGIN
1070
    73
1070
     1
1070
    44
1040
1.0
1070
    74
1070
     0
1000
MTEXTEND
1000
MTEXTBEGIN
1070
    73
1070
     1
1070
    44
1040
1.0
1070
    74
1070
     0
1000
MTEXTEND
1000
MTEXTBEGIN
1070
    73
1070
     1
1070
    44
1040
1.0
1070
    74
1070
     0
1000
MTEXTEND
1000
MTEXTBEGIN
1070
    73
1070
     1
1070
    44
1040
1.0
1070
    74
1070
     0
1000
MTEXTEND
1000
MTEXTBEGIN
1070
    73
1070
     1
1070
    44
1040
1.0
1070
    74
1070
     0
1000
MTEXTEND
1000
MTEXTBEGIN
1070
    73
1070
     1
1070
    44
1040
1.0
1070
    74
1070
     0
1000
MTEXTEND
1000
MTEXTBEGIN
1070
    73
1070
     1
1070
    44
1040
1.0
1070
    74
1070
     0
1000
MTEXTEND
  0
POINT
  5
FBB6
  8
DEFPOINTS
 62
     0
 10
171.518189
 20
67.728457
 30
0.0
  0
POINT
  5
FBB7
  8
DEFPOINTS
 62
     0
 10
201.518189
 20
67.728457
 30
0.0
  0
POINT
  5
FBB8
  8
DEFPOINTS
 62
     0
 10
201.518189
 20
31.728457
 30
0.0
  0
ENDBLK
  5
FB79
  8
0
  0
BLOCK
  8
0
  2
*D6
 70
     1
 10
0.0
 20
0.0
 30
0.0
  3
*D6
  1

  0
LINE
  5
12C9F
  8
COTATION1
 62
     0
 10
158.968189
 20
177.828457
 30
0.0
 11
158.968189
 21
193.328457
 31
0.0
1001
ACAD
1000
RTLwPs
1070
   158
  0
LINE
  5
12CA0
  8
COTATION1
 62
     0
 10
164.468189
 20
177.828457
 30
0.0
 11
164.468189
 21
193.328457
 31
0.0
1001
ACAD
1000
RTLwPs
1070
   158
  0
LINE
  5
12CA1
  8
COTATION1
 62
     0
 10
169.468189
 20
190.828457
 30
0.0
 11
174.468189
 21
190.828457
 31
0.0
1001
ACAD
1000
RTLwPs
1070
   158
  0
LINE
  5
12CA2
  8
COTATION1
 62
     0
 10
153.968189
 20
190.828457
 30
0.0
 11
139.730093
 21
190.828457
 31
0.0
1001
ACAD
1000
RTLwPs
1070
   158
  0
INSERT
  5
12CA3
  8
COTATION1
 62
     0
  2
_OPEN30
 10
164.468189
 20
190.828457
 30
0.0
 41
5.0
 42
5.0
 43
5.0
 50
180.0
1001
ACAD
1000
RTLwPs
1070
   158
  0
INSERT
  5
12CA4
  8
COTATION1
 62
     0
  2
_OPEN30
 10
158.968189
 20
190.828457
 30
0.0
 41
5.0
 42
5.0
 43
5.0
1001
ACAD
1000
RTLwPs
1070
   158
  0
TEXT
  5
12CA5
  8
COTATION1
 62
     0
 10
141.372951
 20
192.828457
 30
0.0
 40
2.5
  1
5.5
1001
ACAD
1000
MTEXTBEGIN
1070
    73
1070
     1
1070
    44
1040
1.0
1070
    74
1070
     0
1000
MTEXTEND
1000
MTEXTBEGIN
1070
    73
1070
     1
1070
    44
1040
1.0
1070
    74
1070
     0
1000
MTEXTEND
  0
POINT
  5
12CA6
  8
DEFPOINTS
 62
     0
 10
158.968189
 20
175.828457
 30
0.0
  0
POINT
  5
12CA7
  8
DEFPOINTS
 62
     0
 10
164.468189
 20
175.828457
 30
0.0
  0
POINT
  5
12CA8
  8
DEFPOINTS
 62
     0
 10
164.468189
 20
190.828457
 30
0.0
  0
ENDBLK
  5
10D96
  8
0
  0
BLOCK
  8
0
  2
*D7
 70
     1
 10
0.0
 20
0.0
 30
0.0
  3
*D7
  1

  0
LINE
  5
12CB2
  8
COTATION1
 62
     0
 10
161.718189
 20
182.828457
 30
0.0
 11
161.718189
 21
203.328457
 31
0.0
1001
ACAD
1000
RTLwPs
1070
   158
  0
LINE
  5
12CB3
  8
COTATION1
 62
     0
 10
201.518189
 20
151.578457
 30
0.0
 11
201.518189
 21
203.328457
 31
0.0
1001
ACAD
1000
RTLwPs
1070
   158
  0
LINE
  5
12CB4
  8
COTATION1
 62
     0
 10
166.718189
 20
200.828457
 30
0.0
 11
196.518189
 21
200.828457
 31
0.0
1001
ACAD
1000
RTLwPs
1070
   158
  0
INSERT
  5
12CB5
  8
COTATION1
 62
     0
  2
_OPEN30
 10
161.718189
 20
200.828457
 30
0.0
 41
5.0
 42
5.0
 43
5.0
 50
180.0
1001
ACAD
1000
RTLwPs
1070
   158
  0
INSERT
  5
12CB6
  8
COTATION1
 62
     0
  2
_OPEN30
 10
201.518189
 20
200.828457
 30
0.0
 41
5.0
 42
5.0
 43
5.0
1001
ACAD
1000
RTLwPs
1070
   158
  0
TEXT
  5
12CB7
  8
COTATION1
 62
     0
 10
177.451522
 20
202.828457
 30
0.0
 40
2.5
  1
39.8
1001
ACAD
1000
MTEXTBEGIN
1070
    73
1070
     1
1070
    44
1040
1.0
1070
    74
1070
     0
1000
MTEXTEND
1000
MTEXTBEGIN
1070
    73
1070
     1
1070
    44
1040
1.0
1070
    74
1070
     0
1000
MTEXTEND
  0
POINT
  5
12CB8
  8
DEFPOINTS
 62
     0
 10
161.718189
 20
180.828457
 30
0.0
  0
POINT
  5
12CB9
  8
DEFPOINTS
 62
     0
 10
201.518189
 20
149.578457
 30
0.0
  0
POINT
  5
12CBA
  8
DEFPOINTS
 62
     0
 10
201.518189
 20
200.828457
 30
0.0
  0
ENDBLK
  5
12AAD
  8
0
  0
BLOCK
  8
0
  2
*D8
 70
     1
 10
0.0
 20
0.0
 30
0.0
  3
*D8
  1

  0
LINE
  5
12CA9
  8
COTATION1
 62
     0
 10
177.518189
 20
182.828457
 30
0.0
 11
177.518189
 21
193.328457
 31
0.0
1001
ACAD
1000
RTLwPs
1070
   158
  0
LINE
  5
12CAA
  8
COTATION1
 62
     0
 10
201.518189
 20
151.578457
 30
0.0
 11
201.518189
 21
193.328457
 31
0.0
1001
ACAD
1000
RTLwPs
1070
   158
  0
LINE
  5
12CAB
  8
COTATION1
 62
     0
 10
182.518189
 20
190.828457
 30
0.0
 11
196.518189
 21
190.828457
 31
0.0
1001
ACAD
1000
RTLwPs
1070
   158
  0
INSERT
  5
12CAC
  8
COTATION1
 62
     0
  2
_OPEN30
 10
177.518189
 20
190.828457
 30
0.0
 41
5.0
 42
5.0
 43
5.0
 50
180.0
1001
ACAD
1000
RTLwPs
1070
   158
  0
INSERT
  5
12CAD
  8
COTATION1
 62
     0
  2
_OPEN30
 10
201.518189
 20
190.828457
 30
0.0
 41
5.0
 42
5.0
 43
5.0
1001
ACAD
1000
RTLwPs
1070
   158
  0
TEXT
  5
12CAE
  8
COTATION1
 62
     0
 10
187.077712
 20
192.828457
 30
0.0
 40
2.5
  1
24
1001
ACAD
1000
MTEXTBEGIN
1070
    73
1070
     1
1070
    44
1040
1.0
1070
    74
1070
     0
1000
MTEXTEND
1000
MTEXTBEGIN
1070
    73
1070
     1
1070
    44
1040
1.0
1070
    74
1070
     0
1000
MTEXTEND
  0
POINT
  5
12CAF
  8
DEFPOINTS
 62
     0
 10
177.518189
 20
180.828457
 30
0.0
  0
POINT
  5
12CB0
  8
DEFPOINTS
 62
     0
 10
201.518189
 20
149.578457
 30
0.0
  0
POINT
  5
12CB1
  8
DEFPOINTS
 62
     0
 10
201.518189
 20
190.828457
 30
0.0
  0
ENDBLK
  5
12AEB
  8
0
  0
BLOCK
  8
0
  2
*D9
 70
     1
 10
0.0
 20
0.0
 30
0.0
  3
*D9
  1

  0
LINE
  5
12D0E
  8
COTATION1
 62
     0
 10
164.518189
 20
136.200181
 30
0.0
 11
164.518189
 21
19.228457
 31
0.0
1001
ACAD
1000
RTLwPs
1070
   158
  0
LINE
  5
12D0F
  8
COTATION1
 62
     0
 10
201.518189
 20
55.728457
 30
0.0
 11
201.518189
 21
19.228457
 31
0.0
1001
ACAD
1000
RTLwPs
1070
   158
  0
LINE
  5
12D10
  8
COTATION1
 62
     0
 10
169.518189
 20
21.728457
 30
0.0
 11
196.518189
 21
21.728457
 31
0.0
1001
ACAD
1000
RTLwPs
1070
   158
  0
INSERT
  5
12D11
  8
COTATION1
 62
     0
  2
_OPEN30
 10
164.518189
 20
21.728457
 30
0.0
 41
5.0
 42
5.0
 43
5.0
 50
180.0
1001
ACAD
1000
RTLwPs
1070
   158
  0
INSERT
  5
12D12
  8
COTATION1
 62
     0
  2
_OPEN30
 10
201.518189
 20
21.728457
 30
0.0
 41
5.0
 42
5.0
 43
5.0
1001
ACAD
1000
RTLwPs
1070
   158
  0
TEXT
  5
12D13
  8
COTATION1
 62
     0
 10
180.637236
 20
23.728457
 30
0.0
 40
2.5
  1
37
1001
ACAD
1000
MTEXTBEGIN
1070
    73
1070
     1
1070
    44
1040
1.0
1070
    74
1070
     0
1000
MTEXTEND
  0
POINT
  5
12D14
  8
DEFPOINTS
 62
     0
 10
164.518189
 20
138.200181
 30
0.0
  0
POINT
  5
12D15
  8
DEFPOINTS
 62
     0
 10
201.518189
 20
57.728457
 30
0.0
  0
POINT
  5
12D16
  8
DEFPOINTS
 62
     0
 10
201.518189
 20
21.728457
 30
0.0
  0
ENDBLK
  5
12B30
  8
0
  0
BLOCK
  8
0
  2
*D10
 70
     1
 10
0.0
 20
0.0
 30
0.0
  3
*D10
  1

  0
LINE
  5
12D17
  8
COTATION1
 62
     0
 10
157.018189
 20
161.806862
 30
0.0
 11
157.018189
 21
9.228457
 31
0.0
1001
ACAD
1000
RTLwPs
1070
   158
  0
LINE
  5
12D18
  8
COTATION1
 62
     0
 10
201.518189
 20
45.728457
 30
0.0
 11
201.518189
 21
9.228457
 31
0.0
1001
ACAD
1000
RTLwPs
1070
   158
  0
LINE
  5
12D19
  8
COTATION1
 62
     0
 10
162.018189
 20
11.728457
 30
0.0
 11
196.518189
 21
11.728457
 31
0.0
1001
ACAD
1000
RTLwPs
1070
   158
  0
INSERT
  5
12D1A
  8
COTATION1
 62
     0
  2
_OPEN30
 10
157.018189
 20
11.728457
 30
0.0
 41
5.0
 42
5.0
 43
5.0
 50
180.0
1001
ACAD
1000
RTLwPs
1070
   158
  0
INSERT
  5
12D1B
  8
COTATION1
 62
     0
  2
_OPEN30
 10
201.518189
 20
11.728457
 30
0.0
 41
5.0
 42
5.0
 43
5.0
1001
ACAD
1000
RTLwPs
1070
   158
  0
TEXT
  5
12D1C
  8
COTATION1
 62
     0
 10
175.101522
 20
13.728457
 30
0.0
 40
2.5
  1
44.5
1001
ACAD
1000
MTEXTBEGIN
1070
    73
1070
     1
1070
    44
1040
1.0
1070
    74
1070
     0
1000
MTEXTEND
  0
POINT
  5
12D1D
  8
DEFPOINTS
 62
     0
 10
157.018189
 20
163.806862
 30
0.0
  0
POINT
  5
12D1E
  8
DEFPOINTS
 62
     0
 10
201.518189
 20
47.728457
 30
0.0
  0
POINT
  5
12D1F
  8
DEFPOINTS
 62
     0
 10
201.518189
 20
11.728457
 30
0.0
  0
ENDBLK
  5
12D04
  8
0
  0
ENDSEC
  0
SECTION
  2
ENTITIES
  0
INSERT
  5
A
  8
0
  2
COTE
 10
0.0
 20
0.0
 30
0.0
  0
INSERT
  5
17
  8
0
  2
COTE
 10
284.010391
 20
6.373258
 30
0.0
  0
INSERT
  5
72
  8
0
  2
FOND
 10
0.0
 20
0.0
 30
0.0
  0
LINE
  5
FA20
  8
ALPHA
 10
171.518189
 20
67.728457
 30
0.0
 11
201.518189
 21
67.728457
 31
0.0
  0
LINE
  5
FA21
  8
ALPHA
 10
201.518189
 20
67.728457
 30
0.0
 11
201.518189
 21
149.578457
 31
0.0
  0
LINE
  5
FA23
  8
ALPHA
 10
171.518189
 20
67.728457
 30
0.0
 11
171.518189
 21
114.728457
 31
0.0
  0
LINE
  5
FA26
  8
ALPHA
 10
176.518189
 20
114.728457
 30
0.0
 11
176.518189
 21
149.578457
 31
0.0
  0
LINE
  5
FA30
  8
ALPHA
 10
176.518189
 20
132.228457
 30
0.0
 11
183.518189
 21
132.228457
 31
0.0
  0
LINE
  5
FA32
  8
ALPHA
 10
183.518189
 20
132.228457
 30
0.0
 11
183.518189
 21
128.228457
 31
0.0
  0
LINE
  5
FA35
  8
ALPHA
 10
201.518189
 20
132.228457
 30
0.0
 11
194.518189
 21
132.228457
 31
0.0
  0
LINE
  5
FA37
  8
ALPHA
 10
194.518189
 20
132.228457
 30
0.0
 11
194.518189
 21
128.228457
 31
0.0
  0
LINE
  5
FA38
  8
ALPHA
 10
175.218189
 20
128.228457
 30
0.0
 11
201.518189
 21
128.228457
 31
0.0
  0
LINE
  5
FA39
  8
ALPHA
 10
175.218189
 20
69.728457
 30
0.0
 11
175.218189
 21
128.228457
 31
0.0
  0
LINE
  5
FA3A
  8
ALPHA
 10
171.518189
 20
114.728457
 30
0.0
 11
176.518189
 21
114.728457
 31
0.0
  0
LINE
  5
FA3B
  8
ALPHA
 10
171.518189
 20
69.728457
 30
0.0
 11
175.218189
 21
69.728457
 31
0.0
  0
ARC
  5
FA8D
  8
ALPHA
 10
202.0589
 20
115.533979
 30
0.0
 40
30.551333
 50
157.335498
 51
181.510846
  0
ARC
  5
FA8E
  8
ALPHA
 10
175.251909
 20
126.727707
 30
0.0
 40
1.501129
 50
91.287148
 51
157.32246
  0
DIMENSION
  5
FAE0
  8
COTATION1
  2
*D3
 10
224.13852
 20
67.728457
 30
0.0
 11
224.13852
 21
121.778457
 31
0.0
 13
180.268189
 23
175.828457
 33
0.0
 14
201.518189
 24
67.728457
 34
0.0
 50
90.0
  0
LINE
  5
FAE4
  8
AXE
 10
189.018189
 20
154.578457
 30
0.0
 11
189.018189
 21
51.728457
 31
0.0
  0
TEXT
  5
FAE5
  8
AXE
 10
181.541998
 20
51.728457
 30
0.0
 40
8.0
  1
Y
 72
     2
 11
188.018189
 21
51.728457
 31
0.0
  0
LINE
  5
FB2B
  8
AXE
 10
166.518189
 20
102.728457
 30
0.0
 11
214.018189
 21
102.728457
 31
0.0
  0
TEXT
  5
FB2C
  8
AXE
 10
207.541998
 20
103.728457
 30
0.0
 40
8.0
  1
Z
 72
     2
 11
214.018189
 21
103.728457
 31
0.0
  0
DIMENSION
  5
FB60
  8
COTATION1
  2
*D5
 10
201.518189
 20
31.728457
 30
0.0
 11
186.518189
 21
34.978457
 31
0.0
 13
171.518189
 23
67.728457
 33
0.0
 14
201.518189
 24
67.728457
 34
0.0
  0
DIMENSION
  5
FB61
  8
COTATION1
  2
*D4
 10
201.518189
 20
41.728457
 30
0.0
 11
189.018189
 21
44.978457
 31
0.0
 13
176.518189
 23
114.728457
 33
0.0
 14
201.518189
 24
67.728457
 34
0.0
  0
DIMENSION
  5
10D89
  8
COTATION1
  2
*D6
 10
164.468189
 20
190.828457
 30
0.0
 11
144.349141
 21
190.828457
 31
0.0
 70
   128
 13
158.968189
 23
175.828457
 33
0.0
 14
164.468189
 24
175.828457
 34
0.0
  0
LINE
  5
123D3
  8
ALPHA
 10
158.968189
 20
175.828457
 30
0.0
 11
164.468189
 21
175.828457
 31
0.0
  0
LINE
  5
12834
  8
AXE
 10
161.718189
 20
151.828457
 30
0.0
 11
161.718189
 21
180.828457
 31
0.0
  0
LINE
  5
12835
  8
ALPHA
 10
158.968189
 20
156.828457
 30
0.0
 11
158.968189
 21
175.828457
 31
0.0
  0
LINE
  5
12836
  8
ALPHA
 10
164.468189
 20
156.828457
 30
0.0
 11
164.468189
 21
175.828457
 31
0.0
  0
LINE
  5
12837
  8
ALPHA
 10
158.968189
 20
156.828457
 30
0.0
 11
164.468189
 21
156.828457
 31
0.0
  0
LINE
  5
1283B
  8
AXE
 10
177.518189
 20
151.828457
 30
0.0
 11
177.518189
 21
180.828457
 31
0.0
  0
LINE
  5
1283C
  8
POINTILLE_COURT
 10
174.768189
 20
156.828457
 30
0.0
 11
174.768189
 21
175.828457
 31
0.0
  0
LINE
  5
1283D
  8
POINTILLE_COURT
 10
180.268189
 20
156.828457
 30
0.0
 11
180.268189
 21
175.828457
 31
0.0
  0
LINE
  5
1283E
  8
POINTILLE_COURT
 10
174.768189
 20
156.828457
 30
0.0
 11
180.268189
 21
156.828457
 31
0.0
  0
LINE
  5
1283F
  8
POINTILLE_COURT
 10
174.768189
 20
175.828457
 30
0.0
 11
180.268189
 21
175.828457
 31
0.0
  0
LINE
  5
12841
  8
ALPHA
 10
172.318189
 20
152.396352
 30
0.0
 11
172.318189
 21
131.078457
 31
0.0
  0
LINE
  5
1288A
  8
ALPHA
 10
201.518189
 20
149.578457
 30
0.0
 11
172.318189
 21
149.578457
 31
0.0
  0
LINE
  5
1288B
  8
ALPHA
 10
176.518189
 20
131.078457
 30
0.0
 11
172.318189
 21
131.078457
 31
0.0
  0
POLYLINE
  5
1288E
  8
ALPHA
 66
     1
 10
0.0
 20
0.0
 30
0.0
 70
   128
  0
VERTEX
  5
12DBE
  8
ALPHA
 10
168.331091
 20
140.367925
 30
0.0
  0
VERTEX
  5
12DBF
  8
ALPHA
 10
168.331091
 20
140.322384
 30
0.0
  0
VERTEX
  5
12DC0
  8
ALPHA
 10
168.50927
 20
143.117071
 30
0.0
  0
VERTEX
  5
12DC1
  8
ALPHA
 10
168.397908
 20
144.070107
 30
0.0
  0
VERTEX
  5
12DC2
  8
ALPHA
 10
168.331091
 20
144.436236
 30
0.0
  0
SEQEND
  5
12DC3
  8
ALPHA
  0
LINE
  5
1288F
  8
ALPHA
 10
168.331091
 20
144.436236
 30
0.0
 11
168.310598
 21
144.430164
 31
0.0
  0
LINE
  5
12890
  8
ALPHA
 10
164.765627
 20
144.430164
 30
0.0
 11
164.765627
 21
144.436236
 31
0.0
  0
POLYLINE
  5
12891
  8
ALPHA
 66
     1
 10
0.0
 20
0.0
 30
0.0
 70
   128
  0
VERTEX
  5
12DC4
  8
ALPHA
 10
164.765627
 20
144.436236
 30
0.0
  0
VERTEX
  5
12DC5
  8
ALPHA
 10
164.698703
 20
144.070107
 30
0.0
  0
VERTEX
  5
12DC6
  8
ALPHA
 10
164.587164
 20
143.117071
 30
0.0
  0
VERTEX
  5
12DC7
  8
ALPHA
 10
164.765627
 20
140.322384
 30
0.0
  0
SEQEND
  5
12DC8
  8
ALPHA
  0
LINE
  5
12892
  8
ALPHA
 10
164.765627
 20
140.322384
 30
0.0
 11
164.765627
 21
140.367925
 31
0.0
  0
POLYLINE
  5
12893
  8
ALPHA
 66
     1
 10
0.0
 20
0.0
 30
0.0
 70
   128
  0
VERTEX
  5
12DC9
  8
ALPHA
 10
168.310598
 20
144.430164
 30
0.0
  0
VERTEX
  5
12DCA
  8
ALPHA
 10
167.756696
 20
144.430164
 30
0.0
  0
VERTEX
  5
12DCB
  8
ALPHA
 10
166.538112
 20
144.430164
 30
0.0
  0
VERTEX
  5
12DCC
  8
ALPHA
 10
165.319528
 20
144.430164
 30
0.0
  0
VERTEX
  5
12DCD
  8
ALPHA
 10
164.765627
 20
144.430164
 30
0.0
  0
SEQEND
  5
12DCE
  8
ALPHA
  0
LINE
  5
12894
  8
ALPHA
 10
164.765627
 20
136.255591
 30
0.0
 11
164.742097
 21
136.246482
 31
0.0
  0
POLYLINE
  5
12895
  8
ALPHA
 66
     1
 10
0.0
 20
0.0
 30
0.0
 70
   128
  0
VERTEX
  5
12DCF
  8
ALPHA
 10
164.742097
 20
136.246482
 30
0.0
  0
VERTEX
  5
12DD0
  8
ALPHA
 10
165.299675
 20
136.246482
 30
0.0
  0
VERTEX
  5
12DD1
  8
ALPHA
 10
166.526348
 20
136.246482
 30
0.0
  0
VERTEX
  5
12DD2
  8
ALPHA
 10
167.75302
 20
136.246482
 30
0.0
  0
VERTEX
  5
12DD3
  8
ALPHA
 10
168.310598
 20
136.246482
 30
0.0
  0
SEQEND
  5
12DD4
  8
ALPHA
  0
POLYLINE
  5
12896
  8
ALPHA
 66
     1
 10
0.0
 20
0.0
 30
0.0
 70
   128
  0
VERTEX
  5
12DD5
  8
ALPHA
 10
164.765627
 20
140.367925
 30
0.0
  0
VERTEX
  5
12DD6
  8
ALPHA
 10
164.698703
 20
140.002033
 30
0.0
  0
VERTEX
  5
12DD7
  8
ALPHA
 10
164.587164
 20
139.049518
 30
0.0
  0
VERTEX
  5
12DD8
  8
ALPHA
 10
164.765627
 20
136.255591
 30
0.0
  0
SEQEND
  5
12DD9
  8
ALPHA
  0
POLYLINE
  5
12897
  8
ALPHA
 66
     1
 10
0.0
 20
0.0
 30
0.0
 70
   128
  0
VERTEX
  5
12DDA
  8
ALPHA
 10
168.310598
 20
136.246482
 30
0.0
  0
VERTEX
  5
12DDB
  8
ALPHA
 10
168.331091
 20
136.255591
 30
0.0
  0
VERTEX
  5
12DDC
  8
ALPHA
 10
168.50927
 20
139.049518
 30
0.0
  0
VERTEX
  5
12DDD
  8
ALPHA
 10
168.397908
 20
140.002033
 30
0.0
  0
VERTEX
  5
12DDE
  8
ALPHA
 10
168.331091
 20
140.367925
 30
0.0
  0
SEQEND
  5
12DDF
  8
ALPHA
  0
LINE
  5
12898
  8
ALPHA
 10
164.518189
 20
140.328457
 30
0.0
 11
168.510978
 21
140.328457
 31
0.0
  0
LINE
  5
12899
  8
ALPHA
 10
168.510978
 20
140.334529
 30
0.0
 11
164.518189
 21
140.334529
 31
0.0
  0
LINE
  5
1289A
  8
ALPHA
 10
164.518189
 20
142.379309
 30
0.0
 11
164.518189
 21
140.328457
 31
0.0
  0
LINE
  5
1289B
  8
ALPHA
 10
164.518189
 20
140.334529
 30
0.0
 11
164.518189
 21
138.200181
 31
0.0
  0
LINE
  5
1289C
  8
ALPHA
 10
168.510978
 20
140.328457
 30
0.0
 11
168.510978
 21
142.244206
 31
0.0
  0
LINE
  5
1289D
  8
ALPHA
 10
168.510978
 20
138.08633
 30
0.0
 11
168.510978
 21
140.334529
 31
0.0
  0
LINE
  5
1289F
  8
ALPHA
 10
168.510978
 20
140.328457
 30
0.0
 11
168.510978
 21
147.578457
 31
0.0
  0
LINE
  5
128A0
  8
ALPHA
 10
170.010978
 20
131.328457
 30
0.0
 11
170.010978
 21
152.060508
 31
0.0
  0
LINE
  5
128A1
  8
ALPHA
 10
170.010978
 20
147.578457
 30
0.0
 11
168.510978
 21
147.578457
 31
0.0
  0
LINE
  5
128A2
  8
ALPHA
 10
170.010978
 20
133.078457
 30
0.0
 11
168.510978
 21
133.078457
 31
0.0
  0
LINE
  5
128A3
  8
ALPHA
 10
168.510978
 20
140.328457
 30
0.0
 11
168.510978
 21
133.078457
 31
0.0
  0
LINE
  5
128A4
  8
ALPHA
 10
172.318189
 20
131.328457
 30
0.0
 11
170.010978
 21
131.328457
 31
0.0
  0
LINE
  5
128EC
  8
ALPHA
 10
166.768189
 20
158.136544
 30
0.0
 11
166.768189
 21
170.328457
 31
0.0
  0
LINE
  5
128ED
  8
ALPHA
 10
169.877003
 20
152.560508
 30
0.0
 11
164.736138
 21
156.78821
 31
0.0
  0
LINE
  5
128EE
  8
ALPHA
 10
172.050239
 20
153.396352
 30
0.0
 11
166.902163
 21
157.636544
 31
0.0
  0
ARC
  5
128F0
  8
ALPHA
 10
170.318189
 20
152.396352
 30
0.0
 40
2.0
 50
0.0
 51
30.0
  0
ARC
  5
128F2
  8
ALPHA
 10
166.468189
 20
157.78821
 30
0.0
 40
2.0
 50
180.0
 51
210.0
  0
ARC
  5
128F3
  8
ALPHA
 10
169.010978
 20
152.060508
 30
0.0
 40
1.0
 50
0.0
 51
30.0
  0
ARC
  5
128F4
  8
ALPHA
 10
167.768189
 20
158.136544
 30
0.0
 40
1.0
 50
180.0
 51
210.0
  0
LINE
  5
1293D
  8
ALPHA
 10
166.768189
 20
170.328457
 30
0.0
 11
164.468189
 21
170.328457
 31
0.0
  0
LINE
  5
1293F
  8
ALPHA
 10
157.871746
 20
170.328457
 30
0.0
 11
158.968189
 21
170.328457
 31
0.0
  0
LINE
  5
12941
  8
ALPHA
 10
157.018189
 20
166.328457
 30
0.0
 11
157.018189
 21
168.850052
 31
0.0
  0
LINE
  5
12942
  8
ALPHA
 10
157.018189
 20
168.850052
 30
0.0
 11
157.871746
 21
170.328457
 31
0.0
  0
LINE
  5
12944
  8
ALPHA
 10
157.871746
 20
170.328457
 30
0.0
 11
157.871746
 21
166.328457
 31
0.0
  0
LINE
  5
12945
  8
ALPHA
 10
157.871746
 20
162.328457
 30
0.0
 11
157.871746
 21
166.328457
 31
0.0
  0
LINE
  5
12946
  8
ALPHA
 10
157.018189
 20
163.806862
 30
0.0
 11
157.871746
 21
162.328457
 31
0.0
  0
LINE
  5
12947
  8
ALPHA
 10
157.871746
 20
162.328457
 30
0.0
 11
158.968189
 21
162.328457
 31
0.0
  0
LINE
  5
12948
  8
ALPHA
 10
157.018189
 20
166.328457
 30
0.0
 11
157.018189
 21
163.806862
 31
0.0
  0
ARC
  5
12A5E
  8
POINTILLE_COURT
 10
172.768189
 20
157.78821
 30
0.0
 40
2.0
 50
330.0
 51
0.0
  0
ARC
  5
12A5F
  8
POINTILLE_COURT
 10
171.468189
 20
158.136544
 30
0.0
 40
1.0
 50
330.0
 51
0.0
  0
LINE
  5
12A60
  8
POINTILLE_COURT
 10
172.468189
 20
158.136544
 30
0.0
 11
172.468189
 21
170.328457
 31
0.0
  0
LINE
  5
12A61
  8
POINTILLE_COURT
 10
172.468189
 20
170.328457
 30
0.0
 11
174.768189
 21
170.328457
 31
0.0
  0
LINE
  5
12A62
  8
ALPHA
 10
172.318189
 20
152.396352
 30
0.0
 11
172.318189
 21
131.078457
 31
0.0
  0
LINE
  5
12A67
  8
POINTILLE_COURT
 10
182.218189
 20
166.328457
 30
0.0
 11
182.218189
 21
163.806862
 31
0.0
  0
LINE
  5
12A68
  8
POINTILLE_COURT
 10
181.364631
 20
162.328457
 30
0.0
 11
180.268189
 21
162.328457
 31
0.0
  0
LINE
  5
12A69
  8
POINTILLE_COURT
 10
182.218189
 20
163.806862
 30
0.0
 11
181.364631
 21
162.328457
 31
0.0
  0
LINE
  5
12A6A
  8
POINTILLE_COURT
 10
181.364631
 20
162.328457
 30
0.0
 11
181.364631
 21
166.328457
 31
0.0
  0
LINE
  5
12A6B
  8
POINTILLE_COURT
 10
181.364631
 20
170.328457
 30
0.0
 11
181.364631
 21
166.328457
 31
0.0
  0
LINE
  5
12A6C
  8
POINTILLE_COURT
 10
182.218189
 20
168.850052
 30
0.0
 11
181.364631
 21
170.328457
 31
0.0
  0
LINE
  5
12A6D
  8
POINTILLE_COURT
 10
181.364631
 20
170.328457
 30
0.0
 11
180.268189
 21
170.328457
 31
0.0
  0
LINE
  5
12A6E
  8
POINTILLE_COURT
 10
182.218189
 20
166.328457
 30
0.0
 11
182.218189
 21
168.850052
 31
0.0
  0
DIMENSION
  5
12AA0
  8
COTATION1
  2
*D7
 10
201.518189
 20
200.828457
 30
0.0
 11
181.618189
 21
200.828457
 31
0.0
 70
   128
 13
161.718189
 23
180.828457
 33
0.0
 14
201.518189
 24
149.578457
 34
0.0
  0
DIMENSION
  5
12ADF
  8
COTATION1
  2
*D8
 10
201.518189
 20
190.828457
 30
0.0
 11
189.518189
 21
190.828457
 31
0.0
 70
   128
 13
177.518189
 23
180.828457
 33
0.0
 14
201.518189
 24
149.578457
 34
0.0
  0
DIMENSION
  5
12B24
  8
COTATION1
  2
*D9
 10
201.518189
 20
21.728457
 30
0.0
 11
183.018189
 21
24.978457
 31
0.0
 13
164.518189
 23
138.200181
 33
0.0
 14
201.518189
 24
57.728457
 34
0.0
  0
DIMENSION
  5
12CF8
  8
COTATION1
  2
*D10
 10
201.518189
 20
11.728457
 30
0.0
 11
179.268189
 21
14.978457
 31
0.0
 13
157.018189
 23
163.806862
 33
0.0
 14
201.518189
 24
47.728457
 34
0.0
  0
LINE
  5
12D21
  8
POINTILLE_COURT
 10
172.444939
 20
155.09799
 30
0.0
 11
174.500239
 21
156.78821
 31
0.0
  0
LINE
  5
12D22
  8
POINTILLE_COURT
 10
170.84853
 20
156.412866
 30
0.0
 11
172.334214
 21
157.636544
 31
0.0
  0
VIEWPORT
  5
494D
 67
     1
  8
0
 10
4.995325
 20
6.556512
 30
0.0
 40
22.70986
 41
13.988421
 68
    -1
 69
     1
1001
ACAD
1000
MVIEW
1002
{
1070
    16
1010
0.0
1020
0.0
1030
0.0
1010
0.0
1020
0.0
1030
1.0
1040
0.0
1040
13.988421
1040
4.995325
1040
6.556512
1040
50.0
1040
0.0
1040
0.0
1070
     0
1070
   100
1070
     1
1070
     1
1070
     0
1070
     0
1070
     0
1070
     0
1040
0.0
1040
0.0
1040
0.0
1040
10.0
1040
10.0
1040
10.0
1040
10.0
1070
     0
1002
{
1002
}
1002
}
  0
ENDSEC
  0
EOF
