  0
SECTION
  2
HEADER
  9
$ACADVER
  1
AC1009
  9
$INSBASE
 10
0.0
 20
0.0
 30
0.0
  9
$EXTMIN
 10
99.705768
 20
81.12662
 30
-0.001526
  9
$EXTMAX
 10
157.254176
 20
226.703467
 30
0.0
  9
$LIMMIN
 10
0.0
 20
0.0
  9
$LIMMAX
 10
150.0
 20
150.0
  9
$ORTHOMODE
 70
     0
  9
$REGENMODE
 70
     1
  9
$FILLMODE
 70
     1
  9
$QTEXTMODE
 70
     0
  9
$MIRRTEXT
 70
     1
  9
$DRAGMODE
 70
     2
  9
$LTSCALE
 40
9.777778
  9
$OSMODE
 70
   167
  9
$ATTMODE
 70
     1
  9
$TEXTSIZE
 40
0.2
  9
$TRACEWID
 40
0.05
  9
$TEXTSTYLE
  7
STANDARD
  9
$CLAYER
  8
0
  9
$CELTYPE
  6
BYLAYER
  9
$CECOLOR
 62
   256
  9
$DIMSCALE
 40
1.0
  9
$DIMASZ
 40
2.5
  9
$DIMEXO
 40
1.111111
  9
$DIMDLI
 40
2.0
  9
$DIMRND
 40
0.0
  9
$DIMDLE
 40
0.0
  9
$DIMEXE
 40
3.2
  9
$DIMTP
 40
0.0
  9
$DIMTM
 40
0.0
  9
$DIMTXT
 40
2.008929
  9
$DIMCEN
 40
1.6
  9
$DIMTSZ
 40
0.0
  9
$DIMTOL
 70
     0
  9
$DIMLIM
 70
     0
  9
$DIMTIH
 70
     0
  9
$DIMTOH
 70
     0
  9
$DIMSE1
 70
     0
  9
$DIMSE2
 70
     0
  9
$DIMTAD
 70
     1
  9
$DIMZIN
 70
     8
  9
$DIMBLK
  1

  9
$DIMASO
 70
     1
  9
$DIMSHO
 70
     1
  9
$DIMPOST
  1

  9
$DIMAPOST
  1

  9
$DIMALT
 70
     0
  9
$DIMALTD
 70
     2
  9
$DIMALTF
 40
25.4
  9
$DIMLFAC
 40
1.0
  9
$DIMTOFL
 70
     0
  9
$DIMTVP
 40
0.0
  9
$DIMTIX
 70
     0
  9
$DIMSOXD
 70
     0
  9
$DIMSAH
 70
     0
  9
$DIMBLK1
  1

  9
$DIMBLK2
  1

  9
$DIMSTYLE
  2
STANDARD
  9
$DIMCLRD
 70
     0
  9
$DIMCLRE
 70
     0
  9
$DIMCLRT
 70
     0
  9
$DIMTFAC
 40
1.0
  9
$DIMGAP
 40
1.0
  9
$LUNITS
 70
     2
  9
$LUPREC
 70
     4
  9
$SKETCHINC
 40
0.1
  9
$FILLETRAD
 40
0.0
  9
$AUNITS
 70
     0
  9
$AUPREC
 70
     0
  9
$MENU
  1
.
  9
$ELEVATION
 40
0.0
  9
$PELEVATION
 40
0.0
  9
$THICKNESS
 40
0.0
  9
$LIMCHECK
 70
     0
  9
$BLIPMODE
 70
     0
  9
$CHAMFERA
 40
0.0
  9
$CHAMFERB
 40
0.0
  9
$SKPOLY
 70
     0
  9
$TDCREATE
 40
2452282.428316
  9
$TDUPDATE
 40
2452296.480217
  9
$TDINDWG
 40
0.01228
  9
$TDUSRTIMER
 40
0.01228
  9
$USRTIMER
 70
     1
  9
$ANGBASE
 50
0.0
  9
$ANGDIR
 70
     0
  9
$PDMODE
 70
     0
  9
$PDSIZE
 40
0.0
  9
$PLINEWID
 40
0.0
  9
$COORDS
 70
     2
  9
$SPLFRAME
 70
     0
  9
$SPLINETYPE
 70
     6
  9
$SPLINESEGS
 70
     8
  9
$ATTDIA
 70
     0
  9
$ATTREQ
 70
     1
  9
$HANDLING
 70
     1
  9
$HANDSEED
  5
2A6F
  9
$SURFTAB1
 70
     6
  9
$SURFTAB2
 70
     6
  9
$SURFTYPE
 70
     6
  9
$SURFU
 70
     6
  9
$SURFV
 70
     6
  9
$UCSNAME
  2

  9
$UCSORG
 10
0.0
 20
0.0
 30
0.0
  9
$UCSXDIR
 10
1.0
 20
0.0
 30
0.0
  9
$UCSYDIR
 10
0.0
 20
1.0
 30
0.0
  9
$PUCSNAME
  2

  9
$PUCSORG
 10
0.0
 20
0.0
 30
0.0
  9
$PUCSXDIR
 10
1.0
 20
0.0
 30
0.0
  9
$PUCSYDIR
 10
0.0
 20
1.0
 30
0.0
  9
$USERI1
 70
     0
  9
$USERI2
 70
     0
  9
$USERI3
 70
     0
  9
$USERI4
 70
     0
  9
$USERI5
 70
     0
  9
$USERR1
 40
0.0
  9
$USERR2
 40
0.0
  9
$USERR3
 40
0.0
  9
$USERR4
 40
0.0
  9
$USERR5
 40
0.0
  9
$WORLDVIEW
 70
     1
  9
$SHADEDGE
 70
     3
  9
$SHADEDIF
 70
    70
  9
$TILEMODE
 70
     1
  9
$MAXACTVP
 70
    48
  9
$PLIMCHECK
 70
     0
  9
$PEXTMIN
 10
1.000000E+020
 20
1.000000E+020
 30
1.000000E+020
  9
$PEXTMAX
 10
-1.000000E+020
 20
-1.000000E+020
 30
-1.000000E+020
  9
$PLIMMIN
 10
0.0
 20
0.0
  9
$PLIMMAX
 10
12.0
 20
9.0
  9
$UNITMODE
 70
     0
  9
$VISRETAIN
 70
     1
  9
$PLINEGEN
 70
     0
  9
$PSLTSCALE
 70
     1
  0
ENDSEC
  0
SECTION
  2
TABLES
  0
TABLE
  2
VPORT
 70
     3
  0
VPORT
  2
*ACTIVE
 70
     0
 10
0.0
 20
0.0
 11
1.0
 21
1.0
 12
128.479972
 22
153.915044
 13
0.0
 23
0.0
 14
1.0
 24
1.0
 15
0.0
 25
0.0
 16
0.0
 26
0.0
 36
1.0
 17
0.0
 27
0.0
 37
0.0
 40
147.179528
 41
1.700368
 42
50.0
 43
0.0
 44
0.0
 50
0.0
 51
0.0
 71
     0
 72
   100
 73
     1
 74
     1
 75
     0
 76
     0
 77
     0
 78
     0
  0
ENDTAB
  0
TABLE
  2
LTYPE
 70
     4
  0
LTYPE
  2
CONTINUOUS
 70
     0
  3
Solid line
 72
    65
 73
     0
 40
0.0
  0
ENDTAB
  0
TABLE
  2
LAYER
 70
     2
  0
LAYER
  2
0
 70
     0
 62
     7
  6
CONTINUOUS
  0
LAYER
  2
DEFPOINTS
 70
     0
 62
     7
  6
CONTINUOUS
  0
ENDTAB
  0
TABLE
  2
STYLE
 70
     1
  0
STYLE
  2
STANDARD
 70
     0
 40
0.0
 41
1.0
 50
0.0
 71
     0
 42
0.2
  3
txt
  4

  0
ENDTAB
  0
TABLE
  2
VIEW
 70
     0
  0
ENDTAB
  0
TABLE
  2
UCS
 70
     0
  0
ENDTAB
  0
TABLE
  2
APPID
 70
     1
  0
APPID
  2
ACAD
 70
     0
  0
ENDTAB
  0
TABLE
  2
DIMSTYLE
 70
     1
  0
DIMSTYLE
  2
STANDARD
 70
     0
  3

  4

  5

  6

  7

 40
1.0
 41
0.18
 42
0.0625
 43
0.02
 44
0.1
 45
0.0
 46
0.0
 47
0.0
 48
0.0
140
0.18
141
0.0
142
0.0
143
25.4
144
1.0
145
0.0
146
1.0
147
1.0
 71
     0
 72
     0
 73
     0
 74
     0
 75
     0
 76
     0
 77
     1
 78
     8
170
     0
171
     2
172
     0
173
     0
174
     0
175
     0
176
     0
177
     0
178
     0
  0
ENDTAB
  0
ENDSEC
  0
SECTION
  2
BLOCKS
  0
BLOCK
  8
0
  2
$MODEL_SPACE
 70
     0
 10
0.0
 20
0.0
 30
0.0
  3
$MODEL_SPACE
  1

  0
ENDBLK
  5
20
  8
0
  0
BLOCK
 67
     1
  8
0
  2
$PAPER_SPACE
 70
     0
 10
0.0
 20
0.0
 30
0.0
  3
$PAPER_SPACE
  1

  0
ENDBLK
  5
1C
 67
     1
  8
0
  0
BLOCK
  8
0
  2
*D0
 70
     1
 10
0.0
 20
0.0
 30
0.0
  3
*D0
  1

  0
LINE
  5
278A
  8
0
 62
     0
 10
112.200646
 20
217.235371
 30
0.0
 11
112.200646
 21
224.196548
 31
0.0
1001
ACAD
1000
RTLwPs
1070
   158
  0
LINE
  5
278B
  8
0
 62
     0
 10
157.000646
 20
217.235371
 30
0.0
 11
157.000646
 21
224.196548
 31
0.0
1001
ACAD
1000
RTLwPs
1070
   158
  0
LINE
  5
278C
  8
0
 62
     0
 10
114.700646
 20
223.196548
 30
0.0
 11
154.500646
 21
223.196548
 31
0.0
1001
ACAD
1000
RTLwPs
1070
   158
  0
SOLID
  5
278D
  8
0
 62
     0
 10
114.700646
 20
223.613215
 30
0.0
 11
114.700646
 21
222.779882
 31
0.0
 12
112.200646
 22
223.196548
 32
0.0
 13
112.200646
 23
223.196548
 33
0.0
  0
SOLID
  5
278E
  8
0
 62
     0
 10
154.500646
 20
223.613215
 30
0.0
 11
154.500646
 21
222.779882
 31
0.0
 12
157.000646
 22
223.196548
 32
0.0
 13
157.000646
 23
223.196548
 33
0.0
  0
TEXT
  8
0
  40
2.5
  5
2A6D
  62
0
  72
0
  71
0
 10
130.283
 20
221.022
 30
0.000000
  1
44.8
  0
POINT
  5
2790
  8
DEFPOINTS
 62
     0
 10
112.200646
 20
216.235371
 30
0.0
  0
POINT
  5
2791
  8
DEFPOINTS
 62
     0
 10
157.000646
 20
216.235371
 30
0.0
  0
POINT
  5
2792
  8
DEFPOINTS
 62
     0
 10
157.000646
 20
223.196548
 30
0.0
  0
ENDBLK
  5
26BA
  8
0
  0
BLOCK
  8
0
  2
*D1
 70
     1
 10
0.0
 20
0.0
 30
0.0
  3
*D1
  1

  0
LINE
  5
2781
  8
0
 62
     0
 10
110.500646
 20
215.535371
 30
0.0
 11
102.211133
 21
215.535371
 31
0.0
1001
ACAD
1000
RTLwPs
1070
   158
  0
LINE
  5
2782
  8
0
 62
     0
 10
127.782497
 20
81.135371
 30
0.0
 11
102.211133
 21
81.135371
 31
0.0
1001
ACAD
1000
RTLwPs
1070
   158
  0
LINE
  5
2783
  8
0
 62
     0
 10
103.211133
 20
213.035371
 30
0.0
 11
103.211133
 21
83.635371
 31
0.0
1001
ACAD
1000
RTLwPs
1070
   158
  0
SOLID
  5
2784
  8
0
 62
     0
 10
102.794467
 20
213.035371
 30
0.0
 11
103.6278
 21
213.035371
 31
0.0
 12
103.211133
 22
215.535371
 32
0.0
 13
103.211133
 23
215.535371
 33
0.0
  0
SOLID
  5
2785
  8
0
 62
     0
 10
102.794467
 20
83.635371
 30
0.0
 11
103.6278
 21
83.635371
 31
0.0
 12
103.211133
 22
81.135371
 32
0.0
 13
103.211133
 23
81.135371
 33
0.0
  0
TEXT
  8
0
  40
2.5
  5
2A6E
  62
0
  72
0
  71
0
 10
95.9611
 20
144.422
 30
0.000000
  1
134.4
  0
POINT
  5
2787
  8
DEFPOINTS
 62
     0
 10
111.500646
 20
215.535371
 30
0.0
  0
POINT
  5
2788
  8
DEFPOINTS
 62
     0
 10
128.782497
 20
81.135371
 30
0.0
  0
POINT
  5
2789
  8
DEFPOINTS
 62
     0
 10
103.211133
 20
81.135371
 30
0.0
  0
ENDBLK
  5
26C6
  8
0
  0
ENDSEC
  0
SECTION
  2
ENTITIES
  0
ARC
  5
2406
  8
0
 62
     0
 10
134.600646
 20
234.335371
 30
0.0
 40
129.5
 50
260.450974
 51
271.725771
  0
ARC
  5
2407
  8
0
 62
     0
 10
134.600646
 20
234.335371
 30
0.0
 40
130.0
 50
260.450974
 51
271.719131
  0
ARC
  5
2408
  8
0
 62
     0
 10
134.600646
 20
267.635371
 30
0.0
 40
106.0
 50
258.705216
 51
281.019833
  0
ARC
  5
2409
  8
0
 62
     0
 10
134.600646
 20
271.178448
 30
0.0
 40
109.343077
 50
258.894324
 51
280.839284
  0
ARC
  5
240A
  8
0
 62
     0
 10
134.600646
 20
295.375371
 30
0.0
 40
125.94
 50
259.954003
 51
280.045997
  0
ARC
  5
240B
  8
0
 62
     0
 10
134.600646
 20
295.375371
 30
0.0
 40
126.44
 50
260.177324
 51
279.822676
  0
ARC
  5
240C
  8
0
 62
     0
 10
134.600646
 20
295.375371
 30
0.0
 40
125.24
 50
267.80352
 51
272.19648
  0
LINE
  5
240D
  8
0
 62
     0
 10
145.850646
 20
215.535371
 30
0.0
 11
112.500646
 21
215.535371
 31
0.0
  0
LINE
  5
240E
  8
0
 62
     0
 10
145.750646
 20
215.235371
 30
0.0
 11
112.200646
 21
215.235371
 31
0.0
  0
LINE
  5
240F
  8
0
 62
     0
 10
139.350646
 20
212.504117
 30
0.0
 11
129.850646
 21
212.504117
 31
0.0
  0
POLYLINE
  5
2410
  8
0
 62
     0
 66
     1
 10
0.0
 20
0.0
 30
0.0
  0
VERTEX
  5
280A
  8
0
 62
     0
 10
139.350646
 20
211.535371
 30
0.0
  0
VERTEX
  5
280B
  8
0
 62
     0
 10
136.208616
 20
211.383035
 30
0.0
  0
VERTEX
  5
280C
  8
0
 62
     0
 10
132.992675
 20
211.383035
 30
0.0
  0
VERTEX
  5
280D
  8
0
 62
     0
 10
129.850646
 20
211.535371
 30
0.0
  0
SEQEND
  5
280E
  8
0
 62
     0
  0
LINE
  5
2411
  8
0
 62
     0
 10
139.350646
 20
207.535371
 30
0.0
 11
129.850646
 21
207.535371
 31
0.0
  0
LINE
  5
2412
  8
0
 62
     0
 10
129.850646
 20
206.035371
 30
0.0
 11
139.350646
 21
206.035371
 31
0.0
  0
LINE
  5
2413
  8
0
 62
     0
 10
139.350646
 20
204.535371
 30
0.0
 11
129.850646
 21
204.535371
 31
0.0
  0
LINE
  5
2414
  8
0
 62
     0
 10
129.850646
 20
203.035371
 30
0.0
 11
139.350646
 21
203.035371
 31
0.0
  0
LINE
  5
2415
  8
0
 62
     0
 10
139.350646
 20
201.535371
 30
0.0
 11
129.850646
 21
201.535371
 31
0.0
  0
LINE
  5
2416
  8
0
 62
     0
 10
129.850646
 20
200.035371
 30
0.0
 11
139.350646
 21
200.035371
 31
0.0
  0
LINE
  5
2417
  8
0
 62
     0
 10
139.350646
 20
198.535371
 30
0.0
 11
129.850646
 21
198.535371
 31
0.0
  0
LINE
  5
2418
  8
0
 62
     0
 10
129.850646
 20
197.035371
 30
0.0
 11
139.350646
 21
197.035371
 31
0.0
  0
LINE
  5
2419
  8
0
 62
     0
 10
139.350646
 20
191.535371
 30
0.0
 11
129.850646
 21
191.535371
 31
0.0
  0
LINE
  5
241A
  8
0
 62
     0
 10
129.450646
 20
187.335371
 30
0.0
 11
140.600646
 21
187.335371
 31
0.0
  0
LINE
  5
241B
  8
0
 62
     0
 10
129.450646
 20
186.335371
 30
0.0
 11
139.750646
 21
186.335371
 31
0.0
  0
LINE
  5
241C
  8
0
 62
     0
 10
131.600646
 20
186.035371
 30
0.0
 11
137.600646
 21
186.035371
 31
0.0
  0
LINE
  5
241D
  8
0
 62
     0
 10
129.450646
 20
184.735371
 30
0.0
 11
139.750646
 21
184.735371
 31
0.0
  0
LINE
  5
241E
  8
0
 62
     0
 10
129.800646
 20
181.635371
 30
0.0
 11
139.400646
 21
181.635371
 31
0.0
  0
POLYLINE
  5
241F
  8
0
 62
     0
 66
     1
 10
0.0
 20
0.0
 30
0.0
  0
VERTEX
  5
280F
  8
0
 62
     0
 10
129.800646
 20
181.035371
 30
0.0
  0
VERTEX
  5
2810
  8
0
 62
     0
 10
131.723166
 20
181.356931
 30
0.0
  0
VERTEX
  5
2811
  8
0
 62
     0
 10
133.642001
 20
181.515634
 30
0.0
  0
VERTEX
  5
2812
  8
0
 62
     0
 10
135.55938
 20
181.51563
 30
0.0
  0
VERTEX
  5
2813
  8
0
 62
     0
 10
137.478163
 20
181.356927
 30
0.0
  0
VERTEX
  5
2814
  8
0
 62
     0
 10
139.400646
 20
181.035371
 30
0.0
  0
SEQEND
  5
2815
  8
0
 62
     0
  0
POLYLINE
  5
2420
  8
0
 62
     0
 66
     1
 10
0.0
 20
0.0
 30
0.0
  0
VERTEX
  5
2816
  8
0
 62
     0
 10
133.930707
 20
98.107212
 30
0.0
  0
VERTEX
  5
2817
  8
0
 62
     0
 10
134.120612
 20
98.754053
 30
0.0
  0
VERTEX
  5
2818
  8
0
 62
     0
 10
134.429258
 20
99.351848
 30
0.0
  0
VERTEX
  5
2819
  8
0
 62
     0
 10
134.845164
 20
99.878364
 30
0.0
  0
VERTEX
  5
281A
  8
0
 62
     0
 10
135.35286
 20
100.314022
 30
0.0
  0
VERTEX
  5
281B
  8
0
 62
     0
 10
135.933463
 20
100.642623
 30
0.0
  0
VERTEX
  5
281C
  8
0
 62
     0
 10
136.565379
 20
100.85195
 30
0.0
  0
SEQEND
  5
281D
  8
0
 62
     0
  0
POLYLINE
  5
2421
  8
0
 62
     0
 66
     1
 10
0.0
 20
0.0
 30
0.0
  0
VERTEX
  5
281E
  8
0
 62
     0
 10
140.528532
 20
97.431881
 30
0.0
  0
VERTEX
  5
281F
  8
0
 62
     0
 10
140.465054
 20
98.114435
 30
0.0
  0
VERTEX
  5
2820
  8
0
 62
     0
 10
140.281466
 20
98.772115
 30
0.0
  0
VERTEX
  5
2821
  8
0
 62
     0
 10
139.985105
 20
99.382098
 30
0.0
  0
VERTEX
  5
2822
  8
0
 62
     0
 10
139.58621
 20
99.92505
 30
0.0
  0
VERTEX
  5
2823
  8
0
 62
     0
 10
139.097603
 20
100.383735
 30
0.0
  0
VERTEX
  5
2824
  8
0
 62
     0
 10
138.534992
 20
100.74287
 30
0.0
  0
VERTEX
  5
2825
  8
0
 62
     0
 10
137.91732
 20
100.989798
 30
0.0
  0
VERTEX
  5
2826
  8
0
 62
     0
 10
137.26552
 20
101.115803
 30
0.0
  0
VERTEX
  5
2827
  8
0
 62
     0
 10
136.602185
 20
101.116409
 30
0.0
  0
VERTEX
  5
2828
  8
0
 62
     0
 10
135.94991
 20
100.991655
 30
0.0
  0
VERTEX
  5
2829
  8
0
 62
     0
 10
135.331226
 20
100.745993
 30
0.0
  0
VERTEX
  5
282A
  8
0
 62
     0
 10
134.767138
 20
100.387966
 30
0.0
  0
VERTEX
  5
282B
  8
0
 62
     0
 10
134.276844
 20
99.92992
 30
0.0
  0
VERTEX
  5
282C
  8
0
 62
     0
 10
133.876562
 20
99.386852
 30
0.0
  0
VERTEX
  5
282D
  8
0
 62
     0
 10
133.579782
 20
98.775904
 30
0.0
  0
VERTEX
  5
282E
  8
0
 62
     0
 10
133.397357
 20
98.116514
 30
0.0
  0
VERTEX
  5
282F
  8
0
 62
     0
 10
133.337031
 20
97.431881
 30
0.0
  0
SEQEND
  5
2830
  8
0
 62
     0
  0
POLYLINE
  5
2422
  8
0
 62
     0
 66
     1
 10
0.0
 20
0.0
 30
0.0
  0
VERTEX
  5
2831
  8
0
 62
     0
 10
133.337031
 20
97.431881
 30
0.0
  0
VERTEX
  5
2832
  8
0
 62
     0
 10
133.401496
 20
96.747329
 30
0.0
  0
VERTEX
  5
2833
  8
0
 62
     0
 10
133.587804
 20
96.088207
 30
0.0
  0
VERTEX
  5
2834
  8
0
 62
     0
 10
133.888
 20
95.47761
 30
0.0
  0
VERTEX
  5
2835
  8
0
 62
     0
 10
134.291041
 20
94.934921
 30
0.0
  0
VERTEX
  5
2836
  8
0
 62
     0
 10
134.783296
 20
94.477176
 30
0.0
  0
VERTEX
  5
2837
  8
0
 62
     0
 10
135.348521
 20
94.119212
 30
0.0
  0
VERTEX
  5
2838
  8
0
 62
     0
 10
135.967585
 20
93.87326
 30
0.0
  0
VERTEX
  5
2839
  8
0
 62
     0
 10
136.619675
 20
93.747819
 30
0.0
  0
VERTEX
  5
283A
  8
0
 62
     0
 10
137.282493
 20
93.747441
 30
0.0
  0
VERTEX
  5
283B
  8
0
 62
     0
 10
137.933618
 20
93.872395
 30
0.0
  0
VERTEX
  5
283C
  8
0
 62
     0
 10
138.550517
 20
94.118515
 30
0.0
  0
VERTEX
  5
283D
  8
0
 62
     0
 10
139.11213
 20
94.47734
 30
0.0
  0
VERTEX
  5
283E
  8
0
 62
     0
 10
139.599264
 20
94.936295
 30
0.0
  0
VERTEX
  5
283F
  8
0
 62
     0
 10
139.995971
 20
95.479969
 30
0.0
  0
VERTEX
  5
2840
  8
0
 62
     0
 10
140.28933
 20
96.090839
 30
0.0
  0
VERTEX
  5
2841
  8
0
 62
     0
 10
140.469195
 20
96.749223
 30
0.0
  0
VERTEX
  5
2842
  8
0
 62
     0
 10
140.528532
 20
97.431881
 30
0.0
  0
SEQEND
  5
2843
  8
0
 62
     0
  0
POLYLINE
  5
2423
  8
0
 62
     0
 66
     1
 10
0.0
 20
0.0
 30
0.0
  0
VERTEX
  5
2844
  8
0
 62
     0
 10
133.5761
 20
97.435371
 30
0.0
  0
VERTEX
  5
2845
  8
0
 62
     0
 10
133.637412
 20
96.787024
 30
0.0
  0
VERTEX
  5
2846
  8
0
 62
     0
 10
133.814054
 20
96.163672
 30
0.0
  0
VERTEX
  5
2847
  8
0
 62
     0
 10
134.098497
 20
95.586233
 30
0.0
  0
VERTEX
  5
2848
  8
0
 62
     0
 10
134.480267
 20
95.073026
 30
0.0
  0
VERTEX
  5
2849
  8
0
 62
     0
 10
134.94645
 20
94.640157
 30
0.0
  0
VERTEX
  5
284A
  8
0
 62
     0
 10
135.481656
 20
94.301651
 30
0.0
  0
VERTEX
  5
284B
  8
0
 62
     0
 10
136.067769
 20
94.06907
 30
0.0
  0
VERTEX
  5
284C
  8
0
 62
     0
 10
136.685083
 20
93.950446
 30
0.0
  0
VERTEX
  5
284D
  8
0
 62
     0
 10
137.000776
 20
93.935371
 30
0.0
  0
SEQEND
  5
284E
  8
0
 62
     0
  0
POLYLINE
  5
2424
  8
0
 62
     0
 66
     1
 10
0.0
 20
0.0
 30
0.0
  0
VERTEX
  5
284F
  8
0
 62
     0
 10
133.078999
 20
103.535371
 30
0.0
  0
VERTEX
  5
2850
  8
0
 62
     0
 10
136.453768
 20
102.988382
 30
0.0
  0
VERTEX
  5
2851
  8
0
 62
     0
 10
139.86594
 20
102.646774
 30
0.0
  0
SEQEND
  5
2852
  8
0
 62
     0
  0
LINE
  5
2425
  8
0
 62
     0
 10
136.208384
 20
102.936419
 30
0.0
 11
134.107302
 21
103.245966
 31
0.0
  0
POLYLINE
  5
2426
  8
0
 62
     0
 66
     1
 10
0.0
 20
0.0
 30
0.0
  0
VERTEX
  5
2853
  8
0
 62
     0
 10
140.470395
 20
102.585044
 30
0.0
  0
VERTEX
  5
2854
  8
0
 62
     0
 10
137.881332
 20
102.781696
 30
0.0
  0
VERTEX
  5
2855
  8
0
 62
     0
 10
135.304119
 20
103.098611
 30
0.0
  0
VERTEX
  5
2856
  8
0
 62
     0
 10
132.742713
 20
103.535371
 30
0.0
  0
SEQEND
  5
2857
  8
0
 62
     0
  0
POLYLINE
  5
2427
  8
0
 62
     0
 66
     1
 10
0.0
 20
0.0
 30
0.0
  0
VERTEX
  5
2858
  8
0
 62
     0
 10
140.097052
 20
102.585044
 30
0.0
  0
VERTEX
  5
2859
  8
0
 62
     0
 10
137.507989
 20
102.781696
 30
0.0
  0
VERTEX
  5
285A
  8
0
 62
     0
 10
134.930775
 20
103.098611
 30
0.0
  0
VERTEX
  5
285B
  8
0
 62
     0
 10
132.369369
 20
103.535371
 30
0.0
  0
SEQEND
  5
285C
  8
0
 62
     0
  0
POLYLINE
  5
2428
  8
0
 62
     0
 66
     1
 10
0.0
 20
0.0
 30
0.0
  0
VERTEX
  5
285D
  8
0
 62
     0
 10
142.027816
 20
102.510769
 30
0.0
  0
VERTEX
  5
285E
  8
0
 62
     0
 10
138.697572
 20
102.646774
 30
0.0
  0
VERTEX
  5
285F
  8
0
 62
     0
 10
135.363082
 20
102.988382
 30
0.0
  0
VERTEX
  5
2860
  8
0
 62
     0
 10
132.033083
 20
103.535371
 30
0.0
  0
SEQEND
  5
2861
  8
0
 62
     0
  0
POLYLINE
  5
2429
  8
0
 62
     0
 66
     1
 10
0.0
 20
0.0
 30
0.0
  0
VERTEX
  5
2862
  8
0
 62
     0
 10
146.317489
 20
104.385371
 30
0.0
  0
VERTEX
  5
2863
  8
0
 62
     0
 10
142.148551
 20
103.977195
 30
0.0
  0
VERTEX
  5
2864
  8
0
 62
     0
 10
134.600443
 20
103.73171
 30
0.0
  0
VERTEX
  5
2865
  8
0
 62
     0
 10
132.750646
 20
103.791876
 30
0.0
  0
SEQEND
  5
2866
  8
0
 62
     0
  0
POLYLINE
  5
242A
  8
0
 62
     0
 66
     1
 10
0.0
 20
0.0
 30
0.0
  0
VERTEX
  5
2867
  8
0
 62
     0
 10
136.97834
 20
100.935371
 30
0.0
  0
VERTEX
  5
2868
  8
0
 62
     0
 10
136.667423
 20
100.920745
 30
0.0
  0
VERTEX
  5
2869
  8
0
 62
     0
 10
136.049969
 20
100.802785
 30
0.0
  0
VERTEX
  5
286A
  8
0
 62
     0
 10
135.464287
 20
100.570491
 30
0.0
  0
VERTEX
  5
286B
  8
0
 62
     0
 10
134.930261
 20
100.231937
 30
0.0
  0
VERTEX
  5
286C
  8
0
 62
     0
 10
134.46607
 20
99.798792
 30
0.0
  0
VERTEX
  5
286D
  8
0
 62
     0
 10
134.087073
 20
99.285232
 30
0.0
  0
VERTEX
  5
286E
  8
0
 62
     0
 10
133.806047
 20
98.707464
 30
0.0
  0
VERTEX
  5
286F
  8
0
 62
     0
 10
133.63328
 20
98.083861
 30
0.0
  0
VERTEX
  5
2870
  8
0
 62
     0
 10
133.5761
 20
97.435371
 30
0.0
  0
SEQEND
  5
2871
  8
0
 62
     0
  0
POLYLINE
  5
242B
  8
0
 62
     0
 66
     1
 10
0.0
 20
0.0
 30
0.0
  0
VERTEX
  5
2872
  8
0
 62
     0
 10
137.129528
 20
93.94844
 30
0.0
  0
VERTEX
  5
2873
  8
0
 62
     0
 10
136.565379
 20
94.018793
 30
0.0
  0
VERTEX
  5
2874
  8
0
 62
     0
 10
135.933463
 20
94.22812
 30
0.0
  0
VERTEX
  5
2875
  8
0
 62
     0
 10
135.35286
 20
94.556721
 30
0.0
  0
VERTEX
  5
2876
  8
0
 62
     0
 10
134.845164
 20
94.992379
 30
0.0
  0
VERTEX
  5
2877
  8
0
 62
     0
 10
134.429258
 20
95.518895
 30
0.0
  0
VERTEX
  5
2878
  8
0
 62
     0
 10
134.120612
 20
96.11669
 30
0.0
  0
SEQEND
  5
2879
  8
0
 62
     0
  0
POLYLINE
  5
242C
  8
0
 62
     0
 66
     1
 10
0.0
 20
0.0
 30
0.0
  0
VERTEX
  5
287A
  8
0
 62
     0
 10
114.542459
 20
89.665691
 30
0.0
  0
VERTEX
  5
287B
  8
0
 62
     0
 10
118.524487
 20
89.245634
 30
0.0
  0
VERTEX
  5
287C
  8
0
 62
     0
 10
122.495909
 20
89.04844
 30
0.0
  0
VERTEX
  5
287D
  8
0
 62
     0
 10
126.447841
 20
89.073859
 30
0.0
  0
VERTEX
  5
287E
  8
0
 62
     0
 10
130.372892
 20
89.321868
 30
0.0
  0
VERTEX
  5
287F
  8
0
 62
     0
 10
134.263513
 20
89.792795
 30
0.0
  0
VERTEX
  5
2880
  8
0
 62
     0
 10
138.111571
 20
90.487185
 30
0.0
  0
VERTEX
  5
2881
  8
0
 62
     0
 10
141.909084
 20
91.405876
 30
0.0
  0
SEQEND
  5
2882
  8
0
 62
     0
  0
POLYLINE
  5
242D
  8
0
 62
     0
 66
     1
 10
0.0
 20
0.0
 30
0.0
  0
VERTEX
  5
2883
  8
0
 62
     0
 10
124.050971
 20
88.835371
 30
0.0
  0
VERTEX
  5
2884
  8
0
 62
     0
 10
126.486152
 20
88.87747
 30
0.0
  0
VERTEX
  5
2885
  8
0
 62
     0
 10
130.428077
 20
89.126165
 30
0.0
  0
VERTEX
  5
2886
  8
0
 62
     0
 10
134.335488
 20
89.598388
 30
0.0
  0
VERTEX
  5
2887
  8
0
 62
     0
 10
138.200213
 20
90.294685
 30
0.0
  0
SEQEND
  5
2888
  8
0
 62
     0
  0
POLYLINE
  5
242E
  8
0
 62
     0
 66
     1
 10
0.0
 20
0.0
 30
0.0
  0
VERTEX
  5
2889
  8
0
 62
     0
 10
125.054531
 20
88.838678
 30
0.0
  0
VERTEX
  5
288A
  8
0
 62
     0
 10
129.333805
 20
88.973934
 30
0.0
  0
VERTEX
  5
288B
  8
0
 62
     0
 10
133.951724
 20
89.417675
 30
0.0
  0
VERTEX
  5
288C
  8
0
 62
     0
 10
138.573582
 20
90.167567
 30
0.0
  0
VERTEX
  5
288D
  8
0
 62
     0
 10
139.260608
 20
90.324879
 30
0.0
  0
SEQEND
  5
288E
  8
0
 62
     0
  0
LINE
  5
242F
  8
0
 62
     0
 10
135.256737
 20
89.598388
 30
0.0
 11
131.305794
 21
89.126166
 31
0.0
  0
LINE
  5
2430
  8
0
 62
     0
 10
129.782497
 20
81.635371
 30
0.0
 11
155.000646
 21
81.635371
 31
0.0
  0
LINE
  5
2431
  8
0
 62
     0
 10
129.782497
 20
81.135371
 30
0.0
 11
155.000646
 21
81.135371
 31
0.0
  0
DIMENSION
  5
2432
  8
0
 62
     0
  2
*D0
 10
157.000646
 20
223.196548
 30
0.0
 11
135.283077
 21
223.196548
 31
0.0
 70
   128
 13
112.200646
 23
216.235371
 33
0.0
 14
157.000646
 24
216.235371
 34
0.0
1001
ACAD
1000
DSTYLE
1002
{
1070
    41
1040
2.5
1070
    42
1040
1.0
1070
    43
1040
11.259259
1070
    44
1040
1.0
1070
   140
1040
2.5
1070
   141
1040
2.666667
1070
   271
1070
     2
1002
}
  0
LINE
  5
2435
  8
0
 62
     0
 10
113.600646
 20
153.035371
 30
0.0
 11
113.600646
 21
163.492201
 31
0.0
  0
LINE
  5
2436
  8
0
 62
     0
 10
113.300646
 20
152.835371
 30
0.0
 11
113.300646
 21
163.686701
 31
0.0
  0
LINE
  5
2437
  8
0
 62
     0
 10
112.600646
 20
149.335371
 30
0.0
 11
112.600646
 21
170.976653
 31
0.0
  0
LINE
  5
2438
  8
0
 62
     0
 10
112.100646
 20
149.335371
 30
0.0
 11
112.100646
 21
200.986245
 31
0.0
  0
DIMENSION
  5
2439
  8
0
 62
     0
  2
*D1
 10
103.211133
 20
81.135371
 30
0.0
 11
103.211133
 21
148.846889
 31
0.0
 70
   128
 13
111.500646
 23
215.535371
 33
0.0
 14
128.782497
 24
81.135371
 34
0.0
 50
270.0
1001
ACAD
1000
DSTYLE
1002
{
1070
    41
1040
2.5
1070
    42
1040
1.0
1070
    43
1040
11.259259
1070
    44
1040
1.0
1070
   140
1040
2.5
1070
   141
1040
2.666667
1070
   271
1070
     2
1002
}
  0
ARC
  5
243A
  8
0
 62
     0
 10
129.782497
 20
82.135371
 30
0.0
 40
0.499999
 50
182.0
 51
270.0
  0
ARC
  5
243B
  8
0
 62
     0
 10
129.782497
 20
82.135371
 30
0.0
 40
1.0
 50
182.0
 51
270.0
  0
LINE
  5
243C
  8
0
 62
     0
 10
129.782497
 20
81.635371
 30
0.0
 11
129.782497
 21
81.135371
 31
0.0
  0
LINE
  5
243D
  8
0
 62
     0
 10
112.200646
 20
129.835371
 30
0.0
 11
112.200646
 21
104.823784
 31
0.0
  0
LINE
  5
243E
  8
0
 62
     0
 10
112.100646
 20
131.835371
 30
0.0
 11
112.700646
 21
119.835371
 31
0.0
  0
LINE
  5
243F
  8
0
 62
     0
 10
113.988427
 20
103.535371
 30
0.0
 11
131.447452
 21
103.535371
 31
0.0
  0
LINE
  5
2440
  8
0
 62
     0
 10
117.164622
 20
103.402664
 30
0.0
 11
130.887299
 21
103.402664
 31
0.0
  0
POLYLINE
  5
2441
  8
0
 62
     0
 66
     1
 10
0.0
 20
0.0
 30
0.0
  0
VERTEX
  5
288F
  8
0
 62
     0
 10
130.965927
 20
103.212126
 30
0.0
  0
VERTEX
  5
2890
  8
0
 62
     0
 10
130.603806
 20
103.130844
 30
0.0
  0
VERTEX
  5
2891
  8
0
 62
     0
 10
130.211112
 20
103.050869
 30
0.0
  0
VERTEX
  5
2892
  8
0
 62
     0
 10
129.775674
 20
102.971845
 30
0.0
  0
VERTEX
  5
2893
  8
0
 62
     0
 10
129.285985
 20
102.894706
 30
0.0
  0
VERTEX
  5
2894
  8
0
 62
     0
 10
128.730208
 20
102.821574
 30
0.0
  0
VERTEX
  5
2895
  8
0
 62
     0
 10
128.09554
 20
102.755757
 30
0.0
  0
VERTEX
  5
2896
  8
0
 62
     0
 10
127.387196
 20
102.70276
 30
0.0
  0
VERTEX
  5
2897
  8
0
 62
     0
 10
126.666541
 20
102.668233
 30
0.0
  0
VERTEX
  5
2898
  8
0
 62
     0
 10
125.993328
 20
102.650285
 30
0.0
  0
VERTEX
  5
2899
  8
0
 62
     0
 10
125.364803
 20
102.642472
 30
0.0
  0
VERTEX
  5
289A
  8
0
 62
     0
 10
124.789145
 20
102.639858
 30
0.0
  0
VERTEX
  5
289B
  8
0
 62
     0
 10
124.281743
 20
102.639247
 30
0.0
  0
VERTEX
  5
289C
  8
0
 62
     0
 10
123.835348
 20
102.639265
 30
0.0
  0
VERTEX
  5
289D
  8
0
 62
     0
 10
123.434818
 20
102.639716
 30
0.0
  0
VERTEX
  5
289E
  8
0
 62
     0
 10
123.083705
 20
102.640772
 30
0.0
  0
VERTEX
  5
289F
  8
0
 62
     0
 10
122.770651
 20
102.642621
 30
0.0
  0
VERTEX
  5
28A0
  8
0
 62
     0
 10
122.479509
 20
102.645472
 30
0.0
  0
VERTEX
  5
28A1
  8
0
 62
     0
 10
122.194366
 20
102.649661
 30
0.0
  0
VERTEX
  5
28A2
  8
0
 62
     0
 10
121.899886
 20
102.655783
 30
0.0
  0
VERTEX
  5
28A3
  8
0
 62
     0
 10
121.581227
 20
102.664855
 30
0.0
  0
VERTEX
  5
28A4
  8
0
 62
     0
 10
121.224322
 20
102.678514
 30
0.0
  0
VERTEX
  5
28A5
  8
0
 62
     0
 10
120.824429
 20
102.698797
 30
0.0
  0
VERTEX
  5
28A6
  8
0
 62
     0
 10
120.382612
 20
102.728019
 30
0.0
  0
VERTEX
  5
28A7
  8
0
 62
     0
 10
119.888802
 20
102.769942
 30
0.0
  0
VERTEX
  5
28A8
  8
0
 62
     0
 10
119.345509
 20
102.828247
 30
0.0
  0
VERTEX
  5
28A9
  8
0
 62
     0
 10
118.82875
 20
102.896285
 30
0.0
  0
VERTEX
  5
28AA
  8
0
 62
     0
 10
118.35195
 20
102.970474
 30
0.0
  0
VERTEX
  5
28AB
  8
0
 62
     0
 10
117.912773
 20
103.048868
 30
0.0
  0
VERTEX
  5
28AC
  8
0
 62
     0
 10
117.508376
 20
103.129848
 30
0.0
  0
VERTEX
  5
28AD
  8
0
 62
     0
 10
117.135753
 20
103.212126
 30
0.0
  0
SEQEND
  5
28AE
  8
0
 62
     0
  0
POLYLINE
  5
2442
  8
0
 62
     0
 66
     1
 10
0.0
 20
0.0
 30
0.0
  0
VERTEX
  5
28AF
  8
0
 62
     0
 10
130.887299
 20
103.402664
 30
0.0
  0
VERTEX
  5
28B0
  8
0
 62
     0
 10
130.529083
 20
103.322216
 30
0.0
  0
VERTEX
  5
28B1
  8
0
 62
     0
 10
130.140625
 20
103.243072
 30
0.0
  0
VERTEX
  5
28B2
  8
0
 62
     0
 10
129.7098
 20
103.164871
 30
0.0
  0
VERTEX
  5
28B3
  8
0
 62
     0
 10
129.22517
 20
103.088534
 30
0.0
  0
VERTEX
  5
28B4
  8
0
 62
     0
 10
128.674911
 20
103.01616
 30
0.0
  0
VERTEX
  5
28B5
  8
0
 62
     0
 10
128.046171
 20
102.951023
 30
0.0
  0
VERTEX
  5
28B6
  8
0
 62
     0
 10
127.344041
 20
102.89859
 30
0.0
  0
VERTEX
  5
28B7
  8
0
 62
     0
 10
126.629035
 20
102.864437
 30
0.0
  0
VERTEX
  5
28B8
  8
0
 62
     0
 10
125.959954
 20
102.846678
 30
0.0
  0
VERTEX
  5
28B9
  8
0
 62
     0
 10
125.334245
 20
102.838947
 30
0.0
  0
VERTEX
  5
28BA
  8
0
 62
     0
 10
124.760243
 20
102.836358
 30
0.0
  0
VERTEX
  5
28BB
  8
0
 62
     0
 10
124.253768
 20
102.835753
 30
0.0
  0
VERTEX
  5
28BC
  8
0
 62
     0
 10
123.808154
 20
102.835771
 30
0.0
  0
VERTEX
  5
28BD
  8
0
 62
     0
 10
123.408543
 20
102.836217
 30
0.0
  0
VERTEX
  5
28BE
  8
0
 62
     0
 10
123.058537
 20
102.837262
 30
0.0
  0
VERTEX
  5
28BF
  8
0
 62
     0
 10
122.746751
 20
102.839092
 30
0.0
  0
VERTEX
  5
28C0
  8
0
 62
     0
 10
122.457038
 20
102.841913
 30
0.0
  0
VERTEX
  5
28C1
  8
0
 62
     0
 10
122.173521
 20
102.846058
 30
0.0
  0
VERTEX
  5
28C2
  8
0
 62
     0
 10
121.880949
 20
102.852117
 30
0.0
  0
VERTEX
  5
28C3
  8
0
 62
     0
 10
121.564595
 20
102.861095
 30
0.0
  0
VERTEX
  5
28C4
  8
0
 62
     0
 10
121.210548
 20
102.874611
 30
0.0
  0
VERTEX
  5
28C5
  8
0
 62
     0
 10
120.814149
 20
102.894682
 30
0.0
  0
VERTEX
  5
28C6
  8
0
 62
     0
 10
120.376462
 20
102.923599
 30
0.0
  0
VERTEX
  5
28C7
  8
0
 62
     0
 10
119.887575
 20
102.965083
 30
0.0
  0
VERTEX
  5
28C8
  8
0
 62
     0
 10
119.35003
 20
103.022766
 30
0.0
  0
VERTEX
  5
28C9
  8
0
 62
     0
 10
118.838774
 20
103.090098
 30
0.0
  0
VERTEX
  5
28CA
  8
0
 62
     0
 10
118.367193
 20
103.163515
 30
0.0
  0
VERTEX
  5
28CB
  8
0
 62
     0
 10
117.932908
 20
103.241092
 30
0.0
  0
VERTEX
  5
28CC
  8
0
 62
     0
 10
117.53307
 20
103.321229
 30
0.0
  0
VERTEX
  5
28CD
  8
0
 62
     0
 10
117.164622
 20
103.402664
 30
0.0
  0
SEQEND
  5
28CE
  8
0
 62
     0
  0
POLYLINE
  5
2443
  8
0
 62
     0
 66
     1
 10
0.0
 20
0.0
 30
0.0
  0
VERTEX
  5
28CF
  8
0
 62
     0
 10
114.529273
 20
89.470921
 30
0.0
  0
VERTEX
  5
28D0
  8
0
 62
     0
 10
119.171649
 20
89.002789
 30
0.0
  0
VERTEX
  5
28D1
  8
0
 62
     0
 10
124.051004
 20
88.835377
 30
0.0
  0
SEQEND
  5
28D2
  8
0
 62
     0
  0
POLYLINE
  5
2444
  8
0
 62
     0
 66
     1
 10
0.0
 20
0.0
 30
0.0
  0
VERTEX
  5
28D3
  8
0
 62
     0
 10
114.358193
 20
89.665797
 30
0.0
  0
VERTEX
  5
28D4
  8
0
 62
     0
 10
114.289556
 20
94.253979
 30
0.0
  0
VERTEX
  5
28D5
  8
0
 62
     0
 10
114.220817
 20
98.877124
 30
0.0
  0
VERTEX
  5
28D6
  8
0
 62
     0
 10
114.151978
 20
103.535371
 30
0.0
  0
SEQEND
  5
28D7
  8
0
 62
     0
  0
POLYLINE
  5
2445
  8
0
 62
     0
 66
     1
 10
0.0
 20
0.0
 30
0.0
  0
VERTEX
  5
28D8
  8
0
 62
     0
 10
114.542459
 20
89.665691
 30
0.0
  0
VERTEX
  5
28D9
  8
0
 62
     0
 10
114.473715
 20
94.25398
 30
0.0
  0
VERTEX
  5
28DA
  8
0
 62
     0
 10
114.404866
 20
98.877124
 30
0.0
  0
VERTEX
  5
28DB
  8
0
 62
     0
 10
114.33591
 20
103.535371
 30
0.0
  0
SEQEND
  5
28DC
  8
0
 62
     0
  0
LINE
  5
2446
  8
0
 62
     0
 10
113.988427
 20
103.535371
 30
0.0
 11
114.229579
 21
89.71979
 31
0.0
  0
POLYLINE
  5
2447
  8
0
 62
     0
 66
     1
 10
0.0
 20
0.0
 30
0.0
  0
VERTEX
  5
28DD
  8
0
 62
     0
 10
114.231372
 20
89.696382
 30
0.0
  0
VERTEX
  5
28DE
  8
0
 62
     0
 10
114.263897
 20
89.609557
 30
0.0
  0
VERTEX
  5
28DF
  8
0
 62
     0
 10
114.307502
 20
89.560949
 30
0.0
  0
SEQEND
  5
28E0
  8
0
 62
     0
  0
POLYLINE
  5
2448
  8
0
 62
     0
 66
     1
 10
0.0
 20
0.0
 30
0.0
  0
VERTEX
  5
28E1
  8
0
 62
     0
 10
114.229574
 20
89.720139
 30
0.0
  0
VERTEX
  5
28E2
  8
0
 62
     0
 10
114.242829
 20
89.706212
 30
0.0
  0
VERTEX
  5
28E3
  8
0
 62
     0
 10
114.289627
 20
89.686335
 30
0.0
  0
VERTEX
  5
28E4
  8
0
 62
     0
 10
114.358193
 20
89.665797
 30
0.0
  0
SEQEND
  5
28E5
  8
0
 62
     0
  0
LINE
  5
2449
  8
0
 62
     0
 10
114.229571
 20
89.720255
 30
0.0
 11
114.231372
 21
89.696382
 31
0.0
  0
POLYLINE
  5
244A
  8
0
 62
     0
 66
     1
 10
0.0
 20
0.0
 30
0.0
  0
VERTEX
  5
28E6
  8
0
 62
     0
 10
114.542459
 20
89.665678
 30
0.0
  0
VERTEX
  5
28E7
  8
0
 62
     0
 10
114.5336
 20
89.590801
 30
0.0
  0
VERTEX
  5
28E8
  8
0
 62
     0
 10
114.527978
 20
89.527036
 30
0.0
  0
SEQEND
  5
28E9
  8
0
 62
     0
  0
LINE
  5
244B
  8
0
 62
     0
 10
114.527978
 20
89.527036
 30
0.0
 11
114.526561
 21
89.484939
 31
0.0
  0
POLYLINE
  5
244C
  8
0
 62
     0
 66
     1
 10
0.0
 20
0.0
 30
0.0
  0
VERTEX
  5
28EA
  8
0
 62
     0
 10
114.358195
 20
89.665678
 30
0.0
  0
VERTEX
  5
28EB
  8
0
 62
     0
 10
114.370988
 20
89.597063
 30
0.0
  0
VERTEX
  5
28EC
  8
0
 62
     0
 10
114.406914
 20
89.536708
 30
0.0
  0
VERTEX
  5
28ED
  8
0
 62
     0
 10
114.462563
 20
89.492304
 30
0.0
  0
VERTEX
  5
28EE
  8
0
 62
     0
 10
114.502212
 20
89.476448
 30
0.0
  0
SEQEND
  5
28EF
  8
0
 62
     0
  0
LINE
  5
244D
  8
0
 62
     0
 10
114.526561
 20
89.484939
 30
0.0
 11
114.529427
 21
89.470899
 31
0.0
  0
POLYLINE
  5
244E
  8
0
 62
     0
 66
     1
 10
0.0
 20
0.0
 30
0.0
  0
VERTEX
  5
28F0
  8
0
 62
     0
 10
114.307502
 20
89.560949
 30
0.0
  0
VERTEX
  5
28F1
  8
0
 62
     0
 10
114.343333
 20
89.53602
 30
0.0
  0
VERTEX
  5
28F2
  8
0
 62
     0
 10
114.37383
 20
89.520329
 30
0.0
  0
VERTEX
  5
28F3
  8
0
 62
     0
 10
114.40351
 20
89.507955
 30
0.0
  0
VERTEX
  5
28F4
  8
0
 62
     0
 10
114.435059
 20
89.496715
 30
0.0
  0
VERTEX
  5
28F5
  8
0
 62
     0
 10
114.469865
 20
89.485745
 30
0.0
  0
VERTEX
  5
28F6
  8
0
 62
     0
 10
114.502313
 20
89.47642
 30
0.0
  0
SEQEND
  5
28F7
  8
0
 62
     0
  0
POLYLINE
  5
244F
  8
0
 62
     0
 66
     1
 10
0.0
 20
0.0
 30
0.0
  0
VERTEX
  5
28F8
  8
0
 62
     0
 10
114.358195
 20
89.665678
 30
0.0
  0
VERTEX
  5
28F9
  8
0
 62
     0
 10
114.379679
 20
89.664954
 30
0.0
  0
VERTEX
  5
28FA
  8
0
 62
     0
 10
114.42092
 20
89.664704
 30
0.0
  0
VERTEX
  5
28FB
  8
0
 62
     0
 10
114.47729
 20
89.664954
 30
0.0
  0
VERTEX
  5
28FC
  8
0
 62
     0
 10
114.542459
 20
89.665678
 30
0.0
  0
SEQEND
  5
28FD
  8
0
 62
     0
  0
LINE
  5
2450
  8
0
 62
     0
 10
114.502212
 20
89.476448
 30
0.0
 11
114.50234
 21
89.476413
 31
0.0
  0
LINE
  5
2451
  8
0
 62
     0
 10
114.502212
 20
89.476448
 30
0.0
 11
114.529431
 21
89.470899
 31
0.0
  0
LINE
  5
2452
  8
0
 62
     0
 10
116.250662
 20
105.235371
 30
0.0
 11
119.723823
 21
105.235371
 31
0.0
  0
LINE
  5
2453
  8
0
 62
     0
 10
112.700646
 20
119.835371
 30
0.0
 11
112.700646
 21
107.122793
 31
0.0
  0
LINE
  5
2454
  8
0
 62
     0
 10
111.950646
 20
107.404798
 30
0.0
 11
111.950646
 21
115.228754
 31
0.0
  0
LINE
  5
2455
  8
0
 62
     0
 10
116.307249
 20
105.235371
 30
0.0
 11
112.542847
 21
105.845242
 31
0.0
  0
LINE
  5
2456
  8
0
 62
     0
 10
116.250646
 20
104.384816
 30
0.0
 11
112.446416
 21
104.997777
 31
0.0
  0
LINE
  5
2457
  8
0
 62
     0
 10
115.516697
 20
104.035371
 30
0.0
 11
113.250646
 21
104.035371
 31
0.0
  0
LINE
  5
2458
  8
0
 62
     0
 10
112.443834
 20
104.529092
 30
0.0
 11
116.250646
 21
103.917447
 31
0.0
  0
ARC
  5
2459
  8
0
 62
     0
 10
113.200646
 20
107.122793
 30
0.0
 40
1.0
 50
180.0
 51
260.450974
  0
LINE
  5
245A
  8
0
 62
     0
 10
112.545028
 20
106.197369
 30
0.0
 11
112.542846
 21
105.845239
 31
0.0
  0
ARC
  5
245B
  8
0
 62
     0
 10
112.500646
 20
104.823664
 30
0.0
 40
0.3
 50
180.0
 51
259.083755
  0
LINE
  5
245C
  8
0
 62
     0
 10
112.542847
 20
105.845242
 30
0.0
 11
112.522358
 21
105.666639
 31
0.0
  0
POLYLINE
  5
245D
  8
0
 62
     0
 66
     1
 10
0.0
 20
0.0
 30
0.0
  0
VERTEX
  5
28FE
  8
0
 62
     0
 10
112.522358
 20
105.666639
 30
0.0
  0
VERTEX
  5
28FF
  8
0
 62
     0
 10
112.508387
 20
105.544363
 30
0.0
  0
VERTEX
  5
2900
  8
0
 62
     0
 10
112.493517
 20
105.413897
 30
0.0
  0
VERTEX
  5
2901
  8
0
 62
     0
 10
112.479305
 20
105.288899
 30
0.0
  0
VERTEX
  5
2902
  8
0
 62
     0
 10
112.457241
 20
105.094091
 30
0.0
  0
SEQEND
  5
2903
  8
0
 62
     0
  0
LINE
  5
245E
  8
0
 62
     0
 10
112.457241
 20
105.094091
 30
0.0
 11
112.446417
 21
104.997778
 31
0.0
  0
LINE
  5
245F
  8
0
 62
     0
 10
112.446416
 20
104.997778
 30
0.0
 11
112.443834
 21
104.529093
 31
0.0
  0
POLYLINE
  5
2460
  8
0
 62
     0
 66
     1
 10
0.0
 20
0.0
 30
0.0
  0
VERTEX
  5
2904
  8
0
 62
     0
 10
112.542847
 20
105.845242
 30
0.0
  0
VERTEX
  5
2905
  8
0
 62
     0
 10
112.415767
 20
105.838377
 30
0.0
  0
VERTEX
  5
2906
  8
0
 62
     0
 10
112.303999
 20
105.793096
 30
0.0
  0
VERTEX
  5
2907
  8
0
 62
     0
 10
112.227705
 20
105.717566
 30
0.0
  0
VERTEX
  5
2908
  8
0
 62
     0
 10
112.200646
 20
105.625412
 30
0.0
  0
SEQEND
  5
2909
  8
0
 62
     0
  0
POLYLINE
  5
2461
  8
0
 62
     0
 66
     1
 10
0.0
 20
0.0
 30
0.0
  0
VERTEX
  5
290A
  8
0
 62
     0
 10
112.446416
 20
104.997778
 30
0.0
  0
VERTEX
  5
290B
  8
0
 62
     0
 10
112.32034
 20
105.050471
 30
0.0
  0
VERTEX
  5
290C
  8
0
 62
     0
 10
112.232232
 20
105.151285
 30
0.0
  0
VERTEX
  5
290D
  8
0
 62
     0
 10
112.200646
 20
105.278992
 30
0.0
  0
SEQEND
  5
290E
  8
0
 62
     0
  0
ARC
  5
2462
  8
0
 62
     0
 10
113.250646
 20
104.335371
 30
0.0
 40
0.3
 50
180.0
 51
270.0
  0
LINE
  5
2463
  8
0
 62
     0
 10
112.950646
 20
104.335371
 30
0.0
 11
112.950646
 21
104.447662
 31
0.0
  0
LINE
  5
2464
  8
0
 62
     0
 10
113.649529
 20
104.335371
 30
0.0
 11
112.950646
 21
104.335371
 31
0.0
  0
ARC
  5
2465
  8
0
 62
     0
 10
113.200646
 20
107.122793
 30
0.0
 40
0.499999
 50
180.0
 51
260.450974
  0
LINE
  5
2466
  8
0
 62
     0
 10
113.119217
 20
106.088662
 30
0.0
 11
112.832053
 21
106.142669
 31
0.0
  0
ARC
  5
2467
  8
0
 62
     0
 10
112.950646
 20
107.404798
 30
0.0
 40
1.0
 50
180.0
 51
220.782421
  0
LINE
  5
2468
  8
0
 62
     0
 10
112.500646
 20
106.410917
 30
0.0
 11
112.500646
 21
106.20159
 31
0.0
  0
LINE
  5
2469
  8
0
 62
     0
 10
112.200646
 20
109.183289
 30
0.0
 11
111.950646
 21
109.183289
 31
0.0
  0
LINE
  5
246A
  8
0
 62
     0
 10
112.700646
 20
107.122793
 30
0.0
 11
112.200646
 21
107.122793
 31
0.0
  0
POLYLINE
  5
246B
  8
0
 62
     0
 66
     1
 10
0.0
 20
0.0
 30
0.0
  0
VERTEX
  5
290F
  8
0
 62
     0
 10
112.500646
 20
106.20159
 30
0.0
  0
VERTEX
  5
2910
  8
0
 62
     0
 10
112.379468
 20
106.189328
 30
0.0
  0
VERTEX
  5
2911
  8
0
 62
     0
 10
112.282312
 20
106.15627
 30
0.0
  0
VERTEX
  5
2912
  8
0
 62
     0
 10
112.221106
 20
106.109394
 30
0.0
  0
VERTEX
  5
2913
  8
0
 62
     0
 10
112.200646
 20
106.05631
 30
0.0
  0
SEQEND
  5
2914
  8
0
 62
     0
  0
LINE
  5
246C
  8
0
 62
     0
 10
112.832053
 20
106.142669
 30
0.0
 11
112.545033
 21
106.197391
 31
0.0
  0
POLYLINE
  5
246D
  8
0
 62
     0
 66
     1
 10
0.0
 20
0.0
 30
0.0
  0
VERTEX
  5
2915
  8
0
 62
     0
 10
112.500646
 20
106.20159
 30
0.0
  0
VERTEX
  5
2916
  8
0
 62
     0
 10
112.515452
 20
106.201121
 30
0.0
  0
VERTEX
  5
2917
  8
0
 62
     0
 10
112.530249
 20
106.199711
 30
0.0
  0
VERTEX
  5
2918
  8
0
 62
     0
 10
112.545033
 20
106.197391
 30
0.0
  0
SEQEND
  5
2919
  8
0
 62
     0
  0
LINE
  5
246E
  8
0
 62
     0
 10
113.1177
 20
106.629721
 30
0.0
 11
113.034754
 21
106.136649
 31
0.0
  0
LINE
  5
246F
  8
0
 62
     0
 10
113.406525
 20
106.035371
 30
0.0
 11
113.119217
 21
106.088662
 31
0.0
  0
LINE
  5
2470
  8
0
 62
     0
 10
113.786415
 20
106.035371
 30
0.0
 11
113.406525
 21
106.035371
 31
0.0
  0
POLYLINE
  5
2471
  8
0
 62
     0
 66
     1
 10
0.0
 20
0.0
 30
0.0
  0
VERTEX
  5
291A
  8
0
 62
     0
 10
117.135753
 20
103.212126
 30
0.0
  0
VERTEX
  5
291B
  8
0
 62
     0
 10
116.443121
 20
103.373212
 30
0.0
  0
VERTEX
  5
291C
  8
0
 62
     0
 10
115.75467
 20
103.535371
 30
0.0
  0
SEQEND
  5
291D
  8
0
 62
     0
  0
LINE
  5
2472
  8
0
 62
     0
 10
116.250646
 20
103.535371
 30
0.0
 11
116.250646
 21
105.235371
 31
0.0
  0
POLYLINE
  5
2473
  8
0
 62
     0
 66
     1
 10
0.0
 20
0.0
 30
0.0
  0
VERTEX
  5
291E
  8
0
 62
     0
 10
117.164621
 20
103.402662
 30
0.0
  0
VERTEX
  5
291F
  8
0
 62
     0
 10
117.165922
 20
103.383362
 30
0.0
  0
VERTEX
  5
2920
  8
0
 62
     0
 10
117.160989
 20
103.341084
 30
0.0
  0
VERTEX
  5
2921
  8
0
 62
     0
 10
117.150472
 20
103.281389
 30
0.0
  0
VERTEX
  5
2922
  8
0
 62
     0
 10
117.135753
 20
103.212126
 30
0.0
  0
SEQEND
  5
2923
  8
0
 62
     0
  0
LINE
  5
2474
  8
0
 62
     0
 10
116.748916
 20
105.535371
 30
0.0
 11
117.000646
 21
105.235371
 31
0.0
  0
LINE
  5
2475
  8
0
 62
     0
 10
116.749047
 20
105.535371
 30
0.0
 11
116.977933
 21
105.535371
 31
0.0
  0
POLYLINE
  5
2476
  8
0
 62
     0
 66
     1
 10
0.0
 20
0.0
 30
0.0
  0
VERTEX
  5
2924
  8
0
 62
     0
 10
117.164622
 20
103.402664
 30
0.0
  0
VERTEX
  5
2925
  8
0
 62
     0
 10
116.879298
 20
103.468888
 30
0.0
  0
VERTEX
  5
2926
  8
0
 62
     0
 10
116.594572
 20
103.535371
 30
0.0
  0
SEQEND
  5
2927
  8
0
 62
     0
  0
LINE
  5
2477
  8
0
 62
     0
 10
112.200646
 20
115.228754
 30
0.0
 11
111.950646
 21
115.228754
 31
0.0
  0
LINE
  5
2478
  8
0
 62
     0
 10
131.305794
 20
89.126166
 30
0.0
 11
127.363912
 21
88.87747
 31
0.0
  0
LINE
  5
2479
  8
0
 62
     0
 10
129.282801
 20
82.117922
 30
0.0
 11
128.783106
 21
82.100472
 31
0.0
  0
LINE
  5
247A
  8
0
 62
     0
 10
127.363912
 20
88.87747
 30
0.0
 11
125.227244
 21
88.8402
 31
0.0
  0
LINE
  5
247B
  8
0
 62
     0
 10
124.326998
 20
88.835371
 30
0.0
 11
124.584282
 21
88.835824
 31
0.0
  0
LINE
  5
247C
  8
0
 62
     0
 10
124.048286
 20
88.835371
 30
0.0
 11
124.326998
 21
88.835371
 31
0.0
  0
LINE
  5
247D
  8
0
 62
     0
 10
124.584282
 20
88.835824
 30
0.0
 11
124.835501
 21
88.837059
 31
0.0
  0
POLYLINE
  5
247E
  8
0
 62
     0
 66
     1
 10
0.0
 20
0.0
 30
0.0
  0
VERTEX
  5
2928
  8
0
 62
     0
 10
124.835501
 20
88.837059
 30
0.0
  0
VERTEX
  5
2929
  8
0
 62
     0
 10
125.065572
 20
88.83876
 30
0.0
  0
VERTEX
  5
292A
  8
0
 62
     0
 10
125.256498
 20
88.84046
 30
0.0
  0
VERTEX
  5
292B
  8
0
 62
     0
 10
125.39682
 20
88.841715
 30
0.0
  0
VERTEX
  5
292C
  8
0
 62
     0
 10
125.475239
 20
88.842173
 30
0.0
  0
VERTEX
  5
292D
  8
0
 62
     0
 10
125.490428
 20
88.841969
 30
0.0
  0
SEQEND
  5
292E
  8
0
 62
     0
  0
LINE
  5
247F
  8
0
 62
     0
 10
128.543951
 20
88.948969
 30
0.0
 11
128.783106
 21
82.100472
 31
0.0
  0
LINE
  5
2480
  8
0
 62
     0
 10
129.043704
 20
88.964765
 30
0.0
 11
129.282801
 21
82.117922
 31
0.0
  0
POLYLINE
  5
2481
  8
0
 62
     0
 66
     1
 10
0.0
 20
0.0
 30
0.0
  0
VERTEX
  5
292F
  8
0
 62
     0
 10
134.116249
 20
96.131548
 30
0.0
  0
VERTEX
  5
2930
  8
0
 62
     0
 10
134.157214
 20
96.219077
 30
0.0
  0
VERTEX
  5
2931
  8
0
 62
     0
 10
134.317903
 20
96.817501
 30
0.0
  0
VERTEX
  5
2932
  8
0
 62
     0
 10
134.372037
 20
97.435371
 30
0.0
  0
SEQEND
  5
2933
  8
0
 62
     0
  0
POLYLINE
  5
2482
  8
0
 62
     0
 66
     1
 10
0.0
 20
0.0
 30
0.0
  0
VERTEX
  5
2934
  8
0
 62
     0
 10
134.120612
 20
96.11669
 30
0.0
  0
VERTEX
  5
2935
  8
0
 62
     0
 10
133.930707
 20
96.763531
 30
0.0
  0
VERTEX
  5
2936
  8
0
 62
     0
 10
133.866609
 20
97.435371
 30
0.0
  0
SEQEND
  5
2937
  8
0
 62
     0
  0
LINE
  5
2483
  8
0
 62
     0
 10
134.239953
 20
97.435371
 30
0.0
 11
134.303883
 21
98.105453
 31
0.0
  0
LINE
  5
2484
  8
0
 62
     0
 10
133.866609
 20
97.435371
 30
0.0
 11
133.930707
 21
98.107212
 31
0.0
  0
POLYLINE
  5
2485
  8
0
 62
     0
 66
     1
 10
0.0
 20
0.0
 30
0.0
  0
VERTEX
  5
2938
  8
0
 62
     0
 10
134.372037
 20
97.435371
 30
0.0
  0
VERTEX
  5
2939
  8
0
 62
     0
 10
134.317903
 20
98.053242
 30
0.0
  0
VERTEX
  5
293A
  8
0
 62
     0
 10
134.157214
 20
98.651666
 30
0.0
  0
VERTEX
  5
293B
  8
0
 62
     0
 10
134.116249
 20
98.739195
 30
0.0
  0
SEQEND
  5
293C
  8
0
 62
     0
  0
LINE
  5
2486
  8
0
 62
     0
 10
134.303883
 20
96.76529
 30
0.0
 11
134.239953
 21
97.435371
 31
0.0
  0
LINE
  5
2487
  8
0
 62
     0
 10
131.548763
 20
103.535371
 30
0.0
 11
132.369369
 21
103.535371
 31
0.0
  0
LINE
  5
2488
  8
0
 62
     0
 10
131.550549
 20
103.35027
 30
0.0
 11
131.548763
 21
103.535371
 31
0.0
  0
POLYLINE
  5
2489
  8
0
 62
     0
 66
     1
 10
0.0
 20
0.0
 30
0.0
  0
VERTEX
  5
293D
  8
0
 62
     0
 10
131.487661
 20
103.521609
 30
0.0
  0
VERTEX
  5
293E
  8
0
 62
     0
 10
131.520966
 20
103.481671
 30
0.0
  0
VERTEX
  5
293F
  8
0
 62
     0
 10
131.54281
 20
103.420993
 30
0.0
  0
VERTEX
  5
2940
  8
0
 62
     0
 10
131.550549
 20
103.35027
 30
0.0
  0
SEQEND
  5
2941
  8
0
 62
     0
  0
POLYLINE
  5
248A
  8
0
 62
     0
 66
     1
 10
0.0
 20
0.0
 30
0.0
  0
VERTEX
  5
2942
  8
0
 62
     0
 10
130.887299
 20
103.402664
 30
0.0
  0
VERTEX
  5
2943
  8
0
 62
     0
 10
130.905365
 20
103.383363
 30
0.0
  0
VERTEX
  5
2944
  8
0
 62
     0
 10
130.926333
 20
103.341085
 30
0.0
  0
VERTEX
  5
2945
  8
0
 62
     0
 10
130.947446
 20
103.281389
 30
0.0
  0
VERTEX
  5
2946
  8
0
 62
     0
 10
130.965927
 20
103.212126
 30
0.0
  0
SEQEND
  5
2947
  8
0
 62
     0
  0
LINE
  5
248B
  8
0
 62
     0
 10
131.447452
 20
103.535371
 30
0.0
 11
131.487661
 21
103.521609
 31
0.0
  0
POLYLINE
  5
248C
  8
0
 62
     0
 66
     1
 10
0.0
 20
0.0
 30
0.0
  0
VERTEX
  5
2948
  8
0
 62
     0
 10
131.550549
 20
103.35027
 30
0.0
  0
VERTEX
  5
2949
  8
0
 62
     0
 10
131.254706
 20
103.280119
 30
0.0
  0
VERTEX
  5
294A
  8
0
 62
     0
 10
130.965927
 20
103.212126
 30
0.0
  0
SEQEND
  5
294B
  8
0
 62
     0
  0
POLYLINE
  5
248D
  8
0
 62
     0
 66
     1
 10
0.0
 20
0.0
 30
0.0
  0
VERTEX
  5
294C
  8
0
 62
     0
 10
131.447451
 20
103.535371
 30
0.0
  0
VERTEX
  5
294D
  8
0
 62
     0
 10
131.164064
 20
103.468014
 30
0.0
  0
VERTEX
  5
294E
  8
0
 62
     0
 10
130.887299
 20
103.402664
 30
0.0
  0
SEQEND
  5
294F
  8
0
 62
     0
  0
LINE
  5
248E
  8
0
 62
     0
 10
134.107302
 20
103.245966
 30
0.0
 11
132.369369
 21
103.569982
 31
0.0
  0
LINE
  5
248F
  8
0
 62
     0
 10
132.750646
 20
103.535371
 30
0.0
 11
132.750646
 21
104.410036
 31
0.0
  0
LINE
  5
2490
  8
0
 62
     0
 10
132.742713
 20
103.535371
 30
0.0
 11
132.742713
 21
104.410058
 31
0.0
  0
LINE
  5
2491
  8
0
 62
     0
 10
132.369369
 20
103.535371
 30
0.0
 11
132.369369
 21
104.411107
 31
0.0
  0
LINE
  5
2492
  8
0
 62
     0
 10
132.750646
 20
103.535371
 30
0.0
 11
133.078999
 21
103.535371
 31
0.0
  0
LINE
  5
2493
  8
0
 62
     0
 10
117.100646
 20
144.535371
 30
0.0
 11
117.100646
 21
134.035371
 31
0.0
  0
LINE
  5
2494
  8
0
 62
     0
 10
116.600646
 20
144.035371
 30
0.0
 11
116.600646
 21
134.535371
 31
0.0
  0
LINE
  5
2495
  8
0
 62
     0
 10
113.800646
 20
144.035371
 30
0.0
 11
113.800646
 21
135.335371
 31
0.0
  0
LINE
  5
2496
  8
0
 62
     0
 10
113.750646
 20
144.035371
 30
0.0
 11
113.750646
 21
135.335371
 31
0.0
  0
LINE
  5
2497
  8
0
 62
     0
 10
113.600646
 20
134.535371
 30
0.0
 11
113.600646
 21
144.035371
 31
0.0
  0
LINE
  5
2498
  8
0
 62
     0
 10
113.100646
 20
134.035371
 30
0.0
 11
113.100646
 21
144.535371
 31
0.0
  0
LINE
  5
2499
  8
0
 62
     0
 10
112.200646
 20
138.835371
 30
0.0
 11
112.100646
 21
143.335371
 31
0.0
  0
ARC
  5
249A
  8
0
 62
     0
 10
112.900646
 20
129.135371
 30
0.0
 40
0.8
 50
180.0
 51
207.517548
  0
LINE
  5
249B
  8
0
 62
     0
 10
112.100646
 20
129.835371
 30
0.0
 11
112.200646
 21
129.835371
 31
0.0
  0
LINE
  5
249C
  8
0
 62
     0
 10
112.100646
 20
129.135371
 30
0.0
 11
112.100646
 21
129.835371
 31
0.0
  0
LINE
  5
249D
  8
0
 62
     0
 10
116.600646
 20
134.535371
 30
0.0
 11
113.600646
 21
134.535371
 31
0.0
  0
LINE
  5
249E
  8
0
 62
     0
 10
117.100646
 20
134.035371
 30
0.0
 11
113.100646
 21
134.035371
 31
0.0
  0
LINE
  5
249F
  8
0
 62
     0
 10
112.200646
 20
134.835371
 30
0.0
 11
112.100646
 21
138.835371
 31
0.0
  0
LINE
  5
24A0
  8
0
 62
     0
 10
112.100646
 20
134.835371
 30
0.0
 11
112.200646
 21
134.835371
 31
0.0
  0
LINE
  5
24A1
  8
0
 62
     0
 10
112.100646
 20
131.835371
 30
0.0
 11
112.200646
 21
131.835371
 31
0.0
  0
LINE
  5
24A2
  8
0
 62
     0
 10
112.200646
 20
131.835371
 30
0.0
 11
112.100646
 21
134.835371
 31
0.0
  0
LINE
  5
24A3
  8
0
 62
     0
 10
113.100646
 20
134.035371
 30
0.0
 11
113.600646
 21
134.535371
 31
0.0
  0
LINE
  5
24A4
  8
0
 62
     0
 10
112.100646
 20
138.835371
 30
0.0
 11
112.200646
 21
138.835371
 31
0.0
  0
LINE
  5
24A5
  8
0
 62
     0
 10
113.750646
 20
138.715371
 30
0.0
 11
113.600646
 21
138.715371
 31
0.0
  0
LINE
  5
24A6
  8
0
 62
     0
 10
113.750646
 20
138.335371
 30
0.0
 11
113.600646
 21
138.335371
 31
0.0
  0
LINE
  5
24A7
  8
0
 62
     0
 10
113.800646
 20
135.335371
 30
0.0
 11
113.600646
 21
135.335371
 31
0.0
  0
LINE
  5
24A8
  8
0
 62
     0
 10
117.100646
 20
134.035371
 30
0.0
 11
116.600646
 21
134.535371
 31
0.0
  0
LINE
  5
24A9
  8
0
 62
     0
 10
115.100646
 20
149.335371
 30
0.0
 11
115.100646
 21
153.035371
 31
0.0
  0
LINE
  5
24AA
  8
0
 62
     0
 10
114.800646
 20
152.835371
 30
0.0
 11
114.800646
 21
149.335371
 31
0.0
  0
LINE
  5
24AB
  8
0
 62
     0
 10
113.300646
 20
149.335371
 30
0.0
 11
113.300646
 21
151.053405
 31
0.0
  0
LINE
  5
24AC
  8
0
 62
     0
 10
114.800646
 20
149.611765
 30
0.0
 11
113.300646
 21
149.611765
 31
0.0
  0
LINE
  5
24AD
  8
0
 62
     0
 10
112.100646
 20
149.335371
 30
0.0
 11
115.100646
 21
149.335371
 31
0.0
  0
LINE
  5
24AE
  8
0
 62
     0
 10
113.100646
 20
144.535371
 30
0.0
 11
117.100646
 21
144.535371
 31
0.0
  0
LINE
  5
24AF
  8
0
 62
     0
 10
113.600646
 20
144.035371
 30
0.0
 11
116.600646
 21
144.035371
 31
0.0
  0
LINE
  5
24B0
  8
0
 62
     0
 10
112.200646
 20
143.335371
 30
0.0
 11
112.100646
 21
148.835371
 31
0.0
  0
LINE
  5
24B1
  8
0
 62
     0
 10
112.100646
 20
143.335371
 30
0.0
 11
112.200646
 21
143.335371
 31
0.0
  0
LINE
  5
24B2
  8
0
 62
     0
 10
113.100646
 20
144.535371
 30
0.0
 11
113.600646
 21
144.035371
 31
0.0
  0
LINE
  5
24B3
  8
0
 62
     0
 10
112.100646
 20
148.835371
 30
0.0
 11
112.200646
 21
148.835371
 31
0.0
  0
LINE
  5
24B4
  8
0
 62
     0
 10
112.200646
 20
149.335371
 30
0.0
 11
112.200646
 21
148.835371
 31
0.0
  0
LINE
  5
24B5
  8
0
 62
     0
 10
117.100646
 20
144.535371
 30
0.0
 11
116.600646
 21
144.035371
 31
0.0
  0
LINE
  5
24B6
  8
0
 62
     0
 10
115.100646
 20
149.735371
 30
0.0
 11
114.800646
 21
149.735371
 31
0.0
  0
LINE
  5
24B7
  8
0
 62
     0
 10
115.100646
 20
153.035371
 30
0.0
 11
113.600646
 21
153.035371
 31
0.0
  0
LINE
  5
24B8
  8
0
 62
     0
 10
113.300646
 20
152.835371
 30
0.0
 11
114.800646
 21
152.835371
 31
0.0
  0
LINE
  5
24B9
  8
0
 62
     0
 10
113.300646
 20
151.053405
 30
0.0
 11
114.800646
 21
151.053405
 31
0.0
  0
LINE
  5
24BA
  8
0
 62
     0
 10
113.300646
 20
150.829799
 30
0.0
 11
114.800646
 21
150.829799
 31
0.0
  0
ARC
  5
24BB
  8
0
 62
     0
 10
113.800646
 20
154.535371
 30
0.0
 40
0.5
 50
113.67495
 51
180.0
  0
LINE
  5
24BC
  8
0
 62
     0
 10
113.800646
 20
153.035371
 30
0.0
 11
113.800646
 21
152.835371
 31
0.0
  0
LINE
  5
24BD
  8
0
 62
     0
 10
113.750646
 20
153.035371
 30
0.0
 11
113.750646
 21
152.835371
 31
0.0
  0
LINE
  5
24BE
  8
0
 62
     0
 10
113.700646
 20
153.035371
 30
0.0
 11
113.700646
 21
152.835371
 31
0.0
  0
ARC
  5
24BF
  8
0
 62
     0
 10
113.800646
 20
157.735371
 30
0.0
 40
0.5
 50
180.0
 51
246.32505
  0
LINE
  5
24C0
  8
0
 62
     0
 10
115.100646
 20
151.735371
 30
0.0
 11
114.800646
 21
151.735371
 31
0.0
  0
LINE
  5
24C5
  8
0
 62
     0
 10
134.700646
 20
191.535371
 30
0.0
 11
134.700646
 21
215.635371
 31
0.0
  0
LINE
  5
24C6
  8
0
 62
     0
 10
134.600646
 20
191.535371
 30
0.0
 11
134.600646
 21
218.435371
 31
0.0
  0
LINE
  5
24C7
  8
0
 62
     0
 10
129.850646
 20
191.535371
 30
0.0
 11
129.850646
 21
212.504117
 31
0.0
  0
LINE
  5
24C8
  8
0
 62
     0
 10
128.600646
 20
171.519284
 30
0.0
 11
128.600646
 21
211.935371
 31
0.0
  0
LINE
  5
24C9
  8
0
 62
     0
 10
127.100646
 20
171.624174
 30
0.0
 11
127.100646
 21
211.935371
 31
0.0
  0
LINE
  5
24CA
  8
0
 62
     0
 10
125.850646
 20
212.504117
 30
0.0
 11
125.850646
 21
191.535371
 31
0.0
  0
LINE
  5
24CB
  8
0
 62
     0
 10
116.350646
 20
191.535371
 30
0.0
 11
116.350646
 21
212.504117
 31
0.0
  0
LINE
  5
24CC
  8
0
 62
     0
 10
112.500646
 20
171.774265
 30
0.0
 11
112.500646
 21
215.535371
 31
0.0
  0
LINE
  5
24CD
  8
0
 62
     0
 10
112.200646
 20
171.774265
 30
0.0
 11
112.200646
 21
215.235371
 31
0.0
  0
ARC
  5
24CE
  8
0
 62
     0
 10
134.600646
 20
295.375371
 30
0.0
 40
125.24
 50
261.59789
 51
266.016648
  0
LINE
  5
24CF
  8
0
 62
     0
 10
125.850646
 20
198.535371
 30
0.0
 11
116.350646
 21
198.535371
 31
0.0
  0
LINE
  5
24D0
  8
0
 62
     0
 10
116.350646
 20
197.035371
 30
0.0
 11
125.850646
 21
197.035371
 31
0.0
  0
LINE
  5
24D1
  8
0
 62
     0
 10
125.850646
 20
191.535371
 30
0.0
 11
116.350646
 21
191.535371
 31
0.0
  0
LINE
  5
24D2
  8
0
 62
     0
 10
115.950646
 20
187.335371
 30
0.0
 11
127.100646
 21
187.335371
 31
0.0
  0
LINE
  5
24D3
  8
0
 62
     0
 10
115.950646
 20
186.335371
 30
0.0
 11
126.250646
 21
186.335371
 31
0.0
  0
LINE
  5
24D4
  8
0
 62
     0
 10
118.100646
 20
186.035371
 30
0.0
 11
124.100646
 21
186.035371
 31
0.0
  0
LINE
  5
24D5
  8
0
 62
     0
 10
115.950646
 20
184.735371
 30
0.0
 11
126.250646
 21
184.735371
 31
0.0
  0
LINE
  5
24D6
  8
0
 62
     0
 10
116.300646
 20
181.635371
 30
0.0
 11
125.900646
 21
181.635371
 31
0.0
  0
POLYLINE
  5
24D7
  8
0
 62
     0
 66
     1
 10
0.0
 20
0.0
 30
0.0
  0
VERTEX
  5
2950
  8
0
 62
     0
 10
116.300646
 20
181.035371
 30
0.0
  0
VERTEX
  5
2951
  8
0
 62
     0
 10
118.223166
 20
181.356931
 30
0.0
  0
VERTEX
  5
2952
  8
0
 62
     0
 10
120.142001
 20
181.515634
 30
0.0
  0
VERTEX
  5
2953
  8
0
 62
     0
 10
122.05938
 20
181.51563
 30
0.0
  0
VERTEX
  5
2954
  8
0
 62
     0
 10
123.978163
 20
181.356927
 30
0.0
  0
VERTEX
  5
2955
  8
0
 62
     0
 10
125.900646
 20
181.035371
 30
0.0
  0
SEQEND
  5
2956
  8
0
 62
     0
  0
LINE
  5
24DB
  8
0
 62
     0
 10
116.300646
 20
181.635371
 30
0.0
 11
116.300646
 21
171.479587
 31
0.0
  0
LINE
  5
24DC
  8
0
 62
     0
 10
115.950646
 20
174.935371
 30
0.0
 11
115.950646
 21
187.335371
 31
0.0
  0
LINE
  5
24DD
  8
0
 62
     0
 10
115.150646
 20
196.135371
 30
0.0
 11
115.150646
 21
174.935371
 31
0.0
  0
LINE
  5
24DE
  8
0
 62
     0
 10
113.150646
 20
174.935371
 30
0.0
 11
113.150646
 21
196.135371
 31
0.0
  0
ARC
  5
24DF
  8
0
 62
     0
 10
113.800646
 20
163.492201
 30
0.0
 40
0.2
 50
78.705216
 51
180.0
  0
ARC
  5
24E0
  8
0
 62
     0
 10
113.500646
 20
163.686701
 30
0.0
 40
0.2
 50
78.922814
 51
180.0
  0
LINE
  5
24E1
  8
0
 62
     0
 10
113.300646
 20
161.835371
 30
0.0
 11
113.600646
 21
161.835371
 31
0.0
  0
LINE
  5
24E2
  8
0
 62
     0
 10
116.750646
 20
163.223999
 30
0.0
 11
116.750646
 21
163.302195
 31
0.0
  0
LINE
  5
24E3
  8
0
 62
     0
 10
113.150646
 20
175.935371
 30
0.0
 11
115.150646
 21
175.935371
 31
0.0
  0
LINE
  5
24E4
  8
0
 62
     0
 10
112.200646
 20
174.935371
 30
0.0
 11
116.300646
 21
174.935371
 31
0.0
  0
ARC
  5
24E5
  8
0
 62
     0
 10
113.200646
 20
171.774265
 30
0.0
 40
1.0
 50
180.0
 51
260.177324
  0
POLYLINE
  5
24E6
  8
0
 62
     0
 66
     1
 10
0.0
 20
0.0
 30
0.0
  0
VERTEX
  5
2957
  8
0
 62
     0
 10
112.631833
 20
171.36628
 30
0.0
  0
VERTEX
  5
2958
  8
0
 62
     0
 10
112.673923
 20
171.209276
 30
0.0
  0
VERTEX
  5
2959
  8
0
 62
     0
 10
112.734078
 20
171.059363
 30
0.0
  0
VERTEX
  5
295A
  8
0
 62
     0
 10
112.814279
 20
170.930158
 30
0.0
  0
VERTEX
  5
295B
  8
0
 62
     0
 10
112.914248
 20
170.83601
 30
0.0
  0
VERTEX
  5
295C
  8
0
 62
     0
 10
113.030046
 20
170.788924
 30
0.0
  0
SEQEND
  5
295D
  8
0
 62
     0
  0
ARC
  5
24E7
  8
0
 62
     0
 10
113.200646
 20
171.774265
 30
0.0
 40
0.700001
 50
180.0
 51
215.650244
  0
LINE
  5
24E8
  8
0
 62
     0
 10
112.100646
 20
173.235371
 30
0.0
 11
112.200646
 21
173.235371
 31
0.0
  0
LINE
  5
24E9
  8
0
 62
     0
 10
112.500646
 20
171.774265
 30
0.0
 11
112.200646
 21
171.774265
 31
0.0
  0
LINE
  5
24EA
  8
0
 62
     0
 10
112.631833
 20
171.36628
 30
0.0
 11
112.388056
 21
171.191429
 31
0.0
  0
LINE
  5
24EB
  8
0
 62
     0
 10
113.400646
 20
174.935371
 30
0.0
 11
113.400646
 21
175.935371
 31
0.0
  0
LINE
  5
24EC
  8
0
 62
     0
 10
114.900646
 20
174.935371
 30
0.0
 11
114.900646
 21
175.935371
 31
0.0
  0
LINE
  5
24ED
  8
0
 62
     0
 10
116.300646
 20
177.0371
 30
0.0
 11
116.100646
 21
177.135371
 31
0.0
  0
LINE
  5
24EE
  8
0
 62
     0
 10
116.100646
 20
177.135371
 30
0.0
 11
116.100646
 21
174.935371
 31
0.0
  0
LINE
  5
24F0
  8
0
 62
     0
 10
117.745219
 20
162.984071
 30
0.0
 11
117.745927
 21
163.065234
 31
0.0
  0
LINE
  5
24F7
  8
0
 62
     0
 10
121.890719
 20
162.404067
 30
0.0
 11
121.887702
 21
162.576931
 31
0.0
  0
LINE
  5
24F8
  8
0
 62
     0
 10
115.950646
 20
184.935371
 30
0.0
 11
117.350646
 21
184.935371
 31
0.0
  0
LINE
  5
24F9
  8
0
 62
     0
 10
114.800646
 20
184.935371
 30
0.0
 11
114.800646
 21
190.935371
 31
0.0
  0
LINE
  5
24FA
  8
0
 62
     0
 10
114.600646
 20
184.835371
 30
0.0
 11
114.600646
 21
190.635371
 31
0.0
  0
LINE
  5
24FB
  8
0
 62
     0
 10
113.950646
 20
184.835371
 30
0.0
 11
113.950646
 21
194.335371
 31
0.0
  0
LINE
  5
24FC
  8
0
 62
     0
 10
113.150646
 20
184.835371
 30
0.0
 11
115.150646
 21
184.835371
 31
0.0
  0
LINE
  5
24FD
  8
0
 62
     0
 10
113.150646
 20
183.635371
 30
0.0
 11
115.150646
 21
183.635371
 31
0.0
  0
LINE
  5
24FE
  8
0
 62
     0
 10
114.900646
 20
183.435371
 30
0.0
 11
113.400646
 21
183.435371
 31
0.0
  0
LINE
  5
24FF
  8
0
 62
     0
 10
114.900646
 20
180.635371
 30
0.0
 11
113.400646
 21
180.635371
 31
0.0
  0
LINE
  5
2500
  8
0
 62
     0
 10
114.900646
 20
180.135371
 30
0.0
 11
113.400646
 21
180.135371
 31
0.0
  0
LINE
  5
2501
  8
0
 62
     0
 10
113.150646
 20
179.935371
 30
0.0
 11
115.150646
 21
179.935371
 31
0.0
  0
LINE
  5
2502
  8
0
 62
     0
 10
113.950646
 20
183.435371
 30
0.0
 11
113.950646
 21
183.635371
 31
0.0
  0
LINE
  5
2503
  8
0
 62
     0
 10
113.400646
 20
179.935371
 30
0.0
 11
113.400646
 21
183.435371
 31
0.0
  0
LINE
  5
2504
  8
0
 62
     0
 10
114.900646
 20
179.935371
 30
0.0
 11
114.900646
 21
183.435371
 31
0.0
  0
LINE
  5
2505
  8
0
 62
     0
 10
114.600646
 20
183.435371
 30
0.0
 11
114.600646
 21
183.635371
 31
0.0
  0
LINE
  5
2506
  8
0
 62
     0
 10
114.800646
 20
185.935371
 30
0.0
 11
114.600646
 21
185.935371
 31
0.0
  0
LINE
  5
2507
  8
0
 62
     0
 10
114.600646
 20
185.335371
 30
0.0
 11
114.800646
 21
185.335371
 31
0.0
  0
LINE
  5
2508
  8
0
 62
     0
 10
114.800646
 20
184.935371
 30
0.0
 11
115.150646
 21
184.935371
 31
0.0
  0
LINE
  5
2509
  8
0
 62
     0
 10
116.200646
 20
184.735371
 30
0.0
 11
116.200646
 21
184.935371
 31
0.0
  0
LINE
  5
250A
  8
0
 62
     0
 10
115.150646
 20
196.135371
 30
0.0
 11
113.150646
 21
196.135371
 31
0.0
  0
LINE
  5
250B
  8
0
 62
     0
 10
115.150646
 20
194.335371
 30
0.0
 11
113.150646
 21
194.335371
 31
0.0
  0
LINE
  5
250C
  8
0
 62
     0
 10
113.950646
 20
190.935371
 30
0.0
 11
115.150646
 21
190.935371
 31
0.0
  0
LINE
  5
250D
  8
0
 62
     0
 10
114.600646
 20
190.635371
 30
0.0
 11
113.950646
 21
190.635371
 31
0.0
  0
LINE
  5
250E
  8
0
 62
     0
 10
112.200646
 20
195.872016
 30
0.0
 11
112.100646
 21
195.872016
 31
0.0
  0
LINE
  5
250F
  8
0
 62
     0
 10
112.200646
 20
194.884801
 30
0.0
 11
112.100646
 21
194.884801
 31
0.0
  0
LINE
  5
2510
  8
0
 62
     0
 10
118.100646
 20
184.735371
 30
0.0
 11
118.100646
 21
186.035371
 31
0.0
  0
LINE
  5
2511
  8
0
 62
     0
 10
117.350646
 20
184.935371
 30
0.0
 11
117.350646
 21
186.335371
 31
0.0
  0
LINE
  5
2512
  8
0
 62
     0
 10
119.100646
 20
186.035371
 30
0.0
 11
119.100646
 21
186.335371
 31
0.0
  0
LINE
  5
2513
  8
0
 62
     0
 10
117.600646
 20
198.535371
 30
0.0
 11
117.600646
 21
197.035371
 31
0.0
  0
LINE
  5
2514
  8
0
 62
     0
 10
129.800646
 20
170.227389
 30
0.0
 11
129.800646
 21
181.635371
 31
0.0
  0
LINE
  5
2515
  8
0
 62
     0
 10
129.450646
 20
171.459846
 30
0.0
 11
129.450646
 21
187.335371
 31
0.0
  0
LINE
  5
2516
  8
0
 62
     0
 10
128.450646
 20
191.335371
 30
0.0
 11
128.450646
 21
171.529773
 31
0.0
  0
LINE
  5
2517
  8
0
 62
     0
 10
127.250646
 20
171.613685
 30
0.0
 11
127.250646
 21
191.335371
 31
0.0
  0
LINE
  5
2518
  8
0
 62
     0
 10
126.250646
 20
171.683612
 30
0.0
 11
126.250646
 21
186.335371
 31
0.0
  0
LINE
  5
2519
  8
0
 62
     0
 10
125.900646
 20
170.437917
 30
0.0
 11
125.900646
 21
181.635371
 31
0.0
  0
LINE
  5
251A
  8
0
 62
     0
 10
129.450646
 20
171.635371
 30
0.0
 11
128.600646
 21
171.694809
 31
0.0
  0
LINE
  5
251B
  8
0
 62
     0
 10
125.900646
 20
171.708086
 30
0.0
 11
129.800646
 21
171.435371
 31
0.0
  0
LINE
  5
251C
  8
0
 62
     0
 10
124.400646
 20
162.335491
 30
0.0
 11
124.400646
 21
162.153311
 31
0.0
  0
LINE
  5
251D
  8
0
 62
     0
 10
124.200646
 20
162.331085
 30
0.0
 11
124.200646
 21
162.166672
 31
0.0
  0
LINE
  5
2523
  8
0
 62
     0
 10
125.200646
 20
162.295281
 30
0.0
 11
125.200646
 21
162.099867
 31
0.0
  0
LINE
  5
2524
  8
0
 62
     0
 10
127.498298
 20
161.998684
 30
0.0
 11
127.495491
 21
161.945128
 31
0.0
  0
LINE
  5
2525
  8
0
 62
     0
 10
126.100646
 20
177.135371
 30
0.0
 11
125.900646
 21
177.0371
 31
0.0
  0
LINE
  5
2526
  8
0
 62
     0
 10
126.100646
 20
177.135371
 30
0.0
 11
126.100646
 21
171.694101
 31
0.0
  0
LINE
  5
2527
  8
0
 62
     0
 10
127.100646
 20
171.799699
 30
0.0
 11
126.250646
 21
171.859137
 31
0.0
  0
LINE
  5
2528
  8
0
 62
     0
 10
126.250646
 20
174.935371
 30
0.0
 11
126.100646
 21
174.935371
 31
0.0
  0
LINE
  5
2529
  8
0
 62
     0
 10
129.400646
 20
161.998684
 30
0.0
 11
129.400646
 21
161.791829
 31
0.0
  0
LINE
  5
252A
  8
0
 62
     0
 10
134.700646
 20
165.635371
 30
0.0
 11
134.700646
 21
168.975034
 31
0.0
  0
LINE
  5
252B
  8
0
 62
     0
 10
134.600646
 20
168.435371
 30
0.0
 11
134.600646
 21
168.975034
 31
0.0
  0
LINE
  5
252C
  8
0
 62
     0
 10
129.649888
 20
177.111176
 30
0.0
 11
129.649888
 21
171.445913
 31
0.0
  0
LINE
  5
252D
  8
0
 62
     0
 10
129.450646
 20
177.209075
 30
0.0
 11
129.800646
 21
177.0371
 31
0.0
  0
LINE
  5
252E
  8
0
 62
     0
 10
124.850646
 20
184.935371
 30
0.0
 11
126.250646
 21
184.935371
 31
0.0
  0
LINE
  5
252F
  8
0
 62
     0
 10
124.100646
 20
184.735371
 30
0.0
 11
124.100646
 21
186.035371
 31
0.0
  0
LINE
  5
2530
  8
0
 62
     0
 10
123.100646
 20
186.035371
 30
0.0
 11
123.100646
 21
186.335371
 31
0.0
  0
LINE
  5
2531
  8
0
 62
     0
 10
125.950646
 20
184.735371
 30
0.0
 11
125.950646
 21
184.935371
 31
0.0
  0
LINE
  5
2532
  8
0
 62
     0
 10
124.850646
 20
184.935371
 30
0.0
 11
124.850646
 21
186.335371
 31
0.0
  0
LINE
  5
2533
  8
0
 62
     0
 10
126.250646
 20
181.335371
 30
0.0
 11
127.100646
 21
181.335371
 31
0.0
  0
LINE
  5
2534
  8
0
 62
     0
 10
127.100646
 20
184.735371
 30
0.0
 11
127.250646
 21
184.735371
 31
0.0
  0
LINE
  5
2535
  8
0
 62
     0
 10
126.250646
 20
186.335371
 30
0.0
 11
127.100646
 21
187.048606
 31
0.0
  0
LINE
  5
2536
  8
0
 62
     0
 10
124.800646
 20
197.035371
 30
0.0
 11
124.800646
 21
198.535371
 31
0.0
  0
LINE
  5
2537
  8
0
 62
     0
 10
124.600646
 20
197.035371
 30
0.0
 11
124.600646
 21
198.535371
 31
0.0
  0
LINE
  5
2538
  8
0
 62
     0
 10
127.100646
 20
191.435371
 30
0.0
 11
128.600646
 21
191.435371
 31
0.0
  0
LINE
  5
2539
  8
0
 62
     0
 10
127.250646
 20
191.335371
 30
0.0
 11
128.600646
 21
191.335371
 31
0.0
  0
LINE
  5
253A
  8
0
 62
     0
 10
127.100646
 20
190.735371
 30
0.0
 11
127.250646
 21
190.735371
 31
0.0
  0
LINE
  5
253B
  8
0
 62
     0
 10
127.100646
 20
190.335371
 30
0.0
 11
127.250646
 21
190.335371
 31
0.0
  0
LINE
  5
253C
  8
0
 62
     0
 10
127.100646
 20
190.035371
 30
0.0
 11
127.250646
 21
190.035371
 31
0.0
  0
LINE
  5
253D
  8
0
 62
     0
 10
130.850646
 20
184.935371
 30
0.0
 11
129.450646
 21
184.935371
 31
0.0
  0
LINE
  5
253E
  8
0
 62
     0
 10
129.750646
 20
184.735371
 30
0.0
 11
129.750646
 21
184.935371
 31
0.0
  0
LINE
  5
253F
  8
0
 62
     0
 10
131.600646
 20
184.735371
 30
0.0
 11
131.600646
 21
186.035371
 31
0.0
  0
LINE
  5
2540
  8
0
 62
     0
 10
130.850646
 20
184.935371
 30
0.0
 11
130.850646
 21
186.335371
 31
0.0
  0
LINE
  5
2541
  8
0
 62
     0
 10
134.700646
 20
181.635371
 30
0.0
 11
134.700646
 21
186.335371
 31
0.0
  0
LINE
  5
2542
  8
0
 62
     0
 10
134.600646
 20
181.635371
 30
0.0
 11
134.600646
 21
186.335371
 31
0.0
  0
LINE
  5
2543
  8
0
 62
     0
 10
132.600646
 20
186.035371
 30
0.0
 11
132.600646
 21
186.335371
 31
0.0
  0
LINE
  5
2544
  8
0
 62
     0
 10
131.100646
 20
198.535371
 30
0.0
 11
131.100646
 21
197.035371
 31
0.0
  0
LINE
  5
2545
  8
0
 62
     0
 10
130.900646
 20
198.535371
 30
0.0
 11
130.900646
 21
197.035371
 31
0.0
  0
LINE
  5
2546
  8
0
 62
     0
 10
115.850646
 20
215.635371
 30
0.0
 11
123.350646
 21
215.635371
 31
0.0
  0
LINE
  5
2547
  8
0
 62
     0
 10
125.850646
 20
212.504117
 30
0.0
 11
116.350646
 21
212.504117
 31
0.0
  0
POLYLINE
  5
2548
  8
0
 62
     0
 66
     1
 10
0.0
 20
0.0
 30
0.0
  0
VERTEX
  5
295E
  8
0
 62
     0
 10
125.850646
 20
211.535371
 30
0.0
  0
VERTEX
  5
295F
  8
0
 62
     0
 10
122.708616
 20
211.383035
 30
0.0
  0
VERTEX
  5
2960
  8
0
 62
     0
 10
119.492675
 20
211.383035
 30
0.0
  0
VERTEX
  5
2961
  8
0
 62
     0
 10
116.350646
 20
211.535371
 30
0.0
  0
SEQEND
  5
2962
  8
0
 62
     0
  0
LINE
  5
2549
  8
0
 62
     0
 10
125.850646
 20
207.535371
 30
0.0
 11
116.350646
 21
207.535371
 31
0.0
  0
LINE
  5
254A
  8
0
 62
     0
 10
116.350646
 20
206.035371
 30
0.0
 11
125.850646
 21
206.035371
 31
0.0
  0
LINE
  5
254B
  8
0
 62
     0
 10
125.850646
 20
204.535371
 30
0.0
 11
116.350646
 21
204.535371
 31
0.0
  0
LINE
  5
254C
  8
0
 62
     0
 10
116.350646
 20
203.035371
 30
0.0
 11
125.850646
 21
203.035371
 31
0.0
  0
LINE
  5
254D
  8
0
 62
     0
 10
125.850646
 20
201.535371
 30
0.0
 11
116.350646
 21
201.535371
 31
0.0
  0
LINE
  5
254E
  8
0
 62
     0
 10
116.350646
 20
200.035371
 30
0.0
 11
125.850646
 21
200.035371
 31
0.0
  0
LINE
  5
254F
  8
0
 62
     0
 10
112.100646
 20
200.986287
 30
0.0
 11
112.200646
 21
200.986287
 31
0.0
  0
ARC
  5
2550
  8
0
 62
     0
 10
114.200646
 20
211.935371
 30
0.0
 40
3.9
 50
67.380135
 51
112.619865
  0
ARC
  5
2551
  8
0
 62
     0
 10
112.500646
 20
215.235371
 30
0.0
 40
0.3
 50
90.0
 51
180.0
  0
LINE
  5
2552
  8
0
 62
     0
 10
115.850646
 20
215.635371
 30
0.0
 11
115.850646
 21
215.535371
 31
0.0
  0
LINE
  5
2553
  8
0
 62
     0
 10
117.600646
 20
204.535371
 30
0.0
 11
117.600646
 21
203.035371
 31
0.0
  0
LINE
  5
2554
  8
0
 62
     0
 10
117.600646
 20
201.535371
 30
0.0
 11
117.600646
 21
200.035371
 31
0.0
  0
LINE
  5
2555
  8
0
 62
     0
 10
117.600646
 20
207.535371
 30
0.0
 11
117.600646
 21
206.035371
 31
0.0
  0
LINE
  5
2556
  8
0
 62
     0
 10
124.800646
 20
203.035371
 30
0.0
 11
124.800646
 21
204.535371
 31
0.0
  0
LINE
  5
2557
  8
0
 62
     0
 10
124.600646
 20
203.035371
 30
0.0
 11
124.600646
 21
204.535371
 31
0.0
  0
LINE
  5
2558
  8
0
 62
     0
 10
124.800646
 20
200.035371
 30
0.0
 11
124.800646
 21
201.535371
 31
0.0
  0
LINE
  5
2559
  8
0
 62
     0
 10
124.600646
 20
200.035371
 30
0.0
 11
124.600646
 21
201.535371
 31
0.0
  0
LINE
  5
255A
  8
0
 62
     0
 10
124.800646
 20
206.035371
 30
0.0
 11
124.800646
 21
207.535371
 31
0.0
  0
LINE
  5
255B
  8
0
 62
     0
 10
124.600646
 20
206.035371
 30
0.0
 11
124.600646
 21
207.535371
 31
0.0
  0
ARC
  5
255C
  8
0
 62
     0
 10
125.450646
 20
211.935371
 30
0.0
 40
3.9
 50
67.380135
 51
112.619865
  0
LINE
  5
255D
  8
0
 62
     0
 10
123.350646
 20
215.635371
 30
0.0
 11
123.350646
 21
215.535371
 31
0.0
  0
LINE
  5
255E
  8
0
 62
     0
 10
127.100646
 20
211.935371
 30
0.0
 11
128.600646
 21
211.935371
 31
0.0
  0
LINE
  5
255F
  8
0
 62
     0
 10
131.100646
 20
204.535371
 30
0.0
 11
131.100646
 21
203.035371
 31
0.0
  0
LINE
  5
2560
  8
0
 62
     0
 10
130.900646
 20
204.535371
 30
0.0
 11
130.900646
 21
203.035371
 31
0.0
  0
LINE
  5
2561
  8
0
 62
     0
 10
131.100646
 20
201.535371
 30
0.0
 11
131.100646
 21
200.035371
 31
0.0
  0
LINE
  5
2562
  8
0
 62
     0
 10
130.900646
 20
201.535371
 30
0.0
 11
130.900646
 21
200.035371
 31
0.0
  0
LINE
  5
2563
  8
0
 62
     0
 10
131.100646
 20
207.535371
 30
0.0
 11
131.100646
 21
206.035371
 31
0.0
  0
LINE
  5
2564
  8
0
 62
     0
 10
130.900646
 20
207.535371
 30
0.0
 11
130.900646
 21
206.035371
 31
0.0
  0
LINE
  5
2565
  8
0
 62
     0
 10
157.100646
 20
149.335371
 30
0.0
 11
157.100646
 21
200.986245
 31
0.0
  0
LINE
  5
2566
  8
0
 62
     0
 10
156.600646
 20
149.335371
 30
0.0
 11
156.600646
 21
170.97665
 31
0.0
  0
LINE
  5
2567
  8
0
 62
     0
 10
155.400646
 20
149.335371
 30
0.0
 11
155.400646
 21
163.589761
 31
0.0
  0
LINE
  5
2568
  8
0
 62
     0
 10
155.100646
 20
163.393585
 30
0.0
 11
155.100646
 21
153.035371
 31
0.0
  0
ARC
  5
2569
  8
0
 62
     0
 10
155.000646
 20
82.135371
 30
0.0
 40
0.499999
 50
270.0
 51
0.0
  0
ARC
  5
256A
  8
0
 62
     0
 10
155.000646
 20
82.135371
 30
0.0
 40
1.0
 50
270.0
 51
0.0
  0
LINE
  5
256B
  8
0
 62
     0
 10
155.000646
 20
81.635371
 30
0.0
 11
155.000646
 21
81.135371
 31
0.0
  0
LINE
  5
256C
  8
0
 62
     0
 10
156.500646
 20
119.835371
 30
0.0
 11
157.100646
 21
131.835371
 31
0.0
  0
LINE
  5
256D
  8
0
 62
     0
 10
157.000646
 20
104.82378
 30
0.0
 11
157.000646
 21
129.835371
 31
0.0
  0
LINE
  5
256E
  8
0
 62
     0
 10
155.814172
 20
108.635371
 30
0.0
 11
138.500646
 21
108.635371
 31
0.0
  0
LINE
  5
256F
  8
0
 62
     0
 10
142.525646
 20
106.835371
 30
0.0
 11
152.425646
 21
106.835371
 31
0.0
  0
LINE
  5
2570
  8
0
 62
     0
 10
142.525646
 20
105.424062
 30
0.0
 11
152.425646
 21
105.424062
 31
0.0
  0
LINE
  5
2571
  8
0
 62
     0
 10
157.000646
 20
105.135371
 30
0.0
 11
138.500646
 21
105.135371
 31
0.0
  0
LINE
  5
2572
  8
0
 62
     0
 10
156.450646
 20
104.385371
 30
0.0
 11
138.500646
 21
104.385371
 31
0.0
  0
POLYLINE
  5
2573
  8
0
 62
     0
 66
     1
 10
0.0
 20
0.0
 30
0.0
  0
VERTEX
  5
2963
  8
0
 62
     0
 10
140.801845
 20
102.609785
 30
0.0
  0
VERTEX
  5
2964
  8
0
 62
     0
 10
142.056631
 20
102.649783
 30
0.0
  0
VERTEX
  5
2965
  8
0
 62
     0
 10
149.486854
 20
103.362839
 30
0.0
  0
VERTEX
  5
2966
  8
0
 62
     0
 10
155.861482
 20
104.385371
 30
0.0
  0
SEQEND
  5
2967
  8
0
 62
     0
  0
POLYLINE
  5
2574
  8
0
 62
     0
 66
     1
 10
0.0
 20
0.0
 30
0.0
  0
VERTEX
  5
2968
  8
0
 62
     0
 10
152.954043
 20
104.385371
 30
0.0
  0
VERTEX
  5
2969
  8
0
 62
     0
 10
149.739919
 20
103.867499
 30
0.0
  0
VERTEX
  5
296A
  8
0
 62
     0
 10
142.178329
 20
103.131287
 30
0.0
  0
VERTEX
  5
296B
  8
0
 62
     0
 10
136.772574
 20
102.956465
 30
0.0
  0
SEQEND
  5
296C
  8
0
 62
     0
  0
LINE
  5
2575
  8
0
 62
     0
 10
143.301177
 20
91.407779
 30
0.0
 11
143.494947
 21
102.508895
 31
0.0
  0
LINE
  5
2576
  8
0
 62
     0
 10
143.25652
 20
92.246507
 30
0.0
 11
143.434726
 21
102.508183
 31
0.0
  0
LINE
  5
2577
  8
0
 62
     0
 10
143.125875
 20
90.764734
 30
0.0
 11
143.32948
 21
102.485428
 31
0.0
  0
LINE
  5
2578
  8
0
 62
     0
 10
142.635898
 20
92.246507
 30
0.0
 11
142.80971
 21
102.508183
 31
0.0
  0
POLYLINE
  5
2579
  8
0
 62
     0
 66
     1
 10
0.0
 20
0.0
 30
0.0
  0
VERTEX
  5
296D
  8
0
 62
     0
 10
142.152063
 20
91.405842
 30
0.0
  0
VERTEX
  5
296E
  8
0
 62
     0
 10
142.191763
 20
95.113247
 30
0.0
  0
VERTEX
  5
296F
  8
0
 62
     0
 10
142.231198
 20
98.814329
 30
0.0
  0
VERTEX
  5
2970
  8
0
 62
     0
 10
142.270373
 20
102.509087
 30
0.0
  0
SEQEND
  5
2971
  8
0
 62
     0
  0
POLYLINE
  5
257A
  8
0
 62
     0
 66
     1
 10
0.0
 20
0.0
 30
0.0
  0
VERTEX
  5
2972
  8
0
 62
     0
 10
141.909084
 20
91.405876
 30
0.0
  0
VERTEX
  5
2973
  8
0
 62
     0
 10
141.948923
 20
95.113811
 30
0.0
  0
VERTEX
  5
2974
  8
0
 62
     0
 10
141.9885
 20
98.815453
 30
0.0
  0
VERTEX
  5
2975
  8
0
 62
     0
 10
142.027816
 20
102.510769
 30
0.0
  0
SEQEND
  5
2976
  8
0
 62
     0
  0
POLYLINE
  5
257B
  8
0
 62
     0
 66
     1
 10
0.0
 20
0.0
 30
0.0
  0
VERTEX
  5
2977
  8
0
 62
     0
 10
140.782779
 20
90.181571
 30
0.0
  0
VERTEX
  5
2978
  8
0
 62
     0
 10
140.75845
 20
90.15199
 30
0.0
  0
VERTEX
  5
2979
  8
0
 62
     0
 10
140.564385
 20
89.917143
 30
0.0
  0
SEQEND
  5
297A
  8
0
 62
     0
  0
POLYLINE
  5
257C
  8
0
 62
     0
 66
     1
 10
0.0
 20
0.0
 30
0.0
  0
VERTEX
  5
297B
  8
0
 62
     0
 10
140.536507
 20
90.389949
 30
0.0
  0
VERTEX
  5
297C
  8
0
 62
     0
 10
140.709774
 20
90.243113
 30
0.0
  0
VERTEX
  5
297D
  8
0
 62
     0
 10
140.886147
 20
90.094432
 30
0.0
  0
SEQEND
  5
297E
  8
0
 62
     0
  0
LINE
  5
257D
  8
0
 62
     0
 10
138.200213
 20
90.294685
 30
0.0
 11
142.014548
 21
91.215945
 31
0.0
  0
POLYLINE
  5
257E
  8
0
 62
     0
 66
     1
 10
0.0
 20
0.0
 30
0.0
  0
VERTEX
  5
297F
  8
0
 62
     0
 10
139.161608
 20
90.453527
 30
0.0
  0
VERTEX
  5
2980
  8
0
 62
     0
 10
140.109622
 20
90.687546
 30
0.0
  0
VERTEX
  5
2981
  8
0
 62
     0
 10
141.131263
 20
90.950418
 30
0.0
  0
SEQEND
  5
2982
  8
0
 62
     0
  0
LINE
  5
257F
  8
0
 62
     0
 10
139.208075
 20
90.294687
 30
0.0
 11
135.256737
 21
89.598388
 31
0.0
  0
POLYLINE
  5
2580
  8
0
 62
     0
 66
     1
 10
0.0
 20
0.0
 30
0.0
  0
VERTEX
  5
2983
  8
0
 62
     0
 10
139.260608
 20
90.361433
 30
0.0
  0
VERTEX
  5
2984
  8
0
 62
     0
 10
139.168362
 20
90.344542
 30
0.0
  0
VERTEX
  5
2985
  8
0
 62
     0
 10
139.04574
 20
90.322812
 30
0.0
  0
VERTEX
  5
2986
  8
0
 62
     0
 10
138.929472
 20
90.302948
 30
0.0
  0
VERTEX
  5
2987
  8
0
 62
     0
 10
138.82342
 20
90.285573
 30
0.0
  0
VERTEX
  5
2988
  8
0
 62
     0
 10
138.728802
 20
90.270814
 30
0.0
  0
VERTEX
  5
2989
  8
0
 62
     0
 10
138.644503
 20
90.258436
 30
0.0
  0
VERTEX
  5
298A
  8
0
 62
     0
 10
138.571372
 20
90.248522
 30
0.0
  0
VERTEX
  5
298B
  8
0
 62
     0
 10
138.508972
 20
90.240984
 30
0.0
  0
VERTEX
  5
298C
  8
0
 62
     0
 10
138.458057
 20
90.235905
 30
0.0
  0
VERTEX
  5
298D
  8
0
 62
     0
 10
138.418915
 20
90.233321
 30
0.0
  0
VERTEX
  5
298E
  8
0
 62
     0
 10
138.391919
 20
90.233306
 30
0.0
  0
VERTEX
  5
298F
  8
0
 62
     0
 10
138.378062
 20
90.235863
 30
0.0
  0
VERTEX
  5
2990
  8
0
 62
     0
 10
138.376969
 20
90.240965
 30
0.0
  0
SEQEND
  5
2991
  8
0
 62
     0
  0
POLYLINE
  5
2581
  8
0
 62
     0
 66
     1
 10
0.0
 20
0.0
 30
0.0
  0
VERTEX
  5
2992
  8
0
 62
     0
 10
138.376969
 20
90.240965
 30
0.0
  0
VERTEX
  5
2993
  8
0
 62
     0
 10
138.388371
 20
90.24845
 30
0.0
  0
VERTEX
  5
2994
  8
0
 62
     0
 10
138.412066
 20
90.258344
 30
0.0
  0
VERTEX
  5
2995
  8
0
 62
     0
 10
138.448143
 20
90.270686
 30
0.0
  0
VERTEX
  5
2996
  8
0
 62
     0
 10
138.496328
 20
90.285393
 30
0.0
  0
VERTEX
  5
2997
  8
0
 62
     0
 10
138.557293
 20
90.302672
 30
0.0
  0
VERTEX
  5
2998
  8
0
 62
     0
 10
138.630712
 20
90.322429
 30
0.0
  0
VERTEX
  5
2999
  8
0
 62
     0
 10
138.714345
 20
90.344108
 30
0.0
  0
VERTEX
  5
299A
  8
0
 62
     0
 10
138.808563
 20
90.36786
 30
0.0
  0
VERTEX
  5
299B
  8
0
 62
     0
 10
138.914042
 20
90.393888
 30
0.0
  0
VERTEX
  5
299C
  8
0
 62
     0
 10
139.031455
 20
90.422375
 30
0.0
  0
VERTEX
  5
299D
  8
0
 62
     0
 10
139.161608
 20
90.453527
 30
0.0
  0
SEQEND
  5
299E
  8
0
 62
     0
  0
LINE
  5
2582
  8
0
 62
     0
 10
139.797455
 20
89.780059
 30
0.0
 11
139.763306
 21
89.739854
 31
0.0
  0
POLYLINE
  5
2583
  8
0
 62
     0
 66
     1
 10
0.0
 20
0.0
 30
0.0
  0
VERTEX
  5
299F
  8
0
 62
     0
 10
140.033092
 20
90.059853
 30
0.0
  0
VERTEX
  5
29A0
  8
0
 62
     0
 10
139.978356
 20
89.994614
 30
0.0
  0
VERTEX
  5
29A1
  8
0
 62
     0
 10
139.797455
 20
89.780059
 30
0.0
  0
SEQEND
  5
29A2
  8
0
 62
     0
  0
POLYLINE
  5
2584
  8
0
 62
     0
 66
     1
 10
0.0
 20
0.0
 30
0.0
  0
VERTEX
  5
29A3
  8
0
 62
     0
 10
140.198705
 20
89.917143
 30
0.0
  0
VERTEX
  5
29A4
  8
0
 62
     0
 10
140.366029
 20
90.15199
 30
0.0
  0
VERTEX
  5
29A5
  8
0
 62
     0
 10
140.536507
 20
90.389949
 30
0.0
  0
SEQEND
  5
29A6
  8
0
 62
     0
  0
POLYLINE
  5
2585
  8
0
 62
     0
 66
     1
 10
0.0
 20
0.0
 30
0.0
  0
VERTEX
  5
29A7
  8
0
 62
     0
 10
139.554936
 20
89.780059
 30
0.0
  0
VERTEX
  5
29A8
  8
0
 62
     0
 10
139.704199
 20
89.994614
 30
0.0
  0
VERTEX
  5
29A9
  8
0
 62
     0
 10
139.856795
 20
90.21266
 30
0.0
  0
SEQEND
  5
29AA
  8
0
 62
     0
  0
POLYLINE
  5
2586
  8
0
 62
     0
 66
     1
 10
0.0
 20
0.0
 30
0.0
  0
VERTEX
  5
29AB
  8
0
 62
     0
 10
139.527216
 20
89.739854
 30
0.0
  0
VERTEX
  5
29AC
  8
0
 62
     0
 10
139.536312
 20
89.753102
 30
0.0
  0
VERTEX
  5
29AD
  8
0
 62
     0
 10
139.545552
 20
89.766504
 30
0.0
  0
VERTEX
  5
29AE
  8
0
 62
     0
 10
139.554936
 20
89.780059
 30
0.0
  0
SEQEND
  5
29AF
  8
0
 62
     0
  0
LINE
  5
2587
  8
0
 62
     0
 10
139.554936
 20
89.780059
 30
0.0
 11
139.554936
 21
90.550621
 31
0.0
  0
LINE
  5
2588
  8
0
 62
     0
 10
139.260608
 20
90.02285
 30
0.0
 11
139.260608
 21
90.477965
 31
0.0
  0
POLYLINE
  5
2589
  8
0
 62
     0
 66
     1
 10
0.0
 20
0.0
 30
0.0
  0
VERTEX
  5
29B0
  8
0
 62
     0
 10
139.527216
 20
89.739854
 30
0.0
  0
VERTEX
  5
29B1
  8
0
 62
     0
 10
139.396549
 20
89.860756
 30
0.0
  0
VERTEX
  5
29B2
  8
0
 62
     0
 10
139.311442
 20
89.948692
 30
0.0
  0
VERTEX
  5
29B3
  8
0
 62
     0
 10
139.268342
 20
90.004871
 30
0.0
  0
VERTEX
  5
29B4
  8
0
 62
     0
 10
139.260594
 20
90.025958
 30
0.0
  0
SEQEND
  5
29B5
  8
0
 62
     0
  0
POLYLINE
  5
258A
  8
0
 62
     0
 66
     1
 10
0.0
 20
0.0
 30
0.0
  0
VERTEX
  5
29B6
  8
0
 62
     0
 10
139.856795
 20
90.21266
 30
0.0
  0
VERTEX
  5
29B7
  8
0
 62
     0
 10
140.025778
 20
90.066156
 30
0.0
  0
VERTEX
  5
29B8
  8
0
 62
     0
 10
140.198705
 20
89.917143
 30
0.0
  0
SEQEND
  5
29B9
  8
0
 62
     0
  0
LINE
  5
258B
  8
0
 62
     0
 10
140.564385
 20
89.917143
 30
0.0
 11
140.198705
 21
89.917143
 31
0.0
  0
LINE
  5
258C
  8
0
 62
     0
 10
139.763306
 20
89.739854
 30
0.0
 11
139.527216
 21
89.739854
 31
0.0
  0
LINE
  5
258D
  8
0
 62
     0
 10
139.260608
 20
90.30696
 30
0.0
 11
139.208075
 21
90.294687
 31
0.0
  0
POLYLINE
  5
258E
  8
0
 62
     0
 66
     1
 10
0.0
 20
0.0
 30
0.0
  0
VERTEX
  5
29BA
  8
0
 62
     0
 10
140.381683
 20
97.434763
 30
0.0
  0
VERTEX
  5
29BB
  8
0
 62
     0
 10
140.324913
 20
96.785322
 30
0.0
  0
VERTEX
  5
29BC
  8
0
 62
     0
 10
140.139529
 20
96.124313
 30
0.0
  0
VERTEX
  5
29BD
  8
0
 62
     0
 10
139.831556
 20
95.512869
 30
0.0
  0
VERTEX
  5
29BE
  8
0
 62
     0
 10
139.412355
 20
94.975484
 30
0.0
  0
VERTEX
  5
29BF
  8
0
 62
     0
 10
138.898116
 20
94.533841
 30
0.0
  0
VERTEX
  5
29C0
  8
0
 62
     0
 10
138.30886
 20
94.205511
 30
0.0
  0
VERTEX
  5
29C1
  8
0
 62
     0
 10
137.667629
 20
94.003419
 30
0.0
  0
VERTEX
  5
29C2
  8
0
 62
     0
 10
137.001729
 20
93.935383
 30
0.0
  0
SEQEND
  5
29C3
  8
0
 62
     0
  0
POLYLINE
  5
258F
  8
0
 62
     0
 66
     1
 10
0.0
 20
0.0
 30
0.0
  0
VERTEX
  5
29C4
  8
0
 62
     0
 10
136.978682
 20
100.93536
 30
0.0
  0
VERTEX
  5
29C5
  8
0
 62
     0
 10
137.651584
 20
100.866082
 30
0.0
  0
VERTEX
  5
29C6
  8
0
 62
     0
 10
138.293492
 20
100.662911
 30
0.0
  0
VERTEX
  5
29C7
  8
0
 62
     0
 10
138.883721
 20
100.333943
 30
0.0
  0
VERTEX
  5
29C8
  8
0
 62
     0
 10
139.399489
 20
99.892189
 30
0.0
  0
VERTEX
  5
29C9
  8
0
 62
     0
 10
139.820938
 20
99.355154
 30
0.0
  0
VERTEX
  5
29CA
  8
0
 62
     0
 10
140.131926
 20
98.744341
 30
0.0
  0
VERTEX
  5
29CB
  8
0
 62
     0
 10
140.321007
 20
98.083961
 30
0.0
  0
VERTEX
  5
29CC
  8
0
 62
     0
 10
140.381684
 20
97.434762
 30
0.0
  0
SEQEND
  5
29CD
  8
0
 62
     0
  0
LINE
  5
2590
  8
0
 62
     0
 10
137.000776
 20
93.935371
 30
0.0
 11
137.001728
 21
93.935372
 31
0.0
  0
LINE
  5
2591
  8
0
 62
     0
 10
136.978681
 20
100.935371
 30
0.0
 11
136.97834
 21
100.935371
 31
0.0
  0
LINE
  5
2592
  8
0
 62
     0
 10
136.565379
 20
100.85195
 30
0.0
 11
137.118667
 21
100.920948
 31
0.0
  0
LINE
  5
2593
  8
0
 62
     0
 10
140.090511
 20
96.026994
 30
0.0
 11
140.090511
 21
98.825685
 31
0.0
  0
POLYLINE
  5
2594
  8
0
 62
     0
 66
     1
 10
0.0
 20
0.0
 30
0.0
  0
VERTEX
  5
29CE
  8
0
 62
     0
 10
143.15135
 20
91.215945
 30
0.0
  0
VERTEX
  5
29CF
  8
0
 62
     0
 10
143.210518
 20
91.24207
 30
0.0
  0
VERTEX
  5
29D0
  8
0
 62
     0
 10
143.25824
 20
91.285697
 30
0.0
  0
VERTEX
  5
29D1
  8
0
 62
     0
 10
143.289522
 20
91.34226
 30
0.0
  0
VERTEX
  5
29D2
  8
0
 62
     0
 10
143.300658
 20
91.395725
 30
0.0
  0
SEQEND
  5
29D3
  8
0
 62
     0
  0
POLYLINE
  5
2595
  8
0
 62
     0
 66
     1
 10
0.0
 20
0.0
 30
0.0
  0
VERTEX
  5
29D4
  8
0
 62
     0
 10
143.143416
 20
91.242024
 30
0.0
  0
VERTEX
  5
29D5
  8
0
 62
     0
 10
143.200074
 20
91.267499
 30
0.0
  0
VERTEX
  5
29D6
  8
0
 62
     0
 10
143.248106
 20
91.313215
 30
0.0
  0
VERTEX
  5
29D7
  8
0
 62
     0
 10
143.277617
 20
91.370998
 30
0.0
  0
VERTEX
  5
29D8
  8
0
 62
     0
 10
143.287283
 20
91.437765
 30
0.0
  0
SEQEND
  5
29D9
  8
0
 62
     0
  0
POLYLINE
  5
2596
  8
0
 62
     0
 66
     1
 10
0.0
 20
0.0
 30
0.0
  0
VERTEX
  5
29DA
  8
0
 62
     0
 10
142.014544
 20
91.215945
 30
0.0
  0
VERTEX
  5
29DB
  8
0
 62
     0
 10
142.069901
 20
91.242223
 30
0.0
  0
VERTEX
  5
29DC
  8
0
 62
     0
 10
142.114478
 20
91.286725
 30
0.0
  0
VERTEX
  5
29DD
  8
0
 62
     0
 10
142.142546
 20
91.343234
 30
0.0
  0
VERTEX
  5
29DE
  8
0
 62
     0
 10
142.152063
 20
91.405842
 30
0.0
  0
SEQEND
  5
29DF
  8
0
 62
     0
  0
POLYLINE
  5
2597
  8
0
 62
     0
 66
     1
 10
0.0
 20
0.0
 30
0.0
  0
VERTEX
  5
29E0
  8
0
 62
     0
 10
142.405992
 20
91.437765
 30
0.0
  0
VERTEX
  5
29E1
  8
0
 62
     0
 10
142.376148
 20
91.370998
 30
0.0
  0
VERTEX
  5
29E2
  8
0
 62
     0
 10
142.331646
 20
91.313215
 30
0.0
  0
VERTEX
  5
29E3
  8
0
 62
     0
 10
142.274699
 20
91.267499
 30
0.0
  0
VERTEX
  5
29E4
  8
0
 62
     0
 10
142.216706
 20
91.242024
 30
0.0
  0
SEQEND
  5
29E5
  8
0
 62
     0
  0
POLYLINE
  5
2598
  8
0
 62
     0
 66
     1
 10
0.0
 20
0.0
 30
0.0
  0
VERTEX
  5
29E6
  8
0
 62
     0
 10
143.294777
 20
91.35936
 30
0.0
  0
VERTEX
  5
29E7
  8
0
 62
     0
 10
143.281026
 20
91.321958
 30
0.0
  0
VERTEX
  5
29E8
  8
0
 62
     0
 10
143.260233
 20
91.288157
 30
0.0
  0
VERTEX
  5
29E9
  8
0
 62
     0
 10
143.235588
 20
91.261283
 30
0.0
  0
VERTEX
  5
29EA
  8
0
 62
     0
 10
143.205518
 20
91.238741
 30
0.0
  0
VERTEX
  5
29EB
  8
0
 62
     0
 10
143.177474
 20
91.22448
 30
0.0
  0
VERTEX
  5
29EC
  8
0
 62
     0
 10
143.152106
 20
91.21594
 30
0.0
  0
SEQEND
  5
29ED
  8
0
 62
     0
  0
LINE
  5
2599
  8
0
 62
     0
 10
142.540763
 20
90.764734
 30
0.0
 11
142.561197
 21
91.97245
 31
0.0
  0
POLYLINE
  5
259A
  8
0
 62
     0
 66
     1
 10
0.0
 20
0.0
 30
0.0
  0
VERTEX
  5
29EE
  8
0
 62
     0
 10
141.909083
 20
91.405842
 30
0.0
  0
VERTEX
  5
29EF
  8
0
 62
     0
 10
141.932227
 20
91.33217
 30
0.0
  0
VERTEX
  5
29F0
  8
0
 62
     0
 10
141.960559
 20
91.269679
 30
0.0
  0
VERTEX
  5
29F1
  8
0
 62
     0
 10
141.989494
 20
91.228827
 30
0.0
  0
VERTEX
  5
29F2
  8
0
 62
     0
 10
142.014544
 20
91.215945
 30
0.0
  0
SEQEND
  5
29F3
  8
0
 62
     0
  0
LINE
  5
259B
  8
0
 62
     0
 10
142.277553
 20
90.468703
 30
0.0
 11
142.120537
 21
90.271721
 31
0.0
  0
POLYLINE
  5
259C
  8
0
 62
     0
 66
     1
 10
0.0
 20
0.0
 30
0.0
  0
VERTEX
  5
29F4
  8
0
 62
     0
 10
141.939163
 20
90.744527
 30
0.0
  0
VERTEX
  5
29F5
  8
0
 62
     0
 10
142.119857
 20
90.597137
 30
0.0
  0
VERTEX
  5
29F6
  8
0
 62
     0
 10
142.302259
 20
90.44901
 30
0.0
  0
SEQEND
  5
29F7
  8
0
 62
     0
  0
POLYLINE
  5
259D
  8
0
 62
     0
 66
     1
 10
0.0
 20
0.0
 30
0.0
  0
VERTEX
  5
29F8
  8
0
 62
     0
 10
142.216705
 20
91.242027
 30
0.0
  0
VERTEX
  5
29F9
  8
0
 62
     0
 10
142.118079
 20
91.229638
 30
0.0
  0
VERTEX
  5
29FA
  8
0
 62
     0
 10
142.014548
 20
91.215945
 30
0.0
  0
SEQEND
  5
29FB
  8
0
 62
     0
  0
LINE
  5
259E
  8
0
 62
     0
 10
141.131263
 20
90.950418
 30
0.0
 11
142.216705
 21
91.242027
 31
0.0
  0
LINE
  5
259F
  8
0
 62
     0
 10
141.530754
 20
90.317897
 30
0.0
 11
141.34951
 21
90.094432
 31
0.0
  0
POLYLINE
  5
25A0
  8
0
 62
     0
 66
     1
 10
0.0
 20
0.0
 30
0.0
  0
VERTEX
  5
29FC
  8
0
 62
     0
 10
141.587687
 20
90.271721
 30
0.0
  0
VERTEX
  5
29FD
  8
0
 62
     0
 10
141.762517
 20
90.507429
 30
0.0
  0
VERTEX
  5
29FE
  8
0
 62
     0
 10
141.939163
 20
90.744527
 30
0.0
  0
SEQEND
  5
29FF
  8
0
 62
     0
  0
POLYLINE
  5
25A1
  8
0
 62
     0
 66
     1
 10
0.0
 20
0.0
 30
0.0
  0
VERTEX
  5
2A00
  8
0
 62
     0
 10
140.886147
 20
90.094432
 30
0.0
  0
VERTEX
  5
2A01
  8
0
 62
     0
 10
141.057404
 20
90.32975
 30
0.0
  0
VERTEX
  5
2A02
  8
0
 62
     0
 10
141.231082
 20
90.567238
 30
0.0
  0
SEQEND
  5
2A03
  8
0
 62
     0
  0
POLYLINE
  5
25A2
  8
0
 62
     0
 66
     1
 10
0.0
 20
0.0
 30
0.0
  0
VERTEX
  5
2A04
  8
0
 62
     0
 10
141.231082
 20
90.567238
 30
0.0
  0
VERTEX
  5
2A05
  8
0
 62
     0
 10
141.408201
 20
90.42011
 30
0.0
  0
VERTEX
  5
2A06
  8
0
 62
     0
 10
141.587687
 20
90.271721
 30
0.0
  0
SEQEND
  5
2A07
  8
0
 62
     0
  0
LINE
  5
25A3
  8
0
 62
     0
 10
142.120537
 20
90.271721
 30
0.0
 11
141.587687
 21
90.271721
 31
0.0
  0
LINE
  5
25A4
  8
0
 62
     0
 10
141.34951
 20
90.094432
 30
0.0
 11
140.886147
 21
90.094432
 31
0.0
  0
POLYLINE
  5
25A5
  8
0
 62
     0
 66
     1
 10
0.0
 20
0.0
 30
0.0
  0
VERTEX
  5
2A08
  8
0
 62
     0
 10
142.540763
 20
90.764734
 30
0.0
  0
VERTEX
  5
2A09
  8
0
 62
     0
 10
142.807549
 20
90.857808
 30
0.0
  0
VERTEX
  5
2A0A
  8
0
 62
     0
 10
143.002315
 20
90.857808
 30
0.0
  0
VERTEX
  5
2A0B
  8
0
 62
     0
 10
143.125875
 20
90.764734
 30
0.0
  0
SEQEND
  5
2A0C
  8
0
 62
     0
  0
POLYLINE
  5
25A6
  8
0
 62
     0
 66
     1
 10
0.0
 20
0.0
 30
0.0
  0
VERTEX
  5
2A0D
  8
0
 62
     0
 10
143.125875
 20
90.764734
 30
0.0
  0
VERTEX
  5
2A0E
  8
0
 62
     0
 10
143.002247
 20
90.606712
 30
0.0
  0
VERTEX
  5
2A0F
  8
0
 62
     0
 10
142.878533
 20
90.44901
 30
0.0
  0
SEQEND
  5
2A10
  8
0
 62
     0
  0
POLYLINE
  5
25A7
  8
0
 62
     0
 66
     1
 10
0.0
 20
0.0
 30
0.0
  0
VERTEX
  5
2A11
  8
0
 62
     0
 10
142.302259
 20
90.44901
 30
0.0
  0
VERTEX
  5
2A12
  8
0
 62
     0
 10
142.421222
 20
90.606712
 30
0.0
  0
VERTEX
  5
2A13
  8
0
 62
     0
 10
142.540763
 20
90.764734
 30
0.0
  0
SEQEND
  5
2A14
  8
0
 62
     0
  0
POLYLINE
  5
25A8
  8
0
 62
     0
 66
     1
 10
0.0
 20
0.0
 30
0.0
  0
VERTEX
  5
2A15
  8
0
 62
     0
 10
143.151341
 20
91.215945
 30
0.0
  0
VERTEX
  5
2A16
  8
0
 62
     0
 10
143.149918
 20
91.229638
 30
0.0
  0
VERTEX
  5
2A17
  8
0
 62
     0
 10
143.143415
 20
91.242027
 30
0.0
  0
SEQEND
  5
2A18
  8
0
 62
     0
  0
LINE
  5
25A9
  8
0
 62
     0
 10
143.152106
 20
91.21594
 30
0.0
 11
143.15135
 21
91.215945
 31
0.0
  0
LINE
  5
25AA
  8
0
 62
     0
 10
142.878533
 20
90.44901
 30
0.0
 11
142.302259
 21
90.44901
 31
0.0
  0
LINE
  5
25AB
  8
0
 62
     0
 10
143.13364
 20
91.211707
 30
0.0
 11
143.15193
 21
91.215895
 31
0.0
  0
LINE
  5
25AC
  8
0
 62
     0
 10
143.151341
 20
91.215945
 30
0.0
 11
143.133642
 21
91.21181
 31
0.0
  0
LINE
  5
25AD
  8
0
 62
     0
 10
143.143415
 20
91.242027
 30
0.0
 11
143.134126
 21
91.239679
 31
0.0
  0
POLYLINE
  5
25AE
  8
0
 62
     0
 66
     1
 10
0.0
 20
0.0
 30
0.0
  0
VERTEX
  5
2A19
  8
0
 62
     0
 10
141.909083
 20
91.405842
 30
0.0
  0
VERTEX
  5
2A1A
  8
0
 62
     0
 10
141.983269
 20
91.404895
 30
0.0
  0
VERTEX
  5
2A1B
  8
0
 62
     0
 10
142.054825
 20
91.404565
 30
0.0
  0
VERTEX
  5
2A1C
  8
0
 62
     0
 10
142.113818
 20
91.404895
 30
0.0
  0
VERTEX
  5
2A1D
  8
0
 62
     0
 10
142.152063
 20
91.405842
 30
0.0
  0
SEQEND
  5
2A1E
  8
0
 62
     0
  0
POLYLINE
  5
25AF
  8
0
 62
     0
 66
     1
 10
0.0
 20
0.0
 30
0.0
  0
VERTEX
  5
2A1F
  8
0
 62
     0
 10
142.406002
 20
91.437765
 30
0.0
  0
VERTEX
  5
2A20
  8
0
 62
     0
 10
142.485847
 20
91.7074
 30
0.0
  0
VERTEX
  5
2A21
  8
0
 62
     0
 10
142.562483
 20
91.976974
 30
0.0
  0
VERTEX
  5
2A22
  8
0
 62
     0
 10
142.635898
 20
92.246507
 30
0.0
  0
SEQEND
  5
2A23
  8
0
 62
     0
  0
LINE
  5
25B0
  8
0
 62
     0
 10
143.300658
 20
91.395725
 30
0.0
 11
143.294777
 21
91.35936
 31
0.0
  0
LINE
  5
25B1
  8
0
 62
     0
 10
143.300658
 20
91.395725
 30
0.0
 11
143.300666
 21
91.395849
 31
0.0
  0
LINE
  5
25B2
  8
0
 62
     0
 10
143.300666
 20
91.395849
 30
0.0
 11
143.301178
 21
91.407854
 31
0.0
  0
LINE
  5
25B3
  8
0
 62
     0
 10
143.301641
 20
91.437516
 30
0.0
 11
143.30109
 21
91.405842
 31
0.0
  0
POLYLINE
  5
25B4
  8
0
 62
     0
 66
     1
 10
0.0
 20
0.0
 30
0.0
  0
VERTEX
  5
2A24
  8
0
 62
     0
 10
143.287294
 20
91.437765
 30
0.0
  0
VERTEX
  5
2A25
  8
0
 62
     0
 10
143.280425
 20
91.7074
 30
0.0
  0
VERTEX
  5
2A26
  8
0
 62
     0
 10
143.270167
 20
91.976974
 30
0.0
  0
VERTEX
  5
2A27
  8
0
 62
     0
 10
143.25652
 20
92.246507
 30
0.0
  0
SEQEND
  5
2A28
  8
0
 62
     0
  0
LINE
  5
25B5
  8
0
 62
     0
 10
143.301178
 20
91.407882
 30
0.0
 11
143.298259
 21
91.422825
 31
0.0
  0
LINE
  5
25B6
  8
0
 62
     0
 10
143.298259
 20
91.422825
 30
0.0
 11
143.287294
 21
91.437765
 31
0.0
  0
POLYLINE
  5
25B7
  8
0
 62
     0
 66
     1
 10
0.0
 20
0.0
 30
0.0
  0
VERTEX
  5
2A29
  8
0
 62
     0
 10
142.406002
 20
91.437765
 30
0.0
  0
VERTEX
  5
2A2A
  8
0
 62
     0
 10
142.282886
 20
91.422825
 30
0.0
  0
VERTEX
  5
2A2B
  8
0
 62
     0
 10
142.152063
 20
91.405842
 30
0.0
  0
SEQEND
  5
2A2C
  8
0
 62
     0
  0
LINE
  5
25B8
  8
0
 62
     0
 10
143.25652
 20
92.246507
 30
0.0
 11
143.151136
 21
92.218858
 31
0.0
  0
LINE
  5
25B9
  8
0
 62
     0
 10
142.525646
 20
108.135371
 30
0.0
 11
140.625646
 21
108.135371
 31
0.0
  0
LINE
  5
25BA
  8
0
 62
     0
 10
140.625646
 20
107.596756
 30
0.0
 11
142.525646
 21
107.596756
 31
0.0
  0
POLYLINE
  5
25BB
  8
0
 62
     0
 66
     1
 10
0.0
 20
0.0
 30
0.0
  0
VERTEX
  5
2A2D
  8
0
 62
     0
 10
140.470395
 20
102.585044
 30
0.0
  0
VERTEX
  5
2A2E
  8
0
 62
     0
 10
141.448643
 20
102.544446
 30
0.0
  0
VERTEX
  5
2A2F
  8
0
 62
     0
 10
142.441702
 20
102.518221
 30
0.0
  0
SEQEND
  5
2A30
  8
0
 62
     0
  0
LINE
  5
25BC
  8
0
 62
     0
 10
139.86594
 20
102.646774
 30
0.0
 11
142.810588
 21
102.530397
 31
0.0
  0
POLYLINE
  5
25BD
  8
0
 62
     0
 66
     1
 10
0.0
 20
0.0
 30
0.0
  0
VERTEX
  5
2A31
  8
0
 62
     0
 10
142.027876
 20
102.516434
 30
0.0
  0
VERTEX
  5
2A32
  8
0
 62
     0
 10
141.858603
 20
102.518221
 30
0.0
  0
VERTEX
  5
2A33
  8
0
 62
     0
 10
140.949791
 20
102.544446
 30
0.0
  0
VERTEX
  5
2A34
  8
0
 62
     0
 10
140.097052
 20
102.585044
 30
0.0
  0
SEQEND
  5
2A35
  8
0
 62
     0
  0
LINE
  5
25BE
  8
0
 62
     0
 10
137.921883
 20
102.750258
 30
0.0
 11
136.208384
 21
102.936419
 31
0.0
  0
LINE
  5
25BF
  8
0
 62
     0
 10
140.625646
 20
105.135371
 30
0.0
 11
140.625646
 21
108.135346
 31
0.0
  0
LINE
  5
25C0
  8
0
 62
     0
 10
138.500646
 20
104.385371
 30
0.0
 11
138.500646
 21
108.635371
 31
0.0
  0
LINE
  5
25C1
  8
0
 62
     0
 10
138.500646
 20
105.424062
 30
0.0
 11
140.625646
 21
105.424062
 31
0.0
  0
LINE
  5
25C2
  8
0
 62
     0
 10
140.470395
 20
102.567269
 30
0.0
 11
140.470395
 21
102.585044
 31
0.0
  0
LINE
  5
25C3
  8
0
 62
     0
 10
138.500646
 20
106.835371
 30
0.0
 11
140.625646
 21
106.835371
 31
0.0
  0
LINE
  5
25C4
  8
0
 62
     0
 10
142.525646
 20
105.135371
 30
0.0
 11
142.525646
 21
108.135346
 31
0.0
  0
POLYLINE
  5
25C5
  8
0
 62
     0
 66
     1
 10
0.0
 20
0.0
 30
0.0
  0
VERTEX
  5
2A36
  8
0
 62
     0
 10
142.027816
 20
102.510769
 30
0.0
  0
VERTEX
  5
2A37
  8
0
 62
     0
 10
142.101582
 20
102.510106
 30
0.0
  0
VERTEX
  5
2A38
  8
0
 62
     0
 10
142.17284
 20
102.509589
 30
0.0
  0
VERTEX
  5
2A39
  8
0
 62
     0
 10
142.231802
 20
102.509251
 30
0.0
  0
VERTEX
  5
2A3A
  8
0
 62
     0
 10
142.270373
 20
102.509087
 30
0.0
  0
SEQEND
  5
2A3B
  8
0
 62
     0
  0
LINE
  5
25C6
  8
0
 62
     0
 10
142.441702
 20
102.518221
 30
0.0
 11
143.434726
 21
102.508183
 31
0.0
  0
POLYLINE
  5
25C7
  8
0
 62
     0
 66
     1
 10
0.0
 20
0.0
 30
0.0
  0
VERTEX
  5
2A3C
  8
0
 62
     0
 10
142.270373
 20
102.509087
 30
0.0
  0
VERTEX
  5
2A3D
  8
0
 62
     0
 10
142.466951
 20
102.508596
 30
0.0
  0
VERTEX
  5
2A3E
  8
0
 62
     0
 10
142.646792
 20
102.50832
 30
0.0
  0
VERTEX
  5
2A3F
  8
0
 62
     0
 10
142.80971
 20
102.508183
 30
0.0
  0
SEQEND
  5
2A40
  8
0
 62
     0
  0
POLYLINE
  5
25C8
  8
0
 62
     0
 66
     1
 10
0.0
 20
0.0
 30
0.0
  0
VERTEX
  5
2A41
  8
0
 62
     0
 10
142.809705
 20
102.485413
 30
0.0
  0
VERTEX
  5
2A42
  8
0
 62
     0
 10
143.006173
 20
102.485372
 30
0.0
  0
VERTEX
  5
2A43
  8
0
 62
     0
 10
143.203233
 20
102.485372
 30
0.0
  0
VERTEX
  5
2A44
  8
0
 62
     0
 10
143.32948
 20
102.485428
 30
0.0
  0
SEQEND
  5
2A45
  8
0
 62
     0
  0
POLYLINE
  5
25C9
  8
0
 62
     0
 66
     1
 10
0.0
 20
0.0
 30
0.0
  0
VERTEX
  5
2A46
  8
0
 62
     0
 10
143.434726
 20
102.508183
 30
0.0
  0
VERTEX
  5
2A47
  8
0
 62
     0
 10
143.472044
 20
102.50832
 30
0.0
  0
VERTEX
  5
2A48
  8
0
 62
     0
 10
143.49167
 20
102.508596
 30
0.0
  0
SEQEND
  5
2A49
  8
0
 62
     0
  0
LINE
  5
25CA
  8
0
 62
     0
 10
143.49167
 20
102.508596
 30
0.0
 11
143.494947
 21
102.508864
 31
0.0
  0
LINE
  5
25CB
  8
0
 62
     0
 10
156.000646
 20
82.135371
 30
0.0
 11
156.000646
 21
104.385371
 31
0.0
  0
LINE
  5
25CC
  8
0
 62
     0
 10
155.500646
 20
82.135371
 30
0.0
 11
155.500646
 21
104.327491
 31
0.0
  0
LINE
  5
25CD
  8
0
 62
     0
 10
155.500646
 20
82.135371
 30
0.0
 11
156.000646
 21
82.135371
 31
0.0
  0
LINE
  5
25CE
  8
0
 62
     0
 10
157.250646
 20
107.404798
 30
0.0
 11
157.250646
 21
115.228754
 31
0.0
  0
LINE
  5
25CF
  8
0
 62
     0
 10
156.500646
 20
105.135371
 30
0.0
 11
156.500646
 21
119.835371
 31
0.0
  0
LINE
  5
25D0
  8
0
 62
     0
 10
154.325646
 20
106.835371
 30
0.0
 11
155.806318
 21
106.835371
 31
0.0
  0
LINE
  5
25D1
  8
0
 62
     0
 10
154.325646
 20
105.424062
 30
0.0
 11
155.80016
 21
105.424062
 31
0.0
  0
LINE
  5
25D2
  8
0
 62
     0
 10
154.325646
 20
105.135371
 30
0.0
 11
154.325646
 21
108.135346
 31
0.0
  0
LINE
  5
25D3
  8
0
 62
     0
 10
152.425646
 20
105.135371
 30
0.0
 11
152.425646
 21
108.135346
 31
0.0
  0
LINE
  5
25D4
  8
0
 62
     0
 10
154.325646
 20
108.135371
 30
0.0
 11
152.425646
 21
108.135371
 31
0.0
  0
LINE
  5
25D5
  8
0
 62
     0
 10
152.425646
 20
107.596756
 30
0.0
 11
154.325646
 21
107.596756
 31
0.0
  0
LINE
  5
25D6
  8
0
 62
     0
 10
155.814172
 20
108.635371
 30
0.0
 11
155.798901
 21
105.135371
 31
0.0
  0
ARC
  5
25D7
  8
0
 62
     0
 10
156.700646
 20
104.823664
 30
0.0
 40
0.3
 50
280.916245
 51
0.0
  0
LINE
  5
25D8
  8
0
 62
     0
 10
156.880951
 20
105.050471
 30
0.0
 11
156.754875
 21
104.997778
 31
0.0
  0
LINE
  5
25D9
  8
0
 62
     0
 10
156.450646
 20
104.385371
 30
0.0
 11
156.450646
 21
105.135371
 31
0.0
  0
LINE
  5
25DA
  8
0
 62
     0
 10
156.754875
 20
104.997778
 30
0.0
 11
156.757457
 21
104.529093
 31
0.0
  0
LINE
  5
25DB
  8
0
 62
     0
 10
156.739387
 20
105.135371
 30
0.0
 11
156.754875
 21
104.997778
 31
0.0
  0
LINE
  5
25DC
  8
0
 62
     0
 10
156.450646
 20
104.479877
 30
0.0
 11
156.757458
 21
104.529092
 31
0.0
  0
LINE
  5
25DD
  8
0
 62
     0
 10
156.754876
 20
104.997777
 30
0.0
 11
156.450646
 21
104.948758
 31
0.0
  0
LINE
  5
25DE
  8
0
 62
     0
 10
156.955151
 20
105.135371
 30
0.0
 11
156.880951
 21
105.050471
 31
0.0
  0
ARC
  5
25DF
  8
0
 62
     0
 10
156.250646
 20
107.404798
 30
0.0
 40
1.0
 50
319.217579
 51
0.0
  0
LINE
  5
25E0
  8
0
 62
     0
 10
157.000646
 20
109.183289
 30
0.0
 11
157.250646
 21
109.183289
 31
0.0
  0
LINE
  5
25E1
  8
0
 62
     0
 10
157.000646
 20
115.228754
 30
0.0
 11
157.250646
 21
115.228754
 31
0.0
  0
LINE
  5
25EA
  8
0
 62
     0
 10
157.000646
 20
138.835371
 30
0.0
 11
157.100646
 21
143.335371
 31
0.0
  0
LINE
  5
25EB
  8
0
 62
     0
 10
157.100646
 20
148.535371
 30
0.0
 11
157.100646
 21
134.835371
 31
0.0
  0
ARC
  5
25EC
  8
0
 62
     0
 10
156.300646
 20
129.135371
 30
0.0
 40
0.8
 50
332.482452
 51
0.0
  0
LINE
  5
25ED
  8
0
 62
     0
 10
157.100646
 20
129.835371
 30
0.0
 11
157.100646
 21
129.135371
 31
0.0
  0
LINE
  5
25EE
  8
0
 62
     0
 10
157.100646
 20
129.835371
 30
0.0
 11
157.000646
 21
129.835371
 31
0.0
  0
LINE
  5
25EF
  8
0
 62
     0
 10
157.000646
 20
134.835371
 30
0.0
 11
157.100646
 21
138.835371
 31
0.0
  0
LINE
  5
25F0
  8
0
 62
     0
 10
157.000646
 20
131.835371
 30
0.0
 11
157.100646
 21
134.835371
 31
0.0
  0
LINE
  5
25F1
  8
0
 62
     0
 10
157.100646
 20
134.335371
 30
0.0
 11
157.100646
 21
130.635371
 31
0.0
  0
LINE
  5
25F2
  8
0
 62
     0
 10
157.100646
 20
134.835371
 30
0.0
 11
157.000646
 21
134.835371
 31
0.0
  0
LINE
  5
25F3
  8
0
 62
     0
 10
157.100646
 20
131.835371
 30
0.0
 11
157.000646
 21
131.835371
 31
0.0
  0
LINE
  5
25F4
  8
0
 62
     0
 10
157.100646
 20
130.635371
 30
0.0
 11
157.040646
 21
130.635371
 31
0.0
  0
LINE
  5
25F5
  8
0
 62
     0
 10
157.100646
 20
138.835371
 30
0.0
 11
157.000646
 21
138.835371
 31
0.0
  0
POLYLINE
  5
25F6
  8
0
 62
     0
 66
     1
 10
0.0
 20
0.0
 30
0.0
  0
VERTEX
  5
2A4A
  8
0
 62
     0
 10
153.974813
 20
150.135371
 30
0.0
  0
VERTEX
  5
2A4B
  8
0
 62
     0
 10
153.972845
 20
150.059079
 30
0.0
  0
VERTEX
  5
2A4C
  8
0
 62
     0
 10
153.966889
 20
149.98443
 30
0.0
  0
VERTEX
  5
2A4D
  8
0
 62
     0
 10
153.957224
 20
149.915813
 30
0.0
  0
VERTEX
  5
2A4E
  8
0
 62
     0
 10
153.944037
 20
149.854847
 30
0.0
  0
VERTEX
  5
2A4F
  8
0
 62
     0
 10
153.92781
 20
149.804369
 30
0.0
  0
VERTEX
  5
2A50
  8
0
 62
     0
 10
153.909336
 20
149.766893
 30
0.0
  0
VERTEX
  5
2A51
  8
0
 62
     0
 10
153.88894
 20
149.743355
 30
0.0
  0
VERTEX
  5
2A52
  8
0
 62
     0
 10
153.867633
 20
149.735371
 30
0.0
  0
SEQEND
  5
2A53
  8
0
 62
     0
  0
LINE
  5
25F7
  8
0
 62
     0
 10
153.600646
 20
153.035371
 30
0.0
 11
153.600646
 21
149.335371
 31
0.0
  0
LINE
  5
25F8
  8
0
 62
     0
 10
155.400646
 20
150.335371
 30
0.0
 11
155.900646
 21
149.335371
 31
0.0
  0
LINE
  5
25F9
  8
0
 62
     0
 10
153.600646
 20
149.735371
 30
0.0
 11
155.400646
 21
149.735371
 31
0.0
  0
LINE
  5
25FA
  8
0
 62
     0
 10
153.600646
 20
149.335371
 30
0.0
 11
157.100646
 21
149.335371
 31
0.0
  0
LINE
  5
25FB
  8
0
 62
     0
 10
157.000646
 20
143.335371
 30
0.0
 11
157.100646
 21
148.835371
 31
0.0
  0
LINE
  5
25FC
  8
0
 62
     0
 10
157.100646
 20
143.335371
 30
0.0
 11
157.000646
 21
143.335371
 31
0.0
  0
LINE
  5
25FD
  8
0
 62
     0
 10
155.678345
 20
149.779973
 30
0.0
 11
155.674465
 21
149.335371
 31
0.0
  0
LINE
  5
25FE
  8
0
 62
     0
 10
157.000646
 20
149.335371
 30
0.0
 11
157.000646
 21
148.835371
 31
0.0
  0
LINE
  5
25FF
  8
0
 62
     0
 10
157.100646
 20
148.835371
 30
0.0
 11
157.000646
 21
148.835371
 31
0.0
  0
LINE
  5
2600
  8
0
 62
     0
 10
155.100646
 20
154.628229
 30
0.0
 11
155.400646
 21
153.342514
 31
0.0
  0
LINE
  5
2601
  8
0
 62
     0
 10
155.400646
 20
159.485371
 30
0.0
 11
155.100646
 21
159.485371
 31
0.0
  0
LINE
  5
2602
  8
0
 62
     0
 10
155.400646
 20
158.985371
 30
0.0
 11
155.100646
 21
158.985371
 31
0.0
  0
LINE
  5
2603
  8
0
 62
     0
 10
153.600646
 20
151.735371
 30
0.0
 11
155.400646
 21
151.735371
 31
0.0
  0
LINE
  5
2604
  8
0
 62
     0
 10
155.100646
 20
153.035371
 30
0.0
 11
153.600646
 21
153.035371
 31
0.0
  0
LINE
  5
2605
  8
0
 62
     0
 10
153.600646
 20
151.335371
 30
0.0
 11
153.974813
 21
151.335371
 31
0.0
  0
LINE
  5
2606
  8
0
 62
     0
 10
153.974813
 20
150.135371
 30
0.0
 11
153.600646
 21
150.135371
 31
0.0
  0
LINE
  5
2607
  8
0
 62
     0
 10
153.974813
 20
150.135371
 30
0.0
 11
153.974813
 21
151.335371
 31
0.0
  0
POLYLINE
  5
2608
  8
0
 62
     0
 66
     1
 10
0.0
 20
0.0
 30
0.0
  0
VERTEX
  5
2A54
  8
0
 62
     0
 10
153.867633
 20
151.735371
 30
0.0
  0
VERTEX
  5
2A55
  8
0
 62
     0
 10
153.88894
 20
151.727388
 30
0.0
  0
VERTEX
  5
2A56
  8
0
 62
     0
 10
153.909336
 20
151.70385
 30
0.0
  0
VERTEX
  5
2A57
  8
0
 62
     0
 10
153.92781
 20
151.666374
 30
0.0
  0
VERTEX
  5
2A58
  8
0
 62
     0
 10
153.944037
 20
151.615896
 30
0.0
  0
VERTEX
  5
2A59
  8
0
 62
     0
 10
153.957224
 20
151.55493
 30
0.0
  0
VERTEX
  5
2A5A
  8
0
 62
     0
 10
153.966889
 20
151.486313
 30
0.0
  0
VERTEX
  5
2A5B
  8
0
 62
     0
 10
153.972845
 20
151.411664
 30
0.0
  0
VERTEX
  5
2A5C
  8
0
 62
     0
 10
153.974813
 20
151.335371
 30
0.0
  0
SEQEND
  5
2A5D
  8
0
 62
     0
  0
LINE
  5
2609
  8
0
 62
     0
 10
157.000646
 20
171.774265
 30
0.0
 11
157.000646
 21
215.235371
 31
0.0
  0
LINE
  5
260A
  8
0
 62
     0
 10
156.700646
 20
171.774265
 30
0.0
 11
156.700646
 21
215.535371
 31
0.0
  0
LINE
  5
260B
  8
0
 62
     0
 10
152.850646
 20
210.635371
 30
0.0
 11
152.850646
 21
191.535371
 31
0.0
  0
LINE
  5
260C
  8
0
 62
     0
 10
143.350646
 20
191.535371
 30
0.0
 11
143.350646
 21
210.635371
 31
0.0
  0
LINE
  5
260D
  8
0
 62
     0
 10
142.100646
 20
171.624174
 30
0.0
 11
142.100646
 21
211.935371
 31
0.0
  0
LINE
  5
260E
  8
0
 62
     0
 10
140.600646
 20
171.519284
 30
0.0
 11
140.600646
 21
211.935371
 31
0.0
  0
LINE
  5
260F
  8
0
 62
     0
 10
139.350646
 20
212.504117
 30
0.0
 11
139.350646
 21
191.535371
 31
0.0
  0
ARC
  5
2610
  8
0
 62
     0
 10
134.600646
 20
295.375371
 30
0.0
 40
125.24
 50
273.983352
 51
278.40211
  0
LINE
  5
2611
  8
0
 62
     0
 10
152.850646
 20
198.535371
 30
0.0
 11
143.350646
 21
198.535371
 31
0.0
  0
LINE
  5
2612
  8
0
 62
     0
 10
143.350646
 20
197.035371
 30
0.0
 11
152.850646
 21
197.035371
 31
0.0
  0
LINE
  5
2613
  8
0
 62
     0
 10
152.850646
 20
191.535371
 30
0.0
 11
143.350646
 21
191.535371
 31
0.0
  0
LINE
  5
2614
  8
0
 62
     0
 10
142.950646
 20
187.335371
 30
0.0
 11
154.050646
 21
187.335371
 31
0.0
  0
LINE
  5
2615
  8
0
 62
     0
 10
142.950646
 20
186.335371
 30
0.0
 11
153.250646
 21
186.335371
 31
0.0
  0
LINE
  5
2616
  8
0
 62
     0
 10
145.100646
 20
186.035371
 30
0.0
 11
151.100646
 21
186.035371
 31
0.0
  0
LINE
  5
2617
  8
0
 62
     0
 10
142.950646
 20
184.735371
 30
0.0
 11
153.250646
 21
184.735371
 31
0.0
  0
LINE
  5
2618
  8
0
 62
     0
 10
143.300646
 20
181.635371
 30
0.0
 11
152.900646
 21
181.635371
 31
0.0
  0
POLYLINE
  5
2619
  8
0
 62
     0
 66
     1
 10
0.0
 20
0.0
 30
0.0
  0
VERTEX
  5
2A5E
  8
0
 62
     0
 10
143.300646
 20
181.035371
 30
0.0
  0
VERTEX
  5
2A5F
  8
0
 62
     0
 10
145.223166
 20
181.356931
 30
0.0
  0
VERTEX
  5
2A60
  8
0
 62
     0
 10
147.142001
 20
181.515634
 30
0.0
  0
VERTEX
  5
2A61
  8
0
 62
     0
 10
149.05938
 20
181.51563
 30
0.0
  0
VERTEX
  5
2A62
  8
0
 62
     0
 10
150.978163
 20
181.356927
 30
0.0
  0
VERTEX
  5
2A63
  8
0
 62
     0
 10
152.900646
 20
181.035371
 30
0.0
  0
SEQEND
  5
2A64
  8
0
 62
     0
  0
LINE
  5
261A
  8
0
 62
     0
 10
143.300646
 20
170.437917
 30
0.0
 11
143.300646
 21
181.635371
 31
0.0
  0
LINE
  5
261B
  8
0
 62
     0
 10
142.950646
 20
171.683612
 30
0.0
 11
142.950646
 21
187.335371
 31
0.0
  0
LINE
  5
261C
  8
0
 62
     0
 10
141.950646
 20
191.335371
 30
0.0
 11
141.950646
 21
171.613685
 31
0.0
  0
LINE
  5
261D
  8
0
 62
     0
 10
140.750646
 20
191.335371
 30
0.0
 11
140.750646
 21
171.529773
 31
0.0
  0
LINE
  5
261E
  8
0
 62
     0
 10
139.750646
 20
171.459846
 30
0.0
 11
139.750646
 21
186.335371
 31
0.0
  0
LINE
  5
261F
  8
0
 62
     0
 10
139.400646
 20
170.227389
 30
0.0
 11
139.400646
 21
181.635371
 31
0.0
  0
LINE
  5
2620
  8
0
 62
     0
 10
139.400646
 20
171.435371
 30
0.0
 11
143.300646
 21
171.708086
 31
0.0
  0
LINE
  5
2621
  8
0
 62
     0
 10
136.600646
 20
161.938473
 30
0.0
 11
136.600646
 21
161.710649
 31
0.0
  0
LINE
  5
2626
  8
0
 62
     0
 10
139.600646
 20
177.135371
 30
0.0
 11
139.600646
 21
171.449357
 31
0.0
  0
LINE
  5
2627
  8
0
 62
     0
 10
140.600646
 20
171.694809
 30
0.0
 11
139.750646
 21
171.635371
 31
0.0
  0
LINE
  5
2628
  8
0
 62
     0
 10
139.750646
 20
174.935371
 30
0.0
 11
139.600646
 21
174.935371
 31
0.0
  0
LINE
  5
2629
  8
0
 62
     0
 10
139.600646
 20
177.135371
 30
0.0
 11
139.400646
 21
177.0371
 31
0.0
  0
LINE
  5
2634
  8
0
 62
     0
 10
143.149888
 20
177.111176
 30
0.0
 11
143.149888
 21
171.697544
 31
0.0
  0
LINE
  5
2635
  8
0
 62
     0
 10
142.950646
 20
171.859137
 30
0.0
 11
142.100646
 21
171.799699
 31
0.0
  0
LINE
  5
2636
  8
0
 62
     0
 10
142.950646
 20
177.209075
 30
0.0
 11
143.300646
 21
177.0371
 31
0.0
  0
LINE
  5
2637
  8
0
 62
     0
 10
142.100646
 20
191.435371
 30
0.0
 11
140.600646
 21
191.435371
 31
0.0
  0
LINE
  5
2638
  8
0
 62
     0
 10
140.600646
 20
190.735371
 30
0.0
 11
140.750646
 21
190.735371
 31
0.0
  0
LINE
  5
2639
  8
0
 62
     0
 10
140.600646
 20
190.335371
 30
0.0
 11
140.750646
 21
190.335371
 31
0.0
  0
LINE
  5
263A
  8
0
 62
     0
 10
140.600646
 20
190.035371
 30
0.0
 11
140.750646
 21
190.035371
 31
0.0
  0
LINE
  5
263B
  8
0
 62
     0
 10
140.600646
 20
184.735371
 30
0.0
 11
140.750646
 21
184.735371
 31
0.0
  0
LINE
  5
263C
  8
0
 62
     0
 10
137.600646
 20
184.735371
 30
0.0
 11
137.600646
 21
186.035371
 31
0.0
  0
LINE
  5
263D
  8
0
 62
     0
 10
136.600646
 20
186.035371
 30
0.0
 11
136.600646
 21
186.335371
 31
0.0
  0
LINE
  5
263E
  8
0
 62
     0
 10
139.750646
 20
181.335371
 30
0.0
 11
140.600646
 21
181.335371
 31
0.0
  0
LINE
  5
263F
  8
0
 62
     0
 10
138.350646
 20
184.935371
 30
0.0
 11
139.750646
 21
184.935371
 31
0.0
  0
LINE
  5
2640
  8
0
 62
     0
 10
138.350646
 20
184.935371
 30
0.0
 11
138.350646
 21
186.335371
 31
0.0
  0
LINE
  5
2641
  8
0
 62
     0
 10
139.450646
 20
184.735371
 30
0.0
 11
139.450646
 21
184.935371
 31
0.0
  0
LINE
  5
2642
  8
0
 62
     0
 10
139.750646
 20
186.335371
 30
0.0
 11
140.600646
 21
187.048606
 31
0.0
  0
LINE
  5
2643
  8
0
 62
     0
 10
138.300646
 20
198.535371
 30
0.0
 11
138.300646
 21
197.035371
 31
0.0
  0
LINE
  5
2644
  8
0
 62
     0
 10
138.100646
 20
197.035371
 30
0.0
 11
138.100646
 21
198.535371
 31
0.0
  0
LINE
  5
2645
  8
0
 62
     0
 10
144.350646
 20
184.935371
 30
0.0
 11
142.950646
 21
184.935371
 31
0.0
  0
LINE
  5
2646
  8
0
 62
     0
 10
143.250646
 20
184.735371
 30
0.0
 11
143.250646
 21
184.935371
 31
0.0
  0
LINE
  5
2647
  8
0
 62
     0
 10
144.350646
 20
184.935371
 30
0.0
 11
144.350646
 21
186.335371
 31
0.0
  0
LINE
  5
2648
  8
0
 62
     0
 10
146.100646
 20
186.035371
 30
0.0
 11
146.100646
 21
186.335371
 31
0.0
  0
LINE
  5
2649
  8
0
 62
     0
 10
145.100646
 20
184.735371
 30
0.0
 11
145.100646
 21
186.035371
 31
0.0
  0
LINE
  5
264A
  8
0
 62
     0
 10
140.750646
 20
191.335371
 30
0.0
 11
142.100646
 21
191.335371
 31
0.0
  0
LINE
  5
264B
  8
0
 62
     0
 10
144.600646
 20
198.535371
 30
0.0
 11
144.600646
 21
197.035371
 31
0.0
  0
LINE
  5
264C
  8
0
 62
     0
 10
144.400646
 20
198.535371
 30
0.0
 11
144.400646
 21
197.035371
 31
0.0
  0
LINE
  5
264D
  8
0
 62
     0
 10
156.050646
 20
196.135371
 30
0.0
 11
156.050646
 21
174.935371
 31
0.0
  0
LINE
  5
264E
  8
0
 62
     0
 10
154.050646
 20
174.935371
 30
0.0
 11
154.050646
 21
196.135371
 31
0.0
  0
LINE
  5
264F
  8
0
 62
     0
 10
153.250646
 20
174.935371
 30
0.0
 11
153.250646
 21
186.335371
 31
0.0
  0
LINE
  5
2650
  8
0
 62
     0
 10
152.900646
 20
181.635371
 30
0.0
 11
152.900646
 21
171.479578
 31
0.0
  0
ARC
  5
2651
  8
0
 62
     0
 10
155.200646
 20
163.589761
 30
0.0
 40
0.2
 50
0.0
 51
100.810826
  0
ARC
  5
2652
  8
0
 62
     0
 10
152.386239
 20
163.375942
 30
0.0
 40
0.5
 50
348.816451
 51
359.5
  0
ARC
  5
2653
  8
0
 62
     0
 10
154.900646
 20
163.393585
 30
0.0
 40
0.2
 50
0.0
 51
101.019833
  0
LINE
  5
2654
  8
0
 62
     0
 10
154.050646
 20
175.935371
 30
0.0
 11
156.050646
 21
175.935371
 31
0.0
  0
LINE
  5
2655
  8
0
 62
     0
 10
152.900646
 20
174.935371
 30
0.0
 11
157.000646
 21
174.935371
 31
0.0
  0
LINE
  5
2656
  8
0
 62
     0
 10
153.100646
 20
177.135371
 30
0.0
 11
153.100646
 21
174.935371
 31
0.0
  0
LINE
  5
2657
  8
0
 62
     0
 10
153.100646
 20
177.135371
 30
0.0
 11
152.900646
 21
177.0371
 31
0.0
  0
LINE
  5
2658
  8
0
 62
     0
 10
154.300646
 20
174.935371
 30
0.0
 11
154.300646
 21
175.935371
 31
0.0
  0
ARC
  5
2659
  8
0
 62
     0
 10
156.000646
 20
171.774265
 30
0.0
 40
1.0
 50
279.822676
 51
0.0
  0
LINE
  5
265A
  8
0
 62
     0
 10
156.569459
 20
171.36628
 30
0.0
 11
156.813236
 21
171.191429
 31
0.0
  0
LINE
  5
265B
  8
0
 62
     0
 10
156.700646
 20
171.774265
 30
0.0
 11
157.000646
 21
171.774265
 31
0.0
  0
ARC
  5
265C
  8
0
 62
     0
 10
156.000646
 20
171.774265
 30
0.0
 40
0.700001
 50
324.349756
 51
0.0
  0
POLYLINE
  5
265D
  8
0
 62
     0
 66
     1
 10
0.0
 20
0.0
 30
0.0
  0
VERTEX
  5
2A65
  8
0
 62
     0
 10
156.171245
 20
170.788924
 30
0.0
  0
VERTEX
  5
2A66
  8
0
 62
     0
 10
156.287058
 20
170.83602
 30
0.0
  0
VERTEX
  5
2A67
  8
0
 62
     0
 10
156.387044
 20
170.930198
 30
0.0
  0
VERTEX
  5
2A68
  8
0
 62
     0
 10
156.467209
 20
171.059353
 30
0.0
  0
VERTEX
  5
2A69
  8
0
 62
     0
 10
156.5274
 20
171.209369
 30
0.0
  0
VERTEX
  5
2A6A
  8
0
 62
     0
 10
156.569459
 20
171.36628
 30
0.0
  0
SEQEND
  5
2A6B
  8
0
 62
     0
  0
LINE
  5
265E
  8
0
 62
     0
 10
157.000646
 20
173.235371
 30
0.0
 11
157.100646
 21
173.235371
 31
0.0
  0
LINE
  5
265F
  8
0
 62
     0
 10
155.800646
 20
174.935371
 30
0.0
 11
155.800646
 21
175.935371
 31
0.0
  0
LINE
  5
2660
  8
0
 62
     0
 10
151.850646
 20
184.935371
 30
0.0
 11
153.250646
 21
184.935371
 31
0.0
  0
LINE
  5
2661
  8
0
 62
     0
 10
150.100646
 20
186.035371
 30
0.0
 11
150.100646
 21
186.335371
 31
0.0
  0
LINE
  5
2662
  8
0
 62
     0
 10
151.850646
 20
184.935371
 30
0.0
 11
151.850646
 21
186.335371
 31
0.0
  0
LINE
  5
2663
  8
0
 62
     0
 10
151.100646
 20
184.735371
 30
0.0
 11
151.100646
 21
186.035371
 31
0.0
  0
LINE
  5
2664
  8
0
 62
     0
 10
151.600646
 20
198.535371
 30
0.0
 11
151.600646
 21
197.035371
 31
0.0
  0
LINE
  5
2665
  8
0
 62
     0
 10
155.250646
 20
194.335371
 30
0.0
 11
155.250646
 21
184.835371
 31
0.0
  0
LINE
  5
2666
  8
0
 62
     0
 10
154.600646
 20
190.635371
 30
0.0
 11
154.600646
 21
184.835371
 31
0.0
  0
LINE
  5
2667
  8
0
 62
     0
 10
154.400646
 20
190.935371
 30
0.0
 11
154.400646
 21
184.935371
 31
0.0
  0
LINE
  5
2668
  8
0
 62
     0
 10
156.050646
 20
184.835371
 30
0.0
 11
154.050646
 21
184.835371
 31
0.0
  0
LINE
  5
2669
  8
0
 62
     0
 10
156.050646
 20
183.635371
 30
0.0
 11
154.050646
 21
183.635371
 31
0.0
  0
LINE
  5
266A
  8
0
 62
     0
 10
155.800646
 20
183.435371
 30
0.0
 11
154.300646
 21
183.435371
 31
0.0
  0
LINE
  5
266B
  8
0
 62
     0
 10
155.800646
 20
180.635371
 30
0.0
 11
154.300646
 21
180.635371
 31
0.0
  0
LINE
  5
266C
  8
0
 62
     0
 10
155.800646
 20
180.135371
 30
0.0
 11
154.300646
 21
180.135371
 31
0.0
  0
LINE
  5
266D
  8
0
 62
     0
 10
154.050646
 20
179.935371
 30
0.0
 11
156.050646
 21
179.935371
 31
0.0
  0
LINE
  5
266E
  8
0
 62
     0
 10
153.250646
 20
181.335371
 30
0.0
 11
154.050646
 21
181.335371
 31
0.0
  0
LINE
  5
266F
  8
0
 62
     0
 10
155.250646
 20
183.635371
 30
0.0
 11
155.250646
 21
183.435371
 31
0.0
  0
LINE
  5
2670
  8
0
 62
     0
 10
154.600646
 20
183.635371
 30
0.0
 11
154.600646
 21
183.435371
 31
0.0
  0
LINE
  5
2671
  8
0
 62
     0
 10
154.300646
 20
179.935371
 30
0.0
 11
154.300646
 21
183.435371
 31
0.0
  0
LINE
  5
2672
  8
0
 62
     0
 10
153.250646
 20
186.335371
 30
0.0
 11
154.050646
 21
187.006651
 31
0.0
  0
LINE
  5
2673
  8
0
 62
     0
 10
153.000646
 20
184.935371
 30
0.0
 11
153.000646
 21
184.735371
 31
0.0
  0
LINE
  5
2674
  8
0
 62
     0
 10
154.600646
 20
185.935371
 30
0.0
 11
154.400646
 21
185.935371
 31
0.0
  0
LINE
  5
2675
  8
0
 62
     0
 10
154.400646
 20
185.335371
 30
0.0
 11
154.600646
 21
185.335371
 31
0.0
  0
LINE
  5
2676
  8
0
 62
     0
 10
154.400646
 20
184.935371
 30
0.0
 11
154.050646
 21
184.935371
 31
0.0
  0
LINE
  5
2677
  8
0
 62
     0
 10
155.800646
 20
179.935371
 30
0.0
 11
155.800646
 21
183.435371
 31
0.0
  0
LINE
  5
2678
  8
0
 62
     0
 10
156.050646
 20
196.135371
 30
0.0
 11
154.050646
 21
196.135371
 31
0.0
  0
LINE
  5
2679
  8
0
 62
     0
 10
156.050646
 20
194.335371
 30
0.0
 11
154.050646
 21
194.335371
 31
0.0
  0
LINE
  5
267A
  8
0
 62
     0
 10
154.050646
 20
190.935371
 30
0.0
 11
155.250646
 21
190.935371
 31
0.0
  0
LINE
  5
267B
  8
0
 62
     0
 10
155.250646
 20
190.635371
 30
0.0
 11
154.600646
 21
190.635371
 31
0.0
  0
LINE
  5
267C
  8
0
 62
     0
 10
157.000646
 20
195.872016
 30
0.0
 11
157.100646
 21
195.872016
 31
0.0
  0
LINE
  5
267D
  8
0
 62
     0
 10
157.000646
 20
194.884801
 30
0.0
 11
157.100646
 21
194.884801
 31
0.0
  0
LINE
  5
267E
  8
0
 62
     0
 10
153.350646
 20
215.635371
 30
0.0
 11
145.850646
 21
215.635371
 31
0.0
  0
LINE
  5
267F
  8
0
 62
     0
 10
143.350646
 20
210.635371
 30
0.0
 11
154.950646
 21
210.635371
 31
0.0
  0
LINE
  5
2680
  8
0
 62
     0
 10
152.850646
 20
207.535371
 30
0.0
 11
143.350646
 21
207.535371
 31
0.0
  0
LINE
  5
2681
  8
0
 62
     0
 10
143.350646
 20
206.035371
 30
0.0
 11
152.850646
 21
206.035371
 31
0.0
  0
LINE
  5
2682
  8
0
 62
     0
 10
152.850646
 20
204.535371
 30
0.0
 11
143.350646
 21
204.535371
 31
0.0
  0
LINE
  5
2683
  8
0
 62
     0
 10
143.350646
 20
203.035371
 30
0.0
 11
152.850646
 21
203.035371
 31
0.0
  0
LINE
  5
2684
  8
0
 62
     0
 10
152.850646
 20
201.535371
 30
0.0
 11
143.350646
 21
201.535371
 31
0.0
  0
LINE
  5
2685
  8
0
 62
     0
 10
143.350646
 20
200.035371
 30
0.0
 11
152.850646
 21
200.035371
 31
0.0
  0
LINE
  5
2686
  8
0
 62
     0
 10
140.600646
 20
211.935371
 30
0.0
 11
142.100646
 21
211.935371
 31
0.0
  0
LINE
  5
2687
  8
0
 62
     0
 10
138.300646
 20
204.535371
 30
0.0
 11
138.300646
 21
203.035371
 31
0.0
  0
LINE
  5
2688
  8
0
 62
     0
 10
138.100646
 20
203.035371
 30
0.0
 11
138.100646
 21
204.535371
 31
0.0
  0
LINE
  5
2689
  8
0
 62
     0
 10
138.300646
 20
201.535371
 30
0.0
 11
138.300646
 21
200.035371
 31
0.0
  0
LINE
  5
268A
  8
0
 62
     0
 10
138.100646
 20
200.035371
 30
0.0
 11
138.100646
 21
201.535371
 31
0.0
  0
LINE
  5
268B
  8
0
 62
     0
 10
138.300646
 20
207.535371
 30
0.0
 11
138.300646
 21
206.035371
 31
0.0
  0
LINE
  5
268C
  8
0
 62
     0
 10
138.100646
 20
206.035371
 30
0.0
 11
138.100646
 21
207.535371
 31
0.0
  0
LINE
  5
268D
  8
0
 62
     0
 10
144.600646
 20
204.535371
 30
0.0
 11
144.600646
 21
203.035371
 31
0.0
  0
LINE
  5
268E
  8
0
 62
     0
 10
144.400646
 20
204.535371
 30
0.0
 11
144.400646
 21
203.035371
 31
0.0
  0
LINE
  5
268F
  8
0
 62
     0
 10
144.600646
 20
201.535371
 30
0.0
 11
144.600646
 21
200.035371
 31
0.0
  0
LINE
  5
2690
  8
0
 62
     0
 10
144.400646
 20
201.535371
 30
0.0
 11
144.400646
 21
200.035371
 31
0.0
  0
ARC
  5
2691
  8
0
 62
     0
 10
146.600646
 20
207.335371
 30
0.0
 40
2.0
 50
174.260799
 51
180.0
  0
LINE
  5
2692
  8
0
 62
     0
 10
144.600646
 20
207.335371
 30
0.0
 11
144.600646
 21
206.035371
 31
0.0
  0
LINE
  5
2693
  8
0
 62
     0
 10
144.400646
 20
207.535371
 30
0.0
 11
144.400646
 21
206.035371
 31
0.0
  0
ARC
  5
2694
  8
0
 62
     0
 10
143.750646
 20
211.935371
 30
0.0
 40
3.9
 50
67.380135
 51
112.619865
  0
ARC
  5
2695
  8
0
 62
     0
 10
145.250646
 20
213.635371
 30
0.0
 40
0.5
 50
270.0
 51
0.0
  0
LINE
  5
2696
  8
0
 62
     0
 10
145.850646
 20
215.635371
 30
0.0
 11
145.850646
 21
212.935371
 31
0.0
  0
LINE
  5
2697
  8
0
 62
     0
 10
145.250646
 20
213.135371
 30
0.0
 11
144.250646
 21
213.135371
 31
0.0
  0
LINE
  5
2698
  8
0
 62
     0
 10
144.250646
 20
212.935371
 30
0.0
 11
145.850646
 21
212.935371
 31
0.0
  0
LINE
  5
2699
  8
0
 62
     0
 10
144.400646
 20
210.635371
 30
0.0
 11
144.400646
 21
212.935371
 31
0.0
  0
LINE
  5
269A
  8
0
 62
     0
 10
144.250646
 20
213.135371
 30
0.0
 11
144.250646
 21
210.635371
 31
0.0
  0
LINE
  5
269B
  8
0
 62
     0
 10
145.750646
 20
215.535371
 30
0.0
 11
145.750646
 21
213.635371
 31
0.0
  0
LINE
  5
269C
  8
0
 62
     0
 10
151.600646
 20
204.535371
 30
0.0
 11
151.600646
 21
203.035371
 31
0.0
  0
LINE
  5
269D
  8
0
 62
     0
 10
151.600646
 20
201.535371
 30
0.0
 11
151.600646
 21
200.035371
 31
0.0
  0
ARC
  5
269E
  8
0
 62
     0
 10
149.600646
 20
207.335371
 30
0.0
 40
2.0
 50
0.0
 51
5.827235
  0
LINE
  5
269F
  8
0
 62
     0
 10
152.265
 20
207.335371
 30
0.0
 11
151.600646
 21
207.335371
 31
0.0
  0
LINE
  5
26A0
  8
0
 62
     0
 10
152.2374
 20
207.535371
 30
0.0
 11
152.265
 21
207.335371
 31
0.0
  0
LINE
  5
26A1
  8
0
 62
     0
 10
151.600646
 20
207.335371
 30
0.0
 11
151.600646
 21
206.035371
 31
0.0
  0
LINE
  5
26A2
  8
0
 62
     0
 10
152.264553
 20
207.535371
 30
0.0
 11
152.265
 21
207.335371
 31
0.0
  0
LINE
  5
26A3
  8
0
 62
     0
 10
157.100646
 20
200.986287
 30
0.0
 11
157.000646
 21
200.986287
 31
0.0
  0
ARC
  5
26A4
  8
0
 62
     0
 10
155.000646
 20
211.935371
 30
0.0
 40
3.9
 50
67.380135
 51
112.619865
  0
LINE
  5
26A5
  8
0
 62
     0
 10
156.700646
 20
215.535371
 30
0.0
 11
153.350646
 21
215.535371
 31
0.0
  0
LINE
  5
26A6
  8
0
 62
     0
 10
157.000646
 20
215.235371
 30
0.0
 11
153.450646
 21
215.235371
 31
0.0
  0
ARC
  5
26A7
  8
0
 62
     0
 10
153.950646
 20
213.635371
 30
0.0
 40
0.5
 50
180.0
 51
270.0
  0
LINE
  5
26A8
  8
0
 62
     0
 10
153.350646
 20
212.935371
 30
0.0
 11
153.350646
 21
215.635371
 31
0.0
  0
LINE
  5
26A9
  8
0
 62
     0
 10
153.350646
 20
212.935371
 30
0.0
 11
154.950646
 21
212.935371
 31
0.0
  0
LINE
  5
26AA
  8
0
 62
     0
 10
154.950646
 20
213.135371
 30
0.0
 11
153.950646
 21
213.135371
 31
0.0
  0
LINE
  5
26AB
  8
0
 62
     0
 10
154.950646
 20
210.635371
 30
0.0
 11
154.950646
 21
213.135371
 31
0.0
  0
LINE
  5
26AC
  8
0
 62
     0
 10
154.800646
 20
210.635371
 30
0.0
 11
154.800646
 21
212.935371
 31
0.0
  0
LINE
  5
26AD
  8
0
 62
     0
 10
153.450646
 20
213.635371
 30
0.0
 11
153.450646
 21
215.535371
 31
0.0
  0
ARC
  5
26AE
  8
0
 62
     0
 10
156.700646
 20
215.235371
 30
0.0
 40
0.3
 50
0.0
 51
90.0
  0
ENDSEC
  0
EOF
