  0
SECTION
  2
HEADER
  9
$ACADVER
  1
AC1014
  9
$ACADMAINTVER
 70
     0
  9
$DWGCODEPAGE
  3
ANSI_1252
  9
$INSBASE
 10
93.894301
 20
236.06014
 30
0.0
  9
$EXTMIN
 10
-0.445283
 20
-5.434128
 30
0.0
  9
$EXTMAX
 10
151.554914
 20
35.900094
 30
0.0
  9
$LIMMIN
 10
0.0
 20
0.0
  9
$LIMMAX
 10
210.0
 20
297.0
  9
$ORTHOMODE
 70
     0
  9
$REGENMODE
 70
     1
  9
$FILLMODE
 70
     1
  9
$QTEXTMODE
 70
     0
  9
$MIRRTEXT
 70
     0
  9
$DRAGMODE
 70
     1
  9
$LTSCALE
 40
7.0
  9
$OSMODE
 70
  4095
  9
$ATTMODE
 70
     1
  9
$TEXTSIZE
 40
2.5
  9
$TRACEWID
 40
0.05
  9
$TEXTSTYLE
  7
STANDARD
  9
$CLAYER
  8
COTATION1
  9
$CELTYPE
  6
BYLAYER
  9
$CECOLOR
 62
   256
  9
$CELTSCALE
 40
1.0
  9
$DELOBJ
 70
     1
  9
$DISPSILH
 70
     0
  9
$DIMSCALE
 40
1.0
  9
$DIMASZ
 40
3.0
  9
$DIMEXO
 40
0.0625
  9
$DIMDLI
 40
0.38
  9
$DIMRND
 40
0.01
  9
$DIMDLE
 40
0.0
  9
$DIMEXE
 40
0.18
  9
$DIMTP
 40
0.0
  9
$DIMTM
 40
0.0
  9
$DIMTXT
 40
2.5
  9
$DIMCEN
 40
0.09
  9
$DIMTSZ
 40
0.0
  9
$DIMTOL
 70
     0
  9
$DIMLIM
 70
     0
  9
$DIMTIH
 70
     0
  9
$DIMTOH
 70
     0
  9
$DIMSE1
 70
     0
  9
$DIMSE2
 70
     0
  9
$DIMTAD
 70
     1
  9
$DIMZIN
 70
    12
  9
$DIMBLK
  1

  9
$DIMASO
 70
     1
  9
$DIMSHO
 70
     0
  9
$DIMPOST
  1

  9
$DIMAPOST
  1

  9
$DIMALT
 70
     0
  9
$DIMALTD
 70
     2
  9
$DIMALTF
 40
25.4
  9
$DIMLFAC
 40
1.0
  9
$DIMTOFL
 70
     1
  9
$DIMTVP
 40
0.0
  9
$DIMTIX
 70
     0
  9
$DIMSOXD
 70
     0
  9
$DIMSAH
 70
     0
  9
$DIMBLK1
  1

  9
$DIMBLK2
  1

  9
$DIMSTYLE
  2
SC_STAND
  9
$DIMCLRD
 70
     0
  9
$DIMCLRE
 70
     0
  9
$DIMCLRT
 70
     0
  9
$DIMTFAC
 40
1.0
  9
$DIMGAP
 40
1.0
  9
$DIMJUST
 70
     0
  9
$DIMSD1
 70
     0
  9
$DIMSD2
 70
     0
  9
$DIMTOLJ
 70
     1
  9
$DIMTZIN
 70
    12
  9
$DIMALTZ
 70
    12
  9
$DIMALTTZ
 70
    12
  9
$DIMFIT
 70
     5
  9
$DIMUPT
 70
     0
  9
$DIMUNIT
 70
     2
  9
$DIMDEC
 70
     3
  9
$DIMTDEC
 70
     3
  9
$DIMALTU
 70
     2
  9
$DIMALTTD
 70
     2
  9
$DIMTXSTY
  7
STANDARD
  9
$DIMAUNIT
 70
     0
  9
$LUNITS
 70
     2
  9
$LUPREC
 70
     3
  9
$SKETCHINC
 40
0.1
  9
$FILLETRAD
 40
0.0625
  9
$AUNITS
 70
     0
  9
$AUPREC
 70
     0
  9
$MENU
  1
ACAD
  9
$ELEVATION
 40
0.0
  9
$PELEVATION
 40
0.0
  9
$THICKNESS
 40
0.0
  9
$LIMCHECK
 70
     0
  9
$BLIPMODE
 70
     1
  9
$CHAMFERA
 40
0.0
  9
$CHAMFERB
 40
0.0
  9
$CHAMFERC
 40
0.0
  9
$CHAMFERD
 40
0.0
  9
$SKPOLY
 70
     0
  9
$TDCREATE
 40
2450953.590960648
  9
$TDUPDATE
 40
2453950.718578032
  9
$TDINDWG
 40
0.0046219329
  9
$TDUSRTIMER
 40
0.0046219329
  9
$USRTIMER
 70
     1
  9
$ANGBASE
 50
0.0
  9
$ANGDIR
 70
     0
  9
$PDMODE
 70
     0
  9
$PDSIZE
 40
0.0
  9
$PLINEWID
 40
0.0
  9
$COORDS
 70
     0
  9
$SPLFRAME
 70
     0
  9
$SPLINETYPE
 70
     6
  9
$SPLINESEGS
 70
     8
  9
$ATTDIA
 70
     0
  9
$ATTREQ
 70
     1
  9
$HANDLING
 70
     1
  9
$HANDSEED
  5
11A1
  9
$SURFTAB1
 70
     6
  9
$SURFTAB2
 70
     6
  9
$SURFTYPE
 70
     6
  9
$SURFU
 70
     6
  9
$SURFV
 70
     6
  9
$UCSNAME
  2

  9
$UCSORG
 10
0.0
 20
0.0
 30
0.0
  9
$UCSXDIR
 10
1.0
 20
0.0
 30
0.0
  9
$UCSYDIR
 10
0.0
 20
1.0
 30
0.0
  9
$PUCSNAME
  2

  9
$PUCSORG
 10
0.0
 20
0.0
 30
0.0
  9
$PUCSXDIR
 10
1.0
 20
0.0
 30
0.0
  9
$PUCSYDIR
 10
0.0
 20
1.0
 30
0.0
  9
$USERI1
 70
     0
  9
$USERI2
 70
     0
  9
$USERI3
 70
     0
  9
$USERI4
 70
     0
  9
$USERI5
 70
     0
  9
$USERR1
 40
0.0
  9
$USERR2
 40
0.0
  9
$USERR3
 40
0.0
  9
$USERR4
 40
0.0
  9
$USERR5
 40
0.0
  9
$WORLDVIEW
 70
     1
  9
$SHADEDGE
 70
     3
  9
$SHADEDIF
 70
    70
  9
$TILEMODE
 70
     1
  9
$MAXACTVP
 70
    32
  9
$PINSBASE
 10
0.0
 20
0.0
 30
0.0
  9
$PLIMCHECK
 70
     0
  9
$PEXTMIN
 10
-3.174999
 20
-3.175
 30
0.0
  9
$PEXTMAX
 10
203.812116
 20
370.276807
 30
0.0
  9
$PLIMMIN
 10
-3.175
 20
-3.175
  9
$PLIMMAX
 10
203.812115
 20
370.276807
  9
$UNITMODE
 70
     0
  9
$VISRETAIN
 70
     0
  9
$PLINEGEN
 70
     0
  9
$PSLTSCALE
 70
     1
  9
$TREEDEPTH
 70
  3020
  9
$PICKSTYLE
 70
     1
  9
$CMLSTYLE
  2
STANDARD
  9
$CMLJUST
 70
     0
  9
$CMLSCALE
 40
1.0
  9
$PROXYGRAPHICS
 70
     1
  9
$MEASUREMENT
 70
     0
  0
ENDSEC
  0
SECTION
  2
CLASSES
  0
CLASS
  1
DICTIONARYVAR
  2
AcDbDictionaryVar
  3
"AutoCAD"
 90
        0
280
     0
281
     0
  0
CLASS
  1
HATCH
  2
AcDbHatch
  3
"ACAD_SEDONA"
 90
        0
280
     0
281
     1
  0
ENDSEC
  0
SECTION
  2
TABLES
  0
TABLE
  2
VPORT
  5
F4
100
AcDbSymbolTable
 70
     2
  0
VPORT
  5
11A0
100
AcDbSymbolTableRecord
100
AcDbViewportTableRecord
  2
*ACTIVE
 70
     0
 10
0.0
 20
0.0
 11
1.0
 21
1.0
 12
75.555983
 22
15.229317
 13
0.0
 23
0.0
 14
1.0
 24
1.0
 15
10.0
 25
10.0
 16
0.0
 26
0.0
 36
1.0
 17
0.0
 27
0.0
 37
0.0
 40
77.757438
 41
1.966667
 42
50.0
 43
0.0
 44
0.0
 50
0.0
 51
0.0
 71
     0
 72
   100
 73
     1
 74
     1
 75
     0
 76
     1
 77
     0
 78
     0
  0
ENDTAB
  0
TABLE
  2
LTYPE
  5
F1
100
AcDbSymbolTable
 70
     5
  0
LTYPE
  5
FD
100
AcDbSymbolTableRecord
100
AcDbLinetypeTableRecord
  2
BYBLOCK
 70
     0
  3

 72
    65
 73
     0
 40
0.0
  0
LTYPE
  5
FE
100
AcDbSymbolTableRecord
100
AcDbLinetypeTableRecord
  2
BYLAYER
 70
     0
  3

 72
    65
 73
     0
 40
0.0
  0
LTYPE
  5
FF
100
AcDbSymbolTableRecord
100
AcDbLinetypeTableRecord
  2
CONTINUOUS
 70
     0
  3
Solid line
 72
    65
 73
     0
 40
0.0
  0
LTYPE
  5
112
100
AcDbSymbolTableRecord
100
AcDbLinetypeTableRecord
  2
AXES2
 70
     0
  3
___ _ ___ _ ___ _ ___ _ ___ _ ___ _ ___ _ ___ _
 72
    65
 73
     4
 40
1.125
 49
0.75
 74
     0
 49
-0.125
 74
     0
 49
0.125
 74
     0
 49
-0.125
 74
     0
  0
ENDTAB
  0
TABLE
  2
LAYER
  5
EE
100
AcDbSymbolTable
 70
     6
  0
LAYER
  5
FA
100
AcDbSymbolTableRecord
100
AcDbLayerTableRecord
  2
0
 70
     0
 62
     7
  6
CONTINUOUS
  0
LAYER
  5
12C
100
AcDbSymbolTableRecord
100
AcDbLayerTableRecord
  2
ALPHA
 70
     0
 62
   255
  6
CONTINUOUS
  0
LAYER
  5
12D
100
AcDbSymbolTableRecord
100
AcDbLayerTableRecord
  2
AXE
 70
     0
 62
    80
  6
AXES2
  0
LAYER
  5
12F
100
AcDbSymbolTableRecord
100
AcDbLayerTableRecord
  2
COTATION1
 70
     0
 62
     2
  6
CONTINUOUS
  0
LAYER
  5
13B
100
AcDbSymbolTableRecord
100
AcDbLayerTableRecord
  2
ASHADE
 70
     0
 62
     7
  6
CONTINUOUS
  0
LAYER
  5
13E
100
AcDbSymbolTableRecord
100
AcDbLayerTableRecord
  2
DEFPOINTS
 70
     0
 62
     7
  6
CONTINUOUS
  0
ENDTAB
  0
TABLE
  2
STYLE
  5
EF
100
AcDbSymbolTable
 70
     2
  0
STYLE
  5
FB
100
AcDbSymbolTableRecord
100
AcDbTextStyleTableRecord
  2
STANDARD
 70
     0
 40
0.0
 41
1.0
 50
0.0
 71
     0
 42
2.5
  3
txt
  4

  0
ENDTAB
  0
TABLE
  2
VIEW
  5
F2
100
AcDbSymbolTable
 70
     0
  0
ENDTAB
  0
TABLE
  2
UCS
  5
F3
100
AcDbSymbolTable
 70
     0
  0
ENDTAB
  0
TABLE
  2
APPID
  5
F5
100
AcDbSymbolTable
 70
     3
  0
APPID
  5
FC
100
AcDbSymbolTableRecord
100
AcDbRegAppTableRecord
  2
ACAD
 70
     0
  0
APPID
  5
127
100
AcDbSymbolTableRecord
100
AcDbRegAppTableRecord
  2
AVE_RENDER
 70
     0
  0
APPID
  5
128
100
AcDbSymbolTableRecord
100
AcDbRegAppTableRecord
  2
AVE_MATERIAL
 70
     0
  0
ENDTAB
  0
TABLE
  2
DIMSTYLE
  5
F6
100
AcDbSymbolTable
 70
     2
  0
DIMSTYLE
105
129
100
AcDbSymbolTableRecord
100
AcDbDimStyleTableRecord
  2
STANDARD
 70
     0
  3

  4

  5

  6

  7

 40
1.0
 41
0.18
 42
0.0625
 43
0.38
 44
0.18
 45
0.0
 46
0.0
 47
0.0
 48
0.0
140
0.18
141
0.09
142
0.0
143
25.4
144
1.0
145
0.0
146
1.0
147
0.09
 71
     0
 72
     0
 73
     1
 74
     1
 75
     0
 76
     0
 77
     0
 78
     0
170
     0
171
     2
172
     0
173
     0
174
     0
175
     0
176
     0
177
     0
178
     0
270
     2
271
     3
272
     3
273
     2
274
     2
340
FB
275
     0
280
     0
281
     0
282
     0
283
     1
284
    12
285
    12
286
    12
287
     5
288
     0
  0
DIMSTYLE
105
12A
102
{ACAD_REACTORS
330
1175
330
1182
330
119A
102
}
100
AcDbSymbolTableRecord
100
AcDbDimStyleTableRecord
  2
SC_STAND
 70
     0
  3

  4

  5

  6

  7

 40
1.0
 41
3.0
 42
0.0625
 43
0.38
 44
0.18
 45
0.01
 46
0.0
 47
0.0
 48
0.0
140
2.5
141
0.09
142
0.0
143
25.4
144
1.0
145
0.0
146
1.0
147
1.0
 71
     0
 72
     0
 73
     0
 74
     0
 75
     0
 76
     0
 77
     1
 78
    12
170
     0
171
     2
172
     1
173
     0
174
     0
175
     0
176
     0
177
     0
178
     0
270
     2
271
     3
272
     3
273
     2
274
     2
340
FB
275
     0
280
     0
281
     0
282
     0
283
     1
284
    12
285
    12
286
    12
287
     5
288
     0
  0
ENDTAB
  0
TABLE
  2
BLOCK_RECORD
  5
ED
100
AcDbSymbolTable
 70
    10
  0
BLOCK_RECORD
  5
103
100
AcDbSymbolTableRecord
100
AcDbBlockTableRecord
  2
*MODEL_SPACE
  0
BLOCK_RECORD
  5
100
100
AcDbSymbolTableRecord
100
AcDbBlockTableRecord
  2
*PAPER_SPACE
  0
BLOCK_RECORD
  5
108
100
AcDbSymbolTableRecord
100
AcDbBlockTableRecord
  2
AVE_RENDER
  0
BLOCK_RECORD
  5
109
100
AcDbSymbolTableRecord
100
AcDbBlockTableRecord
  2
AVE_GLOBAL
  0
BLOCK_RECORD
  5
10A
100
AcDbSymbolTableRecord
100
AcDbBlockTableRecord
  2
SCH_IS
  0
BLOCK_RECORD
  5
1169
100
AcDbSymbolTableRecord
100
AcDbBlockTableRecord
  2
*D7
  0
BLOCK_RECORD
  5
1176
100
AcDbSymbolTableRecord
100
AcDbBlockTableRecord
  2
*D8
  0
BLOCK_RECORD
  5
118E
100
AcDbSymbolTableRecord
100
AcDbBlockTableRecord
  2
*D9
  0
ENDTAB
  0
ENDSEC
  0
SECTION
  2
BLOCKS
  0
BLOCK
  5
141
100
AcDbEntity
  8
0
100
AcDbBlockBegin
  2
*MODEL_SPACE
 70
     0
 10
0.0
 20
0.0
 30
0.0
  3
*MODEL_SPACE
  1

  0
ENDBLK
  5
142
100
AcDbEntity
  8
0
100
AcDbBlockEnd
  0
BLOCK
  5
13F
100
AcDbEntity
 67
     1
  8
0
100
AcDbBlockBegin
  2
*PAPER_SPACE
 70
     0
 10
0.0
 20
0.0
 30
0.0
  3
*PAPER_SPACE
  1

  0
ENDBLK
  5
140
100
AcDbEntity
 67
     1
  8
0
100
AcDbBlockEnd
  0
BLOCK
  5
8D
100
AcDbEntity
  8
0
100
AcDbBlockBegin
  2
AVE_RENDER
 70
     0
 10
0.0
 20
0.0
 30
0.0
  3
AVE_RENDER
  1
AVE_RENDER
  0
ENDBLK
  5
8E
100
AcDbEntity
  8
0
100
AcDbBlockEnd
  0
BLOCK
  5
90
100
AcDbEntity
  8
0
100
AcDbBlockBegin
  2
AVE_GLOBAL
 70
     0
 10
0.0
 20
0.0
 30
0.0
  3
AVE_GLOBAL
  1
AVE_GLOBAL
  0
ENDBLK
  5
91
100
AcDbEntity
  8
0
100
AcDbBlockEnd
  0
BLOCK
  5
C9
100
AcDbEntity
  8
0
100
AcDbBlockBegin
  2
SCH_IS
 70
     0
 10
0.0
 20
0.0
 30
0.0
  3
SCH_IS
  1

  0
INSERT
  5
C0
100
AcDbEntity
  8
ASHADE
 62
     1
100
AcDbBlockReference
  2
AVE_RENDER
 10
0.0
 20
0.0
 30
0.0
1001
AVE_RENDER
1002
{
1070
     6
1000
Pref
1070
    50
1070
    20
1070
     1
1070
     0
1000

1070
    10
1070
     1
1070
    30
1040
25.4
1070
     1
1040
0.3
1040
0.7
1040
0.0
1040
10.0
1010
-1.0
1020
-1.0
1030
-1.0
1040
0.3
1070
    49
1070
     0
1070
     0
1010
1.0
1020
1.0
1030
1.0
1040
45.0
1070
     1
1070
     0
1000
WCS
1040
0.0
1002
}
  0
INSERT
  5
C1
100
AcDbEntity
  8
ASHADE
 62
     3
100
AcDbBlockReference
  2
AVE_RENDER
 10
0.0
 20
0.0
 30
0.0
1001
AVE_RENDER
1002
{
1070
     0
1000
Full Opt
1070
     0
1070
     1
1070
     1
1070
     1
1070
     0
1070
     0
1070
     0
1070
     1
1070
     1
1040
0.0001
1040
0.0001
1002
}
  0
INSERT
  5
C2
100
AcDbEntity
  8
ASHADE
 62
     4
100
AcDbBlockReference
  2
AVE_RENDER
 10
0.0
 20
0.0
 30
0.0
1001
AVE_RENDER
1002
{
1070
     0
1000
Quick Opt
1070
     0
1070
     1
1070
     1
1070
     1
1070
     0
1070
     0
1070
     1
1002
}
  0
INSERT
  5
C3
100
AcDbEntity
  8
ASHADE
 62
     5
100
AcDbBlockReference
  2
AVE_RENDER
 10
0.0
 20
0.0
 30
0.0
1001
AVE_RENDER
1002
{
1070
     1
1000
Scanl Opt
1070
     2
1070
     0
1070
     2
1040
2.0
1040
4.0
1070
     0
1070
     1
1070
     0
1040
0.03
1002
}
  0
INSERT
  5
C4
100
AcDbEntity
  8
ASHADE
 62
     6
100
AcDbBlockReference
  2
AVE_RENDER
 10
0.0
 20
0.0
 30
0.0
1001
AVE_RENDER
1002
{
1070
     2
1000
Raytr Opt
1070
     2
1070
     0
1070
     2
1040
2.0
1040
4.0
1070
     0
1070
     1
1070
     1
1040
0.03
1070
     3
1040
0.03
1002
}
  0
INSERT
  5
C5
100
AcDbEntity
  8
ASHADE
 62
     7
100
AcDbBlockReference
  2
AVE_RENDER
 10
0.0
 20
0.0
 30
0.0
1001
AVE_RENDER
1002
{
1070
     0
1000
RFile Opt
1070
     5
1070
   640
1070
   480
1070
 10000
1070
     3
1070
    32
1070
    24
1070
     0
1070
     0
1070
     0
1070
     1
1070
     0
1070
     0
1070
     0
1002
}
  0
INSERT
  5
C6
100
AcDbEntity
  8
ASHADE
 62
     8
100
AcDbBlockReference
  2
AVE_RENDER
 10
0.0
 20
0.0
 30
0.0
1001
AVE_RENDER
1002
{
1070
     0
1000
Fog Opt
1070
     0
1070
     0
1040
0.0
1040
1.0
1040
0.0
1040
1.0
1010
0.5
1020
0.5
1030
0.5
1002
}
  0
INSERT
  5
C7
100
AcDbEntity
  8
ASHADE
 62
     9
100
AcDbBlockReference
  2
AVE_RENDER
 10
0.0
 20
0.0
 30
0.0
1001
AVE_RENDER
1002
{
1070
     0
1000
BG Opt
1070
     0
1070
     1
1010
0.0
1020
0.0
1030
0.0
1010
1.0
1020
0.0
1030
0.0
1010
0.0
1020
1.0
1030
0.0
1010
0.0
1020
0.0
1030
1.0
1040
0.5
1040
0.33
1040
0.0
1000

1070
     1
1000

1070
     1
1070
     1
1040
1.0
1040
1.0
1040
0.0
1040
0.0
1070
     0
1002
}
  0
INSERT
  5
C8
100
AcDbEntity
  8
ASHADE
 62
     1
100
AcDbBlockReference
  2
AVE_GLOBAL
 10
0.0
 20
0.0
 30
0.0
1001
AVE_MATERIAL
1002
{
1000
*GLOBAL*
1000
1
1000
Finition globale.
1002
{
1002
}
1002
{
1070
    63
1002
{
1002
{
1010
-1.0
1020
-1.0
1030
-1.0
1002
}
1040
0.1
1000

1040
0.0
1002
{
1002
}
1040
0.0
1002
{
1002
}
1040
0.0
1002
}
1002
{
1002
{
1010
-1.0
1020
-1.0
1030
-1.0
1002
}
1040
0.7
1000

1040
0.0
1002
{
1002
}
1040
0.0
1002
{
1002
}
1040
0.0
1002
}
1002
{
1002
{
1010
-1.0
1020
-1.0
1030
-1.0
1002
}
1040
0.2
1000

1040
0.0
1002
{
1002
}
1040
0.0
1002
{
1002
}
1040
0.0
1002
}
1002
{
1070
     0
1002
{
1070
     1
1002
{
1040
1.0
1040
1.0
1000

1040
0.0
1002
{
1002
}
1040
0.0
1002
{
1002
}
1040
0.0
1002
}
1002
}
1040
1.0
1040
0.0
1040
0.0
1002
}
1002
{
1040
1.0
1040
1.0
1000

1040
0.0
1002
{
1002
}
1040
0.0
1002
{
1002
}
1040
0.0
1002
}
1002
{
1040
0.5
1040
1.0
1000

1040
0.0
1002
{
1002
}
1040
0.0
1002
{
1002
}
1040
0.0
1002
}
1002
{
1070
     0
1040
0.0
1002
{
1002
}
1040
1.0
1002
{
1002
}
1040
0.0
1002
}
1002
{
1040
0.0
1002
{
1002
{
1010
0.0
1020
0.0
1030
0.0
1002
}
1040
1.0
1000

1040
0.0
1002
{
1002
}
1040
0.0
1002
{
1002
}
1040
0.0
1002
}
1002
}
1002
{
1002
{
1070
     1
1002
{
1040
0.0
1040
1.0
1000

1040
0.0
1002
{
1002
}
1040
0.0
1002
{
1002
}
1040
0.0
1002
}
1002
}
1040
0.0
1002
{
1002
}
1010
1.0
1020
0.0
1030
0.0
1010
0.0
1020
1.0
1030
0.0
1010
0.0
1020
0.0
1030
1.0
1070
     0
1002
}
1002
{
1002
{
1040
1.0
1040
1.0
1002
{
1070
     1
1002
{
1040
1.0
1040
1.0
1000

1040
0.0
1002
{
1002
}
1040
0.0
1002
{
1002
}
1040
0.0
1002
}
1002
}
1002
}
1070
     0
1040
0.0
1002
{
1002
}
1002
}
1002
{
1002
}
1002
}
1002
{
1071
        3
1070
     3
1070
     0
1002
{
1070
     2
1070
     0
1070
     0
1040
0.0
1002
}
1070
     0
1070
     2
1002
{
1002
}
1002
}
1002
{
1040
8030.0
1040
190.300003
1040
0.305
1040
228.0
1040
545.0
1040
14.0
1040
17.4
1040
0.456
1002
}
1002
}
  0
ENDBLK
  5
CA
100
AcDbEntity
  8
0
100
AcDbBlockEnd
  0
BLOCK
  5
116A
100
AcDbEntity
  8
0
100
AcDbBlockBegin
  2
*D7
 70
     1
 10
0.0
 20
0.0
 30
0.0
  3
*D7
  1

  0
LINE
  5
116B
100
AcDbEntity
  8
0
  6
BYBLOCK
 62
     0
100
AcDbLine
 10
21.541662
 20
-1.868844
 30
0.0
 11
21.541662
 21
-5.114128
 31
0.0
  0
LINE
  5
116C
100
AcDbEntity
  8
0
  6
BYBLOCK
 62
     0
100
AcDbLine
 10
75.541639
 20
-1.868844
 30
0.0
 11
75.541639
 21
-5.114128
 31
0.0
  0
LINE
  5
116D
100
AcDbEntity
  8
0
  6
BYBLOCK
 62
     0
100
AcDbLine
 10
24.541662
 20
-4.934128
 30
0.0
 11
72.541639
 21
-4.934128
 31
0.0
  0
SOLID
  5
116E
100
AcDbEntity
  8
0
  6
BYBLOCK
 62
     0
100
AcDbTrace
 10
24.541662
 20
-4.434128
 30
0.0
 11
24.541662
 21
-5.434128
 31
0.0
 12
21.541662
 22
-4.934128
 32
0.0
 13
21.541662
 23
-4.934128
 33
0.0
  0
SOLID
  5
116F
100
AcDbEntity
  8
0
  6
BYBLOCK
 62
     0
100
AcDbTrace
 10
72.541639
 20
-4.434128
 30
0.0
 11
72.541639
 21
-5.434128
 31
0.0
 12
75.541639
 22
-4.934128
 32
0.0
 13
75.541639
 23
-4.934128
 33
0.0
  0
MTEXT
  5
1170
100
AcDbEntity
  8
0
  6
BYBLOCK
 62
     0
100
AcDbMText
 10
48.541651
 20
-2.684128
 30
0.0
 40
2.5
 41
0.0
 71
     5
 72
     1
  1
\A1;54
  0
POINT
  5
1171
100
AcDbEntity
  8
DEFPOINTS
  6
BYBLOCK
 62
     0
100
AcDbPoint
 10
21.541662
 20
-1.806344
 30
0.0
  0
POINT
  5
1172
100
AcDbEntity
  8
DEFPOINTS
  6
BYBLOCK
 62
     0
100
AcDbPoint
 10
75.541639
 20
-1.806344
 30
0.0
  0
POINT
  5
1173
100
AcDbEntity
  8
DEFPOINTS
  6
BYBLOCK
 62
     0
100
AcDbPoint
 10
75.541639
 20
-4.934128
 30
0.0
  0
ENDBLK
  5
1174
100
AcDbEntity
  8
0
100
AcDbBlockEnd
  0
BLOCK
  5
1183
100
AcDbEntity
  8
0
100
AcDbBlockBegin
  2
*D8
 70
     1
 10
0.0
 20
0.0
 30
0.0
  3
*D8
  1

  0
LINE
  5
1184
100
AcDbEntity
  8
0
  6
BYBLOCK
 62
     0
100
AcDbLine
 10
75.541639
 20
-1.931344
 30
0.0
 11
75.541639
 21
-5.114128
 31
0.0
  0
LINE
  5
1185
100
AcDbEntity
  8
0
  6
BYBLOCK
 62
     0
100
AcDbLine
 10
129.541792
 20
-1.931344
 30
0.0
 11
129.541792
 21
-5.114128
 31
0.0
  0
LINE
  5
1186
100
AcDbEntity
  8
0
  6
BYBLOCK
 62
     0
100
AcDbLine
 10
78.541639
 20
-4.934128
 30
0.0
 11
126.541792
 21
-4.934128
 31
0.0
  0
SOLID
  5
1187
100
AcDbEntity
  8
0
  6
BYBLOCK
 62
     0
100
AcDbTrace
 10
78.541639
 20
-4.434128
 30
0.0
 11
78.541639
 21
-5.434128
 31
0.0
 12
75.541639
 22
-4.934128
 32
0.0
 13
75.541639
 23
-4.934128
 33
0.0
  0
SOLID
  5
1188
100
AcDbEntity
  8
0
  6
BYBLOCK
 62
     0
100
AcDbTrace
 10
126.541792
 20
-4.434128
 30
0.0
 11
126.541792
 21
-5.434128
 31
0.0
 12
129.541792
 22
-4.934128
 32
0.0
 13
129.541792
 23
-4.934128
 33
0.0
  0
MTEXT
  5
1189
100
AcDbEntity
  8
0
  6
BYBLOCK
 62
     0
100
AcDbMText
 10
102.541715
 20
-2.684128
 30
0.0
 40
2.5
 41
0.0
 71
     5
 72
     1
  1
\A1;54
  0
POINT
  5
118A
100
AcDbEntity
  8
DEFPOINTS
  6
BYBLOCK
 62
     0
100
AcDbPoint
 10
75.541639
 20
-1.868844
 30
0.0
  0
POINT
  5
118B
100
AcDbEntity
  8
DEFPOINTS
  6
BYBLOCK
 62
     0
100
AcDbPoint
 10
129.541792
 20
-1.868844
 30
0.0
  0
POINT
  5
118C
100
AcDbEntity
  8
DEFPOINTS
  6
BYBLOCK
 62
     0
100
AcDbPoint
 10
129.541792
 20
-4.934128
 30
0.0
  0
ENDBLK
  5
118D
100
AcDbEntity
  8
0
100
AcDbBlockEnd
  0
BLOCK
  5
118F
100
AcDbEntity
  8
0
100
AcDbBlockBegin
  2
*D9
 70
     1
 10
0.0
 20
0.0
 30
0.0
  3
*D9
  1

  0
LINE
  5
1190
100
AcDbEntity
  8
0
  6
BYBLOCK
 62
     0
100
AcDbLine
 10
-0.445283
 20
26.162872
 30
0.0
 11
-0.445283
 21
32.580094
 31
0.0
  0
LINE
  5
1191
100
AcDbEntity
  8
0
  6
BYBLOCK
 62
     0
100
AcDbLine
 10
151.554914
 20
26.162872
 30
0.0
 11
151.554914
 21
32.580094
 31
0.0
  0
LINE
  5
1192
100
AcDbEntity
  8
0
  6
BYBLOCK
 62
     0
100
AcDbLine
 10
2.554717
 20
32.400094
 30
0.0
 11
148.554914
 21
32.400094
 31
0.0
  0
SOLID
  5
1193
100
AcDbEntity
  8
0
  6
BYBLOCK
 62
     0
100
AcDbTrace
 10
2.554717
 20
32.900094
 30
0.0
 11
2.554717
 21
31.900094
 31
0.0
 12
-0.445283
 22
32.400094
 32
0.0
 13
-0.445283
 23
32.400094
 33
0.0
  0
SOLID
  5
1194
100
AcDbEntity
  8
0
  6
BYBLOCK
 62
     0
100
AcDbTrace
 10
148.554914
 20
32.900094
 30
0.0
 11
148.554914
 21
31.900094
 31
0.0
 12
151.554914
 22
32.400094
 32
0.0
 13
151.554914
 23
32.400094
 33
0.0
  0
MTEXT
  5
1195
100
AcDbEntity
  8
0
  6
BYBLOCK
 62
     0
100
AcDbMText
 10
75.554815
 20
34.650094
 30
0.0
 40
2.5
 41
0.0
 71
     5
 72
     1
  1
\A1;152
  0
POINT
  5
1196
100
AcDbEntity
  8
DEFPOINTS
  6
BYBLOCK
 62
     0
100
AcDbPoint
 10
-0.445283
 20
26.100372
 30
0.0
  0
POINT
  5
1197
100
AcDbEntity
  8
DEFPOINTS
  6
BYBLOCK
 62
     0
100
AcDbPoint
 10
151.554914
 20
26.100372
 30
0.0
  0
POINT
  5
1198
100
AcDbEntity
  8
DEFPOINTS
  6
BYBLOCK
 62
     0
100
AcDbPoint
 10
151.554914
 20
32.400094
 30
0.0
  0
ENDBLK
  5
1199
100
AcDbEntity
  8
0
100
AcDbBlockEnd
  0
ENDSEC
  0
SECTION
  2
ENTITIES
  0
INSERT
  5
CC
100
AcDbEntity
  8
0
100
AcDbBlockReference
  2
SCH_IS
 10
-68.718396
 20
-140.042541
 30
0.0
  0
INSERT
  5
EC
100
AcDbEntity
  8
COTATION1
100
AcDbBlockReference
  2
SCH_IS
 10
0.0
 20
0.0
 30
0.0
  0
POLYLINE
  5
E6F
100
AcDbEntity
  8
ALPHA
100
AcDb2dPolyline
 66
     1
 10
0.0
 20
0.0
 30
0.0
  0
VERTEX
  5
E70
100
AcDbEntity
  8
ALPHA
100
AcDbVertex
100
AcDb2dVertex
 10
151.554914
 20
28.46513
 30
0.0
  0
VERTEX
  5
E71
100
AcDbEntity
  8
ALPHA
100
AcDbVertex
100
AcDb2dVertex
 10
151.554914
 20
10.465208
 30
0.0
  0
VERTEX
  5
E72
100
AcDbEntity
  8
ALPHA
100
AcDbVertex
100
AcDb2dVertex
 10
107.304727
 20
10.445206
 30
0.0
  0
VERTEX
  5
E73
100
AcDbEntity
  8
ALPHA
100
AcDbVertex
100
AcDb2dVertex
 10
107.304727
 20
17.443223
 30
0.0
  0
VERTEX
  5
E74
100
AcDbEntity
  8
ALPHA
100
AcDbVertex
100
AcDb2dVertex
 10
97.80488
 20
17.443223
 30
0.0
  0
VERTEX
  5
E75
100
AcDbEntity
  8
ALPHA
100
AcDbVertex
100
AcDb2dVertex
 10
97.80488
 20
10.465208
 30
0.0
  0
VERTEX
  5
E76
100
AcDbEntity
  8
ALPHA
100
AcDbVertex
100
AcDb2dVertex
 10
53.30475
 20
10.445206
 30
0.0
  0
VERTEX
  5
E77
100
AcDbEntity
  8
ALPHA
100
AcDbVertex
100
AcDb2dVertex
 10
53.30475
 20
17.443223
 30
0.0
  0
VERTEX
  5
E78
100
AcDbEntity
  8
ALPHA
100
AcDbVertex
100
AcDb2dVertex
 10
43.804903
 20
17.443223
 30
0.0
  0
VERTEX
  5
E79
100
AcDbEntity
  8
ALPHA
100
AcDbVertex
100
AcDb2dVertex
 10
43.804903
 20
10.465208
 30
0.0
  0
VERTEX
  5
E7A
100
AcDbEntity
  8
ALPHA
100
AcDbVertex
100
AcDb2dVertex
 10
-0.445283
 20
10.445206
 30
0.0
  0
VERTEX
  5
E7B
100
AcDbEntity
  8
ALPHA
100
AcDbVertex
100
AcDb2dVertex
 10
-0.445283
 20
28.46513
 30
0.0
  0
VERTEX
  5
E7C
100
AcDbEntity
  8
ALPHA
100
AcDbVertex
100
AcDb2dVertex
 10
151.554914
 20
28.46513
 30
0.0
  0
SEQEND
  5
E7D
100
AcDbEntity
  8
ALPHA
  0
POLYLINE
  5
E7E
100
AcDbEntity
  8
ALPHA
100
AcDb2dPolyline
 66
     1
 10
0.0
 20
0.0
 30
0.0
  0
VERTEX
  5
E7F
100
AcDbEntity
  8
ALPHA
100
AcDbVertex
100
AcDb2dVertex
 10
6.192019
 20
10.364949
 30
0.0
  0
VERTEX
  5
E80
100
AcDbEntity
  8
ALPHA
100
AcDbVertex
100
AcDb2dVertex
 10
6.192019
 20
8.313052
 30
0.0
  0
VERTEX
  5
E81
100
AcDbEntity
  8
ALPHA
100
AcDbVertex
100
AcDb2dVertex
 10
4.315841
 20
7.812813
 30
0.0
  0
VERTEX
  5
E82
100
AcDbEntity
  8
ALPHA
100
AcDbVertex
100
AcDb2dVertex
 10
4.315841
 20
0.465122
 30
0.0
  0
VERTEX
  5
E83
100
AcDbEntity
  8
ALPHA
100
AcDbVertex
100
AcDb2dVertex
 10
6.191349
 20
1.613696
 30
0.0
  0
VERTEX
  5
E84
100
AcDbEntity
  8
ALPHA
100
AcDbVertex
100
AcDb2dVertex
 10
6.192724
 20
4.694999
 30
0.0
  0
VERTEX
  5
E85
100
AcDbEntity
  8
ALPHA
100
AcDbVertex
100
AcDb2dVertex
 10
6.202417
 20
4.907265
 30
0.0
  0
VERTEX
  5
E86
100
AcDbEntity
  8
ALPHA
100
AcDbVertex
100
AcDb2dVertex
 10
6.230863
 20
5.113068
 30
0.0
  0
VERTEX
  5
E87
100
AcDbEntity
  8
ALPHA
100
AcDbVertex
100
AcDb2dVertex
 10
6.277112
 20
5.311409
 30
0.0
  0
VERTEX
  5
E88
100
AcDbEntity
  8
ALPHA
100
AcDbVertex
100
AcDb2dVertex
 10
6.340217
 20
5.50129
 30
0.0
  0
VERTEX
  5
E89
100
AcDbEntity
  8
ALPHA
100
AcDbVertex
100
AcDb2dVertex
 10
6.419228
 20
5.681715
 30
0.0
  0
VERTEX
  5
E8A
100
AcDbEntity
  8
ALPHA
100
AcDbVertex
100
AcDb2dVertex
 10
6.513198
 20
5.851685
 30
0.0
  0
VERTEX
  5
E8B
100
AcDbEntity
  8
ALPHA
100
AcDbVertex
100
AcDb2dVertex
 10
6.621176
 20
6.010203
 30
0.0
  0
VERTEX
  5
E8C
100
AcDbEntity
  8
ALPHA
100
AcDbVertex
100
AcDb2dVertex
 10
6.742215
 20
6.15627
 30
0.0
  0
VERTEX
  5
E8D
100
AcDbEntity
  8
ALPHA
100
AcDbVertex
100
AcDb2dVertex
 10
6.875366
 20
6.28889
 30
0.0
  0
VERTEX
  5
E8E
100
AcDbEntity
  8
ALPHA
100
AcDbVertex
100
AcDb2dVertex
 10
7.01968
 20
6.407064
 30
0.0
  0
VERTEX
  5
E8F
100
AcDbEntity
  8
ALPHA
100
AcDbVertex
100
AcDb2dVertex
 10
7.174208
 20
6.509795
 30
0.0
  0
VERTEX
  5
E90
100
AcDbEntity
  8
ALPHA
100
AcDbVertex
100
AcDb2dVertex
 10
7.338001
 20
6.596084
 30
0.0
  0
VERTEX
  5
E91
100
AcDbEntity
  8
ALPHA
100
AcDbVertex
100
AcDb2dVertex
 10
7.510112
 20
6.664935
 30
0.0
  0
VERTEX
  5
E92
100
AcDbEntity
  8
ALPHA
100
AcDbVertex
100
AcDb2dVertex
 10
7.68959
 20
6.71535
 30
0.0
  0
VERTEX
  5
E93
100
AcDbEntity
  8
ALPHA
100
AcDbVertex
100
AcDb2dVertex
 10
7.875488
 20
6.74633
 30
0.0
  0
VERTEX
  5
E94
100
AcDbEntity
  8
ALPHA
100
AcDbVertex
100
AcDb2dVertex
 10
8.066856
 20
6.756879
 30
0.0
  0
VERTEX
  5
E95
100
AcDbEntity
  8
ALPHA
100
AcDbVertex
100
AcDb2dVertex
 10
8.25819
 20
6.74633
 30
0.0
  0
VERTEX
  5
E96
100
AcDbEntity
  8
ALPHA
100
AcDbVertex
100
AcDb2dVertex
 10
8.443991
 20
6.71535
 30
0.0
  0
VERTEX
  5
E97
100
AcDbEntity
  8
ALPHA
100
AcDbVertex
100
AcDb2dVertex
 10
8.623321
 20
6.664935
 30
0.0
  0
VERTEX
  5
E98
100
AcDbEntity
  8
ALPHA
100
AcDbVertex
100
AcDb2dVertex
 10
8.795242
 20
6.596084
 30
0.0
  0
VERTEX
  5
E99
100
AcDbEntity
  8
ALPHA
100
AcDbVertex
100
AcDb2dVertex
 10
8.958816
 20
6.509795
 30
0.0
  0
VERTEX
  5
E9A
100
AcDbEntity
  8
ALPHA
100
AcDbVertex
100
AcDb2dVertex
 10
9.113104
 20
6.407064
 30
0.0
  0
VERTEX
  5
E9B
100
AcDbEntity
  8
ALPHA
100
AcDbVertex
100
AcDb2dVertex
 10
9.257169
 20
6.28889
 30
0.0
  0
VERTEX
  5
E9C
100
AcDbEntity
  8
ALPHA
100
AcDbVertex
100
AcDb2dVertex
 10
9.390072
 20
6.15627
 30
0.0
  0
VERTEX
  5
E9D
100
AcDbEntity
  8
ALPHA
100
AcDbVertex
100
AcDb2dVertex
 10
9.510876
 20
6.010202
 30
0.0
  0
VERTEX
  5
E9E
100
AcDbEntity
  8
ALPHA
100
AcDbVertex
100
AcDb2dVertex
 10
9.618642
 20
5.851685
 30
0.0
  0
VERTEX
  5
E9F
100
AcDbEntity
  8
ALPHA
100
AcDbVertex
100
AcDb2dVertex
 10
9.712432
 20
5.681715
 30
0.0
  0
VERTEX
  5
EA0
100
AcDbEntity
  8
ALPHA
100
AcDbVertex
100
AcDb2dVertex
 10
9.791307
 20
5.50129
 30
0.0
  0
VERTEX
  5
EA1
100
AcDbEntity
  8
ALPHA
100
AcDbVertex
100
AcDb2dVertex
 10
9.854331
 20
5.311408
 30
0.0
  0
VERTEX
  5
EA2
100
AcDbEntity
  8
ALPHA
100
AcDbVertex
100
AcDb2dVertex
 10
9.900564
 20
5.113067
 30
0.0
  0
VERTEX
  5
EA3
100
AcDbEntity
  8
ALPHA
100
AcDbVertex
100
AcDb2dVertex
 10
9.929069
 20
4.907265
 30
0.0
  0
VERTEX
  5
EA4
100
AcDbEntity
  8
ALPHA
100
AcDbVertex
100
AcDb2dVertex
 10
9.938907
 20
4.694999
 30
0.0
  0
VERTEX
  5
EA5
100
AcDbEntity
  8
ALPHA
100
AcDbVertex
100
AcDb2dVertex
 10
9.941659
 20
1.613696
 30
0.0
  0
VERTEX
  5
EA6
100
AcDbEntity
  8
ALPHA
100
AcDbVertex
100
AcDb2dVertex
 10
11.817166
 20
0.465122
 30
0.0
  0
VERTEX
  5
EA7
100
AcDbEntity
  8
ALPHA
100
AcDbVertex
100
AcDb2dVertex
 10
11.817166
 20
7.812813
 30
0.0
  0
VERTEX
  5
EA8
100
AcDbEntity
  8
ALPHA
100
AcDbVertex
100
AcDb2dVertex
 10
9.942364
 20
8.313052
 30
0.0
  0
VERTEX
  5
EA9
100
AcDbEntity
  8
ALPHA
100
AcDbVertex
100
AcDb2dVertex
 10
9.942364
 20
10.364949
 30
0.0
  0
SEQEND
  5
EAA
100
AcDbEntity
  8
ALPHA
  0
POLYLINE
  5
EAB
100
AcDbEntity
  8
ALPHA
100
AcDb2dPolyline
 66
     1
 10
0.0
 20
0.0
 30
0.0
  0
VERTEX
  5
EAC
100
AcDbEntity
  8
ALPHA
100
AcDbVertex
100
AcDb2dVertex
 10
19.667177
 20
10.364949
 30
0.0
  0
VERTEX
  5
EAD
100
AcDbEntity
  8
ALPHA
100
AcDbVertex
100
AcDb2dVertex
 10
19.667177
 20
8.313052
 30
0.0
  0
VERTEX
  5
EAE
100
AcDbEntity
  8
ALPHA
100
AcDbVertex
100
AcDb2dVertex
 10
17.790964
 20
7.812813
 30
0.0
  0
VERTEX
  5
EAF
100
AcDbEntity
  8
ALPHA
100
AcDbVertex
100
AcDb2dVertex
 10
17.790964
 20
0.465122
 30
0.0
  0
VERTEX
  5
EB0
100
AcDbEntity
  8
ALPHA
100
AcDbVertex
100
AcDb2dVertex
 10
19.666472
 20
1.613696
 30
0.0
  0
VERTEX
  5
EB1
100
AcDbEntity
  8
ALPHA
100
AcDbVertex
100
AcDb2dVertex
 10
19.667848
 20
4.694999
 30
0.0
  0
VERTEX
  5
EB2
100
AcDbEntity
  8
ALPHA
100
AcDbVertex
100
AcDb2dVertex
 10
19.677541
 20
4.907265
 30
0.0
  0
VERTEX
  5
EB3
100
AcDbEntity
  8
ALPHA
100
AcDbVertex
100
AcDb2dVertex
 10
19.705987
 20
5.113068
 30
0.0
  0
VERTEX
  5
EB4
100
AcDbEntity
  8
ALPHA
100
AcDbVertex
100
AcDb2dVertex
 10
19.752238
 20
5.311409
 30
0.0
  0
VERTEX
  5
EB5
100
AcDbEntity
  8
ALPHA
100
AcDbVertex
100
AcDb2dVertex
 10
19.815345
 20
5.50129
 30
0.0
  0
VERTEX
  5
EB6
100
AcDbEntity
  8
ALPHA
100
AcDbVertex
100
AcDb2dVertex
 10
19.894359
 20
5.681715
 30
0.0
  0
VERTEX
  5
EB7
100
AcDbEntity
  8
ALPHA
100
AcDbVertex
100
AcDb2dVertex
 10
19.988331
 20
5.851685
 30
0.0
  0
VERTEX
  5
EB8
100
AcDbEntity
  8
ALPHA
100
AcDbVertex
100
AcDb2dVertex
 10
20.096311
 20
6.010203
 30
0.0
  0
VERTEX
  5
EB9
100
AcDbEntity
  8
ALPHA
100
AcDbVertex
100
AcDb2dVertex
 10
20.217352
 20
6.15627
 30
0.0
  0
VERTEX
  5
EBA
100
AcDbEntity
  8
ALPHA
100
AcDbVertex
100
AcDb2dVertex
 10
20.350504
 20
6.28889
 30
0.0
  0
VERTEX
  5
EBB
100
AcDbEntity
  8
ALPHA
100
AcDbVertex
100
AcDb2dVertex
 10
20.494819
 20
6.407064
 30
0.0
  0
VERTEX
  5
EBC
100
AcDbEntity
  8
ALPHA
100
AcDbVertex
100
AcDb2dVertex
 10
20.649347
 20
6.509795
 30
0.0
  0
VERTEX
  5
EBD
100
AcDbEntity
  8
ALPHA
100
AcDbVertex
100
AcDb2dVertex
 10
20.81314
 20
6.596084
 30
0.0
  0
VERTEX
  5
EBE
100
AcDbEntity
  8
ALPHA
100
AcDbVertex
100
AcDb2dVertex
 10
20.985248
 20
6.664935
 30
0.0
  0
VERTEX
  5
EBF
100
AcDbEntity
  8
ALPHA
100
AcDbVertex
100
AcDb2dVertex
 10
21.164724
 20
6.71535
 30
0.0
  0
VERTEX
  5
EC0
100
AcDbEntity
  8
ALPHA
100
AcDbVertex
100
AcDb2dVertex
 10
21.350617
 20
6.74633
 30
0.0
  0
VERTEX
  5
EC1
100
AcDbEntity
  8
ALPHA
100
AcDbVertex
100
AcDb2dVertex
 10
21.54198
 20
6.756879
 30
0.0
  0
VERTEX
  5
EC2
100
AcDbEntity
  8
ALPHA
100
AcDbVertex
100
AcDb2dVertex
 10
21.733314
 20
6.74633
 30
0.0
  0
VERTEX
  5
EC3
100
AcDbEntity
  8
ALPHA
100
AcDbVertex
100
AcDb2dVertex
 10
21.919116
 20
6.71535
 30
0.0
  0
VERTEX
  5
EC4
100
AcDbEntity
  8
ALPHA
100
AcDbVertex
100
AcDb2dVertex
 10
22.098448
 20
6.664935
 30
0.0
  0
VERTEX
  5
EC5
100
AcDbEntity
  8
ALPHA
100
AcDbVertex
100
AcDb2dVertex
 10
22.270371
 20
6.596084
 30
0.0
  0
VERTEX
  5
EC6
100
AcDbEntity
  8
ALPHA
100
AcDbVertex
100
AcDb2dVertex
 10
22.433947
 20
6.509795
 30
0.0
  0
VERTEX
  5
EC7
100
AcDbEntity
  8
ALPHA
100
AcDbVertex
100
AcDb2dVertex
 10
22.588238
 20
6.407064
 30
0.0
  0
VERTEX
  5
EC8
100
AcDbEntity
  8
ALPHA
100
AcDbVertex
100
AcDb2dVertex
 10
22.732307
 20
6.28889
 30
0.0
  0
VERTEX
  5
EC9
100
AcDbEntity
  8
ALPHA
100
AcDbVertex
100
AcDb2dVertex
 10
22.865213
 20
6.15627
 30
0.0
  0
VERTEX
  5
ECA
100
AcDbEntity
  8
ALPHA
100
AcDbVertex
100
AcDb2dVertex
 10
22.98602
 20
6.010202
 30
0.0
  0
VERTEX
  5
ECB
100
AcDbEntity
  8
ALPHA
100
AcDbVertex
100
AcDb2dVertex
 10
23.093789
 20
5.851685
 30
0.0
  0
VERTEX
  5
ECC
100
AcDbEntity
  8
ALPHA
100
AcDbVertex
100
AcDb2dVertex
 10
23.187582
 20
5.681715
 30
0.0
  0
VERTEX
  5
ECD
100
AcDbEntity
  8
ALPHA
100
AcDbVertex
100
AcDb2dVertex
 10
23.26646
 20
5.50129
 30
0.0
  0
VERTEX
  5
ECE
100
AcDbEntity
  8
ALPHA
100
AcDbVertex
100
AcDb2dVertex
 10
23.329486
 20
5.311408
 30
0.0
  0
VERTEX
  5
ECF
100
AcDbEntity
  8
ALPHA
100
AcDbVertex
100
AcDb2dVertex
 10
23.375721
 20
5.113067
 30
0.0
  0
VERTEX
  5
ED0
100
AcDbEntity
  8
ALPHA
100
AcDbVertex
100
AcDb2dVertex
 10
23.404227
 20
4.907265
 30
0.0
  0
VERTEX
  5
ED1
100
AcDbEntity
  8
ALPHA
100
AcDbVertex
100
AcDb2dVertex
 10
23.414066
 20
4.694999
 30
0.0
  0
VERTEX
  5
ED2
100
AcDbEntity
  8
ALPHA
100
AcDbVertex
100
AcDb2dVertex
 10
23.416817
 20
1.613696
 30
0.0
  0
VERTEX
  5
ED3
100
AcDbEntity
  8
ALPHA
100
AcDbVertex
100
AcDb2dVertex
 10
25.292325
 20
0.465122
 30
0.0
  0
VERTEX
  5
ED4
100
AcDbEntity
  8
ALPHA
100
AcDbVertex
100
AcDb2dVertex
 10
25.292325
 20
7.812813
 30
0.0
  0
VERTEX
  5
ED5
100
AcDbEntity
  8
ALPHA
100
AcDbVertex
100
AcDb2dVertex
 10
23.417487
 20
8.313052
 30
0.0
  0
VERTEX
  5
ED6
100
AcDbEntity
  8
ALPHA
100
AcDbVertex
100
AcDb2dVertex
 10
23.417487
 20
10.364949
 30
0.0
  0
SEQEND
  5
ED7
100
AcDbEntity
  8
ALPHA
  0
POLYLINE
  5
ED8
100
AcDbEntity
  8
ALPHA
100
AcDb2dPolyline
 66
     1
 10
0.0
 20
0.0
 30
0.0
  0
VERTEX
  5
ED9
100
AcDbEntity
  8
ALPHA
100
AcDbVertex
100
AcDb2dVertex
 10
33.167136
 20
10.364949
 30
0.0
  0
VERTEX
  5
EDA
100
AcDbEntity
  8
ALPHA
100
AcDbVertex
100
AcDb2dVertex
 10
33.167136
 20
8.313052
 30
0.0
  0
VERTEX
  5
EDB
100
AcDbEntity
  8
ALPHA
100
AcDbVertex
100
AcDb2dVertex
 10
31.290923
 20
7.812813
 30
0.0
  0
VERTEX
  5
EDC
100
AcDbEntity
  8
ALPHA
100
AcDbVertex
100
AcDb2dVertex
 10
31.290923
 20
0.465122
 30
0.0
  0
VERTEX
  5
EDD
100
AcDbEntity
  8
ALPHA
100
AcDbVertex
100
AcDb2dVertex
 10
33.166431
 20
1.613696
 30
0.0
  0
VERTEX
  5
EDE
100
AcDbEntity
  8
ALPHA
100
AcDbVertex
100
AcDb2dVertex
 10
33.167807
 20
4.694999
 30
0.0
  0
VERTEX
  5
EDF
100
AcDbEntity
  8
ALPHA
100
AcDbVertex
100
AcDb2dVertex
 10
33.177499
 20
4.907265
 30
0.0
  0
VERTEX
  5
EE0
100
AcDbEntity
  8
ALPHA
100
AcDbVertex
100
AcDb2dVertex
 10
33.205945
 20
5.113068
 30
0.0
  0
VERTEX
  5
EE1
100
AcDbEntity
  8
ALPHA
100
AcDbVertex
100
AcDb2dVertex
 10
33.252194
 20
5.311409
 30
0.0
  0
VERTEX
  5
EE2
100
AcDbEntity
  8
ALPHA
100
AcDbVertex
100
AcDb2dVertex
 10
33.315299
 20
5.50129
 30
0.0
  0
VERTEX
  5
EE3
100
AcDbEntity
  8
ALPHA
100
AcDbVertex
100
AcDb2dVertex
 10
33.394311
 20
5.681715
 30
0.0
  0
VERTEX
  5
EE4
100
AcDbEntity
  8
ALPHA
100
AcDbVertex
100
AcDb2dVertex
 10
33.48828
 20
5.851685
 30
0.0
  0
VERTEX
  5
EE5
100
AcDbEntity
  8
ALPHA
100
AcDbVertex
100
AcDb2dVertex
 10
33.596259
 20
6.010203
 30
0.0
  0
VERTEX
  5
EE6
100
AcDbEntity
  8
ALPHA
100
AcDbVertex
100
AcDb2dVertex
 10
33.717298
 20
6.15627
 30
0.0
  0
VERTEX
  5
EE7
100
AcDbEntity
  8
ALPHA
100
AcDbVertex
100
AcDb2dVertex
 10
33.850448
 20
6.28889
 30
0.0
  0
VERTEX
  5
EE8
100
AcDbEntity
  8
ALPHA
100
AcDbVertex
100
AcDb2dVertex
 10
33.994762
 20
6.407064
 30
0.0
  0
VERTEX
  5
EE9
100
AcDbEntity
  8
ALPHA
100
AcDbVertex
100
AcDb2dVertex
 10
34.14929
 20
6.509795
 30
0.0
  0
VERTEX
  5
EEA
100
AcDbEntity
  8
ALPHA
100
AcDbVertex
100
AcDb2dVertex
 10
34.313084
 20
6.596084
 30
0.0
  0
VERTEX
  5
EEB
100
AcDbEntity
  8
ALPHA
100
AcDbVertex
100
AcDb2dVertex
 10
34.485194
 20
6.664935
 30
0.0
  0
VERTEX
  5
EEC
100
AcDbEntity
  8
ALPHA
100
AcDbVertex
100
AcDb2dVertex
 10
34.664672
 20
6.71535
 30
0.0
  0
VERTEX
  5
EED
100
AcDbEntity
  8
ALPHA
100
AcDbVertex
100
AcDb2dVertex
 10
34.85057
 20
6.74633
 30
0.0
  0
VERTEX
  5
EEE
100
AcDbEntity
  8
ALPHA
100
AcDbVertex
100
AcDb2dVertex
 10
35.041939
 20
6.756879
 30
0.0
  0
VERTEX
  5
EEF
100
AcDbEntity
  8
ALPHA
100
AcDbVertex
100
AcDb2dVertex
 10
35.233273
 20
6.74633
 30
0.0
  0
VERTEX
  5
EF0
100
AcDbEntity
  8
ALPHA
100
AcDbVertex
100
AcDb2dVertex
 10
35.419075
 20
6.71535
 30
0.0
  0
VERTEX
  5
EF1
100
AcDbEntity
  8
ALPHA
100
AcDbVertex
100
AcDb2dVertex
 10
35.598406
 20
6.664935
 30
0.0
  0
VERTEX
  5
EF2
100
AcDbEntity
  8
ALPHA
100
AcDbVertex
100
AcDb2dVertex
 10
35.77033
 20
6.596084
 30
0.0
  0
VERTEX
  5
EF3
100
AcDbEntity
  8
ALPHA
100
AcDbVertex
100
AcDb2dVertex
 10
35.933906
 20
6.509795
 30
0.0
  0
VERTEX
  5
EF4
100
AcDbEntity
  8
ALPHA
100
AcDbVertex
100
AcDb2dVertex
 10
36.088197
 20
6.407064
 30
0.0
  0
VERTEX
  5
EF5
100
AcDbEntity
  8
ALPHA
100
AcDbVertex
100
AcDb2dVertex
 10
36.232265
 20
6.28889
 30
0.0
  0
VERTEX
  5
EF6
100
AcDbEntity
  8
ALPHA
100
AcDbVertex
100
AcDb2dVertex
 10
36.365172
 20
6.15627
 30
0.0
  0
VERTEX
  5
EF7
100
AcDbEntity
  8
ALPHA
100
AcDbVertex
100
AcDb2dVertex
 10
36.485979
 20
6.010202
 30
0.0
  0
VERTEX
  5
EF8
100
AcDbEntity
  8
ALPHA
100
AcDbVertex
100
AcDb2dVertex
 10
36.593748
 20
5.851685
 30
0.0
  0
VERTEX
  5
EF9
100
AcDbEntity
  8
ALPHA
100
AcDbVertex
100
AcDb2dVertex
 10
36.687541
 20
5.681715
 30
0.0
  0
VERTEX
  5
EFA
100
AcDbEntity
  8
ALPHA
100
AcDbVertex
100
AcDb2dVertex
 10
36.766419
 20
5.50129
 30
0.0
  0
VERTEX
  5
EFB
100
AcDbEntity
  8
ALPHA
100
AcDbVertex
100
AcDb2dVertex
 10
36.829445
 20
5.311408
 30
0.0
  0
VERTEX
  5
EFC
100
AcDbEntity
  8
ALPHA
100
AcDbVertex
100
AcDb2dVertex
 10
36.87568
 20
5.113067
 30
0.0
  0
VERTEX
  5
EFD
100
AcDbEntity
  8
ALPHA
100
AcDbVertex
100
AcDb2dVertex
 10
36.904186
 20
4.907265
 30
0.0
  0
VERTEX
  5
EFE
100
AcDbEntity
  8
ALPHA
100
AcDbVertex
100
AcDb2dVertex
 10
36.914024
 20
4.694999
 30
0.0
  0
VERTEX
  5
EFF
100
AcDbEntity
  8
ALPHA
100
AcDbVertex
100
AcDb2dVertex
 10
36.916776
 20
1.613696
 30
0.0
  0
VERTEX
  5
F00
100
AcDbEntity
  8
ALPHA
100
AcDbVertex
100
AcDb2dVertex
 10
38.792284
 20
0.465122
 30
0.0
  0
VERTEX
  5
F01
100
AcDbEntity
  8
ALPHA
100
AcDbVertex
100
AcDb2dVertex
 10
38.792284
 20
7.812813
 30
0.0
  0
VERTEX
  5
F02
100
AcDbEntity
  8
ALPHA
100
AcDbVertex
100
AcDb2dVertex
 10
36.917446
 20
8.313052
 30
0.0
  0
VERTEX
  5
F03
100
AcDbEntity
  8
ALPHA
100
AcDbVertex
100
AcDb2dVertex
 10
36.917446
 20
10.364949
 30
0.0
  0
SEQEND
  5
F04
100
AcDbEntity
  8
ALPHA
  0
POLYLINE
  5
F05
100
AcDbEntity
  8
ALPHA
100
AcDb2dPolyline
 66
     1
 10
0.0
 20
0.0
 30
0.0
  0
VERTEX
  5
F06
100
AcDbEntity
  8
ALPHA
100
AcDbVertex
100
AcDb2dVertex
 10
60.191996
 20
10.364949
 30
0.0
  0
VERTEX
  5
F07
100
AcDbEntity
  8
ALPHA
100
AcDbVertex
100
AcDb2dVertex
 10
60.191996
 20
8.313052
 30
0.0
  0
VERTEX
  5
F08
100
AcDbEntity
  8
ALPHA
100
AcDbVertex
100
AcDb2dVertex
 10
58.315817
 20
7.812813
 30
0.0
  0
VERTEX
  5
F09
100
AcDbEntity
  8
ALPHA
100
AcDbVertex
100
AcDb2dVertex
 10
58.315817
 20
0.465122
 30
0.0
  0
VERTEX
  5
F0A
100
AcDbEntity
  8
ALPHA
100
AcDbVertex
100
AcDb2dVertex
 10
60.191325
 20
1.613696
 30
0.0
  0
VERTEX
  5
F0B
100
AcDbEntity
  8
ALPHA
100
AcDbVertex
100
AcDb2dVertex
 10
60.192701
 20
4.694999
 30
0.0
  0
VERTEX
  5
F0C
100
AcDbEntity
  8
ALPHA
100
AcDbVertex
100
AcDb2dVertex
 10
60.202394
 20
4.907265
 30
0.0
  0
VERTEX
  5
F0D
100
AcDbEntity
  8
ALPHA
100
AcDbVertex
100
AcDb2dVertex
 10
60.230839
 20
5.113068
 30
0.0
  0
VERTEX
  5
F0E
100
AcDbEntity
  8
ALPHA
100
AcDbVertex
100
AcDb2dVertex
 10
60.277089
 20
5.311409
 30
0.0
  0
VERTEX
  5
F0F
100
AcDbEntity
  8
ALPHA
100
AcDbVertex
100
AcDb2dVertex
 10
60.340194
 20
5.50129
 30
0.0
  0
VERTEX
  5
F10
100
AcDbEntity
  8
ALPHA
100
AcDbVertex
100
AcDb2dVertex
 10
60.419205
 20
5.681715
 30
0.0
  0
VERTEX
  5
F11
100
AcDbEntity
  8
ALPHA
100
AcDbVertex
100
AcDb2dVertex
 10
60.513175
 20
5.851685
 30
0.0
  0
VERTEX
  5
F12
100
AcDbEntity
  8
ALPHA
100
AcDbVertex
100
AcDb2dVertex
 10
60.621153
 20
6.010203
 30
0.0
  0
VERTEX
  5
F13
100
AcDbEntity
  8
ALPHA
100
AcDbVertex
100
AcDb2dVertex
 10
60.742192
 20
6.15627
 30
0.0
  0
VERTEX
  5
F14
100
AcDbEntity
  8
ALPHA
100
AcDbVertex
100
AcDb2dVertex
 10
60.875343
 20
6.28889
 30
0.0
  0
VERTEX
  5
F15
100
AcDbEntity
  8
ALPHA
100
AcDbVertex
100
AcDb2dVertex
 10
61.019657
 20
6.407064
 30
0.0
  0
VERTEX
  5
F16
100
AcDbEntity
  8
ALPHA
100
AcDbVertex
100
AcDb2dVertex
 10
61.174185
 20
6.509795
 30
0.0
  0
VERTEX
  5
F17
100
AcDbEntity
  8
ALPHA
100
AcDbVertex
100
AcDb2dVertex
 10
61.337978
 20
6.596084
 30
0.0
  0
VERTEX
  5
F18
100
AcDbEntity
  8
ALPHA
100
AcDbVertex
100
AcDb2dVertex
 10
61.510088
 20
6.664935
 30
0.0
  0
VERTEX
  5
F19
100
AcDbEntity
  8
ALPHA
100
AcDbVertex
100
AcDb2dVertex
 10
61.689567
 20
6.71535
 30
0.0
  0
VERTEX
  5
F1A
100
AcDbEntity
  8
ALPHA
100
AcDbVertex
100
AcDb2dVertex
 10
61.875465
 20
6.74633
 30
0.0
  0
VERTEX
  5
F1B
100
AcDbEntity
  8
ALPHA
100
AcDbVertex
100
AcDb2dVertex
 10
62.066833
 20
6.756879
 30
0.0
  0
VERTEX
  5
F1C
100
AcDbEntity
  8
ALPHA
100
AcDbVertex
100
AcDb2dVertex
 10
62.258167
 20
6.74633
 30
0.0
  0
VERTEX
  5
F1D
100
AcDbEntity
  8
ALPHA
100
AcDbVertex
100
AcDb2dVertex
 10
62.443968
 20
6.71535
 30
0.0
  0
VERTEX
  5
F1E
100
AcDbEntity
  8
ALPHA
100
AcDbVertex
100
AcDb2dVertex
 10
62.623298
 20
6.664935
 30
0.0
  0
VERTEX
  5
F1F
100
AcDbEntity
  8
ALPHA
100
AcDbVertex
100
AcDb2dVertex
 10
62.795219
 20
6.596084
 30
0.0
  0
VERTEX
  5
F20
100
AcDbEntity
  8
ALPHA
100
AcDbVertex
100
AcDb2dVertex
 10
62.958792
 20
6.509795
 30
0.0
  0
VERTEX
  5
F21
100
AcDbEntity
  8
ALPHA
100
AcDbVertex
100
AcDb2dVertex
 10
63.113081
 20
6.407064
 30
0.0
  0
VERTEX
  5
F22
100
AcDbEntity
  8
ALPHA
100
AcDbVertex
100
AcDb2dVertex
 10
63.257146
 20
6.28889
 30
0.0
  0
VERTEX
  5
F23
100
AcDbEntity
  8
ALPHA
100
AcDbVertex
100
AcDb2dVertex
 10
63.390049
 20
6.15627
 30
0.0
  0
VERTEX
  5
F24
100
AcDbEntity
  8
ALPHA
100
AcDbVertex
100
AcDb2dVertex
 10
63.510853
 20
6.010202
 30
0.0
  0
VERTEX
  5
F25
100
AcDbEntity
  8
ALPHA
100
AcDbVertex
100
AcDb2dVertex
 10
63.618618
 20
5.851685
 30
0.0
  0
VERTEX
  5
F26
100
AcDbEntity
  8
ALPHA
100
AcDbVertex
100
AcDb2dVertex
 10
63.712408
 20
5.681715
 30
0.0
  0
VERTEX
  5
F27
100
AcDbEntity
  8
ALPHA
100
AcDbVertex
100
AcDb2dVertex
 10
63.791284
 20
5.50129
 30
0.0
  0
VERTEX
  5
F28
100
AcDbEntity
  8
ALPHA
100
AcDbVertex
100
AcDb2dVertex
 10
63.854307
 20
5.311408
 30
0.0
  0
VERTEX
  5
F29
100
AcDbEntity
  8
ALPHA
100
AcDbVertex
100
AcDb2dVertex
 10
63.900541
 20
5.113067
 30
0.0
  0
VERTEX
  5
F2A
100
AcDbEntity
  8
ALPHA
100
AcDbVertex
100
AcDb2dVertex
 10
63.929045
 20
4.907265
 30
0.0
  0
VERTEX
  5
F2B
100
AcDbEntity
  8
ALPHA
100
AcDbVertex
100
AcDb2dVertex
 10
63.938884
 20
4.694999
 30
0.0
  0
VERTEX
  5
F2C
100
AcDbEntity
  8
ALPHA
100
AcDbVertex
100
AcDb2dVertex
 10
63.941635
 20
1.613696
 30
0.0
  0
VERTEX
  5
F2D
100
AcDbEntity
  8
ALPHA
100
AcDbVertex
100
AcDb2dVertex
 10
65.817143
 20
0.465122
 30
0.0
  0
VERTEX
  5
F2E
100
AcDbEntity
  8
ALPHA
100
AcDbVertex
100
AcDb2dVertex
 10
65.817143
 20
7.812813
 30
0.0
  0
VERTEX
  5
F2F
100
AcDbEntity
  8
ALPHA
100
AcDbVertex
100
AcDb2dVertex
 10
63.942341
 20
8.313052
 30
0.0
  0
VERTEX
  5
F30
100
AcDbEntity
  8
ALPHA
100
AcDbVertex
100
AcDb2dVertex
 10
63.942341
 20
10.364949
 30
0.0
  0
SEQEND
  5
F31
100
AcDbEntity
  8
ALPHA
  0
POLYLINE
  5
F32
100
AcDbEntity
  8
ALPHA
100
AcDb2dPolyline
 66
     1
 10
0.0
 20
0.0
 30
0.0
  0
VERTEX
  5
F33
100
AcDbEntity
  8
ALPHA
100
AcDbVertex
100
AcDb2dVertex
 10
73.667154
 20
10.364949
 30
0.0
  0
VERTEX
  5
F34
100
AcDbEntity
  8
ALPHA
100
AcDbVertex
100
AcDb2dVertex
 10
73.667154
 20
8.313052
 30
0.0
  0
VERTEX
  5
F35
100
AcDbEntity
  8
ALPHA
100
AcDbVertex
100
AcDb2dVertex
 10
71.790941
 20
7.812813
 30
0.0
  0
VERTEX
  5
F36
100
AcDbEntity
  8
ALPHA
100
AcDbVertex
100
AcDb2dVertex
 10
71.790941
 20
0.465122
 30
0.0
  0
VERTEX
  5
F37
100
AcDbEntity
  8
ALPHA
100
AcDbVertex
100
AcDb2dVertex
 10
73.666449
 20
1.613696
 30
0.0
  0
VERTEX
  5
F38
100
AcDbEntity
  8
ALPHA
100
AcDbVertex
100
AcDb2dVertex
 10
73.667824
 20
4.694999
 30
0.0
  0
VERTEX
  5
F39
100
AcDbEntity
  8
ALPHA
100
AcDbVertex
100
AcDb2dVertex
 10
73.677517
 20
4.907265
 30
0.0
  0
VERTEX
  5
F3A
100
AcDbEntity
  8
ALPHA
100
AcDbVertex
100
AcDb2dVertex
 10
73.705964
 20
5.113068
 30
0.0
  0
VERTEX
  5
F3B
100
AcDbEntity
  8
ALPHA
100
AcDbVertex
100
AcDb2dVertex
 10
73.752215
 20
5.311409
 30
0.0
  0
VERTEX
  5
F3C
100
AcDbEntity
  8
ALPHA
100
AcDbVertex
100
AcDb2dVertex
 10
73.815322
 20
5.50129
 30
0.0
  0
VERTEX
  5
F3D
100
AcDbEntity
  8
ALPHA
100
AcDbVertex
100
AcDb2dVertex
 10
73.894336
 20
5.681715
 30
0.0
  0
VERTEX
  5
F3E
100
AcDbEntity
  8
ALPHA
100
AcDbVertex
100
AcDb2dVertex
 10
73.988307
 20
5.851685
 30
0.0
  0
VERTEX
  5
F3F
100
AcDbEntity
  8
ALPHA
100
AcDbVertex
100
AcDb2dVertex
 10
74.096288
 20
6.010203
 30
0.0
  0
VERTEX
  5
F40
100
AcDbEntity
  8
ALPHA
100
AcDbVertex
100
AcDb2dVertex
 10
74.217329
 20
6.15627
 30
0.0
  0
VERTEX
  5
F41
100
AcDbEntity
  8
ALPHA
100
AcDbVertex
100
AcDb2dVertex
 10
74.350481
 20
6.28889
 30
0.0
  0
VERTEX
  5
F42
100
AcDbEntity
  8
ALPHA
100
AcDbVertex
100
AcDb2dVertex
 10
74.494795
 20
6.407064
 30
0.0
  0
VERTEX
  5
F43
100
AcDbEntity
  8
ALPHA
100
AcDbVertex
100
AcDb2dVertex
 10
74.649324
 20
6.509795
 30
0.0
  0
VERTEX
  5
F44
100
AcDbEntity
  8
ALPHA
100
AcDbVertex
100
AcDb2dVertex
 10
74.813116
 20
6.596084
 30
0.0
  0
VERTEX
  5
F45
100
AcDbEntity
  8
ALPHA
100
AcDbVertex
100
AcDb2dVertex
 10
74.985225
 20
6.664935
 30
0.0
  0
VERTEX
  5
F46
100
AcDbEntity
  8
ALPHA
100
AcDbVertex
100
AcDb2dVertex
 10
75.1647
 20
6.71535
 30
0.0
  0
VERTEX
  5
F47
100
AcDbEntity
  8
ALPHA
100
AcDbVertex
100
AcDb2dVertex
 10
75.350594
 20
6.74633
 30
0.0
  0
VERTEX
  5
F48
100
AcDbEntity
  8
ALPHA
100
AcDbVertex
100
AcDb2dVertex
 10
75.541956
 20
6.756879
 30
0.0
  0
VERTEX
  5
F49
100
AcDbEntity
  8
ALPHA
100
AcDbVertex
100
AcDb2dVertex
 10
75.73329
 20
6.74633
 30
0.0
  0
VERTEX
  5
F4A
100
AcDbEntity
  8
ALPHA
100
AcDbVertex
100
AcDb2dVertex
 10
75.919093
 20
6.71535
 30
0.0
  0
VERTEX
  5
F4B
100
AcDbEntity
  8
ALPHA
100
AcDbVertex
100
AcDb2dVertex
 10
76.098424
 20
6.664935
 30
0.0
  0
VERTEX
  5
F4C
100
AcDbEntity
  8
ALPHA
100
AcDbVertex
100
AcDb2dVertex
 10
76.270347
 20
6.596084
 30
0.0
  0
VERTEX
  5
F4D
100
AcDbEntity
  8
ALPHA
100
AcDbVertex
100
AcDb2dVertex
 10
76.433924
 20
6.509795
 30
0.0
  0
VERTEX
  5
F4E
100
AcDbEntity
  8
ALPHA
100
AcDbVertex
100
AcDb2dVertex
 10
76.588215
 20
6.407064
 30
0.0
  0
VERTEX
  5
F4F
100
AcDbEntity
  8
ALPHA
100
AcDbVertex
100
AcDb2dVertex
 10
76.732283
 20
6.28889
 30
0.0
  0
VERTEX
  5
F50
100
AcDbEntity
  8
ALPHA
100
AcDbVertex
100
AcDb2dVertex
 10
76.86519
 20
6.15627
 30
0.0
  0
VERTEX
  5
F51
100
AcDbEntity
  8
ALPHA
100
AcDbVertex
100
AcDb2dVertex
 10
76.985997
 20
6.010202
 30
0.0
  0
VERTEX
  5
F52
100
AcDbEntity
  8
ALPHA
100
AcDbVertex
100
AcDb2dVertex
 10
77.093766
 20
5.851685
 30
0.0
  0
VERTEX
  5
F53
100
AcDbEntity
  8
ALPHA
100
AcDbVertex
100
AcDb2dVertex
 10
77.187559
 20
5.681715
 30
0.0
  0
VERTEX
  5
F54
100
AcDbEntity
  8
ALPHA
100
AcDbVertex
100
AcDb2dVertex
 10
77.266437
 20
5.50129
 30
0.0
  0
VERTEX
  5
F55
100
AcDbEntity
  8
ALPHA
100
AcDbVertex
100
AcDb2dVertex
 10
77.329463
 20
5.311408
 30
0.0
  0
VERTEX
  5
F56
100
AcDbEntity
  8
ALPHA
100
AcDbVertex
100
AcDb2dVertex
 10
77.375698
 20
5.113067
 30
0.0
  0
VERTEX
  5
F57
100
AcDbEntity
  8
ALPHA
100
AcDbVertex
100
AcDb2dVertex
 10
77.404204
 20
4.907265
 30
0.0
  0
VERTEX
  5
F58
100
AcDbEntity
  8
ALPHA
100
AcDbVertex
100
AcDb2dVertex
 10
77.414042
 20
4.694999
 30
0.0
  0
VERTEX
  5
F59
100
AcDbEntity
  8
ALPHA
100
AcDbVertex
100
AcDb2dVertex
 10
77.416794
 20
1.613696
 30
0.0
  0
VERTEX
  5
F5A
100
AcDbEntity
  8
ALPHA
100
AcDbVertex
100
AcDb2dVertex
 10
79.292302
 20
0.465122
 30
0.0
  0
VERTEX
  5
F5B
100
AcDbEntity
  8
ALPHA
100
AcDbVertex
100
AcDb2dVertex
 10
79.292302
 20
7.812813
 30
0.0
  0
VERTEX
  5
F5C
100
AcDbEntity
  8
ALPHA
100
AcDbVertex
100
AcDb2dVertex
 10
77.417464
 20
8.313052
 30
0.0
  0
VERTEX
  5
F5D
100
AcDbEntity
  8
ALPHA
100
AcDbVertex
100
AcDb2dVertex
 10
77.417464
 20
10.364949
 30
0.0
  0
SEQEND
  5
F5E
100
AcDbEntity
  8
ALPHA
  0
POLYLINE
  5
F5F
100
AcDbEntity
  8
ALPHA
100
AcDb2dPolyline
 66
     1
 10
0.0
 20
0.0
 30
0.0
  0
VERTEX
  5
F60
100
AcDbEntity
  8
ALPHA
100
AcDbVertex
100
AcDb2dVertex
 10
87.167113
 20
10.364949
 30
0.0
  0
VERTEX
  5
F61
100
AcDbEntity
  8
ALPHA
100
AcDbVertex
100
AcDb2dVertex
 10
87.167113
 20
8.313052
 30
0.0
  0
VERTEX
  5
F62
100
AcDbEntity
  8
ALPHA
100
AcDbVertex
100
AcDb2dVertex
 10
85.2909
 20
7.812813
 30
0.0
  0
VERTEX
  5
F63
100
AcDbEntity
  8
ALPHA
100
AcDbVertex
100
AcDb2dVertex
 10
85.2909
 20
0.465122
 30
0.0
  0
VERTEX
  5
F64
100
AcDbEntity
  8
ALPHA
100
AcDbVertex
100
AcDb2dVertex
 10
87.166407
 20
1.613696
 30
0.0
  0
VERTEX
  5
F65
100
AcDbEntity
  8
ALPHA
100
AcDbVertex
100
AcDb2dVertex
 10
87.167783
 20
4.694999
 30
0.0
  0
VERTEX
  5
F66
100
AcDbEntity
  8
ALPHA
100
AcDbVertex
100
AcDb2dVertex
 10
87.177476
 20
4.907265
 30
0.0
  0
VERTEX
  5
F67
100
AcDbEntity
  8
ALPHA
100
AcDbVertex
100
AcDb2dVertex
 10
87.205921
 20
5.113068
 30
0.0
  0
VERTEX
  5
F68
100
AcDbEntity
  8
ALPHA
100
AcDbVertex
100
AcDb2dVertex
 10
87.252171
 20
5.311409
 30
0.0
  0
VERTEX
  5
F69
100
AcDbEntity
  8
ALPHA
100
AcDbVertex
100
AcDb2dVertex
 10
87.315276
 20
5.50129
 30
0.0
  0
VERTEX
  5
F6A
100
AcDbEntity
  8
ALPHA
100
AcDbVertex
100
AcDb2dVertex
 10
87.394287
 20
5.681715
 30
0.0
  0
VERTEX
  5
F6B
100
AcDbEntity
  8
ALPHA
100
AcDbVertex
100
AcDb2dVertex
 10
87.488257
 20
5.851685
 30
0.0
  0
VERTEX
  5
F6C
100
AcDbEntity
  8
ALPHA
100
AcDbVertex
100
AcDb2dVertex
 10
87.596235
 20
6.010203
 30
0.0
  0
VERTEX
  5
F6D
100
AcDbEntity
  8
ALPHA
100
AcDbVertex
100
AcDb2dVertex
 10
87.717274
 20
6.15627
 30
0.0
  0
VERTEX
  5
F6E
100
AcDbEntity
  8
ALPHA
100
AcDbVertex
100
AcDb2dVertex
 10
87.850425
 20
6.28889
 30
0.0
  0
VERTEX
  5
F6F
100
AcDbEntity
  8
ALPHA
100
AcDbVertex
100
AcDb2dVertex
 10
87.994739
 20
6.407064
 30
0.0
  0
VERTEX
  5
F70
100
AcDbEntity
  8
ALPHA
100
AcDbVertex
100
AcDb2dVertex
 10
88.149267
 20
6.509795
 30
0.0
  0
VERTEX
  5
F71
100
AcDbEntity
  8
ALPHA
100
AcDbVertex
100
AcDb2dVertex
 10
88.31306
 20
6.596084
 30
0.0
  0
VERTEX
  5
F72
100
AcDbEntity
  8
ALPHA
100
AcDbVertex
100
AcDb2dVertex
 10
88.485171
 20
6.664935
 30
0.0
  0
VERTEX
  5
F73
100
AcDbEntity
  8
ALPHA
100
AcDbVertex
100
AcDb2dVertex
 10
88.664649
 20
6.71535
 30
0.0
  0
VERTEX
  5
F74
100
AcDbEntity
  8
ALPHA
100
AcDbVertex
100
AcDb2dVertex
 10
88.850547
 20
6.74633
 30
0.0
  0
VERTEX
  5
F75
100
AcDbEntity
  8
ALPHA
100
AcDbVertex
100
AcDb2dVertex
 10
89.041915
 20
6.756879
 30
0.0
  0
VERTEX
  5
F76
100
AcDbEntity
  8
ALPHA
100
AcDbVertex
100
AcDb2dVertex
 10
89.233249
 20
6.74633
 30
0.0
  0
VERTEX
  5
F77
100
AcDbEntity
  8
ALPHA
100
AcDbVertex
100
AcDb2dVertex
 10
89.419051
 20
6.71535
 30
0.0
  0
VERTEX
  5
F78
100
AcDbEntity
  8
ALPHA
100
AcDbVertex
100
AcDb2dVertex
 10
89.598383
 20
6.664935
 30
0.0
  0
VERTEX
  5
F79
100
AcDbEntity
  8
ALPHA
100
AcDbVertex
100
AcDb2dVertex
 10
89.770306
 20
6.596084
 30
0.0
  0
VERTEX
  5
F7A
100
AcDbEntity
  8
ALPHA
100
AcDbVertex
100
AcDb2dVertex
 10
89.933883
 20
6.509795
 30
0.0
  0
VERTEX
  5
F7B
100
AcDbEntity
  8
ALPHA
100
AcDbVertex
100
AcDb2dVertex
 10
90.088174
 20
6.407064
 30
0.0
  0
VERTEX
  5
F7C
100
AcDbEntity
  8
ALPHA
100
AcDbVertex
100
AcDb2dVertex
 10
90.232242
 20
6.28889
 30
0.0
  0
VERTEX
  5
F7D
100
AcDbEntity
  8
ALPHA
100
AcDbVertex
100
AcDb2dVertex
 10
90.365149
 20
6.15627
 30
0.0
  0
VERTEX
  5
F7E
100
AcDbEntity
  8
ALPHA
100
AcDbVertex
100
AcDb2dVertex
 10
90.485956
 20
6.010202
 30
0.0
  0
VERTEX
  5
F7F
100
AcDbEntity
  8
ALPHA
100
AcDbVertex
100
AcDb2dVertex
 10
90.593725
 20
5.851685
 30
0.0
  0
VERTEX
  5
F80
100
AcDbEntity
  8
ALPHA
100
AcDbVertex
100
AcDb2dVertex
 10
90.687517
 20
5.681715
 30
0.0
  0
VERTEX
  5
F81
100
AcDbEntity
  8
ALPHA
100
AcDbVertex
100
AcDb2dVertex
 10
90.766396
 20
5.50129
 30
0.0
  0
VERTEX
  5
F82
100
AcDbEntity
  8
ALPHA
100
AcDbVertex
100
AcDb2dVertex
 10
90.829422
 20
5.311408
 30
0.0
  0
VERTEX
  5
F83
100
AcDbEntity
  8
ALPHA
100
AcDbVertex
100
AcDb2dVertex
 10
90.875657
 20
5.113067
 30
0.0
  0
VERTEX
  5
F84
100
AcDbEntity
  8
ALPHA
100
AcDbVertex
100
AcDb2dVertex
 10
90.904163
 20
4.907265
 30
0.0
  0
VERTEX
  5
F85
100
AcDbEntity
  8
ALPHA
100
AcDbVertex
100
AcDb2dVertex
 10
90.914001
 20
4.694999
 30
0.0
  0
VERTEX
  5
F86
100
AcDbEntity
  8
ALPHA
100
AcDbVertex
100
AcDb2dVertex
 10
90.916753
 20
1.613696
 30
0.0
  0
VERTEX
  5
F87
100
AcDbEntity
  8
ALPHA
100
AcDbVertex
100
AcDb2dVertex
 10
92.792261
 20
0.465122
 30
0.0
  0
VERTEX
  5
F88
100
AcDbEntity
  8
ALPHA
100
AcDbVertex
100
AcDb2dVertex
 10
92.792261
 20
7.812813
 30
0.0
  0
VERTEX
  5
F89
100
AcDbEntity
  8
ALPHA
100
AcDbVertex
100
AcDb2dVertex
 10
90.917423
 20
8.313052
 30
0.0
  0
VERTEX
  5
F8A
100
AcDbEntity
  8
ALPHA
100
AcDbVertex
100
AcDb2dVertex
 10
90.917423
 20
10.364949
 30
0.0
  0
SEQEND
  5
F8B
100
AcDbEntity
  8
ALPHA
  0
POLYLINE
  5
F8C
100
AcDbEntity
  8
ALPHA
100
AcDb2dPolyline
 66
     1
 10
0.0
 20
0.0
 30
0.0
  0
VERTEX
  5
F8D
100
AcDbEntity
  8
ALPHA
100
AcDbVertex
100
AcDb2dVertex
 10
114.192149
 20
10.364949
 30
0.0
  0
VERTEX
  5
F8E
100
AcDbEntity
  8
ALPHA
100
AcDbVertex
100
AcDb2dVertex
 10
114.192149
 20
8.313052
 30
0.0
  0
VERTEX
  5
F8F
100
AcDbEntity
  8
ALPHA
100
AcDbVertex
100
AcDb2dVertex
 10
112.315971
 20
7.812813
 30
0.0
  0
VERTEX
  5
F90
100
AcDbEntity
  8
ALPHA
100
AcDbVertex
100
AcDb2dVertex
 10
112.315971
 20
0.465122
 30
0.0
  0
VERTEX
  5
F91
100
AcDbEntity
  8
ALPHA
100
AcDbVertex
100
AcDb2dVertex
 10
114.191478
 20
1.613696
 30
0.0
  0
VERTEX
  5
F92
100
AcDbEntity
  8
ALPHA
100
AcDbVertex
100
AcDb2dVertex
 10
114.192854
 20
4.694999
 30
0.0
  0
VERTEX
  5
F93
100
AcDbEntity
  8
ALPHA
100
AcDbVertex
100
AcDb2dVertex
 10
114.202547
 20
4.907265
 30
0.0
  0
VERTEX
  5
F94
100
AcDbEntity
  8
ALPHA
100
AcDbVertex
100
AcDb2dVertex
 10
114.230992
 20
5.113068
 30
0.0
  0
VERTEX
  5
F95
100
AcDbEntity
  8
ALPHA
100
AcDbVertex
100
AcDb2dVertex
 10
114.277242
 20
5.311409
 30
0.0
  0
VERTEX
  5
F96
100
AcDbEntity
  8
ALPHA
100
AcDbVertex
100
AcDb2dVertex
 10
114.340347
 20
5.50129
 30
0.0
  0
VERTEX
  5
F97
100
AcDbEntity
  8
ALPHA
100
AcDbVertex
100
AcDb2dVertex
 10
114.419358
 20
5.681715
 30
0.0
  0
VERTEX
  5
F98
100
AcDbEntity
  8
ALPHA
100
AcDbVertex
100
AcDb2dVertex
 10
114.513328
 20
5.851685
 30
0.0
  0
VERTEX
  5
F99
100
AcDbEntity
  8
ALPHA
100
AcDbVertex
100
AcDb2dVertex
 10
114.621306
 20
6.010203
 30
0.0
  0
VERTEX
  5
F9A
100
AcDbEntity
  8
ALPHA
100
AcDbVertex
100
AcDb2dVertex
 10
114.742345
 20
6.15627
 30
0.0
  0
VERTEX
  5
F9B
100
AcDbEntity
  8
ALPHA
100
AcDbVertex
100
AcDb2dVertex
 10
114.875496
 20
6.28889
 30
0.0
  0
VERTEX
  5
F9C
100
AcDbEntity
  8
ALPHA
100
AcDbVertex
100
AcDb2dVertex
 10
115.01981
 20
6.407064
 30
0.0
  0
VERTEX
  5
F9D
100
AcDbEntity
  8
ALPHA
100
AcDbVertex
100
AcDb2dVertex
 10
115.174338
 20
6.509795
 30
0.0
  0
VERTEX
  5
F9E
100
AcDbEntity
  8
ALPHA
100
AcDbVertex
100
AcDb2dVertex
 10
115.338131
 20
6.596084
 30
0.0
  0
VERTEX
  5
F9F
100
AcDbEntity
  8
ALPHA
100
AcDbVertex
100
AcDb2dVertex
 10
115.510242
 20
6.664935
 30
0.0
  0
VERTEX
  5
FA0
100
AcDbEntity
  8
ALPHA
100
AcDbVertex
100
AcDb2dVertex
 10
115.68972
 20
6.71535
 30
0.0
  0
VERTEX
  5
FA1
100
AcDbEntity
  8
ALPHA
100
AcDbVertex
100
AcDb2dVertex
 10
115.875618
 20
6.74633
 30
0.0
  0
VERTEX
  5
FA2
100
AcDbEntity
  8
ALPHA
100
AcDbVertex
100
AcDb2dVertex
 10
116.066986
 20
6.756879
 30
0.0
  0
VERTEX
  5
FA3
100
AcDbEntity
  8
ALPHA
100
AcDbVertex
100
AcDb2dVertex
 10
116.25832
 20
6.74633
 30
0.0
  0
VERTEX
  5
FA4
100
AcDbEntity
  8
ALPHA
100
AcDbVertex
100
AcDb2dVertex
 10
116.444121
 20
6.71535
 30
0.0
  0
VERTEX
  5
FA5
100
AcDbEntity
  8
ALPHA
100
AcDbVertex
100
AcDb2dVertex
 10
116.623451
 20
6.664935
 30
0.0
  0
VERTEX
  5
FA6
100
AcDbEntity
  8
ALPHA
100
AcDbVertex
100
AcDb2dVertex
 10
116.795372
 20
6.596084
 30
0.0
  0
VERTEX
  5
FA7
100
AcDbEntity
  8
ALPHA
100
AcDbVertex
100
AcDb2dVertex
 10
116.958945
 20
6.509795
 30
0.0
  0
VERTEX
  5
FA8
100
AcDbEntity
  8
ALPHA
100
AcDbVertex
100
AcDb2dVertex
 10
117.113234
 20
6.407064
 30
0.0
  0
VERTEX
  5
FA9
100
AcDbEntity
  8
ALPHA
100
AcDbVertex
100
AcDb2dVertex
 10
117.257299
 20
6.28889
 30
0.0
  0
VERTEX
  5
FAA
100
AcDbEntity
  8
ALPHA
100
AcDbVertex
100
AcDb2dVertex
 10
117.390202
 20
6.15627
 30
0.0
  0
VERTEX
  5
FAB
100
AcDbEntity
  8
ALPHA
100
AcDbVertex
100
AcDb2dVertex
 10
117.511006
 20
6.010202
 30
0.0
  0
VERTEX
  5
FAC
100
AcDbEntity
  8
ALPHA
100
AcDbVertex
100
AcDb2dVertex
 10
117.618771
 20
5.851685
 30
0.0
  0
VERTEX
  5
FAD
100
AcDbEntity
  8
ALPHA
100
AcDbVertex
100
AcDb2dVertex
 10
117.712561
 20
5.681715
 30
0.0
  0
VERTEX
  5
FAE
100
AcDbEntity
  8
ALPHA
100
AcDbVertex
100
AcDb2dVertex
 10
117.791437
 20
5.50129
 30
0.0
  0
VERTEX
  5
FAF
100
AcDbEntity
  8
ALPHA
100
AcDbVertex
100
AcDb2dVertex
 10
117.854461
 20
5.311408
 30
0.0
  0
VERTEX
  5
FB0
100
AcDbEntity
  8
ALPHA
100
AcDbVertex
100
AcDb2dVertex
 10
117.900694
 20
5.113067
 30
0.0
  0
VERTEX
  5
FB1
100
AcDbEntity
  8
ALPHA
100
AcDbVertex
100
AcDb2dVertex
 10
117.929198
 20
4.907265
 30
0.0
  0
VERTEX
  5
FB2
100
AcDbEntity
  8
ALPHA
100
AcDbVertex
100
AcDb2dVertex
 10
117.939037
 20
4.694999
 30
0.0
  0
VERTEX
  5
FB3
100
AcDbEntity
  8
ALPHA
100
AcDbVertex
100
AcDb2dVertex
 10
117.941788
 20
1.613696
 30
0.0
  0
VERTEX
  5
FB4
100
AcDbEntity
  8
ALPHA
100
AcDbVertex
100
AcDb2dVertex
 10
119.817296
 20
0.465122
 30
0.0
  0
VERTEX
  5
FB5
100
AcDbEntity
  8
ALPHA
100
AcDbVertex
100
AcDb2dVertex
 10
119.817296
 20
7.812813
 30
0.0
  0
VERTEX
  5
FB6
100
AcDbEntity
  8
ALPHA
100
AcDbVertex
100
AcDb2dVertex
 10
117.942494
 20
8.313052
 30
0.0
  0
VERTEX
  5
FB7
100
AcDbEntity
  8
ALPHA
100
AcDbVertex
100
AcDb2dVertex
 10
117.942494
 20
10.364949
 30
0.0
  0
SEQEND
  5
FB8
100
AcDbEntity
  8
ALPHA
  0
POLYLINE
  5
FB9
100
AcDbEntity
  8
ALPHA
100
AcDb2dPolyline
 66
     1
 10
0.0
 20
0.0
 30
0.0
  0
VERTEX
  5
FBA
100
AcDbEntity
  8
ALPHA
100
AcDbVertex
100
AcDb2dVertex
 10
141.167266
 20
10.364949
 30
0.0
  0
VERTEX
  5
FBB
100
AcDbEntity
  8
ALPHA
100
AcDbVertex
100
AcDb2dVertex
 10
141.167266
 20
8.313052
 30
0.0
  0
VERTEX
  5
FBC
100
AcDbEntity
  8
ALPHA
100
AcDbVertex
100
AcDb2dVertex
 10
139.291053
 20
7.812813
 30
0.0
  0
VERTEX
  5
FBD
100
AcDbEntity
  8
ALPHA
100
AcDbVertex
100
AcDb2dVertex
 10
139.291053
 20
0.465122
 30
0.0
  0
VERTEX
  5
FBE
100
AcDbEntity
  8
ALPHA
100
AcDbVertex
100
AcDb2dVertex
 10
141.166561
 20
1.613696
 30
0.0
  0
VERTEX
  5
FBF
100
AcDbEntity
  8
ALPHA
100
AcDbVertex
100
AcDb2dVertex
 10
141.167936
 20
4.694999
 30
0.0
  0
VERTEX
  5
FC0
100
AcDbEntity
  8
ALPHA
100
AcDbVertex
100
AcDb2dVertex
 10
141.177629
 20
4.907265
 30
0.0
  0
VERTEX
  5
FC1
100
AcDbEntity
  8
ALPHA
100
AcDbVertex
100
AcDb2dVertex
 10
141.206074
 20
5.113068
 30
0.0
  0
VERTEX
  5
FC2
100
AcDbEntity
  8
ALPHA
100
AcDbVertex
100
AcDb2dVertex
 10
141.252324
 20
5.311409
 30
0.0
  0
VERTEX
  5
FC3
100
AcDbEntity
  8
ALPHA
100
AcDbVertex
100
AcDb2dVertex
 10
141.315429
 20
5.50129
 30
0.0
  0
VERTEX
  5
FC4
100
AcDbEntity
  8
ALPHA
100
AcDbVertex
100
AcDb2dVertex
 10
141.39444
 20
5.681715
 30
0.0
  0
VERTEX
  5
FC5
100
AcDbEntity
  8
ALPHA
100
AcDbVertex
100
AcDb2dVertex
 10
141.48841
 20
5.851685
 30
0.0
  0
VERTEX
  5
FC6
100
AcDbEntity
  8
ALPHA
100
AcDbVertex
100
AcDb2dVertex
 10
141.596388
 20
6.010203
 30
0.0
  0
VERTEX
  5
FC7
100
AcDbEntity
  8
ALPHA
100
AcDbVertex
100
AcDb2dVertex
 10
141.717427
 20
6.15627
 30
0.0
  0
VERTEX
  5
FC8
100
AcDbEntity
  8
ALPHA
100
AcDbVertex
100
AcDb2dVertex
 10
141.850578
 20
6.28889
 30
0.0
  0
VERTEX
  5
FC9
100
AcDbEntity
  8
ALPHA
100
AcDbVertex
100
AcDb2dVertex
 10
141.994892
 20
6.407064
 30
0.0
  0
VERTEX
  5
FCA
100
AcDbEntity
  8
ALPHA
100
AcDbVertex
100
AcDb2dVertex
 10
142.14942
 20
6.509795
 30
0.0
  0
VERTEX
  5
FCB
100
AcDbEntity
  8
ALPHA
100
AcDbVertex
100
AcDb2dVertex
 10
142.313213
 20
6.596084
 30
0.0
  0
VERTEX
  5
FCC
100
AcDbEntity
  8
ALPHA
100
AcDbVertex
100
AcDb2dVertex
 10
142.485324
 20
6.664935
 30
0.0
  0
VERTEX
  5
FCD
100
AcDbEntity
  8
ALPHA
100
AcDbVertex
100
AcDb2dVertex
 10
142.664802
 20
6.71535
 30
0.0
  0
VERTEX
  5
FCE
100
AcDbEntity
  8
ALPHA
100
AcDbVertex
100
AcDb2dVertex
 10
142.8507
 20
6.74633
 30
0.0
  0
VERTEX
  5
FCF
100
AcDbEntity
  8
ALPHA
100
AcDbVertex
100
AcDb2dVertex
 10
143.042068
 20
6.756879
 30
0.0
  0
VERTEX
  5
FD0
100
AcDbEntity
  8
ALPHA
100
AcDbVertex
100
AcDb2dVertex
 10
143.233402
 20
6.74633
 30
0.0
  0
VERTEX
  5
FD1
100
AcDbEntity
  8
ALPHA
100
AcDbVertex
100
AcDb2dVertex
 10
143.419204
 20
6.71535
 30
0.0
  0
VERTEX
  5
FD2
100
AcDbEntity
  8
ALPHA
100
AcDbVertex
100
AcDb2dVertex
 10
143.598536
 20
6.664935
 30
0.0
  0
VERTEX
  5
FD3
100
AcDbEntity
  8
ALPHA
100
AcDbVertex
100
AcDb2dVertex
 10
143.770459
 20
6.596084
 30
0.0
  0
VERTEX
  5
FD4
100
AcDbEntity
  8
ALPHA
100
AcDbVertex
100
AcDb2dVertex
 10
143.934036
 20
6.509795
 30
0.0
  0
VERTEX
  5
FD5
100
AcDbEntity
  8
ALPHA
100
AcDbVertex
100
AcDb2dVertex
 10
144.088327
 20
6.407064
 30
0.0
  0
VERTEX
  5
FD6
100
AcDbEntity
  8
ALPHA
100
AcDbVertex
100
AcDb2dVertex
 10
144.232395
 20
6.28889
 30
0.0
  0
VERTEX
  5
FD7
100
AcDbEntity
  8
ALPHA
100
AcDbVertex
100
AcDb2dVertex
 10
144.365302
 20
6.15627
 30
0.0
  0
VERTEX
  5
FD8
100
AcDbEntity
  8
ALPHA
100
AcDbVertex
100
AcDb2dVertex
 10
144.486109
 20
6.010202
 30
0.0
  0
VERTEX
  5
FD9
100
AcDbEntity
  8
ALPHA
100
AcDbVertex
100
AcDb2dVertex
 10
144.593878
 20
5.851685
 30
0.0
  0
VERTEX
  5
FDA
100
AcDbEntity
  8
ALPHA
100
AcDbVertex
100
AcDb2dVertex
 10
144.687671
 20
5.681715
 30
0.0
  0
VERTEX
  5
FDB
100
AcDbEntity
  8
ALPHA
100
AcDbVertex
100
AcDb2dVertex
 10
144.766549
 20
5.50129
 30
0.0
  0
VERTEX
  5
FDC
100
AcDbEntity
  8
ALPHA
100
AcDbVertex
100
AcDb2dVertex
 10
144.829575
 20
5.311408
 30
0.0
  0
VERTEX
  5
FDD
100
AcDbEntity
  8
ALPHA
100
AcDbVertex
100
AcDb2dVertex
 10
144.87581
 20
5.113067
 30
0.0
  0
VERTEX
  5
FDE
100
AcDbEntity
  8
ALPHA
100
AcDbVertex
100
AcDb2dVertex
 10
144.904316
 20
4.907265
 30
0.0
  0
VERTEX
  5
FDF
100
AcDbEntity
  8
ALPHA
100
AcDbVertex
100
AcDb2dVertex
 10
144.914154
 20
4.694999
 30
0.0
  0
VERTEX
  5
FE0
100
AcDbEntity
  8
ALPHA
100
AcDbVertex
100
AcDb2dVertex
 10
144.916906
 20
1.613696
 30
0.0
  0
VERTEX
  5
FE1
100
AcDbEntity
  8
ALPHA
100
AcDbVertex
100
AcDb2dVertex
 10
146.792414
 20
0.465122
 30
0.0
  0
VERTEX
  5
FE2
100
AcDbEntity
  8
ALPHA
100
AcDbVertex
100
AcDb2dVertex
 10
146.792414
 20
7.812813
 30
0.0
  0
VERTEX
  5
FE3
100
AcDbEntity
  8
ALPHA
100
AcDbVertex
100
AcDb2dVertex
 10
144.917576
 20
8.313052
 30
0.0
  0
VERTEX
  5
FE4
100
AcDbEntity
  8
ALPHA
100
AcDbVertex
100
AcDb2dVertex
 10
144.917576
 20
10.364949
 30
0.0
  0
SEQEND
  5
FE5
100
AcDbEntity
  8
ALPHA
  0
POLYLINE
  5
FE6
100
AcDbEntity
  8
ALPHA
100
AcDb2dPolyline
 66
     1
 10
0.0
 20
0.0
 30
0.0
  0
VERTEX
  5
FE7
100
AcDbEntity
  8
ALPHA
100
AcDbVertex
100
AcDb2dVertex
 10
127.667307
 20
10.364949
 30
0.0
  0
VERTEX
  5
FE8
100
AcDbEntity
  8
ALPHA
100
AcDbVertex
100
AcDb2dVertex
 10
127.667307
 20
8.313052
 30
0.0
  0
VERTEX
  5
FE9
100
AcDbEntity
  8
ALPHA
100
AcDbVertex
100
AcDb2dVertex
 10
125.791094
 20
7.812813
 30
0.0
  0
VERTEX
  5
FEA
100
AcDbEntity
  8
ALPHA
100
AcDbVertex
100
AcDb2dVertex
 10
125.791094
 20
0.465122
 30
0.0
  0
VERTEX
  5
FEB
100
AcDbEntity
  8
ALPHA
100
AcDbVertex
100
AcDb2dVertex
 10
127.666602
 20
1.613696
 30
0.0
  0
VERTEX
  5
FEC
100
AcDbEntity
  8
ALPHA
100
AcDbVertex
100
AcDb2dVertex
 10
127.667977
 20
4.694999
 30
0.0
  0
VERTEX
  5
FED
100
AcDbEntity
  8
ALPHA
100
AcDbVertex
100
AcDb2dVertex
 10
127.67767
 20
4.907265
 30
0.0
  0
VERTEX
  5
FEE
100
AcDbEntity
  8
ALPHA
100
AcDbVertex
100
AcDb2dVertex
 10
127.706116
 20
5.113068
 30
0.0
  0
VERTEX
  5
FEF
100
AcDbEntity
  8
ALPHA
100
AcDbVertex
100
AcDb2dVertex
 10
127.752365
 20
5.311409
 30
0.0
  0
VERTEX
  5
FF0
100
AcDbEntity
  8
ALPHA
100
AcDbVertex
100
AcDb2dVertex
 10
127.81547
 20
5.50129
 30
0.0
  0
VERTEX
  5
FF1
100
AcDbEntity
  8
ALPHA
100
AcDbVertex
100
AcDb2dVertex
 10
127.894482
 20
5.681715
 30
0.0
  0
VERTEX
  5
FF2
100
AcDbEntity
  8
ALPHA
100
AcDbVertex
100
AcDb2dVertex
 10
127.988451
 20
5.851685
 30
0.0
  0
VERTEX
  5
FF3
100
AcDbEntity
  8
ALPHA
100
AcDbVertex
100
AcDb2dVertex
 10
128.09643
 20
6.010203
 30
0.0
  0
VERTEX
  5
FF4
100
AcDbEntity
  8
ALPHA
100
AcDbVertex
100
AcDb2dVertex
 10
128.217469
 20
6.15627
 30
0.0
  0
VERTEX
  5
FF5
100
AcDbEntity
  8
ALPHA
100
AcDbVertex
100
AcDb2dVertex
 10
128.350619
 20
6.28889
 30
0.0
  0
VERTEX
  5
FF6
100
AcDbEntity
  8
ALPHA
100
AcDbVertex
100
AcDb2dVertex
 10
128.494933
 20
6.407064
 30
0.0
  0
VERTEX
  5
FF7
100
AcDbEntity
  8
ALPHA
100
AcDbVertex
100
AcDb2dVertex
 10
128.649461
 20
6.509795
 30
0.0
  0
VERTEX
  5
FF8
100
AcDbEntity
  8
ALPHA
100
AcDbVertex
100
AcDb2dVertex
 10
128.813255
 20
6.596084
 30
0.0
  0
VERTEX
  5
FF9
100
AcDbEntity
  8
ALPHA
100
AcDbVertex
100
AcDb2dVertex
 10
128.985365
 20
6.664935
 30
0.0
  0
VERTEX
  5
FFA
100
AcDbEntity
  8
ALPHA
100
AcDbVertex
100
AcDb2dVertex
 10
129.164843
 20
6.71535
 30
0.0
  0
VERTEX
  5
FFB
100
AcDbEntity
  8
ALPHA
100
AcDbVertex
100
AcDb2dVertex
 10
129.350741
 20
6.74633
 30
0.0
  0
VERTEX
  5
FFC
100
AcDbEntity
  8
ALPHA
100
AcDbVertex
100
AcDb2dVertex
 10
129.542109
 20
6.756879
 30
0.0
  0
VERTEX
  5
FFD
100
AcDbEntity
  8
ALPHA
100
AcDbVertex
100
AcDb2dVertex
 10
129.733444
 20
6.74633
 30
0.0
  0
VERTEX
  5
FFE
100
AcDbEntity
  8
ALPHA
100
AcDbVertex
100
AcDb2dVertex
 10
129.919246
 20
6.71535
 30
0.0
  0
VERTEX
  5
FFF
100
AcDbEntity
  8
ALPHA
100
AcDbVertex
100
AcDb2dVertex
 10
130.098577
 20
6.664935
 30
0.0
  0
VERTEX
  5
1000
100
AcDbEntity
  8
ALPHA
100
AcDbVertex
100
AcDb2dVertex
 10
130.2705
 20
6.596084
 30
0.0
  0
VERTEX
  5
1001
100
AcDbEntity
  8
ALPHA
100
AcDbVertex
100
AcDb2dVertex
 10
130.434077
 20
6.509795
 30
0.0
  0
VERTEX
  5
1002
100
AcDbEntity
  8
ALPHA
100
AcDbVertex
100
AcDb2dVertex
 10
130.588368
 20
6.407064
 30
0.0
  0
VERTEX
  5
1003
100
AcDbEntity
  8
ALPHA
100
AcDbVertex
100
AcDb2dVertex
 10
130.732436
 20
6.28889
 30
0.0
  0
VERTEX
  5
1004
100
AcDbEntity
  8
ALPHA
100
AcDbVertex
100
AcDb2dVertex
 10
130.865343
 20
6.15627
 30
0.0
  0
VERTEX
  5
1005
100
AcDbEntity
  8
ALPHA
100
AcDbVertex
100
AcDb2dVertex
 10
130.98615
 20
6.010202
 30
0.0
  0
VERTEX
  5
1006
100
AcDbEntity
  8
ALPHA
100
AcDbVertex
100
AcDb2dVertex
 10
131.093919
 20
5.851685
 30
0.0
  0
VERTEX
  5
1007
100
AcDbEntity
  8
ALPHA
100
AcDbVertex
100
AcDb2dVertex
 10
131.187712
 20
5.681715
 30
0.0
  0
VERTEX
  5
1008
100
AcDbEntity
  8
ALPHA
100
AcDbVertex
100
AcDb2dVertex
 10
131.26659
 20
5.50129
 30
0.0
  0
VERTEX
  5
1009
100
AcDbEntity
  8
ALPHA
100
AcDbVertex
100
AcDb2dVertex
 10
131.329616
 20
5.311408
 30
0.0
  0
VERTEX
  5
100A
100
AcDbEntity
  8
ALPHA
100
AcDbVertex
100
AcDb2dVertex
 10
131.375851
 20
5.113067
 30
0.0
  0
VERTEX
  5
100B
100
AcDbEntity
  8
ALPHA
100
AcDbVertex
100
AcDb2dVertex
 10
131.404357
 20
4.907265
 30
0.0
  0
VERTEX
  5
100C
100
AcDbEntity
  8
ALPHA
100
AcDbVertex
100
AcDb2dVertex
 10
131.414195
 20
4.694999
 30
0.0
  0
VERTEX
  5
100D
100
AcDbEntity
  8
ALPHA
100
AcDbVertex
100
AcDb2dVertex
 10
131.416947
 20
1.613696
 30
0.0
  0
VERTEX
  5
100E
100
AcDbEntity
  8
ALPHA
100
AcDbVertex
100
AcDb2dVertex
 10
133.292455
 20
0.465122
 30
0.0
  0
VERTEX
  5
100F
100
AcDbEntity
  8
ALPHA
100
AcDbVertex
100
AcDb2dVertex
 10
133.292455
 20
7.812813
 30
0.0
  0
VERTEX
  5
1010
100
AcDbEntity
  8
ALPHA
100
AcDbVertex
100
AcDb2dVertex
 10
131.417617
 20
8.313052
 30
0.0
  0
VERTEX
  5
1011
100
AcDbEntity
  8
ALPHA
100
AcDbVertex
100
AcDb2dVertex
 10
131.417617
 20
10.364949
 30
0.0
  0
SEQEND
  5
1012
100
AcDbEntity
  8
ALPHA
  0
LINE
  5
10DF
100
AcDbEntity
  8
AXE
100
AcDbLine
 10
129.541792
 20
16.838795
 30
0.0
 11
129.541792
 21
-1.806344
 31
0.0
  0
LINE
  5
110D
100
AcDbEntity
  8
AXE
100
AcDbLine
 10
75.541639
 20
16.838795
 30
0.0
 11
75.541639
 21
-1.806344
 31
0.0
  0
LINE
  5
113B
100
AcDbEntity
  8
AXE
100
AcDbLine
 10
21.541662
 20
16.838795
 30
0.0
 11
21.541662
 21
-1.806344
 31
0.0
  0
DIMENSION
  5
1175
100
AcDbEntity
  8
COTATION1
100
AcDbDimension
  2
*D7
 10
75.541639
 20
-4.934128
 30
0.0
 11
48.541651
 21
-2.684128
 31
0.0
 70
    32
  3
SC_STAND
100
AcDbAlignedDimension
 13
21.541662
 23
-1.806344
 33
0.0
 14
75.541639
 24
-1.806344
 34
0.0
100
AcDbRotatedDimension
  0
DIMENSION
  5
1182
100
AcDbEntity
  8
COTATION1
100
AcDbDimension
  2
*D8
 10
129.541792
 20
-4.934128
 30
0.0
 11
102.541715
 21
-2.684128
 31
0.0
 70
    32
  3
SC_STAND
100
AcDbAlignedDimension
 13
75.541639
 23
-1.868844
 33
0.0
 14
129.541792
 24
-1.868844
 34
0.0
100
AcDbRotatedDimension
  0
DIMENSION
  5
119A
100
AcDbEntity
  8
COTATION1
100
AcDbDimension
  2
*D9
 10
151.554914
 20
32.400094
 30
0.0
 11
75.554815
 21
34.650094
 31
0.0
 70
    32
  3
SC_STAND
100
AcDbAlignedDimension
 13
-0.445283
 23
26.100372
 33
0.0
 14
151.554914
 24
26.100372
 34
0.0
100
AcDbRotatedDimension
  0
ENDSEC
  0
SECTION
  2
OBJECTS
  0
DICTIONARY
  5
F8
100
AcDbDictionary
  3
ACAD_GROUP
350
F9
  3
ACAD_MLINESTYLE
350
106
  3
ACDBVARIABLEDICTIONARY
350
143
  0
DICTIONARY
  5
F9
102
{ACAD_REACTORS
330
F8
102
}
100
AcDbDictionary
  0
DICTIONARY
  5
106
102
{ACAD_REACTORS
330
F8
102
}
100
AcDbDictionary
  3
STANDARD
350
107
  0
DICTIONARY
  5
143
102
{ACAD_REACTORS
330
F8
102
}
100
AcDbDictionary
  3
DIMADEC
350
144
  0
MLINESTYLE
  5
107
102
{ACAD_REACTORS
330
106
102
}
100
AcDbMlineStyle
  2
STANDARD
 70
     0
  3

 62
   256
 51
90.0
 52
90.0
 71
     2
 49
0.5
 62
   256
  6
BYLAYER
 49
-0.5
 62
   256
  6
BYLAYER
  0
DICTIONARYVAR
  5
144
102
{ACAD_REACTORS
330
143
102
}
100
DictionaryVariables
280
     0
  1
0
  0
ENDSEC
  0
EOF
