  0
SECTION
  2
HEADER
  9
$ACADVER
  1
AC1014
  9
$ACADMAINTVER
 70
     0
  9
$DWGCODEPAGE
  3
ANSI_1252
  9
$INSBASE
 10
41.897755
 20
97.266482
 30
0.0
  9
$EXTMIN
 10
25.63415
 20
60.018333
 30
0.0
  9
$EXTMAX
 10
65.182502
 20
119.628739
 30
0.0
  9
$LIMMIN
 10
0.0
 20
0.0
  9
$LIMMAX
 10
210.0
 20
297.0
  9
$ORTHOMODE
 70
     1
  9
$REGENMODE
 70
     1
  9
$FILLMODE
 70
     1
  9
$QTEXTMODE
 70
     0
  9
$MIRRTEXT
 70
     1
  9
$DRAGMODE
 70
     2
  9
$LTSCALE
 40
7.0
  9
$OSMODE
 70
     0
  9
$ATTMODE
 70
     1
  9
$TEXTSIZE
 40
0.2
  9
$TRACEWID
 40
0.05
  9
$TEXTSTYLE
  7
STANDARD
  9
$CLAYER
  8
COTATION1
  9
$CELTYPE
  6
BYLAYER
  9
$CECOLOR
 62
   256
  9
$CELTSCALE
 40
1.0
  9
$DELOBJ
 70
     1
  9
$DISPSILH
 70
     0
  9
$DIMSCALE
 40
1.0
  9
$DIMASZ
 40
3.0
  9
$DIMEXO
 40
0.0625
  9
$DIMDLI
 40
0.38
  9
$DIMRND
 40
0.01
  9
$DIMDLE
 40
0.0
  9
$DIMEXE
 40
0.18
  9
$DIMTP
 40
0.0
  9
$DIMTM
 40
0.0
  9
$DIMTXT
 40
2.5
  9
$DIMCEN
 40
0.09
  9
$DIMTSZ
 40
0.0
  9
$DIMTOL
 70
     0
  9
$DIMLIM
 70
     0
  9
$DIMTIH
 70
     0
  9
$DIMTOH
 70
     0
  9
$DIMSE1
 70
     0
  9
$DIMSE2
 70
     0
  9
$DIMTAD
 70
     1
  9
$DIMZIN
 70
    12
  9
$DIMBLK
  1

  9
$DIMASO
 70
     1
  9
$DIMSHO
 70
     1
  9
$DIMPOST
  1

  9
$DIMAPOST
  1

  9
$DIMALT
 70
     0
  9
$DIMALTD
 70
     2
  9
$DIMALTF
 40
25.4
  9
$DIMLFAC
 40
1.0
  9
$DIMTOFL
 70
     1
  9
$DIMTVP
 40
0.0
  9
$DIMTIX
 70
     0
  9
$DIMSOXD
 70
     0
  9
$DIMSAH
 70
     0
  9
$DIMBLK1
  1

  9
$DIMBLK2
  1

  9
$DIMSTYLE
  2
SC_STAND
  9
$DIMCLRD
 70
     0
  9
$DIMCLRE
 70
     0
  9
$DIMCLRT
 70
     0
  9
$DIMTFAC
 40
1.0
  9
$DIMGAP
 40
1.0
  9
$DIMJUST
 70
     0
  9
$DIMSD1
 70
     0
  9
$DIMSD2
 70
     0
  9
$DIMTOLJ
 70
     1
  9
$DIMTZIN
 70
    12
  9
$DIMALTZ
 70
    12
  9
$DIMALTTZ
 70
    12
  9
$DIMFIT
 70
     5
  9
$DIMUPT
 70
     0
  9
$DIMUNIT
 70
     2
  9
$DIMDEC
 70
     4
  9
$DIMTDEC
 70
     4
  9
$DIMALTU
 70
     2
  9
$DIMALTTD
 70
     2
  9
$DIMTXSTY
  7
STANDARD
  9
$DIMAUNIT
 70
     0
  9
$LUNITS
 70
     2
  9
$LUPREC
 70
     4
  9
$SKETCHINC
 40
0.1
  9
$FILLETRAD
 40
0.0
  9
$AUNITS
 70
     0
  9
$AUPREC
 70
     0
  9
$MENU
  1
acad
  9
$ELEVATION
 40
0.0
  9
$PELEVATION
 40
0.0
  9
$THICKNESS
 40
0.0
  9
$LIMCHECK
 70
     0
  9
$BLIPMODE
 70
     1
  9
$CHAMFERA
 40
0.0
  9
$CHAMFERB
 40
0.0
  9
$CHAMFERC
 40
0.0
  9
$CHAMFERD
 40
0.0
  9
$SKPOLY
 70
     0
  9
$TDCREATE
 40
2451086.412770717
  9
$TDUPDATE
 40
2451387.897130810
  9
$TDINDWG
 40
0.0000395949
  9
$TDUSRTIMER
 40
0.0000395949
  9
$USRTIMER
 70
     1
  9
$ANGBASE
 50
0.0
  9
$ANGDIR
 70
     0
  9
$PDMODE
 70
     0
  9
$PDSIZE
 40
0.0
  9
$PLINEWID
 40
0.0
  9
$COORDS
 70
     1
  9
$SPLFRAME
 70
     0
  9
$SPLINETYPE
 70
     6
  9
$SPLINESEGS
 70
     8
  9
$ATTDIA
 70
     0
  9
$ATTREQ
 70
     1
  9
$HANDLING
 70
     1
  9
$HANDSEED
  5
112E
  9
$SURFTAB1
 70
     6
  9
$SURFTAB2
 70
     6
  9
$SURFTYPE
 70
     6
  9
$SURFU
 70
     6
  9
$SURFV
 70
     6
  9
$UCSNAME
  2

  9
$UCSORG
 10
0.0
 20
0.0
 30
0.0
  9
$UCSXDIR
 10
1.0
 20
0.0
 30
0.0
  9
$UCSYDIR
 10
0.0
 20
1.0
 30
0.0
  9
$PUCSNAME
  2

  9
$PUCSORG
 10
0.0
 20
0.0
 30
0.0
  9
$PUCSXDIR
 10
1.0
 20
0.0
 30
0.0
  9
$PUCSYDIR
 10
0.0
 20
1.0
 30
0.0
  9
$USERI1
 70
     0
  9
$USERI2
 70
     0
  9
$USERI3
 70
     0
  9
$USERI4
 70
     0
  9
$USERI5
 70
     0
  9
$USERR1
 40
0.0
  9
$USERR2
 40
0.0
  9
$USERR3
 40
0.0
  9
$USERR4
 40
0.0
  9
$USERR5
 40
0.0
  9
$WORLDVIEW
 70
     1
  9
$SHADEDGE
 70
     3
  9
$SHADEDIF
 70
    70
  9
$TILEMODE
 70
     1
  9
$MAXACTVP
 70
    16
  9
$PINSBASE
 10
0.0
 20
0.0
 30
0.0
  9
$PLIMCHECK
 70
     0
  9
$PEXTMIN
 10
1.000000E+20
 20
1.000000E+20
 30
1.000000E+20
  9
$PEXTMAX
 10
-1.000000E+20
 20
-1.000000E+20
 30
-1.000000E+20
  9
$PLIMMIN
 10
0.0
 20
0.0
  9
$PLIMMAX
 10
12.0
 20
9.0
  9
$UNITMODE
 70
     0
  9
$VISRETAIN
 70
     0
  9
$PLINEGEN
 70
     0
  9
$PSLTSCALE
 70
     1
  9
$TREEDEPTH
 70
  3020
  9
$PICKSTYLE
 70
     1
  9
$CMLSTYLE
  2
STANDARD
  9
$CMLJUST
 70
     0
  9
$CMLSCALE
 40
1.0
  9
$PROXYGRAPHICS
 70
     1
  9
$MEASUREMENT
 70
     0
  0
ENDSEC
  0
SECTION
  2
CLASSES
  0
CLASS
  1
DICTIONARYVAR
  2
AcDbDictionaryVar
  3
"AutoCAD"
 90
        0
280
     0
281
     0
  0
CLASS
  1
LWPOLYLINE
  2
AcDbPolyline
  3
"AutoCAD"
 90
        0
280
     0
281
     1
  0
ENDSEC
  0
SECTION
  2
TABLES
  0
TABLE
  2
VPORT
  5
1104
100
AcDbSymbolTable
 70
     1
  0
VPORT
  5
1129
100
AcDbSymbolTableRecord
100
AcDbViewportTableRecord
  2
*ACTIVE
 70
     0
 10
0.0
 20
0.0
 11
1.0
 21
1.0
 12
225.654671
 22
135.037441
 13
0.0
 23
0.0
 14
1.0
 24
1.0
 15
0.0
 25
0.0
 16
0.0
 26
0.0
 36
1.0
 17
0.0
 27
0.0
 37
0.0
 40
270.074882
 41
1.671053
 42
50.0
 43
0.0
 44
0.0
 50
0.0
 51
0.0
 71
     0
 72
   100
 73
     1
 74
     1
 75
     0
 76
     0
 77
     0
 78
     0
  0
ENDTAB
  0
TABLE
  2
LTYPE
  5
1101
100
AcDbSymbolTable
 70
     1
  0
LTYPE
  5
110D
100
AcDbSymbolTableRecord
100
AcDbLinetypeTableRecord
  2
BYBLOCK
 70
     0
  3

 72
    65
 73
     0
 40
0.0
  0
LTYPE
  5
110E
100
AcDbSymbolTableRecord
100
AcDbLinetypeTableRecord
  2
BYLAYER
 70
     0
  3

 72
    65
 73
     0
 40
0.0
  0
LTYPE
  5
110F
100
AcDbSymbolTableRecord
100
AcDbLinetypeTableRecord
  2
CONTINUOUS
 70
     0
  3
Solid line
 72
    65
 73
     0
 40
0.0
  0
ENDTAB
  0
TABLE
  2
LAYER
  5
10FE
100
AcDbSymbolTable
 70
     4
  0
LAYER
  5
110A
100
AcDbSymbolTableRecord
100
AcDbLayerTableRecord
  2
0
 70
     0
 62
     7
  6
CONTINUOUS
  0
LAYER
  5
111D
100
AcDbSymbolTableRecord
100
AcDbLayerTableRecord
  2
COTATION1
 70
     0
 62
     2
  6
CONTINUOUS
  0
LAYER
  5
111E
100
AcDbSymbolTableRecord
100
AcDbLayerTableRecord
  2
ALPHA
 70
     0
 62
   255
  6
CONTINUOUS
  0
LAYER
  5
111F
100
AcDbSymbolTableRecord
100
AcDbLayerTableRecord
  2
DEFPOINTS
 70
     0
 62
     7
  6
CONTINUOUS
  0
ENDTAB
  0
TABLE
  2
STYLE
  5
10FF
100
AcDbSymbolTable
 70
     2
  0
STYLE
  5
110B
100
AcDbSymbolTableRecord
100
AcDbTextStyleTableRecord
  2
STANDARD
 70
     0
 40
0.0
 41
1.0
 50
0.0
 71
     0
 42
0.2
  3
txt
  4

  0
STYLE
  5
111A
100
AcDbSymbolTableRecord
100
AcDbTextStyleTableRecord
  2
ROMANS
 70
     0
 40
0.0
 41
1.0
 50
0.0
 71
     0
 42
2.9
  3
romans.shx
  4

  0
ENDTAB
  0
TABLE
  2
VIEW
  5
1102
100
AcDbSymbolTable
 70
     0
  0
ENDTAB
  0
TABLE
  2
UCS
  5
1103
100
AcDbSymbolTable
 70
     0
  0
ENDTAB
  0
TABLE
  2
APPID
  5
1105
100
AcDbSymbolTable
 70
     1
  0
APPID
  5
110C
100
AcDbSymbolTableRecord
100
AcDbRegAppTableRecord
  2
ACAD
 70
     0
  0
ENDTAB
  0
TABLE
  2
DIMSTYLE
  5
1106
100
AcDbSymbolTable
 70
     1
  0
DIMSTYLE
105
111C
102
{ACAD_REACTORS
330
1F
330
2D
102
}
100
AcDbSymbolTableRecord
100
AcDbDimStyleTableRecord
  2
SC_STAND
 70
     0
  3

  4

  5

  6

  7

 40
1.0
 41
3.0
 42
0.0625
 43
0.38
 44
0.18
 45
0.01
 46
0.0
 47
0.0
 48
0.0
140
2.5
141
0.09
142
0.0
143
25.4
144
1.0
145
0.0
146
1.0
147
1.0
 71
     0
 72
     0
 73
     0
 74
     0
 75
     0
 76
     0
 77
     1
 78
    12
170
     0
171
     2
172
     1
173
     0
174
     0
175
     0
176
     0
177
     0
178
     0
270
     2
271
     4
272
     4
273
     2
274
     2
340
110B
275
     0
280
     0
281
     0
282
     0
283
     1
284
    12
285
    12
286
    12
287
     5
288
     0
  0
ENDTAB
  0
TABLE
  2
BLOCK_RECORD
  5
10FD
100
AcDbSymbolTable
 70
     2
  0
BLOCK_RECORD
  5
1113
100
AcDbSymbolTableRecord
100
AcDbBlockTableRecord
  2
*MODEL_SPACE
  0
BLOCK_RECORD
  5
1110
100
AcDbSymbolTableRecord
100
AcDbBlockTableRecord
  2
*PAPER_SPACE
  0
BLOCK_RECORD
  5
1118
100
AcDbSymbolTableRecord
100
AcDbBlockTableRecord
  2
*D0
  0
BLOCK_RECORD
  5
1119
100
AcDbSymbolTableRecord
100
AcDbBlockTableRecord
  2
*D1
  0
ENDTAB
  0
ENDSEC
  0
SECTION
  2
BLOCKS
  0
BLOCK
  5
1122
100
AcDbEntity
  8
0
100
AcDbBlockBegin
  2
*MODEL_SPACE
 70
     0
 10
0.0
 20
0.0
 30
0.0
  3
*MODEL_SPACE
  1

  0
ENDBLK
  5
1123
100
AcDbEntity
  8
0
100
AcDbBlockEnd
  0
BLOCK
  5
1120
100
AcDbEntity
 67
     1
  8
0
100
AcDbBlockBegin
  2
*PAPER_SPACE
 70
     0
 10
0.0
 20
0.0
 30
0.0
  3
*PAPER_SPACE
  1

  0
ENDBLK
  5
1121
100
AcDbEntity
 67
     1
  8
0
100
AcDbBlockEnd
  0
BLOCK
  5
38
100
AcDbEntity
  8
0
100
AcDbBlockBegin
  2
*D0
 70
     1
 10
0.0
 20
0.0
 30
0.0
  3
*D0
  1
AVE_GLOBAL
  0
LINE
  5
2F
100
AcDbEntity
  8
0
  6
BYBLOCK
 62
     0
100
AcDbLine
 10
25.994811
 20
79.762685
 30
0.0
 11
25.994811
 21
60.338333
 31
0.0
  0
LINE
  5
30
100
AcDbEntity
  8
0
  6
BYBLOCK
 62
     0
100
AcDbLine
 10
55.794811
 20
79.762685
 30
0.0
 11
55.794811
 21
60.338333
 31
0.0
  0
LINE
  5
31
100
AcDbEntity
  8
0
  6
BYBLOCK
 62
     0
100
AcDbLine
 10
28.994811
 20
60.518333
 30
0.0
 11
52.794811
 21
60.518333
 31
0.0
  0
SOLID
  5
32
100
AcDbEntity
  8
0
  6
BYBLOCK
 62
     0
100
AcDbTrace
 10
28.994811
 20
61.018333
 30
0.0
 11
28.994811
 21
60.018333
 31
0.0
 12
25.994811
 22
60.518333
 32
0.0
 13
25.994811
 23
60.518333
 33
0.0
  0
SOLID
  5
33
100
AcDbEntity
  8
0
  6
BYBLOCK
 62
     0
100
AcDbTrace
 10
52.794811
 20
61.018333
 30
0.0
 11
52.794811
 21
60.018333
 31
0.0
 12
55.794811
 22
60.518333
 32
0.0
 13
55.794811
 23
60.518333
 33
0.0
  0
TEXT
  5
34
100
AcDbEntity
  8
0
  6
BYBLOCK
 62
     0
100
AcDbText
 10
36.728144
 20
61.518333
 30
0.0
 40
2.5
  1
29.8
  7
ROMANS
100
AcDbText
  0
POINT
  5
35
100
AcDbEntity
  8
DEFPOINTS
  6
BYBLOCK
 62
     0
100
AcDbPoint
 10
25.994811
 20
79.825185
 30
0.0
  0
POINT
  5
36
100
AcDbEntity
  8
DEFPOINTS
  6
BYBLOCK
 62
     0
100
AcDbPoint
 10
55.794811
 20
79.825185
 30
0.0
  0
POINT
  5
37
100
AcDbEntity
  8
DEFPOINTS
  6
BYBLOCK
 62
     0
100
AcDbPoint
 10
55.794811
 20
60.518333
 30
0.0
  0
ENDBLK
  5
39
100
AcDbEntity
  8
0
100
AcDbBlockEnd
  0
BLOCK
  5
2B
100
AcDbEntity
  8
0
100
AcDbBlockBegin
  2
*D1
 70
     1
 10
0.0
 20
0.0
 30
0.0
  3
*D1
  1
AVE_GLOBAL
  0
LINE
  5
21
100
AcDbEntity
  8
0
  6
BYBLOCK
 62
     0
100
AcDbLine
 10
43.757311
 20
73.108587
 30
0.0
 11
64.862502
 21
73.108587
 31
0.0
  0
LINE
  5
22
100
AcDbEntity
  8
0
  6
BYBLOCK
 62
     0
100
AcDbLine
 10
53.457311
 20
119.525185
 30
0.0
 11
64.862502
 21
119.525185
 31
0.0
  0
LINE
  5
23
100
AcDbEntity
  8
0
  6
BYBLOCK
 62
     0
100
AcDbLine
 10
64.682502
 20
76.108587
 30
0.0
 11
64.682502
 21
116.525185
 31
0.0
  0
SOLID
  5
24
100
AcDbEntity
  8
0
  6
BYBLOCK
 62
     0
100
AcDbTrace
 10
64.182502
 20
76.108587
 30
0.0
 11
65.182502
 21
76.108587
 31
0.0
 12
64.682502
 22
73.108587
 32
0.0
 13
64.682502
 23
73.108587
 33
0.0
  0
SOLID
  5
25
100
AcDbEntity
  8
0
  6
BYBLOCK
 62
     0
100
AcDbTrace
 10
64.182502
 20
116.525185
 30
0.0
 11
65.182502
 21
116.525185
 31
0.0
 12
64.682502
 22
119.525185
 32
0.0
 13
64.682502
 23
119.525185
 33
0.0
  0
TEXT
  5
26
100
AcDbEntity
  8
0
  6
BYBLOCK
 62
     0
100
AcDbText
 10
63.682502
 20
90.959743
 30
0.0
 40
2.5
  1
46.42
 50
90.0
  7
ROMANS
100
AcDbText
  0
POINT
  5
27
100
AcDbEntity
  8
DEFPOINTS
  6
BYBLOCK
 62
     0
100
AcDbPoint
 10
43.694811
 20
73.108587
 30
0.0
  0
POINT
  5
29
100
AcDbEntity
  8
DEFPOINTS
  6
BYBLOCK
 62
     0
100
AcDbPoint
 10
53.394811
 20
119.525185
 30
0.0
  0
POINT
  5
2A
100
AcDbEntity
  8
DEFPOINTS
  6
BYBLOCK
 62
     0
100
AcDbPoint
 10
64.682502
 20
119.525185
 30
0.0
  0
ENDBLK
  5
2C
100
AcDbEntity
  8
0
100
AcDbBlockEnd
  0
ENDSEC
  0
SECTION
  2
ENTITIES
  0
DIMENSION
  5
1F
100
AcDbEntity
  8
COTATION1
100
AcDbDimension
  2
*D1
 10
64.682502
 20
119.525185
 30
0.0
 11
62.432502
 21
96.316886
 31
0.0
  3
SC_STAND
100
AcDbAlignedDimension
 13
43.694811
 23
73.108587
 33
0.0
 14
53.394811
 24
119.525185
 34
0.0
 50
90.0
100
AcDbRotatedDimension
  0
DIMENSION
  5
2D
100
AcDbEntity
  8
COTATION1
100
AcDbDimension
  2
*D0
 10
55.794811
 20
60.518333
 30
0.0
 11
40.894811
 21
62.768333
 31
0.0
  3
SC_STAND
100
AcDbAlignedDimension
 13
25.994811
 23
79.825185
 33
0.0
 14
55.794811
 24
79.825185
 34
0.0
100
AcDbRotatedDimension
  0
LINE
  5
3A
100
AcDbEntity
  8
ALPHA
100
AcDbLine
 10
37.748049
 20
108.525185
 30
0.0
 11
37.748049
 21
106.025185
 31
0.0
  0
LINE
  5
3C
100
AcDbEntity
  8
ALPHA
100
AcDbLine
 10
35.944811
 20
109.559141
 30
0.0
 11
35.844811
 21
109.559141
 31
0.0
  0
LINE
  5
3D
100
AcDbEntity
  8
ALPHA
100
AcDbLine
 10
36.150618
 20
80.400209
 30
0.0
 11
36.244811
 21
80.329218
 31
0.0
  0
LINE
  5
3E
100
AcDbEntity
  8
ALPHA
100
AcDbLine
 10
35.894811
 20
80.593005
 30
0.0
 11
36.150618
 21
80.400209
 31
0.0
  0
LINE
  5
3F
100
AcDbEntity
  8
ALPHA
100
AcDbLine
 10
37.748049
 20
92.525185
 30
0.0
 11
37.748049
 21
95.025185
 31
0.0
  0
LINE
  5
40
100
AcDbEntity
  8
ALPHA
100
AcDbLine
 10
34.894811
 20
113.325185
 30
0.0
 11
34.894811
 21
112.125185
 31
0.0
  0
LINE
  5
41
100
AcDbEntity
  8
ALPHA
100
AcDbLine
 10
36.894811
 20
113.325185
 30
0.0
 11
36.894811
 21
113.125185
 31
0.0
  0
LINE
  5
42
100
AcDbEntity
  8
ALPHA
100
AcDbLine
 10
34.894811
 20
79.825185
 30
0.0
 11
34.894811
 21
79.525185
 31
0.0
  0
LINE
  5
43
100
AcDbEntity
  8
ALPHA
100
AcDbLine
 10
36.894811
 20
79.839328
 30
0.0
 11
36.894811
 21
79.725185
 31
0.0
  0
LINE
  5
44
100
AcDbEntity
  8
ALPHA
100
AcDbLine
 10
36.894811
 20
79.725185
 30
0.0
 11
36.894811
 21
79.525185
 31
0.0
  0
LINE
  5
45
100
AcDbEntity
  8
ALPHA
100
AcDbLine
 10
35.894811
 20
80.725185
 30
0.0
 11
35.894811
 21
80.302536
 31
0.0
  0
LINE
  5
46
100
AcDbEntity
  8
ALPHA
100
AcDbLine
 10
36.190804
 20
80.131644
 30
0.0
 11
36.894811
 21
79.725185
 31
0.0
  0
LINE
  5
47
100
AcDbEntity
  8
ALPHA
100
AcDbLine
 10
35.894811
 20
80.302536
 30
0.0
 11
36.190804
 21
80.131644
 31
0.0
  0
LINE
  5
48
100
AcDbEntity
  8
ALPHA
100
AcDbLine
 10
34.894811
 20
79.525185
 30
0.0
 11
36.894811
 21
79.525185
 31
0.0
  0
LINE
  5
49
100
AcDbEntity
  8
ALPHA
100
AcDbLine
 10
30.894811
 20
97.825185
 30
0.0
 11
30.894811
 21
97.975185
 31
0.0
  0
LINE
  5
4A
100
AcDbEntity
  8
ALPHA
100
AcDbLine
 10
36.894811
 20
113.125438
 30
0.0
 11
36.894811
 21
113.000463
 31
0.0
  0
LINE
  5
4B
100
AcDbEntity
  8
ALPHA
100
AcDbLine
 10
35.944811
 20
111.325185
 30
0.0
 11
35.844811
 21
111.325185
 31
0.0
  0
LINE
  5
4C
100
AcDbEntity
  8
ALPHA
100
AcDbLine
 10
26.144811
 20
112.125185
 30
0.0
 11
26.144811
 21
111.825185
 31
0.0
  0
LINE
  5
4D
100
AcDbEntity
  8
ALPHA
100
AcDbLine
 10
35.794811
 20
98.025185
 30
0.0
 11
36.194811
 21
98.025185
 31
0.0
  0
LINE
  5
4E
100
AcDbEntity
  8
ALPHA
100
AcDbLine
 10
35.794811
 20
95.025185
 30
0.0
 11
36.194811
 21
95.025185
 31
0.0
  0
LINE
  5
4F
100
AcDbEntity
  8
ALPHA
100
AcDbLine
 10
34.644811
 20
95.025185
 30
0.0
 11
34.794811
 21
95.025185
 31
0.0
  0
LINE
  5
50
100
AcDbEntity
  8
ALPHA
100
AcDbLine
 10
26.994811
 20
95.025185
 30
0.0
 11
27.144811
 21
95.025185
 31
0.0
  0
LINE
  5
51
100
AcDbEntity
  8
ALPHA
100
AcDbLine
 10
40.894811
 20
92.525185
 30
0.0
 11
40.894811
 21
95.025185
 31
0.0
  0
LINE
  5
52
100
AcDbEntity
  8
ALPHA
100
AcDbLine
 10
40.894811
 20
91.391211
 30
0.0
 11
40.894811
 21
92.525185
 31
0.0
  0
LINE
  5
53
100
AcDbEntity
  8
ALPHA
100
AcDbLine
 10
40.894811
 20
108.525185
 30
0.0
 11
40.894811
 21
109.65916
 31
0.0
  0
LINE
  5
54
100
AcDbEntity
  8
ALPHA
100
AcDbLine
 10
40.894811
 20
106.025185
 30
0.0
 11
40.894811
 21
108.525185
 31
0.0
  0
LINE
  5
55
100
AcDbEntity
  8
ALPHA
100
AcDbLine
 10
40.894811
 20
98.525185
 30
0.0
 11
40.894811
 21
102.525185
 31
0.0
  0
LINE
  5
56
100
AcDbEntity
  8
ALPHA
100
AcDbLine
 10
34.894811
 20
113.325185
 30
0.0
 11
36.894811
 21
113.325185
 31
0.0
  0
LINE
  5
57
100
AcDbEntity
  8
ALPHA
100
AcDbLine
 10
35.944811
 20
112.125185
 30
0.0
 11
35.894811
 21
112.125185
 31
0.0
  0
LINE
  5
58
100
AcDbEntity
  8
ALPHA
100
AcDbLine
 10
35.894811
 20
112.547835
 30
0.0
 11
35.894811
 21
112.125185
 31
0.0
  0
LINE
  5
59
100
AcDbEntity
  8
ALPHA
100
AcDbLine
 10
36.190804
 20
112.718727
 30
0.0
 11
35.894811
 21
112.547835
 31
0.0
  0
LINE
  5
5A
100
AcDbEntity
  8
ALPHA
100
AcDbLine
 10
36.894811
 20
113.125185
 30
0.0
 11
36.190804
 21
112.718727
 31
0.0
  0
LINE
  5
5B
100
AcDbEntity
  8
ALPHA
100
AcDbLine
 10
40.794811
 20
80.825185
 30
0.0
 11
40.894811
 21
80.925185
 31
0.0
  0
LINE
  5
5C
100
AcDbEntity
  8
ALPHA
100
AcDbLine
 10
40.694811
 20
80.725185
 30
0.0
 11
40.794811
 21
80.825185
 31
0.0
  0
LINE
  5
5D
100
AcDbEntity
  8
ALPHA
100
AcDbLine
 10
35.894811
 20
97.775185
 30
0.0
 11
36.194811
 21
97.775185
 31
0.0
  0
LINE
  5
5E
100
AcDbEntity
  8
ALPHA
100
AcDbLine
 10
36.194811
 20
95.275185
 30
0.0
 11
35.894811
 21
95.275185
 31
0.0
  0
LINE
  5
5F
100
AcDbEntity
  8
ALPHA
100
AcDbLine
 10
35.794811
 20
99.525185
 30
0.0
 11
36.194811
 21
99.525185
 31
0.0
  0
LINE
  5
60
100
AcDbEntity
  8
ALPHA
100
AcDbLine
 10
36.194811
 20
93.525185
 30
0.0
 11
35.794811
 21
93.525185
 31
0.0
  0
LINE
  5
61
100
AcDbEntity
  8
ALPHA
100
AcDbLine
 10
37.694811
 20
88.525186
 30
0.0
 11
37.394811
 21
88.525186
 31
0.0
  0
LINE
  5
62
100
AcDbEntity
  8
ALPHA
100
AcDbLine
 10
38.394811
 20
86.908164
 30
0.0
 11
37.694811
 21
88.525186
 31
0.0
  0
LINE
  5
63
100
AcDbEntity
  8
ALPHA
100
AcDbLine
 10
39.094811
 20
88.525186
 30
0.0
 11
38.394811
 21
86.908164
 31
0.0
  0
LINE
  5
64
100
AcDbEntity
  8
ALPHA
100
AcDbLine
 10
39.394811
 20
88.525186
 30
0.0
 11
39.094811
 21
88.525186
 31
0.0
  0
LINE
  5
65
100
AcDbEntity
  8
ALPHA
100
AcDbLine
 10
38.544811
 20
86.482632
 30
0.0
 11
39.394811
 21
88.525186
 31
0.0
  0
LINE
  5
66
100
AcDbEntity
  8
ALPHA
100
AcDbLine
 10
39.394811
 20
84.525185
 30
0.0
 11
38.544811
 21
86.482632
 31
0.0
  0
LINE
  5
67
100
AcDbEntity
  8
ALPHA
100
AcDbLine
 10
39.094811
 20
84.525185
 30
0.0
 11
39.394811
 21
84.525185
 31
0.0
  0
LINE
  5
68
100
AcDbEntity
  8
ALPHA
100
AcDbLine
 10
38.394811
 20
86.142207
 30
0.0
 11
39.094811
 21
84.525185
 31
0.0
  0
LINE
  5
69
100
AcDbEntity
  8
ALPHA
100
AcDbLine
 10
37.694811
 20
84.525185
 30
0.0
 11
38.394811
 21
86.142207
 31
0.0
  0
LINE
  5
6A
100
AcDbEntity
  8
ALPHA
100
AcDbLine
 10
37.394811
 20
84.525185
 30
0.0
 11
37.694811
 21
84.525185
 31
0.0
  0
LINE
  5
6B
100
AcDbEntity
  8
ALPHA
100
AcDbLine
 10
38.244811
 20
86.482632
 30
0.0
 11
37.394811
 21
84.525185
 31
0.0
  0
LINE
  5
6C
100
AcDbEntity
  8
ALPHA
100
AcDbLine
 10
37.394811
 20
88.525186
 30
0.0
 11
38.244811
 21
86.482632
 31
0.0
  0
LINE
  5
6D
100
AcDbEntity
  8
ALPHA
100
AcDbLine
 10
36.994811
 20
88.099653
 30
0.0
 11
36.994811
 21
88.525186
 31
0.0
  0
LINE
  5
6E
100
AcDbEntity
  8
ALPHA
100
AcDbLine
 10
35.794811
 20
86.275945
 30
0.0
 11
36.994811
 21
88.099653
 31
0.0
  0
LINE
  5
6F
100
AcDbEntity
  8
ALPHA
100
AcDbLine
 10
35.994811
 20
84.950717
 30
0.0
 11
35.794811
 21
85.018802
 31
0.0
  0
LINE
  5
70
100
AcDbEntity
  8
ALPHA
100
AcDbLine
 10
36.194811
 20
84.950717
 30
0.0
 11
35.994811
 21
84.950717
 31
0.0
  0
LINE
  5
71
100
AcDbEntity
  8
ALPHA
100
AcDbLine
 10
36.444811
 20
85.035824
 30
0.0
 11
36.194811
 21
84.950717
 31
0.0
  0
LINE
  5
72
100
AcDbEntity
  8
ALPHA
100
AcDbLine
 10
36.59481
 20
85.206037
 30
0.0
 11
36.444811
 21
85.035824
 31
0.0
  0
LINE
  5
73
100
AcDbEntity
  8
ALPHA
100
AcDbLine
 10
36.694811
 20
85.461356
 30
0.0
 11
36.59481
 21
85.206037
 31
0.0
  0
LINE
  5
74
100
AcDbEntity
  8
ALPHA
100
AcDbLine
 10
36.944811
 20
85.461356
 30
0.0
 11
36.694811
 21
85.461356
 31
0.0
  0
LINE
  5
75
100
AcDbEntity
  8
ALPHA
100
AcDbLine
 10
36.894811
 20
85.12093
 30
0.0
 11
36.944811
 21
85.461356
 31
0.0
  0
LINE
  5
76
100
AcDbEntity
  8
ALPHA
100
AcDbLine
 10
36.694811
 20
84.780505
 30
0.0
 11
36.894811
 21
85.12093
 31
0.0
  0
LINE
  5
77
100
AcDbEntity
  8
ALPHA
100
AcDbLine
 10
36.494811
 20
84.610292
 30
0.0
 11
36.694811
 21
84.780505
 31
0.0
  0
LINE
  5
78
100
AcDbEntity
  8
ALPHA
100
AcDbLine
 10
36.144811
 20
84.525185
 30
0.0
 11
36.494811
 21
84.610292
 31
0.0
  0
LINE
  5
79
100
AcDbEntity
  8
ALPHA
100
AcDbLine
 10
40.894811
 20
112.125185
 30
0.0
 11
35.944811
 21
112.125185
 31
0.0
  0
LINE
  5
7A
100
AcDbEntity
  8
ALPHA
100
AcDbLine
 10
35.944811
 20
84.525185
 30
0.0
 11
36.144811
 21
84.525185
 31
0.0
  0
LINE
  5
7B
100
AcDbEntity
  8
ALPHA
100
AcDbLine
 10
35.794811
 20
84.567739
 30
0.0
 11
35.944811
 21
84.525185
 31
0.0
  0
LINE
  5
7C
100
AcDbEntity
  8
ALPHA
100
AcDbLine
 10
34.744811
 20
112.125185
 30
0.0
 11
27.144811
 21
112.125185
 31
0.0
  0
LINE
  5
7D
100
AcDbEntity
  8
ALPHA
100
AcDbLine
 10
34.894811
 20
112.125185
 30
0.0
 11
34.744811
 21
112.125185
 31
0.0
  0
LINE
  5
7E
100
AcDbEntity
  8
ALPHA
100
AcDbLine
 10
26.144811
 20
112.125185
 30
0.0
 11
27.144811
 21
112.125185
 31
0.0
  0
LINE
  5
7F
100
AcDbEntity
  8
ALPHA
100
AcDbLine
 10
40.894811
 20
106.025185
 30
0.0
 11
40.894811
 21
102.525185
 31
0.0
  0
LINE
  5
80
100
AcDbEntity
  8
ALPHA
100
AcDbLine
 10
36.59481
 20
88.099653
 30
0.0
 11
35.794811
 21
86.901356
 31
0.0
  0
LINE
  5
81
100
AcDbEntity
  8
ALPHA
100
AcDbLine
 10
40.894811
 20
110.525185
 30
0.0
 11
40.894811
 21
112.125185
 31
0.0
  0
LINE
  5
82
100
AcDbEntity
  8
ALPHA
100
AcDbLine
 10
35.944811
 20
112.125185
 30
0.0
 11
35.944811
 21
108.525185
 31
0.0
  0
LINE
  5
83
100
AcDbEntity
  8
ALPHA
100
AcDbLine
 10
35.944811
 20
108.525185
 30
0.0
 11
35.794811
 21
108.525185
 31
0.0
  0
LINE
  5
84
100
AcDbEntity
  8
ALPHA
100
AcDbLine
 10
34.744811
 20
112.125185
 30
0.0
 11
34.744811
 21
111.825185
 31
0.0
  0
LINE
  5
85
100
AcDbEntity
  8
ALPHA
100
AcDbLine
 10
27.144811
 20
112.125185
 30
0.0
 11
27.144811
 21
111.825185
 31
0.0
  0
LINE
  5
86
100
AcDbEntity
  8
ALPHA
100
AcDbLine
 10
40.694811
 20
80.725185
 30
0.0
 11
35.794811
 21
80.725185
 31
0.0
  0
LINE
  5
87
100
AcDbEntity
  8
ALPHA
100
AcDbLine
 10
40.894811
 20
80.925185
 30
0.0
 11
40.894811
 21
90.525185
 31
0.0
  0
LINE
  5
88
100
AcDbEntity
  8
ALPHA
100
AcDbLine
 10
35.794811
 20
88.099653
 30
0.0
 11
36.59481
 21
88.099653
 31
0.0
  0
LINE
  5
89
100
AcDbEntity
  8
ALPHA
100
AcDbLine
 10
36.994811
 20
88.525186
 30
0.0
 11
35.794811
 21
88.525186
 31
0.0
  0
LINE
  5
8A
100
AcDbEntity
  8
ALPHA
100
AcDbLine
 10
40.894811
 20
98.525185
 30
0.0
 11
40.894811
 21
95.025185
 31
0.0
  0
LINE
  5
8B
100
AcDbEntity
  8
ALPHA
100
AcDbLine
 10
37.994811
 20
91.391211
 30
0.0
 11
37.994811
 21
92.525185
 31
0.0
  0
LINE
  5
8C
100
AcDbEntity
  8
ALPHA
100
AcDbLine
 10
37.994811
 20
108.525185
 30
0.0
 11
37.994811
 21
109.65916
 31
0.0
  0
LINE
  5
8D
100
AcDbEntity
  8
ALPHA
100
AcDbLine
 10
40.894811
 20
106.025185
 30
0.0
 11
37.748049
 21
106.025185
 31
0.0
  0
LINE
  5
8E
100
AcDbEntity
  8
ALPHA
100
AcDbLine
 10
37.748049
 20
95.025185
 30
0.0
 11
40.894811
 21
95.025185
 31
0.0
  0
LINE
  5
8F
100
AcDbEntity
  8
ALPHA
100
AcDbLine
 10
40.894811
 20
91.391211
 30
0.0
 11
40.894811
 21
90.525185
 31
0.0
  0
LINE
  5
90
100
AcDbEntity
  8
ALPHA
100
AcDbLine
 10
40.894811
 20
90.525185
 30
0.0
 11
37.994811
 21
90.525185
 31
0.0
  0
LINE
  5
91
100
AcDbEntity
  8
ALPHA
100
AcDbLine
 10
37.994811
 20
91.391211
 30
0.0
 11
37.994811
 21
90.525185
 31
0.0
  0
LINE
  5
92
100
AcDbEntity
  8
ALPHA
100
AcDbLine
 10
37.994811
 20
110.525185
 30
0.0
 11
37.994811
 21
109.65916
 31
0.0
  0
LINE
  5
93
100
AcDbEntity
  8
ALPHA
100
AcDbLine
 10
40.894811
 20
110.525185
 30
0.0
 11
37.994811
 21
110.525185
 31
0.0
  0
LINE
  5
94
100
AcDbEntity
  8
ALPHA
100
AcDbLine
 10
40.894811
 20
110.525185
 30
0.0
 11
40.894811
 21
109.65916
 31
0.0
  0
LINE
  5
95
100
AcDbEntity
  8
ALPHA
100
AcDbLine
 10
40.894811
 20
108.525185
 30
0.0
 11
37.994811
 21
108.525185
 31
0.0
  0
LINE
  5
96
100
AcDbEntity
  8
ALPHA
100
AcDbLine
 10
40.894811
 20
109.65916
 30
0.0
 11
37.994811
 21
109.65916
 31
0.0
  0
LINE
  5
97
100
AcDbEntity
  8
ALPHA
100
AcDbLine
 10
40.894811
 20
91.391211
 30
0.0
 11
37.994811
 21
91.391211
 31
0.0
  0
LINE
  5
98
100
AcDbEntity
  8
ALPHA
100
AcDbLine
 10
40.894811
 20
92.525185
 30
0.0
 11
37.994811
 21
92.525185
 31
0.0
  0
LINE
  5
99
100
AcDbEntity
  8
ALPHA
100
AcDbLine
 10
38.594811
 20
98.525185
 30
0.0
 11
38.594811
 21
102.525185
 31
0.0
  0
LINE
  5
9A
100
AcDbEntity
  8
ALPHA
100
AcDbLine
 10
40.894811
 20
98.525185
 30
0.0
 11
38.594811
 21
98.525185
 31
0.0
  0
LINE
  5
9B
100
AcDbEntity
  8
ALPHA
100
AcDbLine
 10
40.894811
 20
102.525185
 30
0.0
 11
38.594811
 21
102.525185
 31
0.0
  0
ARC
  5
9C
100
AcDbEntity
  8
ALPHA
100
AcDbCircle
 10
30.494811
 20
93.925185
 30
0.0
 40
0.4
100
AcDbArc
 50
320.997945
 51
345.402794
  0
LINE
  5
9D
100
AcDbEntity
  8
ALPHA
100
AcDbLine
 10
37.994811
 20
92.525185
 30
0.0
 11
37.748049
 21
92.525185
 31
0.0
  0
LINE
  5
9E
100
AcDbEntity
  8
ALPHA
100
AcDbLine
 10
37.748049
 20
108.525185
 30
0.0
 11
37.994811
 21
108.525185
 31
0.0
  0
LINE
  5
9F
100
AcDbEntity
  8
ALPHA
100
AcDbLine
 10
37.748049
 20
92.525185
 30
0.0
 11
37.548124
 21
92.525185
 31
0.0
  0
LINE
  5
A0
100
AcDbEntity
  8
ALPHA
100
AcDbLine
 10
37.748049
 20
106.025185
 30
0.0
 11
37.548124
 21
106.025185
 31
0.0
  0
LINE
  5
A1
100
AcDbEntity
  8
ALPHA
100
AcDbLine
 10
36.194811
 20
93.525185
 30
0.0
 11
36.194811
 21
99.525185
 31
0.0
  0
LINE
  5
A2
100
AcDbEntity
  8
ALPHA
100
AcDbLine
 10
37.548049
 20
92.525185
 30
0.0
 11
37.548049
 21
95.025185
 31
0.0
  0
LINE
  5
A3
100
AcDbEntity
  8
ALPHA
100
AcDbLine
 10
37.548124
 20
95.025185
 30
0.0
 11
37.748049
 21
95.025185
 31
0.0
  0
LINE
  5
A4
100
AcDbEntity
  8
ALPHA
100
AcDbLine
 10
37.548049
 20
108.525185
 30
0.0
 11
37.548049
 21
106.025185
 31
0.0
  0
LINE
  5
A5
100
AcDbEntity
  8
ALPHA
100
AcDbLine
 10
37.548124
 20
108.525185
 30
0.0
 11
37.748049
 21
108.525185
 31
0.0
  0
LINE
  5
A6
100
AcDbEntity
  8
ALPHA
100
AcDbLine
 10
44.041573
 20
92.525185
 30
0.0
 11
44.041573
 21
95.025185
 31
0.0
  0
LINE
  5
A7
100
AcDbEntity
  8
ALPHA
100
AcDbLine
 10
44.041573
 20
108.525185
 30
0.0
 11
44.041573
 21
106.025185
 31
0.0
  0
LINE
  5
A8
100
AcDbEntity
  8
ALPHA
100
AcDbLine
 10
45.994811
 20
109.559141
 30
0.0
 11
45.844811
 21
109.559141
 31
0.0
  0
LINE
  5
A9
100
AcDbEntity
  8
ALPHA
100
AcDbLine
 10
50.894811
 20
97.975185
 30
0.0
 11
50.894811
 21
97.825185
 31
0.0
  0
LINE
  5
AA
100
AcDbEntity
  8
ALPHA
100
AcDbLine
 10
51.594811
 20
97.825185
 30
0.0
 11
51.594811
 21
97.975185
 31
0.0
  0
LINE
  5
AB
100
AcDbEntity
  8
ALPHA
100
AcDbLine
 10
51.594811
 20
93.675185
 30
0.0
 11
51.594811
 21
93.825185
 31
0.0
  0
LINE
  5
AC
100
AcDbEntity
  8
ALPHA
100
AcDbLine
 10
36.948817
 20
79.818727
 30
0.0
 11
37.457246
 21
79.525185
 31
0.0
  0
LINE
  5
AD
100
AcDbEntity
  8
ALPHA
100
AcDbLine
 10
36.244811
 20
80.225185
 30
0.0
 11
36.948817
 21
79.818727
 31
0.0
  0
LINE
  5
AE
100
AcDbEntity
  8
ALPHA
100
AcDbLine
 10
36.948817
 20
113.031644
 30
0.0
 11
37.457246
 21
113.325185
 31
0.0
  0
LINE
  5
AF
100
AcDbEntity
  8
ALPHA
100
AcDbLine
 10
36.244811
 20
112.625185
 30
0.0
 11
36.948817
 21
113.031644
 31
0.0
  0
LINE
  5
B0
100
AcDbEntity
  8
ALPHA
100
AcDbLine
 10
45.994811
 20
111.325185
 30
0.0
 11
45.844811
 21
111.325185
 31
0.0
  0
LINE
  5
B1
100
AcDbEntity
  8
ALPHA
100
AcDbLine
 10
40.894811
 20
110.525185
 30
0.0
 11
40.894811
 21
112.125185
 31
0.0
  0
LINE
  5
B2
100
AcDbEntity
  8
ALPHA
100
AcDbLine
 10
40.894811
 20
109.65916
 30
0.0
 11
40.894811
 21
108.525185
 31
0.0
  0
LINE
  5
B3
100
AcDbEntity
  8
ALPHA
100
AcDbLine
 10
40.894811
 20
108.525185
 30
0.0
 11
40.894811
 21
106.025185
 31
0.0
  0
LINE
  5
B4
100
AcDbEntity
  8
ALPHA
100
AcDbLine
 10
40.894811
 20
102.525185
 30
0.0
 11
40.894811
 21
98.525185
 31
0.0
  0
LINE
  5
B5
100
AcDbEntity
  8
ALPHA
100
AcDbLine
 10
40.894811
 20
95.025185
 30
0.0
 11
40.894811
 21
92.525185
 31
0.0
  0
LINE
  5
B6
100
AcDbEntity
  8
ALPHA
100
AcDbLine
 10
40.894811
 20
92.525185
 30
0.0
 11
40.894811
 21
91.391211
 31
0.0
  0
LINE
  5
B7
100
AcDbEntity
  8
ALPHA
100
AcDbLine
 10
40.894811
 20
80.925185
 30
0.0
 11
40.894811
 21
90.525185
 31
0.0
  0
LINE
  5
B8
100
AcDbEntity
  8
ALPHA
100
AcDbLine
 10
40.894811
 20
80.725185
 30
0.0
 11
40.894811
 21
80.925185
 31
0.0
  0
LINE
  5
B9
100
AcDbEntity
  8
ALPHA
100
AcDbLine
 10
46.644811
 20
113.325185
 30
0.0
 11
37.457246
 21
113.325185
 31
0.0
  0
LINE
  5
BA
100
AcDbEntity
  8
ALPHA
100
AcDbLine
 10
36.244811
 20
112.325185
 30
0.0
 11
36.244811
 21
112.625185
 31
0.0
  0
LINE
  5
BB
100
AcDbEntity
  8
ALPHA
100
AcDbLine
 10
36.244811
 20
112.325185
 30
0.0
 11
36.244811
 21
112.125185
 31
0.0
  0
LINE
  5
BC
100
AcDbEntity
  8
ALPHA
100
AcDbLine
 10
46.644811
 20
112.125185
 30
0.0
 11
46.644811
 21
113.325185
 31
0.0
  0
LINE
  5
BD
100
AcDbEntity
  8
ALPHA
100
AcDbLine
 10
45.994811
 20
98.025185
 30
0.0
 11
45.594811
 21
98.025185
 31
0.0
  0
LINE
  5
BE
100
AcDbEntity
  8
ALPHA
100
AcDbLine
 10
36.244811
 20
80.525185
 30
0.0
 11
40.894811
 21
80.525185
 31
0.0
  0
LINE
  5
BF
100
AcDbEntity
  8
ALPHA
100
AcDbLine
 10
46.644811
 20
79.525185
 30
0.0
 11
37.457246
 21
79.525185
 31
0.0
  0
LINE
  5
C0
100
AcDbEntity
  8
ALPHA
100
AcDbLine
 10
40.894811
 20
80.725185
 30
0.0
 11
40.894811
 21
80.525185
 31
0.0
  0
LINE
  5
C1
100
AcDbEntity
  8
ALPHA
100
AcDbLine
 10
45.994811
 20
95.025185
 30
0.0
 11
45.594811
 21
95.025185
 31
0.0
  0
LINE
  5
C2
100
AcDbEntity
  8
ALPHA
100
AcDbLine
 10
47.144811
 20
95.025185
 30
0.0
 11
46.994811
 21
95.025185
 31
0.0
  0
LINE
  5
C3
100
AcDbEntity
  8
ALPHA
100
AcDbLine
 10
54.794811
 20
95.025185
 30
0.0
 11
54.644811
 21
95.025185
 31
0.0
  0
LINE
  5
C4
100
AcDbEntity
  8
ALPHA
100
AcDbLine
 10
36.244811
 20
80.225185
 30
0.0
 11
36.244811
 21
80.525185
 31
0.0
  0
LINE
  5
C5
100
AcDbEntity
  8
ALPHA
100
AcDbLine
 10
36.244811
 20
80.725185
 30
0.0
 11
36.244811
 21
80.525185
 31
0.0
  0
LINE
  5
C6
100
AcDbEntity
  8
ALPHA
100
AcDbLine
 10
46.644811
 20
79.525185
 30
0.0
 11
46.644811
 21
79.825185
 31
0.0
  0
LINE
  5
C7
100
AcDbEntity
  8
ALPHA
100
AcDbLine
 10
36.244811
 20
112.325185
 30
0.0
 11
40.894811
 21
112.325185
 31
0.0
  0
LINE
  5
C8
100
AcDbEntity
  8
ALPHA
100
AcDbLine
 10
40.894811
 20
112.125185
 30
0.0
 11
40.894811
 21
112.325185
 31
0.0
  0
LINE
  5
C9
100
AcDbEntity
  8
ALPHA
100
AcDbLine
 10
45.594811
 20
97.775185
 30
0.0
 11
45.794811
 21
97.775185
 31
0.0
  0
LINE
  5
CA
100
AcDbEntity
  8
ALPHA
100
AcDbLine
 10
45.794811
 20
95.275185
 30
0.0
 11
45.594811
 21
95.275185
 31
0.0
  0
LINE
  5
CB
100
AcDbEntity
  8
ALPHA
100
AcDbLine
 10
45.594811
 20
99.525185
 30
0.0
 11
45.994811
 21
99.525185
 31
0.0
  0
LINE
  5
CC
100
AcDbEntity
  8
ALPHA
100
AcDbLine
 10
45.994811
 20
93.525185
 30
0.0
 11
45.594811
 21
93.525185
 31
0.0
  0
LINE
  5
CD
100
AcDbEntity
  8
ALPHA
100
AcDbLine
 10
43.694811
 20
88.525186
 30
0.0
 11
43.394811
 21
88.525186
 31
0.0
  0
LINE
  5
CE
100
AcDbEntity
  8
ALPHA
100
AcDbLine
 10
45.844811
 20
112.125185
 30
0.0
 11
40.894811
 21
112.125185
 31
0.0
  0
LINE
  5
CF
100
AcDbEntity
  8
ALPHA
100
AcDbLine
 10
44.394811
 20
86.908164
 30
0.0
 11
43.694811
 21
88.525186
 31
0.0
  0
LINE
  5
D0
100
AcDbEntity
  8
ALPHA
100
AcDbLine
 10
45.09481
 20
88.525186
 30
0.0
 11
44.394811
 21
86.908164
 31
0.0
  0
LINE
  5
D1
100
AcDbEntity
  8
ALPHA
100
AcDbLine
 10
47.044811
 20
112.125185
 30
0.0
 11
46.644811
 21
112.125185
 31
0.0
  0
LINE
  5
D2
100
AcDbEntity
  8
ALPHA
100
AcDbLine
 10
45.394811
 20
88.525186
 30
0.0
 11
45.09481
 21
88.525186
 31
0.0
  0
LINE
  5
D3
100
AcDbEntity
  8
ALPHA
100
AcDbLine
 10
54.644811
 20
112.125185
 30
0.0
 11
47.044811
 21
112.125185
 31
0.0
  0
LINE
  5
D4
100
AcDbEntity
  8
ALPHA
100
AcDbLine
 10
44.54481
 20
86.482632
 30
0.0
 11
45.394811
 21
88.525186
 31
0.0
  0
LINE
  5
D5
100
AcDbEntity
  8
ALPHA
100
AcDbLine
 10
55.644811
 20
112.125185
 30
0.0
 11
54.644811
 21
112.125185
 31
0.0
  0
LINE
  5
D6
100
AcDbEntity
  8
ALPHA
100
AcDbLine
 10
45.394811
 20
84.525185
 30
0.0
 11
44.54481
 21
86.482632
 31
0.0
  0
LINE
  5
D7
100
AcDbEntity
  8
ALPHA
100
AcDbLine
 10
45.09481
 20
84.525185
 30
0.0
 11
45.394811
 21
84.525185
 31
0.0
  0
LINE
  5
D8
100
AcDbEntity
  8
ALPHA
100
AcDbLine
 10
40.894811
 20
95.025185
 30
0.0
 11
40.894811
 21
98.525185
 31
0.0
  0
LINE
  5
D9
100
AcDbEntity
  8
ALPHA
100
AcDbLine
 10
44.394811
 20
86.142207
 30
0.0
 11
45.09481
 21
84.525185
 31
0.0
  0
LINE
  5
DA
100
AcDbEntity
  8
ALPHA
100
AcDbLine
 10
43.694811
 20
84.525185
 30
0.0
 11
44.394811
 21
86.142207
 31
0.0
  0
LINE
  5
DB
100
AcDbEntity
  8
ALPHA
100
AcDbLine
 10
54.644811
 20
112.125185
 30
0.0
 11
54.644811
 21
111.825185
 31
0.0
  0
LINE
  5
DC
100
AcDbEntity
  8
ALPHA
100
AcDbLine
 10
47.044811
 20
112.125185
 30
0.0
 11
47.044811
 21
111.825185
 31
0.0
  0
LINE
  5
DD
100
AcDbEntity
  8
ALPHA
100
AcDbLine
 10
45.844811
 20
108.525185
 30
0.0
 11
45.994811
 21
108.525185
 31
0.0
  0
LINE
  5
DE
100
AcDbEntity
  8
ALPHA
100
AcDbLine
 10
45.844811
 20
112.125185
 30
0.0
 11
45.844811
 21
108.525185
 31
0.0
  0
LINE
  5
DF
100
AcDbEntity
  8
ALPHA
100
AcDbLine
 10
43.394811
 20
84.525185
 30
0.0
 11
43.694811
 21
84.525185
 31
0.0
  0
LINE
  5
E0
100
AcDbEntity
  8
ALPHA
100
AcDbLine
 10
44.244811
 20
86.482632
 30
0.0
 11
43.394811
 21
84.525185
 31
0.0
  0
LINE
  5
E1
100
AcDbEntity
  8
ALPHA
100
AcDbLine
 10
43.394811
 20
88.525186
 30
0.0
 11
44.244811
 21
86.482632
 31
0.0
  0
LINE
  5
E2
100
AcDbEntity
  8
ALPHA
100
AcDbLine
 10
40.894811
 20
102.525185
 30
0.0
 11
40.894811
 21
106.025185
 31
0.0
  0
LINE
  5
E3
100
AcDbEntity
  8
ALPHA
100
AcDbLine
 10
42.394811
 20
88.525186
 30
0.0
 11
42.394811
 21
84.525185
 31
0.0
  0
LINE
  5
E4
100
AcDbEntity
  8
ALPHA
100
AcDbLine
 10
42.694811
 20
88.525186
 30
0.0
 11
42.394811
 21
88.525186
 31
0.0
  0
LINE
  5
E5
100
AcDbEntity
  8
ALPHA
100
AcDbLine
 10
42.694811
 20
85.206037
 30
0.0
 11
42.694811
 21
88.525186
 31
0.0
  0
LINE
  5
E6
100
AcDbEntity
  8
ALPHA
100
AcDbLine
 10
42.994811
 20
85.801781
 30
0.0
 11
42.694811
 21
85.206037
 31
0.0
  0
LINE
  5
E7
100
AcDbEntity
  8
ALPHA
100
AcDbLine
 10
42.994811
 20
85.12093
 30
0.0
 11
42.994811
 21
85.801781
 31
0.0
  0
LINE
  5
E8
100
AcDbEntity
  8
ALPHA
100
AcDbLine
 10
42.694811
 20
84.525185
 30
0.0
 11
42.994811
 21
85.12093
 31
0.0
  0
LINE
  5
E9
100
AcDbEntity
  8
ALPHA
100
AcDbLine
 10
42.394811
 20
84.525185
 30
0.0
 11
42.694811
 21
84.525185
 31
0.0
  0
LINE
  5
EA
100
AcDbEntity
  8
ALPHA
100
AcDbLine
 10
43.794811
 20
109.65916
 30
0.0
 11
43.794811
 21
108.525185
 31
0.0
  0
LINE
  5
EB
100
AcDbEntity
  8
ALPHA
100
AcDbLine
 10
43.794811
 20
92.525185
 30
0.0
 11
43.794811
 21
91.391211
 31
0.0
  0
LINE
  5
EC
100
AcDbEntity
  8
ALPHA
100
AcDbLine
 10
40.894811
 20
95.025185
 30
0.0
 11
44.041573
 21
95.025185
 31
0.0
  0
LINE
  5
ED
100
AcDbEntity
  8
ALPHA
100
AcDbLine
 10
44.041573
 20
106.025185
 30
0.0
 11
40.894811
 21
106.025185
 31
0.0
  0
LINE
  5
EE
100
AcDbEntity
  8
ALPHA
100
AcDbLine
 10
43.794811
 20
90.525185
 30
0.0
 11
43.794811
 21
91.391211
 31
0.0
  0
LINE
  5
EF
100
AcDbEntity
  8
ALPHA
100
AcDbLine
 10
40.894811
 20
90.525185
 30
0.0
 11
43.794811
 21
90.525185
 31
0.0
  0
LINE
  5
F0
100
AcDbEntity
  8
ALPHA
100
AcDbLine
 10
40.894811
 20
90.525185
 30
0.0
 11
40.894811
 21
91.391211
 31
0.0
  0
LINE
  5
F1
100
AcDbEntity
  8
ALPHA
100
AcDbLine
 10
40.894811
 20
109.65916
 30
0.0
 11
40.894811
 21
110.525185
 31
0.0
  0
LINE
  5
F2
100
AcDbEntity
  8
ALPHA
100
AcDbLine
 10
40.894811
 20
110.525185
 30
0.0
 11
43.794811
 21
110.525185
 31
0.0
  0
LINE
  5
F3
100
AcDbEntity
  8
ALPHA
100
AcDbLine
 10
43.794811
 20
109.65916
 30
0.0
 11
43.794811
 21
110.525185
 31
0.0
  0
LINE
  5
F4
100
AcDbEntity
  8
ALPHA
100
AcDbLine
 10
40.894811
 20
109.65916
 30
0.0
 11
43.794811
 21
109.65916
 31
0.0
  0
LINE
  5
F5
100
AcDbEntity
  8
ALPHA
100
AcDbLine
 10
40.894811
 20
108.525185
 30
0.0
 11
43.794811
 21
108.525185
 31
0.0
  0
LINE
  5
F6
100
AcDbEntity
  8
ALPHA
100
AcDbLine
 10
40.894811
 20
92.525185
 30
0.0
 11
43.794811
 21
92.525185
 31
0.0
  0
LINE
  5
F7
100
AcDbEntity
  8
ALPHA
100
AcDbLine
 10
40.894811
 20
91.391211
 30
0.0
 11
43.794811
 21
91.391211
 31
0.0
  0
LINE
  5
F8
100
AcDbEntity
  8
ALPHA
100
AcDbLine
 10
45.594811
 20
99.525185
 30
0.0
 11
45.594811
 21
93.525185
 31
0.0
  0
LINE
  5
F9
100
AcDbEntity
  8
ALPHA
100
AcDbLine
 10
43.194811
 20
102.525185
 30
0.0
 11
43.194811
 21
98.525185
 31
0.0
  0
LINE
  5
FA
100
AcDbEntity
  8
ALPHA
100
AcDbLine
 10
40.894811
 20
102.525185
 30
0.0
 11
43.194811
 21
102.525185
 31
0.0
  0
LINE
  5
FB
100
AcDbEntity
  8
ALPHA
100
AcDbLine
 10
40.894811
 20
80.725185
 30
0.0
 11
45.994811
 21
80.725185
 31
0.0
  0
LINE
  5
FC
100
AcDbEntity
  8
ALPHA
100
AcDbLine
 10
40.894811
 20
98.525185
 30
0.0
 11
43.194811
 21
98.525185
 31
0.0
  0
ARC
  5
FD
100
AcDbEntity
  8
ALPHA
100
AcDbCircle
 10
51.294811
 20
93.925185
 30
0.0
 40
0.4
100
AcDbArc
 50
194.597206
 51
219.002055
  0
LINE
  5
FE
100
AcDbEntity
  8
ALPHA
100
AcDbLine
 10
43.794811
 20
108.525185
 30
0.0
 11
44.041573
 21
108.525185
 31
0.0
  0
LINE
  5
FF
100
AcDbEntity
  8
ALPHA
100
AcDbLine
 10
44.041573
 20
92.525185
 30
0.0
 11
43.794811
 21
92.525185
 31
0.0
  0
LINE
  5
100
100
AcDbEntity
  8
ALPHA
100
AcDbLine
 10
44.041573
 20
95.025185
 30
0.0
 11
44.241498
 21
95.025185
 31
0.0
  0
LINE
  5
101
100
AcDbEntity
  8
ALPHA
100
AcDbLine
 10
44.041573
 20
108.525185
 30
0.0
 11
44.241498
 21
108.525185
 31
0.0
  0
LINE
  5
102
100
AcDbEntity
  8
ALPHA
100
AcDbLine
 10
55.644811
 20
112.125185
 30
0.0
 11
55.644811
 21
111.825185
 31
0.0
  0
LINE
  5
103
100
AcDbEntity
  8
ALPHA
100
AcDbLine
 10
44.241573
 20
92.525185
 30
0.0
 11
44.241573
 21
95.025185
 31
0.0
  0
LINE
  5
104
100
AcDbEntity
  8
ALPHA
100
AcDbLine
 10
44.241498
 20
92.525185
 30
0.0
 11
44.041573
 21
92.525185
 31
0.0
  0
LINE
  5
105
100
AcDbEntity
  8
ALPHA
100
AcDbLine
 10
44.241573
 20
108.525185
 30
0.0
 11
44.241573
 21
106.025185
 31
0.0
  0
LINE
  5
106
100
AcDbEntity
  8
ALPHA
100
AcDbLine
 10
44.241498
 20
106.025185
 30
0.0
 11
44.041573
 21
106.025185
 31
0.0
  0
LINE
  5
107
100
AcDbEntity
  8
ALPHA
100
AcDbLine
 10
38.094811
 20
73.108587
 30
0.0
 11
38.094811
 21
74.008459
 31
0.0
  0
LINE
  5
108
100
AcDbEntity
  8
ALPHA
100
AcDbLine
 10
43.694811
 20
73.108587
 30
0.0
 11
43.694811
 21
74.008459
 31
0.0
  0
LINE
  5
109
100
AcDbEntity
  8
ALPHA
100
AcDbLine
 10
37.394811
 20
74.085591
 30
0.0
 11
44.394811
 21
74.085591
 31
0.0
  0
LWPOLYLINE
  5
10A
100
AcDbEntity
  8
ALPHA
100
AcDbPolyline
 90
        9
 70
     0
 43
0.0
 10
47.494811
 20
77.680715
 10
47.437861
 20
77.047326
 10
47.26894
 20
76.433518
 10
46.993119
 20
75.85705
 10
46.618719
 20
75.335217
 10
46.15691
 20
74.883529
 10
45.621427
 20
74.515437
 10
45.028172
 20
74.241946
 10
44.394811
 20
74.071303
  0
LINE
  5
115
100
AcDbEntity
  8
ALPHA
100
AcDbLine
 10
28.594811
 20
117.516692
 30
0.0
 11
26.094811
 21
117.516692
 31
0.0
  0
LINE
  5
116
100
AcDbEntity
  8
ALPHA
100
AcDbLine
 10
55.694811
 20
117.516692
 30
0.0
 11
53.194811
 21
117.516692
 31
0.0
  0
LINE
  5
117
100
AcDbEntity
  8
ALPHA
100
AcDbLine
 10
53.194811
 20
113.615456
 30
0.0
 11
55.694811
 21
113.615456
 31
0.0
  0
LINE
  5
118
100
AcDbEntity
  8
ALPHA
100
AcDbLine
 10
53.194811
 20
114.123164
 30
0.0
 11
55.694811
 21
114.123164
 31
0.0
  0
LWPOLYLINE
  5
119
100
AcDbEntity
  8
ALPHA
100
AcDbPolyline
 90
        9
 70
     0
 43
0.0
 10
37.394811
 20
74.071303
 10
36.761449
 20
74.241946
 10
36.168194
 20
74.515437
 10
35.632711
 20
74.883529
 10
35.170902
 20
75.335217
 10
34.796502
 20
75.85705
 10
34.520682
 20
76.433518
 10
34.351761
 20
77.047326
 10
34.294811
 20
77.680715
  0
LWPOLYLINE
  5
124
100
AcDbEntity
  8
ALPHA
100
AcDbPolyline
 90
        5
 70
     0
 43
0.0
 10
45.578955
 20
73.463225
 10
45.109021
 20
73.302191
 10
44.636648
 20
73.192684
 10
44.165147
 20
73.129311
 10
43.694811
 20
73.108587
  0
LWPOLYLINE
  5
12B
100
AcDbEntity
  8
ALPHA
100
AcDbPolyline
 90
        5
 70
     0
 43
0.0
 10
38.094811
 20
73.108587
 10
37.624428
 20
73.129316
 10
37.152932
 20
73.192692
 10
36.680592
 20
73.302193
 10
36.210666
 20
73.463225
  0
LWPOLYLINE
  5
132
100
AcDbEntity
  8
ALPHA
100
AcDbPolyline
 90
        4
 70
     0
 43
0.0
 10
34.359842
 20
75.975821
 10
34.323874
 20
76.139608
 10
34.302101
 20
76.305443
 10
34.294811
 20
76.472315
  0
LWPOLYLINE
  5
138
100
AcDbEntity
  8
ALPHA
100
AcDbPolyline
 90
        4
 70
     0
 43
0.0
 10
47.429779
 20
75.975821
 10
47.465747
 20
76.139608
 10
47.48752
 20
76.305443
 10
47.494811
 20
76.472315
  0
LWPOLYLINE
  5
13E
100
AcDbEntity
  8
ALPHA
100
AcDbPolyline
 90
        6
 70
     0
 43
0.0
 10
36.210666
 20
73.463225
 10
35.669759
 20
73.825041
 10
35.201547
 20
74.271566
 10
34.820015
 20
74.789471
 10
34.536591
 20
75.36331
 10
34.359842
 20
75.975821
  0
LWPOLYLINE
  5
146
100
AcDbEntity
  8
ALPHA
100
AcDbPolyline
 90
        6
 70
     0
 43
0.0
 10
47.429779
 20
75.975821
 10
47.253031
 20
75.36331
 10
46.969606
 20
74.789471
 10
46.588074
 20
74.271566
 10
46.119862
 20
73.825041
 10
45.578955
 20
73.463225
  0
LINE
  5
14E
100
AcDbEntity
  8
ALPHA
100
AcDbLine
 10
53.194811
 20
113.615456
 30
0.0
 11
53.194811
 21
114.123164
 31
0.0
  0
LINE
  5
14F
100
AcDbEntity
  8
ALPHA
100
AcDbLine
 10
55.694811
 20
113.615456
 30
0.0
 11
55.694811
 21
114.123164
 31
0.0
  0
LINE
  5
150
100
AcDbEntity
  8
ALPHA
100
AcDbLine
 10
43.694811
 20
74.008459
 30
0.0
 11
44.394811
 21
74.008459
 31
0.0
  0
LINE
  5
151
100
AcDbEntity
  8
ALPHA
100
AcDbLine
 10
37.394811
 20
74.008459
 30
0.0
 11
38.094811
 21
74.008459
 31
0.0
  0
LINE
  5
152
100
AcDbEntity
  8
ALPHA
100
AcDbLine
 10
34.294811
 20
76.472315
 30
0.0
 11
34.294811
 21
77.680715
 31
0.0
  0
LINE
  5
153
100
AcDbEntity
  8
ALPHA
100
AcDbLine
 10
47.494811
 20
76.472315
 30
0.0
 11
47.494811
 21
77.680715
 31
0.0
  0
LINE
  5
154
100
AcDbEntity
  8
ALPHA
100
AcDbLine
 10
37.394811
 20
76.501548
 30
0.0
 11
37.394811
 21
74.085591
 31
0.0
  0
LINE
  5
155
100
AcDbEntity
  8
ALPHA
100
AcDbLine
 10
38.394811
 20
76.501548
 30
0.0
 11
37.394811
 21
76.501548
 31
0.0
  0
LINE
  5
156
100
AcDbEntity
  8
ALPHA
100
AcDbLine
 10
38.394811
 20
75.921719
 30
0.0
 11
38.394811
 21
76.501548
 31
0.0
  0
LINE
  5
157
100
AcDbEntity
  8
ALPHA
100
AcDbLine
 10
39.250157
 20
75.921719
 30
0.0
 11
38.394811
 21
75.921719
 31
0.0
  0
LINE
  5
158
100
AcDbEntity
  8
ALPHA
100
AcDbLine
 10
43.394811
 20
75.921719
 30
0.0
 11
42.537785
 21
75.921719
 31
0.0
  0
LINE
  5
159
100
AcDbEntity
  8
ALPHA
100
AcDbLine
 10
43.394811
 20
76.501548
 30
0.0
 11
43.394811
 21
75.921719
 31
0.0
  0
LINE
  5
15A
100
AcDbEntity
  8
ALPHA
100
AcDbLine
 10
44.394811
 20
76.501548
 30
0.0
 11
43.394811
 21
76.501548
 31
0.0
  0
LINE
  5
15B
100
AcDbEntity
  8
ALPHA
100
AcDbLine
 10
44.394811
 20
74.085591
 30
0.0
 11
44.394811
 21
76.501548
 31
0.0
  0
LINE
  5
15C
100
AcDbEntity
  8
ALPHA
100
AcDbLine
 10
44.394811
 20
74.071303
 30
0.0
 11
44.394811
 21
74.085591
 31
0.0
  0
LINE
  5
15D
100
AcDbEntity
  8
ALPHA
100
AcDbLine
 10
44.394811
 20
74.008459
 30
0.0
 11
44.394811
 21
74.071303
 31
0.0
  0
LINE
  5
15E
100
AcDbEntity
  8
ALPHA
100
AcDbLine
 10
55.694811
 20
114.123164
 30
0.0
 11
55.694811
 21
117.516692
 31
0.0
  0
LINE
  5
15F
100
AcDbEntity
  8
ALPHA
100
AcDbLine
 10
47.494811
 20
76.363268
 30
0.0
 11
47.494811
 21
76.472315
 31
0.0
  0
LINE
  5
160
100
AcDbEntity
  8
ALPHA
100
AcDbLine
 10
38.094811
 20
73.108587
 30
0.0
 11
43.694811
 21
73.108587
 31
0.0
  0
LINE
  5
161
100
AcDbEntity
  8
ALPHA
100
AcDbLine
 10
37.394811
 20
74.071303
 30
0.0
 11
37.394811
 21
74.085591
 31
0.0
  0
LINE
  5
162
100
AcDbEntity
  8
ALPHA
100
AcDbLine
 10
37.394811
 20
74.008459
 30
0.0
 11
37.394811
 21
74.071303
 31
0.0
  0
LWPOLYLINE
  5
163
100
AcDbEntity
  8
ALPHA
100
AcDbPolyline
 90
        6
 70
     0
 43
0.0
 10
44.494811
 20
76.424417
 10
44.649435
 20
76.448102
 10
44.788753
 20
76.516733
 10
44.899283
 20
76.623547
 10
44.970301
 20
76.758181
 10
44.994811
 20
76.907608
  0
LINE
  5
16B
100
AcDbEntity
  8
ALPHA
100
AcDbLine
 10
34.294811
 20
76.363268
 30
0.0
 11
34.294811
 21
76.472315
 31
0.0
  0
LINE
  5
16C
100
AcDbEntity
  8
ALPHA
100
AcDbLine
 10
26.094811
 20
114.178254
 30
0.0
 11
26.094811
 21
117.516692
 31
0.0
  0
LINE
  5
16D
100
AcDbEntity
  8
ALPHA
100
AcDbLine
 10
28.594811
 20
115.025185
 30
0.0
 11
28.594811
 21
117.516692
 31
0.0
  0
LINE
  5
16E
100
AcDbEntity
  8
ALPHA
100
AcDbLine
 10
42.703354
 20
76.064468
 30
0.0
 11
43.394811
 21
76.064468
 31
0.0
  0
LINE
  5
16F
100
AcDbEntity
  8
ALPHA
100
AcDbLine
 10
38.394811
 20
76.064468
 30
0.0
 11
39.08729
 21
76.064468
 31
0.0
  0
LINE
  5
170
100
AcDbEntity
  8
ALPHA
100
AcDbLine
 10
47.494811
 20
77.680715
 30
0.0
 11
47.494811
 21
76.472315
 31
0.0
  0
LINE
  5
171
100
AcDbEntity
  8
ALPHA
100
AcDbLine
 10
34.294811
 20
76.346482
 30
0.0
 11
34.294811
 21
76.363268
 31
0.0
  0
LINE
  5
172
100
AcDbEntity
  8
ALPHA
100
AcDbLine
 10
53.194811
 20
114.123164
 30
0.0
 11
53.194811
 21
117.516692
 31
0.0
  0
LINE
  5
173
100
AcDbEntity
  8
ALPHA
100
AcDbLine
 10
47.494811
 20
77.680715
 30
0.0
 11
47.494811
 21
78.89434
 31
0.0
  0
LINE
  5
174
100
AcDbEntity
  8
ALPHA
100
AcDbLine
 10
55.694811
 20
112.178254
 30
0.0
 11
55.694811
 21
113.615456
 31
0.0
  0
LINE
  5
175
100
AcDbEntity
  8
ALPHA
100
AcDbLine
 10
53.194811
 20
113.615456
 30
0.0
 11
53.194811
 21
113.025185
 31
0.0
  0
LINE
  5
176
100
AcDbEntity
  8
ALPHA
100
AcDbLine
 10
44.994811
 20
78.825185
 30
0.0
 11
44.994811
 21
76.907608
 31
0.0
  0
LINE
  5
177
100
AcDbEntity
  8
ALPHA
100
AcDbLine
 10
44.494811
 20
76.424417
 30
0.0
 11
44.394811
 21
76.424417
 31
0.0
  0
LINE
  5
178
100
AcDbEntity
  8
ALPHA
100
AcDbLine
 10
47.494811
 20
76.346482
 30
0.0
 11
47.494811
 21
76.363268
 31
0.0
  0
LINE
  5
179
100
AcDbEntity
  8
ALPHA
100
AcDbLine
 10
37.394811
 20
76.424417
 30
0.0
 11
37.294811
 21
76.424417
 31
0.0
  0
LINE
  5
17A
100
AcDbEntity
  8
ALPHA
100
AcDbLine
 10
36.794811
 20
76.907608
 30
0.0
 11
36.794811
 21
78.825185
 31
0.0
  0
LINE
  5
17B
100
AcDbEntity
  8
ALPHA
100
AcDbLine
 10
28.594811
 20
112.125185
 30
0.0
 11
28.594811
 21
113.324348
 31
0.0
  0
LINE
  5
17C
100
AcDbEntity
  8
ALPHA
100
AcDbLine
 10
34.294811
 20
78.825185
 30
0.0
 11
34.294811
 21
77.680715
 31
0.0
  0
LINE
  5
17D
100
AcDbEntity
  8
ALPHA
100
AcDbLine
 10
26.094811
 20
117.751878
 30
0.0
 11
28.594811
 21
117.751878
 31
0.0
  0
LINE
  5
17E
100
AcDbEntity
  8
ALPHA
100
AcDbLine
 10
26.094811
 20
117.751871
 30
0.0
 11
26.094811
 21
117.516692
 31
0.0
  0
LINE
  5
17F
100
AcDbEntity
  8
ALPHA
100
AcDbLine
 10
28.594811
 20
117.751871
 30
0.0
 11
28.594811
 21
117.516692
 31
0.0
  0
LINE
  5
180
100
AcDbEntity
  8
ALPHA
100
AcDbLine
 10
53.194811
 20
117.751878
 30
0.0
 11
55.694811
 21
117.751878
 31
0.0
  0
LINE
  5
181
100
AcDbEntity
  8
ALPHA
100
AcDbLine
 10
53.194811
 20
117.751871
 30
0.0
 11
53.194811
 21
117.516692
 31
0.0
  0
LINE
  5
182
100
AcDbEntity
  8
ALPHA
100
AcDbLine
 10
55.694811
 20
117.751871
 30
0.0
 11
55.694811
 21
117.516692
 31
0.0
  0
LWPOLYLINE
  5
183
100
AcDbEntity
  8
ALPHA
100
AcDbPolyline
 90
        6
 70
     0
 43
0.0
 10
36.794811
 20
76.907608
 10
36.81932
 20
76.758181
 10
36.890338
 20
76.623547
 10
37.000868
 20
76.516733
 10
37.140186
 20
76.448102
 10
37.294811
 20
76.424417
  0
LINE
  5
18B
100
AcDbEntity
  8
ALPHA
100
AcDbLine
 10
37.855679
 20
78.825185
 30
0.0
 11
37.341995
 21
78.825185
 31
0.0
  0
LINE
  5
18C
100
AcDbEntity
  8
ALPHA
100
AcDbLine
 10
25.944811
 20
109.475185
 30
0.0
 11
25.994811
 21
109.475185
 31
0.0
  0
LINE
  5
18D
100
AcDbEntity
  8
ALPHA
100
AcDbLine
 10
44.447626
 20
78.825185
 30
0.0
 11
43.933943
 21
78.825185
 31
0.0
  0
LINE
  5
18E
100
AcDbEntity
  8
ALPHA
100
AcDbLine
 10
44.544811
 20
79.372156
 30
0.0
 11
44.43231
 21
79.411565
 31
0.0
  0
LINE
  5
18F
100
AcDbEntity
  8
ALPHA
100
AcDbLine
 10
44.657311
 20
79.352452
 30
0.0
 11
44.544811
 21
79.372156
 31
0.0
  0
LINE
  5
190
100
AcDbEntity
  8
ALPHA
100
AcDbLine
 10
44.919811
 20
79.352452
 30
0.0
 11
44.657311
 21
79.352452
 31
0.0
  0
LINE
  5
191
100
AcDbEntity
  8
ALPHA
100
AcDbLine
 10
45.032311
 20
79.372156
 30
0.0
 11
44.919811
 21
79.352452
 31
0.0
  0
LINE
  5
192
100
AcDbEntity
  8
ALPHA
100
AcDbLine
 10
37.441686
 20
79.444405
 30
0.0
 11
37.207311
 21
79.499138
 31
0.0
  0
LINE
  5
193
100
AcDbEntity
  8
ALPHA
100
AcDbLine
 10
37.535436
 20
79.362304
 30
0.0
 11
37.441686
 21
79.444405
 31
0.0
  0
LINE
  5
194
100
AcDbEntity
  8
ALPHA
100
AcDbLine
 10
37.582311
 20
79.252837
 30
0.0
 11
37.535436
 21
79.362304
 31
0.0
  0
LINE
  5
195
100
AcDbEntity
  8
ALPHA
100
AcDbLine
 10
45.144811
 20
79.411565
 30
0.0
 11
45.032311
 21
79.372156
 31
0.0
  0
LINE
  5
196
100
AcDbEntity
  8
ALPHA
100
AcDbLine
 10
45.219811
 20
79.470677
 30
0.0
 11
45.144811
 21
79.411565
 31
0.0
  0
LINE
  5
197
100
AcDbEntity
  8
ALPHA
100
AcDbLine
 10
45.25439
 20
79.525185
 30
0.0
 11
45.219811
 21
79.470677
 31
0.0
  0
LINE
  5
198
100
AcDbEntity
  8
ALPHA
100
AcDbLine
 10
37.535436
 20
79.448054
 30
0.0
 11
37.535436
 21
79.362304
 31
0.0
  0
LINE
  5
199
100
AcDbEntity
  8
ALPHA
100
AcDbLine
 10
37.441686
 20
79.530154
 30
0.0
 11
37.441686
 21
79.444405
 31
0.0
  0
LINE
  5
19A
100
AcDbEntity
  8
ALPHA
100
AcDbLine
 10
25.944811
 20
98.775185
 30
0.0
 11
25.994811
 21
98.775185
 31
0.0
  0
LINE
  5
19B
100
AcDbEntity
  8
ALPHA
100
AcDbLine
 10
55.794811
 20
98.775185
 30
0.0
 11
55.844811
 21
98.775185
 31
0.0
  0
LINE
  5
19C
100
AcDbEntity
  8
ALPHA
100
AcDbLine
 10
37.113561
 20
79.694355
 30
0.0
 11
37.113561
 21
79.608605
 31
0.0
  0
LINE
  5
19D
100
AcDbEntity
  8
ALPHA
100
AcDbLine
 10
37.301061
 20
79.14337
 30
0.0
 11
37.301061
 21
79.088636
 31
0.0
  0
LINE
  5
19E
100
AcDbEntity
  8
ALPHA
100
AcDbLine
 10
37.301061
 20
79.174386
 30
0.0
 11
37.301061
 21
79.14337
 31
0.0
  0
LINE
  5
19F
100
AcDbEntity
  8
ALPHA
100
AcDbLine
 10
37.207311
 20
79.119652
 30
0.0
 11
37.207311
 21
79.033903
 31
0.0
  0
LINE
  5
1A0
100
AcDbEntity
  8
ALPHA
100
AcDbLine
 10
37.113561
 20
79.092285
 30
0.0
 11
37.113561
 21
79.006536
 31
0.0
  0
LINE
  5
1A1
100
AcDbEntity
  8
ALPHA
100
AcDbLine
 10
36.879186
 20
79.064918
 30
0.0
 11
36.879186
 21
78.979169
 31
0.0
  0
LINE
  5
1A2
100
AcDbEntity
  8
ALPHA
100
AcDbLine
 10
36.597936
 20
79.064918
 30
0.0
 11
36.597936
 21
78.979169
 31
0.0
  0
LINE
  5
1A3
100
AcDbEntity
  8
ALPHA
100
AcDbLine
 10
36.363561
 20
79.092285
 30
0.0
 11
36.363561
 21
79.006536
 31
0.0
  0
LINE
  5
1A4
100
AcDbEntity
  8
ALPHA
100
AcDbLine
 10
36.269811
 20
79.119652
 30
0.0
 11
36.269811
 21
79.033903
 31
0.0
  0
LINE
  5
1A5
100
AcDbEntity
  8
ALPHA
100
AcDbLine
 10
36.176061
 20
79.174386
 30
0.0
 11
36.176061
 21
79.088636
 31
0.0
  0
LINE
  5
1A6
100
AcDbEntity
  8
ALPHA
100
AcDbLine
 10
36.129186
 20
79.229119
 30
0.0
 11
36.129186
 21
79.14337
 31
0.0
  0
LWPOLYLINE
  5
1A7
100
AcDbEntity
  8
ALPHA
100
AcDbPolyline
 90
        3
 70
     0
 43
0.0
 10
25.944811
 20
82.802536
 10
25.973245
 20
82.610611
 10
25.994811
 20
82.565336
  0
LINE
  5
1AC
100
AcDbEntity
  8
ALPHA
100
AcDbLine
 10
32.844811
 20
113.775185
 30
0.0
 11
32.844811
 21
115.025185
 31
0.0
  0
LINE
  5
1AD
100
AcDbEntity
  8
ALPHA
100
AcDbLine
 10
45.219811
 20
79.525185
 30
0.0
 11
45.219811
 21
79.470677
 31
0.0
  0
ARC
  5
1AE
100
AcDbEntity
  8
ALPHA
100
AcDbCircle
 10
32.394811
 20
113.775185
 30
0.0
 40
0.45
100
AcDbArc
 50
180.0
 51
0.0
  0
LINE
  5
1AF
100
AcDbEntity
  8
ALPHA
100
AcDbLine
 10
32.844811
 20
113.775185
 30
0.0
 11
33.144811
 21
113.775185
 31
0.0
  0
LINE
  5
1B0
100
AcDbEntity
  8
ALPHA
100
AcDbLine
 10
31.944811
 20
115.025185
 30
0.0
 11
31.944811
 21
113.775185
 31
0.0
  0
LINE
  5
1B1
100
AcDbEntity
  8
ALPHA
100
AcDbLine
 10
31.944811
 20
113.775185
 30
0.0
 11
31.644811
 21
113.775185
 31
0.0
  0
LINE
  5
1B2
100
AcDbEntity
  8
ALPHA
100
AcDbLine
 10
45.144811
 20
79.497314
 30
0.0
 11
45.144811
 21
79.411565
 31
0.0
  0
LINE
  5
1B3
100
AcDbEntity
  8
ALPHA
100
AcDbLine
 10
45.032311
 20
79.457906
 30
0.0
 11
45.032311
 21
79.372156
 31
0.0
  0
LINE
  5
1B4
100
AcDbEntity
  8
ALPHA
100
AcDbLine
 10
44.919811
 20
79.438202
 30
0.0
 11
44.919811
 21
79.352452
 31
0.0
  0
LINE
  5
1B5
100
AcDbEntity
  8
ALPHA
100
AcDbLine
 10
44.657311
 20
79.438202
 30
0.0
 11
44.657311
 21
79.352452
 31
0.0
  0
LINE
  5
1B6
100
AcDbEntity
  8
ALPHA
100
AcDbLine
 10
44.544811
 20
79.457906
 30
0.0
 11
44.544811
 21
79.372156
 31
0.0
  0
LINE
  5
1B7
100
AcDbEntity
  8
ALPHA
100
AcDbLine
 10
36.129186
 20
79.14337
 30
0.0
 11
35.894811
 21
79.14337
 31
0.0
  0
LINE
  5
1B8
100
AcDbEntity
  8
ALPHA
100
AcDbLine
 10
36.176061
 20
79.088636
 30
0.0
 11
36.129186
 21
79.14337
 31
0.0
  0
LINE
  5
1B9
100
AcDbEntity
  8
ALPHA
100
AcDbLine
 10
36.269811
 20
79.033903
 30
0.0
 11
36.176061
 21
79.088636
 31
0.0
  0
LINE
  5
1BA
100
AcDbEntity
  8
ALPHA
100
AcDbLine
 10
36.363561
 20
79.006536
 30
0.0
 11
36.269811
 21
79.033903
 31
0.0
  0
LINE
  5
1BB
100
AcDbEntity
  8
ALPHA
100
AcDbLine
 10
36.597936
 20
78.979169
 30
0.0
 11
36.363561
 21
79.006536
 31
0.0
  0
LINE
  5
1BC
100
AcDbEntity
  8
ALPHA
100
AcDbLine
 10
37.582311
 20
79.338586
 30
0.0
 11
37.535436
 21
79.448054
 31
0.0
  0
LINE
  5
1BD
100
AcDbEntity
  8
ALPHA
100
AcDbLine
 10
37.535436
 20
79.448054
 30
0.0
 11
37.452955
 21
79.520285
 31
0.0
  0
LINE
  5
1BE
100
AcDbEntity
  8
ALPHA
100
AcDbLine
 10
37.385922
 20
79.543177
 30
0.0
 11
37.335028
 21
79.555062
 31
0.0
  0
LINE
  5
1BF
100
AcDbEntity
  8
ALPHA
100
AcDbLine
 10
37.441686
 20
79.530154
 30
0.0
 11
37.385922
 21
79.543177
 31
0.0
  0
LINE
  5
1C0
100
AcDbEntity
  8
ALPHA
100
AcDbLine
 10
37.138757
 20
79.709065
 30
0.0
 11
37.113561
 21
79.694355
 31
0.0
  0
LINE
  5
1C1
100
AcDbEntity
  8
ALPHA
100
AcDbLine
 10
37.113561
 20
79.694355
 30
0.0
 11
36.908574
 21
79.654463
 31
0.0
  0
LINE
  5
1C2
100
AcDbEntity
  8
ALPHA
100
AcDbLine
 10
37.305571
 20
79.179652
 30
0.0
 11
37.301061
 21
79.174386
 31
0.0
  0
LINE
  5
1C3
100
AcDbEntity
  8
ALPHA
100
AcDbLine
 10
37.347936
 20
79.229119
 30
0.0
 11
37.305571
 21
79.179652
 31
0.0
  0
LINE
  5
1C4
100
AcDbEntity
  8
ALPHA
100
AcDbLine
 10
37.301061
 20
79.174386
 30
0.0
 11
37.207311
 21
79.119652
 31
0.0
  0
LINE
  5
1C5
100
AcDbEntity
  8
ALPHA
100
AcDbLine
 10
37.207311
 20
79.119652
 30
0.0
 11
37.113561
 21
79.092285
 31
0.0
  0
LINE
  5
1C6
100
AcDbEntity
  8
ALPHA
100
AcDbLine
 10
37.113561
 20
79.092285
 30
0.0
 11
36.879186
 21
79.064918
 31
0.0
  0
LINE
  5
1C7
100
AcDbEntity
  8
ALPHA
100
AcDbLine
 10
36.879186
 20
79.064918
 30
0.0
 11
36.597936
 21
79.064918
 31
0.0
  0
LINE
  5
1C8
100
AcDbEntity
  8
ALPHA
100
AcDbLine
 10
36.597936
 20
79.064918
 30
0.0
 11
36.363561
 21
79.092285
 31
0.0
  0
LINE
  5
1C9
100
AcDbEntity
  8
ALPHA
100
AcDbLine
 10
36.363561
 20
79.092285
 30
0.0
 11
36.269811
 21
79.119652
 31
0.0
  0
LINE
  5
1CA
100
AcDbEntity
  8
ALPHA
100
AcDbLine
 10
36.269811
 20
79.119652
 30
0.0
 11
36.176061
 21
79.174386
 31
0.0
  0
LINE
  5
1CB
100
AcDbEntity
  8
ALPHA
100
AcDbLine
 10
36.176061
 20
79.174386
 30
0.0
 11
36.129186
 21
79.229119
 31
0.0
  0
LINE
  5
1CC
100
AcDbEntity
  8
ALPHA
100
AcDbLine
 10
36.129186
 20
79.229119
 30
0.0
 11
35.894811
 21
79.229119
 31
0.0
  0
LINE
  5
1CD
100
AcDbEntity
  8
ALPHA
100
AcDbLine
 10
45.180173
 20
79.525185
 30
0.0
 11
45.144811
 21
79.497314
 31
0.0
  0
LINE
  5
1CE
100
AcDbEntity
  8
ALPHA
100
AcDbLine
 10
45.144811
 20
79.497314
 30
0.0
 11
45.032311
 21
79.457906
 31
0.0
  0
LINE
  5
1CF
100
AcDbEntity
  8
ALPHA
100
AcDbLine
 10
45.032311
 20
79.457906
 30
0.0
 11
44.919811
 21
79.438202
 31
0.0
  0
LINE
  5
1D0
100
AcDbEntity
  8
ALPHA
100
AcDbLine
 10
44.919811
 20
79.438202
 30
0.0
 11
44.657311
 21
79.438202
 31
0.0
  0
LINE
  5
1D1
100
AcDbEntity
  8
ALPHA
100
AcDbLine
 10
44.657311
 20
79.438202
 30
0.0
 11
44.544811
 21
79.457906
 31
0.0
  0
LINE
  5
1D2
100
AcDbEntity
  8
ALPHA
100
AcDbLine
 10
44.544811
 20
79.457906
 30
0.0
 11
44.43231
 21
79.497314
 31
0.0
  0
LINE
  5
1D3
100
AcDbEntity
  8
ALPHA
100
AcDbLine
 10
44.43231
 20
79.497314
 30
0.0
 11
44.396948
 21
79.525185
 31
0.0
  0
LINE
  5
1D4
100
AcDbEntity
  8
ALPHA
100
AcDbLine
 10
36.879186
 20
78.979169
 30
0.0
 11
36.597936
 21
78.979169
 31
0.0
  0
LINE
  5
1D5
100
AcDbEntity
  8
ALPHA
100
AcDbLine
 10
37.113561
 20
79.006536
 30
0.0
 11
36.879186
 21
78.979169
 31
0.0
  0
LINE
  5
1D6
100
AcDbEntity
  8
ALPHA
100
AcDbLine
 10
37.207311
 20
79.033903
 30
0.0
 11
37.113561
 21
79.006536
 31
0.0
  0
LINE
  5
1D7
100
AcDbEntity
  8
ALPHA
100
AcDbLine
 10
37.301061
 20
79.088636
 30
0.0
 11
37.207311
 21
79.033903
 31
0.0
  0
LINE
  5
1D8
100
AcDbEntity
  8
ALPHA
100
AcDbLine
 10
37.347936
 20
79.14337
 30
0.0
 11
37.301061
 21
79.088636
 31
0.0
  0
LINE
  5
1D9
100
AcDbEntity
  8
ALPHA
100
AcDbLine
 10
44.43231
 20
79.497314
 30
0.0
 11
44.43231
 21
79.411565
 31
0.0
  0
LINE
  5
1DA
100
AcDbEntity
  8
ALPHA
100
AcDbLine
 10
32.444811
 20
78.825185
 30
0.0
 11
32.444811
 21
79.825185
 31
0.0
  0
LWPOLYLINE
  5
1DB
100
AcDbEntity
  8
ALPHA
100
AcDbPolyline
 90
        3
 70
     0
 43
0.0
 10
55.844811
 20
82.802536
 10
55.816376
 20
82.610611
 10
55.794811
 20
82.565336
  0
LINE
  5
1E0
100
AcDbEntity
  8
ALPHA
100
AcDbLine
 10
44.357311
 20
79.525185
 30
0.0
 11
44.357311
 21
79.470677
 31
0.0
  0
LWPOLYLINE
  5
1E1
100
AcDbEntity
  8
ALPHA
100
AcDbPolyline
 90
        3
 70
     0
 43
0.0
 10
43.780653
 20
79.525185
 10
43.834075
 20
79.382329
 10
43.933943
 20
78.825185
  0
LWPOLYLINE
  5
1E6
100
AcDbEntity
  8
ALPHA
100
AcDbPolyline
 90
        5
 70
     0
 43
0.0
 10
43.933943
 20
78.825185
 10
43.833438
 20
78.845174
 10
43.739674
 20
78.906372
 10
43.665284
 20
79.008438
 10
43.626659
 20
79.14063
  0
LWPOLYLINE
  5
1ED
100
AcDbEntity
  8
ALPHA
100
AcDbPolyline
 90
        3
 70
     0
 43
0.0
 10
37.855679
 20
78.825185
 10
37.955548
 20
79.382332
 10
38.008968
 20
79.525185
  0
LWPOLYLINE
  5
1F2
100
AcDbEntity
  8
ALPHA
100
AcDbPolyline
 90
        5
 70
     0
 43
0.0
 10
37.855679
 20
78.825185
 10
37.956183
 20
78.845174
 10
38.049947
 20
78.906372
 10
38.124338
 20
79.008438
 10
38.162962
 20
79.14063
  0
LINE
  5
1F9
100
AcDbEntity
  8
ALPHA
100
AcDbLine
 10
25.944811
 20
88.831781
 30
0.0
 11
25.994811
 21
88.831781
 31
0.0
  0
LINE
  5
1FA
100
AcDbEntity
  8
ALPHA
100
AcDbLine
 10
25.944811
 20
89.625388
 30
0.0
 11
25.994811
 21
89.625388
 31
0.0
  0
LINE
  5
1FB
100
AcDbEntity
  8
ALPHA
100
AcDbLine
 10
55.844811
 20
88.831781
 30
0.0
 11
55.794811
 21
88.831781
 31
0.0
  0
LINE
  5
1FC
100
AcDbEntity
  8
ALPHA
100
AcDbLine
 10
55.844811
 20
89.625388
 30
0.0
 11
55.794811
 21
89.625388
 31
0.0
  0
LINE
  5
1FD
100
AcDbEntity
  8
ALPHA
100
AcDbLine
 10
37.113561
 20
79.608605
 30
0.0
 11
36.894811
 21
79.566035
 31
0.0
  0
LINE
  5
1FE
100
AcDbEntity
  8
ALPHA
100
AcDbLine
 10
25.944811
 20
100.227554
 30
0.0
 11
25.994811
 21
100.227554
 31
0.0
  0
LINE
  5
1FF
100
AcDbEntity
  8
ALPHA
100
AcDbLine
 10
37.207311
 20
79.663339
 30
0.0
 11
37.113561
 21
79.608605
 31
0.0
  0
LINE
  5
200
100
AcDbEntity
  8
ALPHA
100
AcDbLine
 10
25.944811
 20
100.711677
 30
0.0
 11
25.994811
 21
100.711677
 31
0.0
  0
LINE
  5
201
100
AcDbEntity
  8
ALPHA
100
AcDbLine
 10
55.794811
 20
100.227554
 30
0.0
 11
55.844811
 21
100.227554
 31
0.0
  0
LINE
  5
202
100
AcDbEntity
  8
ALPHA
100
AcDbLine
 10
55.794811
 20
100.711677
 30
0.0
 11
55.844811
 21
100.711677
 31
0.0
  0
LINE
  5
203
100
AcDbEntity
  8
ALPHA
100
AcDbLine
 10
55.844811
 20
93.021887
 30
0.0
 11
55.794811
 21
93.021887
 31
0.0
  0
LINE
  5
204
100
AcDbEntity
  8
ALPHA
100
AcDbLine
 10
55.844811
 20
92.625084
 30
0.0
 11
55.794811
 21
92.625084
 31
0.0
  0
LINE
  5
205
100
AcDbEntity
  8
ALPHA
100
AcDbLine
 10
25.944811
 20
93.021887
 30
0.0
 11
25.994811
 21
93.021887
 31
0.0
  0
LINE
  5
206
100
AcDbEntity
  8
ALPHA
100
AcDbLine
 10
25.944811
 20
92.625084
 30
0.0
 11
25.994811
 21
92.625084
 31
0.0
  0
LINE
  5
207
100
AcDbEntity
  8
ALPHA
100
AcDbLine
 10
44.357311
 20
79.470677
 30
0.0
 11
44.322731
 21
79.525185
 31
0.0
  0
LINE
  5
208
100
AcDbEntity
  8
ALPHA
100
AcDbLine
 10
44.43231
 20
79.411565
 30
0.0
 11
44.357311
 21
79.470677
 31
0.0
  0
LINE
  5
209
100
AcDbEntity
  8
ALPHA
100
AcDbLine
 10
32.844811
 20
115.025185
 30
0.0
 11
31.944811
 21
115.025185
 31
0.0
  0
ARC
  5
20A
100
AcDbEntity
  8
ALPHA
100
AcDbCircle
 10
40.894811
 20
79.525185
 30
0.0
 40
3.25
100
AcDbArc
 50
198.662925
 51
213.139553
  0
ARC
  5
20B
100
AcDbEntity
  8
ALPHA
100
AcDbCircle
 10
40.894811
 20
79.525185
 30
0.0
 40
3.25
100
AcDbArc
 50
326.860881
 51
341.337075
  0
LINE
  5
20C
100
AcDbEntity
  8
ALPHA
100
AcDbLine
 10
25.994811
 20
106.725185
 30
0.0
 11
25.944811
 21
106.725185
 31
0.0
  0
LINE
  5
20D
100
AcDbEntity
  8
ALPHA
100
AcDbLine
 10
25.944811
 20
106.725185
 30
0.0
 11
25.944811
 21
100.711677
 31
0.0
  0
LINE
  5
20E
100
AcDbEntity
  8
ALPHA
100
AcDbLine
 10
55.844811
 20
106.725185
 30
0.0
 11
55.794811
 21
106.725185
 31
0.0
  0
LINE
  5
20F
100
AcDbEntity
  8
ALPHA
100
AcDbLine
 10
55.844811
 20
100.711677
 30
0.0
 11
55.844811
 21
106.725185
 31
0.0
  0
LINE
  5
210
100
AcDbEntity
  8
ALPHA
100
AcDbLine
 10
54.244811
 20
113.025185
 30
0.0
 11
54.485965
 21
112.125185
 31
0.0
  0
LINE
  5
211
100
AcDbEntity
  8
ALPHA
100
AcDbLine
 10
27.051509
 20
113.18416
 30
0.0
 11
27.044811
 21
113.15916
 31
0.0
  0
LINE
  5
212
100
AcDbEntity
  8
ALPHA
100
AcDbLine
 10
27.544811
 20
115.025185
 30
0.0
 11
27.051509
 21
113.18416
 31
0.0
  0
LINE
  5
213
100
AcDbEntity
  8
ALPHA
100
AcDbLine
 10
25.944811
 20
98.775185
 30
0.0
 11
25.944811
 21
100.227554
 31
0.0
  0
LINE
  5
214
100
AcDbEntity
  8
ALPHA
100
AcDbLine
 10
55.844811
 20
98.775185
 30
0.0
 11
55.844811
 21
100.227554
 31
0.0
  0
LINE
  5
215
100
AcDbEntity
  8
ALPHA
100
AcDbLine
 10
25.944811
 20
82.802536
 30
0.0
 11
25.944811
 21
88.831781
 31
0.0
  0
LINE
  5
216
100
AcDbEntity
  8
ALPHA
100
AcDbLine
 10
55.844811
 20
88.831781
 30
0.0
 11
55.844811
 21
82.802536
 31
0.0
  0
LINE
  5
217
100
AcDbEntity
  8
ALPHA
100
AcDbLine
 10
32.844811
 20
115.025185
 30
0.0
 11
33.144811
 21
115.025185
 31
0.0
  0
LINE
  5
218
100
AcDbEntity
  8
ALPHA
100
AcDbLine
 10
33.144811
 20
113.775185
 30
0.0
 11
33.144811
 21
115.025185
 31
0.0
  0
ARC
  5
219
100
AcDbEntity
  8
ALPHA
100
AcDbCircle
 10
32.394811
 20
113.775185
 30
0.0
 40
0.75
100
AcDbArc
 50
180.0
 51
0.0
  0
LINE
  5
21A
100
AcDbEntity
  8
ALPHA
100
AcDbLine
 10
31.644811
 20
115.025185
 30
0.0
 11
31.644811
 21
113.775185
 31
0.0
  0
LINE
  5
21B
100
AcDbEntity
  8
ALPHA
100
AcDbLine
 10
31.944811
 20
115.025185
 30
0.0
 11
31.644811
 21
115.025185
 31
0.0
  0
LINE
  5
21C
100
AcDbEntity
  8
ALPHA
100
AcDbLine
 10
54.144811
 20
113.025185
 30
0.0
 11
54.244811
 21
113.025185
 31
0.0
  0
LINE
  5
21D
100
AcDbEntity
  8
ALPHA
100
AcDbLine
 10
55.844811
 20
106.725185
 30
0.0
 11
55.844811
 21
107.175203
 31
0.0
  0
LINE
  5
21E
100
AcDbEntity
  8
ALPHA
100
AcDbLine
 10
25.944811
 20
107.225185
 30
0.0
 11
25.944811
 21
106.725185
 31
0.0
  0
LINE
  5
21F
100
AcDbEntity
  8
ALPHA
100
AcDbLine
 10
27.044811
 20
113.15916
 30
0.0
 11
27.044811
 21
112.125185
 31
0.0
  0
LINE
  5
220
100
AcDbEntity
  8
ALPHA
100
AcDbLine
 10
27.644811
 20
115.025185
 30
0.0
 11
27.544811
 21
115.025185
 31
0.0
  0
LINE
  5
221
100
AcDbEntity
  8
ALPHA
100
AcDbLine
 10
31.644811
 20
115.025185
 30
0.0
 11
31.569811
 21
115.025185
 31
0.0
  0
LINE
  5
222
100
AcDbEntity
  8
ALPHA
100
AcDbLine
 10
33.219811
 20
115.025185
 30
0.0
 11
33.144811
 21
115.025185
 31
0.0
  0
LINE
  5
223
100
AcDbEntity
  8
ALPHA
100
AcDbLine
 10
47.544811
 20
79.025185
 30
0.0
 11
47.544811
 21
79.825185
 31
0.0
  0
ARC
  5
224
100
AcDbEntity
  8
ALPHA
100
AcDbCircle
 10
44.447626
 20
78.325185
 30
0.0
 40
0.5
100
AcDbArc
 50
90.0
 51
161.337075
  0
ARC
  5
225
100
AcDbEntity
  8
ALPHA
100
AcDbCircle
 10
37.341995
 20
78.325185
 30
0.0
 40
0.5
100
AcDbArc
 50
18.662925
 51
90.0
  0
LINE
  5
226
100
AcDbEntity
  8
ALPHA
100
AcDbLine
 10
55.844811
 20
81.325185
 30
0.0
 11
55.844811
 21
82.802536
 31
0.0
  0
ARC
  5
227
100
AcDbEntity
  8
ALPHA
100
AcDbCircle
 10
54.844811
 20
81.325185
 30
0.0
 40
1.0
100
AcDbArc
 50
342.418672
 51
359.603454
  0
ARC
  5
228
100
AcDbEntity
  8
ALPHA
100
AcDbCircle
 10
54.844811
 20
81.325185
 30
0.0
 40
1.0
100
AcDbArc
 50
359.603454
 51
0.0
  0
LINE
  5
229
100
AcDbEntity
  8
ALPHA
100
AcDbLine
 10
25.944811
 20
82.802536
 30
0.0
 11
25.944811
 21
81.325185
 31
0.0
  0
ARC
  5
22A
100
AcDbEntity
  8
ALPHA
100
AcDbCircle
 10
40.894811
 20
78.825185
 30
0.0
 40
2.75
100
AcDbArc
 50
6.586739
 51
14.834338
  0
ARC
  5
22B
100
AcDbEntity
  8
ALPHA
100
AcDbCircle
 10
40.894811
 20
78.825185
 30
0.0
 40
2.75
100
AcDbArc
 50
165.16566
 51
173.413261
  0
LINE
  5
22C
100
AcDbEntity
  8
ALPHA
100
AcDbLine
 10
55.844811
 20
92.625084
 30
0.0
 11
55.844811
 21
89.625388
 31
0.0
  0
LINE
  5
22D
100
AcDbEntity
  8
ALPHA
100
AcDbLine
 10
25.944811
 20
89.625388
 30
0.0
 11
25.944811
 21
92.625084
 31
0.0
  0
LINE
  5
22E
100
AcDbEntity
  8
ALPHA
100
AcDbLine
 10
25.944811
 20
88.831781
 30
0.0
 11
25.944811
 21
89.625388
 31
0.0
  0
LINE
  5
22F
100
AcDbEntity
  8
ALPHA
100
AcDbLine
 10
55.844811
 20
88.831781
 30
0.0
 11
55.844811
 21
89.625388
 31
0.0
  0
LINE
  5
230
100
AcDbEntity
  8
ALPHA
100
AcDbLine
 10
25.944811
 20
100.227554
 30
0.0
 11
25.944811
 21
100.711677
 31
0.0
  0
LINE
  5
231
100
AcDbEntity
  8
ALPHA
100
AcDbLine
 10
55.844811
 20
100.227554
 30
0.0
 11
55.844811
 21
100.711677
 31
0.0
  0
LINE
  5
232
100
AcDbEntity
  8
ALPHA
100
AcDbLine
 10
55.844811
 20
93.021887
 30
0.0
 11
55.844811
 21
92.625084
 31
0.0
  0
LINE
  5
233
100
AcDbEntity
  8
ALPHA
100
AcDbLine
 10
25.944811
 20
93.021887
 30
0.0
 11
25.944811
 21
92.625084
 31
0.0
  0
LINE
  5
234
100
AcDbEntity
  8
ALPHA
100
AcDbLine
 10
34.894811
 20
113.025185
 30
0.0
 11
34.744811
 21
113.025185
 31
0.0
  0
LINE
  5
235
100
AcDbEntity
  8
ALPHA
100
AcDbLine
 10
36.937631
 20
113.025185
 30
0.0
 11
36.894811
 21
113.025185
 31
0.0
  0
LINE
  5
236
100
AcDbEntity
  8
ALPHA
100
AcDbLine
 10
51.394811
 20
113.025185
 30
0.0
 11
49.494811
 21
113.025185
 31
0.0
  0
LINE
  5
237
100
AcDbEntity
  8
ALPHA
100
AcDbLine
 10
54.244811
 20
113.025185
 30
0.0
 11
54.344811
 21
113.025185
 31
0.0
  0
LINE
  5
238
100
AcDbEntity
  8
ALPHA
100
AcDbLine
 10
37.441686
 20
78.979169
 30
0.0
 11
37.535436
 21
79.06127
 31
0.0
  0
LINE
  5
239
100
AcDbEntity
  8
ALPHA
100
AcDbLine
 10
37.301061
 20
78.924436
 30
0.0
 11
37.441686
 21
78.979169
 31
0.0
  0
LINE
  5
23A
100
AcDbEntity
  8
ALPHA
100
AcDbLine
 10
37.113561
 20
78.869702
 30
0.0
 11
37.301061
 21
78.924436
 31
0.0
  0
LINE
  5
23B
100
AcDbEntity
  8
ALPHA
100
AcDbLine
 10
36.926061
 20
78.842335
 30
0.0
 11
37.113561
 21
78.869702
 31
0.0
  0
LINE
  5
23C
100
AcDbEntity
  8
ALPHA
100
AcDbLine
 10
36.551061
 20
78.842335
 30
0.0
 11
36.926061
 21
78.842335
 31
0.0
  0
LINE
  5
23D
100
AcDbEntity
  8
ALPHA
100
AcDbLine
 10
36.363561
 20
78.869702
 30
0.0
 11
36.551061
 21
78.842335
 31
0.0
  0
LINE
  5
23E
100
AcDbEntity
  8
ALPHA
100
AcDbLine
 10
36.176061
 20
78.924436
 30
0.0
 11
36.363561
 21
78.869702
 31
0.0
  0
LINE
  5
23F
100
AcDbEntity
  8
ALPHA
100
AcDbLine
 10
36.035436
 20
78.979169
 30
0.0
 11
36.176061
 21
78.924436
 31
0.0
  0
LINE
  5
240
100
AcDbEntity
  8
ALPHA
100
AcDbLine
 10
35.941686
 20
79.06127
 30
0.0
 11
36.035436
 21
78.979169
 31
0.0
  0
LINE
  5
241
100
AcDbEntity
  8
ALPHA
100
AcDbLine
 10
35.894811
 20
79.14337
 30
0.0
 11
35.941686
 21
79.06127
 31
0.0
  0
LINE
  5
242
100
AcDbEntity
  8
ALPHA
100
AcDbLine
 10
37.347936
 20
79.174386
 30
0.0
 11
37.347936
 21
79.14337
 31
0.0
  0
LINE
  5
243
100
AcDbEntity
  8
ALPHA
100
AcDbLine
 10
37.347936
 20
79.229119
 30
0.0
 11
37.347936
 21
79.174386
 31
0.0
  0
LINE
  5
244
100
AcDbEntity
  8
ALPHA
100
AcDbLine
 10
37.347936
 20
79.252837
 30
0.0
 11
37.347936
 21
79.229119
 31
0.0
  0
LINE
  5
245
100
AcDbEntity
  8
ALPHA
100
AcDbLine
 10
37.254186
 20
79.362304
 30
0.0
 11
37.347936
 21
79.252837
 31
0.0
  0
LINE
  5
246
100
AcDbEntity
  8
ALPHA
100
AcDbLine
 10
37.113561
 20
79.417038
 30
0.0
 11
37.254186
 21
79.362304
 31
0.0
  0
LINE
  5
247
100
AcDbEntity
  8
ALPHA
100
AcDbLine
 10
36.832311
 20
79.444405
 30
0.0
 11
37.113561
 21
79.417038
 31
0.0
  0
LINE
  5
248
100
AcDbEntity
  8
ALPHA
100
AcDbLine
 10
36.644811
 20
79.444405
 30
0.0
 11
36.832311
 21
79.444405
 31
0.0
  0
LINE
  5
249
100
AcDbEntity
  8
ALPHA
100
AcDbLine
 10
36.644811
 20
79.525185
 30
0.0
 11
36.644811
 21
79.444405
 31
0.0
  0
LINE
  5
24A
100
AcDbEntity
  8
ALPHA
100
AcDbLine
 10
37.238817
 20
79.512934
 30
0.0
 11
37.375105
 21
79.57261
 31
0.0
  0
LINE
  5
24B
100
AcDbEntity
  8
ALPHA
100
AcDbLine
 10
37.207311
 20
79.499138
 30
0.0
 11
37.238817
 21
79.512934
 31
0.0
  0
LINE
  5
24C
100
AcDbEntity
  8
ALPHA
100
AcDbLine
 10
37.582311
 20
79.14337
 30
0.0
 11
37.582311
 21
79.252837
 31
0.0
  0
LINE
  5
24D
100
AcDbEntity
  8
ALPHA
100
AcDbLine
 10
37.535436
 20
79.06127
 30
0.0
 11
37.582311
 21
79.14337
 31
0.0
  0
LINE
  5
24E
100
AcDbEntity
  8
ALPHA
100
AcDbLine
 10
37.582311
 20
79.338586
 30
0.0
 11
37.582311
 21
79.252837
 31
0.0
  0
LINE
  5
24F
100
AcDbEntity
  8
ALPHA
100
AcDbLine
 10
47.344811
 20
78.825185
 30
0.0
 11
44.447626
 21
78.825185
 31
0.0
  0
LINE
  5
250
100
AcDbEntity
  8
ALPHA
100
AcDbLine
 10
36.363561
 20
78.825185
 30
0.0
 11
32.444811
 21
78.825185
 31
0.0
  0
LINE
  5
251
100
AcDbEntity
  8
ALPHA
100
AcDbLine
 10
36.551061
 20
78.825185
 30
0.0
 11
36.363561
 21
78.825185
 31
0.0
  0
LINE
  5
252
100
AcDbEntity
  8
ALPHA
100
AcDbLine
 10
36.926061
 20
78.825185
 30
0.0
 11
36.551061
 21
78.825185
 31
0.0
  0
LINE
  5
253
100
AcDbEntity
  8
ALPHA
100
AcDbLine
 10
37.113561
 20
78.825185
 30
0.0
 11
36.926061
 21
78.825185
 31
0.0
  0
LINE
  5
254
100
AcDbEntity
  8
ALPHA
100
AcDbLine
 10
37.341995
 20
78.825185
 30
0.0
 11
37.113561
 21
78.825185
 31
0.0
  0
LINE
  5
255
100
AcDbEntity
  8
ALPHA
100
AcDbLine
 10
35.894811
 20
79.229119
 30
0.0
 11
35.894811
 21
79.14337
 31
0.0
  0
LINE
  5
256
100
AcDbEntity
  8
ALPHA
100
AcDbLine
 10
45.36981
 20
79.411565
 30
0.0
 11
45.444811
 21
79.510085
 31
0.0
  0
LINE
  5
257
100
AcDbEntity
  8
ALPHA
100
AcDbLine
 10
45.257311
 20
79.332748
 30
0.0
 11
45.36981
 21
79.411565
 31
0.0
  0
LINE
  5
258
100
AcDbEntity
  8
ALPHA
100
AcDbLine
 10
45.069811
 20
79.273636
 30
0.0
 11
45.257311
 21
79.332748
 31
0.0
  0
LINE
  5
259
100
AcDbEntity
  8
ALPHA
100
AcDbLine
 10
44.882311
 20
79.253932
 30
0.0
 11
45.069811
 21
79.273636
 31
0.0
  0
LINE
  5
25A
100
AcDbEntity
  8
ALPHA
100
AcDbLine
 10
44.694811
 20
79.253932
 30
0.0
 11
44.882311
 21
79.253932
 31
0.0
  0
LINE
  5
25B
100
AcDbEntity
  8
ALPHA
100
AcDbLine
 10
44.507311
 20
79.273636
 30
0.0
 11
44.694811
 21
79.253932
 31
0.0
  0
LINE
  5
25C
100
AcDbEntity
  8
ALPHA
100
AcDbLine
 10
44.319811
 20
79.332748
 30
0.0
 11
44.507311
 21
79.273636
 31
0.0
  0
LINE
  5
25D
100
AcDbEntity
  8
ALPHA
100
AcDbLine
 10
44.207311
 20
79.411565
 30
0.0
 11
44.319811
 21
79.332748
 31
0.0
  0
LINE
  5
25E
100
AcDbEntity
  8
ALPHA
100
AcDbLine
 10
44.132311
 20
79.510085
 30
0.0
 11
44.207311
 21
79.411565
 31
0.0
  0
LINE
  5
25F
100
AcDbEntity
  8
ALPHA
100
AcDbLine
 10
44.128205
 20
79.525185
 30
0.0
 11
44.132311
 21
79.510085
 31
0.0
  0
LINE
  5
260
100
AcDbEntity
  8
ALPHA
100
AcDbLine
 10
34.894811
 20
112.425185
 30
0.0
 11
34.744811
 21
112.425185
 31
0.0
  0
LINE
  5
261
100
AcDbEntity
  8
ALPHA
100
AcDbLine
 10
55.844811
 20
111.525185
 30
0.0
 11
55.844811
 21
111.425185
 31
0.0
  0
ARC
  5
262
100
AcDbEntity
  8
ALPHA
100
AcDbCircle
 10
27.444811
 20
113.525185
 30
0.0
 40
1.5
100
AcDbArc
 50
90.0
 51
180.0
  0
LINE
  5
263
100
AcDbEntity
  8
ALPHA
100
AcDbLine
 10
55.844811
 20
98.775185
 30
0.0
 11
55.844811
 21
93.021887
 31
0.0
  0
ARC
  5
264
100
AcDbEntity
  8
ALPHA
100
AcDbCircle
 10
54.344811
 20
111.525185
 30
0.0
 40
1.5
100
AcDbArc
 50
25.701559
 51
90.0
  0
ARC
  5
265
100
AcDbEntity
  8
ALPHA
100
AcDbCircle
 10
54.344811
 20
111.525185
 30
0.0
 40
1.5
100
AcDbArc
 50
24.534041
 51
25.701559
  0
ARC
  5
266
100
AcDbEntity
  8
ALPHA
100
AcDbCircle
 10
54.344811
 20
111.525185
 30
0.0
 40
1.5
100
AcDbArc
 50
12.862276
 51
24.534041
  0
ARC
  5
267
100
AcDbEntity
  8
ALPHA
100
AcDbCircle
 10
54.344811
 20
111.525185
 30
0.0
 40
1.5
100
AcDbArc
 50
11.636598
 51
12.862276
  0
ARC
  5
268
100
AcDbEntity
  8
ALPHA
100
AcDbCircle
 10
54.344811
 20
111.525185
 30
0.0
 40
1.5
100
AcDbArc
 50
9.972312
 51
11.636598
  0
ARC
  5
269
100
AcDbEntity
  8
ALPHA
100
AcDbCircle
 10
54.344811
 20
111.525185
 30
0.0
 40
1.5
100
AcDbArc
 50
0.0
 51
9.972312
  0
LINE
  5
26A
100
AcDbEntity
  8
ALPHA
100
AcDbLine
 10
27.444811
 20
115.025185
 30
0.0
 11
27.544811
 21
115.025185
 31
0.0
  0
LINE
  5
26B
100
AcDbEntity
  8
ALPHA
100
AcDbLine
 10
25.944811
 20
98.775185
 30
0.0
 11
25.944811
 21
93.021887
 31
0.0
  0
LINE
  5
26C
100
AcDbEntity
  8
ALPHA
100
AcDbLine
 10
32.244811
 20
79.025185
 30
0.0
 11
32.244811
 21
79.825185
 31
0.0
  0
LINE
  5
26D
100
AcDbEntity
  8
ALPHA
100
AcDbLine
 10
25.944811
 20
109.225185
 30
0.0
 11
25.944811
 21
109.475185
 31
0.0
  0
LINE
  5
26E
100
AcDbEntity
  8
ALPHA
100
AcDbLine
 10
25.944811
 20
113.525185
 30
0.0
 11
25.944811
 21
109.475185
 31
0.0
  0
ARC
  5
26F
100
AcDbEntity
  8
ALPHA
100
AcDbCircle
 10
32.444811
 20
79.025185
 30
0.0
 40
0.2
100
AcDbArc
 50
180.0
 51
270.0
  0
ARC
  5
270
100
AcDbEntity
  8
ALPHA
100
AcDbCircle
 10
47.344811
 20
79.025185
 30
0.0
 40
0.2
100
AcDbArc
 50
270.0
 51
0.0
  0
LINE
  5
271
100
AcDbEntity
  8
ALPHA
100
AcDbLine
 10
25.944811
 20
81.325185
 30
0.0
 11
25.944811
 21
82.802536
 31
0.0
  0
ARC
  5
272
100
AcDbEntity
  8
ALPHA
100
AcDbCircle
 10
26.944811
 20
81.325185
 30
0.0
 40
1.0
100
AcDbArc
 50
180.396546
 51
197.581328
  0
ARC
  5
273
100
AcDbEntity
  8
ALPHA
100
AcDbCircle
 10
26.944811
 20
81.325185
 30
0.0
 40
1.0
100
AcDbArc
 50
180.0
 51
180.396546
  0
LINE
  5
274
100
AcDbEntity
  8
ALPHA
100
AcDbLine
 10
35.794811
 20
97.975185
 30
0.0
 11
36.194811
 21
97.975185
 31
0.0
  0
LINE
  5
275
100
AcDbEntity
  8
ALPHA
100
AcDbLine
 10
34.794811
 20
95.075185
 30
0.0
 11
34.644811
 21
95.075185
 31
0.0
  0
LINE
  5
276
100
AcDbEntity
  8
ALPHA
100
AcDbLine
 10
36.194811
 20
95.075185
 30
0.0
 11
35.794811
 21
95.075185
 31
0.0
  0
LINE
  5
277
100
AcDbEntity
  8
ALPHA
100
AcDbLine
 10
45.594811
 20
97.975185
 30
0.0
 11
45.994811
 21
97.975185
 31
0.0
  0
LINE
  5
278
100
AcDbEntity
  8
ALPHA
100
AcDbLine
 10
45.994811
 20
95.075185
 30
0.0
 11
45.594811
 21
95.075185
 31
0.0
  0
LINE
  5
279
100
AcDbEntity
  8
ALPHA
100
AcDbLine
 10
47.144811
 20
95.075185
 30
0.0
 11
46.994811
 21
95.075185
 31
0.0
  0
ARC
  5
27A
100
AcDbEntity
  8
ALPHA
100
AcDbCircle
 10
29.344811
 20
112.525185
 30
0.0
 40
1.6
100
AcDbArc
 50
345.480352
 51
90.0
  0
ARC
  5
27B
100
AcDbEntity
  8
ALPHA
100
AcDbCircle
 10
29.344811
 20
112.525185
 30
0.0
 40
1.6
100
AcDbArc
 50
90.0
 51
194.519648
  0
ARC
  5
27C
100
AcDbEntity
  8
ALPHA
100
AcDbCircle
 10
29.344811
 20
112.525185
 30
0.0
 40
1.1
100
AcDbArc
 50
338.480995
 51
90.0
  0
ARC
  5
27D
100
AcDbEntity
  8
ALPHA
100
AcDbCircle
 10
29.344811
 20
112.525185
 30
0.0
 40
1.1
100
AcDbArc
 50
90.0
 51
201.519005
  0
LINE
  5
27E
100
AcDbEntity
  8
ALPHA
100
AcDbLine
 10
25.944811
 20
107.225185
 30
0.0
 11
25.994811
 21
107.225185
 31
0.0
  0
ARC
  5
27F
100
AcDbEntity
  8
ALPHA
100
AcDbCircle
 10
29.344811
 20
112.525185
 30
0.0
 40
1.1
100
AcDbArc
 50
338.480995
 51
90.0
  0
ARC
  5
280
100
AcDbEntity
  8
ALPHA
100
AcDbCircle
 10
29.344811
 20
112.525185
 30
0.0
 40
1.1
100
AcDbArc
 50
90.0
 51
201.519005
  0
LINE
  5
281
100
AcDbEntity
  8
ALPHA
100
AcDbLine
 10
54.144811
 20
113.025185
 30
0.0
 11
54.385965
 21
112.125185
 31
0.0
  0
LINE
  5
282
100
AcDbEntity
  8
ALPHA
100
AcDbLine
 10
51.394811
 20
113.025185
 30
0.0
 11
54.144811
 21
113.025185
 31
0.0
  0
ARC
  5
283
100
AcDbEntity
  8
ALPHA
100
AcDbCircle
 10
49.894811
 20
115.025185
 30
0.0
 40
2.5
100
AcDbArc
 50
233.130102
 51
306.869898
  0
LINE
  5
284
100
AcDbEntity
  8
ALPHA
100
AcDbLine
 10
48.044811
 20
113.025185
 30
0.0
 11
48.394811
 21
113.025185
 31
0.0
  0
LINE
  5
285
100
AcDbEntity
  8
ALPHA
100
AcDbLine
 10
47.525195
 20
112.125185
 30
0.0
 11
48.044811
 21
113.025185
 31
0.0
  0
LINE
  5
286
100
AcDbEntity
  8
ALPHA
100
AcDbLine
 10
34.744811
 20
113.293135
 30
0.0
 11
34.744811
 21
112.125185
 31
0.0
  0
LINE
  5
287
100
AcDbEntity
  8
ALPHA
100
AcDbLine
 10
34.744811
 20
113.293135
 30
0.0
 11
33.744811
 21
115.025185
 31
0.0
  0
LINE
  5
288
100
AcDbEntity
  8
ALPHA
100
AcDbLine
 10
33.219811
 20
115.025185
 30
0.0
 11
33.744811
 21
115.025185
 31
0.0
  0
LINE
  5
289
100
AcDbEntity
  8
ALPHA
100
AcDbLine
 10
33.219811
 20
115.025185
 30
0.0
 11
33.219811
 21
113.375185
 31
0.0
  0
ARC
  5
28A
100
AcDbEntity
  8
ALPHA
100
AcDbCircle
 10
32.394811
 20
113.375185
 30
0.0
 40
0.825
100
AcDbArc
 50
180.0
 51
0.0
  0
LINE
  5
28B
100
AcDbEntity
  8
ALPHA
100
AcDbLine
 10
31.569811
 20
115.025185
 30
0.0
 11
31.569811
 21
113.375185
 31
0.0
  0
LINE
  5
28C
100
AcDbEntity
  8
ALPHA
100
AcDbLine
 10
27.644811
 20
115.025185
 30
0.0
 11
31.569811
 21
115.025185
 31
0.0
  0
LINE
  5
28D
100
AcDbEntity
  8
ALPHA
100
AcDbLine
 10
27.644811
 20
115.025185
 30
0.0
 11
27.144811
 21
113.15916
 31
0.0
  0
LINE
  5
28E
100
AcDbEntity
  8
ALPHA
100
AcDbLine
 10
27.144811
 20
113.15916
 30
0.0
 11
27.144811
 21
112.125185
 31
0.0
  0
LINE
  5
28F
100
AcDbEntity
  8
ALPHA
100
AcDbLine
 10
25.994811
 20
109.225185
 30
0.0
 11
25.944811
 21
109.225185
 31
0.0
  0
LINE
  5
290
100
AcDbEntity
  8
ALPHA
100
AcDbLine
 10
25.944811
 20
107.225185
 30
0.0
 11
25.944811
 21
109.225185
 31
0.0
  0
LINE
  5
291
100
AcDbEntity
  8
ALPHA
100
AcDbLine
 10
50.894811
 20
101.742658
 30
0.0
 11
50.894811
 21
101.165251
 31
0.0
  0
LINE
  5
292
100
AcDbEntity
  8
ALPHA
100
AcDbLine
 10
50.894811
 20
102.124684
 30
0.0
 11
50.894811
 21
101.898941
 31
0.0
  0
LINE
  5
293
100
AcDbEntity
  8
ALPHA
100
AcDbLine
 10
50.894811
 20
89.525687
 30
0.0
 11
50.894811
 21
90.485119
 31
0.0
  0
LINE
  5
294
100
AcDbEntity
  8
ALPHA
100
AcDbLine
 10
54.944811
 20
105.592936
 30
0.0
 11
53.706662
 21
105.592936
 31
0.0
  0
LWPOLYLINE
  5
295
100
AcDbEntity
  8
ALPHA
100
AcDbPolyline
 90
       10
 70
     0
 43
0.0
 10
50.894811
 20
90.485119
 10
51.464557
 20
90.429678
 10
52.014306
 20
90.265071
 10
52.524417
 20
89.996502
 10
52.976111
 20
89.63277
 10
53.352132
 20
89.186309
 10
53.637547
 20
88.673073
 10
53.820615
 20
88.112146
 10
53.893609
 20
87.52504
 10
53.89478
 20
87.439181
  0
LINE
  5
2A1
100
AcDbEntity
  8
ALPHA
100
AcDbLine
 10
54.944811
 20
105.31478
 30
0.0
 11
53.802317
 21
105.31478
 31
0.0
  0
LWPOLYLINE
  5
2A2
100
AcDbEntity
  8
ALPHA
100
AcDbPolyline
 90
        8
 70
     0
 43
0.0
 10
53.765016
 20
103.325185
 10
53.557169
 20
102.807505
 10
53.260557
 20
102.338284
 10
52.886001
 20
101.932999
 10
52.446704
 20
101.604508
 10
51.957591
 20
101.362812
 10
51.434755
 20
101.214997
 10
50.894811
 20
101.165251
  0
LINE
  5
2AC
100
AcDbEntity
  8
ALPHA
100
AcDbLine
 10
54.944811
 20
103.625185
 30
0.0
 11
53.748732
 21
103.625185
 31
0.0
  0
LINE
  5
2AD
100
AcDbEntity
  8
ALPHA
100
AcDbLine
 10
55.794811
 20
111.781066
 30
0.0
 11
54.794811
 21
111.781066
 31
0.0
  0
LWPOLYLINE
  5
2AE
100
AcDbEntity
  8
ALPHA
100
AcDbPolyline
 90
        6
 70
     0
 43
0.0
 10
53.748732
 20
103.625185
 10
53.717286
 20
103.529033
 10
53.688798
 20
103.444068
 10
53.667813
 20
103.379141
 10
53.657188
 20
103.338871
 10
53.658067
 20
103.325185
  0
LINE
  5
2B6
100
AcDbEntity
  8
ALPHA
100
AcDbLine
 10
51.063667
 20
101.742658
 30
0.0
 11
50.894811
 21
101.742658
 31
0.0
  0
LINE
  5
2B7
100
AcDbEntity
  8
ALPHA
100
AcDbLine
 10
51.183985
 20
101.742658
 30
0.0
 11
51.063667
 21
101.742658
 31
0.0
  0
LINE
  5
2B8
100
AcDbEntity
  8
ALPHA
100
AcDbLine
 10
50.894811
 20
101.742658
 30
0.0
 11
51.063667
 21
101.738102
 31
0.0
  0
LINE
  5
2B9
100
AcDbEntity
  8
ALPHA
100
AcDbLine
 10
52.636685
 20
102.246478
 30
0.0
 11
52.20248
 21
102.246478
 31
0.0
  0
LINE
  5
2BA
100
AcDbEntity
  8
ALPHA
100
AcDbLine
 10
51.986814
 20
101.898941
 30
0.0
 11
50.894811
 21
101.898941
 31
0.0
  0
LWPOLYLINE
  5
2BB
100
AcDbEntity
  8
ALPHA
100
AcDbPolyline
 90
        5
 70
     0
 43
0.0
 10
52.20248
 20
102.246478
 10
51.930778
 20
102.128768
 10
51.622792
 20
102.024391
 10
51.278257
 20
101.943836
 10
50.894811
 20
101.898941
  0
LINE
  5
2C2
100
AcDbEntity
  8
ALPHA
100
AcDbLine
 10
46.994811
 20
90.485119
 30
0.0
 11
50.894811
 21
90.485119
 31
0.0
  0
LINE
  5
2C3
100
AcDbEntity
  8
ALPHA
100
AcDbLine
 10
47.394811
 20
80.17728
 30
0.0
 11
54.394811
 21
80.17728
 31
0.0
  0
LINE
  5
2C4
100
AcDbEntity
  8
ALPHA
100
AcDbLine
 10
54.694811
 20
80.692413
 30
0.0
 11
54.694811
 21
79.825185
 31
0.0
  0
LINE
  5
2C5
100
AcDbEntity
  8
ALPHA
100
AcDbLine
 10
48.094811
 20
111.473091
 30
0.0
 11
54.394811
 21
111.473091
 31
0.0
  0
LINE
  5
2C6
100
AcDbEntity
  8
ALPHA
100
AcDbLine
 10
54.694811
 20
110.957958
 30
0.0
 11
54.694811
 21
111.825185
 31
0.0
  0
LINE
  5
2C7
100
AcDbEntity
  8
ALPHA
100
AcDbLine
 10
53.867374
 20
104.566292
 30
0.0
 11
53.873889
 21
104.647
 31
0.0
  0
LWPOLYLINE
  5
2C8
100
AcDbEntity
  8
ALPHA
100
AcDbPolyline
 90
        7
 70
     0
 43
0.0
 10
52.20248
 20
102.246478
 10
52.694079
 20
102.54138
 10
53.11944
 20
102.923321
 10
53.462901
 20
103.378241
 10
53.711815
 20
103.889393
 10
53.857014
 20
104.43796
 10
53.867374
 20
104.566292
  0
LWPOLYLINE
  5
2D1
100
AcDbEntity
  8
ALPHA
100
AcDbPolyline
 90
        4
 70
     0
 43
0.0
 10
53.748732
 20
103.625185
 10
53.85008
 20
104.040098
 10
53.893261
 20
104.466275
 10
53.894795
 20
104.564079
  0
LINE
  5
2D7
100
AcDbEntity
  8
ALPHA
100
AcDbLine
 10
55.794811
 20
81.325185
 30
0.0
 11
50.894811
 21
81.325185
 31
0.0
  0
LINE
  5
2D8
100
AcDbEntity
  8
ALPHA
100
AcDbLine
 10
54.394811
 20
110.325185
 30
0.0
 11
50.894811
 21
110.325185
 31
0.0
  0
LINE
  5
2D9
100
AcDbEntity
  8
ALPHA
100
AcDbLine
 10
53.055176
 20
106.325185
 30
0.0
 11
54.944811
 21
106.325185
 31
0.0
  0
LINE
  5
2DA
100
AcDbEntity
  8
ALPHA
100
AcDbLine
 10
55.794811
 20
107.925185
 30
0.0
 11
54.394811
 21
107.925185
 31
0.0
  0
LINE
  5
2DB
100
AcDbEntity
  8
ALPHA
100
AcDbLine
 10
54.394811
 20
110.325185
 30
0.0
 11
54.394811
 21
107.925185
 31
0.0
  0
LINE
  5
2DC
100
AcDbEntity
  8
ALPHA
100
AcDbLine
 10
54.394811
 20
110.325185
 30
0.0
 11
54.794811
 21
110.49869
 31
0.0
  0
LINE
  5
2DD
100
AcDbEntity
  8
ALPHA
100
AcDbLine
 10
46.994811
 20
101.165251
 30
0.0
 11
50.894811
 21
101.165251
 31
0.0
  0
LINE
  5
2DE
100
AcDbEntity
  8
ALPHA
100
AcDbLine
 10
54.394811
 20
107.925185
 30
0.0
 11
54.794811
 21
108.325185
 31
0.0
  0
LINE
  5
2DF
100
AcDbEntity
  8
ALPHA
100
AcDbLine
 10
48.994811
 20
89.525687
 30
0.0
 11
50.894811
 21
89.525687
 31
0.0
  0
LINE
  5
2E0
100
AcDbEntity
  8
ALPHA
100
AcDbLine
 10
48.994811
 20
102.124684
 30
0.0
 11
50.894811
 21
102.124684
 31
0.0
  0
LWPOLYLINE
  5
2E1
100
AcDbEntity
  8
ALPHA
100
AcDbPolyline
 90
        6
 70
     0
 43
0.0
 10
50.894811
 20
107.257811
 10
51.374016
 20
107.218697
 10
51.840824
 20
107.102388
 10
52.284079
 20
106.911484
 10
52.692417
 20
106.650376
 10
53.055176
 20
106.325185
  0
LINE
  5
2E9
100
AcDbEntity
  8
ALPHA
100
AcDbLine
 10
53.843812
 20
104.569177
 30
0.0
 11
53.851856
 21
104.649607
 31
0.0
  0
LWPOLYLINE
  5
2EA
100
AcDbEntity
  8
ALPHA
100
AcDbPolyline
 90
        9
 70
     0
 43
0.0
 10
50.894811
 20
102.124684
 10
51.480082
 20
102.181453
 10
52.042861
 20
102.349576
 10
52.561521
 20
102.622594
 10
53.016131
 20
102.990015
 10
53.389219
 20
103.437718
 10
53.666449
 20
103.948499
 10
53.837166
 20
104.502728
 10
53.843812
 20
104.569177
  0
LINE
  5
2F5
100
AcDbEntity
  8
ALPHA
100
AcDbLine
 10
54.32989
 20
80.692413
 30
0.0
 11
54.394811
 21
80.652444
 31
0.0
  0
LINE
  5
2F6
100
AcDbEntity
  8
ALPHA
100
AcDbLine
 10
50.894811
 20
80.692413
 30
0.0
 11
54.694811
 21
80.692413
 31
0.0
  0
LINE
  5
2F7
100
AcDbEntity
  8
ALPHA
100
AcDbLine
 10
50.894811
 20
110.957958
 30
0.0
 11
54.694811
 21
110.957958
 31
0.0
  0
LINE
  5
2F8
100
AcDbEntity
  8
ALPHA
100
AcDbLine
 10
54.394811
 20
110.997927
 30
0.0
 11
54.32989
 21
110.957958
 31
0.0
  0
LINE
  5
2F9
100
AcDbEntity
  8
ALPHA
100
AcDbLine
 10
48.094811
 20
111.066687
 30
0.0
 11
48.094811
 21
111.473091
 31
0.0
  0
LINE
  5
2FA
100
AcDbEntity
  8
ALPHA
100
AcDbLine
 10
47.394811
 20
111.066687
 30
0.0
 11
48.094811
 21
111.066687
 31
0.0
  0
LINE
  5
2FB
100
AcDbEntity
  8
ALPHA
100
AcDbLine
 10
50.894811
 20
110.325185
 30
0.0
 11
50.894811
 21
110.957958
 31
0.0
  0
LINE
  5
2FC
100
AcDbEntity
  8
ALPHA
100
AcDbLine
 10
50.894811
 20
80.692413
 30
0.0
 11
50.894811
 21
81.325185
 31
0.0
  0
LINE
  5
2FD
100
AcDbEntity
  8
ALPHA
100
AcDbLine
 10
46.994811
 20
90.485119
 30
0.0
 11
46.994811
 21
93.675185
 31
0.0
  0
LINE
  5
2FE
100
AcDbEntity
  8
ALPHA
100
AcDbLine
 10
46.994811
 20
97.975185
 30
0.0
 11
46.994811
 21
101.165251
 31
0.0
  0
LINE
  5
2FF
100
AcDbEntity
  8
ALPHA
100
AcDbLine
 10
54.794811
 20
110.49869
 30
0.0
 11
54.794811
 21
111.781066
 31
0.0
  0
LWPOLYLINE
  5
300
100
AcDbEntity
  8
ALPHA
100
AcDbPolyline
 90
        7
 70
     0
 43
0.0
 10
52.20248
 20
101.986006
 10
52.694079
 20
102.280908
 10
53.11944
 20
102.662849
 10
53.462901
 20
103.117768
 10
53.711815
 20
103.628921
 10
53.857014
 20
104.177487
 10
53.888264
 20
104.564606
  0
LWPOLYLINE
  5
309
100
AcDbEntity
  8
ALPHA
100
AcDbPolyline
 90
        4
 70
     0
 43
0.0
 10
53.706662
 20
105.592936
 10
53.531207
 20
105.865717
 10
53.312105
 20
106.109693
 10
53.055176
 20
106.325185
  0
LINE
  5
30F
100
AcDbEntity
  8
ALPHA
100
AcDbLine
 10
53.658067
 20
103.325185
 30
0.0
 11
53.765016
 21
103.325185
 31
0.0
  0
LINE
  5
310
100
AcDbEntity
  8
ALPHA
100
AcDbLine
 10
54.644811
 20
96.825185
 30
0.0
 11
54.794811
 21
96.825185
 31
0.0
  0
LINE
  5
311
100
AcDbEntity
  8
ALPHA
100
AcDbLine
 10
52.094811
 20
97.825185
 30
0.0
 11
52.094811
 21
97.975185
 31
0.0
  0
LINE
  5
312
100
AcDbEntity
  8
ALPHA
100
AcDbLine
 10
55.794811
 20
108.325185
 30
0.0
 11
54.794811
 21
108.325185
 31
0.0
  0
LINE
  5
313
100
AcDbEntity
  8
ALPHA
100
AcDbLine
 10
55.794811
 20
107.925185
 30
0.0
 11
55.794811
 21
108.325185
 31
0.0
  0
LINE
  5
314
100
AcDbEntity
  8
ALPHA
100
AcDbLine
 10
54.794811
 20
110.49869
 30
0.0
 11
54.794811
 21
108.325185
 31
0.0
  0
LINE
  5
315
100
AcDbEntity
  8
ALPHA
100
AcDbLine
 10
52.094811
 20
93.675185
 30
0.0
 11
52.094811
 21
93.825185
 31
0.0
  0
LINE
  5
316
100
AcDbEntity
  8
ALPHA
100
AcDbLine
 10
54.644811
 20
94.825185
 30
0.0
 11
54.794811
 21
94.825185
 31
0.0
  0
LWPOLYLINE
  5
317
100
AcDbEntity
  8
ALPHA
100
AcDbPolyline
 90
        7
 70
     0
 43
0.0
 10
50.894811
 20
83.775415
 10
51.398292
 20
83.818622
 10
51.887545
 20
83.947037
 10
52.349484
 20
84.157496
 10
52.770977
 20
84.444643
 10
53.139786
 20
84.801
 10
53.444811
 20
85.216968
  0
LWPOLYLINE
  5
320
100
AcDbEntity
  8
ALPHA
100
AcDbPolyline
 90
        5
 70
     0
 43
0.0
 10
53.706662
 20
105.592936
 10
53.727068
 20
105.548754
 10
53.752116
 20
105.48337
 10
53.778261
 20
105.402716
 10
53.802317
 20
105.31478
  0
LINE
  5
327
100
AcDbEntity
  8
ALPHA
100
AcDbLine
 10
54.794811
 20
95.325185
 30
0.0
 11
54.794811
 21
94.725185
 31
0.0
  0
LINE
  5
328
100
AcDbEntity
  8
ALPHA
100
AcDbLine
 10
54.794811
 20
96.925185
 30
0.0
 11
54.794811
 21
96.325185
 31
0.0
  0
LINE
  5
329
100
AcDbEntity
  8
ALPHA
100
AcDbLine
 10
47.144811
 20
79.825185
 30
0.0
 11
54.694811
 21
79.825185
 31
0.0
  0
LINE
  5
32A
100
AcDbEntity
  8
ALPHA
100
AcDbLine
 10
54.394811
 20
80.692413
 30
0.0
 11
54.394811
 21
80.125185
 31
0.0
  0
ARC
  5
32B
100
AcDbEntity
  8
ALPHA
100
AcDbCircle
 10
54.694811
 20
80.125185
 30
0.0
 40
0.3
100
AcDbArc
 50
180.0
 51
270.0
  0
LINE
  5
32C
100
AcDbEntity
  8
ALPHA
100
AcDbLine
 10
48.094811
 20
111.825185
 30
0.0
 11
54.694811
 21
111.825185
 31
0.0
  0
LINE
  5
32D
100
AcDbEntity
  8
ALPHA
100
AcDbLine
 10
54.394811
 20
110.957958
 30
0.0
 11
54.394811
 21
111.525185
 31
0.0
  0
LINE
  5
32E
100
AcDbEntity
  8
ALPHA
100
AcDbLine
 10
55.794811
 20
111.825185
 30
0.0
 11
54.694811
 21
111.825185
 31
0.0
  0
LINE
  5
32F
100
AcDbEntity
  8
ALPHA
100
AcDbLine
 10
50.894811
 20
81.325185
 30
0.0
 11
50.894811
 21
83.775185
 31
0.0
  0
LINE
  5
330
100
AcDbEntity
  8
ALPHA
100
AcDbLine
 10
50.894811
 20
107.257811
 30
0.0
 11
50.894811
 21
110.325185
 31
0.0
  0
LINE
  5
331
100
AcDbEntity
  8
ALPHA
100
AcDbLine
 10
54.944811
 20
106.325185
 30
0.0
 11
54.944811
 21
103.325185
 31
0.0
  0
LINE
  5
332
100
AcDbEntity
  8
ALPHA
100
AcDbLine
 10
53.765016
 20
103.325185
 30
0.0
 11
54.944811
 21
103.325185
 31
0.0
  0
LINE
  5
333
100
AcDbEntity
  8
ALPHA
100
AcDbLine
 10
46.994811
 20
97.975185
 30
0.0
 11
54.794811
 21
97.975185
 31
0.0
  0
LINE
  5
334
100
AcDbEntity
  8
ALPHA
100
AcDbLine
 10
54.794811
 20
96.925185
 30
0.0
 11
54.794811
 21
97.975185
 31
0.0
  0
LINE
  5
335
100
AcDbEntity
  8
ALPHA
100
AcDbLine
 10
54.994811
 20
96.925185
 30
0.0
 11
54.794811
 21
96.925185
 31
0.0
  0
LINE
  5
336
100
AcDbEntity
  8
ALPHA
100
AcDbLine
 10
54.994811
 20
96.925185
 30
0.0
 11
54.994811
 21
96.325185
 31
0.0
  0
LINE
  5
337
100
AcDbEntity
  8
ALPHA
100
AcDbLine
 10
54.994811
 20
96.325185
 30
0.0
 11
54.794811
 21
96.325185
 31
0.0
  0
LINE
  5
338
100
AcDbEntity
  8
ALPHA
100
AcDbLine
 10
54.794811
 20
95.325185
 30
0.0
 11
54.794811
 21
96.325185
 31
0.0
  0
LINE
  5
339
100
AcDbEntity
  8
ALPHA
100
AcDbLine
 10
54.994811
 20
95.325185
 30
0.0
 11
54.794811
 21
95.325185
 31
0.0
  0
LINE
  5
33A
100
AcDbEntity
  8
ALPHA
100
AcDbLine
 10
54.994811
 20
95.325185
 30
0.0
 11
54.994811
 21
94.725185
 31
0.0
  0
LINE
  5
33B
100
AcDbEntity
  8
ALPHA
100
AcDbLine
 10
54.994811
 20
94.725185
 30
0.0
 11
54.794811
 21
94.725185
 31
0.0
  0
LINE
  5
33C
100
AcDbEntity
  8
ALPHA
100
AcDbLine
 10
54.794811
 20
93.675185
 30
0.0
 11
54.794811
 21
94.725185
 31
0.0
  0
LINE
  5
33D
100
AcDbEntity
  8
ALPHA
100
AcDbLine
 10
46.994811
 20
93.675185
 30
0.0
 11
54.794811
 21
93.675185
 31
0.0
  0
LINE
  5
33E
100
AcDbEntity
  8
ALPHA
100
AcDbLine
 10
53.444811
 20
85.834112
 30
0.0
 11
53.444811
 21
83.775185
 31
0.0
  0
LINE
  5
33F
100
AcDbEntity
  8
ALPHA
100
AcDbLine
 10
50.894811
 20
83.775185
 30
0.0
 11
53.444811
 21
83.775185
 31
0.0
  0
LWPOLYLINE
  5
340
100
AcDbEntity
  8
ALPHA
100
AcDbPolyline
 90
        3
 70
     0
 43
0.0
 10
53.894795
 20
104.564079
 10
53.877153
 20
104.894209
 10
53.802317
 20
105.31478
  0
LWPOLYLINE
  5
345
100
AcDbEntity
  8
ALPHA
100
AcDbPolyline
 90
        4
 70
     0
 43
0.0
 10
53.89478
 20
87.439181
 10
53.853389
 20
86.934369
 10
53.701635
 20
86.36338
 10
53.444811
 20
85.834112
  0
LWPOLYLINE
  5
34B
100
AcDbEntity
  8
ALPHA
100
AcDbPolyline
 90
        9
 70
     0
 43
0.0
 10
53.85569
 20
86.962432
 10
53.837166
 20
87.147643
 10
53.666449
 20
87.701872
 10
53.389219
 20
88.212653
 10
53.016131
 20
88.660356
 10
52.561521
 20
89.027776
 10
52.042861
 20
89.300795
 10
51.480082
 20
89.468918
 10
50.894811
 20
89.525687
  0
LINE
  5
356
100
AcDbEntity
  8
ALPHA
100
AcDbLine
 10
55.794811
 20
79.825185
 30
0.0
 11
54.694811
 21
79.825185
 31
0.0
  0
LINE
  5
357
100
AcDbEntity
  8
ALPHA
100
AcDbLine
 10
55.794811
 20
111.781066
 30
0.0
 11
55.794811
 21
111.825185
 31
0.0
  0
LINE
  5
358
100
AcDbEntity
  8
ALPHA
100
AcDbLine
 10
55.794811
 20
111.781066
 30
0.0
 11
55.794811
 21
108.325185
 31
0.0
  0
LINE
  5
359
100
AcDbEntity
  8
ALPHA
100
AcDbLine
 10
55.794811
 20
81.325185
 30
0.0
 11
55.794811
 21
107.925185
 31
0.0
  0
LINE
  5
35A
100
AcDbEntity
  8
ALPHA
100
AcDbLine
 10
55.794811
 20
79.825185
 30
0.0
 11
55.794811
 21
81.325185
 31
0.0
  0
LWPOLYLINE
  5
35B
100
AcDbEntity
  8
ALPHA
100
AcDbPolyline
 90
        5
 70
     0
 43
0.0
 10
51.063667
 20
101.738102
 10
51.278257
 20
101.746228
 10
51.622792
 20
101.793816
 10
51.930778
 20
101.87632
 10
52.20248
 20
101.986006
  0
LINE
  5
362
100
AcDbEntity
  8
ALPHA
100
AcDbLine
 10
54.694811
 20
79.825185
 30
0.0
 11
47.144811
 21
79.825185
 31
0.0
  0
LINE
  5
363
100
AcDbEntity
  8
ALPHA
100
AcDbLine
 10
48.094811
 20
111.825185
 30
0.0
 11
54.694811
 21
111.825185
 31
0.0
  0
LINE
  5
364
100
AcDbEntity
  8
ALPHA
100
AcDbLine
 10
48.094811
 20
111.825185
 30
0.0
 11
48.094811
 21
111.473091
 31
0.0
  0
LINE
  5
365
100
AcDbEntity
  8
ALPHA
100
AcDbLine
 10
54.394811
 20
110.957958
 30
0.0
 11
54.394811
 21
111.525185
 31
0.0
  0
ARC
  5
366
100
AcDbEntity
  8
ALPHA
100
AcDbCircle
 10
54.694811
 20
111.525185
 30
0.0
 40
0.3
100
AcDbArc
 50
90.0
 51
180.0
  0
LINE
  5
367
100
AcDbEntity
  8
ALPHA
100
AcDbLine
 10
30.894811
 20
101.742658
 30
0.0
 11
30.894811
 21
101.165251
 31
0.0
  0
LINE
  5
368
100
AcDbEntity
  8
ALPHA
100
AcDbLine
 10
30.894811
 20
102.124684
 30
0.0
 11
30.894811
 21
101.898941
 31
0.0
  0
LINE
  5
369
100
AcDbEntity
  8
ALPHA
100
AcDbLine
 10
30.894811
 20
89.525687
 30
0.0
 11
30.894811
 21
90.485119
 31
0.0
  0
LINE
  5
36A
100
AcDbEntity
  8
ALPHA
100
AcDbLine
 10
34.944811
 20
105.592936
 30
0.0
 11
33.706662
 21
105.592936
 31
0.0
  0
LWPOLYLINE
  5
36B
100
AcDbEntity
  8
ALPHA
100
AcDbPolyline
 90
       10
 70
     0
 43
0.0
 10
30.894811
 20
90.485119
 10
31.464557
 20
90.429678
 10
32.014306
 20
90.265071
 10
32.524417
 20
89.996502
 10
32.976111
 20
89.63277
 10
33.352132
 20
89.186309
 10
33.637547
 20
88.673073
 10
33.820615
 20
88.112146
 10
33.893609
 20
87.52504
 10
33.89478
 20
87.439181
  0
LINE
  5
377
100
AcDbEntity
  8
ALPHA
100
AcDbLine
 10
34.944811
 20
105.31478
 30
0.0
 11
33.802317
 21
105.31478
 31
0.0
  0
LWPOLYLINE
  5
378
100
AcDbEntity
  8
ALPHA
100
AcDbPolyline
 90
        8
 70
     0
 43
0.0
 10
33.765016
 20
103.325185
 10
33.557169
 20
102.807505
 10
33.260557
 20
102.338284
 10
32.886001
 20
101.932999
 10
32.446704
 20
101.604508
 10
31.957591
 20
101.362812
 10
31.434755
 20
101.214997
 10
30.894811
 20
101.165251
  0
LINE
  5
382
100
AcDbEntity
  8
ALPHA
100
AcDbLine
 10
34.944811
 20
103.625185
 30
0.0
 11
33.748732
 21
103.625185
 31
0.0
  0
LINE
  5
383
100
AcDbEntity
  8
ALPHA
100
AcDbLine
 10
35.794811
 20
111.781066
 30
0.0
 11
34.794811
 21
111.781066
 31
0.0
  0
LWPOLYLINE
  5
384
100
AcDbEntity
  8
ALPHA
100
AcDbPolyline
 90
        6
 70
     0
 43
0.0
 10
33.748732
 20
103.625185
 10
33.717286
 20
103.529033
 10
33.688798
 20
103.444068
 10
33.667813
 20
103.379141
 10
33.657188
 20
103.338871
 10
33.658067
 20
103.325185
  0
LINE
  5
38C
100
AcDbEntity
  8
ALPHA
100
AcDbLine
 10
31.063667
 20
101.742658
 30
0.0
 11
30.894811
 21
101.742658
 31
0.0
  0
LINE
  5
38D
100
AcDbEntity
  8
ALPHA
100
AcDbLine
 10
31.183985
 20
101.742658
 30
0.0
 11
31.063667
 21
101.742658
 31
0.0
  0
LINE
  5
38E
100
AcDbEntity
  8
ALPHA
100
AcDbLine
 10
30.894811
 20
101.742658
 30
0.0
 11
31.063667
 21
101.738102
 31
0.0
  0
LINE
  5
38F
100
AcDbEntity
  8
ALPHA
100
AcDbLine
 10
32.636685
 20
102.246478
 30
0.0
 11
32.20248
 21
102.246478
 31
0.0
  0
LINE
  5
390
100
AcDbEntity
  8
ALPHA
100
AcDbLine
 10
31.986814
 20
101.898941
 30
0.0
 11
30.894811
 21
101.898941
 31
0.0
  0
LWPOLYLINE
  5
391
100
AcDbEntity
  8
ALPHA
100
AcDbPolyline
 90
        5
 70
     0
 43
0.0
 10
32.20248
 20
102.246478
 10
31.930778
 20
102.128768
 10
31.622792
 20
102.024391
 10
31.278257
 20
101.943836
 10
30.894811
 20
101.898941
  0
LINE
  5
398
100
AcDbEntity
  8
ALPHA
100
AcDbLine
 10
26.994811
 20
90.485119
 30
0.0
 11
30.894811
 21
90.485119
 31
0.0
  0
LINE
  5
399
100
AcDbEntity
  8
ALPHA
100
AcDbLine
 10
27.394811
 20
80.17728
 30
0.0
 11
34.394811
 21
80.17728
 31
0.0
  0
LINE
  5
39A
100
AcDbEntity
  8
ALPHA
100
AcDbLine
 10
34.694811
 20
80.692413
 30
0.0
 11
34.694811
 21
79.825185
 31
0.0
  0
LINE
  5
39B
100
AcDbEntity
  8
ALPHA
100
AcDbLine
 10
28.094811
 20
111.473091
 30
0.0
 11
34.394811
 21
111.473091
 31
0.0
  0
LINE
  5
39C
100
AcDbEntity
  8
ALPHA
100
AcDbLine
 10
34.694811
 20
110.957958
 30
0.0
 11
34.694811
 21
111.825185
 31
0.0
  0
LINE
  5
39D
100
AcDbEntity
  8
ALPHA
100
AcDbLine
 10
33.867374
 20
104.566292
 30
0.0
 11
33.873889
 21
104.647
 31
0.0
  0
LWPOLYLINE
  5
39E
100
AcDbEntity
  8
ALPHA
100
AcDbPolyline
 90
        7
 70
     0
 43
0.0
 10
32.20248
 20
102.246478
 10
32.694079
 20
102.54138
 10
33.11944
 20
102.923321
 10
33.462901
 20
103.378241
 10
33.711815
 20
103.889393
 10
33.857014
 20
104.43796
 10
33.867374
 20
104.566292
  0
LWPOLYLINE
  5
3A7
100
AcDbEntity
  8
ALPHA
100
AcDbPolyline
 90
        4
 70
     0
 43
0.0
 10
33.748732
 20
103.625185
 10
33.85008
 20
104.040098
 10
33.893261
 20
104.466275
 10
33.894795
 20
104.564079
  0
LINE
  5
3AD
100
AcDbEntity
  8
ALPHA
100
AcDbLine
 10
35.794811
 20
81.325185
 30
0.0
 11
30.894811
 21
81.325185
 31
0.0
  0
LINE
  5
3AE
100
AcDbEntity
  8
ALPHA
100
AcDbLine
 10
34.394811
 20
110.325185
 30
0.0
 11
30.894811
 21
110.325185
 31
0.0
  0
LINE
  5
3AF
100
AcDbEntity
  8
ALPHA
100
AcDbLine
 10
33.055176
 20
106.325185
 30
0.0
 11
34.944811
 21
106.325185
 31
0.0
  0
LINE
  5
3B0
100
AcDbEntity
  8
ALPHA
100
AcDbLine
 10
35.794811
 20
107.925185
 30
0.0
 11
34.394811
 21
107.925185
 31
0.0
  0
LINE
  5
3B1
100
AcDbEntity
  8
ALPHA
100
AcDbLine
 10
34.394811
 20
110.325185
 30
0.0
 11
34.394811
 21
107.925185
 31
0.0
  0
LINE
  5
3B2
100
AcDbEntity
  8
ALPHA
100
AcDbLine
 10
34.394811
 20
110.325185
 30
0.0
 11
34.794811
 21
110.49869
 31
0.0
  0
LINE
  5
3B3
100
AcDbEntity
  8
ALPHA
100
AcDbLine
 10
26.994811
 20
101.165251
 30
0.0
 11
30.894811
 21
101.165251
 31
0.0
  0
LINE
  5
3B4
100
AcDbEntity
  8
ALPHA
100
AcDbLine
 10
34.394811
 20
107.925185
 30
0.0
 11
34.794811
 21
108.325185
 31
0.0
  0
LINE
  5
3B5
100
AcDbEntity
  8
ALPHA
100
AcDbLine
 10
28.994811
 20
89.525687
 30
0.0
 11
30.894811
 21
89.525687
 31
0.0
  0
LINE
  5
3B6
100
AcDbEntity
  8
ALPHA
100
AcDbLine
 10
28.994811
 20
102.124684
 30
0.0
 11
30.894811
 21
102.124684
 31
0.0
  0
LWPOLYLINE
  5
3B7
100
AcDbEntity
  8
ALPHA
100
AcDbPolyline
 90
        6
 70
     0
 43
0.0
 10
30.894811
 20
107.257811
 10
31.374016
 20
107.218697
 10
31.840824
 20
107.102388
 10
32.284079
 20
106.911484
 10
32.692417
 20
106.650376
 10
33.055176
 20
106.325185
  0
LINE
  5
3BF
100
AcDbEntity
  8
ALPHA
100
AcDbLine
 10
33.843812
 20
104.569177
 30
0.0
 11
33.851856
 21
104.649607
 31
0.0
  0
LWPOLYLINE
  5
3C0
100
AcDbEntity
  8
ALPHA
100
AcDbPolyline
 90
        9
 70
     0
 43
0.0
 10
30.894811
 20
102.124684
 10
31.480082
 20
102.181453
 10
32.042861
 20
102.349576
 10
32.561521
 20
102.622594
 10
33.016131
 20
102.990015
 10
33.389219
 20
103.437718
 10
33.666449
 20
103.948499
 10
33.837166
 20
104.502728
 10
33.843812
 20
104.569177
  0
LINE
  5
3CB
100
AcDbEntity
  8
ALPHA
100
AcDbLine
 10
34.32989
 20
80.692413
 30
0.0
 11
34.394811
 21
80.652444
 31
0.0
  0
LINE
  5
3CC
100
AcDbEntity
  8
ALPHA
100
AcDbLine
 10
30.894811
 20
80.692413
 30
0.0
 11
34.694811
 21
80.692413
 31
0.0
  0
LINE
  5
3CD
100
AcDbEntity
  8
ALPHA
100
AcDbLine
 10
30.894811
 20
110.957958
 30
0.0
 11
34.694811
 21
110.957958
 31
0.0
  0
LINE
  5
3CE
100
AcDbEntity
  8
ALPHA
100
AcDbLine
 10
34.394811
 20
110.997927
 30
0.0
 11
34.32989
 21
110.957958
 31
0.0
  0
LINE
  5
3CF
100
AcDbEntity
  8
ALPHA
100
AcDbLine
 10
28.094811
 20
111.066687
 30
0.0
 11
28.094811
 21
111.473091
 31
0.0
  0
LINE
  5
3D0
100
AcDbEntity
  8
ALPHA
100
AcDbLine
 10
27.394811
 20
111.066687
 30
0.0
 11
28.094811
 21
111.066687
 31
0.0
  0
LINE
  5
3D1
100
AcDbEntity
  8
ALPHA
100
AcDbLine
 10
30.894811
 20
110.325185
 30
0.0
 11
30.894811
 21
110.957958
 31
0.0
  0
LINE
  5
3D2
100
AcDbEntity
  8
ALPHA
100
AcDbLine
 10
30.894811
 20
80.692413
 30
0.0
 11
30.894811
 21
81.325185
 31
0.0
  0
LINE
  5
3D3
100
AcDbEntity
  8
ALPHA
100
AcDbLine
 10
26.994811
 20
90.485119
 30
0.0
 11
26.994811
 21
93.675185
 31
0.0
  0
LINE
  5
3D4
100
AcDbEntity
  8
ALPHA
100
AcDbLine
 10
26.994811
 20
97.975185
 30
0.0
 11
26.994811
 21
101.165251
 31
0.0
  0
LINE
  5
3D5
100
AcDbEntity
  8
ALPHA
100
AcDbLine
 10
34.794811
 20
110.49869
 30
0.0
 11
34.794811
 21
111.781066
 31
0.0
  0
LWPOLYLINE
  5
3D6
100
AcDbEntity
  8
ALPHA
100
AcDbPolyline
 90
        7
 70
     0
 43
0.0
 10
32.20248
 20
101.986006
 10
32.694079
 20
102.280908
 10
33.11944
 20
102.662849
 10
33.462901
 20
103.117768
 10
33.711815
 20
103.628921
 10
33.857014
 20
104.177487
 10
33.888264
 20
104.564606
  0
LWPOLYLINE
  5
3DF
100
AcDbEntity
  8
ALPHA
100
AcDbPolyline
 90
        4
 70
     0
 43
0.0
 10
33.706662
 20
105.592936
 10
33.531207
 20
105.865717
 10
33.312105
 20
106.109693
 10
33.055176
 20
106.325185
  0
LINE
  5
3E5
100
AcDbEntity
  8
ALPHA
100
AcDbLine
 10
33.658067
 20
103.325185
 30
0.0
 11
33.765016
 21
103.325185
 31
0.0
  0
LINE
  5
3E6
100
AcDbEntity
  8
ALPHA
100
AcDbLine
 10
34.644811
 20
96.825185
 30
0.0
 11
34.794811
 21
96.825185
 31
0.0
  0
LINE
  5
3E7
100
AcDbEntity
  8
ALPHA
100
AcDbLine
 10
32.094811
 20
97.825185
 30
0.0
 11
32.094811
 21
97.975185
 31
0.0
  0
LINE
  5
3E8
100
AcDbEntity
  8
ALPHA
100
AcDbLine
 10
35.794811
 20
108.325185
 30
0.0
 11
34.794811
 21
108.325185
 31
0.0
  0
LINE
  5
3E9
100
AcDbEntity
  8
ALPHA
100
AcDbLine
 10
35.794811
 20
107.925185
 30
0.0
 11
35.794811
 21
108.325185
 31
0.0
  0
LINE
  5
3EA
100
AcDbEntity
  8
ALPHA
100
AcDbLine
 10
34.794811
 20
110.49869
 30
0.0
 11
34.794811
 21
108.325185
 31
0.0
  0
LINE
  5
3EB
100
AcDbEntity
  8
ALPHA
100
AcDbLine
 10
32.094811
 20
93.675185
 30
0.0
 11
32.094811
 21
93.825185
 31
0.0
  0
LINE
  5
3EC
100
AcDbEntity
  8
ALPHA
100
AcDbLine
 10
34.644811
 20
94.825185
 30
0.0
 11
34.794811
 21
94.825185
 31
0.0
  0
LWPOLYLINE
  5
3ED
100
AcDbEntity
  8
ALPHA
100
AcDbPolyline
 90
        7
 70
     0
 43
0.0
 10
30.894811
 20
83.775415
 10
31.398292
 20
83.818622
 10
31.887545
 20
83.947037
 10
32.349484
 20
84.157496
 10
32.770977
 20
84.444643
 10
33.139786
 20
84.801
 10
33.444811
 20
85.216968
  0
LWPOLYLINE
  5
3F6
100
AcDbEntity
  8
ALPHA
100
AcDbPolyline
 90
        5
 70
     0
 43
0.0
 10
33.706662
 20
105.592936
 10
33.727068
 20
105.548754
 10
33.752116
 20
105.48337
 10
33.778261
 20
105.402716
 10
33.802317
 20
105.31478
  0
LINE
  5
3FD
100
AcDbEntity
  8
ALPHA
100
AcDbLine
 10
34.794811
 20
95.325185
 30
0.0
 11
34.794811
 21
94.725185
 31
0.0
  0
LINE
  5
3FE
100
AcDbEntity
  8
ALPHA
100
AcDbLine
 10
34.794811
 20
96.925185
 30
0.0
 11
34.794811
 21
96.325185
 31
0.0
  0
LINE
  5
3FF
100
AcDbEntity
  8
ALPHA
100
AcDbLine
 10
27.144811
 20
79.825185
 30
0.0
 11
34.694811
 21
79.825185
 31
0.0
  0
LINE
  5
400
100
AcDbEntity
  8
ALPHA
100
AcDbLine
 10
34.394811
 20
80.692413
 30
0.0
 11
34.394811
 21
80.125185
 31
0.0
  0
ARC
  5
401
100
AcDbEntity
  8
ALPHA
100
AcDbCircle
 10
34.694811
 20
80.125185
 30
0.0
 40
0.3
100
AcDbArc
 50
180.0
 51
270.0
  0
LINE
  5
402
100
AcDbEntity
  8
ALPHA
100
AcDbLine
 10
28.094811
 20
111.825185
 30
0.0
 11
34.694811
 21
111.825185
 31
0.0
  0
LINE
  5
403
100
AcDbEntity
  8
ALPHA
100
AcDbLine
 10
34.394811
 20
110.957958
 30
0.0
 11
34.394811
 21
111.525185
 31
0.0
  0
LINE
  5
404
100
AcDbEntity
  8
ALPHA
100
AcDbLine
 10
35.794811
 20
111.825185
 30
0.0
 11
34.694811
 21
111.825185
 31
0.0
  0
LINE
  5
405
100
AcDbEntity
  8
ALPHA
100
AcDbLine
 10
30.894811
 20
81.325185
 30
0.0
 11
30.894811
 21
83.775185
 31
0.0
  0
LINE
  5
406
100
AcDbEntity
  8
ALPHA
100
AcDbLine
 10
30.894811
 20
107.257811
 30
0.0
 11
30.894811
 21
110.325185
 31
0.0
  0
LINE
  5
407
100
AcDbEntity
  8
ALPHA
100
AcDbLine
 10
34.944811
 20
106.325185
 30
0.0
 11
34.944811
 21
103.325185
 31
0.0
  0
LINE
  5
408
100
AcDbEntity
  8
ALPHA
100
AcDbLine
 10
33.765016
 20
103.325185
 30
0.0
 11
34.944811
 21
103.325185
 31
0.0
  0
LINE
  5
409
100
AcDbEntity
  8
ALPHA
100
AcDbLine
 10
26.994811
 20
97.975185
 30
0.0
 11
34.794811
 21
97.975185
 31
0.0
  0
LINE
  5
40A
100
AcDbEntity
  8
ALPHA
100
AcDbLine
 10
34.794811
 20
96.925185
 30
0.0
 11
34.794811
 21
97.975185
 31
0.0
  0
LINE
  5
40B
100
AcDbEntity
  8
ALPHA
100
AcDbLine
 10
34.994811
 20
96.925185
 30
0.0
 11
34.794811
 21
96.925185
 31
0.0
  0
LINE
  5
40C
100
AcDbEntity
  8
ALPHA
100
AcDbLine
 10
34.994811
 20
96.925185
 30
0.0
 11
34.994811
 21
96.325185
 31
0.0
  0
LINE
  5
40D
100
AcDbEntity
  8
ALPHA
100
AcDbLine
 10
34.994811
 20
96.325185
 30
0.0
 11
34.794811
 21
96.325185
 31
0.0
  0
LINE
  5
40E
100
AcDbEntity
  8
ALPHA
100
AcDbLine
 10
34.794811
 20
95.325185
 30
0.0
 11
34.794811
 21
96.325185
 31
0.0
  0
LINE
  5
40F
100
AcDbEntity
  8
ALPHA
100
AcDbLine
 10
34.994811
 20
95.325185
 30
0.0
 11
34.794811
 21
95.325185
 31
0.0
  0
LINE
  5
410
100
AcDbEntity
  8
ALPHA
100
AcDbLine
 10
34.994811
 20
95.325185
 30
0.0
 11
34.994811
 21
94.725185
 31
0.0
  0
LINE
  5
411
100
AcDbEntity
  8
ALPHA
100
AcDbLine
 10
34.994811
 20
94.725185
 30
0.0
 11
34.794811
 21
94.725185
 31
0.0
  0
LINE
  5
412
100
AcDbEntity
  8
ALPHA
100
AcDbLine
 10
34.794811
 20
93.675185
 30
0.0
 11
34.794811
 21
94.725185
 31
0.0
  0
LINE
  5
413
100
AcDbEntity
  8
ALPHA
100
AcDbLine
 10
26.994811
 20
93.675185
 30
0.0
 11
34.794811
 21
93.675185
 31
0.0
  0
LINE
  5
414
100
AcDbEntity
  8
ALPHA
100
AcDbLine
 10
33.444811
 20
85.834112
 30
0.0
 11
33.444811
 21
83.775185
 31
0.0
  0
LINE
  5
415
100
AcDbEntity
  8
ALPHA
100
AcDbLine
 10
30.894811
 20
83.775185
 30
0.0
 11
33.444811
 21
83.775185
 31
0.0
  0
LWPOLYLINE
  5
416
100
AcDbEntity
  8
ALPHA
100
AcDbPolyline
 90
        3
 70
     0
 43
0.0
 10
33.894795
 20
104.564079
 10
33.877153
 20
104.894209
 10
33.802317
 20
105.31478
  0
LWPOLYLINE
  5
41B
100
AcDbEntity
  8
ALPHA
100
AcDbPolyline
 90
        4
 70
     0
 43
0.0
 10
33.89478
 20
87.439181
 10
33.853389
 20
86.934369
 10
33.701635
 20
86.36338
 10
33.444811
 20
85.834112
  0
LWPOLYLINE
  5
421
100
AcDbEntity
  8
ALPHA
100
AcDbPolyline
 90
        9
 70
     0
 43
0.0
 10
33.85569
 20
86.962432
 10
33.837166
 20
87.147643
 10
33.666449
 20
87.701872
 10
33.389219
 20
88.212653
 10
33.016131
 20
88.660356
 10
32.561521
 20
89.027776
 10
32.042861
 20
89.300795
 10
31.480082
 20
89.468918
 10
30.894811
 20
89.525687
  0
LINE
  5
42C
100
AcDbEntity
  8
ALPHA
100
AcDbLine
 10
35.794811
 20
79.825185
 30
0.0
 11
34.694811
 21
79.825185
 31
0.0
  0
LINE
  5
42D
100
AcDbEntity
  8
ALPHA
100
AcDbLine
 10
35.794811
 20
111.781066
 30
0.0
 11
35.794811
 21
111.825185
 31
0.0
  0
LINE
  5
42E
100
AcDbEntity
  8
ALPHA
100
AcDbLine
 10
35.794811
 20
111.781066
 30
0.0
 11
35.794811
 21
108.325185
 31
0.0
  0
LINE
  5
42F
100
AcDbEntity
  8
ALPHA
100
AcDbLine
 10
35.794811
 20
81.325185
 30
0.0
 11
35.794811
 21
107.925185
 31
0.0
  0
LINE
  5
430
100
AcDbEntity
  8
ALPHA
100
AcDbLine
 10
35.794811
 20
79.825185
 30
0.0
 11
35.794811
 21
81.325185
 31
0.0
  0
LWPOLYLINE
  5
431
100
AcDbEntity
  8
ALPHA
100
AcDbPolyline
 90
        5
 70
     0
 43
0.0
 10
31.063667
 20
101.738102
 10
31.278257
 20
101.746228
 10
31.622792
 20
101.793816
 10
31.930778
 20
101.87632
 10
32.20248
 20
101.986006
  0
LINE
  5
438
100
AcDbEntity
  8
ALPHA
100
AcDbLine
 10
34.694811
 20
79.825185
 30
0.0
 11
27.144811
 21
79.825185
 31
0.0
  0
LINE
  5
439
100
AcDbEntity
  8
ALPHA
100
AcDbLine
 10
28.094811
 20
111.825185
 30
0.0
 11
34.694811
 21
111.825185
 31
0.0
  0
LINE
  5
43A
100
AcDbEntity
  8
ALPHA
100
AcDbLine
 10
28.094811
 20
111.825185
 30
0.0
 11
28.094811
 21
111.473091
 31
0.0
  0
LINE
  5
43B
100
AcDbEntity
  8
ALPHA
100
AcDbLine
 10
34.394811
 20
110.957958
 30
0.0
 11
34.394811
 21
111.525185
 31
0.0
  0
ARC
  5
43C
100
AcDbEntity
  8
ALPHA
100
AcDbCircle
 10
34.694811
 20
111.525185
 30
0.0
 40
0.3
100
AcDbArc
 50
90.0
 51
180.0
  0
LINE
  5
43D
100
AcDbEntity
  8
ALPHA
100
AcDbLine
 10
47.894811
 20
119.025185
 30
0.0
 11
47.894811
 21
115.539287
 31
0.0
  0
LINE
  5
43E
100
AcDbEntity
  8
ALPHA
100
AcDbLine
 10
53.894811
 20
119.025185
 30
0.0
 11
53.894811
 21
118.325185
 31
0.0
  0
ARC
  5
43F
100
AcDbEntity
  8
ALPHA
100
AcDbCircle
 10
48.394811
 20
119.025185
 30
0.0
 40
0.5
100
AcDbArc
 50
90.0
 51
180.0
  0
ARC
  5
440
100
AcDbEntity
  8
ALPHA
100
AcDbCircle
 10
53.394811
 20
119.025185
 30
0.0
 40
0.5
100
AcDbArc
 50
0.0
 51
90.0
  0
ARC
  5
441
100
AcDbEntity
  8
ALPHA
100
AcDbCircle
 10
53.394811
 20
118.325185
 30
0.0
 40
0.5
100
AcDbArc
 50
270.0
 51
0.0
  0
ARC
  5
442
100
AcDbEntity
  8
ALPHA
100
AcDbCircle
 10
50.259645
 20
117.525185
 30
0.0
 40
0.3
100
AcDbArc
 50
90.0
 51
172.874984
  0
LINE
  5
443
100
AcDbEntity
  8
ALPHA
100
AcDbLine
 10
49.494811
 20
112.568251
 30
0.0
 11
49.494811
 21
113.825185
 31
0.0
  0
LINE
  5
444
100
AcDbEntity
  8
ALPHA
100
AcDbLine
 10
49.494811
 20
113.825185
 30
0.0
 11
49.961962
 21
117.562396
 31
0.0
  0
LINE
  5
445
100
AcDbEntity
  8
ALPHA
100
AcDbLine
 10
53.394811
 20
117.825185
 30
0.0
 11
50.259645
 21
117.825185
 31
0.0
  0
LINE
  5
446
100
AcDbEntity
  8
ALPHA
100
AcDbLine
 10
48.394811
 20
119.525185
 30
0.0
 11
53.394811
 21
119.525185
 31
0.0
  0
LINE
  5
447
100
AcDbEntity
  8
ALPHA
100
AcDbLine
 10
46.623577
 20
113.337445
 30
0.0
 11
47.894811
 21
115.539287
 31
0.0
  0
LINE
  5
448
100
AcDbEntity
  8
ALPHA
100
AcDbLine
 10
46.616498
 20
113.325185
 30
0.0
 11
46.623577
 21
113.337445
 31
0.0
  0
LWPOLYLINE
  5
449
100
AcDbEntity
  8
ALPHA
100
AcDbPolyline
 90
        3
 70
     0
 43
0.0
 10
27.894816
 20
104.452939
 10
27.951897
 20
103.861655
 10
28.108025
 20
103.325185
  0
LINE
  5
44E
100
AcDbEntity
  8
ALPHA
100
AcDbLine
 10
27.394811
 20
111.225185
 30
0.0
 11
27.994811
 21
111.225185
 31
0.0
  0
LINE
  5
44F
100
AcDbEntity
  8
ALPHA
100
AcDbLine
 10
25.994811
 20
111.781066
 30
0.0
 11
26.994811
 21
111.781066
 31
0.0
  0
LINE
  5
450
100
AcDbEntity
  8
ALPHA
100
AcDbLine
 10
26.844811
 20
105.517133
 30
0.0
 11
28.083766
 21
105.517133
 31
0.0
  0
LINE
  5
451
100
AcDbEntity
  8
ALPHA
100
AcDbLine
 10
25.994811
 20
107.925185
 30
0.0
 11
27.394811
 21
107.925185
 31
0.0
  0
LINE
  5
452
100
AcDbEntity
  8
ALPHA
100
AcDbLine
 10
27.394811
 20
110.325185
 30
0.0
 11
27.394811
 21
107.925185
 31
0.0
  0
LINE
  5
453
100
AcDbEntity
  8
ALPHA
100
AcDbLine
 10
27.394811
 20
107.925185
 30
0.0
 11
26.994811
 21
108.325185
 31
0.0
  0
LINE
  5
454
100
AcDbEntity
  8
ALPHA
100
AcDbLine
 10
27.144811
 20
111.825185
 30
0.0
 11
27.144811
 21
110.957958
 31
0.0
  0
LINE
  5
455
100
AcDbEntity
  8
ALPHA
100
AcDbLine
 10
27.394811
 20
110.325185
 30
0.0
 11
26.994811
 21
110.49869
 31
0.0
  0
LWPOLYLINE
  5
456
100
AcDbEntity
  8
ALPHA
100
AcDbPolyline
 90
        6
 70
     0
 43
0.0
 10
28.994811
 20
89.907378
 10
28.611729
 20
89.526108
 10
28.300928
 20
89.080417
 10
28.073044
 20
88.584284
 10
27.936177
 20
88.054061
 10
27.894816
 20
87.549751
  0
LWPOLYLINE
  5
45E
100
AcDbEntity
  8
ALPHA
100
AcDbPolyline
 90
        5
 70
     0
 43
0.0
 10
27.92428
 20
104.458035
 10
28.004306
 20
103.99527
 10
28.22783
 20
103.433291
 10
28.562655
 20
102.927772
 10
28.994811
 20
102.499812
  0
LINE
  5
465
100
AcDbEntity
  8
ALPHA
100
AcDbLine
 10
27.912119
 20
104.528357
 30
0.0
 11
27.92428
 21
104.458035
 31
0.0
  0
LINE
  5
466
100
AcDbEntity
  8
ALPHA
100
AcDbLine
 10
27.90484
 20
104.57045
 30
0.0
 11
27.912119
 21
104.528357
 31
0.0
  0
LWPOLYLINE
  5
467
100
AcDbEntity
  8
ALPHA
100
AcDbPolyline
 90
        5
 70
     0
 43
0.0
 10
28.994811
 20
101.742993
 10
28.656011
 20
102.072698
 10
28.372121
 20
102.451811
 10
28.149241
 20
102.872724
 10
27.993588
 20
103.325185
  0
LINE
  5
46E
100
AcDbEntity
  8
ALPHA
100
AcDbLine
 10
28.845475
 20
106.325185
 30
0.0
 11
26.844811
 21
106.325185
 31
0.0
  0
LINE
  5
46F
100
AcDbEntity
  8
ALPHA
100
AcDbLine
 10
30.894811
 20
110.325185
 30
0.0
 11
27.394811
 21
110.325185
 31
0.0
  0
LINE
  5
470
100
AcDbEntity
  8
ALPHA
100
AcDbLine
 10
30.894811
 20
81.325185
 30
0.0
 11
25.994811
 21
81.325185
 31
0.0
  0
LINE
  5
471
100
AcDbEntity
  8
ALPHA
100
AcDbLine
 10
27.794811
 20
93.825185
 30
0.0
 11
27.794811
 21
93.675185
 31
0.0
  0
LINE
  5
472
100
AcDbEntity
  8
ALPHA
100
AcDbLine
 10
27.794811
 20
97.975185
 30
0.0
 11
27.794811
 21
97.825185
 31
0.0
  0
LINE
  5
473
100
AcDbEntity
  8
ALPHA
100
AcDbLine
 10
26.994811
 20
94.625185
 30
0.0
 11
27.144811
 21
94.538583
 31
0.0
  0
LINE
  5
474
100
AcDbEntity
  8
ALPHA
100
AcDbLine
 10
27.144811
 20
97.111788
 30
0.0
 11
26.994811
 21
97.025185
 31
0.0
  0
LINE
  5
475
100
AcDbEntity
  8
ALPHA
100
AcDbLine
 10
30.894811
 20
107.257811
 30
0.0
 11
30.894811
 21
107.146725
 31
0.0
  0
LINE
  5
476
100
AcDbEntity
  8
ALPHA
100
AcDbLine
 10
30.894811
 20
110.325185
 30
0.0
 11
30.894811
 21
107.257811
 31
0.0
  0
LINE
  5
477
100
AcDbEntity
  8
ALPHA
100
AcDbLine
 10
30.894811
 20
110.957958
 30
0.0
 11
30.894811
 21
110.325185
 31
0.0
  0
LINE
  5
478
100
AcDbEntity
  8
ALPHA
100
AcDbLine
 10
27.144811
 20
111.825185
 30
0.0
 11
27.994811
 21
111.825185
 31
0.0
  0
LINE
  5
479
100
AcDbEntity
  8
ALPHA
100
AcDbLine
 10
27.941903
 20
104.530533
 30
0.0
 11
27.919143
 21
104.73812
 31
0.0
  0
LINE
  5
47A
100
AcDbEntity
  8
ALPHA
100
AcDbLine
 10
27.949751
 20
104.458963
 30
0.0
 11
27.941903
 21
104.530533
 31
0.0
  0
LWPOLYLINE
  5
47B
100
AcDbEntity
  8
ALPHA
100
AcDbPolyline
 90
        5
 70
     0
 43
0.0
 10
28.994811
 20
102.67346
 10
28.527954
 20
103.144468
 10
28.178572
 20
103.705579
 10
27.964007
 20
104.328942
 10
27.949751
 20
104.458963
  0
LINE
  5
482
100
AcDbEntity
  8
ALPHA
100
AcDbLine
 10
27.994811
 20
111.825185
 30
0.0
 11
27.994811
 21
111.225185
 31
0.0
  0
LINE
  5
483
100
AcDbEntity
  8
ALPHA
100
AcDbLine
 10
27.994811
 20
111.225185
 30
0.0
 11
27.994811
 21
111.066687
 31
0.0
  0
LINE
  5
484
100
AcDbEntity
  8
ALPHA
100
AcDbLine
 10
27.144811
 20
110.957958
 30
0.0
 11
30.894811
 21
110.957958
 31
0.0
  0
LINE
  5
485
100
AcDbEntity
  8
ALPHA
100
AcDbLine
 10
28.994811
 20
102.324159
 30
0.0
 11
28.994811
 21
102.499812
 31
0.0
  0
LINE
  5
486
100
AcDbEntity
  8
ALPHA
100
AcDbLine
 10
28.994811
 20
102.23934
 30
0.0
 11
28.994811
 21
101.742993
 31
0.0
  0
LINE
  5
487
100
AcDbEntity
  8
ALPHA
100
AcDbLine
 10
28.994811
 20
102.67346
 30
0.0
 11
28.994811
 21
102.499812
 31
0.0
  0
LINE
  5
488
100
AcDbEntity
  8
ALPHA
100
AcDbLine
 10
28.994811
 20
101.561879
 30
0.0
 11
28.475195
 21
101.257251
 31
0.0
  0
LINE
  5
489
100
AcDbEntity
  8
ALPHA
100
AcDbLine
 10
28.958366
 20
102.303438
 30
0.0
 11
28.9404
 21
102.293222
 31
0.0
  0
LINE
  5
48A
100
AcDbEntity
  8
ALPHA
100
AcDbLine
 10
28.994811
 20
102.324159
 30
0.0
 11
28.958366
 21
102.303438
 31
0.0
  0
LINE
  5
48B
100
AcDbEntity
  8
ALPHA
100
AcDbLine
 10
30.894811
 20
83.886501
 30
0.0
 11
30.894811
 21
83.775185
 31
0.0
  0
LINE
  5
48C
100
AcDbEntity
  8
ALPHA
100
AcDbLine
 10
30.894811
 20
81.325185
 30
0.0
 11
30.894811
 21
80.692413
 31
0.0
  0
LINE
  5
48D
100
AcDbEntity
  8
ALPHA
100
AcDbLine
 10
30.894811
 20
81.325185
 30
0.0
 11
30.894811
 21
83.775185
 31
0.0
  0
LWPOLYLINE
  5
48E
100
AcDbEntity
  8
ALPHA
100
AcDbPolyline
 90
        5
 70
     0
 43
0.0
 10
28.994811
 20
88.97691
 10
28.527954
 20
88.505902
 10
28.178572
 20
87.944792
 10
27.964007
 20
87.321429
 10
27.938827
 20
87.091783
  0
LINE
  5
495
100
AcDbEntity
  8
ALPHA
100
AcDbLine
 10
27.394811
 20
80.692413
 30
0.0
 11
30.894811
 21
80.692413
 31
0.0
  0
LINE
  5
496
100
AcDbEntity
  8
ALPHA
100
AcDbLine
 10
28.994811
 20
88.97691
 30
0.0
 11
28.994811
 21
89.907378
 31
0.0
  0
LINE
  5
497
100
AcDbEntity
  8
ALPHA
100
AcDbLine
 10
28.994811
 20
90.088492
 30
0.0
 11
28.475195
 21
90.39312
 31
0.0
  0
LINE
  5
498
100
AcDbEntity
  8
ALPHA
100
AcDbLine
 10
25.994811
 20
111.825185
 30
0.0
 11
27.144811
 21
111.825185
 31
0.0
  0
LINE
  5
499
100
AcDbEntity
  8
ALPHA
100
AcDbLine
 10
26.994811
 20
110.49869
 30
0.0
 11
26.994811
 21
111.781066
 31
0.0
  0
LWPOLYLINE
  5
49A
100
AcDbEntity
  8
ALPHA
100
AcDbPolyline
 90
        4
 70
     0
 43
0.0
 10
28.845475
 20
106.325185
 10
28.542974
 20
106.092998
 10
28.286249
 20
105.823806
 10
28.083766
 20
105.517133
  0
LWPOLYLINE
  5
4A0
100
AcDbEntity
  8
ALPHA
100
AcDbPolyline
 90
        3
 70
     0
 43
0.0
 10
28.083766
 20
105.517133
 10
27.93953
 20
104.977119
 10
27.894816
 20
104.452939
  0
LINE
  5
4A5
100
AcDbEntity
  8
ALPHA
100
AcDbLine
 10
27.993588
 20
103.325185
 30
0.0
 11
28.108025
 21
103.325185
 31
0.0
  0
LINE
  5
4A6
100
AcDbEntity
  8
ALPHA
100
AcDbLine
 10
25.994811
 20
107.925185
 30
0.0
 11
25.994811
 21
108.325185
 31
0.0
  0
LINE
  5
4A7
100
AcDbEntity
  8
ALPHA
100
AcDbLine
 10
25.994811
 20
108.325185
 30
0.0
 11
26.994811
 21
108.325185
 31
0.0
  0
LINE
  5
4A8
100
AcDbEntity
  8
ALPHA
100
AcDbLine
 10
26.994811
 20
110.49869
 30
0.0
 11
26.994811
 21
108.325185
 31
0.0
  0
LWPOLYLINE
  5
4A9
100
AcDbEntity
  8
ALPHA
100
AcDbPolyline
 90
        7
 70
     0
 43
0.0
 10
30.894811
 20
83.886501
 10
30.391338
 20
83.929707
 10
29.902076
 20
84.058123
 10
29.440131
 20
84.268586
 10
29.018635
 20
84.555736
 10
28.649829
 20
84.912093
 10
28.344811
 20
85.328054
  0
LINE
  5
4B2
100
AcDbEntity
  8
ALPHA
100
AcDbLine
 10
28.994811
 20
90.088492
 30
0.0
 11
28.994811
 21
89.907378
 31
0.0
  0
LINE
  5
4B3
100
AcDbEntity
  8
ALPHA
100
AcDbLine
 10
26.994811
 20
90.39312
 30
0.0
 11
28.475195
 21
90.39312
 31
0.0
  0
LINE
  5
4B4
100
AcDbEntity
  8
ALPHA
100
AcDbLine
 10
26.994811
 20
94.725185
 30
0.0
 11
26.794811
 21
94.725185
 31
0.0
  0
LINE
  5
4B5
100
AcDbEntity
  8
ALPHA
100
AcDbLine
 10
26.794811
 20
95.325185
 30
0.0
 11
26.794811
 21
94.725185
 31
0.0
  0
LINE
  5
4B6
100
AcDbEntity
  8
ALPHA
100
AcDbLine
 10
26.994811
 20
95.325185
 30
0.0
 11
26.794811
 21
95.325185
 31
0.0
  0
LINE
  5
4B7
100
AcDbEntity
  8
ALPHA
100
AcDbLine
 10
26.994811
 20
96.325185
 30
0.0
 11
26.794811
 21
96.325185
 31
0.0
  0
LINE
  5
4B8
100
AcDbEntity
  8
ALPHA
100
AcDbLine
 10
26.794811
 20
96.925185
 30
0.0
 11
26.794811
 21
96.325185
 31
0.0
  0
LINE
  5
4B9
100
AcDbEntity
  8
ALPHA
100
AcDbLine
 10
26.994811
 20
96.925185
 30
0.0
 11
26.794811
 21
96.925185
 31
0.0
  0
LINE
  5
4BA
100
AcDbEntity
  8
ALPHA
100
AcDbLine
 10
26.994811
 20
101.257251
 30
0.0
 11
28.475195
 21
101.257251
 31
0.0
  0
LINE
  5
4BB
100
AcDbEntity
  8
ALPHA
100
AcDbLine
 10
28.994811
 20
101.561879
 30
0.0
 11
28.994811
 21
101.742993
 31
0.0
  0
LINE
  5
4BC
100
AcDbEntity
  8
ALPHA
100
AcDbLine
 10
27.993588
 20
103.325185
 30
0.0
 11
26.844811
 21
103.325185
 31
0.0
  0
LINE
  5
4BD
100
AcDbEntity
  8
ALPHA
100
AcDbLine
 10
26.844811
 20
103.325185
 30
0.0
 11
26.844811
 21
106.325185
 31
0.0
  0
LWPOLYLINE
  5
4BE
100
AcDbEntity
  8
ALPHA
100
AcDbPolyline
 90
        5
 70
     0
 43
0.0
 10
28.845475
 20
106.325185
 10
29.292692
 20
106.675951
 10
29.795113
 20
106.93468
 10
30.33565
 20
107.093343
 10
30.894811
 20
107.146725
  0
LINE
  5
4C5
100
AcDbEntity
  8
ALPHA
100
AcDbLine
 10
30.894811
 20
83.775185
 30
0.0
 11
28.344811
 21
83.775185
 31
0.0
  0
LINE
  5
4C6
100
AcDbEntity
  8
ALPHA
100
AcDbLine
 10
28.344811
 20
83.775185
 30
0.0
 11
28.344811
 21
85.945198
 31
0.0
  0
LINE
  5
4C7
100
AcDbEntity
  8
ALPHA
100
AcDbLine
 10
25.994811
 20
79.825185
 30
0.0
 11
27.144811
 21
79.825185
 31
0.0
  0
LINE
  5
4C8
100
AcDbEntity
  8
ALPHA
100
AcDbLine
 10
25.994811
 20
81.325185
 30
0.0
 11
25.994811
 21
79.825185
 31
0.0
  0
LINE
  5
4C9
100
AcDbEntity
  8
ALPHA
100
AcDbLine
 10
25.994811
 20
81.325185
 30
0.0
 11
25.994811
 21
107.925185
 31
0.0
  0
LINE
  5
4CA
100
AcDbEntity
  8
ALPHA
100
AcDbLine
 10
25.994811
 20
111.781066
 30
0.0
 11
25.994811
 21
108.325185
 31
0.0
  0
LINE
  5
4CB
100
AcDbEntity
  8
ALPHA
100
AcDbLine
 10
25.994811
 20
111.825185
 30
0.0
 11
25.994811
 21
111.781066
 31
0.0
  0
LINE
  5
4CC
100
AcDbEntity
  8
ALPHA
100
AcDbLine
 10
26.994811
 20
101.165251
 30
0.0
 11
26.994811
 21
101.257251
 31
0.0
  0
LINE
  5
4CD
100
AcDbEntity
  8
ALPHA
100
AcDbLine
 10
26.994811
 20
97.975185
 30
0.0
 11
26.994811
 21
101.165251
 31
0.0
  0
LINE
  5
4CE
100
AcDbEntity
  8
ALPHA
100
AcDbLine
 10
26.994811
 20
96.925185
 30
0.0
 11
26.994811
 21
97.975185
 31
0.0
  0
LINE
  5
4CF
100
AcDbEntity
  8
ALPHA
100
AcDbLine
 10
26.994811
 20
96.325185
 30
0.0
 11
26.994811
 21
96.925185
 31
0.0
  0
LINE
  5
4D0
100
AcDbEntity
  8
ALPHA
100
AcDbLine
 10
27.394811
 20
80.692413
 30
0.0
 11
27.394811
 21
80.075185
 31
0.0
  0
LINE
  5
4D1
100
AcDbEntity
  8
ALPHA
100
AcDbLine
 10
26.994811
 20
95.325185
 30
0.0
 11
26.994811
 21
96.325185
 31
0.0
  0
LINE
  5
4D2
100
AcDbEntity
  8
ALPHA
100
AcDbLine
 10
26.994811
 20
94.725185
 30
0.0
 11
26.994811
 21
95.325185
 31
0.0
  0
LINE
  5
4D3
100
AcDbEntity
  8
ALPHA
100
AcDbLine
 10
26.994811
 20
93.675185
 30
0.0
 11
26.994811
 21
94.725185
 31
0.0
  0
LINE
  5
4D4
100
AcDbEntity
  8
ALPHA
100
AcDbLine
 10
26.994811
 20
90.485119
 30
0.0
 11
26.994811
 21
93.675185
 31
0.0
  0
LINE
  5
4D5
100
AcDbEntity
  8
ALPHA
100
AcDbLine
 10
26.994811
 20
90.39312
 30
0.0
 11
26.994811
 21
90.485119
 31
0.0
  0
LINE
  5
4D6
100
AcDbEntity
  8
ALPHA
100
AcDbLine
 10
27.394811
 20
111.575185
 30
0.0
 11
27.394811
 21
110.957958
 31
0.0
  0
ARC
  5
4D7
100
AcDbEntity
  8
ALPHA
100
AcDbCircle
 10
27.144811
 20
80.075185
 30
0.0
 40
0.25
100
AcDbArc
 50
270.0
 51
0.0
  0
LWPOLYLINE
  5
4D8
100
AcDbEntity
  8
ALPHA
100
AcDbPolyline
 90
        6
 70
     0
 43
0.0
 10
27.897313
 20
104.453023
 10
27.901414
 20
104.329784
 10
28.004306
 20
103.734798
 10
28.22783
 20
103.172819
 10
28.562655
 20
102.6673
 10
28.994811
 20
102.23934
  0
LWPOLYLINE
  5
4E0
100
AcDbEntity
  8
ALPHA
100
AcDbPolyline
 90
        4
 70
     0
 43
0.0
 10
27.894816
 20
87.549751
 10
27.951385
 20
86.961114
 10
28.102993
 20
86.434917
 10
28.344811
 20
85.945198
  0
LINE
  5
4E6
100
AcDbEntity
  8
ALPHA
100
AcDbLine
 10
27.394811
 20
111.575185
 30
0.0
 11
27.394811
 21
110.957958
 31
0.0
  0
ARC
  5
4E7
100
AcDbEntity
  8
ALPHA
100
AcDbCircle
 10
27.144811
 20
111.575185
 30
0.0
 40
0.25
100
AcDbArc
 50
0.0
 51
90.0
  0
LWPOLYLINE
  5
4E8
100
AcDbEntity
  8
ALPHA
100
AcDbPolyline
 90
        3
 70
     0
 43
0.0
 10
47.894816
 20
104.452939
 10
47.951897
 20
103.861655
 10
48.108025
 20
103.325185
  0
LINE
  5
4ED
100
AcDbEntity
  8
ALPHA
100
AcDbLine
 10
47.394811
 20
111.225185
 30
0.0
 11
47.994811
 21
111.225185
 31
0.0
  0
LINE
  5
4EE
100
AcDbEntity
  8
ALPHA
100
AcDbLine
 10
45.994811
 20
111.781066
 30
0.0
 11
46.994811
 21
111.781066
 31
0.0
  0
LINE
  5
4EF
100
AcDbEntity
  8
ALPHA
100
AcDbLine
 10
46.844811
 20
105.517133
 30
0.0
 11
48.083766
 21
105.517133
 31
0.0
  0
LINE
  5
4F0
100
AcDbEntity
  8
ALPHA
100
AcDbLine
 10
45.994811
 20
107.925185
 30
0.0
 11
47.394811
 21
107.925185
 31
0.0
  0
LINE
  5
4F1
100
AcDbEntity
  8
ALPHA
100
AcDbLine
 10
47.394811
 20
110.325185
 30
0.0
 11
47.394811
 21
107.925185
 31
0.0
  0
LINE
  5
4F2
100
AcDbEntity
  8
ALPHA
100
AcDbLine
 10
47.394811
 20
107.925185
 30
0.0
 11
46.994811
 21
108.325185
 31
0.0
  0
LINE
  5
4F3
100
AcDbEntity
  8
ALPHA
100
AcDbLine
 10
47.144811
 20
111.825185
 30
0.0
 11
47.144811
 21
110.957958
 31
0.0
  0
LINE
  5
4F4
100
AcDbEntity
  8
ALPHA
100
AcDbLine
 10
47.394811
 20
110.325185
 30
0.0
 11
46.994811
 21
110.49869
 31
0.0
  0
LWPOLYLINE
  5
4F5
100
AcDbEntity
  8
ALPHA
100
AcDbPolyline
 90
        6
 70
     0
 43
0.0
 10
48.994811
 20
89.907378
 10
48.611729
 20
89.526108
 10
48.300928
 20
89.080417
 10
48.073044
 20
88.584284
 10
47.936177
 20
88.054061
 10
47.894816
 20
87.549751
  0
LWPOLYLINE
  5
4FD
100
AcDbEntity
  8
ALPHA
100
AcDbPolyline
 90
        5
 70
     0
 43
0.0
 10
47.92428
 20
104.458035
 10
48.004306
 20
103.99527
 10
48.22783
 20
103.433291
 10
48.562655
 20
102.927772
 10
48.994811
 20
102.499812
  0
LINE
  5
504
100
AcDbEntity
  8
ALPHA
100
AcDbLine
 10
47.912119
 20
104.528357
 30
0.0
 11
47.92428
 21
104.458035
 31
0.0
  0
LINE
  5
505
100
AcDbEntity
  8
ALPHA
100
AcDbLine
 10
47.90484
 20
104.57045
 30
0.0
 11
47.912119
 21
104.528357
 31
0.0
  0
LWPOLYLINE
  5
506
100
AcDbEntity
  8
ALPHA
100
AcDbPolyline
 90
        5
 70
     0
 43
0.0
 10
48.994811
 20
101.742993
 10
48.656011
 20
102.072698
 10
48.372121
 20
102.451811
 10
48.149241
 20
102.872724
 10
47.993588
 20
103.325185
  0
LINE
  5
50D
100
AcDbEntity
  8
ALPHA
100
AcDbLine
 10
48.845475
 20
106.325185
 30
0.0
 11
46.844811
 21
106.325185
 31
0.0
  0
LINE
  5
50E
100
AcDbEntity
  8
ALPHA
100
AcDbLine
 10
50.894811
 20
110.325185
 30
0.0
 11
47.394811
 21
110.325185
 31
0.0
  0
LINE
  5
50F
100
AcDbEntity
  8
ALPHA
100
AcDbLine
 10
50.894811
 20
81.325185
 30
0.0
 11
45.994811
 21
81.325185
 31
0.0
  0
LINE
  5
510
100
AcDbEntity
  8
ALPHA
100
AcDbLine
 10
47.794811
 20
93.825185
 30
0.0
 11
47.794811
 21
93.675185
 31
0.0
  0
LINE
  5
511
100
AcDbEntity
  8
ALPHA
100
AcDbLine
 10
47.794811
 20
97.975185
 30
0.0
 11
47.794811
 21
97.825185
 31
0.0
  0
LINE
  5
512
100
AcDbEntity
  8
ALPHA
100
AcDbLine
 10
46.994811
 20
94.625185
 30
0.0
 11
47.144811
 21
94.538583
 31
0.0
  0
LINE
  5
513
100
AcDbEntity
  8
ALPHA
100
AcDbLine
 10
47.144811
 20
97.111788
 30
0.0
 11
46.994811
 21
97.025185
 31
0.0
  0
LINE
  5
514
100
AcDbEntity
  8
ALPHA
100
AcDbLine
 10
50.894811
 20
107.257811
 30
0.0
 11
50.894811
 21
107.146725
 31
0.0
  0
LINE
  5
515
100
AcDbEntity
  8
ALPHA
100
AcDbLine
 10
50.894811
 20
110.325185
 30
0.0
 11
50.894811
 21
107.257811
 31
0.0
  0
LINE
  5
516
100
AcDbEntity
  8
ALPHA
100
AcDbLine
 10
50.894811
 20
110.957958
 30
0.0
 11
50.894811
 21
110.325185
 31
0.0
  0
LINE
  5
517
100
AcDbEntity
  8
ALPHA
100
AcDbLine
 10
47.144811
 20
111.825185
 30
0.0
 11
47.994811
 21
111.825185
 31
0.0
  0
LINE
  5
518
100
AcDbEntity
  8
ALPHA
100
AcDbLine
 10
47.941903
 20
104.530533
 30
0.0
 11
47.919143
 21
104.73812
 31
0.0
  0
LINE
  5
519
100
AcDbEntity
  8
ALPHA
100
AcDbLine
 10
47.949751
 20
104.458963
 30
0.0
 11
47.941903
 21
104.530533
 31
0.0
  0
LWPOLYLINE
  5
51A
100
AcDbEntity
  8
ALPHA
100
AcDbPolyline
 90
        5
 70
     0
 43
0.0
 10
48.994811
 20
102.67346
 10
48.527954
 20
103.144468
 10
48.178572
 20
103.705579
 10
47.964007
 20
104.328942
 10
47.949751
 20
104.458963
  0
LINE
  5
521
100
AcDbEntity
  8
ALPHA
100
AcDbLine
 10
47.994811
 20
111.825185
 30
0.0
 11
47.994811
 21
111.225185
 31
0.0
  0
LINE
  5
522
100
AcDbEntity
  8
ALPHA
100
AcDbLine
 10
47.994811
 20
111.225185
 30
0.0
 11
47.994811
 21
111.066687
 31
0.0
  0
LINE
  5
523
100
AcDbEntity
  8
ALPHA
100
AcDbLine
 10
47.144811
 20
110.957958
 30
0.0
 11
50.894811
 21
110.957958
 31
0.0
  0
LINE
  5
524
100
AcDbEntity
  8
ALPHA
100
AcDbLine
 10
48.994811
 20
102.324159
 30
0.0
 11
48.994811
 21
102.499812
 31
0.0
  0
LINE
  5
525
100
AcDbEntity
  8
ALPHA
100
AcDbLine
 10
48.994811
 20
102.23934
 30
0.0
 11
48.994811
 21
101.742993
 31
0.0
  0
LINE
  5
526
100
AcDbEntity
  8
ALPHA
100
AcDbLine
 10
48.994811
 20
102.67346
 30
0.0
 11
48.994811
 21
102.499812
 31
0.0
  0
LINE
  5
527
100
AcDbEntity
  8
ALPHA
100
AcDbLine
 10
48.994811
 20
101.561879
 30
0.0
 11
48.475195
 21
101.257251
 31
0.0
  0
LINE
  5
528
100
AcDbEntity
  8
ALPHA
100
AcDbLine
 10
48.958366
 20
102.303438
 30
0.0
 11
48.9404
 21
102.293222
 31
0.0
  0
LINE
  5
529
100
AcDbEntity
  8
ALPHA
100
AcDbLine
 10
48.994811
 20
102.324159
 30
0.0
 11
48.958366
 21
102.303438
 31
0.0
  0
LINE
  5
52A
100
AcDbEntity
  8
ALPHA
100
AcDbLine
 10
50.894811
 20
83.886501
 30
0.0
 11
50.894811
 21
83.775185
 31
0.0
  0
LINE
  5
52B
100
AcDbEntity
  8
ALPHA
100
AcDbLine
 10
50.894811
 20
81.325185
 30
0.0
 11
50.894811
 21
80.692413
 31
0.0
  0
LINE
  5
52C
100
AcDbEntity
  8
ALPHA
100
AcDbLine
 10
50.894811
 20
81.325185
 30
0.0
 11
50.894811
 21
83.775185
 31
0.0
  0
LWPOLYLINE
  5
52D
100
AcDbEntity
  8
ALPHA
100
AcDbPolyline
 90
        5
 70
     0
 43
0.0
 10
48.994811
 20
88.97691
 10
48.527954
 20
88.505902
 10
48.178572
 20
87.944792
 10
47.964007
 20
87.321429
 10
47.938827
 20
87.091783
  0
LINE
  5
534
100
AcDbEntity
  8
ALPHA
100
AcDbLine
 10
47.394811
 20
80.692413
 30
0.0
 11
50.894811
 21
80.692413
 31
0.0
  0
LINE
  5
535
100
AcDbEntity
  8
ALPHA
100
AcDbLine
 10
48.994811
 20
88.97691
 30
0.0
 11
48.994811
 21
89.907378
 31
0.0
  0
LINE
  5
536
100
AcDbEntity
  8
ALPHA
100
AcDbLine
 10
48.994811
 20
90.088492
 30
0.0
 11
48.475195
 21
90.39312
 31
0.0
  0
LINE
  5
537
100
AcDbEntity
  8
ALPHA
100
AcDbLine
 10
45.994811
 20
111.825185
 30
0.0
 11
47.144811
 21
111.825185
 31
0.0
  0
LINE
  5
538
100
AcDbEntity
  8
ALPHA
100
AcDbLine
 10
46.994811
 20
110.49869
 30
0.0
 11
46.994811
 21
111.781066
 31
0.0
  0
LWPOLYLINE
  5
539
100
AcDbEntity
  8
ALPHA
100
AcDbPolyline
 90
        4
 70
     0
 43
0.0
 10
48.845475
 20
106.325185
 10
48.542974
 20
106.092998
 10
48.286249
 20
105.823806
 10
48.083766
 20
105.517133
  0
LWPOLYLINE
  5
53F
100
AcDbEntity
  8
ALPHA
100
AcDbPolyline
 90
        3
 70
     0
 43
0.0
 10
48.083766
 20
105.517133
 10
47.93953
 20
104.977119
 10
47.894816
 20
104.452939
  0
LINE
  5
544
100
AcDbEntity
  8
ALPHA
100
AcDbLine
 10
47.993588
 20
103.325185
 30
0.0
 11
48.108025
 21
103.325185
 31
0.0
  0
LINE
  5
545
100
AcDbEntity
  8
ALPHA
100
AcDbLine
 10
45.994811
 20
107.925185
 30
0.0
 11
45.994811
 21
108.325185
 31
0.0
  0
LINE
  5
546
100
AcDbEntity
  8
ALPHA
100
AcDbLine
 10
45.994811
 20
108.325185
 30
0.0
 11
46.994811
 21
108.325185
 31
0.0
  0
LINE
  5
547
100
AcDbEntity
  8
ALPHA
100
AcDbLine
 10
46.994811
 20
110.49869
 30
0.0
 11
46.994811
 21
108.325185
 31
0.0
  0
LWPOLYLINE
  5
548
100
AcDbEntity
  8
ALPHA
100
AcDbPolyline
 90
        7
 70
     0
 43
0.0
 10
50.894811
 20
83.886501
 10
50.391338
 20
83.929707
 10
49.902076
 20
84.058123
 10
49.440131
 20
84.268586
 10
49.018635
 20
84.555736
 10
48.649829
 20
84.912093
 10
48.344811
 20
85.328054
  0
LINE
  5
551
100
AcDbEntity
  8
ALPHA
100
AcDbLine
 10
48.994811
 20
90.088492
 30
0.0
 11
48.994811
 21
89.907378
 31
0.0
  0
LINE
  5
552
100
AcDbEntity
  8
ALPHA
100
AcDbLine
 10
46.994811
 20
90.39312
 30
0.0
 11
48.475195
 21
90.39312
 31
0.0
  0
LINE
  5
553
100
AcDbEntity
  8
ALPHA
100
AcDbLine
 10
46.994811
 20
94.725185
 30
0.0
 11
46.794811
 21
94.725185
 31
0.0
  0
LINE
  5
554
100
AcDbEntity
  8
ALPHA
100
AcDbLine
 10
46.794811
 20
95.325185
 30
0.0
 11
46.794811
 21
94.725185
 31
0.0
  0
LINE
  5
555
100
AcDbEntity
  8
ALPHA
100
AcDbLine
 10
46.994811
 20
95.325185
 30
0.0
 11
46.794811
 21
95.325185
 31
0.0
  0
LINE
  5
556
100
AcDbEntity
  8
ALPHA
100
AcDbLine
 10
46.994811
 20
96.325185
 30
0.0
 11
46.794811
 21
96.325185
 31
0.0
  0
LINE
  5
557
100
AcDbEntity
  8
ALPHA
100
AcDbLine
 10
46.794811
 20
96.925185
 30
0.0
 11
46.794811
 21
96.325185
 31
0.0
  0
LINE
  5
558
100
AcDbEntity
  8
ALPHA
100
AcDbLine
 10
46.994811
 20
96.925185
 30
0.0
 11
46.794811
 21
96.925185
 31
0.0
  0
LINE
  5
559
100
AcDbEntity
  8
ALPHA
100
AcDbLine
 10
46.994811
 20
101.257251
 30
0.0
 11
48.475195
 21
101.257251
 31
0.0
  0
LINE
  5
55A
100
AcDbEntity
  8
ALPHA
100
AcDbLine
 10
48.994811
 20
101.561879
 30
0.0
 11
48.994811
 21
101.742993
 31
0.0
  0
LINE
  5
55B
100
AcDbEntity
  8
ALPHA
100
AcDbLine
 10
47.993588
 20
103.325185
 30
0.0
 11
46.844811
 21
103.325185
 31
0.0
  0
LINE
  5
55C
100
AcDbEntity
  8
ALPHA
100
AcDbLine
 10
46.844811
 20
103.325185
 30
0.0
 11
46.844811
 21
106.325185
 31
0.0
  0
LWPOLYLINE
  5
55D
100
AcDbEntity
  8
ALPHA
100
AcDbPolyline
 90
        5
 70
     0
 43
0.0
 10
48.845475
 20
106.325185
 10
49.292692
 20
106.675951
 10
49.795113
 20
106.93468
 10
50.33565
 20
107.093343
 10
50.894811
 20
107.146725
  0
LINE
  5
564
100
AcDbEntity
  8
ALPHA
100
AcDbLine
 10
50.894811
 20
83.775185
 30
0.0
 11
48.344811
 21
83.775185
 31
0.0
  0
LINE
  5
565
100
AcDbEntity
  8
ALPHA
100
AcDbLine
 10
48.344811
 20
83.775185
 30
0.0
 11
48.344811
 21
85.945198
 31
0.0
  0
LINE
  5
566
100
AcDbEntity
  8
ALPHA
100
AcDbLine
 10
45.994811
 20
79.825185
 30
0.0
 11
47.144811
 21
79.825185
 31
0.0
  0
LINE
  5
567
100
AcDbEntity
  8
ALPHA
100
AcDbLine
 10
45.994811
 20
81.325185
 30
0.0
 11
45.994811
 21
79.825185
 31
0.0
  0
LINE
  5
568
100
AcDbEntity
  8
ALPHA
100
AcDbLine
 10
45.994811
 20
81.325185
 30
0.0
 11
45.994811
 21
107.925185
 31
0.0
  0
LINE
  5
569
100
AcDbEntity
  8
ALPHA
100
AcDbLine
 10
45.994811
 20
111.781066
 30
0.0
 11
45.994811
 21
108.325185
 31
0.0
  0
LINE
  5
56A
100
AcDbEntity
  8
ALPHA
100
AcDbLine
 10
45.994811
 20
111.825185
 30
0.0
 11
45.994811
 21
111.781066
 31
0.0
  0
LINE
  5
56B
100
AcDbEntity
  8
ALPHA
100
AcDbLine
 10
46.994811
 20
101.165251
 30
0.0
 11
46.994811
 21
101.257251
 31
0.0
  0
LINE
  5
56C
100
AcDbEntity
  8
ALPHA
100
AcDbLine
 10
46.994811
 20
97.975185
 30
0.0
 11
46.994811
 21
101.165251
 31
0.0
  0
LINE
  5
56D
100
AcDbEntity
  8
ALPHA
100
AcDbLine
 10
46.994811
 20
96.925185
 30
0.0
 11
46.994811
 21
97.975185
 31
0.0
  0
LINE
  5
56E
100
AcDbEntity
  8
ALPHA
100
AcDbLine
 10
46.994811
 20
96.325185
 30
0.0
 11
46.994811
 21
96.925185
 31
0.0
  0
LINE
  5
56F
100
AcDbEntity
  8
ALPHA
100
AcDbLine
 10
47.394811
 20
80.692413
 30
0.0
 11
47.394811
 21
80.075185
 31
0.0
  0
LINE
  5
570
100
AcDbEntity
  8
ALPHA
100
AcDbLine
 10
46.994811
 20
95.325185
 30
0.0
 11
46.994811
 21
96.325185
 31
0.0
  0
LINE
  5
571
100
AcDbEntity
  8
ALPHA
100
AcDbLine
 10
46.994811
 20
94.725185
 30
0.0
 11
46.994811
 21
95.325185
 31
0.0
  0
LINE
  5
572
100
AcDbEntity
  8
ALPHA
100
AcDbLine
 10
46.994811
 20
93.675185
 30
0.0
 11
46.994811
 21
94.725185
 31
0.0
  0
LINE
  5
573
100
AcDbEntity
  8
ALPHA
100
AcDbLine
 10
46.994811
 20
90.485119
 30
0.0
 11
46.994811
 21
93.675185
 31
0.0
  0
LINE
  5
574
100
AcDbEntity
  8
ALPHA
100
AcDbLine
 10
46.994811
 20
90.39312
 30
0.0
 11
46.994811
 21
90.485119
 31
0.0
  0
LINE
  5
575
100
AcDbEntity
  8
ALPHA
100
AcDbLine
 10
47.394811
 20
111.575185
 30
0.0
 11
47.394811
 21
110.957958
 31
0.0
  0
ARC
  5
576
100
AcDbEntity
  8
ALPHA
100
AcDbCircle
 10
47.144811
 20
80.075185
 30
0.0
 40
0.25
100
AcDbArc
 50
270.0
 51
0.0
  0
LWPOLYLINE
  5
577
100
AcDbEntity
  8
ALPHA
100
AcDbPolyline
 90
        6
 70
     0
 43
0.0
 10
47.897313
 20
104.453023
 10
47.901414
 20
104.329784
 10
48.004306
 20
103.734798
 10
48.22783
 20
103.172819
 10
48.562655
 20
102.6673
 10
48.994811
 20
102.23934
  0
LWPOLYLINE
  5
57F
100
AcDbEntity
  8
ALPHA
100
AcDbPolyline
 90
        4
 70
     0
 43
0.0
 10
47.894816
 20
87.549751
 10
47.951385
 20
86.961114
 10
48.102993
 20
86.434917
 10
48.344811
 20
85.945198
  0
LINE
  5
585
100
AcDbEntity
  8
ALPHA
100
AcDbLine
 10
47.394811
 20
111.575185
 30
0.0
 11
47.394811
 21
110.957958
 31
0.0
  0
ARC
  5
586
100
AcDbEntity
  8
ALPHA
100
AcDbCircle
 10
47.144811
 20
111.575185
 30
0.0
 40
0.25
100
AcDbArc
 50
0.0
 51
90.0
  0
LINE
  5
587
100
AcDbEntity
  8
ALPHA
100
AcDbLine
 10
28.094811
 20
111.425185
 30
0.0
 11
27.994811
 21
111.425185
 31
0.0
  0
LINE
  5
588
100
AcDbEntity
  8
ALPHA
100
AcDbLine
 10
35.844811
 20
108.625185
 30
0.0
 11
35.844811
 21
111.425185
 31
0.0
  0
LINE
  5
589
100
AcDbEntity
  8
ALPHA
100
AcDbLine
 10
35.844811
 20
108.525185
 30
0.0
 11
35.844811
 21
108.625185
 31
0.0
  0
LINE
  5
58A
100
AcDbEntity
  8
ALPHA
100
AcDbLine
 10
35.844811
 20
111.425185
 30
0.0
 11
35.844811
 21
108.625185
 31
0.0
  0
LINE
  5
58B
100
AcDbEntity
  8
ALPHA
100
AcDbLine
 10
35.844811
 20
111.425185
 30
0.0
 11
35.794811
 21
111.425185
 31
0.0
  0
LINE
  5
58C
100
AcDbEntity
  8
ALPHA
100
AcDbLine
 10
35.844811
 20
108.625185
 30
0.0
 11
35.794811
 21
108.625185
 31
0.0
  0
LINE
  5
58D
100
AcDbEntity
  8
ALPHA
100
AcDbLine
 10
55.844811
 20
107.306781
 30
0.0
 11
55.794811
 21
107.306781
 31
0.0
  0
LINE
  5
58E
100
AcDbEntity
  8
ALPHA
100
AcDbLine
 10
48.094811
 20
111.425185
 30
0.0
 11
47.994811
 21
111.425185
 31
0.0
  0
LINE
  5
58F
100
AcDbEntity
  8
ALPHA
100
AcDbLine
 10
55.844811
 20
108.625185
 30
0.0
 11
55.844811
 21
111.425185
 31
0.0
  0
LINE
  5
590
100
AcDbEntity
  8
ALPHA
100
AcDbLine
 10
55.844811
 20
107.306781
 30
0.0
 11
55.844811
 21
108.625185
 31
0.0
  0
LINE
  5
591
100
AcDbEntity
  8
ALPHA
100
AcDbLine
 10
55.844811
 20
111.425185
 30
0.0
 11
55.844811
 21
108.625185
 31
0.0
  0
LINE
  5
592
100
AcDbEntity
  8
ALPHA
100
AcDbLine
 10
55.844811
 20
111.425185
 30
0.0
 11
55.794811
 21
111.425185
 31
0.0
  0
LINE
  5
593
100
AcDbEntity
  8
ALPHA
100
AcDbLine
 10
55.844811
 20
108.625185
 30
0.0
 11
55.794811
 21
108.625185
 31
0.0
  0
LINE
  5
594
100
AcDbEntity
  8
ALPHA
100
AcDbLine
 10
55.844811
 20
107.175185
 30
0.0
 11
55.794811
 21
107.175185
 31
0.0
  0
LINE
  5
595
100
AcDbEntity
  8
ALPHA
100
AcDbLine
 10
55.844811
 20
107.175203
 30
0.0
 11
55.844811
 21
107.306781
 31
0.0
  0
ARC
  5
596
100
AcDbEntity
  8
ALPHA
100
AcDbCircle
 10
40.894811
 20
96.525185
 30
0.0
 40
5.0
100
AcDbArc
 50
189.790974
 51
194.533537
  0
ARC
  5
597
100
AcDbEntity
  8
ALPHA
100
AcDbCircle
 10
40.894811
 20
96.525185
 30
0.0
 40
5.0
100
AcDbArc
 50
345.466463
 51
348.938141
  0
ARC
  5
598
100
AcDbEntity
  8
ALPHA
100
AcDbCircle
 10
40.894811
 20
96.525185
 30
0.0
 40
5.0
100
AcDbArc
 50
165.466463
 51
170.209026
  0
ARC
  5
599
100
AcDbEntity
  8
ALPHA
100
AcDbCircle
 10
40.894811
 20
96.525185
 30
0.0
 40
5.0
100
AcDbArc
 50
11.061859
 51
14.533537
  0
LINE
  5
59A
100
AcDbEntity
  8
ALPHA
100
AcDbLine
 10
35.894811
 20
97.375185
 30
0.0
 11
36.194811
 21
97.375185
 31
0.0
  0
LINE
  5
59B
100
AcDbEntity
  8
ALPHA
100
AcDbLine
 10
45.594811
 20
97.375185
 30
0.0
 11
45.794811
 21
97.375185
 31
0.0
  0
LINE
  5
59C
100
AcDbEntity
  8
ALPHA
100
AcDbLine
 10
35.894811
 20
95.675185
 30
0.0
 11
36.194811
 21
95.675185
 31
0.0
  0
LINE
  5
59D
100
AcDbEntity
  8
ALPHA
100
AcDbLine
 10
45.594811
 20
95.675185
 30
0.0
 11
45.794811
 21
95.675185
 31
0.0
  0
LINE
  5
59E
100
AcDbEntity
  8
ALPHA
100
AcDbLine
 10
35.894811
 20
97.375185
 30
0.0
 11
36.194811
 21
97.375185
 31
0.0
  0
LINE
  5
59F
100
AcDbEntity
  8
ALPHA
100
AcDbLine
 10
45.594811
 20
97.375185
 30
0.0
 11
45.794811
 21
97.375185
 31
0.0
  0
LINE
  5
5A0
100
AcDbEntity
  8
ALPHA
100
AcDbLine
 10
35.894811
 20
95.675185
 30
0.0
 11
36.194811
 21
95.675185
 31
0.0
  0
LINE
  5
5A1
100
AcDbEntity
  8
ALPHA
100
AcDbLine
 10
45.594811
 20
95.675185
 30
0.0
 11
45.794811
 21
95.675185
 31
0.0
  0
LINE
  5
5A2
100
AcDbEntity
  8
ALPHA
100
AcDbLine
 10
46.894811
 20
112.125185
 30
0.0
 11
46.894811
 21
112.425185
 31
0.0
  0
LINE
  5
5A3
100
AcDbEntity
  8
ALPHA
100
AcDbLine
 10
46.894811
 20
112.425185
 30
0.0
 11
46.894811
 21
112.125185
 31
0.0
  0
LINE
  5
5A4
100
AcDbEntity
  8
ALPHA
100
AcDbLine
 10
46.894811
 20
112.425185
 30
0.0
 11
46.644811
 21
112.425185
 31
0.0
  0
LINE
  5
5A5
100
AcDbEntity
  8
ALPHA
100
AcDbLine
 10
33.850465
 20
87.014667
 30
0.0
 11
33.640469
 21
87.014667
 31
0.0
  0
LINE
  5
5A6
100
AcDbEntity
  8
ALPHA
100
AcDbLine
 10
33.859973
 20
87.014667
 30
0.0
 11
33.850465
 21
87.014667
 31
0.0
  0
LINE
  5
5A7
100
AcDbEntity
  8
ALPHA
100
AcDbLine
 10
28.994811
 20
89.328965
 30
0.0
 11
30.144811
 21
89.328965
 31
0.0
  0
LINE
  5
5A8
100
AcDbEntity
  8
ALPHA
100
AcDbLine
 10
31.644811
 20
89.328965
 30
0.0
 11
31.948561
 21
89.328965
 31
0.0
  0
LINE
  5
5A9
100
AcDbEntity
  8
ALPHA
100
AcDbLine
 10
28.019399
 20
86.725053
 30
0.0
 11
28.112652
 21
86.725053
 31
0.0
  0
LWPOLYLINE
  5
5AA
100
AcDbEntity
  8
ALPHA
100
AcDbPolyline
 90
        4
 70
     0
 43
0.0
 10
31.644811
 20
89.328965
 10
31.639396
 20
89.373546
 10
31.622595
 20
89.415328
 10
31.611114
 20
89.429774
  0
LINE
  5
5B0
100
AcDbEntity
  8
ALPHA
100
AcDbLine
 10
31.394811
 20
89.477189
 30
0.0
 11
31.394811
 21
89.358182
 31
0.0
  0
LINE
  5
5B1
100
AcDbEntity
  8
ALPHA
100
AcDbLine
 10
31.394811
 20
89.482515
 30
0.0
 11
31.394811
 21
89.477189
 31
0.0
  0
LWPOLYLINE
  5
5B2
100
AcDbEntity
  8
ALPHA
100
AcDbPolyline
 90
        7
 70
     0
 43
0.0
 10
30.144811
 20
89.328965
 10
30.150225
 20
89.373546
 10
30.167026
 20
89.415328
 10
30.195655
 20
89.451351
 10
30.235452
 20
89.478135
 10
30.285435
 20
89.492628
 10
30.309286
 20
89.493966
  0
LINE
  5
5BB
100
AcDbEntity
  8
ALPHA
100
AcDbLine
 10
30.394811
 20
89.482515
 30
0.0
 11
30.394811
 21
89.35988
 31
0.0
  0
LINE
  5
5BC
100
AcDbEntity
  8
ALPHA
100
AcDbLine
 10
33.797758
 20
86.725053
 30
0.0
 11
33.67697
 21
86.725053
 31
0.0
  0
LINE
  5
5BD
100
AcDbEntity
  8
ALPHA
100
AcDbLine
 10
27.946238
 20
87.014667
 30
0.0
 11
28.149152
 21
87.014667
 31
0.0
  0
LINE
  5
5BE
100
AcDbEntity
  8
ALPHA
100
AcDbLine
 10
30.144811
 20
89.328965
 30
0.0
 11
30.144811
 21
89.299047
 31
0.0
  0
LINE
  5
5BF
100
AcDbEntity
  8
ALPHA
100
AcDbLine
 10
31.644811
 20
89.328965
 30
0.0
 11
31.644811
 21
89.301066
 31
0.0
  0
LINE
  5
5C0
100
AcDbEntity
  8
ALPHA
100
AcDbLine
 10
30.344811
 20
89.491197
 30
0.0
 11
30.394811
 21
89.482515
 31
0.0
  0
LINE
  5
5C1
100
AcDbEntity
  8
ALPHA
100
AcDbLine
 10
31.339901
 20
89.482515
 30
0.0
 11
30.394811
 21
89.482515
 31
0.0
  0
LINE
  5
5C2
100
AcDbEntity
  8
ALPHA
100
AcDbLine
 10
30.31043
 20
89.494236
 30
0.0
 11
28.994811
 21
89.494236
 31
0.0
  0
LINE
  5
5C3
100
AcDbEntity
  8
ALPHA
100
AcDbLine
 10
30.309286
 20
89.493966
 30
0.0
 11
30.344811
 21
89.491197
 31
0.0
  0
LINE
  5
5C4
100
AcDbEntity
  8
ALPHA
100
AcDbLine
 10
53.850465
 20
87.014667
 30
0.0
 11
53.640469
 21
87.014667
 31
0.0
  0
LINE
  5
5C5
100
AcDbEntity
  8
ALPHA
100
AcDbLine
 10
53.859973
 20
87.014667
 30
0.0
 11
53.850465
 21
87.014667
 31
0.0
  0
LINE
  5
5C6
100
AcDbEntity
  8
ALPHA
100
AcDbLine
 10
48.994811
 20
89.328965
 30
0.0
 11
50.144811
 21
89.328965
 31
0.0
  0
LINE
  5
5C7
100
AcDbEntity
  8
ALPHA
100
AcDbLine
 10
51.644811
 20
89.328965
 30
0.0
 11
51.948561
 21
89.328965
 31
0.0
  0
LINE
  5
5C8
100
AcDbEntity
  8
ALPHA
100
AcDbLine
 10
48.019399
 20
86.725053
 30
0.0
 11
48.112652
 21
86.725053
 31
0.0
  0
LWPOLYLINE
  5
5C9
100
AcDbEntity
  8
ALPHA
100
AcDbPolyline
 90
        4
 70
     0
 43
0.0
 10
51.644811
 20
89.328965
 10
51.639396
 20
89.373546
 10
51.622595
 20
89.415328
 10
51.611114
 20
89.429774
  0
LINE
  5
5CF
100
AcDbEntity
  8
ALPHA
100
AcDbLine
 10
51.394811
 20
89.477189
 30
0.0
 11
51.394811
 21
89.358182
 31
0.0
  0
LINE
  5
5D0
100
AcDbEntity
  8
ALPHA
100
AcDbLine
 10
51.394811
 20
89.482515
 30
0.0
 11
51.394811
 21
89.477189
 31
0.0
  0
LWPOLYLINE
  5
5D1
100
AcDbEntity
  8
ALPHA
100
AcDbPolyline
 90
        7
 70
     0
 43
0.0
 10
50.144811
 20
89.328965
 10
50.150225
 20
89.373546
 10
50.167026
 20
89.415328
 10
50.195655
 20
89.451351
 10
50.235452
 20
89.478135
 10
50.285435
 20
89.492628
 10
50.309286
 20
89.493966
  0
LINE
  5
5DA
100
AcDbEntity
  8
ALPHA
100
AcDbLine
 10
50.394811
 20
89.482515
 30
0.0
 11
50.394811
 21
89.35988
 31
0.0
  0
LINE
  5
5DB
100
AcDbEntity
  8
ALPHA
100
AcDbLine
 10
53.797758
 20
86.725053
 30
0.0
 11
53.67697
 21
86.725053
 31
0.0
  0
LINE
  5
5DC
100
AcDbEntity
  8
ALPHA
100
AcDbLine
 10
47.946238
 20
87.014667
 30
0.0
 11
48.149152
 21
87.014667
 31
0.0
  0
LINE
  5
5DD
100
AcDbEntity
  8
ALPHA
100
AcDbLine
 10
50.144811
 20
89.328965
 30
0.0
 11
50.144811
 21
89.299047
 31
0.0
  0
LINE
  5
5DE
100
AcDbEntity
  8
ALPHA
100
AcDbLine
 10
51.644811
 20
89.328965
 30
0.0
 11
51.644811
 21
89.301066
 31
0.0
  0
LINE
  5
5DF
100
AcDbEntity
  8
ALPHA
100
AcDbLine
 10
50.344811
 20
89.491197
 30
0.0
 11
50.394811
 21
89.482515
 31
0.0
  0
LINE
  5
5E0
100
AcDbEntity
  8
ALPHA
100
AcDbLine
 10
51.339901
 20
89.482515
 30
0.0
 11
50.394811
 21
89.482515
 31
0.0
  0
LINE
  5
5E1
100
AcDbEntity
  8
ALPHA
100
AcDbLine
 10
50.31043
 20
89.494236
 30
0.0
 11
48.994811
 21
89.494236
 31
0.0
  0
LINE
  5
5E2
100
AcDbEntity
  8
ALPHA
100
AcDbLine
 10
50.309286
 20
89.493966
 30
0.0
 11
50.344811
 21
89.491197
 31
0.0
  0
LINE
  5
5E3
100
AcDbEntity
  8
ALPHA
100
AcDbLine
 10
32.758226
 20
102.781573
 30
0.0
 11
31.644811
 21
102.781573
 31
0.0
  0
LINE
  5
5E4
100
AcDbEntity
  8
ALPHA
100
AcDbLine
 10
30.144811
 20
102.781573
 30
0.0
 11
28.887651
 21
102.781573
 31
0.0
  0
LWPOLYLINE
  5
5E5
100
AcDbEntity
  8
ALPHA
100
AcDbPolyline
 90
        7
 70
     0
 43
0.0
 10
30.144811
 20
102.781573
 10
30.150225
 20
102.736993
 10
30.167026
 20
102.69521
 10
30.195655
 20
102.659187
 10
30.235452
 20
102.632403
 10
30.285435
 20
102.61791
 10
30.309286
 20
102.616572
  0
LINE
  5
5EE
100
AcDbEntity
  8
ALPHA
100
AcDbLine
 10
30.394811
 20
102.628023
 30
0.0
 11
30.394811
 21
102.805493
 31
0.0
  0
LWPOLYLINE
  5
5EF
100
AcDbEntity
  8
ALPHA
100
AcDbPolyline
 90
        7
 70
     0
 43
0.0
 10
31.644811
 20
102.781573
 10
31.639396
 20
102.736993
 10
31.622595
 20
102.69521
 10
31.593966
 20
102.659187
 10
31.55417
 20
102.632403
 10
31.504186
 20
102.61791
 10
31.480336
 20
102.616572
  0
LINE
  5
5F8
100
AcDbEntity
  8
ALPHA
100
AcDbLine
 10
31.394811
 20
102.628023
 30
0.0
 11
31.394811
 21
102.803918
 31
0.0
  0
LINE
  5
5F9
100
AcDbEntity
  8
ALPHA
100
AcDbLine
 10
33.84127
 20
105.095871
 30
0.0
 11
33.827404
 21
105.095871
 31
0.0
  0
LINE
  5
5FA
100
AcDbEntity
  8
ALPHA
100
AcDbLine
 10
31.644811
 20
102.781573
 30
0.0
 11
31.644811
 21
102.856682
 31
0.0
  0
LINE
  5
5FB
100
AcDbEntity
  8
ALPHA
100
AcDbLine
 10
30.144811
 20
102.781573
 30
0.0
 11
30.144811
 21
102.854526
 31
0.0
  0
LINE
  5
5FC
100
AcDbEntity
  8
ALPHA
100
AcDbLine
 10
28.994811
 20
102.616303
 30
0.0
 11
30.31043
 21
102.616303
 31
0.0
  0
LINE
  5
5FD
100
AcDbEntity
  8
ALPHA
100
AcDbLine
 10
31.444811
 20
102.619341
 30
0.0
 11
31.394811
 21
102.628023
 31
0.0
  0
LINE
  5
5FE
100
AcDbEntity
  8
ALPHA
100
AcDbLine
 10
30.394811
 20
102.628023
 30
0.0
 11
31.394811
 21
102.628023
 31
0.0
  0
LINE
  5
5FF
100
AcDbEntity
  8
ALPHA
100
AcDbLine
 10
30.344811
 20
102.619341
 30
0.0
 11
30.394811
 21
102.628023
 31
0.0
  0
LINE
  5
600
100
AcDbEntity
  8
ALPHA
100
AcDbLine
 10
30.309286
 20
102.616572
 30
0.0
 11
30.344811
 21
102.619341
 31
0.0
  0
LINE
  5
601
100
AcDbEntity
  8
ALPHA
100
AcDbLine
 10
31.479191
 20
102.616303
 30
0.0
 11
32.549569
 21
102.616303
 31
0.0
  0
LINE
  5
602
100
AcDbEntity
  8
ALPHA
100
AcDbLine
 10
31.480336
 20
102.616572
 30
0.0
 11
31.444811
 21
102.619341
 31
0.0
  0
LINE
  5
603
100
AcDbEntity
  8
ALPHA
100
AcDbLine
 10
52.758226
 20
102.781573
 30
0.0
 11
51.644811
 21
102.781573
 31
0.0
  0
LINE
  5
604
100
AcDbEntity
  8
ALPHA
100
AcDbLine
 10
50.144811
 20
102.781573
 30
0.0
 11
48.887651
 21
102.781573
 31
0.0
  0
LWPOLYLINE
  5
605
100
AcDbEntity
  8
ALPHA
100
AcDbPolyline
 90
        7
 70
     0
 43
0.0
 10
50.144811
 20
102.781573
 10
50.150225
 20
102.736993
 10
50.167026
 20
102.69521
 10
50.195655
 20
102.659187
 10
50.235452
 20
102.632403
 10
50.285435
 20
102.61791
 10
50.309286
 20
102.616572
  0
LINE
  5
60E
100
AcDbEntity
  8
ALPHA
100
AcDbLine
 10
50.394811
 20
102.628023
 30
0.0
 11
50.394811
 21
102.805493
 31
0.0
  0
LWPOLYLINE
  5
60F
100
AcDbEntity
  8
ALPHA
100
AcDbPolyline
 90
        7
 70
     0
 43
0.0
 10
51.644811
 20
102.781573
 10
51.639396
 20
102.736993
 10
51.622595
 20
102.69521
 10
51.593966
 20
102.659187
 10
51.55417
 20
102.632403
 10
51.504186
 20
102.61791
 10
51.480336
 20
102.616572
  0
LINE
  5
618
100
AcDbEntity
  8
ALPHA
100
AcDbLine
 10
51.394811
 20
102.628023
 30
0.0
 11
51.394811
 21
102.803918
 31
0.0
  0
LINE
  5
619
100
AcDbEntity
  8
ALPHA
100
AcDbLine
 10
53.84127
 20
105.095871
 30
0.0
 11
53.827404
 21
105.095871
 31
0.0
  0
LINE
  5
61A
100
AcDbEntity
  8
ALPHA
100
AcDbLine
 10
51.644811
 20
102.781573
 30
0.0
 11
51.644811
 21
102.856682
 31
0.0
  0
LINE
  5
61B
100
AcDbEntity
  8
ALPHA
100
AcDbLine
 10
50.144811
 20
102.781573
 30
0.0
 11
50.144811
 21
102.854526
 31
0.0
  0
LINE
  5
61C
100
AcDbEntity
  8
ALPHA
100
AcDbLine
 10
48.994811
 20
102.616303
 30
0.0
 11
50.31043
 21
102.616303
 31
0.0
  0
LINE
  5
61D
100
AcDbEntity
  8
ALPHA
100
AcDbLine
 10
51.444811
 20
102.619341
 30
0.0
 11
51.394811
 21
102.628023
 31
0.0
  0
LINE
  5
61E
100
AcDbEntity
  8
ALPHA
100
AcDbLine
 10
50.394811
 20
102.628023
 30
0.0
 11
51.394811
 21
102.628023
 31
0.0
  0
LINE
  5
61F
100
AcDbEntity
  8
ALPHA
100
AcDbLine
 10
50.344811
 20
102.619341
 30
0.0
 11
50.394811
 21
102.628023
 31
0.0
  0
LINE
  5
620
100
AcDbEntity
  8
ALPHA
100
AcDbLine
 10
50.309286
 20
102.616572
 30
0.0
 11
50.344811
 21
102.619341
 31
0.0
  0
LINE
  5
621
100
AcDbEntity
  8
ALPHA
100
AcDbLine
 10
51.479191
 20
102.616303
 30
0.0
 11
52.549569
 21
102.616303
 31
0.0
  0
LINE
  5
622
100
AcDbEntity
  8
ALPHA
100
AcDbLine
 10
51.480336
 20
102.616572
 30
0.0
 11
51.444811
 21
102.619341
 31
0.0
  0
LINE
  5
623
100
AcDbEntity
  8
ALPHA
100
AcDbLine
 10
28.070301
 20
105.466721
 30
0.0
 11
28.114486
 21
105.466721
 31
0.0
  0
LINE
  5
624
100
AcDbEntity
  8
ALPHA
100
AcDbLine
 10
33.832456
 20
105.113696
 30
0.0
 11
33.834933
 21
105.131483
 31
0.0
  0
LWPOLYLINE
  5
625
100
AcDbEntity
  8
ALPHA
100
AcDbPolyline
 90
       22
 70
     0
 43
0.0
 10
27.965828
 20
105.075578
 10
27.966662
 20
105.070192
 10
28.08205
 20
104.685519
 10
28.249292
 20
104.319766
 10
28.465286
 20
103.979715
 10
28.72608
 20
103.671588
 10
29.026829
 20
103.401111
 10
29.362032
 20
103.173229
 10
29.725468
 20
102.992172
 10
30.110472
 20
102.861261
 10
30.509928
 20
102.782915
 10
30.916474
 20
102.758577
 10
31.322809
 20
102.788721
 10
31.721248
 20
102.872815
 10
32.104439
 20
103.009308
 10
32.465314
 20
103.195681
 10
32.797213
 20
103.428495
 10
33.094014
 20
103.703456
 10
33.350242
 20
104.015491
 10
33.561167
 20
104.358842
 10
33.7229
 20
104.727176
 10
33.832456
 20
105.113696
  0
LINE
  5
63D
100
AcDbEntity
  8
ALPHA
100
AcDbLine
 10
48.070301
 20
105.466721
 30
0.0
 11
48.114486
 21
105.466721
 31
0.0
  0
LINE
  5
63E
100
AcDbEntity
  8
ALPHA
100
AcDbLine
 10
53.832456
 20
105.113696
 30
0.0
 11
53.834933
 21
105.131483
 31
0.0
  0
LWPOLYLINE
  5
63F
100
AcDbEntity
  8
ALPHA
100
AcDbPolyline
 90
       22
 70
     0
 43
0.0
 10
47.965828
 20
105.075578
 10
47.966662
 20
105.070192
 10
48.08205
 20
104.685519
 10
48.249292
 20
104.319766
 10
48.465286
 20
103.979715
 10
48.72608
 20
103.671588
 10
49.026829
 20
103.401111
 10
49.362032
 20
103.173229
 10
49.725468
 20
102.992172
 10
50.110472
 20
102.861261
 10
50.509928
 20
102.782915
 10
50.916474
 20
102.758577
 10
51.322809
 20
102.788721
 10
51.721248
 20
102.872815
 10
52.104439
 20
103.009308
 10
52.465314
 20
103.195681
 10
52.797213
 20
103.428495
 10
53.094014
 20
103.703456
 10
53.350242
 20
104.015491
 10
53.561167
 20
104.358842
 10
53.7229
 20
104.727176
 10
53.832456
 20
105.113696
  0
LINE
  5
657
100
AcDbEntity
  8
ALPHA
100
AcDbLine
 10
36.794811
 20
78.633065
 30
0.0
 11
36.894811
 21
78.606677
 31
0.0
  0
LINE
  5
658
100
AcDbEntity
  8
ALPHA
100
AcDbLine
 10
36.894811
 20
76.619225
 30
0.0
 11
36.894811
 21
78.606677
 31
0.0
  0
LINE
  5
659
100
AcDbEntity
  8
ALPHA
100
AcDbLine
 10
44.894811
 20
76.619225
 30
0.0
 11
44.894811
 21
78.606677
 31
0.0
  0
LINE
  5
65A
100
AcDbEntity
  8
ALPHA
100
AcDbLine
 10
44.894811
 20
78.606677
 30
0.0
 11
44.994811
 21
78.633065
 31
0.0
  0
LINE
  5
65B
100
AcDbEntity
  8
ALPHA
100
AcDbLine
 10
30.644811
 20
97.975185
 30
0.0
 11
30.644811
 21
97.825185
 31
0.0
  0
LINE
  5
65C
100
AcDbEntity
  8
ALPHA
100
AcDbLine
 10
28.144811
 20
97.825185
 30
0.0
 11
28.144811
 21
97.975185
 31
0.0
  0
LINE
  5
65D
100
AcDbEntity
  8
ALPHA
100
AcDbLine
 10
28.144811
 20
93.675185
 30
0.0
 11
28.144811
 21
93.825185
 31
0.0
  0
LINE
  5
65E
100
AcDbEntity
  8
ALPHA
100
AcDbLine
 10
30.644811
 20
93.825185
 30
0.0
 11
30.644811
 21
93.675185
 31
0.0
  0
LINE
  5
65F
100
AcDbEntity
  8
ALPHA
100
AcDbLine
 10
50.644811
 20
97.975185
 30
0.0
 11
50.644811
 21
97.825185
 31
0.0
  0
LINE
  5
660
100
AcDbEntity
  8
ALPHA
100
AcDbLine
 10
48.144811
 20
97.825185
 30
0.0
 11
48.144811
 21
97.975185
 31
0.0
  0
LINE
  5
661
100
AcDbEntity
  8
ALPHA
100
AcDbLine
 10
48.144811
 20
93.675185
 30
0.0
 11
48.144811
 21
93.825185
 31
0.0
  0
LINE
  5
662
100
AcDbEntity
  8
ALPHA
100
AcDbLine
 10
50.644811
 20
93.825185
 30
0.0
 11
50.644811
 21
93.675185
 31
0.0
  0
LWPOLYLINE
  5
663
100
AcDbEntity
  8
ALPHA
100
AcDbPolyline
 90
        4
 70
     0
 43
0.0
 10
28.228759
 20
87.135981
 10
28.247337
 20
87.172336
 10
28.265861
 20
87.20858
 10
28.284331
 20
87.24471
  0
LWPOLYLINE
  5
669
100
AcDbEntity
  8
ALPHA
100
AcDbPolyline
 90
        4
 70
     0
 43
0.0
 10
33.50529
 20
87.24471
 10
33.52376
 20
87.20858
 10
33.542284
 20
87.172337
 10
33.560862
 20
87.135981
  0
LINE
  5
66F
100
AcDbEntity
  8
ALPHA
100
AcDbLine
 10
30.494811
 20
88.572514
 30
0.0
 11
30.494811
 21
87.292264
 31
0.0
  0
LINE
  5
670
100
AcDbEntity
  8
ALPHA
100
AcDbLine
 10
31.294811
 20
88.572514
 30
0.0
 11
30.494811
 21
88.572514
 31
0.0
  0
LINE
  5
671
100
AcDbEntity
  8
ALPHA
100
AcDbLine
 10
31.271243
 20
87.135981
 30
0.0
 11
33.560862
 21
87.135981
 31
0.0
  0
LWPOLYLINE
  5
672
100
AcDbEntity
  8
ALPHA
100
AcDbPolyline
 90
        4
 70
     0
 43
0.0
 10
33.560862
 20
87.135981
 10
33.594357
 20
86.84146
 10
33.594357
 20
86.544174
 10
33.560862
 20
86.249654
  0
LINE
  5
678
100
AcDbEntity
  8
ALPHA
100
AcDbLine
 10
28.228759
 20
87.135981
 30
0.0
 11
30.518378
 21
87.135981
 31
0.0
  0
LWPOLYLINE
  5
679
100
AcDbEntity
  8
ALPHA
100
AcDbPolyline
 90
        4
 70
     0
 43
0.0
 10
28.228759
 20
86.249654
 10
28.195264
 20
86.544174
 10
28.195264
 20
86.84146
 10
28.228759
 20
87.135981
  0
LINE
  5
67F
100
AcDbEntity
  8
ALPHA
100
AcDbLine
 10
30.259811
 20
86.405937
 30
0.0
 11
30.259811
 21
86.962449
 31
0.0
  0
LINE
  5
680
100
AcDbEntity
  8
ALPHA
100
AcDbLine
 10
29.902943
 20
87.08674
 30
0.0
 11
29.902943
 21
86.405937
 31
0.0
  0
LINE
  5
681
100
AcDbEntity
  8
ALPHA
100
AcDbLine
 10
31.529811
 20
86.405937
 30
0.0
 11
31.529811
 21
86.962449
 31
0.0
  0
LINE
  5
682
100
AcDbEntity
  8
ALPHA
100
AcDbLine
 10
31.886678
 20
87.08674
 30
0.0
 11
31.886678
 21
86.405937
 31
0.0
  0
LINE
  5
683
100
AcDbEntity
  8
ALPHA
100
AcDbLine
 10
30.894811
 20
86.152905
 30
0.0
 11
30.894811
 21
86.509896
 31
0.0
  0
LINE
  5
684
100
AcDbEntity
  8
ALPHA
100
AcDbLine
 10
30.894811
 20
86.509896
 30
0.0
 11
30.894811
 21
86.903819
 31
0.0
  0
LINE
  5
685
100
AcDbEntity
  8
ALPHA
100
AcDbLine
 10
29.902943
 20
87.08674
 30
0.0
 11
30.259811
 21
86.962449
 31
0.0
  0
LINE
  5
686
100
AcDbEntity
  8
ALPHA
100
AcDbLine
 10
30.259811
 20
86.962449
 30
0.0
 11
30.894811
 21
86.903819
 31
0.0
  0
LINE
  5
687
100
AcDbEntity
  8
ALPHA
100
AcDbLine
 10
30.894811
 20
86.903819
 30
0.0
 11
31.529811
 21
86.962449
 31
0.0
  0
LINE
  5
688
100
AcDbEntity
  8
ALPHA
100
AcDbLine
 10
31.529811
 20
86.962449
 30
0.0
 11
31.886678
 21
87.08674
 31
0.0
  0
LINE
  5
689
100
AcDbEntity
  8
ALPHA
100
AcDbLine
 10
31.271243
 20
87.08674
 30
0.0
 11
31.886678
 21
87.08674
 31
0.0
  0
LINE
  5
68A
100
AcDbEntity
  8
ALPHA
100
AcDbLine
 10
29.902943
 20
87.08674
 30
0.0
 11
30.518378
 21
87.08674
 31
0.0
  0
LINE
  5
68B
100
AcDbEntity
  8
ALPHA
100
AcDbLine
 10
31.294811
 20
88.572514
 30
0.0
 11
31.294811
 21
87.292264
 31
0.0
  0
LINE
  5
68C
100
AcDbEntity
  8
ALPHA
100
AcDbLine
 10
31.294811
 20
87.292264
 30
0.0
 11
33.201449
 21
87.292264
 31
0.0
  0
LINE
  5
68D
100
AcDbEntity
  8
ALPHA
100
AcDbLine
 10
28.588172
 20
87.292264
 30
0.0
 11
30.494811
 21
87.292264
 31
0.0
  0
LWPOLYLINE
  5
68E
100
AcDbEntity
  8
ALPHA
100
AcDbPolyline
 90
       19
 70
     0
 43
0.0
 10
28.588172
 20
86.405937
 10
28.683297
 20
86.066016
 10
28.830603
 20
85.742725
 10
29.026159
 20
85.445544
 10
29.265556
 20
85.181135
 10
29.543097
 20
84.955822
 10
29.852308
 20
84.774854
 10
30.185938
 20
84.642476
 10
30.536174
 20
84.561788
 10
30.894811
 20
84.534681
 10
31.253447
 20
84.561788
 10
31.603683
 20
84.642476
 10
31.937313
 20
84.774854
 10
32.246524
 20
84.955822
 10
32.524065
 20
85.181135
 10
32.763463
 20
85.445544
 10
32.959019
 20
85.742725
 10
33.106324
 20
86.066016
 10
33.201449
 20
86.405937
  0
LINE
  5
6A3
100
AcDbEntity
  8
ALPHA
100
AcDbLine
 10
31.294811
 20
86.405937
 30
0.0
 11
31.294811
 21
85.125687
 31
0.0
  0
LINE
  5
6A4
100
AcDbEntity
  8
ALPHA
100
AcDbLine
 10
31.294811
 20
85.125687
 30
0.0
 11
30.494811
 21
85.125687
 31
0.0
  0
LINE
  5
6A5
100
AcDbEntity
  8
ALPHA
100
AcDbLine
 10
30.894811
 20
86.509896
 30
0.0
 11
30.541037
 21
86.89096
 31
0.0
  0
LINE
  5
6A6
100
AcDbEntity
  8
ALPHA
100
AcDbLine
 10
30.894811
 20
86.509896
 30
0.0
 11
31.248585
 21
86.89096
 31
0.0
  0
LINE
  5
6A7
100
AcDbEntity
  8
ALPHA
100
AcDbLine
 10
30.537121
 20
87.193879
 30
0.0
 11
31.2525
 21
87.193879
 31
0.0
  0
LINE
  5
6A8
100
AcDbEntity
  8
ALPHA
100
AcDbLine
 10
31.249228
 20
86.940751
 30
0.0
 11
30.540393
 21
86.940751
 31
0.0
  0
LINE
  5
6A9
100
AcDbEntity
  8
ALPHA
100
AcDbLine
 10
30.502062
 20
88.083761
 30
0.0
 11
31.28756
 21
88.083761
 31
0.0
  0
LINE
  5
6AA
100
AcDbEntity
  8
ALPHA
100
AcDbLine
 10
30.502062
 20
85.518273
 30
0.0
 11
31.28756
 21
85.518273
 31
0.0
  0
LINE
  5
6AB
100
AcDbEntity
  8
ALPHA
100
AcDbLine
 10
30.537121
 20
85.943173
 30
0.0
 11
31.2525
 21
85.943173
 31
0.0
  0
LINE
  5
6AC
100
AcDbEntity
  8
ALPHA
100
AcDbLine
 10
30.545962
 20
86.509896
 30
0.0
 11
30.894811
 21
86.509896
 31
0.0
  0
LINE
  5
6AD
100
AcDbEntity
  8
ALPHA
100
AcDbLine
 10
30.894811
 20
86.509896
 30
0.0
 11
30.541037
 21
86.194161
 31
0.0
  0
LINE
  5
6AE
100
AcDbEntity
  8
ALPHA
100
AcDbLine
 10
30.894811
 20
86.509896
 30
0.0
 11
31.243659
 21
86.509896
 31
0.0
  0
LINE
  5
6AF
100
AcDbEntity
  8
ALPHA
100
AcDbLine
 10
30.894811
 20
86.509896
 30
0.0
 11
31.248585
 21
86.194161
 31
0.0
  0
LINE
  5
6B0
100
AcDbEntity
  8
ALPHA
100
AcDbLine
 10
30.494811
 20
86.405937
 30
0.0
 11
30.494811
 21
85.125687
 31
0.0
  0
LINE
  5
6B1
100
AcDbEntity
  8
ALPHA
100
AcDbLine
 10
31.249228
 20
86.152905
 30
0.0
 11
31.2525
 21
85.943173
 31
0.0
  0
LINE
  5
6B2
100
AcDbEntity
  8
ALPHA
100
AcDbLine
 10
31.2525
 20
85.943173
 30
0.0
 11
31.28756
 21
85.518273
 31
0.0
  0
LWPOLYLINE
  5
6B3
100
AcDbEntity
  8
ALPHA
100
AcDbPolyline
 90
        6
 70
     0
 43
0.0
 10
31.28756
 20
85.518273
 10
31.28999
 20
85.475403
 10
31.292027
 20
85.410775
 10
31.293541
 20
85.328769
 10
31.294491
 20
85.23164
 10
31.294811
 20
85.125687
  0
LWPOLYLINE
  5
6BB
100
AcDbEntity
  8
ALPHA
100
AcDbPolyline
 90
        7
 70
     0
 43
0.0
 10
28.284331
 20
87.24471
 10
28.299723
 20
87.257111
 10
28.333036
 20
87.268736
 10
28.381384
 20
87.278483
 10
28.442231
 20
87.285927
 10
28.513283
 20
87.290674
 10
28.588172
 20
87.292264
  0
LINE
  5
6C4
100
AcDbEntity
  8
ALPHA
100
AcDbLine
 10
31.271243
 20
86.298894
 30
0.0
 11
31.271243
 21
86.249654
 31
0.0
  0
LINE
  5
6C5
100
AcDbEntity
  8
ALPHA
100
AcDbLine
 10
31.294811
 20
87.292264
 30
0.0
 11
31.271243
 21
87.135981
 31
0.0
  0
LWPOLYLINE
  5
6C6
100
AcDbEntity
  8
ALPHA
100
AcDbPolyline
 90
        6
 70
     0
 43
0.0
 10
31.294811
 20
88.572514
 10
31.294491
 20
88.462327
 10
31.293541
 20
88.352597
 10
31.292027
 20
88.250506
 10
31.28999
 20
88.158857
 10
31.28756
 20
88.083761
  0
LINE
  5
6CE
100
AcDbEntity
  8
ALPHA
100
AcDbLine
 10
31.28756
 20
88.083761
 30
0.0
 11
31.2525
 21
87.193879
 31
0.0
  0
LINE
  5
6CF
100
AcDbEntity
  8
ALPHA
100
AcDbLine
 10
31.2525
 20
87.193879
 30
0.0
 11
31.249228
 21
86.940751
 31
0.0
  0
LINE
  5
6D0
100
AcDbEntity
  8
ALPHA
100
AcDbLine
 10
31.249228
 20
86.940751
 30
0.0
 11
31.271243
 21
87.08674
 31
0.0
  0
LINE
  5
6D1
100
AcDbEntity
  8
ALPHA
100
AcDbLine
 10
31.271243
 20
87.135981
 30
0.0
 11
31.271243
 21
87.08674
 31
0.0
  0
LINE
  5
6D2
100
AcDbEntity
  8
ALPHA
100
AcDbLine
 10
31.248585
 20
86.89096
 30
0.0
 11
31.243659
 21
86.509896
 31
0.0
  0
LINE
  5
6D3
100
AcDbEntity
  8
ALPHA
100
AcDbLine
 10
31.243659
 20
86.509896
 30
0.0
 11
31.248585
 21
86.194161
 31
0.0
  0
LINE
  5
6D4
100
AcDbEntity
  8
ALPHA
100
AcDbLine
 10
31.248585
 20
86.89096
 30
0.0
 11
31.248585
 21
86.194161
 31
0.0
  0
LWPOLYLINE
  5
6D5
100
AcDbEntity
  8
ALPHA
100
AcDbPolyline
 90
       19
 70
     0
 43
0.0
 10
33.201449
 20
87.292264
 10
33.106324
 20
87.632185
 10
32.959019
 20
87.955476
 10
32.763463
 20
88.252657
 10
32.524065
 20
88.517066
 10
32.246524
 20
88.742379
 10
31.937313
 20
88.923347
 10
31.603683
 20
89.055725
 10
31.253447
 20
89.136412
 10
30.894811
 20
89.16352
 10
30.536174
 20
89.136412
 10
30.185938
 20
89.055725
 10
29.852308
 20
88.923347
 10
29.543097
 20
88.742379
 10
29.265556
 20
88.517066
 10
29.026159
 20
88.252657
 10
28.830603
 20
87.955476
 10
28.683297
 20
87.632185
 10
28.588172
 20
87.292264
  0
LWPOLYLINE
  5
6EA
100
AcDbEntity
  8
ALPHA
100
AcDbPolyline
 90
        6
 70
     0
 43
0.0
 10
30.502062
 20
85.518273
 10
30.499632
 20
85.475403
 10
30.497594
 20
85.410775
 10
30.49608
 20
85.328769
 10
30.49513
 20
85.23164
 10
30.494811
 20
85.125687
  0
LINE
  5
6F2
100
AcDbEntity
  8
ALPHA
100
AcDbLine
 10
30.537121
 20
85.943173
 30
0.0
 11
30.502062
 21
85.518273
 31
0.0
  0
LINE
  5
6F3
100
AcDbEntity
  8
ALPHA
100
AcDbLine
 10
30.540393
 20
86.152905
 30
0.0
 11
30.537121
 21
85.943173
 31
0.0
  0
LWPOLYLINE
  5
6F4
100
AcDbEntity
  8
ALPHA
100
AcDbPolyline
 90
        7
 70
     0
 43
0.0
 10
33.201449
 20
87.292264
 10
33.276338
 20
87.290674
 10
33.34739
 20
87.285927
 10
33.408237
 20
87.278483
 10
33.456585
 20
87.268736
 10
33.489899
 20
87.257111
 10
33.50529
 20
87.24471
  0
LINE
  5
6FD
100
AcDbEntity
  8
ALPHA
100
AcDbLine
 10
30.518378
 20
86.298894
 30
0.0
 11
30.518378
 21
86.249654
 31
0.0
  0
LINE
  5
6FE
100
AcDbEntity
  8
ALPHA
100
AcDbLine
 10
30.540393
 20
86.940751
 30
0.0
 11
30.518378
 21
87.08674
 31
0.0
  0
LINE
  5
6FF
100
AcDbEntity
  8
ALPHA
100
AcDbLine
 10
30.537121
 20
87.193879
 30
0.0
 11
30.540393
 21
86.940751
 31
0.0
  0
LINE
  5
700
100
AcDbEntity
  8
ALPHA
100
AcDbLine
 10
30.502062
 20
88.083761
 30
0.0
 11
30.537121
 21
87.193879
 31
0.0
  0
LWPOLYLINE
  5
701
100
AcDbEntity
  8
ALPHA
100
AcDbPolyline
 90
        6
 70
     0
 43
0.0
 10
30.494811
 20
88.572514
 10
30.49513
 20
88.462327
 10
30.49608
 20
88.352597
 10
30.497594
 20
88.250506
 10
30.499632
 20
88.158857
 10
30.502062
 20
88.083761
  0
LINE
  5
709
100
AcDbEntity
  8
ALPHA
100
AcDbLine
 10
30.494811
 20
87.292264
 30
0.0
 11
30.518378
 21
87.135981
 31
0.0
  0
LINE
  5
70A
100
AcDbEntity
  8
ALPHA
100
AcDbLine
 10
30.518378
 20
87.135981
 30
0.0
 11
30.518378
 21
87.08674
 31
0.0
  0
LINE
  5
70B
100
AcDbEntity
  8
ALPHA
100
AcDbLine
 10
30.545962
 20
86.509896
 30
0.0
 11
30.541037
 21
86.194161
 31
0.0
  0
LINE
  5
70C
100
AcDbEntity
  8
ALPHA
100
AcDbLine
 10
30.541037
 20
86.89096
 30
0.0
 11
30.545962
 21
86.509896
 31
0.0
  0
LINE
  5
70D
100
AcDbEntity
  8
ALPHA
100
AcDbLine
 10
30.541037
 20
86.89096
 30
0.0
 11
30.541037
 21
86.194161
 31
0.0
  0
LWPOLYLINE
  5
70E
100
AcDbEntity
  8
ALPHA
100
AcDbPolyline
 90
        4
 70
     0
 43
0.0
 10
33.50529
 20
87.24471
 10
33.404044
 20
87.637679
 10
33.242194
 20
88.010453
 10
33.19472
 20
88.095931
  0
LWPOLYLINE
  5
714
100
AcDbEntity
  8
ALPHA
100
AcDbPolyline
 90
        4
 70
     0
 43
0.0
 10
28.284331
 20
87.24471
 10
28.385578
 20
87.637679
 10
28.547427
 20
88.010453
 10
28.594902
 20
88.095931
  0
LINE
  5
71A
100
AcDbEntity
  8
ALPHA
100
AcDbLine
 10
28.385578
 20
85.965414
 30
0.0
 11
28.284331
 21
86.358383
 31
0.0
  0
LINE
  5
71B
100
AcDbEntity
  8
ALPHA
100
AcDbLine
 10
28.386497
 20
85.963297
 30
0.0
 11
28.385578
 21
85.965414
 31
0.0
  0
LWPOLYLINE
  5
71C
100
AcDbEntity
  8
ALPHA
100
AcDbPolyline
 90
        9
 70
     0
 43
0.0
 10
30.894811
 20
84.192809
 10
30.48438
 20
84.224312
 10
30.083862
 20
84.31806
 10
29.70293
 20
84.471789
 10
29.350784
 20
84.681787
 10
29.035929
 20
84.94298
 10
28.76597
 20
85.249062
 10
28.547427
 20
85.592639
 10
28.386497
 20
85.963297
  0
LWPOLYLINE
  5
727
100
AcDbEntity
  8
ALPHA
100
AcDbPolyline
 90
       10
 70
     0
 43
0.0
 10
30.894811
 20
84.192809
 10
31.305241
 20
84.224312
 10
31.705759
 20
84.31806
 10
32.086691
 20
84.471789
 10
32.438837
 20
84.681787
 10
32.753692
 20
84.94298
 10
33.023651
 20
85.249062
 10
33.242194
 20
85.592639
 10
33.404044
 20
85.965414
 10
33.50529
 20
86.358383
  0
LWPOLYLINE
  5
733
100
AcDbEntity
  8
ALPHA
100
AcDbPolyline
 90
        4
 70
     0
 43
0.0
 10
33.560862
 20
86.249654
 10
33.542284
 20
86.28601
 10
33.52376
 20
86.322253
 10
33.50529
 20
86.358383
  0
LWPOLYLINE
  5
739
100
AcDbEntity
  8
ALPHA
100
AcDbPolyline
 90
        4
 70
     0
 43
0.0
 10
28.284331
 20
86.358383
 10
28.265861
 20
86.322253
 10
28.247337
 20
86.28601
 10
28.228759
 20
86.249654
  0
LINE
  5
73F
100
AcDbEntity
  8
ALPHA
100
AcDbLine
 10
31.271243
 20
86.298894
 30
0.0
 11
31.278669
 21
86.298894
 31
0.0
  0
LINE
  5
740
100
AcDbEntity
  8
ALPHA
100
AcDbLine
 10
30.510953
 20
86.298894
 30
0.0
 11
30.518378
 21
86.298894
 31
0.0
  0
LINE
  5
741
100
AcDbEntity
  8
ALPHA
100
AcDbLine
 10
31.249228
 20
86.152905
 30
0.0
 11
30.540393
 21
86.152905
 31
0.0
  0
LINE
  5
742
100
AcDbEntity
  8
ALPHA
100
AcDbLine
 10
31.249228
 20
86.152905
 30
0.0
 11
31.271243
 21
86.298894
 31
0.0
  0
LINE
  5
743
100
AcDbEntity
  8
ALPHA
100
AcDbLine
 10
31.278504
 20
86.297799
 30
0.0
 11
31.271243
 21
86.249654
 31
0.0
  0
LINE
  5
744
100
AcDbEntity
  8
ALPHA
100
AcDbLine
 10
31.294811
 20
86.405937
 30
0.0
 11
31.278504
 21
86.297799
 31
0.0
  0
LINE
  5
745
100
AcDbEntity
  8
ALPHA
100
AcDbLine
 10
30.511118
 20
86.297799
 30
0.0
 11
30.518378
 21
86.249654
 31
0.0
  0
LINE
  5
746
100
AcDbEntity
  8
ALPHA
100
AcDbLine
 10
30.494811
 20
86.405937
 30
0.0
 11
30.511118
 21
86.297799
 31
0.0
  0
LINE
  5
747
100
AcDbEntity
  8
ALPHA
100
AcDbLine
 10
30.540393
 20
86.152905
 30
0.0
 11
30.518378
 21
86.298894
 31
0.0
  0
LWPOLYLINE
  5
748
100
AcDbEntity
  8
ALPHA
100
AcDbPolyline
 90
        6
 70
     0
 43
0.0
 10
33.680222
 20
86.319251
 10
33.694811
 20
86.501804
 10
33.660338
 20
86.933166
 10
33.557769
 20
87.353907
 10
33.389629
 20
87.753665
 10
33.325887
 20
87.86984
  0
LINE
  5
750
100
AcDbEntity
  8
ALPHA
100
AcDbLine
 10
33.389629
 20
85.249943
 30
0.0
 11
33.444811
 21
85.381139
 31
0.0
  0
LWPOLYLINE
  5
751
100
AcDbEntity
  8
ALPHA
100
AcDbPolyline
 90
        4
 70
     0
 43
0.0
 10
32.645282
 20
84.359012
 10
32.87471
 20
84.551984
 10
33.160058
 20
84.881009
 10
33.389629
 20
85.249943
  0
LINE
  5
757
100
AcDbEntity
  8
ALPHA
100
AcDbLine
 10
28.594902
 20
88.095931
 30
0.0
 11
28.463784
 21
87.869982
 31
0.0
  0
LWPOLYLINE
  5
758
100
AcDbEntity
  8
ALPHA
100
AcDbPolyline
 90
       15
 70
     0
 43
0.0
 10
28.594977
 20
88.09606
 10
28.745662
 20
88.326713
 10
29.01341
 20
88.638282
 10
29.327082
 20
88.904903
 10
29.679162
 20
89.120143
 10
30.060999
 20
89.278652
 10
30.463185
 20
89.376517
 10
30.875964
 20
89.41136
 10
31.289164
 20
89.382319
 10
31.692626
 20
89.290142
 10
32.076536
 20
89.137116
 10
32.431562
 20
88.926989
 10
32.74889
 20
88.66506
 10
33.021028
 20
88.357589
 10
33.194632
 20
88.096083
  0
LINE
  5
769
100
AcDbEntity
  8
ALPHA
100
AcDbLine
 10
31.294811
 20
86.405937
 30
0.0
 11
33.201449
 21
86.405937
 31
0.0
  0
LINE
  5
76A
100
AcDbEntity
  8
ALPHA
100
AcDbLine
 10
28.588172
 20
86.405937
 30
0.0
 11
30.494811
 21
86.405937
 31
0.0
  0
LWPOLYLINE
  5
76B
100
AcDbEntity
  8
ALPHA
100
AcDbPolyline
 90
        7
 70
     0
 43
0.0
 10
28.588172
 20
86.405937
 10
28.513283
 20
86.404347
 10
28.442231
 20
86.3996
 10
28.381384
 20
86.392156
 10
28.333036
 20
86.382409
 10
28.299723
 20
86.370784
 10
28.284331
 20
86.358383
  0
LWPOLYLINE
  5
774
100
AcDbEntity
  8
ALPHA
100
AcDbPolyline
 90
        7
 70
     0
 43
0.0
 10
33.50529
 20
86.358383
 10
33.489899
 20
86.370784
 10
33.456585
 20
86.382409
 10
33.408237
 20
86.392156
 10
33.34739
 20
86.3996
 10
33.276338
 20
86.404347
 10
33.201449
 20
86.405937
  0
LWPOLYLINE
  5
77D
100
AcDbEntity
  8
ALPHA
100
AcDbPolyline
 90
        6
 70
     0
 43
0.0
 10
28.099067
 20
86.448544
 10
28.094811
 20
86.501804
 10
28.129283
 20
86.933166
 10
28.231852
 20
87.353907
 10
28.399992
 20
87.753665
 10
28.463735
 20
87.86984
  0
LINE
  5
785
100
AcDbEntity
  8
ALPHA
100
AcDbLine
 10
28.397173
 20
85.256646
 30
0.0
 11
28.363782
 21
85.336033
 31
0.0
  0
LINE
  5
786
100
AcDbEntity
  8
ALPHA
100
AcDbLine
 10
33.19472
 20
88.095931
 30
0.0
 11
33.325837
 21
87.869982
 31
0.0
  0
LWPOLYLINE
  5
787
100
AcDbEntity
  8
ALPHA
100
AcDbPolyline
 90
        4
 70
     0
 43
0.0
 10
48.228759
 20
87.135981
 10
48.247337
 20
87.172336
 10
48.265861
 20
87.20858
 10
48.284331
 20
87.24471
  0
LWPOLYLINE
  5
78D
100
AcDbEntity
  8
ALPHA
100
AcDbPolyline
 90
        4
 70
     0
 43
0.0
 10
53.50529
 20
87.24471
 10
53.52376
 20
87.20858
 10
53.542284
 20
87.172337
 10
53.560862
 20
87.135981
  0
LINE
  5
793
100
AcDbEntity
  8
ALPHA
100
AcDbLine
 10
50.494811
 20
88.572514
 30
0.0
 11
50.494811
 21
87.292264
 31
0.0
  0
LINE
  5
794
100
AcDbEntity
  8
ALPHA
100
AcDbLine
 10
51.294811
 20
88.572514
 30
0.0
 11
50.494811
 21
88.572514
 31
0.0
  0
LINE
  5
795
100
AcDbEntity
  8
ALPHA
100
AcDbLine
 10
51.271243
 20
87.135981
 30
0.0
 11
53.560862
 21
87.135981
 31
0.0
  0
LWPOLYLINE
  5
796
100
AcDbEntity
  8
ALPHA
100
AcDbPolyline
 90
        4
 70
     0
 43
0.0
 10
53.560862
 20
87.135981
 10
53.594357
 20
86.84146
 10
53.594357
 20
86.544174
 10
53.560862
 20
86.249654
  0
LINE
  5
79C
100
AcDbEntity
  8
ALPHA
100
AcDbLine
 10
48.228759
 20
87.135981
 30
0.0
 11
50.518378
 21
87.135981
 31
0.0
  0
LWPOLYLINE
  5
79D
100
AcDbEntity
  8
ALPHA
100
AcDbPolyline
 90
        4
 70
     0
 43
0.0
 10
48.228759
 20
86.249654
 10
48.195264
 20
86.544174
 10
48.195264
 20
86.84146
 10
48.228759
 20
87.135981
  0
LINE
  5
7A3
100
AcDbEntity
  8
ALPHA
100
AcDbLine
 10
50.259811
 20
86.405937
 30
0.0
 11
50.259811
 21
86.962449
 31
0.0
  0
LINE
  5
7A4
100
AcDbEntity
  8
ALPHA
100
AcDbLine
 10
49.902943
 20
87.08674
 30
0.0
 11
49.902943
 21
86.405937
 31
0.0
  0
LINE
  5
7A5
100
AcDbEntity
  8
ALPHA
100
AcDbLine
 10
51.529811
 20
86.405937
 30
0.0
 11
51.529811
 21
86.962449
 31
0.0
  0
LINE
  5
7A6
100
AcDbEntity
  8
ALPHA
100
AcDbLine
 10
51.886678
 20
87.08674
 30
0.0
 11
51.886678
 21
86.405937
 31
0.0
  0
LINE
  5
7A7
100
AcDbEntity
  8
ALPHA
100
AcDbLine
 10
50.894811
 20
86.152905
 30
0.0
 11
50.894811
 21
86.509896
 31
0.0
  0
LINE
  5
7A8
100
AcDbEntity
  8
ALPHA
100
AcDbLine
 10
50.894811
 20
86.509896
 30
0.0
 11
50.894811
 21
86.903819
 31
0.0
  0
LINE
  5
7A9
100
AcDbEntity
  8
ALPHA
100
AcDbLine
 10
49.902943
 20
87.08674
 30
0.0
 11
50.259811
 21
86.962449
 31
0.0
  0
LINE
  5
7AA
100
AcDbEntity
  8
ALPHA
100
AcDbLine
 10
50.259811
 20
86.962449
 30
0.0
 11
50.894811
 21
86.903819
 31
0.0
  0
LINE
  5
7AB
100
AcDbEntity
  8
ALPHA
100
AcDbLine
 10
50.894811
 20
86.903819
 30
0.0
 11
51.529811
 21
86.962449
 31
0.0
  0
LINE
  5
7AC
100
AcDbEntity
  8
ALPHA
100
AcDbLine
 10
51.529811
 20
86.962449
 30
0.0
 11
51.886678
 21
87.08674
 31
0.0
  0
LINE
  5
7AD
100
AcDbEntity
  8
ALPHA
100
AcDbLine
 10
51.271243
 20
87.08674
 30
0.0
 11
51.886678
 21
87.08674
 31
0.0
  0
LINE
  5
7AE
100
AcDbEntity
  8
ALPHA
100
AcDbLine
 10
49.902943
 20
87.08674
 30
0.0
 11
50.518378
 21
87.08674
 31
0.0
  0
LINE
  5
7AF
100
AcDbEntity
  8
ALPHA
100
AcDbLine
 10
51.294811
 20
88.572514
 30
0.0
 11
51.294811
 21
87.292264
 31
0.0
  0
LINE
  5
7B0
100
AcDbEntity
  8
ALPHA
100
AcDbLine
 10
51.294811
 20
87.292264
 30
0.0
 11
53.201449
 21
87.292264
 31
0.0
  0
LINE
  5
7B1
100
AcDbEntity
  8
ALPHA
100
AcDbLine
 10
48.588172
 20
87.292264
 30
0.0
 11
50.494811
 21
87.292264
 31
0.0
  0
LWPOLYLINE
  5
7B2
100
AcDbEntity
  8
ALPHA
100
AcDbPolyline
 90
       19
 70
     0
 43
0.0
 10
48.588172
 20
86.405937
 10
48.683297
 20
86.066016
 10
48.830603
 20
85.742725
 10
49.026159
 20
85.445544
 10
49.265556
 20
85.181135
 10
49.543097
 20
84.955822
 10
49.852308
 20
84.774854
 10
50.185938
 20
84.642476
 10
50.536174
 20
84.561788
 10
50.894811
 20
84.534681
 10
51.253447
 20
84.561788
 10
51.603683
 20
84.642476
 10
51.937313
 20
84.774854
 10
52.246524
 20
84.955822
 10
52.524065
 20
85.181135
 10
52.763463
 20
85.445544
 10
52.959019
 20
85.742725
 10
53.106324
 20
86.066016
 10
53.201449
 20
86.405937
  0
LINE
  5
7C7
100
AcDbEntity
  8
ALPHA
100
AcDbLine
 10
51.294811
 20
86.405937
 30
0.0
 11
51.294811
 21
85.125687
 31
0.0
  0
LINE
  5
7C8
100
AcDbEntity
  8
ALPHA
100
AcDbLine
 10
51.294811
 20
85.125687
 30
0.0
 11
50.494811
 21
85.125687
 31
0.0
  0
LINE
  5
7C9
100
AcDbEntity
  8
ALPHA
100
AcDbLine
 10
50.894811
 20
86.509896
 30
0.0
 11
50.541037
 21
86.89096
 31
0.0
  0
LINE
  5
7CA
100
AcDbEntity
  8
ALPHA
100
AcDbLine
 10
50.894811
 20
86.509896
 30
0.0
 11
51.248585
 21
86.89096
 31
0.0
  0
LINE
  5
7CB
100
AcDbEntity
  8
ALPHA
100
AcDbLine
 10
50.537121
 20
87.193879
 30
0.0
 11
51.2525
 21
87.193879
 31
0.0
  0
LINE
  5
7CC
100
AcDbEntity
  8
ALPHA
100
AcDbLine
 10
51.249228
 20
86.940751
 30
0.0
 11
50.540393
 21
86.940751
 31
0.0
  0
LINE
  5
7CD
100
AcDbEntity
  8
ALPHA
100
AcDbLine
 10
50.502062
 20
88.083761
 30
0.0
 11
51.28756
 21
88.083761
 31
0.0
  0
LINE
  5
7CE
100
AcDbEntity
  8
ALPHA
100
AcDbLine
 10
50.502062
 20
85.518273
 30
0.0
 11
51.28756
 21
85.518273
 31
0.0
  0
LINE
  5
7CF
100
AcDbEntity
  8
ALPHA
100
AcDbLine
 10
50.537121
 20
85.943173
 30
0.0
 11
51.2525
 21
85.943173
 31
0.0
  0
LINE
  5
7D0
100
AcDbEntity
  8
ALPHA
100
AcDbLine
 10
50.545962
 20
86.509896
 30
0.0
 11
50.894811
 21
86.509896
 31
0.0
  0
LINE
  5
7D1
100
AcDbEntity
  8
ALPHA
100
AcDbLine
 10
50.894811
 20
86.509896
 30
0.0
 11
50.541037
 21
86.194161
 31
0.0
  0
LINE
  5
7D2
100
AcDbEntity
  8
ALPHA
100
AcDbLine
 10
50.894811
 20
86.509896
 30
0.0
 11
51.243659
 21
86.509896
 31
0.0
  0
LINE
  5
7D3
100
AcDbEntity
  8
ALPHA
100
AcDbLine
 10
50.894811
 20
86.509896
 30
0.0
 11
51.248585
 21
86.194161
 31
0.0
  0
LINE
  5
7D4
100
AcDbEntity
  8
ALPHA
100
AcDbLine
 10
50.494811
 20
86.405937
 30
0.0
 11
50.494811
 21
85.125687
 31
0.0
  0
LINE
  5
7D5
100
AcDbEntity
  8
ALPHA
100
AcDbLine
 10
51.249228
 20
86.152905
 30
0.0
 11
51.2525
 21
85.943173
 31
0.0
  0
LINE
  5
7D6
100
AcDbEntity
  8
ALPHA
100
AcDbLine
 10
51.2525
 20
85.943173
 30
0.0
 11
51.28756
 21
85.518273
 31
0.0
  0
LWPOLYLINE
  5
7D7
100
AcDbEntity
  8
ALPHA
100
AcDbPolyline
 90
        6
 70
     0
 43
0.0
 10
51.28756
 20
85.518273
 10
51.28999
 20
85.475403
 10
51.292027
 20
85.410775
 10
51.293541
 20
85.328769
 10
51.294491
 20
85.23164
 10
51.294811
 20
85.125687
  0
LWPOLYLINE
  5
7DF
100
AcDbEntity
  8
ALPHA
100
AcDbPolyline
 90
        7
 70
     0
 43
0.0
 10
48.284331
 20
87.24471
 10
48.299723
 20
87.257111
 10
48.333036
 20
87.268736
 10
48.381384
 20
87.278483
 10
48.442231
 20
87.285927
 10
48.513283
 20
87.290674
 10
48.588172
 20
87.292264
  0
LINE
  5
7E8
100
AcDbEntity
  8
ALPHA
100
AcDbLine
 10
51.271243
 20
86.298894
 30
0.0
 11
51.271243
 21
86.249654
 31
0.0
  0
LINE
  5
7E9
100
AcDbEntity
  8
ALPHA
100
AcDbLine
 10
51.294811
 20
87.292264
 30
0.0
 11
51.271243
 21
87.135981
 31
0.0
  0
LWPOLYLINE
  5
7EA
100
AcDbEntity
  8
ALPHA
100
AcDbPolyline
 90
        6
 70
     0
 43
0.0
 10
51.294811
 20
88.572514
 10
51.294491
 20
88.462327
 10
51.293541
 20
88.352597
 10
51.292027
 20
88.250506
 10
51.28999
 20
88.158857
 10
51.28756
 20
88.083761
  0
LINE
  5
7F2
100
AcDbEntity
  8
ALPHA
100
AcDbLine
 10
51.28756
 20
88.083761
 30
0.0
 11
51.2525
 21
87.193879
 31
0.0
  0
LINE
  5
7F3
100
AcDbEntity
  8
ALPHA
100
AcDbLine
 10
51.2525
 20
87.193879
 30
0.0
 11
51.249228
 21
86.940751
 31
0.0
  0
LINE
  5
7F4
100
AcDbEntity
  8
ALPHA
100
AcDbLine
 10
51.249228
 20
86.940751
 30
0.0
 11
51.271243
 21
87.08674
 31
0.0
  0
LINE
  5
7F5
100
AcDbEntity
  8
ALPHA
100
AcDbLine
 10
51.271243
 20
87.135981
 30
0.0
 11
51.271243
 21
87.08674
 31
0.0
  0
LINE
  5
7F6
100
AcDbEntity
  8
ALPHA
100
AcDbLine
 10
51.248585
 20
86.89096
 30
0.0
 11
51.243659
 21
86.509896
 31
0.0
  0
LINE
  5
7F7
100
AcDbEntity
  8
ALPHA
100
AcDbLine
 10
51.243659
 20
86.509896
 30
0.0
 11
51.248585
 21
86.194161
 31
0.0
  0
LINE
  5
7F8
100
AcDbEntity
  8
ALPHA
100
AcDbLine
 10
51.248585
 20
86.89096
 30
0.0
 11
51.248585
 21
86.194161
 31
0.0
  0
LWPOLYLINE
  5
7F9
100
AcDbEntity
  8
ALPHA
100
AcDbPolyline
 90
       19
 70
     0
 43
0.0
 10
53.201449
 20
87.292264
 10
53.106324
 20
87.632185
 10
52.959019
 20
87.955476
 10
52.763463
 20
88.252657
 10
52.524065
 20
88.517066
 10
52.246524
 20
88.742379
 10
51.937313
 20
88.923347
 10
51.603683
 20
89.055725
 10
51.253447
 20
89.136412
 10
50.894811
 20
89.16352
 10
50.536174
 20
89.136412
 10
50.185938
 20
89.055725
 10
49.852308
 20
88.923347
 10
49.543097
 20
88.742379
 10
49.265556
 20
88.517066
 10
49.026159
 20
88.252657
 10
48.830603
 20
87.955476
 10
48.683297
 20
87.632185
 10
48.588172
 20
87.292264
  0
LWPOLYLINE
  5
80E
100
AcDbEntity
  8
ALPHA
100
AcDbPolyline
 90
        6
 70
     0
 43
0.0
 10
50.502062
 20
85.518273
 10
50.499632
 20
85.475403
 10
50.497594
 20
85.410775
 10
50.49608
 20
85.328769
 10
50.49513
 20
85.23164
 10
50.494811
 20
85.125687
  0
LINE
  5
816
100
AcDbEntity
  8
ALPHA
100
AcDbLine
 10
50.537121
 20
85.943173
 30
0.0
 11
50.502062
 21
85.518273
 31
0.0
  0
LINE
  5
817
100
AcDbEntity
  8
ALPHA
100
AcDbLine
 10
50.540393
 20
86.152905
 30
0.0
 11
50.537121
 21
85.943173
 31
0.0
  0
LWPOLYLINE
  5
818
100
AcDbEntity
  8
ALPHA
100
AcDbPolyline
 90
        7
 70
     0
 43
0.0
 10
53.201449
 20
87.292264
 10
53.276338
 20
87.290674
 10
53.34739
 20
87.285927
 10
53.408237
 20
87.278483
 10
53.456585
 20
87.268736
 10
53.489899
 20
87.257111
 10
53.50529
 20
87.24471
  0
LINE
  5
821
100
AcDbEntity
  8
ALPHA
100
AcDbLine
 10
50.518378
 20
86.298894
 30
0.0
 11
50.518378
 21
86.249654
 31
0.0
  0
LINE
  5
822
100
AcDbEntity
  8
ALPHA
100
AcDbLine
 10
50.540393
 20
86.940751
 30
0.0
 11
50.518378
 21
87.08674
 31
0.0
  0
LINE
  5
823
100
AcDbEntity
  8
ALPHA
100
AcDbLine
 10
50.537121
 20
87.193879
 30
0.0
 11
50.540393
 21
86.940751
 31
0.0
  0
LINE
  5
824
100
AcDbEntity
  8
ALPHA
100
AcDbLine
 10
50.502062
 20
88.083761
 30
0.0
 11
50.537121
 21
87.193879
 31
0.0
  0
LWPOLYLINE
  5
825
100
AcDbEntity
  8
ALPHA
100
AcDbPolyline
 90
        6
 70
     0
 43
0.0
 10
50.494811
 20
88.572514
 10
50.49513
 20
88.462327
 10
50.49608
 20
88.352597
 10
50.497594
 20
88.250506
 10
50.499632
 20
88.158857
 10
50.502062
 20
88.083761
  0
LINE
  5
82D
100
AcDbEntity
  8
ALPHA
100
AcDbLine
 10
50.494811
 20
87.292264
 30
0.0
 11
50.518378
 21
87.135981
 31
0.0
  0
LINE
  5
82E
100
AcDbEntity
  8
ALPHA
100
AcDbLine
 10
50.518378
 20
87.135981
 30
0.0
 11
50.518378
 21
87.08674
 31
0.0
  0
LINE
  5
82F
100
AcDbEntity
  8
ALPHA
100
AcDbLine
 10
50.545962
 20
86.509896
 30
0.0
 11
50.541037
 21
86.194161
 31
0.0
  0
LINE
  5
830
100
AcDbEntity
  8
ALPHA
100
AcDbLine
 10
50.541037
 20
86.89096
 30
0.0
 11
50.545962
 21
86.509896
 31
0.0
  0
LINE
  5
831
100
AcDbEntity
  8
ALPHA
100
AcDbLine
 10
50.541037
 20
86.89096
 30
0.0
 11
50.541037
 21
86.194161
 31
0.0
  0
LWPOLYLINE
  5
832
100
AcDbEntity
  8
ALPHA
100
AcDbPolyline
 90
        4
 70
     0
 43
0.0
 10
53.50529
 20
87.24471
 10
53.404044
 20
87.637679
 10
53.242194
 20
88.010453
 10
53.19472
 20
88.095931
  0
LWPOLYLINE
  5
838
100
AcDbEntity
  8
ALPHA
100
AcDbPolyline
 90
        4
 70
     0
 43
0.0
 10
48.284331
 20
87.24471
 10
48.385578
 20
87.637679
 10
48.547427
 20
88.010453
 10
48.594902
 20
88.095931
  0
LINE
  5
83E
100
AcDbEntity
  8
ALPHA
100
AcDbLine
 10
48.385578
 20
85.965414
 30
0.0
 11
48.284331
 21
86.358383
 31
0.0
  0
LINE
  5
83F
100
AcDbEntity
  8
ALPHA
100
AcDbLine
 10
48.386497
 20
85.963297
 30
0.0
 11
48.385578
 21
85.965414
 31
0.0
  0
LWPOLYLINE
  5
840
100
AcDbEntity
  8
ALPHA
100
AcDbPolyline
 90
        9
 70
     0
 43
0.0
 10
50.894811
 20
84.192809
 10
50.48438
 20
84.224312
 10
50.083862
 20
84.31806
 10
49.70293
 20
84.471789
 10
49.350784
 20
84.681787
 10
49.035929
 20
84.94298
 10
48.76597
 20
85.249062
 10
48.547427
 20
85.592639
 10
48.386497
 20
85.963297
  0
LWPOLYLINE
  5
84B
100
AcDbEntity
  8
ALPHA
100
AcDbPolyline
 90
       10
 70
     0
 43
0.0
 10
50.894811
 20
84.192809
 10
51.305241
 20
84.224312
 10
51.705759
 20
84.31806
 10
52.086691
 20
84.471789
 10
52.438837
 20
84.681787
 10
52.753692
 20
84.94298
 10
53.023651
 20
85.249062
 10
53.242194
 20
85.592639
 10
53.404044
 20
85.965414
 10
53.50529
 20
86.358383
  0
LWPOLYLINE
  5
857
100
AcDbEntity
  8
ALPHA
100
AcDbPolyline
 90
        4
 70
     0
 43
0.0
 10
53.560862
 20
86.249654
 10
53.542284
 20
86.28601
 10
53.52376
 20
86.322253
 10
53.50529
 20
86.358383
  0
LWPOLYLINE
  5
85D
100
AcDbEntity
  8
ALPHA
100
AcDbPolyline
 90
        4
 70
     0
 43
0.0
 10
48.284331
 20
86.358383
 10
48.265861
 20
86.322253
 10
48.247337
 20
86.28601
 10
48.228759
 20
86.249654
  0
LINE
  5
863
100
AcDbEntity
  8
ALPHA
100
AcDbLine
 10
51.271243
 20
86.298894
 30
0.0
 11
51.278669
 21
86.298894
 31
0.0
  0
LINE
  5
864
100
AcDbEntity
  8
ALPHA
100
AcDbLine
 10
50.510953
 20
86.298894
 30
0.0
 11
50.518378
 21
86.298894
 31
0.0
  0
LINE
  5
865
100
AcDbEntity
  8
ALPHA
100
AcDbLine
 10
51.249228
 20
86.152905
 30
0.0
 11
50.540393
 21
86.152905
 31
0.0
  0
LINE
  5
866
100
AcDbEntity
  8
ALPHA
100
AcDbLine
 10
51.249228
 20
86.152905
 30
0.0
 11
51.271243
 21
86.298894
 31
0.0
  0
LINE
  5
867
100
AcDbEntity
  8
ALPHA
100
AcDbLine
 10
51.278504
 20
86.297799
 30
0.0
 11
51.271243
 21
86.249654
 31
0.0
  0
LINE
  5
868
100
AcDbEntity
  8
ALPHA
100
AcDbLine
 10
51.294811
 20
86.405937
 30
0.0
 11
51.278504
 21
86.297799
 31
0.0
  0
LINE
  5
869
100
AcDbEntity
  8
ALPHA
100
AcDbLine
 10
50.511118
 20
86.297799
 30
0.0
 11
50.518378
 21
86.249654
 31
0.0
  0
LINE
  5
86A
100
AcDbEntity
  8
ALPHA
100
AcDbLine
 10
50.494811
 20
86.405937
 30
0.0
 11
50.511118
 21
86.297799
 31
0.0
  0
LINE
  5
86B
100
AcDbEntity
  8
ALPHA
100
AcDbLine
 10
50.540393
 20
86.152905
 30
0.0
 11
50.518378
 21
86.298894
 31
0.0
  0
LWPOLYLINE
  5
86C
100
AcDbEntity
  8
ALPHA
100
AcDbPolyline
 90
        6
 70
     0
 43
0.0
 10
53.680222
 20
86.319251
 10
53.694811
 20
86.501804
 10
53.660338
 20
86.933166
 10
53.557769
 20
87.353907
 10
53.389629
 20
87.753665
 10
53.325887
 20
87.86984
  0
LINE
  5
874
100
AcDbEntity
  8
ALPHA
100
AcDbLine
 10
53.389629
 20
85.249943
 30
0.0
 11
53.444811
 21
85.381139
 31
0.0
  0
LWPOLYLINE
  5
875
100
AcDbEntity
  8
ALPHA
100
AcDbPolyline
 90
        4
 70
     0
 43
0.0
 10
52.645282
 20
84.359012
 10
52.87471
 20
84.551984
 10
53.160058
 20
84.881009
 10
53.389629
 20
85.249943
  0
LINE
  5
87B
100
AcDbEntity
  8
ALPHA
100
AcDbLine
 10
48.594902
 20
88.095931
 30
0.0
 11
48.463784
 21
87.869982
 31
0.0
  0
LWPOLYLINE
  5
87C
100
AcDbEntity
  8
ALPHA
100
AcDbPolyline
 90
       15
 70
     0
 43
0.0
 10
48.594977
 20
88.09606
 10
48.745662
 20
88.326713
 10
49.01341
 20
88.638282
 10
49.327082
 20
88.904903
 10
49.679162
 20
89.120143
 10
50.060999
 20
89.278652
 10
50.463185
 20
89.376517
 10
50.875964
 20
89.41136
 10
51.289164
 20
89.382319
 10
51.692626
 20
89.290142
 10
52.076536
 20
89.137116
 10
52.431562
 20
88.926989
 10
52.74889
 20
88.66506
 10
53.021028
 20
88.357589
 10
53.194632
 20
88.096083
  0
LINE
  5
88D
100
AcDbEntity
  8
ALPHA
100
AcDbLine
 10
51.294811
 20
86.405937
 30
0.0
 11
53.201449
 21
86.405937
 31
0.0
  0
LINE
  5
88E
100
AcDbEntity
  8
ALPHA
100
AcDbLine
 10
48.588172
 20
86.405937
 30
0.0
 11
50.494811
 21
86.405937
 31
0.0
  0
LWPOLYLINE
  5
88F
100
AcDbEntity
  8
ALPHA
100
AcDbPolyline
 90
        7
 70
     0
 43
0.0
 10
48.588172
 20
86.405937
 10
48.513283
 20
86.404347
 10
48.442231
 20
86.3996
 10
48.381384
 20
86.392156
 10
48.333036
 20
86.382409
 10
48.299723
 20
86.370784
 10
48.284331
 20
86.358383
  0
LWPOLYLINE
  5
898
100
AcDbEntity
  8
ALPHA
100
AcDbPolyline
 90
        7
 70
     0
 43
0.0
 10
53.50529
 20
86.358383
 10
53.489899
 20
86.370784
 10
53.456585
 20
86.382409
 10
53.408237
 20
86.392156
 10
53.34739
 20
86.3996
 10
53.276338
 20
86.404347
 10
53.201449
 20
86.405937
  0
LWPOLYLINE
  5
8A1
100
AcDbEntity
  8
ALPHA
100
AcDbPolyline
 90
        6
 70
     0
 43
0.0
 10
48.099067
 20
86.448544
 10
48.094811
 20
86.501804
 10
48.129283
 20
86.933166
 10
48.231852
 20
87.353907
 10
48.399992
 20
87.753665
 10
48.463735
 20
87.86984
  0
LINE
  5
8A9
100
AcDbEntity
  8
ALPHA
100
AcDbLine
 10
48.397173
 20
85.256646
 30
0.0
 11
48.363782
 21
85.336033
 31
0.0
  0
LINE
  5
8AA
100
AcDbEntity
  8
ALPHA
100
AcDbLine
 10
53.19472
 20
88.095931
 30
0.0
 11
53.325837
 21
87.869982
 31
0.0
  0
LINE
  5
8AB
100
AcDbEntity
  8
ALPHA
100
AcDbLine
 10
31.271243
 20
105.078747
 30
0.0
 11
33.560862
 21
105.078747
 31
0.0
  0
LWPOLYLINE
  5
8AC
100
AcDbEntity
  8
ALPHA
100
AcDbPolyline
 90
        4
 70
     0
 43
0.0
 10
33.560862
 20
105.078747
 10
33.542284
 20
105.042391
 10
33.52376
 20
105.006148
 10
33.50529
 20
104.970018
  0
LINE
  5
8B2
100
AcDbEntity
  8
ALPHA
100
AcDbLine
 10
28.228759
 20
105.078747
 30
0.0
 11
30.518378
 21
105.078747
 31
0.0
  0
LWPOLYLINE
  5
8B3
100
AcDbEntity
  8
ALPHA
100
AcDbPolyline
 90
        4
 70
     0
 43
0.0
 10
28.284331
 20
104.970018
 10
28.265861
 20
105.006147
 10
28.247337
 20
105.04239
 10
28.228759
 20
105.078747
  0
LINE
  5
8B9
100
AcDbEntity
  8
ALPHA
100
AcDbLine
 10
30.494811
 20
107.08904
 30
0.0
 11
30.494811
 21
105.80879
 31
0.0
  0
LWPOLYLINE
  5
8BA
100
AcDbEntity
  8
ALPHA
100
AcDbPolyline
 90
        4
 70
     0
 43
0.0
 10
33.580958
 20
105.788368
 10
33.594357
 20
105.670553
 10
33.594357
 20
105.373267
 10
33.560862
 20
105.078747
  0
LINE
  5
8C0
100
AcDbEntity
  8
ALPHA
100
AcDbLine
 10
31.294811
 20
107.08904
 30
0.0
 11
30.494811
 21
107.08904
 31
0.0
  0
LWPOLYLINE
  5
8C1
100
AcDbEntity
  8
ALPHA
100
AcDbPolyline
 90
        4
 70
     0
 43
0.0
 10
28.228759
 20
105.078747
 10
28.195264
 20
105.373267
 10
28.195264
 20
105.670553
 10
28.197387
 20
105.68922
  0
LINE
  5
8C7
100
AcDbEntity
  8
ALPHA
100
AcDbLine
 10
30.259811
 20
105.252278
 30
0.0
 11
30.259811
 21
105.80879
 31
0.0
  0
LINE
  5
8C8
100
AcDbEntity
  8
ALPHA
100
AcDbLine
 10
29.902943
 20
105.80879
 30
0.0
 11
29.902943
 21
105.127987
 31
0.0
  0
LINE
  5
8C9
100
AcDbEntity
  8
ALPHA
100
AcDbLine
 10
31.529811
 20
105.252278
 30
0.0
 11
31.529811
 21
105.80879
 31
0.0
  0
LINE
  5
8CA
100
AcDbEntity
  8
ALPHA
100
AcDbLine
 10
31.886678
 20
105.80879
 30
0.0
 11
31.886678
 21
105.127987
 31
0.0
  0
LINE
  5
8CB
100
AcDbEntity
  8
ALPHA
100
AcDbLine
 10
30.894811
 20
105.310908
 30
0.0
 11
30.894811
 21
105.704831
 31
0.0
  0
LINE
  5
8CC
100
AcDbEntity
  8
ALPHA
100
AcDbLine
 10
30.894811
 20
105.704831
 30
0.0
 11
30.894811
 21
106.061822
 31
0.0
  0
LINE
  5
8CD
100
AcDbEntity
  8
ALPHA
100
AcDbLine
 10
31.294811
 20
107.08904
 30
0.0
 11
31.294811
 21
105.80879
 31
0.0
  0
LWPOLYLINE
  5
8CE
100
AcDbEntity
  8
ALPHA
100
AcDbPolyline
 90
        7
 70
     0
 43
0.0
 10
33.50529
 20
104.970018
 10
33.489899
 20
104.957616
 10
33.456585
 20
104.945992
 10
33.408237
 20
104.936244
 10
33.34739
 20
104.9288
 10
33.276338
 20
104.924053
 10
33.201449
 20
104.922463
  0
LWPOLYLINE
  5
8D7
100
AcDbEntity
  8
ALPHA
100
AcDbPolyline
 90
       19
 70
     0
 43
0.0
 10
28.588172
 20
104.922463
 10
28.683297
 20
104.582542
 10
28.830603
 20
104.259251
 10
29.026159
 20
103.962071
 10
29.265556
 20
103.697661
 10
29.543097
 20
103.472348
 10
29.852308
 20
103.29138
 10
30.185938
 20
103.159003
 10
30.536174
 20
103.078315
 10
30.894811
 20
103.051207
 10
31.253447
 20
103.078315
 10
31.603683
 20
103.159003
 10
31.937313
 20
103.29138
 10
32.246524
 20
103.472348
 10
32.524065
 20
103.697661
 10
32.763463
 20
103.962071
 10
32.959019
 20
104.259251
 10
33.106324
 20
104.582542
 10
33.201449
 20
104.922463
  0
LINE
  5
8EC
100
AcDbEntity
  8
ALPHA
100
AcDbLine
 10
31.294811
 20
104.922463
 30
0.0
 11
33.201449
 21
104.922463
 31
0.0
  0
LINE
  5
8ED
100
AcDbEntity
  8
ALPHA
100
AcDbLine
 10
31.294811
 20
104.922463
 30
0.0
 11
31.294811
 21
103.642213
 31
0.0
  0
LINE
  5
8EE
100
AcDbEntity
  8
ALPHA
100
AcDbLine
 10
31.271243
 20
105.127987
 30
0.0
 11
31.886678
 21
105.127987
 31
0.0
  0
LINE
  5
8EF
100
AcDbEntity
  8
ALPHA
100
AcDbLine
 10
31.529811
 20
105.252278
 30
0.0
 11
31.886678
 21
105.127987
 31
0.0
  0
LINE
  5
8F0
100
AcDbEntity
  8
ALPHA
100
AcDbLine
 10
30.894811
 20
105.310908
 30
0.0
 11
31.529811
 21
105.252278
 31
0.0
  0
LINE
  5
8F1
100
AcDbEntity
  8
ALPHA
100
AcDbLine
 10
30.259811
 20
105.252278
 30
0.0
 11
30.894811
 21
105.310908
 31
0.0
  0
LINE
  5
8F2
100
AcDbEntity
  8
ALPHA
100
AcDbLine
 10
29.902943
 20
105.127987
 30
0.0
 11
30.259811
 21
105.252278
 31
0.0
  0
LINE
  5
8F3
100
AcDbEntity
  8
ALPHA
100
AcDbLine
 10
29.902943
 20
105.127987
 30
0.0
 11
30.518378
 21
105.127987
 31
0.0
  0
LINE
  5
8F4
100
AcDbEntity
  8
ALPHA
100
AcDbLine
 10
30.894811
 20
105.704831
 30
0.0
 11
30.541037
 21
106.020567
 31
0.0
  0
LINE
  5
8F5
100
AcDbEntity
  8
ALPHA
100
AcDbLine
 10
30.894811
 20
105.704831
 30
0.0
 11
31.248585
 21
106.020567
 31
0.0
  0
LINE
  5
8F6
100
AcDbEntity
  8
ALPHA
100
AcDbLine
 10
30.537121
 20
106.271554
 30
0.0
 11
31.2525
 21
106.271554
 31
0.0
  0
LINE
  5
8F7
100
AcDbEntity
  8
ALPHA
100
AcDbLine
 10
31.294811
 20
103.642213
 30
0.0
 11
30.494811
 21
103.642213
 31
0.0
  0
LINE
  5
8F8
100
AcDbEntity
  8
ALPHA
100
AcDbLine
 10
30.502062
 20
106.696455
 30
0.0
 11
31.28756
 21
106.696455
 31
0.0
  0
LINE
  5
8F9
100
AcDbEntity
  8
ALPHA
100
AcDbLine
 10
30.502062
 20
104.130966
 30
0.0
 11
31.28756
 21
104.130966
 31
0.0
  0
LINE
  5
8FA
100
AcDbEntity
  8
ALPHA
100
AcDbLine
 10
30.537121
 20
105.020849
 30
0.0
 11
31.2525
 21
105.020849
 31
0.0
  0
LINE
  5
8FB
100
AcDbEntity
  8
ALPHA
100
AcDbLine
 10
30.545962
 20
105.704831
 30
0.0
 11
30.894811
 21
105.704831
 31
0.0
  0
LINE
  5
8FC
100
AcDbEntity
  8
ALPHA
100
AcDbLine
 10
30.894811
 20
105.704831
 30
0.0
 11
30.541037
 21
105.323768
 31
0.0
  0
LINE
  5
8FD
100
AcDbEntity
  8
ALPHA
100
AcDbLine
 10
30.894811
 20
105.704831
 30
0.0
 11
31.243659
 21
105.704831
 31
0.0
  0
LINE
  5
8FE
100
AcDbEntity
  8
ALPHA
100
AcDbLine
 10
30.894811
 20
105.704831
 30
0.0
 11
31.248585
 21
105.323768
 31
0.0
  0
LINE
  5
8FF
100
AcDbEntity
  8
ALPHA
100
AcDbLine
 10
31.249228
 20
105.273976
 30
0.0
 11
30.540393
 21
105.273976
 31
0.0
  0
LINE
  5
900
100
AcDbEntity
  8
ALPHA
100
AcDbLine
 10
31.249228
 20
105.273976
 30
0.0
 11
31.271243
 21
105.127987
 31
0.0
  0
LINE
  5
901
100
AcDbEntity
  8
ALPHA
100
AcDbLine
 10
31.249228
 20
105.273976
 30
0.0
 11
31.2525
 21
105.020849
 31
0.0
  0
LINE
  5
902
100
AcDbEntity
  8
ALPHA
100
AcDbLine
 10
31.2525
 20
105.020849
 30
0.0
 11
31.28756
 21
104.130966
 31
0.0
  0
LWPOLYLINE
  5
903
100
AcDbEntity
  8
ALPHA
100
AcDbPolyline
 90
        6
 70
     0
 43
0.0
 10
31.28756
 20
104.130966
 10
31.28999
 20
104.055871
 10
31.292027
 20
103.964221
 10
31.293541
 20
103.86213
 10
31.294491
 20
103.7524
 10
31.294811
 20
103.642213
  0
LINE
  5
90B
100
AcDbEntity
  8
ALPHA
100
AcDbLine
 10
31.294811
 20
104.922463
 30
0.0
 11
31.271243
 21
105.078747
 31
0.0
  0
LINE
  5
90C
100
AcDbEntity
  8
ALPHA
100
AcDbLine
 10
31.271243
 20
105.127987
 30
0.0
 11
31.271243
 21
105.078747
 31
0.0
  0
LINE
  5
90D
100
AcDbEntity
  8
ALPHA
100
AcDbLine
 10
30.494811
 20
104.922463
 30
0.0
 11
30.494811
 21
103.642213
 31
0.0
  0
LWPOLYLINE
  5
90E
100
AcDbEntity
  8
ALPHA
100
AcDbPolyline
 90
        6
 70
     0
 43
0.0
 10
31.294811
 20
107.08904
 10
31.294491
 20
106.983087
 10
31.293541
 20
106.885958
 10
31.292027
 20
106.803953
 10
31.28999
 20
106.739324
 10
31.28756
 20
106.696455
  0
LINE
  5
916
100
AcDbEntity
  8
ALPHA
100
AcDbLine
 10
31.28756
 20
106.696455
 30
0.0
 11
31.2525
 21
106.271554
 31
0.0
  0
LINE
  5
917
100
AcDbEntity
  8
ALPHA
100
AcDbLine
 10
31.2525
 20
106.271554
 30
0.0
 11
31.249228
 21
106.061822
 31
0.0
  0
LINE
  5
918
100
AcDbEntity
  8
ALPHA
100
AcDbLine
 10
28.588172
 20
104.922463
 30
0.0
 11
30.494811
 21
104.922463
 31
0.0
  0
LINE
  5
919
100
AcDbEntity
  8
ALPHA
100
AcDbLine
 10
31.271243
 20
105.965074
 30
0.0
 11
31.271243
 21
105.915833
 31
0.0
  0
LINE
  5
91A
100
AcDbEntity
  8
ALPHA
100
AcDbLine
 10
31.248585
 20
106.020567
 30
0.0
 11
31.243659
 21
105.704831
 31
0.0
  0
LINE
  5
91B
100
AcDbEntity
  8
ALPHA
100
AcDbLine
 10
31.243659
 20
105.704831
 30
0.0
 11
31.248585
 21
105.323768
 31
0.0
  0
LINE
  5
91C
100
AcDbEntity
  8
ALPHA
100
AcDbLine
 10
31.248585
 20
106.020567
 30
0.0
 11
31.248585
 21
105.323768
 31
0.0
  0
LINE
  5
91D
100
AcDbEntity
  8
ALPHA
100
AcDbLine
 10
30.494811
 20
104.922463
 30
0.0
 11
30.518378
 21
105.078747
 31
0.0
  0
LWPOLYLINE
  5
91E
100
AcDbEntity
  8
ALPHA
100
AcDbPolyline
 90
        6
 70
     0
 43
0.0
 10
30.502062
 20
104.130966
 10
30.499632
 20
104.055871
 10
30.497594
 20
103.964221
 10
30.49608
 20
103.86213
 10
30.49513
 20
103.7524
 10
30.494811
 20
103.642213
  0
LINE
  5
926
100
AcDbEntity
  8
ALPHA
100
AcDbLine
 10
30.537121
 20
105.020849
 30
0.0
 11
30.502062
 21
104.130966
 31
0.0
  0
LINE
  5
927
100
AcDbEntity
  8
ALPHA
100
AcDbLine
 10
30.540393
 20
105.273976
 30
0.0
 11
30.537121
 21
105.020849
 31
0.0
  0
LINE
  5
928
100
AcDbEntity
  8
ALPHA
100
AcDbLine
 10
30.540393
 20
105.273976
 30
0.0
 11
30.518378
 21
105.127987
 31
0.0
  0
LINE
  5
929
100
AcDbEntity
  8
ALPHA
100
AcDbLine
 10
30.518378
 20
105.127987
 30
0.0
 11
30.518378
 21
105.078747
 31
0.0
  0
LINE
  5
92A
100
AcDbEntity
  8
ALPHA
100
AcDbLine
 10
30.537121
 20
106.271554
 30
0.0
 11
30.540393
 21
106.061822
 31
0.0
  0
LINE
  5
92B
100
AcDbEntity
  8
ALPHA
100
AcDbLine
 10
30.502062
 20
106.696455
 30
0.0
 11
30.537121
 21
106.271554
 31
0.0
  0
LWPOLYLINE
  5
92C
100
AcDbEntity
  8
ALPHA
100
AcDbPolyline
 90
        6
 70
     0
 43
0.0
 10
30.494811
 20
107.08904
 10
30.49513
 20
106.983087
 10
30.49608
 20
106.885958
 10
30.497594
 20
106.803953
 10
30.499632
 20
106.739324
 10
30.502062
 20
106.696455
  0
LWPOLYLINE
  5
934
100
AcDbEntity
  8
ALPHA
100
AcDbPolyline
 90
        3
 70
     0
 43
0.0
 10
28.719729
 20
106.228668
 10
28.683297
 20
106.148712
 10
28.588172
 20
105.80879
  0
LINE
  5
939
100
AcDbEntity
  8
ALPHA
100
AcDbLine
 10
33.030946
 20
106.314145
 30
0.0
 11
33.00571
 21
106.369528
 31
0.0
  0
LWPOLYLINE
  5
93A
100
AcDbEntity
  8
ALPHA
100
AcDbPolyline
 90
        3
 70
     0
 43
0.0
 10
33.201449
 20
105.80879
 10
33.106324
 20
106.148712
 10
33.030946
 20
106.314145
  0
LINE
  5
93F
100
AcDbEntity
  8
ALPHA
100
AcDbLine
 10
30.518378
 20
105.965074
 30
0.0
 11
30.518378
 21
105.915833
 31
0.0
  0
LINE
  5
940
100
AcDbEntity
  8
ALPHA
100
AcDbLine
 10
30.545962
 20
105.704831
 30
0.0
 11
30.541037
 21
105.323768
 31
0.0
  0
LINE
  5
941
100
AcDbEntity
  8
ALPHA
100
AcDbLine
 10
30.541037
 20
106.020567
 30
0.0
 11
30.545962
 21
105.704831
 31
0.0
  0
LINE
  5
942
100
AcDbEntity
  8
ALPHA
100
AcDbLine
 10
30.541037
 20
106.020567
 30
0.0
 11
30.541037
 21
105.323768
 31
0.0
  0
LWPOLYLINE
  5
943
100
AcDbEntity
  8
ALPHA
100
AcDbPolyline
 90
        4
 70
     0
 43
0.0
 10
33.19472
 20
104.118796
 10
33.242194
 20
104.204274
 10
33.404044
 20
104.577049
 10
33.50529
 20
104.970018
  0
LINE
  5
949
100
AcDbEntity
  8
ALPHA
100
AcDbLine
 10
33.50529
 20
105.856344
 30
0.0
 11
33.491477
 21
105.909957
 31
0.0
  0
LWPOLYLINE
  5
94A
100
AcDbEntity
  8
ALPHA
100
AcDbPolyline
 90
        7
 70
     0
 43
0.0
 10
28.588172
 20
104.922463
 10
28.513283
 20
104.924053
 10
28.442231
 20
104.9288
 10
28.381384
 20
104.936244
 10
28.333036
 20
104.945992
 10
28.299723
 20
104.957616
 10
28.284331
 20
104.970018
  0
LWPOLYLINE
  5
953
100
AcDbEntity
  8
ALPHA
100
AcDbPolyline
 90
        4
 70
     0
 43
0.0
 10
28.594902
 20
104.118796
 10
28.547427
 20
104.204274
 10
28.385578
 20
104.577049
 10
28.284331
 20
104.970018
  0
LINE
  5
959
100
AcDbEntity
  8
ALPHA
100
AcDbLine
 10
33.50529
 20
105.856344
 30
0.0
 11
33.517745
 21
105.880707
 31
0.0
  0
LINE
  5
95A
100
AcDbEntity
  8
ALPHA
100
AcDbLine
 10
31.271243
 20
105.915833
 30
0.0
 11
31.278669
 21
105.915833
 31
0.0
  0
LINE
  5
95B
100
AcDbEntity
  8
ALPHA
100
AcDbLine
 10
30.510953
 20
105.915833
 30
0.0
 11
30.518378
 21
105.915833
 31
0.0
  0
LINE
  5
95C
100
AcDbEntity
  8
ALPHA
100
AcDbLine
 10
31.249228
 20
106.061822
 30
0.0
 11
30.540393
 21
106.061822
 31
0.0
  0
LINE
  5
95D
100
AcDbEntity
  8
ALPHA
100
AcDbLine
 10
31.278504
 20
105.916928
 30
0.0
 11
31.271243
 21
105.965074
 31
0.0
  0
LINE
  5
95E
100
AcDbEntity
  8
ALPHA
100
AcDbLine
 10
31.294811
 20
105.80879
 30
0.0
 11
31.278504
 21
105.916928
 31
0.0
  0
LINE
  5
95F
100
AcDbEntity
  8
ALPHA
100
AcDbLine
 10
31.249228
 20
106.061822
 30
0.0
 11
31.271243
 21
105.915833
 31
0.0
  0
LINE
  5
960
100
AcDbEntity
  8
ALPHA
100
AcDbLine
 10
30.540393
 20
106.061822
 30
0.0
 11
30.518378
 21
105.915833
 31
0.0
  0
LINE
  5
961
100
AcDbEntity
  8
ALPHA
100
AcDbLine
 10
30.511118
 20
105.916928
 30
0.0
 11
30.518378
 21
105.965074
 31
0.0
  0
LINE
  5
962
100
AcDbEntity
  8
ALPHA
100
AcDbLine
 10
30.494811
 20
105.80879
 30
0.0
 11
30.511118
 21
105.916928
 31
0.0
  0
LINE
  5
963
100
AcDbEntity
  8
ALPHA
100
AcDbLine
 10
28.594902
 20
104.118796
 30
0.0
 11
28.463784
 21
104.344746
 31
0.0
  0
LINE
  5
964
100
AcDbEntity
  8
ALPHA
100
AcDbLine
 10
28.110288
 20
105.519252
 30
0.0
 11
28.107576
 21
105.553194
 31
0.0
  0
LWPOLYLINE
  5
965
100
AcDbEntity
  8
ALPHA
100
AcDbPolyline
 90
        5
 70
     0
 43
0.0
 10
28.463735
 20
104.344888
 10
28.399992
 20
104.461062
 10
28.231852
 20
104.860821
 10
28.129283
 20
105.281561
 10
28.110288
 20
105.519252
  0
LINE
  5
96C
100
AcDbEntity
  8
ALPHA
100
AcDbLine
 10
31.294811
 20
105.80879
 30
0.0
 11
33.201449
 21
105.80879
 31
0.0
  0
LINE
  5
96D
100
AcDbEntity
  8
ALPHA
100
AcDbLine
 10
28.588172
 20
105.80879
 30
0.0
 11
30.494811
 21
105.80879
 31
0.0
  0
LWPOLYLINE
  5
96E
100
AcDbEntity
  8
ALPHA
100
AcDbPolyline
 90
        6
 70
     0
 43
0.0
 10
28.304022
 20
105.842443
 10
28.333036
 20
105.832319
 10
28.381384
 20
105.822571
 10
28.442231
 20
105.815127
 10
28.513283
 20
105.81038
 10
28.588172
 20
105.80879
  0
LWPOLYLINE
  5
976
100
AcDbEntity
  8
ALPHA
100
AcDbPolyline
 90
        7
 70
     0
 43
0.0
 10
33.201449
 20
105.80879
 10
33.276338
 20
105.81038
 10
33.34739
 20
105.815127
 10
33.408237
 20
105.822571
 10
33.456585
 20
105.832319
 10
33.489899
 20
105.843943
 10
33.50529
 20
105.856344
  0
LWPOLYLINE
  5
97F
100
AcDbEntity
  8
ALPHA
100
AcDbPolyline
 90
       15
 70
     0
 43
0.0
 10
33.194631
 20
104.118644
 10
33.020762
 20
103.856786
 10
32.748381
 20
103.549177
 10
32.430763
 20
103.287178
 10
32.075446
 20
103.077076
 10
31.691288
 20
102.924169
 10
31.287662
 20
102.832186
 10
30.874408
 20
102.803379
 10
30.461693
 20
102.838453
 10
30.059682
 20
102.936506
 10
29.678099
 20
103.095126
 10
29.326311
 20
103.310382
 10
29.012925
 20
103.576929
 10
28.745414
 20
103.888353
 10
28.594976
 20
104.118668
  0
LINE
  5
990
100
AcDbEntity
  8
ALPHA
100
AcDbLine
 10
33.19472
 20
104.118796
 30
0.0
 11
33.325837
 21
104.344746
 31
0.0
  0
LWPOLYLINE
  5
991
100
AcDbEntity
  8
ALPHA
100
AcDbPolyline
 90
        5
 70
     0
 43
0.0
 10
33.325887
 20
104.344888
 10
33.389629
 20
104.461062
 10
33.557769
 20
104.860821
 10
33.660338
 20
105.281561
 10
33.685358
 20
105.594638
  0
LINE
  5
998
100
AcDbEntity
  8
ALPHA
100
AcDbLine
 10
51.271243
 20
105.078747
 30
0.0
 11
53.560862
 21
105.078747
 31
0.0
  0
LWPOLYLINE
  5
999
100
AcDbEntity
  8
ALPHA
100
AcDbPolyline
 90
        4
 70
     0
 43
0.0
 10
53.560862
 20
105.078747
 10
53.542284
 20
105.042391
 10
53.52376
 20
105.006148
 10
53.50529
 20
104.970018
  0
LINE
  5
99F
100
AcDbEntity
  8
ALPHA
100
AcDbLine
 10
48.228759
 20
105.078747
 30
0.0
 11
50.518378
 21
105.078747
 31
0.0
  0
LWPOLYLINE
  5
9A0
100
AcDbEntity
  8
ALPHA
100
AcDbPolyline
 90
        4
 70
     0
 43
0.0
 10
48.284331
 20
104.970018
 10
48.265861
 20
105.006147
 10
48.247337
 20
105.04239
 10
48.228759
 20
105.078747
  0
LINE
  5
9A6
100
AcDbEntity
  8
ALPHA
100
AcDbLine
 10
50.494811
 20
107.08904
 30
0.0
 11
50.494811
 21
105.80879
 31
0.0
  0
LWPOLYLINE
  5
9A7
100
AcDbEntity
  8
ALPHA
100
AcDbPolyline
 90
        4
 70
     0
 43
0.0
 10
53.580958
 20
105.788368
 10
53.594357
 20
105.670553
 10
53.594357
 20
105.373267
 10
53.560862
 20
105.078747
  0
LINE
  5
9AD
100
AcDbEntity
  8
ALPHA
100
AcDbLine
 10
51.294811
 20
107.08904
 30
0.0
 11
50.494811
 21
107.08904
 31
0.0
  0
LWPOLYLINE
  5
9AE
100
AcDbEntity
  8
ALPHA
100
AcDbPolyline
 90
        4
 70
     0
 43
0.0
 10
48.228759
 20
105.078747
 10
48.195264
 20
105.373267
 10
48.195264
 20
105.670553
 10
48.197387
 20
105.68922
  0
LINE
  5
9B4
100
AcDbEntity
  8
ALPHA
100
AcDbLine
 10
50.259811
 20
105.252278
 30
0.0
 11
50.259811
 21
105.80879
 31
0.0
  0
LINE
  5
9B5
100
AcDbEntity
  8
ALPHA
100
AcDbLine
 10
49.902943
 20
105.80879
 30
0.0
 11
49.902943
 21
105.127987
 31
0.0
  0
LINE
  5
9B6
100
AcDbEntity
  8
ALPHA
100
AcDbLine
 10
51.529811
 20
105.252278
 30
0.0
 11
51.529811
 21
105.80879
 31
0.0
  0
LINE
  5
9B7
100
AcDbEntity
  8
ALPHA
100
AcDbLine
 10
51.886678
 20
105.80879
 30
0.0
 11
51.886678
 21
105.127987
 31
0.0
  0
LINE
  5
9B8
100
AcDbEntity
  8
ALPHA
100
AcDbLine
 10
50.894811
 20
105.310908
 30
0.0
 11
50.894811
 21
105.704831
 31
0.0
  0
LINE
  5
9B9
100
AcDbEntity
  8
ALPHA
100
AcDbLine
 10
50.894811
 20
105.704831
 30
0.0
 11
50.894811
 21
106.061822
 31
0.0
  0
LINE
  5
9BA
100
AcDbEntity
  8
ALPHA
100
AcDbLine
 10
51.294811
 20
107.08904
 30
0.0
 11
51.294811
 21
105.80879
 31
0.0
  0
LWPOLYLINE
  5
9BB
100
AcDbEntity
  8
ALPHA
100
AcDbPolyline
 90
        7
 70
     0
 43
0.0
 10
53.50529
 20
104.970018
 10
53.489899
 20
104.957616
 10
53.456585
 20
104.945992
 10
53.408237
 20
104.936244
 10
53.34739
 20
104.9288
 10
53.276338
 20
104.924053
 10
53.201449
 20
104.922463
  0
LWPOLYLINE
  5
9C4
100
AcDbEntity
  8
ALPHA
100
AcDbPolyline
 90
       19
 70
     0
 43
0.0
 10
48.588172
 20
104.922463
 10
48.683297
 20
104.582542
 10
48.830603
 20
104.259251
 10
49.026159
 20
103.962071
 10
49.265556
 20
103.697661
 10
49.543097
 20
103.472348
 10
49.852308
 20
103.29138
 10
50.185938
 20
103.159003
 10
50.536174
 20
103.078315
 10
50.894811
 20
103.051207
 10
51.253447
 20
103.078315
 10
51.603683
 20
103.159003
 10
51.937313
 20
103.29138
 10
52.246524
 20
103.472348
 10
52.524065
 20
103.697661
 10
52.763463
 20
103.962071
 10
52.959019
 20
104.259251
 10
53.106324
 20
104.582542
 10
53.201449
 20
104.922463
  0
LINE
  5
9D9
100
AcDbEntity
  8
ALPHA
100
AcDbLine
 10
51.294811
 20
104.922463
 30
0.0
 11
53.201449
 21
104.922463
 31
0.0
  0
LINE
  5
9DA
100
AcDbEntity
  8
ALPHA
100
AcDbLine
 10
51.294811
 20
104.922463
 30
0.0
 11
51.294811
 21
103.642213
 31
0.0
  0
LINE
  5
9DB
100
AcDbEntity
  8
ALPHA
100
AcDbLine
 10
51.271243
 20
105.127987
 30
0.0
 11
51.886678
 21
105.127987
 31
0.0
  0
LINE
  5
9DC
100
AcDbEntity
  8
ALPHA
100
AcDbLine
 10
51.529811
 20
105.252278
 30
0.0
 11
51.886678
 21
105.127987
 31
0.0
  0
LINE
  5
9DD
100
AcDbEntity
  8
ALPHA
100
AcDbLine
 10
50.894811
 20
105.310908
 30
0.0
 11
51.529811
 21
105.252278
 31
0.0
  0
LINE
  5
9DE
100
AcDbEntity
  8
ALPHA
100
AcDbLine
 10
50.259811
 20
105.252278
 30
0.0
 11
50.894811
 21
105.310908
 31
0.0
  0
LINE
  5
9DF
100
AcDbEntity
  8
ALPHA
100
AcDbLine
 10
49.902943
 20
105.127987
 30
0.0
 11
50.259811
 21
105.252278
 31
0.0
  0
LINE
  5
9E0
100
AcDbEntity
  8
ALPHA
100
AcDbLine
 10
49.902943
 20
105.127987
 30
0.0
 11
50.518378
 21
105.127987
 31
0.0
  0
LINE
  5
9E1
100
AcDbEntity
  8
ALPHA
100
AcDbLine
 10
50.894811
 20
105.704831
 30
0.0
 11
50.541037
 21
106.020567
 31
0.0
  0
LINE
  5
9E2
100
AcDbEntity
  8
ALPHA
100
AcDbLine
 10
50.894811
 20
105.704831
 30
0.0
 11
51.248585
 21
106.020567
 31
0.0
  0
LINE
  5
9E3
100
AcDbEntity
  8
ALPHA
100
AcDbLine
 10
50.537121
 20
106.271554
 30
0.0
 11
51.2525
 21
106.271554
 31
0.0
  0
LINE
  5
9E4
100
AcDbEntity
  8
ALPHA
100
AcDbLine
 10
51.294811
 20
103.642213
 30
0.0
 11
50.494811
 21
103.642213
 31
0.0
  0
LINE
  5
9E5
100
AcDbEntity
  8
ALPHA
100
AcDbLine
 10
50.502062
 20
106.696455
 30
0.0
 11
51.28756
 21
106.696455
 31
0.0
  0
LINE
  5
9E6
100
AcDbEntity
  8
ALPHA
100
AcDbLine
 10
50.502062
 20
104.130966
 30
0.0
 11
51.28756
 21
104.130966
 31
0.0
  0
LINE
  5
9E7
100
AcDbEntity
  8
ALPHA
100
AcDbLine
 10
50.537121
 20
105.020849
 30
0.0
 11
51.2525
 21
105.020849
 31
0.0
  0
LINE
  5
9E8
100
AcDbEntity
  8
ALPHA
100
AcDbLine
 10
50.545962
 20
105.704831
 30
0.0
 11
50.894811
 21
105.704831
 31
0.0
  0
LINE
  5
9E9
100
AcDbEntity
  8
ALPHA
100
AcDbLine
 10
50.894811
 20
105.704831
 30
0.0
 11
50.541037
 21
105.323768
 31
0.0
  0
LINE
  5
9EA
100
AcDbEntity
  8
ALPHA
100
AcDbLine
 10
50.894811
 20
105.704831
 30
0.0
 11
51.243659
 21
105.704831
 31
0.0
  0
LINE
  5
9EB
100
AcDbEntity
  8
ALPHA
100
AcDbLine
 10
50.894811
 20
105.704831
 30
0.0
 11
51.248585
 21
105.323768
 31
0.0
  0
LINE
  5
9EC
100
AcDbEntity
  8
ALPHA
100
AcDbLine
 10
51.249228
 20
105.273976
 30
0.0
 11
50.540393
 21
105.273976
 31
0.0
  0
LINE
  5
9ED
100
AcDbEntity
  8
ALPHA
100
AcDbLine
 10
51.249228
 20
105.273976
 30
0.0
 11
51.271243
 21
105.127987
 31
0.0
  0
LINE
  5
9EE
100
AcDbEntity
  8
ALPHA
100
AcDbLine
 10
51.249228
 20
105.273976
 30
0.0
 11
51.2525
 21
105.020849
 31
0.0
  0
LINE
  5
9EF
100
AcDbEntity
  8
ALPHA
100
AcDbLine
 10
51.2525
 20
105.020849
 30
0.0
 11
51.28756
 21
104.130966
 31
0.0
  0
LWPOLYLINE
  5
9F0
100
AcDbEntity
  8
ALPHA
100
AcDbPolyline
 90
        6
 70
     0
 43
0.0
 10
51.28756
 20
104.130966
 10
51.28999
 20
104.055871
 10
51.292027
 20
103.964221
 10
51.293541
 20
103.86213
 10
51.294491
 20
103.7524
 10
51.294811
 20
103.642213
  0
LINE
  5
9F8
100
AcDbEntity
  8
ALPHA
100
AcDbLine
 10
51.294811
 20
104.922463
 30
0.0
 11
51.271243
 21
105.078747
 31
0.0
  0
LINE
  5
9F9
100
AcDbEntity
  8
ALPHA
100
AcDbLine
 10
51.271243
 20
105.127987
 30
0.0
 11
51.271243
 21
105.078747
 31
0.0
  0
LINE
  5
9FA
100
AcDbEntity
  8
ALPHA
100
AcDbLine
 10
50.494811
 20
104.922463
 30
0.0
 11
50.494811
 21
103.642213
 31
0.0
  0
LWPOLYLINE
  5
9FB
100
AcDbEntity
  8
ALPHA
100
AcDbPolyline
 90
        6
 70
     0
 43
0.0
 10
51.294811
 20
107.08904
 10
51.294491
 20
106.983087
 10
51.293541
 20
106.885958
 10
51.292027
 20
106.803953
 10
51.28999
 20
106.739324
 10
51.28756
 20
106.696455
  0
LINE
  5
A03
100
AcDbEntity
  8
ALPHA
100
AcDbLine
 10
51.28756
 20
106.696455
 30
0.0
 11
51.2525
 21
106.271554
 31
0.0
  0
LINE
  5
A04
100
AcDbEntity
  8
ALPHA
100
AcDbLine
 10
51.2525
 20
106.271554
 30
0.0
 11
51.249228
 21
106.061822
 31
0.0
  0
LINE
  5
A05
100
AcDbEntity
  8
ALPHA
100
AcDbLine
 10
48.588172
 20
104.922463
 30
0.0
 11
50.494811
 21
104.922463
 31
0.0
  0
LINE
  5
A06
100
AcDbEntity
  8
ALPHA
100
AcDbLine
 10
51.271243
 20
105.965074
 30
0.0
 11
51.271243
 21
105.915833
 31
0.0
  0
LINE
  5
A07
100
AcDbEntity
  8
ALPHA
100
AcDbLine
 10
51.248585
 20
106.020567
 30
0.0
 11
51.243659
 21
105.704831
 31
0.0
  0
LINE
  5
A08
100
AcDbEntity
  8
ALPHA
100
AcDbLine
 10
51.243659
 20
105.704831
 30
0.0
 11
51.248585
 21
105.323768
 31
0.0
  0
LINE
  5
A09
100
AcDbEntity
  8
ALPHA
100
AcDbLine
 10
51.248585
 20
106.020567
 30
0.0
 11
51.248585
 21
105.323768
 31
0.0
  0
LINE
  5
A0A
100
AcDbEntity
  8
ALPHA
100
AcDbLine
 10
50.494811
 20
104.922463
 30
0.0
 11
50.518378
 21
105.078747
 31
0.0
  0
LWPOLYLINE
  5
A0B
100
AcDbEntity
  8
ALPHA
100
AcDbPolyline
 90
        6
 70
     0
 43
0.0
 10
50.502062
 20
104.130966
 10
50.499632
 20
104.055871
 10
50.497594
 20
103.964221
 10
50.49608
 20
103.86213
 10
50.49513
 20
103.7524
 10
50.494811
 20
103.642213
  0
LINE
  5
A13
100
AcDbEntity
  8
ALPHA
100
AcDbLine
 10
50.537121
 20
105.020849
 30
0.0
 11
50.502062
 21
104.130966
 31
0.0
  0
LINE
  5
A14
100
AcDbEntity
  8
ALPHA
100
AcDbLine
 10
50.540393
 20
105.273976
 30
0.0
 11
50.537121
 21
105.020849
 31
0.0
  0
LINE
  5
A15
100
AcDbEntity
  8
ALPHA
100
AcDbLine
 10
50.540393
 20
105.273976
 30
0.0
 11
50.518378
 21
105.127987
 31
0.0
  0
LINE
  5
A16
100
AcDbEntity
  8
ALPHA
100
AcDbLine
 10
50.518378
 20
105.127987
 30
0.0
 11
50.518378
 21
105.078747
 31
0.0
  0
LINE
  5
A17
100
AcDbEntity
  8
ALPHA
100
AcDbLine
 10
50.537121
 20
106.271554
 30
0.0
 11
50.540393
 21
106.061822
 31
0.0
  0
LINE
  5
A18
100
AcDbEntity
  8
ALPHA
100
AcDbLine
 10
50.502062
 20
106.696455
 30
0.0
 11
50.537121
 21
106.271554
 31
0.0
  0
LWPOLYLINE
  5
A19
100
AcDbEntity
  8
ALPHA
100
AcDbPolyline
 90
        6
 70
     0
 43
0.0
 10
50.494811
 20
107.08904
 10
50.49513
 20
106.983087
 10
50.49608
 20
106.885958
 10
50.497594
 20
106.803953
 10
50.499632
 20
106.739324
 10
50.502062
 20
106.696455
  0
LWPOLYLINE
  5
A21
100
AcDbEntity
  8
ALPHA
100
AcDbPolyline
 90
        3
 70
     0
 43
0.0
 10
48.719729
 20
106.228668
 10
48.683297
 20
106.148712
 10
48.588172
 20
105.80879
  0
LINE
  5
A26
100
AcDbEntity
  8
ALPHA
100
AcDbLine
 10
53.030946
 20
106.314145
 30
0.0
 11
53.00571
 21
106.369528
 31
0.0
  0
LWPOLYLINE
  5
A27
100
AcDbEntity
  8
ALPHA
100
AcDbPolyline
 90
        3
 70
     0
 43
0.0
 10
53.201449
 20
105.80879
 10
53.106324
 20
106.148712
 10
53.030946
 20
106.314145
  0
LINE
  5
A2C
100
AcDbEntity
  8
ALPHA
100
AcDbLine
 10
50.518378
 20
105.965074
 30
0.0
 11
50.518378
 21
105.915833
 31
0.0
  0
LINE
  5
A2D
100
AcDbEntity
  8
ALPHA
100
AcDbLine
 10
50.545962
 20
105.704831
 30
0.0
 11
50.541037
 21
105.323768
 31
0.0
  0
LINE
  5
A2E
100
AcDbEntity
  8
ALPHA
100
AcDbLine
 10
50.541037
 20
106.020567
 30
0.0
 11
50.545962
 21
105.704831
 31
0.0
  0
LINE
  5
A2F
100
AcDbEntity
  8
ALPHA
100
AcDbLine
 10
50.541037
 20
106.020567
 30
0.0
 11
50.541037
 21
105.323768
 31
0.0
  0
LWPOLYLINE
  5
A30
100
AcDbEntity
  8
ALPHA
100
AcDbPolyline
 90
        4
 70
     0
 43
0.0
 10
53.19472
 20
104.118796
 10
53.242194
 20
104.204274
 10
53.404044
 20
104.577049
 10
53.50529
 20
104.970018
  0
LINE
  5
A36
100
AcDbEntity
  8
ALPHA
100
AcDbLine
 10
53.50529
 20
105.856344
 30
0.0
 11
53.491477
 21
105.909957
 31
0.0
  0
LWPOLYLINE
  5
A37
100
AcDbEntity
  8
ALPHA
100
AcDbPolyline
 90
        7
 70
     0
 43
0.0
 10
48.588172
 20
104.922463
 10
48.513283
 20
104.924053
 10
48.442231
 20
104.9288
 10
48.381384
 20
104.936244
 10
48.333036
 20
104.945992
 10
48.299723
 20
104.957616
 10
48.284331
 20
104.970018
  0
LWPOLYLINE
  5
A40
100
AcDbEntity
  8
ALPHA
100
AcDbPolyline
 90
        4
 70
     0
 43
0.0
 10
48.594902
 20
104.118796
 10
48.547427
 20
104.204274
 10
48.385578
 20
104.577049
 10
48.284331
 20
104.970018
  0
LINE
  5
A46
100
AcDbEntity
  8
ALPHA
100
AcDbLine
 10
53.50529
 20
105.856344
 30
0.0
 11
53.517745
 21
105.880707
 31
0.0
  0
LINE
  5
A47
100
AcDbEntity
  8
ALPHA
100
AcDbLine
 10
51.271243
 20
105.915833
 30
0.0
 11
51.278669
 21
105.915833
 31
0.0
  0
LINE
  5
A48
100
AcDbEntity
  8
ALPHA
100
AcDbLine
 10
50.510953
 20
105.915833
 30
0.0
 11
50.518378
 21
105.915833
 31
0.0
  0
LINE
  5
A49
100
AcDbEntity
  8
ALPHA
100
AcDbLine
 10
51.249228
 20
106.061822
 30
0.0
 11
50.540393
 21
106.061822
 31
0.0
  0
LINE
  5
A4A
100
AcDbEntity
  8
ALPHA
100
AcDbLine
 10
51.278504
 20
105.916928
 30
0.0
 11
51.271243
 21
105.965074
 31
0.0
  0
LINE
  5
A4B
100
AcDbEntity
  8
ALPHA
100
AcDbLine
 10
51.294811
 20
105.80879
 30
0.0
 11
51.278504
 21
105.916928
 31
0.0
  0
LINE
  5
A4C
100
AcDbEntity
  8
ALPHA
100
AcDbLine
 10
51.249228
 20
106.061822
 30
0.0
 11
51.271243
 21
105.915833
 31
0.0
  0
LINE
  5
A4D
100
AcDbEntity
  8
ALPHA
100
AcDbLine
 10
50.540393
 20
106.061822
 30
0.0
 11
50.518378
 21
105.915833
 31
0.0
  0
LINE
  5
A4E
100
AcDbEntity
  8
ALPHA
100
AcDbLine
 10
50.511118
 20
105.916928
 30
0.0
 11
50.518378
 21
105.965074
 31
0.0
  0
LINE
  5
A4F
100
AcDbEntity
  8
ALPHA
100
AcDbLine
 10
50.494811
 20
105.80879
 30
0.0
 11
50.511118
 21
105.916928
 31
0.0
  0
LINE
  5
A50
100
AcDbEntity
  8
ALPHA
100
AcDbLine
 10
48.594902
 20
104.118796
 30
0.0
 11
48.463784
 21
104.344746
 31
0.0
  0
LINE
  5
A51
100
AcDbEntity
  8
ALPHA
100
AcDbLine
 10
48.110288
 20
105.519252
 30
0.0
 11
48.107576
 21
105.553194
 31
0.0
  0
LWPOLYLINE
  5
A52
100
AcDbEntity
  8
ALPHA
100
AcDbPolyline
 90
        5
 70
     0
 43
0.0
 10
48.463735
 20
104.344888
 10
48.399992
 20
104.461062
 10
48.231852
 20
104.860821
 10
48.129283
 20
105.281561
 10
48.110288
 20
105.519252
  0
LINE
  5
A59
100
AcDbEntity
  8
ALPHA
100
AcDbLine
 10
51.294811
 20
105.80879
 30
0.0
 11
53.201449
 21
105.80879
 31
0.0
  0
LINE
  5
A5A
100
AcDbEntity
  8
ALPHA
100
AcDbLine
 10
48.588172
 20
105.80879
 30
0.0
 11
50.494811
 21
105.80879
 31
0.0
  0
LWPOLYLINE
  5
A5B
100
AcDbEntity
  8
ALPHA
100
AcDbPolyline
 90
        6
 70
     0
 43
0.0
 10
48.304022
 20
105.842443
 10
48.333036
 20
105.832319
 10
48.381384
 20
105.822571
 10
48.442231
 20
105.815127
 10
48.513283
 20
105.81038
 10
48.588172
 20
105.80879
  0
LWPOLYLINE
  5
A63
100
AcDbEntity
  8
ALPHA
100
AcDbPolyline
 90
        7
 70
     0
 43
0.0
 10
53.201449
 20
105.80879
 10
53.276338
 20
105.81038
 10
53.34739
 20
105.815127
 10
53.408237
 20
105.822571
 10
53.456585
 20
105.832319
 10
53.489899
 20
105.843943
 10
53.50529
 20
105.856344
  0
LWPOLYLINE
  5
A6C
100
AcDbEntity
  8
ALPHA
100
AcDbPolyline
 90
       15
 70
     0
 43
0.0
 10
53.194631
 20
104.118644
 10
53.020762
 20
103.856786
 10
52.748381
 20
103.549177
 10
52.430763
 20
103.287178
 10
52.075446
 20
103.077076
 10
51.691288
 20
102.924169
 10
51.287662
 20
102.832186
 10
50.874408
 20
102.803379
 10
50.461693
 20
102.838453
 10
50.059682
 20
102.936506
 10
49.678099
 20
103.095126
 10
49.326311
 20
103.310382
 10
49.012925
 20
103.576929
 10
48.745414
 20
103.888353
 10
48.594976
 20
104.118668
  0
LINE
  5
A7D
100
AcDbEntity
  8
ALPHA
100
AcDbLine
 10
53.19472
 20
104.118796
 30
0.0
 11
53.325837
 21
104.344746
 31
0.0
  0
LWPOLYLINE
  5
A7E
100
AcDbEntity
  8
ALPHA
100
AcDbPolyline
 90
        5
 70
     0
 43
0.0
 10
53.325887
 20
104.344888
 10
53.389629
 20
104.461062
 10
53.557769
 20
104.860821
 10
53.660338
 20
105.281561
 10
53.685358
 20
105.594638
  0
LINE
  5
A85
100
AcDbEntity
  8
ALPHA
100
AcDbLine
 10
33.396015
 20
85.239084
 30
0.0
 11
33.444811
 21
85.346744
 31
0.0
  0
LWPOLYLINE
  5
A86
100
AcDbEntity
  8
ALPHA
100
AcDbPolyline
 90
        4
 70
     0
 43
0.0
 10
33.128053
 20
84.789662
 10
33.145622
 20
84.810806
 10
33.349559
 20
85.136586
 10
33.396015
 20
85.239084
  0
LINE
  5
A8C
100
AcDbEntity
  8
ALPHA
100
AcDbLine
 10
28.094811
 20
86.501804
 30
0.0
 11
28.097623
 21
86.453556
 31
0.0
  0
LINE
  5
A8D
100
AcDbEntity
  8
ALPHA
100
AcDbLine
 10
53.396015
 20
85.239084
 30
0.0
 11
53.444811
 21
85.346744
 31
0.0
  0
LWPOLYLINE
  5
A8E
100
AcDbEntity
  8
ALPHA
100
AcDbPolyline
 90
        4
 70
     0
 43
0.0
 10
53.128053
 20
84.789662
 10
53.145622
 20
84.810806
 10
53.349559
 20
85.136586
 10
53.396015
 20
85.239084
  0
LINE
  5
A94
100
AcDbEntity
  8
ALPHA
100
AcDbLine
 10
48.094811
 20
86.501804
 30
0.0
 11
48.097623
 21
86.453556
 31
0.0
  0
LINE
  5
A95
100
AcDbEntity
  8
ALPHA
100
AcDbLine
 10
54.644811
 20
97.825185
 30
0.0
 11
47.144811
 21
97.825185
 31
0.0
  0
LINE
  5
A96
100
AcDbEntity
  8
ALPHA
100
AcDbLine
 10
54.644811
 20
93.825185
 30
0.0
 11
47.144811
 21
93.825185
 31
0.0
  0
LINE
  5
A97
100
AcDbEntity
  8
ALPHA
100
AcDbLine
 10
47.144811
 20
93.825185
 30
0.0
 11
47.144811
 21
97.825185
 31
0.0
  0
LINE
  5
A98
100
AcDbEntity
  8
ALPHA
100
AcDbLine
 10
54.644811
 20
93.825185
 30
0.0
 11
54.644811
 21
97.825185
 31
0.0
  0
LINE
  5
A99
100
AcDbEntity
  8
ALPHA
100
AcDbLine
 10
34.644811
 20
97.825185
 30
0.0
 11
27.144811
 21
97.825185
 31
0.0
  0
LINE
  5
A9A
100
AcDbEntity
  8
ALPHA
100
AcDbLine
 10
34.644811
 20
93.825185
 30
0.0
 11
27.144811
 21
93.825185
 31
0.0
  0
LINE
  5
A9B
100
AcDbEntity
  8
ALPHA
100
AcDbLine
 10
27.144811
 20
93.825185
 30
0.0
 11
27.144811
 21
97.825185
 31
0.0
  0
LINE
  5
A9C
100
AcDbEntity
  8
ALPHA
100
AcDbLine
 10
34.644811
 20
93.825185
 30
0.0
 11
34.644811
 21
97.825185
 31
0.0
  0
LWPOLYLINE
  5
A9D
100
AcDbEntity
  8
ALPHA
100
AcDbPolyline
 90
        7
 70
     0
 43
0.0
 10
43.589088
 20
77.550335
 10
43.579103
 20
77.538871
 10
43.548242
 20
77.526131
 10
43.499932
 20
77.515406
 10
43.437066
 20
77.507163
 10
43.36179
 20
77.501846
 10
43.282278
 20
77.500076
  0
LINE
  5
AA6
100
AcDbEntity
  8
ALPHA
100
AcDbLine
 10
40.203749
 20
78.583364
 30
0.0
 11
40.203749
 21
79.525185
 31
0.0
  0
LWPOLYLINE
  5
AA7
100
AcDbEntity
  8
ALPHA
100
AcDbPolyline
 90
        7
 70
     0
 43
0.0
 10
41.585872
 20
75.726912
 10
41.987973
 20
75.88243
 10
42.35607
 20
76.105071
 10
42.678792
 20
76.387973
 10
42.945916
 20
76.722127
 10
43.149453
 20
77.097595
 10
43.282278
 20
77.500076
  0
LWPOLYLINE
  5
AB0
100
AcDbEntity
  8
ALPHA
100
AcDbPolyline
 90
        7
 70
     0
 43
0.0
 10
41.585872
 20
75.726912
 10
41.584055
 20
75.648287
 10
41.57866
 20
75.577231
 10
41.570336
 20
75.520896
 10
41.559513
 20
75.480871
 10
41.546596
 20
75.459602
 10
41.54191
 20
75.457165
  0
LINE
  5
AB9
100
AcDbEntity
  8
ALPHA
100
AcDbLine
 10
38.188684
 20
78.637062
 30
0.0
 11
38.200372
 21
78.722283
 31
0.0
  0
LWPOLYLINE
  5
ABA
100
AcDbEntity
  8
ALPHA
100
AcDbPolyline
 90
        3
 70
     0
 43
0.0
 10
38.144839
 20
78.180639
 10
38.151009
 20
78.362369
 10
38.188684
 20
78.637062
  0
LWPOLYLINE
  5
ABF
100
AcDbEntity
  8
ALPHA
100
AcDbPolyline
 90
        4
 70
     0
 43
0.0
 10
43.282278
 20
78.583364
 10
43.149453
 20
78.985845
 10
42.945916
 20
79.361314
 10
42.814916
 20
79.525185
  0
LINE
  5
AC5
100
AcDbEntity
  8
ALPHA
100
AcDbLine
 10
38.507343
 20
77.500076
 30
0.0
 11
40.203749
 21
77.500076
 31
0.0
  0
LWPOLYLINE
  5
AC6
100
AcDbEntity
  8
ALPHA
100
AcDbPolyline
 90
        4
 70
     0
 43
0.0
 10
43.589249
 20
78.635459
 10
43.465086
 20
79.056807
 10
43.273468
 20
79.452882
 10
43.222502
 20
79.525185
  0
LWPOLYLINE
  5
ACC
100
AcDbEntity
  8
ALPHA
100
AcDbPolyline
 90
        7
 70
     0
 43
0.0
 10
40.247711
 20
75.457165
 10
40.243025
 20
75.459602
 10
40.230108
 20
75.480871
 10
40.219285
 20
75.520896
 10
40.210961
 20
75.577231
 10
40.205566
 20
75.648287
 10
40.203749
 20
75.726912
  0
LWPOLYLINE
  5
AD5
100
AcDbEntity
  8
ALPHA
100
AcDbPolyline
 90
        7
 70
     0
 43
0.0
 10
38.507343
 20
77.500076
 10
38.640168
 20
77.097595
 10
38.843705
 20
76.722127
 10
39.110829
 20
76.387973
 10
39.433551
 20
76.105071
 10
39.801648
 20
75.88243
 10
40.203749
 20
75.726912
  0
LINE
  5
ADE
100
AcDbEntity
  8
ALPHA
100
AcDbLine
 10
41.444811
 20
78.722283
 30
0.0
 11
41.444811
 21
79.525185
 31
0.0
  0
LINE
  5
ADF
100
AcDbEntity
  8
ALPHA
100
AcDbLine
 10
41.444811
 20
75.527135
 30
0.0
 11
41.444811
 21
77.638995
 31
0.0
  0
LWPOLYLINE
  5
AE0
100
AcDbEntity
  8
ALPHA
100
AcDbPolyline
 90
        7
 70
     0
 43
0.0
 10
38.507343
 20
77.500076
 10
38.427831
 20
77.501846
 10
38.352556
 20
77.507163
 10
38.28969
 20
77.515406
 10
38.24138
 20
77.526131
 10
38.210518
 20
77.538871
 10
38.200534
 20
77.550334
  0
LINE
  5
AE9
100
AcDbEntity
  8
ALPHA
100
AcDbLine
 10
41.585872
 20
78.583364
 30
0.0
 11
41.585872
 21
79.525185
 31
0.0
  0
LINE
  5
AEA
100
AcDbEntity
  8
ALPHA
100
AcDbLine
 10
41.585872
 20
77.500076
 30
0.0
 11
43.282278
 21
77.500076
 31
0.0
  0
LINE
  5
AEB
100
AcDbEntity
  8
ALPHA
100
AcDbLine
 10
41.444811
 20
77.638995
 30
0.0
 11
43.589249
 21
77.638995
 31
0.0
  0
LINE
  5
AEC
100
AcDbEntity
  8
ALPHA
100
AcDbLine
 10
41.444811
 20
77.638995
 30
0.0
 11
41.585872
 21
77.500076
 31
0.0
  0
LINE
  5
AED
100
AcDbEntity
  8
ALPHA
100
AcDbLine
 10
38.200372
 20
77.638995
 30
0.0
 11
40.344811
 21
77.638995
 31
0.0
  0
LWPOLYLINE
  5
AEE
100
AcDbEntity
  8
ALPHA
100
AcDbPolyline
 90
        4
 70
     0
 43
0.0
 10
38.200372
 20
78.635459
 10
38.324536
 20
79.056807
 10
38.516154
 20
79.452882
 10
38.567119
 20
79.525185
  0
LINE
  5
AF4
100
AcDbEntity
  8
ALPHA
100
AcDbLine
 10
40.203749
 20
77.500076
 30
0.0
 11
40.344811
 21
77.638995
 31
0.0
  0
LWPOLYLINE
  5
AF5
100
AcDbEntity
  8
ALPHA
100
AcDbPolyline
 90
        3
 70
     0
 43
0.0
 10
43.600938
 20
78.637062
 10
43.638612
 20
78.362369
 10
43.644783
 20
78.180639
  0
LINE
  5
AFA
100
AcDbEntity
  8
ALPHA
100
AcDbLine
 10
43.589249
 20
78.722283
 30
0.0
 11
43.600938
 21
78.637062
 31
0.0
  0
LINE
  5
AFB
100
AcDbEntity
  8
ALPHA
100
AcDbLine
 10
41.585872
 20
75.726912
 30
0.0
 11
41.585872
 21
77.500076
 31
0.0
  0
LINE
  5
AFC
100
AcDbEntity
  8
ALPHA
100
AcDbLine
 10
40.344811
 20
78.722283
 30
0.0
 11
40.344811
 21
79.525185
 31
0.0
  0
LWPOLYLINE
  5
AFD
100
AcDbEntity
  8
ALPHA
100
AcDbPolyline
 90
        4
 70
     0
 43
0.0
 10
38.974705
 20
79.525185
 10
38.843705
 20
79.361314
 10
38.640168
 20
78.985845
 10
38.507343
 20
78.583364
  0
LINE
  5
B03
100
AcDbEntity
  8
ALPHA
100
AcDbLine
 10
40.344811
 20
75.527135
 30
0.0
 11
40.344811
 21
77.638995
 31
0.0
  0
LINE
  5
B04
100
AcDbEntity
  8
ALPHA
100
AcDbLine
 10
40.203749
 20
75.726912
 30
0.0
 11
40.203749
 21
77.500076
 31
0.0
  0
LWPOLYLINE
  5
B05
100
AcDbEntity
  8
ALPHA
100
AcDbPolyline
 90
        8
 70
     0
 43
0.0
 10
43.589059
 20
77.550335
 10
43.461499
 20
77.119942
 10
43.238028
 20
76.673898
 10
42.935545
 20
76.275413
 10
42.564282
 20
75.938122
 10
42.136615
 20
75.673364
 10
41.667022
 20
75.490182
 10
41.541908
 20
75.457207
  0
LWPOLYLINE
  5
B0F
100
AcDbEntity
  8
ALPHA
100
AcDbPolyline
 90
        3
 70
     0
 43
0.0
 10
43.556591
 20
79.119047
 10
43.435479
 20
79.512232
 10
43.428449
 20
79.525185
  0
LWPOLYLINE
  5
B14
100
AcDbEntity
  8
ALPHA
100
AcDbPolyline
 90
        3
 70
     0
 43
0.0
 10
43.644811
 20
78.475841
 10
43.59197
 20
79.004188
 10
43.556591
 20
79.119047
  0
LWPOLYLINE
  5
B19
100
AcDbEntity
  8
ALPHA
100
AcDbPolyline
 90
        3
 70
     0
 43
0.0
 10
43.644783
 20
78.180639
 10
43.638612
 20
77.998908
 10
43.589249
 20
77.638995
  0
LINE
  5
B1E
100
AcDbEntity
  8
ALPHA
100
AcDbLine
 10
43.644811
 20
78.180639
 30
0.0
 11
43.644811
 21
78.475841
 31
0.0
  0
LINE
  5
B1F
100
AcDbEntity
  8
ALPHA
100
AcDbLine
 10
41.54191
 20
75.457165
 30
0.0
 11
41.532974
 21
75.459523
 31
0.0
  0
LWPOLYLINE
  5
B20
100
AcDbEntity
  8
ALPHA
100
AcDbPolyline
 90
        3
 70
     0
 43
0.0
 10
38.233031
 20
79.119047
 10
38.354142
 20
79.512232
 10
38.361172
 20
79.525185
  0
LWPOLYLINE
  5
B25
100
AcDbEntity
  8
ALPHA
100
AcDbPolyline
 90
        3
 70
     0
 43
0.0
 10
38.144811
 20
78.475841
 10
38.197651
 20
79.004188
 10
38.233031
 20
79.119047
  0
LINE
  5
B2A
100
AcDbEntity
  8
ALPHA
100
AcDbLine
 10
38.144811
 20
78.180639
 30
0.0
 11
38.144811
 21
78.475841
 31
0.0
  0
LWPOLYLINE
  5
B2B
100
AcDbEntity
  8
ALPHA
100
AcDbPolyline
 90
        8
 70
     0
 43
0.0
 10
40.247713
 20
75.457207
 10
40.169229
 20
75.477163
 10
39.69662
 20
75.652066
 10
39.264477
 20
75.909167
 10
38.887403
 20
76.239665
 10
38.57788
 20
76.632524
 10
38.346392
 20
77.07432
 10
38.200562
 20
77.550334
  0
LINE
  5
B35
100
AcDbEntity
  8
ALPHA
100
AcDbLine
 10
38.200534
 20
77.550334
 30
0.0
 11
38.200372
 21
77.55217
 31
0.0
  0
LWPOLYLINE
  5
B36
100
AcDbEntity
  8
ALPHA
100
AcDbPolyline
 90
        3
 70
     0
 43
0.0
 10
41.532974
 20
75.459523
 10
41.489011
 20
75.492864
 10
41.444811
 20
75.527135
  0
LWPOLYLINE
  5
B3B
100
AcDbEntity
  8
ALPHA
100
AcDbPolyline
 90
        3
 70
     0
 43
0.0
 10
40.344811
 20
75.527135
 10
40.30061
 20
75.492864
 10
40.256647
 20
75.459523
  0
LINE
  5
B40
100
AcDbEntity
  8
ALPHA
100
AcDbLine
 10
43.589249
 20
77.55217
 30
0.0
 11
43.589249
 21
77.638995
 31
0.0
  0
LINE
  5
B41
100
AcDbEntity
  8
ALPHA
100
AcDbLine
 10
38.200372
 20
77.55217
 30
0.0
 11
38.200372
 21
77.638995
 31
0.0
  0
LWPOLYLINE
  5
B42
100
AcDbEntity
  8
ALPHA
100
AcDbPolyline
 90
        3
 70
     0
 43
0.0
 10
38.200372
 20
77.638995
 10
38.151009
 20
77.998908
 10
38.144839
 20
78.180639
  0
LWPOLYLINE
  5
B47
100
AcDbEntity
  8
ALPHA
100
AcDbPolyline
 90
        3
 70
     0
 43
0.0
 10
40.894811
 20
75.472417
 10
40.618408
 20
75.486132
 10
40.344811
 20
75.527135
  0
LWPOLYLINE
  5
B4C
100
AcDbEntity
  8
ALPHA
100
AcDbPolyline
 90
        3
 70
     0
 43
0.0
 10
41.444811
 20
75.527135
 10
41.171213
 20
75.486132
 10
40.894811
 20
75.472417
  0
LINE
  5
B51
100
AcDbEntity
  8
ALPHA
100
AcDbLine
 10
43.589249
 20
78.635459
 30
0.0
 11
43.589249
 21
78.722283
 31
0.0
  0
LINE
  5
B52
100
AcDbEntity
  8
ALPHA
100
AcDbLine
 10
41.444811
 20
78.722283
 30
0.0
 11
41.585872
 21
78.583364
 31
0.0
  0
LINE
  5
B53
100
AcDbEntity
  8
ALPHA
100
AcDbLine
 10
38.200372
 20
78.635459
 30
0.0
 11
38.200372
 21
78.722283
 31
0.0
  0
LINE
  5
B54
100
AcDbEntity
  8
ALPHA
100
AcDbLine
 10
40.203749
 20
78.583364
 30
0.0
 11
40.344811
 21
78.722283
 31
0.0
  0
LINE
  5
B55
100
AcDbEntity
  8
ALPHA
100
AcDbLine
 10
43.589249
 20
77.55217
 30
0.0
 11
43.589088
 21
77.550335
 31
0.0
  0
LWPOLYLINE
  5
B56
100
AcDbEntity
  8
ALPHA
100
AcDbPolyline
 90
        7
 70
     0
 43
0.0
 10
43.282278
 20
78.583364
 10
43.36179
 20
78.585135
 10
43.437066
 20
78.590452
 10
43.499932
 20
78.598695
 10
43.548242
 20
78.609419
 10
43.579103
 20
78.62216
 10
43.589249
 20
78.635459
  0
LINE
  5
B5F
100
AcDbEntity
  8
ALPHA
100
AcDbLine
 10
40.256647
 20
75.459523
 30
0.0
 11
40.247711
 21
75.457165
 31
0.0
  0
LWPOLYLINE
  5
B60
100
AcDbEntity
  8
ALPHA
100
AcDbPolyline
 90
        7
 70
     0
 43
0.0
 10
38.200372
 20
78.635459
 10
38.210518
 20
78.62216
 10
38.24138
 20
78.609419
 10
38.28969
 20
78.598695
 10
38.352556
 20
78.590452
 10
38.427831
 20
78.585135
 10
38.507343
 20
78.583364
  0
LINE
  5
B69
100
AcDbEntity
  8
ALPHA
100
AcDbLine
 10
41.585872
 20
78.583364
 30
0.0
 11
43.282278
 21
78.583364
 31
0.0
  0
LINE
  5
B6A
100
AcDbEntity
  8
ALPHA
100
AcDbLine
 10
38.507343
 20
78.583364
 30
0.0
 11
40.203749
 21
78.583364
 31
0.0
  0
LINE
  5
B6B
100
AcDbEntity
  8
ALPHA
100
AcDbLine
 10
45.794811
 20
95.225185
 30
0.0
 11
45.994811
 21
95.225185
 31
0.0
  0
LINE
  5
B6C
100
AcDbEntity
  8
ALPHA
100
AcDbLine
 10
45.794811
 20
97.825185
 30
0.0
 11
45.794811
 21
95.225185
 31
0.0
  0
LINE
  5
B6D
100
AcDbEntity
  8
ALPHA
100
AcDbLine
 10
47.144811
 20
95.225185
 30
0.0
 11
46.994811
 21
95.225185
 31
0.0
  0
LINE
  5
B6E
100
AcDbEntity
  8
ALPHA
100
AcDbLine
 10
45.794811
 20
97.825185
 30
0.0
 11
45.994811
 21
97.825185
 31
0.0
  0
LINE
  5
B6F
100
AcDbEntity
  8
ALPHA
100
AcDbLine
 10
35.894811
 20
97.825185
 30
0.0
 11
35.794811
 21
97.825185
 31
0.0
  0
LINE
  5
B70
100
AcDbEntity
  8
ALPHA
100
AcDbLine
 10
35.894811
 20
95.225185
 30
0.0
 11
35.894811
 21
97.825185
 31
0.0
  0
LINE
  5
B71
100
AcDbEntity
  8
ALPHA
100
AcDbLine
 10
34.644811
 20
95.225185
 30
0.0
 11
34.794811
 21
95.225185
 31
0.0
  0
LINE
  5
B72
100
AcDbEntity
  8
ALPHA
100
AcDbLine
 10
35.894811
 20
95.225185
 30
0.0
 11
35.794811
 21
95.225185
 31
0.0
  0
ENDSEC
  0
SECTION
  2
OBJECTS
  0
DICTIONARY
  5
1108
100
AcDbDictionary
  3
ACAD_GROUP
350
1109
  3
ACAD_MLINESTYLE
350
1116
  3
ACDBVARIABLEDICTIONARY
350
1124
  0
DICTIONARY
  5
1109
102
{ACAD_REACTORS
330
1108
102
}
100
AcDbDictionary
  0
DICTIONARY
  5
1116
102
{ACAD_REACTORS
330
1108
102
}
100
AcDbDictionary
  3
STANDARD
350
1117
  0
DICTIONARY
  5
1124
102
{ACAD_REACTORS
330
1108
102
}
100
AcDbDictionary
  3
DIMADEC
350
1125
  0
MLINESTYLE
  5
1117
102
{ACAD_REACTORS
330
1116
102
}
100
AcDbMlineStyle
  2
STANDARD
 70
     0
  3

 62
   256
 51
90.0
 52
90.0
 71
     2
 49
0.5
 62
   256
  6
BYLAYER
 49
-0.5
 62
   256
  6
BYLAYER
  0
DICTIONARYVAR
  5
1125
102
{ACAD_REACTORS
330
1124
102
}
100
DictionaryVariables
280
     0
  1
0
  0
ENDSEC
  0
EOF
