  0
SECTION
  2
HEADER
  9
$ACADVER
  1
AC1015
  9
$ACADMAINTVER
 70
    13
  9
$DWGCODEPAGE
  3
ANSI_1252
  9
$INSBASE
 10
57.11684861244233
 20
33.48121368332224
 30
0.0
  9
$EXTMIN
 10
-0.01922157577701
 20
-0.0135924000136356
 30
-0.0000000000000091
  9
$EXTMAX
 10
77.11055530592762
 20
49.24848056533472
 30
0.000000000000007
  9
$LIMMIN
 10
0.0
 20
0.0
  9
$LIMMAX
 10
420.0
 20
297.0
  9
$ORTHOMODE
 70
     0
  9
$REGENMODE
 70
     1
  9
$FILLMODE
 70
     1
  9
$QTEXTMODE
 70
     0
  9
$MIRRTEXT
 70
     1
  9
$LTSCALE
 40
1.0
  9
$ATTMODE
 70
     1
  9
$TEXTSIZE
 40
2.5
  9
$TRACEWID
 40
1.0
  9
$TEXTSTYLE
  7
Standard
  9
$CLAYER
  8
0
  9
$CELTYPE
  6
ByLayer
  9
$CECOLOR
 62
   256
  9
$CELTSCALE
 40
1.0
  9
$DISPSILH
 70
     0
  9
$DIMSCALE
 40
1.0
  9
$DIMASZ
 40
2.5
  9
$DIMEXO
 40
0.625
  9
$DIMDLI
 40
3.75
  9
$DIMRND
 40
0.0
  9
$DIMDLE
 40
0.0
  9
$DIMEXE
 40
1.25
  9
$DIMTP
 40
0.0
  9
$DIMTM
 40
0.0
  9
$DIMTXT
 40
2.5
  9
$DIMCEN
 40
2.5
  9
$DIMTSZ
 40
0.0
  9
$DIMTOL
 70
     0
  9
$DIMLIM
 70
     0
  9
$DIMTIH
 70
     0
  9
$DIMTOH
 70
     0
  9
$DIMSE1
 70
     0
  9
$DIMSE2
 70
     0
  9
$DIMTAD
 70
     1
  9
$DIMZIN
 70
     8
  9
$DIMBLK
  1

  9
$DIMASO
 70
     1
  9
$DIMSHO
 70
     1
  9
$DIMPOST
  1

  9
$DIMAPOST
  1

  9
$DIMALT
 70
     0
  9
$DIMALTD
 70
     3
  9
$DIMALTF
 40
0.03937007874016
  9
$DIMLFAC
 40
1.0
  9
$DIMTOFL
 70
     1
  9
$DIMTVP
 40
0.0
  9
$DIMTIX
 70
     0
  9
$DIMSOXD
 70
     0
  9
$DIMSAH
 70
     0
  9
$DIMBLK1
  1

  9
$DIMBLK2
  1

  9
$DIMSTYLE
  2
ISO-25
  9
$DIMCLRD
 70
     0
  9
$DIMCLRE
 70
     0
  9
$DIMCLRT
 70
     0
  9
$DIMTFAC
 40
1.0
  9
$DIMGAP
 40
0.625
  9
$DIMJUST
 70
     0
  9
$DIMSD1
 70
     0
  9
$DIMSD2
 70
     0
  9
$DIMTOLJ
 70
     0
  9
$DIMTZIN
 70
     8
  9
$DIMALTZ
 70
     0
  9
$DIMALTTZ
 70
     0
  9
$DIMUPT
 70
     0
  9
$DIMDEC
 70
     2
  9
$DIMTDEC
 70
     2
  9
$DIMALTU
 70
     2
  9
$DIMALTTD
 70
     3
  9
$DIMTXSTY
  7
Standard
  9
$DIMAUNIT
 70
     0
  9
$DIMADEC
 70
     0
  9
$DIMALTRND
 40
0.0
  9
$DIMAZIN
 70
     0
  9
$DIMDSEP
 70
    44
  9
$DIMATFIT
 70
     3
  9
$DIMFRAC
 70
     0
  9
$DIMLDRBLK
  1

  9
$DIMLUNIT
 70
     2
  9
$DIMLWD
 70
    -2
  9
$DIMLWE
 70
    -2
  9
$DIMTMOVE
 70
     0
  9
$LUNITS
 70
     2
  9
$LUPREC
 70
     4
  9
$SKETCHINC
 40
1.0
  9
$FILLETRAD
 40
10.0
  9
$AUNITS
 70
     0
  9
$AUPREC
 70
     0
  9
$MENU
  1
.
  9
$ELEVATION
 40
0.0
  9
$PELEVATION
 40
0.0
  9
$THICKNESS
 40
0.0
  9
$LIMCHECK
 70
     0
  9
$CHAMFERA
 40
10.0
  9
$CHAMFERB
 40
10.0
  9
$CHAMFERC
 40
20.0
  9
$CHAMFERD
 40
0.0
  9
$SKPOLY
 70
     0
  9
$TDCREATE
 40
2453787.450426968
  9
$TDUCREATE
 40
2453787.408760300
  9
$TDUPDATE
 40
2453795.587878507
  9
$TDUUPDATE
 40
2453795.546211840
  9
$TDINDWG
 40
0.0029068981
  9
$TDUSRTIMER
 40
0.0029068981
  9
$USRTIMER
 70
     1
  9
$ANGBASE
 50
0.0
  9
$ANGDIR
 70
     0
  9
$PDMODE
 70
     0
  9
$PDSIZE
 40
0.0
  9
$PLINEWID
 40
0.0
  9
$SPLFRAME
 70
     0
  9
$SPLINETYPE
 70
     6
  9
$SPLINESEGS
 70
     8
  9
$HANDSEED
  5
1E8
  9
$SURFTAB1
 70
     6
  9
$SURFTAB2
 70
     6
  9
$SURFTYPE
 70
     6
  9
$SURFU
 70
     6
  9
$SURFV
 70
     6
  9
$UCSBASE
  2

  9
$UCSNAME
  2

  9
$UCSORG
 10
0.0
 20
0.0
 30
0.0
  9
$UCSXDIR
 10
1.0
 20
0.0
 30
0.0
  9
$UCSYDIR
 10
0.0
 20
1.0
 30
0.0
  9
$UCSORTHOREF
  2

  9
$UCSORTHOVIEW
 70
     0
  9
$UCSORGTOP
 10
0.0
 20
0.0
 30
0.0
  9
$UCSORGBOTTOM
 10
0.0
 20
0.0
 30
0.0
  9
$UCSORGLEFT
 10
0.0
 20
0.0
 30
0.0
  9
$UCSORGRIGHT
 10
0.0
 20
0.0
 30
0.0
  9
$UCSORGFRONT
 10
0.0
 20
0.0
 30
0.0
  9
$UCSORGBACK
 10
0.0
 20
0.0
 30
0.0
  9
$PUCSBASE
  2

  9
$PUCSNAME
  2

  9
$PUCSORG
 10
0.0
 20
0.0
 30
0.0
  9
$PUCSXDIR
 10
1.0
 20
0.0
 30
0.0
  9
$PUCSYDIR
 10
0.0
 20
1.0
 30
0.0
  9
$PUCSORTHOREF
  2

  9
$PUCSORTHOVIEW
 70
     0
  9
$PUCSORGTOP
 10
0.0
 20
0.0
 30
0.0
  9
$PUCSORGBOTTOM
 10
0.0
 20
0.0
 30
0.0
  9
$PUCSORGLEFT
 10
0.0
 20
0.0
 30
0.0
  9
$PUCSORGRIGHT
 10
0.0
 20
0.0
 30
0.0
  9
$PUCSORGFRONT
 10
0.0
 20
0.0
 30
0.0
  9
$PUCSORGBACK
 10
0.0
 20
0.0
 30
0.0
  9
$USERI1
 70
     0
  9
$USERI2
 70
     0
  9
$USERI3
 70
     0
  9
$USERI4
 70
     0
  9
$USERI5
 70
     0
  9
$USERR1
 40
0.0
  9
$USERR2
 40
0.0
  9
$USERR3
 40
0.0
  9
$USERR4
 40
0.0
  9
$USERR5
 40
0.0
  9
$WORLDVIEW
 70
     1
  9
$SHADEDGE
 70
     3
  9
$SHADEDIF
 70
    70
  9
$TILEMODE
 70
     1
  9
$MAXACTVP
 70
    64
  9
$PINSBASE
 10
0.0
 20
0.0
 30
0.0
  9
$PLIMCHECK
 70
     0
  9
$PEXTMIN
 10
1.000000000000000E+20
 20
1.000000000000000E+20
 30
1.000000000000000E+20
  9
$PEXTMAX
 10
-1.000000000000000E+20
 20
-1.000000000000000E+20
 30
-1.000000000000000E+20
  9
$PLIMMIN
 10
0.0
 20
0.0
  9
$PLIMMAX
 10
420.0
 20
297.0
  9
$UNITMODE
 70
     0
  9
$VISRETAIN
 70
     1
  9
$PLINEGEN
 70
     0
  9
$PSLTSCALE
 70
     1
  9
$TREEDEPTH
 70
  3020
  9
$CMLSTYLE
  2
Standard
  9
$CMLJUST
 70
     0
  9
$CMLSCALE
 40
20.0
  9
$PROXYGRAPHICS
 70
     1
  9
$MEASUREMENT
 70
     1
  9
$CELWEIGHT
370
    -1
  9
$ENDCAPS
280
     0
  9
$JOINSTYLE
280
     0
  9
$LWDISPLAY
290
     0
  9
$INSUNITS
 70
     4
  9
$HYPERLINKBASE
  1

  9
$STYLESHEET
  1

  9
$XEDIT
290
     1
  9
$CEPSNTYPE
380
     0
  9
$PSTYLEMODE
290
     0
  9
$FINGERPRINTGUID
  2
{76BA0B87-E5B5-4160-B4DD-1162D28450E9}
  9
$VERSIONGUID
  2
{0D5BFA00-543F-4E18-8B2B-F67C3676C263}
  9
$EXTNAMES
290
     1
  9
$PSVPSCALE
 40
0.0
  9
$OLESTARTUP
290
     0
  0
ENDSEC
  0
SECTION
  2
CLASSES
  0
CLASS
  1
ACDBDICTIONARYWDFLT
  2
AcDbDictionaryWithDefault
  3
AutoCAD 2000
 90
        0
280
     0
281
     0
  0
CLASS
  1
ACDBPLACEHOLDER
  2
AcDbPlaceHolder
  3
AutoCAD 2000
 90
        0
280
     0
281
     0
  0
CLASS
  1
LAYOUT
  2
AcDbLayout
  3
AutoCAD 2000
 90
        0
280
     0
281
     0
  0
CLASS
  1
DICTIONARYVAR
  2
AcDbDictionaryVar
  3
AutoCAD 2000
 90
        0
280
     0
281
     0
  0
ENDSEC
  0
SECTION
  2
TABLES
  0
TABLE
  2
VPORT
  5
8
330
0
100
AcDbSymbolTable
 70
     2
  0
VPORT
  5
1E7
330
8
100
AcDbSymbolTableRecord
100
AcDbViewportTableRecord
  2
*Active
 70
     0
 10
0.0
 20
0.0
 11
1.0
 21
1.0
 12
38.54566686507531
 22
24.61744408266053
 13
0.0
 23
0.0
 14
10.0
 24
10.0
 15
10.0
 25
10.0
 16
0.0
 26
0.0
 36
1.0
 17
0.0
 27
0.0
 37
0.0
 40
49.6229672727868
 41
1.84841075794621
 42
50.0
 43
0.0
 44
0.0
 50
0.0
 51
0.0
 71
     0
 72
   100
 73
     1
 74
     3
 75
     0
 76
     0
 77
     0
 78
     0
281
     0
 65
     1
110
0.0
120
0.0
130
0.0
111
1.0
121
0.0
131
0.0
112
0.0
122
1.0
132
0.0
 79
     0
146
0.0
  0
ENDTAB
  0
TABLE
  2
LTYPE
  5
5
330
0
100
AcDbSymbolTable
 70
     2
  0
LTYPE
  5
14
330
5
100
AcDbSymbolTableRecord
100
AcDbLinetypeTableRecord
  2
ByBlock
 70
     0
  3

 72
    65
 73
     0
 40
0.0
  0
LTYPE
  5
15
330
5
100
AcDbSymbolTableRecord
100
AcDbLinetypeTableRecord
  2
ByLayer
 70
     0
  3

 72
    65
 73
     0
 40
0.0
  0
LTYPE
  5
16
330
5
100
AcDbSymbolTableRecord
100
AcDbLinetypeTableRecord
  2
Continuous
 70
     0
  3
Solid line
 72
    65
 73
     0
 40
0.0
  0
LTYPE
  5
6F
330
5
100
AcDbSymbolTableRecord
100
AcDbLinetypeTableRecord
  2
AXES2
 70
     0
  3
___ _ ___ _ ___ _ ___ _ ___ _ ___ _ ___ _ ___ _
 72
    65
 73
     4
 40
1.125
 49
0.75
 74
     0
 49
-0.125
 74
     0
 49
0.125
 74
     0
 49
-0.125
 74
     0
  0
ENDTAB
  0
TABLE
  2
LAYER
  5
2
330
0
100
AcDbSymbolTable
 70
     5
  0
LAYER
  5
10
330
2
100
AcDbSymbolTableRecord
100
AcDbLayerTableRecord
  2
0
 70
     0
 62
     7
  6
Continuous
370
    -3
390
F
  0
LAYER
  5
70
330
2
100
AcDbSymbolTableRecord
100
AcDbLayerTableRecord
  2
Defpoints
 70
     0
 62
     7
  6
Continuous
290
     0
370
    -3
390
F
  0
LAYER
  5
71
330
2
100
AcDbSymbolTableRecord
100
AcDbLayerTableRecord
  2
AXE
 70
     0
 62
    80
  6
AXES2
370
    -3
390
F
  0
LAYER
  5
72
330
2
100
AcDbSymbolTableRecord
100
AcDbLayerTableRecord
  2
COTATION1
 70
     0
 62
    50
  6
Continuous
370
    -3
390
F
  0
LAYER
  5
73
330
2
100
AcDbSymbolTableRecord
100
AcDbLayerTableRecord
  2
LIGHT
 70
     1
 62
     1
  6
Continuous
370
    -3
390
F
  0
ENDTAB
  0
TABLE
  2
STYLE
  5
3
330
0
100
AcDbSymbolTable
 70
     2
  0
STYLE
  5
11
330
3
100
AcDbSymbolTableRecord
100
AcDbTextStyleTableRecord
  2
Standard
 70
     0
 40
0.0
 41
1.0
 50
0.0
 71
     0
 42
2.5
  3
txt
  4

  0
STYLE
  5
74
330
3
100
AcDbSymbolTableRecord
100
AcDbTextStyleTableRecord
  2
ROMANS
 70
     0
 40
0.0
 41
1.0
 50
0.0
 71
     0
 42
2.9
  3
romans.shx
  4

  0
ENDTAB
  0
TABLE
  2
VIEW
  5
6
330
0
100
AcDbSymbolTable
 70
     0
  0
ENDTAB
  0
TABLE
  2
UCS
  5
7
330
0
100
AcDbSymbolTable
 70
     0
  0
ENDTAB
  0
TABLE
  2
APPID
  5
9
330
0
100
AcDbSymbolTable
 70
     2
  0
APPID
  5
12
330
9
100
AcDbSymbolTableRecord
100
AcDbRegAppTableRecord
  2
ACAD
 70
     0
  0
APPID
  5
181
330
9
100
AcDbSymbolTableRecord
100
AcDbRegAppTableRecord
  2
DCO15
 70
     0
  0
ENDTAB
  0
TABLE
  2
DIMSTYLE
  5
A
330
0
100
AcDbSymbolTable
 70
     4
100
AcDbDimStyleTable
 71
     0
  0
DIMSTYLE
105
27
330
A
100
AcDbSymbolTableRecord
100
AcDbDimStyleTableRecord
  2
ISO-25
 70
     0
 41
2.5
 42
0.625
 43
3.75
 44
1.25
 73
     0
 74
     0
 77
     1
 78
     8
140
2.5
141
2.5
143
0.03937007874016
147
0.625
171
     3
172
     1
271
     2
272
     2
274
     3
278
    44
283
     0
284
     8
340
11
  0
DIMSTYLE
105
75
330
A
100
AcDbSymbolTableRecord
100
AcDbDimStyleTableRecord
  2
STANDARD
 70
     0
289
     0
340
11
  0
DIMSTYLE
105
76
330
A
100
AcDbSymbolTableRecord
100
AcDbDimStyleTableRecord
  2
SC_DEFAUT
 70
     0
 40
0.0
 41
5.0
 42
2.0
 44
2.5
 73
     0
 74
     0
 77
     1
 78
    12
140
2.5
141
-1.0
147
1.0
173
     1
284
    12
340
74
341
2B
343
2B
344
2B
  0
DIMSTYLE
105
77
102
{ACAD_REACTORS
330
C8
330
CA
330
D0
102
}
330
A
100
AcDbSymbolTableRecord
100
AcDbDimStyleTableRecord
  2
SC_DEFAUT$0
 70
     0
 40
0.0
 41
5.0
 42
2.0
 44
2.5
 73
     0
 74
     0
 77
     1
 78
    12
140
2.5
141
-0.09
147
1.0
173
     1
284
    12
340
74
341
2B
343
2B
344
2B
  0
ENDTAB
  0
TABLE
  2
BLOCK_RECORD
  5
1
330
0
100
AcDbSymbolTable
 70
     7
  0
BLOCK_RECORD
  5
1F
330
1
100
AcDbSymbolTableRecord
100
AcDbBlockTableRecord
  2
*Model_Space
340
22
  0
BLOCK_RECORD
  5
1B
330
1
100
AcDbSymbolTableRecord
100
AcDbBlockTableRecord
  2
*Paper_Space
340
1E
  0
BLOCK_RECORD
  5
23
330
1
100
AcDbSymbolTableRecord
100
AcDbBlockTableRecord
  2
*Paper_Space0
340
26
  0
BLOCK_RECORD
  5
2B
330
1
100
AcDbSymbolTableRecord
100
AcDbBlockTableRecord
  2
_OPEN
340
0
102
{BLKREFS
331
19A
331
19B
331
1AE
331
1AF
331
1C0
331
1C1
331
1C9
331
1CA
331
1D2
331
1D3
102
}
  0
BLOCK_RECORD
  5
112
330
1
100
AcDbSymbolTableRecord
100
AcDbBlockTableRecord
  2
*D2
340
0
  0
BLOCK_RECORD
  5
11F
330
1
100
AcDbSymbolTableRecord
100
AcDbBlockTableRecord
  2
*D3
340
0
  0
BLOCK_RECORD
  5
12C
330
1
100
AcDbSymbolTableRecord
100
AcDbBlockTableRecord
  2
*D4
340
0
  0
ENDTAB
  0
ENDSEC
  0
SECTION
  2
BLOCKS
  0
BLOCK
  5
20
330
1F
100
AcDbEntity
  8
0
100
AcDbBlockBegin
  2
*Model_Space
 70
     0
 10
0.0
 20
0.0
 30
0.0
  3
*Model_Space
  1

  0
ENDBLK
  5
21
330
1F
100
AcDbEntity
  8
0
100
AcDbBlockEnd
  0
BLOCK
  5
1C
330
1B
100
AcDbEntity
 67
     1
  8
0
100
AcDbBlockBegin
  2
*Paper_Space
 70
     0
 10
0.0
 20
0.0
 30
0.0
  3
*Paper_Space
  1

  0
ENDBLK
  5
1D
330
1B
100
AcDbEntity
 67
     1
  8
0
100
AcDbBlockEnd
  0
BLOCK
  5
24
330
23
100
AcDbEntity
  8
0
100
AcDbBlockBegin
  2
*Paper_Space0
 70
     0
 10
0.0
 20
0.0
 30
0.0
  3
*Paper_Space0
  1

  0
ENDBLK
  5
25
330
23
100
AcDbEntity
  8
0
100
AcDbBlockEnd
  0
BLOCK
  5
2F
330
2B
100
AcDbEntity
  8
0
100
AcDbBlockBegin
  2
_OPEN
 70
     0
 10
0.0
 20
0.0
 30
0.0
  3
_OPEN
  1

  0
LINE
  5
2C
330
2B
100
AcDbEntity
  8
0
  6
ByBlock
 62
     0
100
AcDbLine
 10
-1.0
 20
0.1666666666666666
 30
0.0
 11
0.0
 21
0.0
 31
0.0
  0
LINE
  5
2D
330
2B
100
AcDbEntity
  8
0
  6
ByBlock
 62
     0
100
AcDbLine
 10
0.0
 20
0.0
 30
0.0
 11
-1.0
 21
-0.1666666666666666
 31
0.0
  0
LINE
  5
2E
330
2B
100
AcDbEntity
  8
0
  6
ByBlock
 62
     0
100
AcDbLine
 10
0.0
 20
0.0
 30
0.0
 11
-1.0
 21
0.0
 31
0.0
  0
ENDBLK
  5
30
330
2B
100
AcDbEntity
  8
0
100
AcDbBlockEnd
  0
BLOCK
  5
11D
330
112
100
AcDbEntity
  8
0
100
AcDbBlockBegin
  2
*D2
 70
     1
 10
0.0
 20
0.0
 30
0.0
  3
*D2
  1

  0
LINE
  5
1AA
330
112
100
AcDbEntity
  8
COTATION1
  6
Continuous
 62
     0
370
    -2
100
AcDbLine
 10
57.11684861244233
 20
19.69124902789749
 30
0.0
 11
57.11684861244233
 21
8.691976024425272
 31
0.0
  0
LINE
  5
1AB
330
112
100
AcDbEntity
  8
COTATION1
  6
Continuous
 62
     0
370
    -2
100
AcDbLine
 10
63.55056443275483
 20
21.78311100706416
 30
0.0
 11
63.55056443275483
 21
8.691976024425272
 31
0.0
  0
LINE
  5
1AC
330
112
100
AcDbEntity
  8
COTATION1
  6
Continuous
 62
     0
370
    -2
100
AcDbLine
 10
52.11684861244233
 20
11.19197602442527
 30
0.0
 11
47.11684861244232
 21
11.19197602442527
 31
0.0
  0
LINE
  5
1AD
330
112
100
AcDbEntity
  8
COTATION1
  6
Continuous
 62
     0
370
    -2
100
AcDbLine
 10
68.55056443275483
 20
11.19197602442527
 30
0.0
 11
77.09818348037387
 21
11.19197602442527
 31
0.0
  0
INSERT
  5
1AE
330
112
100
AcDbEntity
  8
COTATION1
  6
Continuous
 62
     0
370
    -2
100
AcDbBlockReference
  2
_OPEN
 10
57.11684861244233
 20
11.19197602442527
 30
0.0
 41
5.0
 42
5.0
 43
5.0
  0
INSERT
  5
1AF
330
112
100
AcDbEntity
  8
COTATION1
  6
Continuous
 62
     0
370
    -2
100
AcDbBlockReference
  2
_OPEN
 10
63.55056443275483
 20
11.19197602442527
 30
0.0
 41
5.0
 42
5.0
 43
5.0
 50
180.0
  0
MTEXT
  5
1B0
330
112
100
AcDbEntity
  8
COTATION1
  6
Continuous
 62
     0
100
AcDbMText
 10
75.32437395656434
 20
13.44197602442527
 30
0.0
 40
2.5
 41
0.0
 71
     5
 72
     1
  1
\A1;6
  7
ROMANS
 73
     1
 44
1.0
  0
POINT
  5
1B1
330
112
100
AcDbEntity
  8
Defpoints
  6
Continuous
 62
     0
100
AcDbPoint
 10
57.11684861244233
 20
21.6912490278975
 30
0.0
  0
POINT
  5
1B2
330
112
100
AcDbEntity
  8
Defpoints
  6
Continuous
 62
     0
100
AcDbPoint
 10
63.55056443275483
 20
23.78311100706416
 30
0.0
  0
POINT
  5
1B3
330
112
100
AcDbEntity
  8
Defpoints
  6
Continuous
 62
     0
100
AcDbPoint
 10
63.55056443275483
 20
11.19197602442527
 30
0.0
  0
ENDBLK
  5
11E
330
112
100
AcDbEntity
  8
0
100
AcDbBlockEnd
  0
BLOCK
  5
12A
330
11F
100
AcDbEntity
  8
0
100
AcDbBlockBegin
  2
*D3
 70
     1
 10
0.0
 20
0.0
 30
0.0
  3
*D3
  1

  0
LINE
  5
196
330
11F
100
AcDbEntity
  8
COTATION1
  6
Continuous
 62
     0
370
    -2
100
AcDbLine
 10
10.00000019664372
 20
43.08000228310582
 30
0.0
 11
10.00000019664372
 21
8.691976024425272
 31
0.0
  0
LINE
  5
197
330
11F
100
AcDbEntity
  8
COTATION1
  6
Continuous
 62
     0
370
    -2
100
AcDbLine
 10
16.47712422008122
 20
15.1395888716475
 30
0.0
 11
16.47712422008122
 21
8.691976024425272
 31
0.0
  0
LINE
  5
198
330
11F
100
AcDbEntity
  8
COTATION1
  6
Continuous
 62
     0
370
    -2
100
AcDbLine
 10
5.000000196643723
 20
11.19197602442527
 30
0.0
 11
0.0000001966437235
 21
11.19197602442527
 31
0.0
  0
LINE
  5
199
330
11F
100
AcDbEntity
  8
COTATION1
  6
Continuous
 62
     0
370
    -2
100
AcDbLine
 10
21.47712422008122
 20
11.19197602442527
 30
0.0
 11
30.14379088674789
 21
11.19197602442527
 31
0.0
  0
INSERT
  5
19A
330
11F
100
AcDbEntity
  8
COTATION1
  6
Continuous
 62
     0
370
    -2
100
AcDbBlockReference
  2
_OPEN
 10
10.00000019664372
 20
11.19197602442527
 30
0.0
 41
5.0
 42
5.0
 43
5.0
  0
INSERT
  5
19B
330
11F
100
AcDbEntity
  8
COTATION1
  6
Continuous
 62
     0
370
    -2
100
AcDbBlockReference
  2
_OPEN
 10
16.47712422008122
 20
11.19197602442527
 30
0.0
 41
5.0
 42
5.0
 43
5.0
 50
180.0
  0
MTEXT
  5
19C
330
11F
100
AcDbEntity
  8
COTATION1
  6
Continuous
 62
     0
100
AcDbMText
 10
28.31045755341455
 20
13.44197602442527
 30
0.0
 40
2.5
 41
0.0
 71
     5
 72
     1
  1
\A1;7
  7
ROMANS
 73
     1
 44
1.0
  0
POINT
  5
19D
330
11F
100
AcDbEntity
  8
Defpoints
  6
Continuous
 62
     0
100
AcDbPoint
 10
10.00000019664372
 20
45.08000228310582
 30
0.0
  0
POINT
  5
19E
330
11F
100
AcDbEntity
  8
Defpoints
  6
Continuous
 62
     0
100
AcDbPoint
 10
16.47712422008122
 20
17.1395888716475
 30
0.0
  0
POINT
  5
19F
330
11F
100
AcDbEntity
  8
Defpoints
  6
Continuous
 62
     0
100
AcDbPoint
 10
16.47712422008122
 20
11.19197602442527
 30
0.0
  0
ENDBLK
  5
12B
330
11F
100
AcDbEntity
  8
0
100
AcDbBlockEnd
  0
BLOCK
  5
136
330
12C
100
AcDbEntity
  8
0
100
AcDbBlockBegin
  2
*D4
 70
     1
 10
0.0
 20
0.0
 30
0.0
  3
*D4
  1

  0
LINE
  5
1CF
330
12C
100
AcDbEntity
  8
COTATION1
  6
Continuous
 62
     0
370
    -2
100
AcDbLine
 10
16.47712422008122
 20
15.1395888716475
 30
0.0
 11
16.47712422008122
 21
0.0000001129669442
 31
0.0
  0
LINE
  5
1D0
330
12C
100
AcDbEntity
  8
COTATION1
  6
Continuous
 62
     0
370
    -2
100
AcDbLine
 10
57.11684861244233
 20
19.69124902789749
 30
0.0
 11
57.11684861244233
 21
0.0000001129669442
 31
0.0
  0
LINE
  5
1D1
330
12C
100
AcDbEntity
  8
COTATION1
  6
Continuous
 62
     0
370
    -2
100
AcDbLine
 10
21.47712422008122
 20
2.500000112966944
 30
0.0
 11
52.11684861244233
 21
2.500000112966944
 31
0.0
  0
INSERT
  5
1D2
330
12C
100
AcDbEntity
  8
COTATION1
  6
Continuous
 62
     0
370
    -2
100
AcDbBlockReference
  2
_OPEN
 10
16.47712422008122
 20
2.500000112966944
 30
0.0
 41
5.0
 42
5.0
 43
5.0
 50
180.0
  0
INSERT
  5
1D3
330
12C
100
AcDbEntity
  8
COTATION1
  6
Continuous
 62
     0
370
    -2
100
AcDbBlockReference
  2
_OPEN
 10
57.11684861244233
 20
2.500000112966944
 30
0.0
 41
5.0
 42
5.0
 43
5.0
  0
MTEXT
  5
1D4
330
12C
100
AcDbEntity
  8
COTATION1
  6
Continuous
 62
     0
100
AcDbMText
 10
36.79698641626177
 20
4.750000112966944
 30
0.0
 40
2.5
 41
0.0
 71
     5
 72
     1
  1
\A1;41
  7
ROMANS
 73
     1
 44
1.0
  0
POINT
  5
1D5
330
12C
100
AcDbEntity
  8
Defpoints
  6
Continuous
 62
     0
100
AcDbPoint
 10
16.47712422008122
 20
17.1395888716475
 30
0.0
  0
POINT
  5
1D6
330
12C
100
AcDbEntity
  8
Defpoints
  6
Continuous
 62
     0
100
AcDbPoint
 10
57.11684861244233
 20
21.6912490278975
 30
0.0
  0
POINT
  5
1D7
330
12C
100
AcDbEntity
  8
Defpoints
  6
Continuous
 62
     0
100
AcDbPoint
 10
57.11684861244233
 20
2.500000112966944
 30
0.0
  0
ENDBLK
  5
137
330
12C
100
AcDbEntity
  8
0
100
AcDbBlockEnd
  0
ENDSEC
  0
SECTION
  2
ENTITIES
  0
DIMENSION
  5
C8
330
1F
100
AcDbEntity
  8
COTATION1
  6
Continuous
100
AcDbDimension
  2
*D2
 10
63.55056443275483
 20
11.19197602442527
 30
0.0
 11
75.32437395656434
 21
11.19197602442527
 31
0.0
 70
   160
 71
     5
 42
6.4337158203125
  3
SC_DEFAUT$0
100
AcDbAlignedDimension
 13
57.11684861244233
 23
21.6912490278975
 33
0.0
 14
63.55056443275483
 24
23.78311100706416
 34
0.0
100
AcDbRotatedDimension
1001
ACAD
1000
DSTYLE
1002
{
1070
    40
1040
1.0
1070
   271
1070
     0
1002
}
  0
LINE
  5
C9
330
1F
100
AcDbEntity
  8
AXE
100
AcDbLine
 10
4.900152715008516
 20
33.48121368332224
 30
0.0
 11
68.11460621347731
 21
33.48121368332224
 31
0.0
  0
DIMENSION
  5
CA
330
1F
100
AcDbEntity
  8
COTATION1
  6
Continuous
100
AcDbDimension
  2
*D3
 10
16.47712422008122
 20
11.19197602442527
 30
0.0
 11
28.31045755341455
 21
11.19197602442527
 31
0.0
 70
   160
  1
7
 71
     5
 42
6.477124023437497
  3
SC_DEFAUT$0
100
AcDbAlignedDimension
 13
10.00000019664372
 23
45.08000228310582
 33
0.0
 14
16.47712422008122
 24
17.1395888716475
 34
0.0
100
AcDbRotatedDimension
1001
ACAD
1000
DSTYLE
1002
{
1070
    40
1040
1.0
1070
   271
1070
     1
1002
}
  0
LINE
  5
CB
330
1F
100
AcDbEntity
  8
AXE
100
AcDbLine
 10
57.11684861244231
 20
6.849758985544525
 30
0.0
 11
57.11684861244231
 21
49.23477192032509
 31
0.0
  0
LWPOLYLINE
  5
CC
330
1F
100
AcDbEntity
  8
0
100
AcDbPolyline
 90
        4
 70
     1
 43
0.0
 10
16.47712422008122
 20
17.1395888716475
 10
16.47712422008122
 20
45.08000228310582
 10
56.09434427216455
 20
45.08000228310582
 10
56.09434427216455
 20
17.1395888716475
  0
LINE
  5
CD
330
1F
100
AcDbEntity
  8
0
100
AcDbLine
 10
54.90061868622705
 20
45.08000228310582
 30
0.0
 11
54.90061868622705
 21
17.1395888716475
 31
0.0
  0
LINE
  5
CE
330
1F
100
AcDbEntity
  8
0
100
AcDbLine
 10
19.52500019664372
 20
45.08000228310582
 30
0.0
 11
19.52500019664372
 21
17.1395888716475
 31
0.0
  0
LWPOLYLINE
  5
CF
330
1F
100
AcDbEntity
  8
0
100
AcDbPolyline
 90
        4
 70
     1
 43
0.0
 10
56.09434427216455
 20
25.73441309039749
 10
57.11684861244233
 20
25.73441309039749
 10
57.11684861244233
 20
21.6912490278975
 10
56.09434427216455
 20
21.6912490278975
  0
DIMENSION
  5
D0
330
1F
100
AcDbEntity
  8
COTATION1
  6
Continuous
100
AcDbDimension
  2
*D4
 10
57.11684861244233
 20
2.500000112966944
 30
0.0
 11
36.79698641626177
 21
4.750000112966944
 31
0.0
 70
    32
 71
     5
 42
40.6397243923611
  3
SC_DEFAUT$0
100
AcDbAlignedDimension
 13
16.47712422008122
 23
17.1395888716475
 33
0.0
 14
57.11684861244233
 24
21.6912490278975
 34
0.0
100
AcDbRotatedDimension
1001
ACAD
1000
DSTYLE
1002
{
1070
    40
1040
1.0
1070
   271
1070
     0
1002
}
  0
MTEXT
  5
D1
330
1F
100
AcDbEntity
  8
AXE
100
AcDbMText
 10
57.69793425098209
 20
10.34835629092421
 30
0.0
 40
3.5
 41
3.066117866697086
 71
     1
 72
     5
  1
{\fArial|b0|i0|c0|p34;Y}
 73
     1
 44
1.0
  0
LINE
  5
D2
330
1F
100
AcDbEntity
  8
0
100
AcDbLine
 10
54.90061868622705
 20
22.16942828136971
 30
0.0
 11
56.09434427216455
 21
22.16942828136971
 31
0.0
  0
LWPOLYLINE
  5
D3
330
1F
100
AcDbEntity
  8
0
100
AcDbPolyline
 90
        4
 70
     1
 43
0.0
 10
16.47712422008122
 20
44.20288097234194
 10
10.00000019664372
 20
47.74168305567528
 10
10.00000019664372
 20
45.08000228310582
 10
16.47712422008122
 20
41.5412001997725
  0
MTEXT
  5
D4
330
1F
100
AcDbEntity
  8
AXE
100
AcDbMText
 10
5.220331508183804
 20
37.48686513358936
 30
0.0
 40
3.5
 41
3.0661
 71
     1
 72
     5
  1
{\fArial|b0|i0|c0|p34;Z}
 73
     1
 44
1.0
  0
LWPOLYLINE
  5
D5
330
1F
100
AcDbEntity
  8
0
100
AcDbPolyline
 90
        3
 70
     0
 43
0.0
 10
16.47712422008122
 20
33.70085189248082
 10
18.03913051348399
 20
34.2362197310225
 10
18.03913051348399
 20
45.08000228310582
  0
LWPOLYLINE
  5
D6
330
1F
100
AcDbEntity
  8
0
100
AcDbPolyline
 90
        4
 70
     1
 43
0.0
 10
14.69911043969927
 20
42.51271712685583
 10
16.47712422008122
 20
41.5412001997725
 10
16.47712422008122
 20
39.79660384560583
 10
14.69911043969927
 20
39.79660384560583
  0
LWPOLYLINE
  5
D7
330
1F
100
AcDbEntity
  8
0
100
AcDbPolyline
 90
        4
 70
     1
 43
0.0
 10
28.70755770532428
 20
40.3753798872725
 10
31.12015807424788
 20
40.3753798872725
 10
31.12015807424788
 20
23.21880436643917
 10
28.70755770532428
 20
23.21880436643917
  0
LWPOLYLINE
  5
D8
330
1F
100
AcDbEntity
  8
0
100
AcDbPolyline
 90
        4
 70
     1
 43
0.0
 10
45.73769822181732
 20
35.67075749143916
 10
45.73769822181732
 20
41.19324555567527
 10
52.09079880775483
 20
41.19324555567527
 10
52.09079880775483
 20
35.67075749143916
  0
LWPOLYLINE
  5
D9
330
1F
100
AcDbEntity
  8
0
100
AcDbPolyline
 90
        4
 70
     1
 43
0.0
 10
40.49839700653954
 20
40.3753798872725
 10
38.08993075219928
 20
40.3753798872725
 10
38.08993075219928
 20
23.21880436643917
 10
40.49839700653954
 20
23.21880436643917
  0
LWPOLYLINE
  5
DA
330
1F
100
AcDbEntity
  8
0
100
AcDbPolyline
 90
        4
 70
     1
 43
0.0
 10
56.09434427216455
 20
43.48216699664749
 10
57.11684861244233
 20
43.48216699664749
 10
57.11684861244233
 20
28.01713335949472
 10
56.09434427216455
 20
28.01713335949472
  0
LINE
  5
DB
330
1F
100
AcDbEntity
  8
0
100
AcDbLine
 10
54.90061868622705
 20
27.14759125880027
 30
0.0
 11
56.09434427216455
 21
27.14759125880027
 31
0.0
  0
LWPOLYLINE
  5
DC
330
1F
100
AcDbEntity
  8
0
100
AcDbPolyline
 90
        5
 70
     1
 43
0.0
 10
57.11684861244233
 20
23.52128375011972
 10
62.99211445445621
 20
23.52128375011972
 10
63.55056443275483
 20
23.78311100706416
 10
62.99211445445621
 20
24.05734060775861
 10
57.11684861244233
 20
24.05734060775861
  0
LWPOLYLINE
  5
DD
330
1F
100
AcDbEntity
  8
0
100
AcDbPolyline
 90
        5
 70
     1
 43
0.0
 10
57.11684861244233
 20
29.8209853560225
 10
62.99211445445621
 20
29.8209853560225
 10
63.55056443275483
 20
30.08281261296694
 10
62.99211445445621
 20
30.35704221366138
 10
57.11684861244233
 20
30.35704221366138
  0
LINE
  5
DE
330
1F
100
AcDbEntity
  8
0
100
AcDbLine
 10
54.90061868622705
 20
35.07199989595305
 30
0.0
 11
56.09434427216455
 21
35.07199989595305
 31
0.0
  0
LINE
  5
DF
330
1F
100
AcDbEntity
  8
0
100
AcDbLine
 10
54.90061868622705
 20
40.05085189248084
 30
0.0
 11
56.09434427216455
 21
40.05085189248084
 31
0.0
  0
LWPOLYLINE
  5
E0
330
1F
100
AcDbEntity
  8
0
100
AcDbPolyline
 90
        5
 70
     1
 43
0.0
 10
57.11684861244233
 20
36.7911025435225
 10
62.99211445445621
 20
36.7911025435225
 10
63.55056443275483
 20
37.05292980046694
 10
62.99211445445621
 20
37.32715940116138
 10
57.11684861244233
 20
37.32715940116138
  0
LWPOLYLINE
  5
E1
330
1F
100
AcDbEntity
  8
0
100
AcDbPolyline
 90
        5
 70
     1
 43
0.0
 10
57.11684861244233
 20
40.81221799491139
 10
62.99211445445621
 20
40.81221799491139
 10
63.55056443275483
 20
41.07404525185583
 10
62.99211445445621
 20
41.34827485255027
 10
57.11684861244233
 20
41.34827485255027
  0
LINE
  5
EF
330
1F
100
AcDbEntity
  8
LIGHT
100
AcDbLine
 10
91.4647951185187
 20
39.79660384560583
 30
0.0
 11
93.67895798744232
 21
39.79660384560583
 31
0.0
  0
SPLINE
  5
F1
330
1F
100
AcDbEntity
  8
LIGHT
100
AcDbSpline
210
0.0
220
0.0
230
1.0
 70
     8
 71
     3
 72
    11
 73
     7
 74
     0
 42
0.0000000001
 43
0.0000000001
 40
0.0
 40
0.0
 40
0.0
 40
0.0
 40
1.0
 40
1.0
 40
1.0
 40
2.0
 40
2.0
 40
2.0
 40
2.0
 10
88.62844800480344
 20
30.94477550359194
 30
0.0
 10
88.62844800480344
 20
30.43627940984194
 30
0.0
 10
90.39405944143538
 20
30.02424598970306
 30
0.0
 10
92.57170429820622
 20
30.02424598970306
 30
0.0
 10
94.74969366452567
 20
30.02424598970306
 30
0.0
 10
96.5153051011576
 20
30.43627940984194
 30
0.0
 10
96.5153051011576
 20
30.94477550359194
 30
0.0
  0
LINE
  5
100
330
1F
100
AcDbEntity
  8
LIGHT
100
AcDbLine
 10
91.4647951185187
 20
44.08919282130027
 30
0.0
 11
91.4647951185187
 21
39.79660384560583
 31
0.0
  0
LINE
  5
101
330
1F
100
AcDbEntity
  8
LIGHT
100
AcDbLine
 10
98.98199346921316
 20
34.2362197310225
 30
0.0
 11
108.8976672973381
 21
34.2362197310225
 31
0.0
  0
LINE
  5
103
330
1F
100
AcDbEntity
  8
LIGHT
100
AcDbLine
 10
98.42078741452565
 20
33.70085189248082
 30
0.0
 11
98.98199346921316
 21
34.2362197310225
 31
0.0
  0
LINE
  5
109
330
1F
100
AcDbEntity
  8
LIGHT
100
AcDbLine
 10
98.98199346921316
 20
45.08000228310582
 30
0.0
 11
98.98199346921316
 21
34.2362197310225
 31
0.0
  0
LINE
  5
10F
330
1F
100
AcDbEntity
  8
LIGHT
100
AcDbLine
 10
93.67895798744232
 20
44.08919282130027
 30
0.0
 11
93.67895798744232
 21
39.79660384560583
 31
0.0
  0
ENDSEC
  0
SECTION
  2
OBJECTS
  0
DICTIONARY
  5
C
330
0
100
AcDbDictionary
281
     1
  3
ACAD_GROUP
350
D
  3
ACAD_LAYOUT
350
1A
  3
ACAD_MLINESTYLE
350
17
  3
ACAD_PLOTSETTINGS
350
19
  3
ACAD_PLOTSTYLENAME
350
E
  3
AcDbVariableDictionary
350
184
  3
ASE_INDEX_DICTIONARY
350
1DF
  0
DICTIONARY
  5
D
102
{ACAD_REACTORS
330
C
102
}
330
C
100
AcDbDictionary
281
     1
  0
DICTIONARY
  5
1A
102
{ACAD_REACTORS
330
C
102
}
330
C
100
AcDbDictionary
281
     1
  3
Layout1
350
1E
  3
Layout2
350
26
  3
Model
350
22
  0
DICTIONARY
  5
17
102
{ACAD_REACTORS
330
C
102
}
330
C
100
AcDbDictionary
281
     1
  3
Standard
350
18
  0
DICTIONARY
  5
19
102
{ACAD_REACTORS
330
C
102
}
330
C
100
AcDbDictionary
281
     1
  0
ACDBDICTIONARYWDFLT
  5
E
102
{ACAD_REACTORS
330
C
102
}
330
C
100
AcDbDictionary
281
     1
  3
Normal
350
F
100
AcDbDictionaryWithDefault
340
F
  0
DICTIONARY
  5
184
102
{ACAD_REACTORS
330
C
102
}
330
C
100
AcDbDictionary
281
     1
  3
DIMASSOC
350
186
  3
HIDETEXT
350
185
  0
DICTIONARY
  5
1DF
102
{ACAD_REACTORS
330
C
102
}
330
C
100
AcDbDictionary
281
     1
  3
ASEBlockHierarchyIndexRecord
350
1E0
1001
DCO15
1040
1554541288.703
  0
LAYOUT
  5
1E
102
{ACAD_REACTORS
330
1A
102
}
330
1A
100
AcDbPlotSettings
  1

  2
\\SKYNET\Canon
  4

  6

 40
0.0
 41
0.0
 42
0.0
 43
0.0
 44
0.0
 45
0.0
 46
0.0
 47
0.0
 48
0.0
 49
0.0
140
0.0
141
0.0
142
1.0
143
1.0
 70
   688
 72
     0
 73
     0
 74
     5
  7
ALSTOM-APH.stb
 75
    16
147
1.0
148
0.0
149
0.0
100
AcDbLayout
  1
Layout1
 70
     1
 71
     1
 10
0.0
 20
0.0
 11
420.0
 21
297.0
 12
0.0
 22
0.0
 32
0.0
 14
1.000000000000000E+20
 24
1.000000000000000E+20
 34
1.000000000000000E+20
 15
-1.000000000000000E+20
 25
-1.000000000000000E+20
 35
-1.000000000000000E+20
146
0.0
 13
0.0
 23
0.0
 33
0.0
 16
1.0
 26
0.0
 36
0.0
 17
0.0
 27
1.0
 37
0.0
 76
     0
330
1B
  0
LAYOUT
  5
26
102
{ACAD_REACTORS
330
1A
102
}
330
1A
100
AcDbPlotSettings
  1

  2
\\SKYNET\Canon
  4

  6

 40
0.0
 41
0.0
 42
0.0
 43
0.0
 44
0.0
 45
0.0
 46
0.0
 47
0.0
 48
0.0
 49
0.0
140
0.0
141
0.0
142
1.0
143
1.0
 70
   688
 72
     0
 73
     0
 74
     5
  7
ALSTOM-APH.stb
 75
    16
147
1.0
148
0.0
149
0.0
100
AcDbLayout
  1
Layout2
 70
     1
 71
     2
 10
0.0
 20
0.0
 11
12.0
 21
9.0
 12
0.0
 22
0.0
 32
0.0
 14
0.0
 24
0.0
 34
0.0
 15
0.0
 25
0.0
 35
0.0
146
0.0
 13
0.0
 23
0.0
 33
0.0
 16
1.0
 26
0.0
 36
0.0
 17
0.0
 27
1.0
 37
0.0
 76
     0
330
23
  0
LAYOUT
  5
22
102
{ACAD_REACTORS
330
1A
102
}
330
1A
100
AcDbPlotSettings
  1

  2
\\SKYNET\Canon
  4

  6

 40
0.0
 41
0.0
 42
0.0
 43
0.0
 44
0.0
 45
0.0
 46
0.0
 47
0.0
 48
0.0
 49
0.0
140
0.0
141
0.0
142
1.0
143
1.0
 70
  1712
 72
     0
 73
     0
 74
     0
  7
ALSTOM-APH.stb
 75
     0
147
1.0
148
0.0
149
0.0
100
AcDbLayout
  1
Model
 70
     1
 71
     0
 10
0.0
 20
0.0
 11
12.0
 21
9.0
 12
0.0
 22
0.0
 32
0.0
 14
0.0
 24
0.0
 34
0.0
 15
0.0
 25
0.0
 35
0.0
146
0.0
 13
0.0
 23
0.0
 33
0.0
 16
1.0
 26
0.0
 36
0.0
 17
0.0
 27
1.0
 37
0.0
 76
     0
330
1F
  0
MLINESTYLE
  5
18
102
{ACAD_REACTORS
330
17
102
}
330
17
100
AcDbMlineStyle
  2
STANDARD
 70
     0
  3

 62
   256
 51
90.0
 52
90.0
 71
     2
 49
0.5
 62
   256
  6
BYLAYER
 49
-0.5
 62
   256
  6
BYLAYER
  0
ACDBPLACEHOLDER
  5
F
102
{ACAD_REACTORS
330
E
102
}
330
E
  0
DICTIONARYVAR
  5
186
102
{ACAD_REACTORS
330
184
102
}
330
184
100
DictionaryVariables
280
     0
  1
2
  0
DICTIONARYVAR
  5
185
102
{ACAD_REACTORS
330
184
102
}
330
184
100
DictionaryVariables
280
     0
  1
1
  0
XRECORD
  5
1E0
102
{ACAD_REACTORS
330
1DF
102
}
330
1DF
100
AcDbXrecord
280
     1
330
1AE
330
1AF
330
19A
330
19B
330
1D2
330
1D3
330
1C9
330
1CA
330
1C0
330
1C1
  0
ENDSEC
  0
EOF
