  0
SECTION
  2
HEADER
  9
$ACADVER
  1
AC1009
  9
$INSBASE
 10
0.0
 20
0.0
 30
0.0
  9
$EXTMIN
 10
93.971149
 20
52.608715
 30
-0.001526
  9
$EXTMAX
 10
154.475995
 20
190.353333
 30
0.0
  9
$LIMMIN
 10
0.0
 20
0.0
  9
$LIMMAX
 10
150.0
 20
150.0
  9
$ORTHOMODE
 70
     0
  9
$REGENMODE
 70
     1
  9
$FILLMODE
 70
     1
  9
$QTEXTMODE
 70
     0
  9
$MIRRTEXT
 70
     1
  9
$DRAGMODE
 70
     2
  9
$LTSCALE
 40
9.777778
  9
$OSMODE
 70
   167
  9
$ATTMODE
 70
     1
  9
$TEXTSIZE
 40
0.2
  9
$TRACEWID
 40
0.05
  9
$TEXTSTYLE
  7
STANDARD
  9
$CLAYER
  8
0
  9
$CELTYPE
  6
BYLAYER
  9
$CECOLOR
 62
   256
  9
$DIMSCALE
 40
1.0
  9
$DIMASZ
 40
2.5
  9
$DIMEXO
 40
1.111111
  9
$DIMDLI
 40
2.0
  9
$DIMRND
 40
0.0
  9
$DIMDLE
 40
0.0
  9
$DIMEXE
 40
3.2
  9
$DIMTP
 40
0.0
  9
$DIMTM
 40
0.0
  9
$DIMTXT
 40
2.008929
  9
$DIMCEN
 40
1.6
  9
$DIMTSZ
 40
0.0
  9
$DIMTOL
 70
     0
  9
$DIMLIM
 70
     0
  9
$DIMTIH
 70
     0
  9
$DIMTOH
 70
     0
  9
$DIMSE1
 70
     0
  9
$DIMSE2
 70
     0
  9
$DIMTAD
 70
     1
  9
$DIMZIN
 70
     8
  9
$DIMBLK
  1

  9
$DIMASO
 70
     1
  9
$DIMSHO
 70
     1
  9
$DIMPOST
  1

  9
$DIMAPOST
  1

  9
$DIMALT
 70
     0
  9
$DIMALTD
 70
     2
  9
$DIMALTF
 40
25.4
  9
$DIMLFAC
 40
1.0
  9
$DIMTOFL
 70
     0
  9
$DIMTVP
 40
0.0
  9
$DIMTIX
 70
     0
  9
$DIMSOXD
 70
     0
  9
$DIMSAH
 70
     0
  9
$DIMBLK1
  1

  9
$DIMBLK2
  1

  9
$DIMSTYLE
  2
STANDARD
  9
$DIMCLRD
 70
     0
  9
$DIMCLRE
 70
     0
  9
$DIMCLRT
 70
     0
  9
$DIMTFAC
 40
1.0
  9
$DIMGAP
 40
1.0
  9
$LUNITS
 70
     2
  9
$LUPREC
 70
     4
  9
$SKETCHINC
 40
0.1
  9
$FILLETRAD
 40
0.0
  9
$AUNITS
 70
     0
  9
$AUPREC
 70
     0
  9
$MENU
  1
.
  9
$ELEVATION
 40
0.0
  9
$PELEVATION
 40
0.0
  9
$THICKNESS
 40
0.0
  9
$LIMCHECK
 70
     0
  9
$BLIPMODE
 70
     0
  9
$CHAMFERA
 40
0.0
  9
$CHAMFERB
 40
0.0
  9
$SKPOLY
 70
     0
  9
$TDCREATE
 40
2452282.428316
  9
$TDUPDATE
 40
2452292.363117
  9
$TDINDWG
 40
0.011384
  9
$TDUSRTIMER
 40
0.011384
  9
$USRTIMER
 70
     1
  9
$ANGBASE
 50
0.0
  9
$ANGDIR
 70
     0
  9
$PDMODE
 70
     0
  9
$PDSIZE
 40
0.0
  9
$PLINEWID
 40
0.0
  9
$COORDS
 70
     2
  9
$SPLFRAME
 70
     0
  9
$SPLINETYPE
 70
     6
  9
$SPLINESEGS
 70
     8
  9
$ATTDIA
 70
     0
  9
$ATTREQ
 70
     1
  9
$HANDLING
 70
     1
  9
$HANDSEED
  5
29F5
  9
$SURFTAB1
 70
     6
  9
$SURFTAB2
 70
     6
  9
$SURFTYPE
 70
     6
  9
$SURFU
 70
     6
  9
$SURFV
 70
     6
  9
$UCSNAME
  2

  9
$UCSORG
 10
0.0
 20
0.0
 30
0.0
  9
$UCSXDIR
 10
1.0
 20
0.0
 30
0.0
  9
$UCSYDIR
 10
0.0
 20
1.0
 30
0.0
  9
$PUCSNAME
  2

  9
$PUCSORG
 10
0.0
 20
0.0
 30
0.0
  9
$PUCSXDIR
 10
1.0
 20
0.0
 30
0.0
  9
$PUCSYDIR
 10
0.0
 20
1.0
 30
0.0
  9
$USERI1
 70
     0
  9
$USERI2
 70
     0
  9
$USERI3
 70
     0
  9
$USERI4
 70
     0
  9
$USERI5
 70
     0
  9
$USERR1
 40
0.0
  9
$USERR2
 40
0.0
  9
$USERR3
 40
0.0
  9
$USERR4
 40
0.0
  9
$USERR5
 40
0.0
  9
$WORLDVIEW
 70
     1
  9
$SHADEDGE
 70
     3
  9
$SHADEDIF
 70
    70
  9
$TILEMODE
 70
     1
  9
$MAXACTVP
 70
    48
  9
$PLIMCHECK
 70
     0
  9
$PEXTMIN
 10
1.000000E+020
 20
1.000000E+020
 30
1.000000E+020
  9
$PEXTMAX
 10
-1.000000E+020
 20
-1.000000E+020
 30
-1.000000E+020
  9
$PLIMMIN
 10
0.0
 20
0.0
  9
$PLIMMAX
 10
12.0
 20
9.0
  9
$UNITMODE
 70
     0
  9
$VISRETAIN
 70
     1
  9
$PLINEGEN
 70
     0
  9
$PSLTSCALE
 70
     1
  0
ENDSEC
  0
SECTION
  2
TABLES
  0
TABLE
  2
VPORT
 70
     2
  0
VPORT
  2
*ACTIVE
 70
     0
 10
0.0
 20
0.0
 11
1.0
 21
1.0
 12
124.223572
 22
121.481024
 13
0.0
 23
0.0
 14
1.0
 24
1.0
 15
0.0
 25
0.0
 16
0.0
 26
0.0
 36
1.0
 17
0.0
 27
0.0
 37
0.0
 40
139.261073
 41
1.700368
 42
50.0
 43
0.0
 44
0.0
 50
0.0
 51
0.0
 71
     0
 72
   100
 73
     1
 74
     1
 75
     0
 76
     0
 77
     0
 78
     0
  0
ENDTAB
  0
TABLE
  2
LTYPE
 70
     6
  0
LTYPE
  2
CONTINUOUS
 70
     0
  3
Solid line
 72
    65
 73
     0
 40
0.0
  0
LTYPE
  2
CENTER
 70
     0
  3
____ _ ____ _ ____ _ ____ _ ____ _ ____ _ ____
 72
    65
 73
     4
 40
0.6
 49
0.375
 49
-0.075
 49
0.075
 49
-0.075
  0
LTYPE
  2
HIDDEN
 70
     0
  3
- - - - - - - - - - - - - - - - - - - -
 72
    65
 73
     2
 40
0.2
 49
0.1
 49
-0.1
  0
LTYPE
  2
PHANTOM
 70
     0
  3
_____ _ _ _____ _ _ _____ _ _ _____
 72
    65
 73
     6
 40
0.8
 49
0.45
 49
-0.05
 49
0.1
 49
-0.05
 49
0.1
 49
-0.05
  0
ENDTAB
  0
TABLE
  2
LAYER
 70
     5
  0
LAYER
  2
0
 70
     0
 62
     7
  6
CONTINUOUS
  0
LAYER
  2
DEFPOINTS
 70
     0
 62
     7
  6
CONTINUOUS
  0
ENDTAB
  0
TABLE
  2
STYLE
 70
     1
  0
STYLE
  2
STANDARD
 70
     0
 40
0.0
 41
1.0
 50
0.0
 71
     0
 42
0.2
  3
txt
  4

  0
ENDTAB
  0
TABLE
  2
VIEW
 70
     0
  0
ENDTAB
  0
TABLE
  2
UCS
 70
     0
  0
ENDTAB
  0
TABLE
  2
APPID
 70
     1
  0
APPID
  2
ACAD
 70
     0
  0
ENDTAB
  0
TABLE
  2
DIMSTYLE
 70
     1
  0
DIMSTYLE
  2
STANDARD
 70
     0
  3

  4

  5

  6

  7

 40
1.0
 41
0.18
 42
0.0625
 43
0.02
 44
0.1
 45
0.0
 46
0.0
 47
0.0
 48
0.0
140
0.18
141
0.0
142
0.0
143
25.4
144
1.0
145
0.0
146
1.0
147
1.0
 71
     0
 72
     0
 73
     0
 74
     0
 75
     0
 76
     0
 77
     1
 78
     8
170
     0
171
     2
172
     0
173
     0
174
     0
175
     0
176
     0
177
     0
178
     0
  0
ENDTAB
  0
ENDSEC
  0
SECTION
  2
BLOCKS
  0
BLOCK
  8
0
  2
$MODEL_SPACE
 70
     0
 10
0.0
 20
0.0
 30
0.0
  3
$MODEL_SPACE
  1

  0
ENDBLK
  5
20
  8
0
  0
BLOCK
 67
     1
  8
0
  2
$PAPER_SPACE
 70
     0
 10
0.0
 20
0.0
 30
0.0
  3
$PAPER_SPACE
  1

  0
ENDBLK
  5
1C
 67
     1
  8
0
  0
BLOCK
  8
0
  2
*D0
 70
     1
 10
0.0
 20
0.0
 30
0.0
  3
*D0
  1

  0
LINE
  5
2706
  8
0
 62
     0
 10
109.42149
 20
181.009157
 30
0.0
 11
109.42149
 21
187.847524
 31
0.0
1001
ACAD
1000
RTLwPs
1070
   158
  0
LINE
  5
2707
  8
0
 62
     0
 10
154.22149
 20
181.009157
 30
0.0
 11
154.22149
 21
187.847524
 31
0.0
1001
ACAD
1000
RTLwPs
1070
   158
  0
LINE
  5
2708
  8
0
 62
     0
 10
111.92149
 20
186.847524
 30
0.0
 11
151.72149
 21
186.847524
 31
0.0
1001
ACAD
1000
RTLwPs
1070
   158
  0
SOLID
  5
2709
  8
0
 62
     0
 10
111.92149
 20
187.26419
 30
0.0
 11
111.92149
 21
186.430857
 31
0.0
 12
109.42149
 22
186.847524
 32
0.0
 13
109.42149
 23
186.847524
 33
0.0
  0
SOLID
  5
270A
  8
0
 62
     0
 10
151.72149
 20
187.26419
 30
0.0
 11
151.72149
 21
186.430857
 31
0.0
 12
154.22149
 22
186.847524
 32
0.0
 13
154.22149
 23
186.847524
 33
0.0
  0
TEXT
  8
0
  40
2.5
  5
29F3
  62
0
  72
0
  71
0
 10
126.821
 20
184.673
 30
0.000000
  1
44.8
  0
POINT
  5
270C
  8
DEFPOINTS
 62
     0
 10
109.42149
 20
180.009157
 30
0.0
  0
POINT
  5
270D
  8
DEFPOINTS
 62
     0
 10
154.22149
 20
180.009157
 30
0.0
  0
POINT
  5
270E
  8
DEFPOINTS
 62
     0
 10
154.22149
 20
186.847524
 30
0.0
  0
ENDBLK
  5
2648
  8
0
  0
BLOCK
  8
0
  2
*D1
 70
     1
 10
0.0
 20
0.0
 30
0.0
  3
*D1
  1

  0
LINE
  5
26FD
  8
0
 62
     0
 10
107.72149
 20
179.309157
 30
0.0
 11
96.472496
 21
179.309157
 31
0.0
1001
ACAD
1000
RTLwPs
1070
   158
  0
LINE
  5
26FE
  8
0
 62
     0
 10
119.243915
 20
52.805671
 30
0.0
 11
96.472496
 21
52.805671
 31
0.0
1001
ACAD
1000
RTLwPs
1070
   158
  0
LINE
  5
26FF
  8
0
 62
     0
 10
97.472496
 20
176.809157
 30
0.0
 11
97.472496
 21
55.305671
 31
0.0
1001
ACAD
1000
RTLwPs
1070
   158
  0
SOLID
  5
2700
  8
0
 62
     0
 10
97.055829
 20
176.809157
 30
0.0
 11
97.889162
 21
176.809157
 31
0.0
 12
97.472496
 22
179.309157
 32
0.0
 13
97.472496
 23
179.309157
 33
0.0
  0
SOLID
  5
2701
  8
0
 62
     0
 10
97.055829
 20
55.305671
 30
0.0
 11
97.889162
 21
55.305671
 31
0.0
 12
97.472496
 22
52.805671
 32
0.0
 13
97.472496
 23
52.805671
 33
0.0
  0
TEXT
  8
0
  40
2.5
  5
29F4
  62
0
  72
0
  71
0
 10
90.2225
 20
111.632
 30
0.000000
  1
126.5
  0
POINT
  5
2703
  8
DEFPOINTS
 62
     0
 10
108.72149
 20
179.309157
 30
0.0
  0
POINT
  5
2704
  8
DEFPOINTS
 62
     0
 10
120.243915
 20
52.805671
 30
0.0
  0
POINT
  5
2705
  8
DEFPOINTS
 62
     0
 10
97.472496
 20
52.805671
 30
0.0
  0
ENDBLK
  5
2654
  8
0
  0
ENDSEC
  0
SECTION
  2
ENTITIES
  0
ARC
  5
23CD
  8
0
 62
     0
 10
131.82149
 20
198.109157
 30
0.0
 40
129.5
 50
260.450974
 51
271.725771
  0
ARC
  5
23CE
  8
0
 62
     0
 10
131.82149
 20
198.109157
 30
0.0
 40
130.0
 50
260.450974
 51
271.719131
  0
ARC
  5
23CF
  8
0
 62
     0
 10
131.82149
 20
231.409157
 30
0.0
 40
106.0
 50
258.705216
 51
281.019833
  0
ARC
  5
23D0
  8
0
 62
     0
 10
131.82149
 20
234.952234
 30
0.0
 40
109.343077
 50
258.894324
 51
280.839284
  0
ARC
  5
23D1
  8
0
 62
     0
 10
131.82149
 20
259.149157
 30
0.0
 40
125.94
 50
259.954003
 51
280.045997
  0
ARC
  5
23D2
  8
0
 62
     0
 10
131.82149
 20
259.149157
 30
0.0
 40
126.44
 50
260.177324
 51
279.822676
  0
ARC
  5
23D3
  8
0
 62
     0
 10
131.82149
 20
259.149157
 30
0.0
 40
125.24
 50
267.80352
 51
272.19648
  0
LINE
  5
23D4
  8
0
 62
     0
 10
143.07149
 20
179.309157
 30
0.0
 11
109.72149
 21
179.309157
 31
0.0
  0
LINE
  5
23D5
  8
0
 62
     0
 10
142.97149
 20
179.009157
 30
0.0
 11
109.42149
 21
179.009157
 31
0.0
  0
LINE
  5
23D6
  8
0
 62
     0
 10
136.57149
 20
176.277904
 30
0.0
 11
127.07149
 21
176.277904
 31
0.0
  0
POLYLINE
  5
23D7
  8
0
 62
     0
 66
     1
 10
0.0
 20
0.0
 30
0.0
  0
VERTEX
  5
2781
  8
0
 62
     0
 10
136.57149
 20
175.309157
 30
0.0
  0
VERTEX
  5
2782
  8
0
 62
     0
 10
133.429461
 20
175.156821
 30
0.0
  0
VERTEX
  5
2783
  8
0
 62
     0
 10
130.21352
 20
175.156821
 30
0.0
  0
VERTEX
  5
2784
  8
0
 62
     0
 10
127.07149
 20
175.309157
 30
0.0
  0
SEQEND
  5
2785
  8
0
 62
     0
  0
LINE
  5
23D8
  8
0
 62
     0
 10
136.57149
 20
171.309157
 30
0.0
 11
127.07149
 21
171.309157
 31
0.0
  0
LINE
  5
23D9
  8
0
 62
     0
 10
127.07149
 20
169.809157
 30
0.0
 11
136.57149
 21
169.809157
 31
0.0
  0
LINE
  5
23DA
  8
0
 62
     0
 10
136.57149
 20
168.309157
 30
0.0
 11
127.07149
 21
168.309157
 31
0.0
  0
LINE
  5
23DB
  8
0
 62
     0
 10
127.07149
 20
166.809157
 30
0.0
 11
136.57149
 21
166.809157
 31
0.0
  0
LINE
  5
23DC
  8
0
 62
     0
 10
136.57149
 20
165.309157
 30
0.0
 11
127.07149
 21
165.309157
 31
0.0
  0
LINE
  5
23DD
  8
0
 62
     0
 10
127.07149
 20
163.809157
 30
0.0
 11
136.57149
 21
163.809157
 31
0.0
  0
LINE
  5
23DE
  8
0
 62
     0
 10
136.57149
 20
162.309157
 30
0.0
 11
127.07149
 21
162.309157
 31
0.0
  0
LINE
  5
23DF
  8
0
 62
     0
 10
127.07149
 20
160.809157
 30
0.0
 11
136.57149
 21
160.809157
 31
0.0
  0
LINE
  5
23E0
  8
0
 62
     0
 10
136.57149
 20
155.309157
 30
0.0
 11
127.07149
 21
155.309157
 31
0.0
  0
LINE
  5
23E1
  8
0
 62
     0
 10
126.67149
 20
151.109157
 30
0.0
 11
137.82149
 21
151.109157
 31
0.0
  0
LINE
  5
23E2
  8
0
 62
     0
 10
126.67149
 20
150.109157
 30
0.0
 11
136.97149
 21
150.109157
 31
0.0
  0
LINE
  5
23E3
  8
0
 62
     0
 10
128.82149
 20
149.809157
 30
0.0
 11
134.82149
 21
149.809157
 31
0.0
  0
LINE
  5
23E4
  8
0
 62
     0
 10
126.67149
 20
148.509157
 30
0.0
 11
136.97149
 21
148.509157
 31
0.0
  0
LINE
  5
23E5
  8
0
 62
     0
 10
127.02149
 20
145.409157
 30
0.0
 11
136.62149
 21
145.409157
 31
0.0
  0
POLYLINE
  5
23E6
  8
0
 62
     0
 66
     1
 10
0.0
 20
0.0
 30
0.0
  0
VERTEX
  5
2786
  8
0
 62
     0
 10
127.02149
 20
144.809157
 30
0.0
  0
VERTEX
  5
2787
  8
0
 62
     0
 10
128.94401
 20
145.130717
 30
0.0
  0
VERTEX
  5
2788
  8
0
 62
     0
 10
130.862846
 20
145.28942
 30
0.0
  0
VERTEX
  5
2789
  8
0
 62
     0
 10
132.780224
 20
145.289416
 30
0.0
  0
VERTEX
  5
278A
  8
0
 62
     0
 10
134.699007
 20
145.130713
 30
0.0
  0
VERTEX
  5
278B
  8
0
 62
     0
 10
136.62149
 20
144.809157
 30
0.0
  0
SEQEND
  5
278C
  8
0
 62
     0
  0
LINE
  5
23E7
  8
0
 62
     0
 10
128.769607
 20
67.309157
 30
0.0
 11
129.590213
 21
67.309157
 31
0.0
  0
LINE
  5
23E8
  8
0
 62
     0
 10
132.477581
 20
53.372174
 30
0.0
 11
128.526639
 21
52.899952
 31
0.0
  0
POLYLINE
  5
23E9
  8
0
 62
     0
 66
     1
 10
0.0
 20
0.0
 30
0.0
  0
VERTEX
  5
278D
  8
0
 62
     0
 10
111.763303
 20
53.439477
 30
0.0
  0
VERTEX
  5
278E
  8
0
 62
     0
 10
115.745331
 20
53.01942
 30
0.0
  0
VERTEX
  5
278F
  8
0
 62
     0
 10
119.716753
 20
52.822226
 30
0.0
  0
VERTEX
  5
2790
  8
0
 62
     0
 10
123.668685
 20
52.847645
 30
0.0
  0
VERTEX
  5
2791
  8
0
 62
     0
 10
127.593736
 20
53.095654
 30
0.0
  0
VERTEX
  5
2792
  8
0
 62
     0
 10
131.484358
 20
53.566581
 30
0.0
  0
VERTEX
  5
2793
  8
0
 62
     0
 10
135.332415
 20
54.260971
 30
0.0
  0
VERTEX
  5
2794
  8
0
 62
     0
 10
139.129928
 20
55.179662
 30
0.0
  0
SEQEND
  5
2795
  8
0
 62
     0
  0
POLYLINE
  5
23EA
  8
0
 62
     0
 66
     1
 10
0.0
 20
0.0
 30
0.0
  0
VERTEX
  5
2796
  8
0
 62
     0
 10
121.271816
 20
52.609157
 30
0.0
  0
VERTEX
  5
2797
  8
0
 62
     0
 10
123.706996
 20
52.651256
 30
0.0
  0
VERTEX
  5
2798
  8
0
 62
     0
 10
127.648921
 20
52.899951
 30
0.0
  0
VERTEX
  5
2799
  8
0
 62
     0
 10
131.556332
 20
53.372174
 30
0.0
  0
VERTEX
  5
279A
  8
0
 62
     0
 10
135.421057
 20
54.068471
 30
0.0
  0
SEQEND
  5
279B
  8
0
 62
     0
  0
POLYLINE
  5
23EB
  8
0
 62
     0
 66
     1
 10
0.0
 20
0.0
 30
0.0
  0
VERTEX
  5
279C
  8
0
 62
     0
 10
122.275375
 20
52.612464
 30
0.0
  0
VERTEX
  5
279D
  8
0
 62
     0
 10
126.554649
 20
52.74772
 30
0.0
  0
VERTEX
  5
279E
  8
0
 62
     0
 10
131.172568
 20
53.191461
 30
0.0
  0
VERTEX
  5
279F
  8
0
 62
     0
 10
135.794426
 20
53.941353
 30
0.0
  0
VERTEX
  5
27A0
  8
0
 62
     0
 10
136.481453
 20
54.098665
 30
0.0
  0
SEQEND
  5
27A1
  8
0
 62
     0
  0
DIMENSION
  5
23EC
  8
0
 62
     0
  2
*D0
 10
154.22149
 20
186.847524
 30
0.0
 11
131.82149
 21
189.097524
 31
0.0
 70
     0
 13
109.42149
 23
180.009157
 33
0.0
 14
154.22149
 24
180.009157
 34
0.0
1001
ACAD
1000
DSTYLE
1002
{
1070
    41
1040
2.5
1070
    42
1040
1.0
1070
    43
1040
6.755556
1070
    44
1040
1.0
1070
   140
1040
2.5
1070
   141
1040
1.6
1070
   271
1070
     2
1002
}
  0
LINE
  5
23ED
  8
0
 62
     0
 10
110.82149
 20
116.809157
 30
0.0
 11
110.82149
 21
127.265987
 31
0.0
  0
LINE
  5
23EE
  8
0
 62
     0
 10
110.52149
 20
116.609157
 30
0.0
 11
110.52149
 21
127.460487
 31
0.0
  0
LINE
  5
23EF
  8
0
 62
     0
 10
109.82149
 20
113.109157
 30
0.0
 11
109.82149
 21
134.750439
 31
0.0
  0
LINE
  5
23F0
  8
0
 62
     0
 10
109.32149
 20
113.109157
 30
0.0
 11
109.32149
 21
164.760032
 31
0.0
  0
DIMENSION
  5
23F1
  8
0
 62
     0
  2
*D1
 10
97.472496
 20
52.805671
 30
0.0
 11
95.222496
 21
116.057414
 31
0.0
 70
     0
 13
108.72149
 23
179.309157
 33
0.0
 14
120.243915
 24
52.805671
 34
0.0
 50
270.0
1001
ACAD
1000
DSTYLE
1002
{
1070
    41
1040
2.5
1070
    42
1040
1.0
1070
    43
1040
6.755556
1070
    44
1040
1.0
1070
   140
1040
2.5
1070
   141
1040
1.6
1070
   271
1070
     2
1002
}
  0
LINE
  5
23F2
  8
0
 62
     0
 10
109.92149
 20
83.609157
 30
0.0
 11
109.92149
 21
70.896579
 31
0.0
  0
LINE
  5
23F3
  8
0
 62
     0
 10
109.42149
 20
93.609157
 30
0.0
 11
109.42149
 21
68.59757
 31
0.0
  0
LINE
  5
23F4
  8
0
 62
     0
 10
109.17149
 20
71.178584
 30
0.0
 11
109.17149
 21
79.00254
 31
0.0
  0
POLYLINE
  5
23F5
  8
0
 62
     0
 66
     1
 10
0.0
 20
0.0
 30
0.0
  0
VERTEX
  5
27A2
  8
0
 62
     0
 10
111.750117
 20
53.244707
 30
0.0
  0
VERTEX
  5
27A3
  8
0
 62
     0
 10
116.392493
 20
52.776575
 30
0.0
  0
VERTEX
  5
27A4
  8
0
 62
     0
 10
121.271849
 20
52.609163
 30
0.0
  0
SEQEND
  5
27A5
  8
0
 62
     0
  0
LINE
  5
23F6
  8
0
 62
     0
 10
124.584756
 20
52.651256
 30
0.0
 11
122.448088
 21
52.613986
 31
0.0
  0
LINE
  5
23F7
  8
0
 62
     0
 10
121.547842
 20
52.609157
 30
0.0
 11
121.805126
 21
52.60961
 31
0.0
  0
LINE
  5
23F8
  8
0
 62
     0
 10
121.26913
 20
52.609157
 30
0.0
 11
121.547842
 21
52.609157
 31
0.0
  0
LINE
  5
23F9
  8
0
 62
     0
 10
121.805126
 20
52.60961
 30
0.0
 11
122.056345
 21
52.610845
 31
0.0
  0
POLYLINE
  5
23FA
  8
0
 62
     0
 66
     1
 10
0.0
 20
0.0
 30
0.0
  0
VERTEX
  5
27A6
  8
0
 62
     0
 10
122.056345
 20
52.610845
 30
0.0
  0
VERTEX
  5
27A7
  8
0
 62
     0
 10
122.286416
 20
52.612546
 30
0.0
  0
VERTEX
  5
27A8
  8
0
 62
     0
 10
122.477342
 20
52.614246
 30
0.0
  0
VERTEX
  5
27A9
  8
0
 62
     0
 10
122.617664
 20
52.615501
 30
0.0
  0
VERTEX
  5
27AA
  8
0
 62
     0
 10
122.696083
 20
52.615959
 30
0.0
  0
VERTEX
  5
27AB
  8
0
 62
     0
 10
122.711272
 20
52.615755
 30
0.0
  0
SEQEND
  5
27AC
  8
0
 62
     0
  0
LINE
  5
23FB
  8
0
 62
     0
 10
128.526639
 20
52.899952
 30
0.0
 11
124.584756
 21
52.651256
 31
0.0
  0
POLYLINE
  5
23FC
  8
0
 62
     0
 66
     1
 10
0.0
 20
0.0
 30
0.0
  0
VERTEX
  5
27AD
  8
0
 62
     0
 10
128.186771
 20
66.985912
 30
0.0
  0
VERTEX
  5
27AE
  8
0
 62
     0
 10
127.824651
 20
66.90463
 30
0.0
  0
VERTEX
  5
27AF
  8
0
 62
     0
 10
127.431956
 20
66.824655
 30
0.0
  0
VERTEX
  5
27B0
  8
0
 62
     0
 10
126.996518
 20
66.745631
 30
0.0
  0
VERTEX
  5
27B1
  8
0
 62
     0
 10
126.506829
 20
66.668492
 30
0.0
  0
VERTEX
  5
27B2
  8
0
 62
     0
 10
125.951052
 20
66.59536
 30
0.0
  0
VERTEX
  5
27B3
  8
0
 62
     0
 10
125.316384
 20
66.529543
 30
0.0
  0
VERTEX
  5
27B4
  8
0
 62
     0
 10
124.608041
 20
66.476546
 30
0.0
  0
VERTEX
  5
27B5
  8
0
 62
     0
 10
123.887385
 20
66.442019
 30
0.0
  0
VERTEX
  5
27B6
  8
0
 62
     0
 10
123.214173
 20
66.424071
 30
0.0
  0
VERTEX
  5
27B7
  8
0
 62
     0
 10
122.585647
 20
66.416259
 30
0.0
  0
VERTEX
  5
27B8
  8
0
 62
     0
 10
122.009989
 20
66.413644
 30
0.0
  0
VERTEX
  5
27B9
  8
0
 62
     0
 10
121.502587
 20
66.413033
 30
0.0
  0
VERTEX
  5
27BA
  8
0
 62
     0
 10
121.056192
 20
66.413051
 30
0.0
  0
VERTEX
  5
27BB
  8
0
 62
     0
 10
120.655662
 20
66.413502
 30
0.0
  0
VERTEX
  5
27BC
  8
0
 62
     0
 10
120.304549
 20
66.414558
 30
0.0
  0
VERTEX
  5
27BD
  8
0
 62
     0
 10
119.991495
 20
66.416407
 30
0.0
  0
VERTEX
  5
27BE
  8
0
 62
     0
 10
119.700353
 20
66.419258
 30
0.0
  0
VERTEX
  5
27BF
  8
0
 62
     0
 10
119.41521
 20
66.423447
 30
0.0
  0
VERTEX
  5
27C0
  8
0
 62
     0
 10
119.12073
 20
66.429569
 30
0.0
  0
VERTEX
  5
27C1
  8
0
 62
     0
 10
118.802071
 20
66.438641
 30
0.0
  0
VERTEX
  5
27C2
  8
0
 62
     0
 10
118.445166
 20
66.4523
 30
0.0
  0
VERTEX
  5
27C3
  8
0
 62
     0
 10
118.045274
 20
66.472583
 30
0.0
  0
VERTEX
  5
27C4
  8
0
 62
     0
 10
117.603457
 20
66.501805
 30
0.0
  0
VERTEX
  5
27C5
  8
0
 62
     0
 10
117.109646
 20
66.543728
 30
0.0
  0
VERTEX
  5
27C6
  8
0
 62
     0
 10
116.566353
 20
66.602033
 30
0.0
  0
VERTEX
  5
27C7
  8
0
 62
     0
 10
116.049594
 20
66.670071
 30
0.0
  0
VERTEX
  5
27C8
  8
0
 62
     0
 10
115.572795
 20
66.74426
 30
0.0
  0
VERTEX
  5
27C9
  8
0
 62
     0
 10
115.133617
 20
66.822654
 30
0.0
  0
VERTEX
  5
27CA
  8
0
 62
     0
 10
114.72922
 20
66.903634
 30
0.0
  0
VERTEX
  5
27CB
  8
0
 62
     0
 10
114.356597
 20
66.985912
 30
0.0
  0
SEQEND
  5
27CC
  8
0
 62
     0
  0
POLYLINE
  5
23FD
  8
0
 62
     0
 66
     1
 10
0.0
 20
0.0
 30
0.0
  0
VERTEX
  5
27CD
  8
0
 62
     0
 10
128.108143
 20
67.17645
 30
0.0
  0
VERTEX
  5
27CE
  8
0
 62
     0
 10
127.749927
 20
67.096002
 30
0.0
  0
VERTEX
  5
27CF
  8
0
 62
     0
 10
127.361469
 20
67.016858
 30
0.0
  0
VERTEX
  5
27D0
  8
0
 62
     0
 10
126.930644
 20
66.938657
 30
0.0
  0
VERTEX
  5
27D1
  8
0
 62
     0
 10
126.446014
 20
66.86232
 30
0.0
  0
VERTEX
  5
27D2
  8
0
 62
     0
 10
125.895755
 20
66.789946
 30
0.0
  0
VERTEX
  5
27D3
  8
0
 62
     0
 10
125.267015
 20
66.724809
 30
0.0
  0
VERTEX
  5
27D4
  8
0
 62
     0
 10
124.564885
 20
66.672376
 30
0.0
  0
VERTEX
  5
27D5
  8
0
 62
     0
 10
123.849879
 20
66.638223
 30
0.0
  0
VERTEX
  5
27D6
  8
0
 62
     0
 10
123.180798
 20
66.620464
 30
0.0
  0
VERTEX
  5
27D7
  8
0
 62
     0
 10
122.555089
 20
66.612733
 30
0.0
  0
VERTEX
  5
27D8
  8
0
 62
     0
 10
121.981087
 20
66.610144
 30
0.0
  0
VERTEX
  5
27D9
  8
0
 62
     0
 10
121.474612
 20
66.609539
 30
0.0
  0
VERTEX
  5
27DA
  8
0
 62
     0
 10
121.028998
 20
66.609557
 30
0.0
  0
VERTEX
  5
27DB
  8
0
 62
     0
 10
120.629387
 20
66.610003
 30
0.0
  0
VERTEX
  5
27DC
  8
0
 62
     0
 10
120.279381
 20
66.611048
 30
0.0
  0
VERTEX
  5
27DD
  8
0
 62
     0
 10
119.967596
 20
66.612878
 30
0.0
  0
VERTEX
  5
27DE
  8
0
 62
     0
 10
119.677882
 20
66.615699
 30
0.0
  0
VERTEX
  5
27DF
  8
0
 62
     0
 10
119.394366
 20
66.619844
 30
0.0
  0
VERTEX
  5
27E0
  8
0
 62
     0
 10
119.101793
 20
66.625903
 30
0.0
  0
VERTEX
  5
27E1
  8
0
 62
     0
 10
118.785439
 20
66.634881
 30
0.0
  0
VERTEX
  5
27E2
  8
0
 62
     0
 10
118.431392
 20
66.648397
 30
0.0
  0
VERTEX
  5
27E3
  8
0
 62
     0
 10
118.034994
 20
66.668468
 30
0.0
  0
VERTEX
  5
27E4
  8
0
 62
     0
 10
117.597306
 20
66.697385
 30
0.0
  0
VERTEX
  5
27E5
  8
0
 62
     0
 10
117.108419
 20
66.738869
 30
0.0
  0
VERTEX
  5
27E6
  8
0
 62
     0
 10
116.570875
 20
66.796552
 30
0.0
  0
VERTEX
  5
27E7
  8
0
 62
     0
 10
116.059618
 20
66.863884
 30
0.0
  0
VERTEX
  5
27E8
  8
0
 62
     0
 10
115.588037
 20
66.937301
 30
0.0
  0
VERTEX
  5
27E9
  8
0
 62
     0
 10
115.153752
 20
67.014878
 30
0.0
  0
VERTEX
  5
27EA
  8
0
 62
     0
 10
114.753915
 20
67.095015
 30
0.0
  0
VERTEX
  5
27EB
  8
0
 62
     0
 10
114.385466
 20
67.17645
 30
0.0
  0
SEQEND
  5
27EC
  8
0
 62
     0
  0
LINE
  5
23FE
  8
0
 62
     0
 10
111.209272
 20
67.309157
 30
0.0
 11
128.668296
 21
67.309157
 31
0.0
  0
LINE
  5
23FF
  8
0
 62
     0
 10
114.385466
 20
67.17645
 30
0.0
 11
128.108143
 21
67.17645
 31
0.0
  0
POLYLINE
  5
2400
  8
0
 62
     0
 66
     1
 10
0.0
 20
0.0
 30
0.0
  0
VERTEX
  5
27ED
  8
0
 62
     0
 10
111.579037
 20
53.439583
 30
0.0
  0
VERTEX
  5
27EE
  8
0
 62
     0
 10
111.5104
 20
58.027765
 30
0.0
  0
VERTEX
  5
27EF
  8
0
 62
     0
 10
111.441662
 20
62.65091
 30
0.0
  0
VERTEX
  5
27F0
  8
0
 62
     0
 10
111.372822
 20
67.309157
 30
0.0
  0
SEQEND
  5
27F1
  8
0
 62
     0
  0
POLYLINE
  5
2401
  8
0
 62
     0
 66
     1
 10
0.0
 20
0.0
 30
0.0
  0
VERTEX
  5
27F2
  8
0
 62
     0
 10
111.763303
 20
53.439477
 30
0.0
  0
VERTEX
  5
27F3
  8
0
 62
     0
 10
111.694559
 20
58.027766
 30
0.0
  0
VERTEX
  5
27F4
  8
0
 62
     0
 10
111.62571
 20
62.65091
 30
0.0
  0
VERTEX
  5
27F5
  8
0
 62
     0
 10
111.556754
 20
67.309157
 30
0.0
  0
SEQEND
  5
27F6
  8
0
 62
     0
  0
LINE
  5
2402
  8
0
 62
     0
 10
111.209272
 20
67.309157
 30
0.0
 11
111.450423
 21
53.493576
 31
0.0
  0
POLYLINE
  5
2403
  8
0
 62
     0
 66
     1
 10
0.0
 20
0.0
 30
0.0
  0
VERTEX
  5
27F7
  8
0
 62
     0
 10
111.763303
 20
53.439464
 30
0.0
  0
VERTEX
  5
27F8
  8
0
 62
     0
 10
111.754444
 20
53.364587
 30
0.0
  0
VERTEX
  5
27F9
  8
0
 62
     0
 10
111.748822
 20
53.300822
 30
0.0
  0
SEQEND
  5
27FA
  8
0
 62
     0
  0
LINE
  5
2404
  8
0
 62
     0
 10
111.748822
 20
53.300822
 30
0.0
 11
111.747405
 21
53.258725
 31
0.0
  0
LINE
  5
2405
  8
0
 62
     0
 10
111.450416
 20
53.494041
 30
0.0
 11
111.452217
 21
53.470168
 31
0.0
  0
POLYLINE
  5
2406
  8
0
 62
     0
 66
     1
 10
0.0
 20
0.0
 30
0.0
  0
VERTEX
  5
27FB
  8
0
 62
     0
 10
111.579039
 20
53.439464
 30
0.0
  0
VERTEX
  5
27FC
  8
0
 62
     0
 10
111.591832
 20
53.370849
 30
0.0
  0
VERTEX
  5
27FD
  8
0
 62
     0
 10
111.627759
 20
53.310494
 30
0.0
  0
VERTEX
  5
27FE
  8
0
 62
     0
 10
111.683408
 20
53.26609
 30
0.0
  0
VERTEX
  5
27FF
  8
0
 62
     0
 10
111.723056
 20
53.250235
 30
0.0
  0
SEQEND
  5
2800
  8
0
 62
     0
  0
LINE
  5
2407
  8
0
 62
     0
 10
111.747405
 20
53.258725
 30
0.0
 11
111.750271
 21
53.244685
 31
0.0
  0
POLYLINE
  5
2408
  8
0
 62
     0
 66
     1
 10
0.0
 20
0.0
 30
0.0
  0
VERTEX
  5
2801
  8
0
 62
     0
 10
111.452217
 20
53.470168
 30
0.0
  0
VERTEX
  5
2802
  8
0
 62
     0
 10
111.484742
 20
53.383343
 30
0.0
  0
VERTEX
  5
2803
  8
0
 62
     0
 10
111.528346
 20
53.334735
 30
0.0
  0
SEQEND
  5
2804
  8
0
 62
     0
  0
POLYLINE
  5
2409
  8
0
 62
     0
 66
     1
 10
0.0
 20
0.0
 30
0.0
  0
VERTEX
  5
2805
  8
0
 62
     0
 10
111.450418
 20
53.493925
 30
0.0
  0
VERTEX
  5
2806
  8
0
 62
     0
 10
111.463673
 20
53.479998
 30
0.0
  0
VERTEX
  5
2807
  8
0
 62
     0
 10
111.510472
 20
53.460121
 30
0.0
  0
VERTEX
  5
2808
  8
0
 62
     0
 10
111.579037
 20
53.439583
 30
0.0
  0
SEQEND
  5
2809
  8
0
 62
     0
  0
POLYLINE
  5
240A
  8
0
 62
     0
 66
     1
 10
0.0
 20
0.0
 30
0.0
  0
VERTEX
  5
280A
  8
0
 62
     0
 10
111.528346
 20
53.334735
 30
0.0
  0
VERTEX
  5
280B
  8
0
 62
     0
 10
111.564177
 20
53.309806
 30
0.0
  0
VERTEX
  5
280C
  8
0
 62
     0
 10
111.594674
 20
53.294115
 30
0.0
  0
VERTEX
  5
280D
  8
0
 62
     0
 10
111.624354
 20
53.281741
 30
0.0
  0
VERTEX
  5
280E
  8
0
 62
     0
 10
111.655903
 20
53.270501
 30
0.0
  0
VERTEX
  5
280F
  8
0
 62
     0
 10
111.69071
 20
53.259531
 30
0.0
  0
VERTEX
  5
2810
  8
0
 62
     0
 10
111.723157
 20
53.250206
 30
0.0
  0
SEQEND
  5
2811
  8
0
 62
     0
  0
LINE
  5
240B
  8
0
 62
     0
 10
111.723056
 20
53.250235
 30
0.0
 11
111.723184
 21
53.250199
 31
0.0
  0
LINE
  5
240C
  8
0
 62
     0
 10
111.723056
 20
53.250235
 30
0.0
 11
111.750275
 21
53.244685
 31
0.0
  0
POLYLINE
  5
240D
  8
0
 62
     0
 66
     1
 10
0.0
 20
0.0
 30
0.0
  0
VERTEX
  5
2812
  8
0
 62
     0
 10
111.579039
 20
53.439464
 30
0.0
  0
VERTEX
  5
2813
  8
0
 62
     0
 10
111.600523
 20
53.43874
 30
0.0
  0
VERTEX
  5
2814
  8
0
 62
     0
 10
111.641765
 20
53.43849
 30
0.0
  0
VERTEX
  5
2815
  8
0
 62
     0
 10
111.698134
 20
53.43874
 30
0.0
  0
VERTEX
  5
2816
  8
0
 62
     0
 10
111.763303
 20
53.439464
 30
0.0
  0
SEQEND
  5
2817
  8
0
 62
     0
  0
LINE
  5
240E
  8
0
 62
     0
 10
113.528093
 20
69.009157
 30
0.0
 11
109.763691
 21
69.619028
 31
0.0
  0
LINE
  5
240F
  8
0
 62
     0
 10
113.47149
 20
68.158602
 30
0.0
 11
109.66726
 21
68.771563
 31
0.0
  0
LINE
  5
2410
  8
0
 62
     0
 10
109.664678
 20
68.302878
 30
0.0
 11
113.47149
 21
67.691233
 31
0.0
  0
ARC
  5
2411
  8
0
 62
     0
 10
110.42149
 20
70.896579
 30
0.0
 40
0.499999
 50
180.0
 51
260.450974
  0
ARC
  5
2412
  8
0
 62
     0
 10
110.42149
 20
70.896579
 30
0.0
 40
1.0
 50
180.0
 51
260.450974
  0
ARC
  5
2413
  8
0
 62
     0
 10
110.17149
 20
71.178584
 30
0.0
 40
1.0
 50
180.0
 51
220.782421
  0
LINE
  5
2414
  8
0
 62
     0
 10
110.052897
 20
69.916455
 30
0.0
 11
109.765877
 21
69.971177
 31
0.0
  0
ARC
  5
2415
  8
0
 62
     0
 10
109.72149
 20
68.59745
 30
0.0
 40
0.3
 50
180.0
 51
259.083755
  0
POLYLINE
  5
2416
  8
0
 62
     0
 66
     1
 10
0.0
 20
0.0
 30
0.0
  0
VERTEX
  5
2818
  8
0
 62
     0
 10
109.763691
 20
69.619028
 30
0.0
  0
VERTEX
  5
2819
  8
0
 62
     0
 10
109.754918
 20
69.542693
 30
0.0
  0
VERTEX
  5
281A
  8
0
 62
     0
 10
109.743203
 20
69.440425
 30
0.0
  0
VERTEX
  5
281B
  8
0
 62
     0
 10
109.729231
 20
69.318149
 30
0.0
  0
VERTEX
  5
281C
  8
0
 62
     0
 10
109.714361
 20
69.187683
 30
0.0
  0
VERTEX
  5
281D
  8
0
 62
     0
 10
109.700149
 20
69.062685
 30
0.0
  0
VERTEX
  5
281E
  8
0
 62
     0
 10
109.687791
 20
68.953712
 30
0.0
  0
VERTEX
  5
281F
  8
0
 62
     0
 10
109.678086
 20
68.867877
 30
0.0
  0
VERTEX
  5
2820
  8
0
 62
     0
 10
109.671319
 20
68.807807
 30
0.0
  0
VERTEX
  5
2821
  8
0
 62
     0
 10
109.667261
 20
68.771564
 30
0.0
  0
SEQEND
  5
2822
  8
0
 62
     0
  0
LINE
  5
2417
  8
0
 62
     0
 10
109.765873
 20
69.971155
 30
0.0
 11
109.76369
 21
69.619025
 31
0.0
  0
LINE
  5
2418
  8
0
 62
     0
 10
109.667261
 20
68.771564
 30
0.0
 11
109.664679
 21
68.302879
 31
0.0
  0
LINE
  5
2419
  8
0
 62
     0
 10
109.72149
 20
70.184703
 30
0.0
 11
109.72149
 21
69.975376
 31
0.0
  0
POLYLINE
  5
241A
  8
0
 62
     0
 66
     1
 10
0.0
 20
0.0
 30
0.0
  0
VERTEX
  5
2823
  8
0
 62
     0
 10
109.72149
 20
69.975376
 30
0.0
  0
VERTEX
  5
2824
  8
0
 62
     0
 10
109.600313
 20
69.963114
 30
0.0
  0
VERTEX
  5
2825
  8
0
 62
     0
 10
109.503156
 20
69.930056
 30
0.0
  0
VERTEX
  5
2826
  8
0
 62
     0
 10
109.44195
 20
69.88318
 30
0.0
  0
VERTEX
  5
2827
  8
0
 62
     0
 10
109.42149
 20
69.830096
 30
0.0
  0
SEQEND
  5
2828
  8
0
 62
     0
  0
POLYLINE
  5
241B
  8
0
 62
     0
 66
     1
 10
0.0
 20
0.0
 30
0.0
  0
VERTEX
  5
2829
  8
0
 62
     0
 10
109.72149
 20
69.975376
 30
0.0
  0
VERTEX
  5
282A
  8
0
 62
     0
 10
109.736296
 20
69.974907
 30
0.0
  0
VERTEX
  5
282B
  8
0
 62
     0
 10
109.751093
 20
69.973497
 30
0.0
  0
VERTEX
  5
282C
  8
0
 62
     0
 10
109.765877
 20
69.971177
 30
0.0
  0
SEQEND
  5
282D
  8
0
 62
     0
  0
POLYLINE
  5
241C
  8
0
 62
     0
 66
     1
 10
0.0
 20
0.0
 30
0.0
  0
VERTEX
  5
282E
  8
0
 62
     0
 10
109.763691
 20
69.619028
 30
0.0
  0
VERTEX
  5
282F
  8
0
 62
     0
 10
109.636612
 20
69.612163
 30
0.0
  0
VERTEX
  5
2830
  8
0
 62
     0
 10
109.524844
 20
69.566882
 30
0.0
  0
VERTEX
  5
2831
  8
0
 62
     0
 10
109.448549
 20
69.491352
 30
0.0
  0
VERTEX
  5
2832
  8
0
 62
     0
 10
109.42149
 20
69.399198
 30
0.0
  0
SEQEND
  5
2833
  8
0
 62
     0
  0
POLYLINE
  5
241D
  8
0
 62
     0
 66
     1
 10
0.0
 20
0.0
 30
0.0
  0
VERTEX
  5
2834
  8
0
 62
     0
 10
109.667261
 20
68.771564
 30
0.0
  0
VERTEX
  5
2835
  8
0
 62
     0
 10
109.541185
 20
68.824257
 30
0.0
  0
VERTEX
  5
2836
  8
0
 62
     0
 10
109.453077
 20
68.925071
 30
0.0
  0
VERTEX
  5
2837
  8
0
 62
     0
 10
109.42149
 20
69.052778
 30
0.0
  0
SEQEND
  5
2838
  8
0
 62
     0
  0
LINE
  5
241E
  8
0
 62
     0
 10
110.338544
 20
70.403507
 30
0.0
 11
110.255599
 21
69.910435
 31
0.0
  0
LINE
  5
241F
  8
0
 62
     0
 10
111.007259
 20
69.809157
 30
0.0
 11
110.627369
 21
69.809157
 31
0.0
  0
LINE
  5
2420
  8
0
 62
     0
 10
110.340061
 20
69.862448
 30
0.0
 11
110.052897
 21
69.916455
 31
0.0
  0
LINE
  5
2421
  8
0
 62
     0
 10
110.627369
 20
69.809157
 30
0.0
 11
110.340061
 21
69.862448
 31
0.0
  0
LINE
  5
2422
  8
0
 62
     0
 10
109.42149
 20
72.957075
 30
0.0
 11
109.17149
 21
72.957075
 31
0.0
  0
LINE
  5
2423
  8
0
 62
     0
 10
109.92149
 20
70.896579
 30
0.0
 11
109.42149
 21
70.896579
 31
0.0
  0
LINE
  5
2424
  8
0
 62
     0
 10
113.471506
 20
69.009157
 30
0.0
 11
116.944667
 21
69.009157
 31
0.0
  0
POLYLINE
  5
2425
  8
0
 62
     0
 66
     1
 10
0.0
 20
0.0
 30
0.0
  0
VERTEX
  5
2839
  8
0
 62
     0
 10
114.356597
 20
66.985912
 30
0.0
  0
VERTEX
  5
283A
  8
0
 62
     0
 10
113.663965
 20
67.146998
 30
0.0
  0
VERTEX
  5
283B
  8
0
 62
     0
 10
112.975515
 20
67.309157
 30
0.0
  0
SEQEND
  5
283C
  8
0
 62
     0
  0
POLYLINE
  5
2426
  8
0
 62
     0
 66
     1
 10
0.0
 20
0.0
 30
0.0
  0
VERTEX
  5
283D
  8
0
 62
     0
 10
114.385466
 20
67.17645
 30
0.0
  0
VERTEX
  5
283E
  8
0
 62
     0
 10
114.100142
 20
67.242674
 30
0.0
  0
VERTEX
  5
283F
  8
0
 62
     0
 10
113.815417
 20
67.309157
 30
0.0
  0
SEQEND
  5
2840
  8
0
 62
     0
  0
LINE
  5
2427
  8
0
 62
     0
 10
113.47149
 20
67.309157
 30
0.0
 11
113.47149
 21
69.009157
 31
0.0
  0
LINE
  5
2428
  8
0
 62
     0
 10
113.96976
 20
69.309157
 30
0.0
 11
114.22149
 21
69.009157
 31
0.0
  0
LINE
  5
2429
  8
0
 62
     0
 10
113.969891
 20
69.309157
 30
0.0
 11
114.198778
 21
69.309157
 31
0.0
  0
POLYLINE
  5
242A
  8
0
 62
     0
 66
     1
 10
0.0
 20
0.0
 30
0.0
  0
VERTEX
  5
2841
  8
0
 62
     0
 10
114.385466
 20
67.176448
 30
0.0
  0
VERTEX
  5
2842
  8
0
 62
     0
 10
114.386766
 20
67.157148
 30
0.0
  0
VERTEX
  5
2843
  8
0
 62
     0
 10
114.381833
 20
67.11487
 30
0.0
  0
VERTEX
  5
2844
  8
0
 62
     0
 10
114.371316
 20
67.055175
 30
0.0
  0
VERTEX
  5
2845
  8
0
 62
     0
 10
114.356597
 20
66.985912
 30
0.0
  0
SEQEND
  5
2846
  8
0
 62
     0
  0
LINE
  5
242B
  8
0
 62
     0
 10
128.771393
 20
67.124056
 30
0.0
 11
128.769607
 21
67.309157
 31
0.0
  0
POLYLINE
  5
242C
  8
0
 62
     0
 66
     1
 10
0.0
 20
0.0
 30
0.0
  0
VERTEX
  5
2847
  8
0
 62
     0
 10
128.708506
 20
67.295395
 30
0.0
  0
VERTEX
  5
2848
  8
0
 62
     0
 10
128.74181
 20
67.255457
 30
0.0
  0
VERTEX
  5
2849
  8
0
 62
     0
 10
128.763655
 20
67.194779
 30
0.0
  0
VERTEX
  5
284A
  8
0
 62
     0
 10
128.771393
 20
67.124056
 30
0.0
  0
SEQEND
  5
284B
  8
0
 62
     0
  0
POLYLINE
  5
242D
  8
0
 62
     0
 66
     1
 10
0.0
 20
0.0
 30
0.0
  0
VERTEX
  5
284C
  8
0
 62
     0
 10
128.108143
 20
67.17645
 30
0.0
  0
VERTEX
  5
284D
  8
0
 62
     0
 10
128.126209
 20
67.157149
 30
0.0
  0
VERTEX
  5
284E
  8
0
 62
     0
 10
128.147177
 20
67.114871
 30
0.0
  0
VERTEX
  5
284F
  8
0
 62
     0
 10
128.16829
 20
67.055175
 30
0.0
  0
VERTEX
  5
2850
  8
0
 62
     0
 10
128.186771
 20
66.985912
 30
0.0
  0
SEQEND
  5
2851
  8
0
 62
     0
  0
LINE
  5
242E
  8
0
 62
     0
 10
128.668296
 20
67.309157
 30
0.0
 11
128.708506
 21
67.295395
 31
0.0
  0
POLYLINE
  5
242F
  8
0
 62
     0
 66
     1
 10
0.0
 20
0.0
 30
0.0
  0
VERTEX
  5
2852
  8
0
 62
     0
 10
128.771393
 20
67.124056
 30
0.0
  0
VERTEX
  5
2853
  8
0
 62
     0
 10
128.47555
 20
67.053905
 30
0.0
  0
VERTEX
  5
2854
  8
0
 62
     0
 10
128.186771
 20
66.985912
 30
0.0
  0
SEQEND
  5
2855
  8
0
 62
     0
  0
POLYLINE
  5
2430
  8
0
 62
     0
 66
     1
 10
0.0
 20
0.0
 30
0.0
  0
VERTEX
  5
2856
  8
0
 62
     0
 10
128.668295
 20
67.309157
 30
0.0
  0
VERTEX
  5
2857
  8
0
 62
     0
 10
128.384908
 20
67.2418
 30
0.0
  0
VERTEX
  5
2858
  8
0
 62
     0
 10
128.108143
 20
67.17645
 30
0.0
  0
SEQEND
  5
2859
  8
0
 62
     0
  0
LINE
  5
2431
  8
0
 62
     0
 10
114.32149
 20
108.309157
 30
0.0
 11
114.32149
 21
97.809157
 31
0.0
  0
LINE
  5
2432
  8
0
 62
     0
 10
113.82149
 20
107.809157
 30
0.0
 11
113.82149
 21
98.309157
 31
0.0
  0
LINE
  5
2433
  8
0
 62
     0
 10
111.02149
 20
107.809157
 30
0.0
 11
111.02149
 21
99.109157
 31
0.0
  0
LINE
  5
2434
  8
0
 62
     0
 10
110.97149
 20
107.809157
 30
0.0
 11
110.97149
 21
99.109157
 31
0.0
  0
LINE
  5
2435
  8
0
 62
     0
 10
110.82149
 20
98.309157
 30
0.0
 11
110.82149
 21
107.809157
 31
0.0
  0
LINE
  5
2436
  8
0
 62
     0
 10
110.32149
 20
97.809157
 30
0.0
 11
110.32149
 21
108.309157
 31
0.0
  0
LINE
  5
2437
  8
0
 62
     0
 10
109.42149
 20
98.609157
 30
0.0
 11
109.32149
 21
102.609157
 31
0.0
  0
LINE
  5
2438
  8
0
 62
     0
 10
109.32149
 20
95.609157
 30
0.0
 11
109.92149
 21
83.609157
 31
0.0
  0
LINE
  5
2439
  8
0
 62
     0
 10
109.42149
 20
79.00254
 30
0.0
 11
109.17149
 21
79.00254
 31
0.0
  0
LINE
  5
243A
  8
0
 62
     0
 10
113.82149
 20
98.309157
 30
0.0
 11
110.82149
 21
98.309157
 31
0.0
  0
LINE
  5
243B
  8
0
 62
     0
 10
114.32149
 20
97.809157
 30
0.0
 11
110.32149
 21
97.809157
 31
0.0
  0
ARC
  5
243C
  8
0
 62
     0
 10
110.12149
 20
92.909157
 30
0.0
 40
0.8
 50
180.0
 51
207.517548
  0
LINE
  5
243D
  8
0
 62
     0
 10
109.32149
 20
92.909157
 30
0.0
 11
109.32149
 21
93.609157
 31
0.0
  0
LINE
  5
243E
  8
0
 62
     0
 10
109.32149
 20
93.609157
 30
0.0
 11
109.42149
 21
93.609157
 31
0.0
  0
LINE
  5
243F
  8
0
 62
     0
 10
109.42149
 20
95.609157
 30
0.0
 11
109.32149
 21
98.609157
 31
0.0
  0
LINE
  5
2440
  8
0
 62
     0
 10
109.32149
 20
95.609157
 30
0.0
 11
109.42149
 21
95.609157
 31
0.0
  0
LINE
  5
2441
  8
0
 62
     0
 10
109.32149
 20
98.609157
 30
0.0
 11
109.42149
 21
98.609157
 31
0.0
  0
LINE
  5
2442
  8
0
 62
     0
 10
110.32149
 20
97.809157
 30
0.0
 11
110.82149
 21
98.309157
 31
0.0
  0
LINE
  5
2443
  8
0
 62
     0
 10
111.02149
 20
99.109157
 30
0.0
 11
110.82149
 21
99.109157
 31
0.0
  0
LINE
  5
2444
  8
0
 62
     0
 10
114.32149
 20
97.809157
 30
0.0
 11
113.82149
 21
98.309157
 31
0.0
  0
LINE
  5
2445
  8
0
 62
     0
 10
109.42149
 20
107.109157
 30
0.0
 11
109.32149
 21
112.609157
 31
0.0
  0
LINE
  5
2446
  8
0
 62
     0
 10
110.32149
 20
108.309157
 30
0.0
 11
114.32149
 21
108.309157
 31
0.0
  0
LINE
  5
2447
  8
0
 62
     0
 10
110.82149
 20
107.809157
 30
0.0
 11
113.82149
 21
107.809157
 31
0.0
  0
LINE
  5
2448
  8
0
 62
     0
 10
109.42149
 20
102.609157
 30
0.0
 11
109.32149
 21
107.109157
 31
0.0
  0
LINE
  5
2449
  8
0
 62
     0
 10
109.32149
 20
102.609157
 30
0.0
 11
109.42149
 21
102.609157
 31
0.0
  0
LINE
  5
244A
  8
0
 62
     0
 10
110.97149
 20
102.489157
 30
0.0
 11
110.82149
 21
102.489157
 31
0.0
  0
LINE
  5
244B
  8
0
 62
     0
 10
110.97149
 20
102.109157
 30
0.0
 11
110.82149
 21
102.109157
 31
0.0
  0
LINE
  5
244C
  8
0
 62
     0
 10
109.32149
 20
107.109157
 30
0.0
 11
109.42149
 21
107.109157
 31
0.0
  0
LINE
  5
244D
  8
0
 62
     0
 10
110.32149
 20
108.309157
 30
0.0
 11
110.82149
 21
107.809157
 31
0.0
  0
LINE
  5
244E
  8
0
 62
     0
 10
114.32149
 20
108.309157
 30
0.0
 11
113.82149
 21
107.809157
 31
0.0
  0
LINE
  5
244F
  8
0
 62
     0
 10
112.32149
 20
116.809157
 30
0.0
 11
110.82149
 21
116.809157
 31
0.0
  0
LINE
  5
2450
  8
0
 62
     0
 10
110.52149
 20
116.609157
 30
0.0
 11
112.02149
 21
116.609157
 31
0.0
  0
LINE
  5
2451
  8
0
 62
     0
 10
110.52149
 20
114.827191
 30
0.0
 11
112.02149
 21
114.827191
 31
0.0
  0
LINE
  5
2452
  8
0
 62
     0
 10
110.52149
 20
114.603585
 30
0.0
 11
112.02149
 21
114.603585
 31
0.0
  0
LINE
  5
2453
  8
0
 62
     0
 10
112.02149
 20
113.385551
 30
0.0
 11
110.52149
 21
113.385551
 31
0.0
  0
LINE
  5
2454
  8
0
 62
     0
 10
109.32149
 20
113.109157
 30
0.0
 11
112.32149
 21
113.109157
 31
0.0
  0
LINE
  5
2455
  8
0
 62
     0
 10
110.52149
 20
113.109157
 30
0.0
 11
110.52149
 21
114.827191
 31
0.0
  0
LINE
  5
2456
  8
0
 62
     0
 10
109.32149
 20
112.609157
 30
0.0
 11
109.42149
 21
112.609157
 31
0.0
  0
LINE
  5
2457
  8
0
 62
     0
 10
109.42149
 20
113.109157
 30
0.0
 11
109.42149
 21
112.609157
 31
0.0
  0
LINE
  5
2458
  8
0
 62
     0
 10
111.02149
 20
116.809157
 30
0.0
 11
111.02149
 21
116.609157
 31
0.0
  0
LINE
  5
2459
  8
0
 62
     0
 10
110.97149
 20
116.809157
 30
0.0
 11
110.97149
 21
116.609157
 31
0.0
  0
LINE
  5
245A
  8
0
 62
     0
 10
110.92149
 20
116.809157
 30
0.0
 11
110.92149
 21
116.609157
 31
0.0
  0
ARC
  5
245B
  8
0
 62
     0
 10
111.02149
 20
118.309157
 30
0.0
 40
0.5
 50
113.67495
 51
180.0
  0
ARC
  5
245C
  8
0
 62
     0
 10
111.02149
 20
121.509157
 30
0.0
 40
0.5
 50
180.0
 51
246.32505
  0
LINE
  5
245D
  8
0
 62
     0
 10
112.32149
 20
113.109157
 30
0.0
 11
112.32149
 21
116.809157
 31
0.0
  0
LINE
  5
245E
  8
0
 62
     0
 10
112.02149
 20
116.609157
 30
0.0
 11
112.02149
 21
113.109157
 31
0.0
  0
LINE
  5
245F
  8
0
 62
     0
 10
112.32149
 20
113.509157
 30
0.0
 11
112.02149
 21
113.509157
 31
0.0
  0
LINE
  5
2460
  8
0
 62
     0
 10
112.32149
 20
115.509157
 30
0.0
 11
112.02149
 21
115.509157
 31
0.0
  0
LINE
  5
2461
  8
0
 62
     0
 10
128.32149
 20
171.309157
 30
0.0
 11
128.32149
 21
169.809157
 31
0.0
  0
LINE
  5
2462
  8
0
 62
     0
 10
128.12149
 20
171.309157
 30
0.0
 11
128.12149
 21
169.809157
 31
0.0
  0
LINE
  5
2463
  8
0
 62
     0
 10
127.07149
 20
155.309157
 30
0.0
 11
127.07149
 21
176.277904
 31
0.0
  0
LINE
  5
2464
  8
0
 62
     0
 10
125.82149
 20
135.29307
 30
0.0
 11
125.82149
 21
175.709157
 31
0.0
  0
LINE
  5
2465
  8
0
 62
     0
 10
124.32149
 20
135.39796
 30
0.0
 11
124.32149
 21
175.709157
 31
0.0
  0
LINE
  5
2466
  8
0
 62
     0
 10
123.07149
 20
176.277904
 30
0.0
 11
123.07149
 21
155.309157
 31
0.0
  0
LINE
  5
2467
  8
0
 62
     0
 10
122.02149
 20
169.809157
 30
0.0
 11
122.02149
 21
171.309157
 31
0.0
  0
LINE
  5
2468
  8
0
 62
     0
 10
121.82149
 20
169.809157
 30
0.0
 11
121.82149
 21
171.309157
 31
0.0
  0
LINE
  5
2469
  8
0
 62
     0
 10
114.82149
 20
171.309157
 30
0.0
 11
114.82149
 21
169.809157
 31
0.0
  0
LINE
  5
246A
  8
0
 62
     0
 10
113.57149
 20
155.309157
 30
0.0
 11
113.57149
 21
176.277904
 31
0.0
  0
LINE
  5
246B
  8
0
 62
     0
 10
109.72149
 20
135.548051
 30
0.0
 11
109.72149
 21
179.309157
 31
0.0
  0
LINE
  5
246C
  8
0
 62
     0
 10
109.42149
 20
135.548051
 30
0.0
 11
109.42149
 21
179.009157
 31
0.0
  0
LINE
  5
246D
  8
0
 62
     0
 10
126.67149
 20
135.233632
 30
0.0
 11
126.67149
 21
151.109157
 31
0.0
  0
LINE
  5
246E
  8
0
 62
     0
 10
125.67149
 20
155.109157
 30
0.0
 11
125.67149
 21
135.303559
 31
0.0
  0
LINE
  5
246F
  8
0
 62
     0
 10
124.47149
 20
135.387471
 30
0.0
 11
124.47149
 21
155.109157
 31
0.0
  0
LINE
  5
2470
  8
0
 62
     0
 10
123.47149
 20
135.457398
 30
0.0
 11
123.47149
 21
150.109157
 31
0.0
  0
LINE
  5
2471
  8
0
 62
     0
 10
113.17149
 20
138.709157
 30
0.0
 11
113.17149
 21
151.109157
 31
0.0
  0
LINE
  5
2472
  8
0
 62
     0
 10
112.37149
 20
159.909157
 30
0.0
 11
112.37149
 21
138.709157
 31
0.0
  0
LINE
  5
2473
  8
0
 62
     0
 10
112.12149
 20
143.709157
 30
0.0
 11
112.12149
 21
147.209157
 31
0.0
  0
LINE
  5
2474
  8
0
 62
     0
 10
110.62149
 20
143.709157
 30
0.0
 11
110.62149
 21
147.209157
 31
0.0
  0
LINE
  5
2475
  8
0
 62
     0
 10
110.37149
 20
138.709157
 30
0.0
 11
110.37149
 21
159.909157
 31
0.0
  0
ARC
  5
2476
  8
0
 62
     0
 10
131.82149
 20
259.149157
 30
0.0
 40
125.24
 50
261.59789
 51
266.016648
  0
POLYLINE
  5
2477
  8
0
 62
     0
 66
     1
 10
0.0
 20
0.0
 30
0.0
  0
VERTEX
  5
285A
  8
0
 62
     0
 10
113.52149
 20
144.809157
 30
0.0
  0
VERTEX
  5
285B
  8
0
 62
     0
 10
115.44401
 20
145.130717
 30
0.0
  0
VERTEX
  5
285C
  8
0
 62
     0
 10
117.362846
 20
145.28942
 30
0.0
  0
VERTEX
  5
285D
  8
0
 62
     0
 10
119.280224
 20
145.289416
 30
0.0
  0
VERTEX
  5
285E
  8
0
 62
     0
 10
121.199007
 20
145.130713
 30
0.0
  0
VERTEX
  5
285F
  8
0
 62
     0
 10
123.12149
 20
144.809157
 30
0.0
  0
SEQEND
  5
2860
  8
0
 62
     0
  0
LINE
  5
2478
  8
0
 62
     0
 10
113.52149
 20
145.409157
 30
0.0
 11
123.12149
 21
145.409157
 31
0.0
  0
ARC
  5
2479
  8
0
 62
     0
 10
110.42149
 20
135.548051
 30
0.0
 40
0.700001
 50
180.0
 51
215.650244
  0
ARC
  5
247A
  8
0
 62
     0
 10
110.42149
 20
135.548051
 30
0.0
 40
1.0
 50
180.0
 51
260.177324
  0
LINE
  5
247B
  8
0
 62
     0
 10
113.52149
 20
145.409157
 30
0.0
 11
113.52149
 21
135.253373
 31
0.0
  0
LINE
  5
247C
  8
0
 62
     0
 10
110.52149
 20
125.609157
 30
0.0
 11
110.82149
 21
125.609157
 31
0.0
  0
ARC
  5
247D
  8
0
 62
     0
 10
111.02149
 20
127.265987
 30
0.0
 40
0.2
 50
78.705216
 51
180.0
  0
ARC
  5
247E
  8
0
 62
     0
 10
110.72149
 20
127.460487
 30
0.0
 40
0.2
 50
78.922814
 51
180.0
  0
POLYLINE
  5
247F
  8
0
 62
     0
 66
     1
 10
0.0
 20
0.0
 30
0.0
  0
VERTEX
  5
2861
  8
0
 62
     0
 10
109.852677
 20
135.140066
 30
0.0
  0
VERTEX
  5
2862
  8
0
 62
     0
 10
109.894767
 20
134.983062
 30
0.0
  0
VERTEX
  5
2863
  8
0
 62
     0
 10
109.954922
 20
134.833149
 30
0.0
  0
VERTEX
  5
2864
  8
0
 62
     0
 10
110.035124
 20
134.703944
 30
0.0
  0
VERTEX
  5
2865
  8
0
 62
     0
 10
110.135092
 20
134.609796
 30
0.0
  0
VERTEX
  5
2866
  8
0
 62
     0
 10
110.250891
 20
134.56271
 30
0.0
  0
SEQEND
  5
2867
  8
0
 62
     0
  0
LINE
  5
2480
  8
0
 62
     0
 10
109.852677
 20
135.140066
 30
0.0
 11
109.6089
 21
134.965215
 31
0.0
  0
LINE
  5
2481
  8
0
 62
     0
 10
113.97149
 20
126.997785
 30
0.0
 11
113.97149
 21
127.075981
 31
0.0
  0
LINE
  5
2482
  8
0
 62
     0
 10
114.966063
 20
126.757857
 30
0.0
 11
114.966771
 21
126.83902
 31
0.0
  0
LINE
  5
2483
  8
0
 62
     0
 10
112.12149
 20
144.409157
 30
0.0
 11
110.62149
 21
144.409157
 31
0.0
  0
LINE
  5
2484
  8
0
 62
     0
 10
112.12149
 20
143.909157
 30
0.0
 11
110.62149
 21
143.909157
 31
0.0
  0
LINE
  5
2485
  8
0
 62
     0
 10
110.37149
 20
143.709157
 30
0.0
 11
112.37149
 21
143.709157
 31
0.0
  0
LINE
  5
2486
  8
0
 62
     0
 10
110.37149
 20
139.709157
 30
0.0
 11
112.37149
 21
139.709157
 31
0.0
  0
LINE
  5
2487
  8
0
 62
     0
 10
109.42149
 20
138.709157
 30
0.0
 11
113.52149
 21
138.709157
 31
0.0
  0
LINE
  5
2488
  8
0
 62
     0
 10
109.32149
 20
137.009157
 30
0.0
 11
109.42149
 21
137.009157
 31
0.0
  0
LINE
  5
2489
  8
0
 62
     0
 10
109.72149
 20
135.548051
 30
0.0
 11
109.42149
 21
135.548051
 31
0.0
  0
LINE
  5
248A
  8
0
 62
     0
 10
110.62149
 20
138.709157
 30
0.0
 11
110.62149
 21
139.709157
 31
0.0
  0
LINE
  5
248B
  8
0
 62
     0
 10
112.12149
 20
138.709157
 30
0.0
 11
112.12149
 21
139.709157
 31
0.0
  0
LINE
  5
248C
  8
0
 62
     0
 10
113.52149
 20
140.810886
 30
0.0
 11
113.32149
 21
140.909157
 31
0.0
  0
LINE
  5
248D
  8
0
 62
     0
 10
113.32149
 20
140.909157
 30
0.0
 11
113.32149
 21
138.709157
 31
0.0
  0
LINE
  5
248E
  8
0
 62
     0
 10
123.12149
 20
135.481872
 30
0.0
 11
127.02149
 21
135.209157
 31
0.0
  0
LINE
  5
248F
  8
0
 62
     0
 10
127.02149
 20
134.001175
 30
0.0
 11
127.02149
 21
145.409157
 31
0.0
  0
LINE
  5
2490
  8
0
 62
     0
 10
126.870733
 20
140.884962
 30
0.0
 11
126.870733
 21
135.219699
 31
0.0
  0
LINE
  5
2491
  8
0
 62
     0
 10
123.12149
 20
134.211703
 30
0.0
 11
123.12149
 21
145.409157
 31
0.0
  0
LINE
  5
2492
  8
0
 62
     0
 10
119.111564
 20
126.177853
 30
0.0
 11
119.108546
 21
126.350717
 31
0.0
  0
LINE
  5
2493
  8
0
 62
     0
 10
121.62149
 20
126.109277
 30
0.0
 11
121.62149
 21
125.927097
 31
0.0
  0
LINE
  5
2494
  8
0
 62
     0
 10
121.42149
 20
126.104871
 30
0.0
 11
121.42149
 21
125.940458
 31
0.0
  0
LINE
  5
2495
  8
0
 62
     0
 10
122.42149
 20
126.069067
 30
0.0
 11
122.42149
 21
125.873653
 31
0.0
  0
LINE
  5
2496
  8
0
 62
     0
 10
124.719142
 20
125.77247
 30
0.0
 11
124.716335
 21
125.718914
 31
0.0
  0
LINE
  5
2497
  8
0
 62
     0
 10
126.62149
 20
125.77247
 30
0.0
 11
126.62149
 21
125.565615
 31
0.0
  0
LINE
  5
2498
  8
0
 62
     0
 10
123.32149
 20
140.909157
 30
0.0
 11
123.12149
 21
140.810886
 31
0.0
  0
LINE
  5
2499
  8
0
 62
     0
 10
126.67149
 20
135.409157
 30
0.0
 11
125.82149
 21
135.468595
 31
0.0
  0
LINE
  5
249A
  8
0
 62
     0
 10
123.32149
 20
140.909157
 30
0.0
 11
123.32149
 21
135.467887
 31
0.0
  0
LINE
  5
249B
  8
0
 62
     0
 10
124.32149
 20
135.573485
 30
0.0
 11
123.47149
 21
135.632923
 31
0.0
  0
LINE
  5
249C
  8
0
 62
     0
 10
123.47149
 20
138.709157
 30
0.0
 11
123.32149
 21
138.709157
 31
0.0
  0
LINE
  5
249D
  8
0
 62
     0
 10
126.67149
 20
140.982861
 30
0.0
 11
127.02149
 21
140.810886
 31
0.0
  0
LINE
  5
249E
  8
0
 62
     0
 10
123.47149
 20
145.109157
 30
0.0
 11
124.32149
 21
145.109157
 31
0.0
  0
LINE
  5
249F
  8
0
 62
     0
 10
113.57149
 20
169.809157
 30
0.0
 11
123.07149
 21
169.809157
 31
0.0
  0
LINE
  5
24A0
  8
0
 62
     0
 10
123.07149
 20
168.309157
 30
0.0
 11
113.57149
 21
168.309157
 31
0.0
  0
LINE
  5
24A1
  8
0
 62
     0
 10
113.57149
 20
166.809157
 30
0.0
 11
123.07149
 21
166.809157
 31
0.0
  0
LINE
  5
24A2
  8
0
 62
     0
 10
123.07149
 20
165.309157
 30
0.0
 11
113.57149
 21
165.309157
 31
0.0
  0
LINE
  5
24A3
  8
0
 62
     0
 10
113.57149
 20
163.809157
 30
0.0
 11
123.07149
 21
163.809157
 31
0.0
  0
LINE
  5
24A4
  8
0
 62
     0
 10
123.07149
 20
162.309157
 30
0.0
 11
113.57149
 21
162.309157
 31
0.0
  0
LINE
  5
24A5
  8
0
 62
     0
 10
113.57149
 20
160.809157
 30
0.0
 11
123.07149
 21
160.809157
 31
0.0
  0
LINE
  5
24A6
  8
0
 62
     0
 10
123.07149
 20
155.309157
 30
0.0
 11
113.57149
 21
155.309157
 31
0.0
  0
LINE
  5
24A7
  8
0
 62
     0
 10
113.17149
 20
151.109157
 30
0.0
 11
124.32149
 21
151.109157
 31
0.0
  0
LINE
  5
24A8
  8
0
 62
     0
 10
113.17149
 20
150.109157
 30
0.0
 11
123.47149
 21
150.109157
 31
0.0
  0
LINE
  5
24A9
  8
0
 62
     0
 10
115.32149
 20
149.809157
 30
0.0
 11
121.32149
 21
149.809157
 31
0.0
  0
LINE
  5
24AA
  8
0
 62
     0
 10
113.17149
 20
148.509157
 30
0.0
 11
123.47149
 21
148.509157
 31
0.0
  0
LINE
  5
24AB
  8
0
 62
     0
 10
112.37149
 20
158.109157
 30
0.0
 11
110.37149
 21
158.109157
 31
0.0
  0
LINE
  5
24AC
  8
0
 62
     0
 10
111.17149
 20
154.709157
 30
0.0
 11
112.37149
 21
154.709157
 31
0.0
  0
LINE
  5
24AD
  8
0
 62
     0
 10
111.82149
 20
154.409157
 30
0.0
 11
111.17149
 21
154.409157
 31
0.0
  0
LINE
  5
24AE
  8
0
 62
     0
 10
110.37149
 20
148.609157
 30
0.0
 11
112.37149
 21
148.609157
 31
0.0
  0
LINE
  5
24AF
  8
0
 62
     0
 10
110.37149
 20
147.409157
 30
0.0
 11
112.37149
 21
147.409157
 31
0.0
  0
LINE
  5
24B0
  8
0
 62
     0
 10
112.12149
 20
147.209157
 30
0.0
 11
110.62149
 21
147.209157
 31
0.0
  0
LINE
  5
24B1
  8
0
 62
     0
 10
111.17149
 20
148.609157
 30
0.0
 11
111.17149
 21
158.109157
 31
0.0
  0
LINE
  5
24B2
  8
0
 62
     0
 10
111.17149
 20
147.209157
 30
0.0
 11
111.17149
 21
147.409157
 31
0.0
  0
LINE
  5
24B3
  8
0
 62
     0
 10
109.42149
 20
158.658587
 30
0.0
 11
109.32149
 21
158.658587
 31
0.0
  0
LINE
  5
24B4
  8
0
 62
     0
 10
112.02149
 20
148.709157
 30
0.0
 11
112.02149
 21
154.709157
 31
0.0
  0
LINE
  5
24B5
  8
0
 62
     0
 10
111.82149
 20
148.609157
 30
0.0
 11
111.82149
 21
154.409157
 31
0.0
  0
LINE
  5
24B6
  8
0
 62
     0
 10
113.17149
 20
148.709157
 30
0.0
 11
114.57149
 21
148.709157
 31
0.0
  0
LINE
  5
24B7
  8
0
 62
     0
 10
112.02149
 20
149.709157
 30
0.0
 11
111.82149
 21
149.709157
 31
0.0
  0
LINE
  5
24B8
  8
0
 62
     0
 10
111.82149
 20
149.109157
 30
0.0
 11
112.02149
 21
149.109157
 31
0.0
  0
LINE
  5
24B9
  8
0
 62
     0
 10
112.02149
 20
148.709157
 30
0.0
 11
112.37149
 21
148.709157
 31
0.0
  0
LINE
  5
24BA
  8
0
 62
     0
 10
111.82149
 20
147.209157
 30
0.0
 11
111.82149
 21
147.409157
 31
0.0
  0
LINE
  5
24BB
  8
0
 62
     0
 10
113.42149
 20
148.509157
 30
0.0
 11
113.42149
 21
148.709157
 31
0.0
  0
LINE
  5
24BC
  8
0
 62
     0
 10
116.32149
 20
149.809157
 30
0.0
 11
116.32149
 21
150.109157
 31
0.0
  0
LINE
  5
24BD
  8
0
 62
     0
 10
114.57149
 20
148.709157
 30
0.0
 11
114.57149
 21
150.109157
 31
0.0
  0
LINE
  5
24BE
  8
0
 62
     0
 10
115.32149
 20
148.509157
 30
0.0
 11
115.32149
 21
149.809157
 31
0.0
  0
LINE
  5
24BF
  8
0
 62
     0
 10
112.37149
 20
159.909157
 30
0.0
 11
110.37149
 21
159.909157
 31
0.0
  0
LINE
  5
24C0
  8
0
 62
     0
 10
109.42149
 20
159.645802
 30
0.0
 11
109.32149
 21
159.645802
 31
0.0
  0
LINE
  5
24C1
  8
0
 62
     0
 10
109.32149
 20
164.760073
 30
0.0
 11
109.42149
 21
164.760073
 31
0.0
  0
LINE
  5
24C2
  8
0
 62
     0
 10
114.82149
 20
165.309157
 30
0.0
 11
114.82149
 21
163.809157
 31
0.0
  0
LINE
  5
24C3
  8
0
 62
     0
 10
114.82149
 20
162.309157
 30
0.0
 11
114.82149
 21
160.809157
 31
0.0
  0
LINE
  5
24C4
  8
0
 62
     0
 10
114.82149
 20
168.309157
 30
0.0
 11
114.82149
 21
166.809157
 31
0.0
  0
LINE
  5
24C5
  8
0
 62
     0
 10
122.07149
 20
148.709157
 30
0.0
 11
123.47149
 21
148.709157
 31
0.0
  0
LINE
  5
24C6
  8
0
 62
     0
 10
122.07149
 20
148.709157
 30
0.0
 11
122.07149
 21
150.109157
 31
0.0
  0
LINE
  5
24C7
  8
0
 62
     0
 10
120.32149
 20
149.809157
 30
0.0
 11
120.32149
 21
150.109157
 31
0.0
  0
LINE
  5
24C8
  8
0
 62
     0
 10
121.32149
 20
148.509157
 30
0.0
 11
121.32149
 21
149.809157
 31
0.0
  0
LINE
  5
24C9
  8
0
 62
     0
 10
124.32149
 20
148.509157
 30
0.0
 11
124.47149
 21
148.509157
 31
0.0
  0
LINE
  5
24CA
  8
0
 62
     0
 10
123.17149
 20
148.509157
 30
0.0
 11
123.17149
 21
148.709157
 31
0.0
  0
LINE
  5
24CB
  8
0
 62
     0
 10
123.47149
 20
150.109157
 30
0.0
 11
124.32149
 21
150.822392
 31
0.0
  0
LINE
  5
24CC
  8
0
 62
     0
 10
128.07149
 20
148.709157
 30
0.0
 11
128.07149
 21
150.109157
 31
0.0
  0
LINE
  5
24CD
  8
0
 62
     0
 10
128.07149
 20
148.709157
 30
0.0
 11
126.67149
 21
148.709157
 31
0.0
  0
LINE
  5
24CE
  8
0
 62
     0
 10
126.97149
 20
148.509157
 30
0.0
 11
126.97149
 21
148.709157
 31
0.0
  0
LINE
  5
24CF
  8
0
 62
     0
 10
128.82149
 20
148.509157
 30
0.0
 11
128.82149
 21
149.809157
 31
0.0
  0
LINE
  5
24D0
  8
0
 62
     0
 10
124.32149
 20
155.209157
 30
0.0
 11
125.82149
 21
155.209157
 31
0.0
  0
LINE
  5
24D1
  8
0
 62
     0
 10
124.47149
 20
155.109157
 30
0.0
 11
125.82149
 21
155.109157
 31
0.0
  0
LINE
  5
24D2
  8
0
 62
     0
 10
124.32149
 20
154.509157
 30
0.0
 11
124.47149
 21
154.509157
 31
0.0
  0
LINE
  5
24D3
  8
0
 62
     0
 10
124.32149
 20
154.109157
 30
0.0
 11
124.47149
 21
154.109157
 31
0.0
  0
LINE
  5
24D4
  8
0
 62
     0
 10
124.32149
 20
153.809157
 30
0.0
 11
124.47149
 21
153.809157
 31
0.0
  0
LINE
  5
24D5
  8
0
 62
     0
 10
122.02149
 20
163.809157
 30
0.0
 11
122.02149
 21
165.309157
 31
0.0
  0
LINE
  5
24D6
  8
0
 62
     0
 10
121.82149
 20
163.809157
 30
0.0
 11
121.82149
 21
165.309157
 31
0.0
  0
LINE
  5
24D7
  8
0
 62
     0
 10
122.02149
 20
160.809157
 30
0.0
 11
122.02149
 21
162.309157
 31
0.0
  0
LINE
  5
24D8
  8
0
 62
     0
 10
121.82149
 20
160.809157
 30
0.0
 11
121.82149
 21
162.309157
 31
0.0
  0
LINE
  5
24D9
  8
0
 62
     0
 10
122.02149
 20
166.809157
 30
0.0
 11
122.02149
 21
168.309157
 31
0.0
  0
LINE
  5
24DA
  8
0
 62
     0
 10
121.82149
 20
166.809157
 30
0.0
 11
121.82149
 21
168.309157
 31
0.0
  0
LINE
  5
24DB
  8
0
 62
     0
 10
128.32149
 20
165.309157
 30
0.0
 11
128.32149
 21
163.809157
 31
0.0
  0
LINE
  5
24DC
  8
0
 62
     0
 10
128.12149
 20
165.309157
 30
0.0
 11
128.12149
 21
163.809157
 31
0.0
  0
LINE
  5
24DD
  8
0
 62
     0
 10
128.32149
 20
162.309157
 30
0.0
 11
128.32149
 21
160.809157
 31
0.0
  0
LINE
  5
24DE
  8
0
 62
     0
 10
128.12149
 20
162.309157
 30
0.0
 11
128.12149
 21
160.809157
 31
0.0
  0
LINE
  5
24DF
  8
0
 62
     0
 10
128.32149
 20
168.309157
 30
0.0
 11
128.32149
 21
166.809157
 31
0.0
  0
LINE
  5
24E0
  8
0
 62
     0
 10
128.12149
 20
168.309157
 30
0.0
 11
128.12149
 21
166.809157
 31
0.0
  0
LINE
  5
24E1
  8
0
 62
     0
 10
113.07149
 20
179.409157
 30
0.0
 11
120.57149
 21
179.409157
 31
0.0
  0
LINE
  5
24E2
  8
0
 62
     0
 10
123.07149
 20
176.277904
 30
0.0
 11
113.57149
 21
176.277904
 31
0.0
  0
POLYLINE
  5
24E3
  8
0
 62
     0
 66
     1
 10
0.0
 20
0.0
 30
0.0
  0
VERTEX
  5
2868
  8
0
 62
     0
 10
123.07149
 20
175.309157
 30
0.0
  0
VERTEX
  5
2869
  8
0
 62
     0
 10
119.929461
 20
175.156821
 30
0.0
  0
VERTEX
  5
286A
  8
0
 62
     0
 10
116.71352
 20
175.156821
 30
0.0
  0
VERTEX
  5
286B
  8
0
 62
     0
 10
113.57149
 20
175.309157
 30
0.0
  0
SEQEND
  5
286C
  8
0
 62
     0
  0
LINE
  5
24E4
  8
0
 62
     0
 10
123.07149
 20
171.309157
 30
0.0
 11
113.57149
 21
171.309157
 31
0.0
  0
ARC
  5
24E5
  8
0
 62
     0
 10
111.42149
 20
175.709157
 30
0.0
 40
3.9
 50
67.380135
 51
112.619865
  0
ARC
  5
24E6
  8
0
 62
     0
 10
109.72149
 20
179.009157
 30
0.0
 40
0.3
 50
90.0
 51
180.0
  0
LINE
  5
24E7
  8
0
 62
     0
 10
113.07149
 20
179.409157
 30
0.0
 11
113.07149
 21
179.309157
 31
0.0
  0
ARC
  5
24E8
  8
0
 62
     0
 10
122.67149
 20
175.709157
 30
0.0
 40
3.9
 50
67.380135
 51
112.619865
  0
LINE
  5
24E9
  8
0
 62
     0
 10
120.57149
 20
179.409157
 30
0.0
 11
120.57149
 21
179.309157
 31
0.0
  0
LINE
  5
24EA
  8
0
 62
     0
 10
124.32149
 20
175.709157
 30
0.0
 11
125.82149
 21
175.709157
 31
0.0
  0
LINE
  5
24EB
  8
0
 62
     0
 10
154.32149
 20
113.109157
 30
0.0
 11
154.32149
 21
164.760032
 31
0.0
  0
LINE
  5
24EC
  8
0
 62
     0
 10
153.82149
 20
113.109157
 30
0.0
 11
153.82149
 21
134.750436
 31
0.0
  0
LINE
  5
24ED
  8
0
 62
     0
 10
152.62149
 20
113.109157
 30
0.0
 11
152.62149
 21
127.363547
 31
0.0
  0
LINE
  5
24EE
  8
0
 62
     0
 10
152.32149
 20
127.167371
 30
0.0
 11
152.32149
 21
116.809157
 31
0.0
  0
LINE
  5
24EF
  8
0
 62
     0
 10
154.47149
 20
71.178584
 30
0.0
 11
154.47149
 21
79.00254
 31
0.0
  0
LINE
  5
24F0
  8
0
 62
     0
 10
154.22149
 20
68.597566
 30
0.0
 11
154.22149
 21
93.609157
 31
0.0
  0
LINE
  5
24F1
  8
0
 62
     0
 10
153.72149
 20
68.909157
 30
0.0
 11
153.72149
 21
83.609157
 31
0.0
  0
ARC
  5
24F2
  8
0
 62
     0
 10
152.22149
 20
57.909157
 30
0.0
 40
0.499999
 50
270.0
 51
0.0
  0
ARC
  5
24F3
  8
0
 62
     0
 10
152.22149
 20
57.909157
 30
0.0
 40
1.0
 50
270.0
 51
0.0
  0
LINE
  5
24F4
  8
0
 62
     0
 10
153.035017
 20
72.409157
 30
0.0
 11
135.72149
 21
72.409157
 31
0.0
  0
LINE
  5
24F5
  8
0
 62
     0
 10
151.54649
 20
70.609157
 30
0.0
 11
153.027162
 21
70.609157
 31
0.0
  0
LINE
  5
24F6
  8
0
 62
     0
 10
151.54649
 20
69.197848
 30
0.0
 11
153.021004
 21
69.197848
 31
0.0
  0
LINE
  5
24F7
  8
0
 62
     0
 10
154.22149
 20
68.909157
 30
0.0
 11
135.72149
 21
68.909157
 31
0.0
  0
LINE
  5
24F8
  8
0
 62
     0
 10
153.67149
 20
68.159157
 30
0.0
 11
135.72149
 21
68.159157
 31
0.0
  0
POLYLINE
  5
24F9
  8
0
 62
     0
 66
     1
 10
0.0
 20
0.0
 30
0.0
  0
VERTEX
  5
286D
  8
0
 62
     0
 10
138.022689
 20
66.383571
 30
0.0
  0
VERTEX
  5
286E
  8
0
 62
     0
 10
139.277475
 20
66.423569
 30
0.0
  0
VERTEX
  5
286F
  8
0
 62
     0
 10
146.707698
 20
67.136625
 30
0.0
  0
VERTEX
  5
2870
  8
0
 62
     0
 10
153.082326
 20
68.159157
 30
0.0
  0
SEQEND
  5
2871
  8
0
 62
     0
  0
LINE
  5
24FA
  8
0
 62
     0
 10
140.522021
 20
55.181565
 30
0.0
 11
140.715791
 21
66.282681
 31
0.0
  0
LINE
  5
24FB
  8
0
 62
     0
 10
139.74649
 20
70.609157
 30
0.0
 11
149.64649
 21
70.609157
 31
0.0
  0
LINE
  5
24FC
  8
0
 62
     0
 10
139.74649
 20
69.197848
 30
0.0
 11
149.64649
 21
69.197848
 31
0.0
  0
POLYLINE
  5
24FD
  8
0
 62
     0
 66
     1
 10
0.0
 20
0.0
 30
0.0
  0
VERTEX
  5
2872
  8
0
 62
     0
 10
140.65557
 20
66.281969
 30
0.0
  0
VERTEX
  5
2873
  8
0
 62
     0
 10
140.692888
 20
66.282106
 30
0.0
  0
VERTEX
  5
2874
  8
0
 62
     0
 10
140.712514
 20
66.282382
 30
0.0
  0
SEQEND
  5
2875
  8
0
 62
     0
  0
POLYLINE
  5
24FE
  8
0
 62
     0
 66
     1
 10
0.0
 20
0.0
 30
0.0
  0
VERTEX
  5
2876
  8
0
 62
     0
 10
143.538334
 20
68.159157
 30
0.0
  0
VERTEX
  5
2877
  8
0
 62
     0
 10
139.369395
 20
67.750981
 30
0.0
  0
VERTEX
  5
2878
  8
0
 62
     0
 10
131.821287
 20
67.505496
 30
0.0
  0
VERTEX
  5
2879
  8
0
 62
     0
 10
129.97149
 20
67.565663
 30
0.0
  0
SEQEND
  5
287A
  8
0
 62
     0
  0
POLYLINE
  5
24FF
  8
0
 62
     0
 66
     1
 10
0.0
 20
0.0
 30
0.0
  0
VERTEX
  5
287B
  8
0
 62
     0
 10
150.174887
 20
68.159157
 30
0.0
  0
VERTEX
  5
287C
  8
0
 62
     0
 10
146.960764
 20
67.641285
 30
0.0
  0
VERTEX
  5
287D
  8
0
 62
     0
 10
139.399173
 20
66.905073
 30
0.0
  0
VERTEX
  5
287E
  8
0
 62
     0
 10
133.993418
 20
66.730251
 30
0.0
  0
SEQEND
  5
287F
  8
0
 62
     0
  0
LINE
  5
2500
  8
0
 62
     0
 10
140.560904
 20
57.409157
 30
0.0
 11
152.22149
 21
57.409157
 31
0.0
  0
LINE
  5
2501
  8
0
 62
     0
 10
140.552176
 20
56.909157
 30
0.0
 11
152.22149
 21
56.909157
 31
0.0
  0
LINE
  5
2502
  8
0
 62
     0
 10
140.477364
 20
56.020293
 30
0.0
 11
140.65557
 21
66.281969
 31
0.0
  0
LINE
  5
2503
  8
0
 62
     0
 10
140.34672
 20
54.53852
 30
0.0
 11
140.550324
 21
66.259214
 31
0.0
  0
LINE
  5
2504
  8
0
 62
     0
 10
139.856743
 20
56.020293
 30
0.0
 11
140.030554
 21
66.281969
 31
0.0
  0
POLYLINE
  5
2505
  8
0
 62
     0
 66
     1
 10
0.0
 20
0.0
 30
0.0
  0
VERTEX
  5
2880
  8
0
 62
     0
 10
139.372907
 20
55.179628
 30
0.0
  0
VERTEX
  5
2881
  8
0
 62
     0
 10
139.412607
 20
58.887033
 30
0.0
  0
VERTEX
  5
2882
  8
0
 62
     0
 10
139.452042
 20
62.588115
 30
0.0
  0
VERTEX
  5
2883
  8
0
 62
     0
 10
139.491217
 20
66.282873
 30
0.0
  0
SEQEND
  5
2884
  8
0
 62
     0
  0
POLYLINE
  5
2506
  8
0
 62
     0
 66
     1
 10
0.0
 20
0.0
 30
0.0
  0
VERTEX
  5
2885
  8
0
 62
     0
 10
139.129928
 20
55.179662
 30
0.0
  0
VERTEX
  5
2886
  8
0
 62
     0
 10
139.169768
 20
58.887597
 30
0.0
  0
VERTEX
  5
2887
  8
0
 62
     0
 10
139.209344
 20
62.589239
 30
0.0
  0
VERTEX
  5
2888
  8
0
 62
     0
 10
139.24866
 20
66.284555
 30
0.0
  0
SEQEND
  5
2889
  8
0
 62
     0
  0
POLYLINE
  5
2507
  8
0
 62
     0
 66
     1
 10
0.0
 20
0.0
 30
0.0
  0
VERTEX
  5
288A
  8
0
 62
     0
 10
137.602527
 20
61.208549
 30
0.0
  0
VERTEX
  5
288B
  8
0
 62
     0
 10
137.545757
 20
60.559109
 30
0.0
  0
VERTEX
  5
288C
  8
0
 62
     0
 10
137.360373
 20
59.898099
 30
0.0
  0
VERTEX
  5
288D
  8
0
 62
     0
 10
137.0524
 20
59.286655
 30
0.0
  0
VERTEX
  5
288E
  8
0
 62
     0
 10
136.633199
 20
58.74927
 30
0.0
  0
VERTEX
  5
288F
  8
0
 62
     0
 10
136.11896
 20
58.307627
 30
0.0
  0
VERTEX
  5
2890
  8
0
 62
     0
 10
135.529704
 20
57.979297
 30
0.0
  0
VERTEX
  5
2891
  8
0
 62
     0
 10
134.888473
 20
57.777205
 30
0.0
  0
VERTEX
  5
2892
  8
0
 62
     0
 10
134.222573
 20
57.709169
 30
0.0
  0
SEQEND
  5
2893
  8
0
 62
     0
  0
POLYLINE
  5
2508
  8
0
 62
     0
 66
     1
 10
0.0
 20
0.0
 30
0.0
  0
VERTEX
  5
2894
  8
0
 62
     0
 10
137.749376
 20
61.205667
 30
0.0
  0
VERTEX
  5
2895
  8
0
 62
     0
 10
137.685898
 20
61.888221
 30
0.0
  0
VERTEX
  5
2896
  8
0
 62
     0
 10
137.50231
 20
62.545901
 30
0.0
  0
VERTEX
  5
2897
  8
0
 62
     0
 10
137.205949
 20
63.155884
 30
0.0
  0
VERTEX
  5
2898
  8
0
 62
     0
 10
136.807054
 20
63.698836
 30
0.0
  0
VERTEX
  5
2899
  8
0
 62
     0
 10
136.318447
 20
64.157521
 30
0.0
  0
VERTEX
  5
289A
  8
0
 62
     0
 10
135.755836
 20
64.516656
 30
0.0
  0
VERTEX
  5
289B
  8
0
 62
     0
 10
135.138165
 20
64.763584
 30
0.0
  0
VERTEX
  5
289C
  8
0
 62
     0
 10
134.486365
 20
64.889589
 30
0.0
  0
VERTEX
  5
289D
  8
0
 62
     0
 10
133.823029
 20
64.890195
 30
0.0
  0
VERTEX
  5
289E
  8
0
 62
     0
 10
133.170755
 20
64.765441
 30
0.0
  0
VERTEX
  5
289F
  8
0
 62
     0
 10
132.55207
 20
64.519779
 30
0.0
  0
VERTEX
  5
28A0
  8
0
 62
     0
 10
131.987982
 20
64.161752
 30
0.0
  0
VERTEX
  5
28A1
  8
0
 62
     0
 10
131.497688
 20
63.703706
 30
0.0
  0
VERTEX
  5
28A2
  8
0
 62
     0
 10
131.097406
 20
63.160638
 30
0.0
  0
VERTEX
  5
28A3
  8
0
 62
     0
 10
130.800626
 20
62.54969
 30
0.0
  0
VERTEX
  5
28A4
  8
0
 62
     0
 10
130.618201
 20
61.8903
 30
0.0
  0
VERTEX
  5
28A5
  8
0
 62
     0
 10
130.557875
 20
61.205667
 30
0.0
  0
SEQEND
  5
28A6
  8
0
 62
     0
  0
POLYLINE
  5
2509
  8
0
 62
     0
 66
     1
 10
0.0
 20
0.0
 30
0.0
  0
VERTEX
  5
28A7
  8
0
 62
     0
 10
130.557875
 20
61.205667
 30
0.0
  0
VERTEX
  5
28A8
  8
0
 62
     0
 10
130.62234
 20
60.521115
 30
0.0
  0
VERTEX
  5
28A9
  8
0
 62
     0
 10
130.808648
 20
59.861993
 30
0.0
  0
VERTEX
  5
28AA
  8
0
 62
     0
 10
131.108845
 20
59.251396
 30
0.0
  0
VERTEX
  5
28AB
  8
0
 62
     0
 10
131.511886
 20
58.708707
 30
0.0
  0
VERTEX
  5
28AC
  8
0
 62
     0
 10
132.004141
 20
58.250962
 30
0.0
  0
VERTEX
  5
28AD
  8
0
 62
     0
 10
132.569365
 20
57.892998
 30
0.0
  0
VERTEX
  5
28AE
  8
0
 62
     0
 10
133.188429
 20
57.647046
 30
0.0
  0
VERTEX
  5
28AF
  8
0
 62
     0
 10
133.840519
 20
57.521605
 30
0.0
  0
VERTEX
  5
28B0
  8
0
 62
     0
 10
134.503337
 20
57.521227
 30
0.0
  0
VERTEX
  5
28B1
  8
0
 62
     0
 10
135.154462
 20
57.646181
 30
0.0
  0
VERTEX
  5
28B2
  8
0
 62
     0
 10
135.771361
 20
57.892301
 30
0.0
  0
VERTEX
  5
28B3
  8
0
 62
     0
 10
136.332975
 20
58.251126
 30
0.0
  0
VERTEX
  5
28B4
  8
0
 62
     0
 10
136.820108
 20
58.710081
 30
0.0
  0
VERTEX
  5
28B5
  8
0
 62
     0
 10
137.216816
 20
59.253755
 30
0.0
  0
VERTEX
  5
28B6
  8
0
 62
     0
 10
137.510174
 20
59.864625
 30
0.0
  0
VERTEX
  5
28B7
  8
0
 62
     0
 10
137.690039
 20
60.523009
 30
0.0
  0
VERTEX
  5
28B8
  8
0
 62
     0
 10
137.749376
 20
61.205667
 30
0.0
  0
SEQEND
  5
28B9
  8
0
 62
     0
  0
POLYLINE
  5
250A
  8
0
 62
     0
 66
     1
 10
0.0
 20
0.0
 30
0.0
  0
VERTEX
  5
28BA
  8
0
 62
     0
 10
134.199526
 20
64.709146
 30
0.0
  0
VERTEX
  5
28BB
  8
0
 62
     0
 10
134.872428
 20
64.639868
 30
0.0
  0
VERTEX
  5
28BC
  8
0
 62
     0
 10
135.514337
 20
64.436697
 30
0.0
  0
VERTEX
  5
28BD
  8
0
 62
     0
 10
136.104565
 20
64.107729
 30
0.0
  0
VERTEX
  5
28BE
  8
0
 62
     0
 10
136.620333
 20
63.665975
 30
0.0
  0
VERTEX
  5
28BF
  8
0
 62
     0
 10
137.041782
 20
63.12894
 30
0.0
  0
VERTEX
  5
28C0
  8
0
 62
     0
 10
137.35277
 20
62.518127
 30
0.0
  0
VERTEX
  5
28C1
  8
0
 62
     0
 10
137.541851
 20
61.857747
 30
0.0
  0
VERTEX
  5
28C2
  8
0
 62
     0
 10
137.602528
 20
61.208549
 30
0.0
  0
SEQEND
  5
28C3
  8
0
 62
     0
  0
LINE
  5
250B
  8
0
 62
     0
 10
136.428919
 20
54.068473
 30
0.0
 11
132.477581
 21
53.372174
 31
0.0
  0
POLYLINE
  5
250C
  8
0
 62
     0
 66
     1
 10
0.0
 20
0.0
 30
0.0
  0
VERTEX
  5
28C4
  8
0
 62
     0
 10
130.796944
 20
61.209157
 30
0.0
  0
VERTEX
  5
28C5
  8
0
 62
     0
 10
130.858256
 20
60.56081
 30
0.0
  0
VERTEX
  5
28C6
  8
0
 62
     0
 10
131.034898
 20
59.937458
 30
0.0
  0
VERTEX
  5
28C7
  8
0
 62
     0
 10
131.319341
 20
59.360019
 30
0.0
  0
VERTEX
  5
28C8
  8
0
 62
     0
 10
131.701111
 20
58.846812
 30
0.0
  0
VERTEX
  5
28C9
  8
0
 62
     0
 10
132.167294
 20
58.413943
 30
0.0
  0
VERTEX
  5
28CA
  8
0
 62
     0
 10
132.702501
 20
58.075437
 30
0.0
  0
VERTEX
  5
28CB
  8
0
 62
     0
 10
133.288614
 20
57.842856
 30
0.0
  0
VERTEX
  5
28CC
  8
0
 62
     0
 10
133.905927
 20
57.724232
 30
0.0
  0
VERTEX
  5
28CD
  8
0
 62
     0
 10
134.22162
 20
57.709157
 30
0.0
  0
SEQEND
  5
28CE
  8
0
 62
     0
  0
POLYLINE
  5
250D
  8
0
 62
     0
 66
     1
 10
0.0
 20
0.0
 30
0.0
  0
VERTEX
  5
28CF
  8
0
 62
     0
 10
134.350373
 20
57.722226
 30
0.0
  0
VERTEX
  5
28D0
  8
0
 62
     0
 10
133.786223
 20
57.792579
 30
0.0
  0
VERTEX
  5
28D1
  8
0
 62
     0
 10
133.154307
 20
58.001906
 30
0.0
  0
VERTEX
  5
28D2
  8
0
 62
     0
 10
132.573704
 20
58.330507
 30
0.0
  0
VERTEX
  5
28D3
  8
0
 62
     0
 10
132.066008
 20
58.766165
 30
0.0
  0
VERTEX
  5
28D4
  8
0
 62
     0
 10
131.650102
 20
59.292681
 30
0.0
  0
VERTEX
  5
28D5
  8
0
 62
     0
 10
131.341456
 20
59.890476
 30
0.0
  0
SEQEND
  5
28D6
  8
0
 62
     0
  0
LINE
  5
250E
  8
0
 62
     0
 10
134.22162
 20
57.709157
 30
0.0
 11
134.222573
 21
57.709158
 31
0.0
  0
POLYLINE
  5
250F
  8
0
 62
     0
 66
     1
 10
0.0
 20
0.0
 30
0.0
  0
VERTEX
  5
28D7
  8
0
 62
     0
 10
131.151551
 20
61.880998
 30
0.0
  0
VERTEX
  5
28D8
  8
0
 62
     0
 10
131.341456
 20
62.527839
 30
0.0
  0
VERTEX
  5
28D9
  8
0
 62
     0
 10
131.650102
 20
63.125634
 30
0.0
  0
VERTEX
  5
28DA
  8
0
 62
     0
 10
132.066008
 20
63.65215
 30
0.0
  0
VERTEX
  5
28DB
  8
0
 62
     0
 10
132.573704
 20
64.087808
 30
0.0
  0
VERTEX
  5
28DC
  8
0
 62
     0
 10
133.154307
 20
64.416409
 30
0.0
  0
VERTEX
  5
28DD
  8
0
 62
     0
 10
133.786223
 20
64.625736
 30
0.0
  0
SEQEND
  5
28DE
  8
0
 62
     0
  0
POLYLINE
  5
2510
  8
0
 62
     0
 66
     1
 10
0.0
 20
0.0
 30
0.0
  0
VERTEX
  5
28DF
  8
0
 62
     0
 10
134.199184
 20
64.709157
 30
0.0
  0
VERTEX
  5
28E0
  8
0
 62
     0
 10
133.888267
 20
64.694531
 30
0.0
  0
VERTEX
  5
28E1
  8
0
 62
     0
 10
133.270814
 20
64.576571
 30
0.0
  0
VERTEX
  5
28E2
  8
0
 62
     0
 10
132.685131
 20
64.344277
 30
0.0
  0
VERTEX
  5
28E3
  8
0
 62
     0
 10
132.151105
 20
64.005723
 30
0.0
  0
VERTEX
  5
28E4
  8
0
 62
     0
 10
131.686914
 20
63.572578
 30
0.0
  0
VERTEX
  5
28E5
  8
0
 62
     0
 10
131.307917
 20
63.059018
 30
0.0
  0
VERTEX
  5
28E6
  8
0
 62
     0
 10
131.026891
 20
62.48125
 30
0.0
  0
VERTEX
  5
28E7
  8
0
 62
     0
 10
130.854124
 20
61.857647
 30
0.0
  0
VERTEX
  5
28E8
  8
0
 62
     0
 10
130.796944
 20
61.209157
 30
0.0
  0
SEQEND
  5
28E9
  8
0
 62
     0
  0
POLYLINE
  5
2511
  8
0
 62
     0
 66
     1
 10
0.0
 20
0.0
 30
0.0
  0
VERTEX
  5
28EA
  8
0
 62
     0
 10
131.592881
 20
61.209157
 30
0.0
  0
VERTEX
  5
28EB
  8
0
 62
     0
 10
131.538747
 20
61.827028
 30
0.0
  0
VERTEX
  5
28EC
  8
0
 62
     0
 10
131.378059
 20
62.425452
 30
0.0
  0
VERTEX
  5
28ED
  8
0
 62
     0
 10
131.337093
 20
62.512981
 30
0.0
  0
SEQEND
  5
28EE
  8
0
 62
     0
  0
POLYLINE
  5
2512
  8
0
 62
     0
 66
     1
 10
0.0
 20
0.0
 30
0.0
  0
VERTEX
  5
28EF
  8
0
 62
     0
 10
131.337093
 20
59.905334
 30
0.0
  0
VERTEX
  5
28F0
  8
0
 62
     0
 10
131.378059
 20
59.992863
 30
0.0
  0
VERTEX
  5
28F1
  8
0
 62
     0
 10
131.538747
 20
60.591287
 30
0.0
  0
VERTEX
  5
28F2
  8
0
 62
     0
 10
131.592881
 20
61.209157
 30
0.0
  0
SEQEND
  5
28F3
  8
0
 62
     0
  0
LINE
  5
2513
  8
0
 62
     0
 10
131.460797
 20
61.209157
 30
0.0
 11
131.524727
 21
61.879239
 31
0.0
  0
LINE
  5
2514
  8
0
 62
     0
 10
131.087454
 20
61.209157
 30
0.0
 11
131.151551
 21
61.880998
 31
0.0
  0
LINE
  5
2515
  8
0
 62
     0
 10
131.524727
 20
60.539076
 30
0.0
 11
131.460797
 21
61.209157
 31
0.0
  0
POLYLINE
  5
2516
  8
0
 62
     0
 66
     1
 10
0.0
 20
0.0
 30
0.0
  0
VERTEX
  5
28F4
  8
0
 62
     0
 10
131.341456
 20
59.890476
 30
0.0
  0
VERTEX
  5
28F5
  8
0
 62
     0
 10
131.151551
 20
60.537317
 30
0.0
  0
VERTEX
  5
28F6
  8
0
 62
     0
 10
131.087454
 20
61.209157
 30
0.0
  0
SEQEND
  5
28F7
  8
0
 62
     0
  0
LINE
  5
2517
  8
0
 62
     0
 10
134.199525
 20
64.709157
 30
0.0
 11
134.199184
 21
64.709157
 31
0.0
  0
LINE
  5
2518
  8
0
 62
     0
 10
133.786223
 20
64.625736
 30
0.0
 11
134.339511
 21
64.694734
 31
0.0
  0
POLYLINE
  5
2519
  8
0
 62
     0
 66
     1
 10
0.0
 20
0.0
 30
0.0
  0
VERTEX
  5
28F8
  8
0
 62
     0
 10
137.757351
 20
54.163735
 30
0.0
  0
VERTEX
  5
28F9
  8
0
 62
     0
 10
137.930619
 20
54.016899
 30
0.0
  0
VERTEX
  5
28FA
  8
0
 62
     0
 10
138.106991
 20
53.868218
 30
0.0
  0
SEQEND
  5
28FB
  8
0
 62
     0
  0
LINE
  5
251A
  8
0
 62
     0
 10
137.785229
 20
53.690929
 30
0.0
 11
137.419549
 21
53.690929
 31
0.0
  0
LINE
  5
251B
  8
0
 62
     0
 10
135.421057
 20
54.068471
 30
0.0
 11
139.235393
 21
54.989731
 31
0.0
  0
POLYLINE
  5
251C
  8
0
 62
     0
 66
     1
 10
0.0
 20
0.0
 30
0.0
  0
VERTEX
  5
28FC
  8
0
 62
     0
 10
136.382453
 20
54.227313
 30
0.0
  0
VERTEX
  5
28FD
  8
0
 62
     0
 10
137.330467
 20
54.461332
 30
0.0
  0
VERTEX
  5
28FE
  8
0
 62
     0
 10
138.352107
 20
54.724204
 30
0.0
  0
SEQEND
  5
28FF
  8
0
 62
     0
  0
POLYLINE
  5
251D
  8
0
 62
     0
 66
     1
 10
0.0
 20
0.0
 30
0.0
  0
VERTEX
  5
2900
  8
0
 62
     0
 10
135.597813
 20
54.014751
 30
0.0
  0
VERTEX
  5
2901
  8
0
 62
     0
 10
135.609215
 20
54.022236
 30
0.0
  0
VERTEX
  5
2902
  8
0
 62
     0
 10
135.632911
 20
54.03213
 30
0.0
  0
VERTEX
  5
2903
  8
0
 62
     0
 10
135.668987
 20
54.044472
 30
0.0
  0
VERTEX
  5
2904
  8
0
 62
     0
 10
135.717172
 20
54.059179
 30
0.0
  0
VERTEX
  5
2905
  8
0
 62
     0
 10
135.778138
 20
54.076458
 30
0.0
  0
VERTEX
  5
2906
  8
0
 62
     0
 10
135.851556
 20
54.096215
 30
0.0
  0
VERTEX
  5
2907
  8
0
 62
     0
 10
135.935189
 20
54.117894
 30
0.0
  0
VERTEX
  5
2908
  8
0
 62
     0
 10
136.029407
 20
54.141646
 30
0.0
  0
VERTEX
  5
2909
  8
0
 62
     0
 10
136.134886
 20
54.167674
 30
0.0
  0
VERTEX
  5
290A
  8
0
 62
     0
 10
136.252299
 20
54.196161
 30
0.0
  0
VERTEX
  5
290B
  8
0
 62
     0
 10
136.382453
 20
54.227313
 30
0.0
  0
SEQEND
  5
290C
  8
0
 62
     0
  0
POLYLINE
  5
251E
  8
0
 62
     0
 66
     1
 10
0.0
 20
0.0
 30
0.0
  0
VERTEX
  5
290D
  8
0
 62
     0
 10
136.481453
 20
54.135219
 30
0.0
  0
VERTEX
  5
290E
  8
0
 62
     0
 10
136.389206
 20
54.118328
 30
0.0
  0
VERTEX
  5
290F
  8
0
 62
     0
 10
136.266585
 20
54.096598
 30
0.0
  0
VERTEX
  5
2910
  8
0
 62
     0
 10
136.150316
 20
54.076734
 30
0.0
  0
VERTEX
  5
2911
  8
0
 62
     0
 10
136.044264
 20
54.059359
 30
0.0
  0
VERTEX
  5
2912
  8
0
 62
     0
 10
135.949646
 20
54.0446
 30
0.0
  0
VERTEX
  5
2913
  8
0
 62
     0
 10
135.865347
 20
54.032222
 30
0.0
  0
VERTEX
  5
2914
  8
0
 62
     0
 10
135.792216
 20
54.022308
 30
0.0
  0
VERTEX
  5
2915
  8
0
 62
     0
 10
135.729817
 20
54.01477
 30
0.0
  0
VERTEX
  5
2916
  8
0
 62
     0
 10
135.678901
 20
54.009691
 30
0.0
  0
VERTEX
  5
2917
  8
0
 62
     0
 10
135.63976
 20
54.007107
 30
0.0
  0
VERTEX
  5
2918
  8
0
 62
     0
 10
135.612763
 20
54.007092
 30
0.0
  0
VERTEX
  5
2919
  8
0
 62
     0
 10
135.598906
 20
54.009649
 30
0.0
  0
VERTEX
  5
291A
  8
0
 62
     0
 10
135.597813
 20
54.014751
 30
0.0
  0
SEQEND
  5
291B
  8
0
 62
     0
  0
POLYLINE
  5
251F
  8
0
 62
     0
 66
     1
 10
0.0
 20
0.0
 30
0.0
  0
VERTEX
  5
291C
  8
0
 62
     0
 10
137.0183
 20
53.553845
 30
0.0
  0
VERTEX
  5
291D
  8
0
 62
     0
 10
137.006823
 20
53.54029
 30
0.0
  0
VERTEX
  5
291E
  8
0
 62
     0
 10
136.99544
 20
53.526888
 30
0.0
  0
VERTEX
  5
291F
  8
0
 62
     0
 10
136.984151
 20
53.51364
 30
0.0
  0
SEQEND
  5
2920
  8
0
 62
     0
  0
POLYLINE
  5
2520
  8
0
 62
     0
 66
     1
 10
0.0
 20
0.0
 30
0.0
  0
VERTEX
  5
2921
  8
0
 62
     0
 10
137.253936
 20
53.833639
 30
0.0
  0
VERTEX
  5
2922
  8
0
 62
     0
 10
137.1992
 20
53.7684
 30
0.0
  0
VERTEX
  5
2923
  8
0
 62
     0
 10
137.0183
 20
53.553845
 30
0.0
  0
SEQEND
  5
2924
  8
0
 62
     0
  0
POLYLINE
  5
2521
  8
0
 62
     0
 66
     1
 10
0.0
 20
0.0
 30
0.0
  0
VERTEX
  5
2925
  8
0
 62
     0
 10
137.419549
 20
53.690929
 30
0.0
  0
VERTEX
  5
2926
  8
0
 62
     0
 10
137.586873
 20
53.925776
 30
0.0
  0
VERTEX
  5
2927
  8
0
 62
     0
 10
137.757351
 20
54.163735
 30
0.0
  0
SEQEND
  5
2928
  8
0
 62
     0
  0
POLYLINE
  5
2522
  8
0
 62
     0
 66
     1
 10
0.0
 20
0.0
 30
0.0
  0
VERTEX
  5
2929
  8
0
 62
     0
 10
136.77578
 20
53.553845
 30
0.0
  0
VERTEX
  5
292A
  8
0
 62
     0
 10
136.925043
 20
53.7684
 30
0.0
  0
VERTEX
  5
292B
  8
0
 62
     0
 10
137.07764
 20
53.986446
 30
0.0
  0
SEQEND
  5
292C
  8
0
 62
     0
  0
POLYLINE
  5
2523
  8
0
 62
     0
 66
     1
 10
0.0
 20
0.0
 30
0.0
  0
VERTEX
  5
292D
  8
0
 62
     0
 10
136.74806
 20
53.51364
 30
0.0
  0
VERTEX
  5
292E
  8
0
 62
     0
 10
136.757156
 20
53.526888
 30
0.0
  0
VERTEX
  5
292F
  8
0
 62
     0
 10
136.766397
 20
53.54029
 30
0.0
  0
VERTEX
  5
2930
  8
0
 62
     0
 10
136.77578
 20
53.553845
 30
0.0
  0
SEQEND
  5
2931
  8
0
 62
     0
  0
LINE
  5
2524
  8
0
 62
     0
 10
136.77578
 20
53.553845
 30
0.0
 11
136.77578
 21
54.324407
 31
0.0
  0
LINE
  5
2525
  8
0
 62
     0
 10
136.481453
 20
53.796636
 30
0.0
 11
136.481453
 21
54.251751
 31
0.0
  0
POLYLINE
  5
2526
  8
0
 62
     0
 66
     1
 10
0.0
 20
0.0
 30
0.0
  0
VERTEX
  5
2932
  8
0
 62
     0
 10
136.74806
 20
53.51364
 30
0.0
  0
VERTEX
  5
2933
  8
0
 62
     0
 10
136.617394
 20
53.634542
 30
0.0
  0
VERTEX
  5
2934
  8
0
 62
     0
 10
136.532286
 20
53.722478
 30
0.0
  0
VERTEX
  5
2935
  8
0
 62
     0
 10
136.489186
 20
53.778657
 30
0.0
  0
VERTEX
  5
2936
  8
0
 62
     0
 10
136.481438
 20
53.799744
 30
0.0
  0
SEQEND
  5
2937
  8
0
 62
     0
  0
POLYLINE
  5
2527
  8
0
 62
     0
 66
     1
 10
0.0
 20
0.0
 30
0.0
  0
VERTEX
  5
2938
  8
0
 62
     0
 10
137.07764
 20
53.986446
 30
0.0
  0
VERTEX
  5
2939
  8
0
 62
     0
 10
137.246622
 20
53.839942
 30
0.0
  0
VERTEX
  5
293A
  8
0
 62
     0
 10
137.419549
 20
53.690929
 30
0.0
  0
SEQEND
  5
293B
  8
0
 62
     0
  0
LINE
  5
2528
  8
0
 62
     0
 10
136.481453
 20
54.080746
 30
0.0
 11
136.428919
 21
54.068473
 31
0.0
  0
LINE
  5
2529
  8
0
 62
     0
 10
136.984151
 20
53.51364
 30
0.0
 11
136.74806
 21
53.51364
 31
0.0
  0
POLYLINE
  5
252A
  8
0
 62
     0
 66
     1
 10
0.0
 20
0.0
 30
0.0
  0
VERTEX
  5
293C
  8
0
 62
     0
 10
139.235389
 20
54.989731
 30
0.0
  0
VERTEX
  5
293D
  8
0
 62
     0
 10
139.290745
 20
55.016009
 30
0.0
  0
VERTEX
  5
293E
  8
0
 62
     0
 10
139.335322
 20
55.060511
 30
0.0
  0
VERTEX
  5
293F
  8
0
 62
     0
 10
139.36339
 20
55.11702
 30
0.0
  0
VERTEX
  5
2940
  8
0
 62
     0
 10
139.372907
 20
55.179628
 30
0.0
  0
SEQEND
  5
2941
  8
0
 62
     0
  0
POLYLINE
  5
252B
  8
0
 62
     0
 66
     1
 10
0.0
 20
0.0
 30
0.0
  0
VERTEX
  5
2942
  8
0
 62
     0
 10
139.160007
 20
54.518313
 30
0.0
  0
VERTEX
  5
2943
  8
0
 62
     0
 10
139.340701
 20
54.370923
 30
0.0
  0
VERTEX
  5
2944
  8
0
 62
     0
 10
139.523103
 20
54.222796
 30
0.0
  0
SEQEND
  5
2945
  8
0
 62
     0
  0
POLYLINE
  5
252C
  8
0
 62
     0
 66
     1
 10
0.0
 20
0.0
 30
0.0
  0
VERTEX
  5
2946
  8
0
 62
     0
 10
139.129928
 20
55.179628
 30
0.0
  0
VERTEX
  5
2947
  8
0
 62
     0
 10
139.204113
 20
55.178682
 30
0.0
  0
VERTEX
  5
2948
  8
0
 62
     0
 10
139.275669
 20
55.178351
 30
0.0
  0
VERTEX
  5
2949
  8
0
 62
     0
 10
139.334663
 20
55.178682
 30
0.0
  0
VERTEX
  5
294A
  8
0
 62
     0
 10
139.372907
 20
55.179628
 30
0.0
  0
SEQEND
  5
294B
  8
0
 62
     0
  0
LINE
  5
252D
  8
0
 62
     0
 10
139.341381
 20
54.045507
 30
0.0
 11
138.808531
 21
54.045507
 31
0.0
  0
LINE
  5
252E
  8
0
 62
     0
 10
140.477261
 20
53.909157
 30
0.0
 11
138.603559
 21
53.909157
 31
0.0
  0
POLYLINE
  5
252F
  8
0
 62
     0
 66
     1
 10
0.0
 20
0.0
 30
0.0
  0
VERTEX
  5
294C
  8
0
 62
     0
 10
139.437549
 20
55.015813
 30
0.0
  0
VERTEX
  5
294D
  8
0
 62
     0
 10
139.338924
 20
55.003424
 30
0.0
  0
VERTEX
  5
294E
  8
0
 62
     0
 10
139.235393
 20
54.989731
 30
0.0
  0
SEQEND
  5
294F
  8
0
 62
     0
  0
LINE
  5
2530
  8
0
 62
     0
 10
138.352107
 20
54.724204
 30
0.0
 11
139.437549
 21
55.015813
 31
0.0
  0
POLYLINE
  5
2531
  8
0
 62
     0
 66
     1
 10
0.0
 20
0.0
 30
0.0
  0
VERTEX
  5
2950
  8
0
 62
     0
 10
138.003623
 20
53.955357
 30
0.0
  0
VERTEX
  5
2951
  8
0
 62
     0
 10
137.979295
 20
53.925776
 30
0.0
  0
VERTEX
  5
2952
  8
0
 62
     0
 10
137.785229
 20
53.690929
 30
0.0
  0
SEQEND
  5
2953
  8
0
 62
     0
  0
LINE
  5
2532
  8
0
 62
     0
 10
138.751599
 20
54.091683
 30
0.0
 11
138.570354
 21
53.868218
 31
0.0
  0
POLYLINE
  5
2533
  8
0
 62
     0
 66
     1
 10
0.0
 20
0.0
 30
0.0
  0
VERTEX
  5
2954
  8
0
 62
     0
 10
138.808531
 20
54.045507
 30
0.0
  0
VERTEX
  5
2955
  8
0
 62
     0
 10
138.983361
 20
54.281215
 30
0.0
  0
VERTEX
  5
2956
  8
0
 62
     0
 10
139.160007
 20
54.518313
 30
0.0
  0
SEQEND
  5
2957
  8
0
 62
     0
  0
POLYLINE
  5
2534
  8
0
 62
     0
 66
     1
 10
0.0
 20
0.0
 30
0.0
  0
VERTEX
  5
2958
  8
0
 62
     0
 10
138.106991
 20
53.868218
 30
0.0
  0
VERTEX
  5
2959
  8
0
 62
     0
 10
138.278248
 20
54.103536
 30
0.0
  0
VERTEX
  5
295A
  8
0
 62
     0
 10
138.451927
 20
54.341024
 30
0.0
  0
SEQEND
  5
295B
  8
0
 62
     0
  0
POLYLINE
  5
2535
  8
0
 62
     0
 66
     1
 10
0.0
 20
0.0
 30
0.0
  0
VERTEX
  5
295C
  8
0
 62
     0
 10
139.129928
 20
55.179628
 30
0.0
  0
VERTEX
  5
295D
  8
0
 62
     0
 10
139.153072
 20
55.105956
 30
0.0
  0
VERTEX
  5
295E
  8
0
 62
     0
 10
139.181404
 20
55.043466
 30
0.0
  0
VERTEX
  5
295F
  8
0
 62
     0
 10
139.210338
 20
55.002613
 30
0.0
  0
VERTEX
  5
2960
  8
0
 62
     0
 10
139.235389
 20
54.989731
 30
0.0
  0
SEQEND
  5
2961
  8
0
 62
     0
  0
POLYLINE
  5
2536
  8
0
 62
     0
 66
     1
 10
0.0
 20
0.0
 30
0.0
  0
VERTEX
  5
2962
  8
0
 62
     0
 10
138.451927
 20
54.341024
 30
0.0
  0
VERTEX
  5
2963
  8
0
 62
     0
 10
138.629045
 20
54.193896
 30
0.0
  0
VERTEX
  5
2964
  8
0
 62
     0
 10
138.808531
 20
54.045507
 30
0.0
  0
SEQEND
  5
2965
  8
0
 62
     0
  0
LINE
  5
2537
  8
0
 62
     0
 10
138.570354
 20
53.868218
 30
0.0
 11
138.106991
 21
53.868218
 31
0.0
  0
POLYLINE
  5
2538
  8
0
 62
     0
 66
     1
 10
0.0
 20
0.0
 30
0.0
  0
VERTEX
  5
2966
  8
0
 62
     0
 10
139.761607
 20
54.53852
 30
0.0
  0
VERTEX
  5
2967
  8
0
 62
     0
 10
140.028393
 20
54.631594
 30
0.0
  0
VERTEX
  5
2968
  8
0
 62
     0
 10
140.22316
 20
54.631594
 30
0.0
  0
VERTEX
  5
2969
  8
0
 62
     0
 10
140.34672
 20
54.53852
 30
0.0
  0
SEQEND
  5
296A
  8
0
 62
     0
  0
POLYLINE
  5
2539
  8
0
 62
     0
 66
     1
 10
0.0
 20
0.0
 30
0.0
  0
VERTEX
  5
296B
  8
0
 62
     0
 10
140.372194
 20
54.989731
 30
0.0
  0
VERTEX
  5
296C
  8
0
 62
     0
 10
140.431363
 20
55.015856
 30
0.0
  0
VERTEX
  5
296D
  8
0
 62
     0
 10
140.479085
 20
55.059483
 30
0.0
  0
VERTEX
  5
296E
  8
0
 62
     0
 10
140.510366
 20
55.116046
 30
0.0
  0
VERTEX
  5
296F
  8
0
 62
     0
 10
140.521502
 20
55.169511
 30
0.0
  0
SEQEND
  5
2970
  8
0
 62
     0
  0
POLYLINE
  5
253A
  8
0
 62
     0
 66
     1
 10
0.0
 20
0.0
 30
0.0
  0
VERTEX
  5
2971
  8
0
 62
     0
 10
140.36426
 20
55.01581
 30
0.0
  0
VERTEX
  5
2972
  8
0
 62
     0
 10
140.420918
 20
55.041285
 30
0.0
  0
VERTEX
  5
2973
  8
0
 62
     0
 10
140.46895
 20
55.087001
 30
0.0
  0
VERTEX
  5
2974
  8
0
 62
     0
 10
140.498461
 20
55.144784
 30
0.0
  0
VERTEX
  5
2975
  8
0
 62
     0
 10
140.508127
 20
55.211551
 30
0.0
  0
SEQEND
  5
2976
  8
0
 62
     0
  0
LINE
  5
253B
  8
0
 62
     0
 10
139.498397
 20
54.242489
 30
0.0
 11
139.341381
 21
54.045507
 31
0.0
  0
POLYLINE
  5
253C
  8
0
 62
     0
 66
     1
 10
0.0
 20
0.0
 30
0.0
  0
VERTEX
  5
2977
  8
0
 62
     0
 10
140.34672
 20
54.53852
 30
0.0
  0
VERTEX
  5
2978
  8
0
 62
     0
 10
140.223091
 20
54.380498
 30
0.0
  0
VERTEX
  5
2979
  8
0
 62
     0
 10
140.099377
 20
54.222796
 30
0.0
  0
SEQEND
  5
297A
  8
0
 62
     0
  0
POLYLINE
  5
253D
  8
0
 62
     0
 66
     1
 10
0.0
 20
0.0
 30
0.0
  0
VERTEX
  5
297B
  8
0
 62
     0
 10
139.523103
 20
54.222796
 30
0.0
  0
VERTEX
  5
297C
  8
0
 62
     0
 10
139.642067
 20
54.380498
 30
0.0
  0
VERTEX
  5
297D
  8
0
 62
     0
 10
139.761607
 20
54.53852
 30
0.0
  0
SEQEND
  5
297E
  8
0
 62
     0
  0
POLYLINE
  5
253E
  8
0
 62
     0
 66
     1
 10
0.0
 20
0.0
 30
0.0
  0
VERTEX
  5
297F
  8
0
 62
     0
 10
139.626836
 20
55.211551
 30
0.0
  0
VERTEX
  5
2980
  8
0
 62
     0
 10
139.596993
 20
55.144784
 30
0.0
  0
VERTEX
  5
2981
  8
0
 62
     0
 10
139.55249
 20
55.087001
 30
0.0
  0
VERTEX
  5
2982
  8
0
 62
     0
 10
139.495544
 20
55.041285
 30
0.0
  0
VERTEX
  5
2983
  8
0
 62
     0
 10
139.43755
 20
55.01581
 30
0.0
  0
SEQEND
  5
2984
  8
0
 62
     0
  0
POLYLINE
  5
253F
  8
0
 62
     0
 66
     1
 10
0.0
 20
0.0
 30
0.0
  0
VERTEX
  5
2985
  8
0
 62
     0
 10
140.515622
 20
55.133146
 30
0.0
  0
VERTEX
  5
2986
  8
0
 62
     0
 10
140.50187
 20
55.095744
 30
0.0
  0
VERTEX
  5
2987
  8
0
 62
     0
 10
140.481077
 20
55.061943
 30
0.0
  0
VERTEX
  5
2988
  8
0
 62
     0
 10
140.456432
 20
55.035069
 30
0.0
  0
VERTEX
  5
2989
  8
0
 62
     0
 10
140.426362
 20
55.012528
 30
0.0
  0
VERTEX
  5
298A
  8
0
 62
     0
 10
140.398318
 20
54.998266
 30
0.0
  0
VERTEX
  5
298B
  8
0
 62
     0
 10
140.37295
 20
54.989726
 30
0.0
  0
SEQEND
  5
298C
  8
0
 62
     0
  0
POLYLINE
  5
2540
  8
0
 62
     0
 66
     1
 10
0.0
 20
0.0
 30
0.0
  0
VERTEX
  5
298D
  8
0
 62
     0
 10
139.626846
 20
55.211551
 30
0.0
  0
VERTEX
  5
298E
  8
0
 62
     0
 10
139.706691
 20
55.481186
 30
0.0
  0
VERTEX
  5
298F
  8
0
 62
     0
 10
139.783327
 20
55.75076
 30
0.0
  0
VERTEX
  5
2990
  8
0
 62
     0
 10
139.856743
 20
56.020293
 30
0.0
  0
SEQEND
  5
2991
  8
0
 62
     0
  0
LINE
  5
2541
  8
0
 62
     0
 10
140.521502
 20
55.169511
 30
0.0
 11
140.515622
 21
55.133146
 31
0.0
  0
LINE
  5
2542
  8
0
 62
     0
 10
140.521502
 20
55.169511
 30
0.0
 11
140.52151
 21
55.169635
 31
0.0
  0
LINE
  5
2543
  8
0
 62
     0
 10
140.52151
 20
55.169635
 30
0.0
 11
140.522022
 21
55.18164
 31
0.0
  0
LINE
  5
2544
  8
0
 62
     0
 10
140.522485
 20
55.211302
 30
0.0
 11
140.521934
 21
55.179628
 31
0.0
  0
LINE
  5
2545
  8
0
 62
     0
 10
139.761607
 20
54.53852
 30
0.0
 11
139.782041
 21
55.746236
 31
0.0
  0
LINE
  5
2546
  8
0
 62
     0
 10
140.477261
 20
55.057782
 30
0.0
 11
140.477261
 21
53.909157
 31
0.0
  0
LINE
  5
2547
  8
0
 62
     0
 10
139.27149
 20
54.045507
 30
0.0
 11
139.27149
 21
53.909157
 31
0.0
  0
POLYLINE
  5
2548
  8
0
 62
     0
 66
     1
 10
0.0
 20
0.0
 30
0.0
  0
VERTEX
  5
2992
  8
0
 62
     0
 10
140.508138
 20
55.211551
 30
0.0
  0
VERTEX
  5
2993
  8
0
 62
     0
 10
140.501269
 20
55.481186
 30
0.0
  0
VERTEX
  5
2994
  8
0
 62
     0
 10
140.491011
 20
55.75076
 30
0.0
  0
VERTEX
  5
2995
  8
0
 62
     0
 10
140.477364
 20
56.020293
 30
0.0
  0
SEQEND
  5
2996
  8
0
 62
     0
  0
POLYLINE
  5
2549
  8
0
 62
     0
 66
     1
 10
0.0
 20
0.0
 30
0.0
  0
VERTEX
  5
2997
  8
0
 62
     0
 10
140.372185
 20
54.989731
 30
0.0
  0
VERTEX
  5
2998
  8
0
 62
     0
 10
140.370762
 20
55.003424
 30
0.0
  0
VERTEX
  5
2999
  8
0
 62
     0
 10
140.364259
 20
55.015813
 30
0.0
  0
SEQEND
  5
299A
  8
0
 62
     0
  0
LINE
  5
254A
  8
0
 62
     0
 10
140.522023
 20
55.181668
 30
0.0
 11
140.519103
 21
55.196611
 31
0.0
  0
LINE
  5
254B
  8
0
 62
     0
 10
140.519103
 20
55.196611
 30
0.0
 11
140.508138
 21
55.211551
 31
0.0
  0
LINE
  5
254C
  8
0
 62
     0
 10
140.37295
 20
54.989726
 30
0.0
 11
140.372194
 21
54.989731
 31
0.0
  0
LINE
  5
254D
  8
0
 62
     0
 10
140.099377
 20
54.222796
 30
0.0
 11
139.523103
 21
54.222796
 31
0.0
  0
POLYLINE
  5
254E
  8
0
 62
     0
 66
     1
 10
0.0
 20
0.0
 30
0.0
  0
VERTEX
  5
299B
  8
0
 62
     0
 10
139.626846
 20
55.211551
 30
0.0
  0
VERTEX
  5
299C
  8
0
 62
     0
 10
139.50373
 20
55.196611
 30
0.0
  0
VERTEX
  5
299D
  8
0
 62
     0
 10
139.372907
 20
55.179628
 30
0.0
  0
SEQEND
  5
299E
  8
0
 62
     0
  0
LINE
  5
254F
  8
0
 62
     0
 10
140.354484
 20
54.985493
 30
0.0
 11
140.372774
 21
54.989681
 31
0.0
  0
LINE
  5
2550
  8
0
 62
     0
 10
140.372185
 20
54.989731
 30
0.0
 11
140.354486
 21
54.985596
 31
0.0
  0
LINE
  5
2551
  8
0
 62
     0
 10
140.364259
 20
55.015813
 30
0.0
 11
140.35497
 21
55.013465
 31
0.0
  0
LINE
  5
2552
  8
0
 62
     0
 10
140.477364
 20
56.020293
 30
0.0
 11
140.37198
 21
55.992644
 31
0.0
  0
LINE
  5
2553
  8
0
 62
     0
 10
137.311355
 20
59.80078
 30
0.0
 11
137.311355
 21
62.599471
 31
0.0
  0
POLYLINE
  5
2554
  8
0
 62
     0
 66
     1
 10
0.0
 20
0.0
 30
0.0
  0
VERTEX
  5
299F
  8
0
 62
     0
 10
130.299843
 20
67.309157
 30
0.0
  0
VERTEX
  5
29A0
  8
0
 62
     0
 10
133.674612
 20
66.762168
 30
0.0
  0
VERTEX
  5
29A1
  8
0
 62
     0
 10
137.086784
 20
66.42056
 30
0.0
  0
SEQEND
  5
29A2
  8
0
 62
     0
  0
LINE
  5
2555
  8
0
 62
     0
 10
135.142727
 20
66.524044
 30
0.0
 11
133.429228
 21
66.710205
 31
0.0
  0
POLYLINE
  5
2556
  8
0
 62
     0
 66
     1
 10
0.0
 20
0.0
 30
0.0
  0
VERTEX
  5
29A3
  8
0
 62
     0
 10
137.69124
 20
66.35883
 30
0.0
  0
VERTEX
  5
29A4
  8
0
 62
     0
 10
135.102177
 20
66.555482
 30
0.0
  0
VERTEX
  5
29A5
  8
0
 62
     0
 10
132.524963
 20
66.872397
 30
0.0
  0
VERTEX
  5
29A6
  8
0
 62
     0
 10
129.963557
 20
67.309157
 30
0.0
  0
SEQEND
  5
29A7
  8
0
 62
     0
  0
POLYLINE
  5
2557
  8
0
 62
     0
 66
     1
 10
0.0
 20
0.0
 30
0.0
  0
VERTEX
  5
29A8
  8
0
 62
     0
 10
137.317896
 20
66.35883
 30
0.0
  0
VERTEX
  5
29A9
  8
0
 62
     0
 10
134.728833
 20
66.555482
 30
0.0
  0
VERTEX
  5
29AA
  8
0
 62
     0
 10
132.15162
 20
66.872397
 30
0.0
  0
VERTEX
  5
29AB
  8
0
 62
     0
 10
129.590213
 20
67.309157
 30
0.0
  0
SEQEND
  5
29AC
  8
0
 62
     0
  0
POLYLINE
  5
2558
  8
0
 62
     0
 66
     1
 10
0.0
 20
0.0
 30
0.0
  0
VERTEX
  5
29AD
  8
0
 62
     0
 10
139.24866
 20
66.284555
 30
0.0
  0
VERTEX
  5
29AE
  8
0
 62
     0
 10
135.918416
 20
66.42056
 30
0.0
  0
VERTEX
  5
29AF
  8
0
 62
     0
 10
132.583926
 20
66.762168
 30
0.0
  0
VERTEX
  5
29B0
  8
0
 62
     0
 10
129.253927
 20
67.309157
 30
0.0
  0
SEQEND
  5
29B1
  8
0
 62
     0
  0
LINE
  5
2559
  8
0
 62
     0
 10
133.429228
 20
66.710205
 30
0.0
 11
131.328146
 21
67.019752
 31
0.0
  0
LINE
  5
255A
  8
0
 62
     0
 10
129.97149
 20
67.309157
 30
0.0
 11
129.97149
 21
68.183822
 31
0.0
  0
LINE
  5
255B
  8
0
 62
     0
 10
129.963557
 20
67.309157
 30
0.0
 11
129.963557
 21
68.183844
 31
0.0
  0
LINE
  5
255C
  8
0
 62
     0
 10
129.590213
 20
67.309157
 30
0.0
 11
129.590213
 21
68.184893
 31
0.0
  0
LINE
  5
255D
  8
0
 62
     0
 10
131.328146
 20
67.019752
 30
0.0
 11
129.590213
 21
67.343768
 31
0.0
  0
LINE
  5
255E
  8
0
 62
     0
 10
129.97149
 20
67.309157
 30
0.0
 11
130.299843
 21
67.309157
 31
0.0
  0
LINE
  5
255F
  8
0
 62
     0
 10
139.74649
 20
68.909157
 30
0.0
 11
139.74649
 21
71.909132
 31
0.0
  0
LINE
  5
2560
  8
0
 62
     0
 10
137.84649
 20
68.909157
 30
0.0
 11
137.84649
 21
71.909132
 31
0.0
  0
LINE
  5
2561
  8
0
 62
     0
 10
135.72149
 20
68.159157
 30
0.0
 11
135.72149
 21
72.409157
 31
0.0
  0
LINE
  5
2562
  8
0
 62
     0
 10
135.72149
 20
70.609157
 30
0.0
 11
137.84649
 21
70.609157
 31
0.0
  0
LINE
  5
2563
  8
0
 62
     0
 10
135.72149
 20
69.197848
 30
0.0
 11
137.84649
 21
69.197848
 31
0.0
  0
POLYLINE
  5
2564
  8
0
 62
     0
 66
     1
 10
0.0
 20
0.0
 30
0.0
  0
VERTEX
  5
29B2
  8
0
 62
     0
 10
137.69124
 20
66.35883
 30
0.0
  0
VERTEX
  5
29B3
  8
0
 62
     0
 10
138.669487
 20
66.318232
 30
0.0
  0
VERTEX
  5
29B4
  8
0
 62
     0
 10
139.662547
 20
66.292007
 30
0.0
  0
SEQEND
  5
29B5
  8
0
 62
     0
  0
LINE
  5
2565
  8
0
 62
     0
 10
137.086784
 20
66.42056
 30
0.0
 11
140.031432
 21
66.304183
 31
0.0
  0
POLYLINE
  5
2566
  8
0
 62
     0
 66
     1
 10
0.0
 20
0.0
 30
0.0
  0
VERTEX
  5
29B6
  8
0
 62
     0
 10
139.24872
 20
66.29022
 30
0.0
  0
VERTEX
  5
29B7
  8
0
 62
     0
 10
139.079447
 20
66.292007
 30
0.0
  0
VERTEX
  5
29B8
  8
0
 62
     0
 10
138.170635
 20
66.318232
 30
0.0
  0
VERTEX
  5
29B9
  8
0
 62
     0
 10
137.317896
 20
66.35883
 30
0.0
  0
SEQEND
  5
29BA
  8
0
 62
     0
  0
LINE
  5
2567
  8
0
 62
     0
 10
137.69124
 20
66.341055
 30
0.0
 11
137.69124
 21
66.35883
 31
0.0
  0
LINE
  5
2568
  8
0
 62
     0
 10
139.662547
 20
66.292007
 30
0.0
 11
140.65557
 21
66.281969
 31
0.0
  0
POLYLINE
  5
2569
  8
0
 62
     0
 66
     1
 10
0.0
 20
0.0
 30
0.0
  0
VERTEX
  5
29BB
  8
0
 62
     0
 10
139.24866
 20
66.284555
 30
0.0
  0
VERTEX
  5
29BC
  8
0
 62
     0
 10
139.322426
 20
66.283892
 30
0.0
  0
VERTEX
  5
29BD
  8
0
 62
     0
 10
139.393684
 20
66.283376
 30
0.0
  0
VERTEX
  5
29BE
  8
0
 62
     0
 10
139.452647
 20
66.283037
 30
0.0
  0
VERTEX
  5
29BF
  8
0
 62
     0
 10
139.491217
 20
66.282873
 30
0.0
  0
SEQEND
  5
29C0
  8
0
 62
     0
  0
POLYLINE
  5
256A
  8
0
 62
     0
 66
     1
 10
0.0
 20
0.0
 30
0.0
  0
VERTEX
  5
29C1
  8
0
 62
     0
 10
139.491217
 20
66.282873
 30
0.0
  0
VERTEX
  5
29C2
  8
0
 62
     0
 10
139.687795
 20
66.282382
 30
0.0
  0
VERTEX
  5
29C3
  8
0
 62
     0
 10
139.867636
 20
66.282106
 30
0.0
  0
VERTEX
  5
29C4
  8
0
 62
     0
 10
140.030554
 20
66.281969
 30
0.0
  0
SEQEND
  5
29C5
  8
0
 62
     0
  0
POLYLINE
  5
256B
  8
0
 62
     0
 66
     1
 10
0.0
 20
0.0
 30
0.0
  0
VERTEX
  5
29C6
  8
0
 62
     0
 10
140.030549
 20
66.259199
 30
0.0
  0
VERTEX
  5
29C7
  8
0
 62
     0
 10
140.227017
 20
66.259158
 30
0.0
  0
VERTEX
  5
29C8
  8
0
 62
     0
 10
140.424077
 20
66.259158
 30
0.0
  0
VERTEX
  5
29C9
  8
0
 62
     0
 10
140.550324
 20
66.259214
 30
0.0
  0
SEQEND
  5
29CA
  8
0
 62
     0
  0
LINE
  5
256C
  8
0
 62
     0
 10
139.74649
 20
71.909157
 30
0.0
 11
137.84649
 21
71.909157
 31
0.0
  0
LINE
  5
256D
  8
0
 62
     0
 10
137.84649
 20
71.370542
 30
0.0
 11
139.74649
 21
71.370542
 31
0.0
  0
LINE
  5
256E
  8
0
 62
     0
 10
152.22149
 20
57.409157
 30
0.0
 11
152.22149
 21
56.909157
 31
0.0
  0
LINE
  5
256F
  8
0
 62
     0
 10
140.712514
 20
66.282382
 30
0.0
 11
140.715791
 21
66.28265
 31
0.0
  0
LINE
  5
2570
  8
0
 62
     0
 10
151.54649
 20
68.909157
 30
0.0
 11
151.54649
 21
71.909132
 31
0.0
  0
LINE
  5
2571
  8
0
 62
     0
 10
149.64649
 20
68.909157
 30
0.0
 11
149.64649
 21
71.909132
 31
0.0
  0
LINE
  5
2572
  8
0
 62
     0
 10
151.54649
 20
71.909157
 30
0.0
 11
149.64649
 21
71.909157
 31
0.0
  0
LINE
  5
2573
  8
0
 62
     0
 10
149.64649
 20
71.370542
 30
0.0
 11
151.54649
 21
71.370542
 31
0.0
  0
LINE
  5
2574
  8
0
 62
     0
 10
153.22149
 20
57.909157
 30
0.0
 11
153.22149
 21
68.159157
 31
0.0
  0
LINE
  5
2575
  8
0
 62
     0
 10
152.72149
 20
57.909157
 30
0.0
 11
152.72149
 21
68.101277
 31
0.0
  0
LINE
  5
2576
  8
0
 62
     0
 10
152.72149
 20
57.909157
 30
0.0
 11
153.22149
 21
57.909157
 31
0.0
  0
ARC
  5
2577
  8
0
 62
     0
 10
153.47149
 20
71.178584
 30
0.0
 40
1.0
 50
319.217579
 51
0.0
  0
LINE
  5
2578
  8
0
 62
     0
 10
153.035017
 20
72.409157
 30
0.0
 11
153.019745
 21
68.909157
 31
0.0
  0
LINE
  5
2579
  8
0
 62
     0
 10
153.67149
 20
68.253663
 30
0.0
 11
153.978302
 21
68.302878
 31
0.0
  0
LINE
  5
257A
  8
0
 62
     0
 10
153.97572
 20
68.771563
 30
0.0
 11
153.67149
 21
68.722544
 31
0.0
  0
LINE
  5
257B
  8
0
 62
     0
 10
153.67149
 20
68.159157
 30
0.0
 11
153.67149
 21
68.909157
 31
0.0
  0
ARC
  5
257C
  8
0
 62
     0
 10
153.92149
 20
68.59745
 30
0.0
 40
0.3
 50
280.916245
 51
0.0
  0
LINE
  5
257D
  8
0
 62
     0
 10
154.101796
 20
68.824257
 30
0.0
 11
153.97572
 21
68.771564
 31
0.0
  0
LINE
  5
257E
  8
0
 62
     0
 10
154.175995
 20
68.909157
 30
0.0
 11
154.101796
 21
68.824257
 31
0.0
  0
LINE
  5
257F
  8
0
 62
     0
 10
153.97572
 20
68.771564
 30
0.0
 11
153.978302
 21
68.302879
 31
0.0
  0
POLYLINE
  5
2580
  8
0
 62
     0
 66
     1
 10
0.0
 20
0.0
 30
0.0
  0
VERTEX
  5
29CB
  8
0
 62
     0
 10
153.960232
 20
68.909157
 30
0.0
  0
VERTEX
  5
29CC
  8
0
 62
     0
 10
153.966777
 20
68.851209
 30
0.0
  0
VERTEX
  5
29CD
  8
0
 62
     0
 10
153.972316
 20
68.801994
 30
0.0
  0
VERTEX
  5
29CE
  8
0
 62
     0
 10
153.97572
 20
68.771564
 30
0.0
  0
SEQEND
  5
29CF
  8
0
 62
     0
  0
LINE
  5
2581
  8
0
 62
     0
 10
154.22149
 20
72.957075
 30
0.0
 11
154.47149
 21
72.957075
 31
0.0
  0
LINE
  5
2582
  8
0
 62
     0
 10
152.32149
 20
118.402015
 30
0.0
 11
152.62149
 21
117.1163
 31
0.0
  0
LINE
  5
2583
  8
0
 62
     0
 10
152.62149
 20
123.259157
 30
0.0
 11
152.32149
 21
123.259157
 31
0.0
  0
LINE
  5
2584
  8
0
 62
     0
 10
152.62149
 20
122.759157
 30
0.0
 11
152.32149
 21
122.759157
 31
0.0
  0
LINE
  5
2585
  8
0
 62
     0
 10
150.82149
 20
115.509157
 30
0.0
 11
152.62149
 21
115.509157
 31
0.0
  0
LINE
  5
2586
  8
0
 62
     0
 10
150.82149
 20
113.509157
 30
0.0
 11
152.62149
 21
113.509157
 31
0.0
  0
LINE
  5
2587
  8
0
 62
     0
 10
150.82149
 20
113.109157
 30
0.0
 11
154.32149
 21
113.109157
 31
0.0
  0
LINE
  5
2588
  8
0
 62
     0
 10
151.195657
 20
113.909157
 30
0.0
 11
151.195657
 21
115.109157
 31
0.0
  0
LINE
  5
2589
  8
0
 62
     0
 10
150.82149
 20
116.809157
 30
0.0
 11
150.82149
 21
113.109157
 31
0.0
  0
LINE
  5
258A
  8
0
 62
     0
 10
151.195657
 20
113.909157
 30
0.0
 11
150.82149
 21
113.909157
 31
0.0
  0
POLYLINE
  5
258B
  8
0
 62
     0
 66
     1
 10
0.0
 20
0.0
 30
0.0
  0
VERTEX
  5
29D0
  8
0
 62
     0
 10
151.195657
 20
113.909157
 30
0.0
  0
VERTEX
  5
29D1
  8
0
 62
     0
 10
151.19369
 20
113.832865
 30
0.0
  0
VERTEX
  5
29D2
  8
0
 62
     0
 10
151.187733
 20
113.758216
 30
0.0
  0
VERTEX
  5
29D3
  8
0
 62
     0
 10
151.178068
 20
113.689599
 30
0.0
  0
VERTEX
  5
29D4
  8
0
 62
     0
 10
151.164881
 20
113.628633
 30
0.0
  0
VERTEX
  5
29D5
  8
0
 62
     0
 10
151.148654
 20
113.578155
 30
0.0
  0
VERTEX
  5
29D6
  8
0
 62
     0
 10
151.130181
 20
113.540679
 30
0.0
  0
VERTEX
  5
29D7
  8
0
 62
     0
 10
151.109784
 20
113.517141
 30
0.0
  0
VERTEX
  5
29D8
  8
0
 62
     0
 10
151.088477
 20
113.509157
 30
0.0
  0
SEQEND
  5
29D9
  8
0
 62
     0
  0
LINE
  5
258C
  8
0
 62
     0
 10
152.32149
 20
116.809157
 30
0.0
 11
150.82149
 21
116.809157
 31
0.0
  0
LINE
  5
258D
  8
0
 62
     0
 10
150.82149
 20
115.109157
 30
0.0
 11
151.195657
 21
115.109157
 31
0.0
  0
POLYLINE
  5
258E
  8
0
 62
     0
 66
     1
 10
0.0
 20
0.0
 30
0.0
  0
VERTEX
  5
29DA
  8
0
 62
     0
 10
151.088477
 20
115.509157
 30
0.0
  0
VERTEX
  5
29DB
  8
0
 62
     0
 10
151.109784
 20
115.501174
 30
0.0
  0
VERTEX
  5
29DC
  8
0
 62
     0
 10
151.130181
 20
115.477636
 30
0.0
  0
VERTEX
  5
29DD
  8
0
 62
     0
 10
151.148654
 20
115.44016
 30
0.0
  0
VERTEX
  5
29DE
  8
0
 62
     0
 10
151.164881
 20
115.389682
 30
0.0
  0
VERTEX
  5
29DF
  8
0
 62
     0
 10
151.178068
 20
115.328716
 30
0.0
  0
VERTEX
  5
29E0
  8
0
 62
     0
 10
151.187733
 20
115.260099
 30
0.0
  0
VERTEX
  5
29E1
  8
0
 62
     0
 10
151.19369
 20
115.18545
 30
0.0
  0
VERTEX
  5
29E2
  8
0
 62
     0
 10
151.195657
 20
115.109157
 30
0.0
  0
SEQEND
  5
29E3
  8
0
 62
     0
  0
LINE
  5
258F
  8
0
 62
     0
 10
154.22149
 20
98.609157
 30
0.0
 11
154.32149
 21
102.609157
 31
0.0
  0
LINE
  5
2590
  8
0
 62
     0
 10
153.72149
 20
83.609157
 30
0.0
 11
154.32149
 21
95.609157
 31
0.0
  0
LINE
  5
2591
  8
0
 62
     0
 10
154.22149
 20
79.00254
 30
0.0
 11
154.47149
 21
79.00254
 31
0.0
  0
ARC
  5
2592
  8
0
 62
     0
 10
153.52149
 20
92.909157
 30
0.0
 40
0.8
 50
332.482452
 51
0.0
  0
LINE
  5
2593
  8
0
 62
     0
 10
154.32149
 20
93.609157
 30
0.0
 11
154.32149
 21
92.909157
 31
0.0
  0
LINE
  5
2594
  8
0
 62
     0
 10
154.32149
 20
93.609157
 30
0.0
 11
154.22149
 21
93.609157
 31
0.0
  0
LINE
  5
2595
  8
0
 62
     0
 10
154.22149
 20
95.609157
 30
0.0
 11
154.32149
 21
98.609157
 31
0.0
  0
LINE
  5
2596
  8
0
 62
     0
 10
154.32149
 20
95.609157
 30
0.0
 11
154.22149
 21
95.609157
 31
0.0
  0
LINE
  5
2597
  8
0
 62
     0
 10
154.32149
 20
98.609157
 30
0.0
 11
154.22149
 21
98.609157
 31
0.0
  0
LINE
  5
2598
  8
0
 62
     0
 10
154.22149
 20
107.109157
 30
0.0
 11
154.32149
 21
112.609157
 31
0.0
  0
LINE
  5
2599
  8
0
 62
     0
 10
154.22149
 20
102.609157
 30
0.0
 11
154.32149
 21
107.109157
 31
0.0
  0
LINE
  5
259A
  8
0
 62
     0
 10
154.32149
 20
102.609157
 30
0.0
 11
154.22149
 21
102.609157
 31
0.0
  0
LINE
  5
259B
  8
0
 62
     0
 10
154.32149
 20
107.109157
 30
0.0
 11
154.22149
 21
107.109157
 31
0.0
  0
LINE
  5
259C
  8
0
 62
     0
 10
152.899189
 20
113.553759
 30
0.0
 11
152.89531
 21
113.109157
 31
0.0
  0
LINE
  5
259D
  8
0
 62
     0
 10
152.62149
 20
114.109157
 30
0.0
 11
153.12149
 21
113.109157
 31
0.0
  0
LINE
  5
259E
  8
0
 62
     0
 10
154.22149
 20
113.109157
 30
0.0
 11
154.22149
 21
112.609157
 31
0.0
  0
LINE
  5
259F
  8
0
 62
     0
 10
154.32149
 20
112.609157
 30
0.0
 11
154.22149
 21
112.609157
 31
0.0
  0
LINE
  5
25A0
  8
0
 62
     0
 10
154.22149
 20
135.548051
 30
0.0
 11
154.22149
 21
179.009157
 31
0.0
  0
LINE
  5
25A1
  8
0
 62
     0
 10
153.92149
 20
135.548051
 30
0.0
 11
153.92149
 21
179.309157
 31
0.0
  0
LINE
  5
25A2
  8
0
 62
     0
 10
150.07149
 20
174.409157
 30
0.0
 11
150.07149
 21
155.309157
 31
0.0
  0
LINE
  5
25A3
  8
0
 62
     0
 10
148.82149
 20
171.109157
 30
0.0
 11
148.82149
 21
169.809157
 31
0.0
  0
LINE
  5
25A4
  8
0
 62
     0
 10
141.82149
 20
171.109157
 30
0.0
 11
141.82149
 21
169.809157
 31
0.0
  0
LINE
  5
25A5
  8
0
 62
     0
 10
141.62149
 20
171.309157
 30
0.0
 11
141.62149
 21
169.809157
 31
0.0
  0
LINE
  5
25A6
  8
0
 62
     0
 10
140.57149
 20
155.309157
 30
0.0
 11
140.57149
 21
174.409157
 31
0.0
  0
LINE
  5
25A7
  8
0
 62
     0
 10
139.32149
 20
135.39796
 30
0.0
 11
139.32149
 21
175.709157
 31
0.0
  0
LINE
  5
25A8
  8
0
 62
     0
 10
137.82149
 20
135.29307
 30
0.0
 11
137.82149
 21
175.709157
 31
0.0
  0
LINE
  5
25A9
  8
0
 62
     0
 10
136.57149
 20
176.277904
 30
0.0
 11
136.57149
 21
155.309157
 31
0.0
  0
LINE
  5
25AA
  8
0
 62
     0
 10
135.52149
 20
171.309157
 30
0.0
 11
135.52149
 21
169.809157
 31
0.0
  0
LINE
  5
25AB
  8
0
 62
     0
 10
135.32149
 20
169.809157
 30
0.0
 11
135.32149
 21
171.309157
 31
0.0
  0
LINE
  5
25AC
  8
0
 62
     0
 10
131.82149
 20
155.309157
 30
0.0
 11
131.82149
 21
182.209157
 31
0.0
  0
ARC
  5
25AD
  8
0
 62
     0
 10
152.42149
 20
127.363547
 30
0.0
 40
0.2
 50
0.0
 51
100.810826
  0
LINE
  5
25AE
  8
0
 62
     0
 10
153.27149
 20
159.909157
 30
0.0
 11
151.27149
 21
159.909157
 31
0.0
  0
LINE
  5
25AF
  8
0
 62
     0
 10
153.27149
 20
158.109157
 30
0.0
 11
151.27149
 21
158.109157
 31
0.0
  0
LINE
  5
25B0
  8
0
 62
     0
 10
151.27149
 20
154.709157
 30
0.0
 11
152.47149
 21
154.709157
 31
0.0
  0
LINE
  5
25B1
  8
0
 62
     0
 10
152.47149
 20
154.409157
 30
0.0
 11
151.82149
 21
154.409157
 31
0.0
  0
LINE
  5
25B2
  8
0
 62
     0
 10
153.27149
 20
148.609157
 30
0.0
 11
151.27149
 21
148.609157
 31
0.0
  0
LINE
  5
25B3
  8
0
 62
     0
 10
153.27149
 20
147.409157
 30
0.0
 11
151.27149
 21
147.409157
 31
0.0
  0
LINE
  5
25B4
  8
0
 62
     0
 10
153.02149
 20
147.209157
 30
0.0
 11
151.52149
 21
147.209157
 31
0.0
  0
LINE
  5
25B5
  8
0
 62
     0
 10
153.02149
 20
144.409157
 30
0.0
 11
151.52149
 21
144.409157
 31
0.0
  0
LINE
  5
25B6
  8
0
 62
     0
 10
153.02149
 20
143.909157
 30
0.0
 11
151.52149
 21
143.909157
 31
0.0
  0
LINE
  5
25B7
  8
0
 62
     0
 10
151.27149
 20
143.709157
 30
0.0
 11
153.27149
 21
143.709157
 31
0.0
  0
LINE
  5
25B8
  8
0
 62
     0
 10
151.27149
 20
139.709157
 30
0.0
 11
153.27149
 21
139.709157
 31
0.0
  0
LINE
  5
25B9
  8
0
 62
     0
 10
150.12149
 20
138.709157
 30
0.0
 11
154.22149
 21
138.709157
 31
0.0
  0
LINE
  5
25BA
  8
0
 62
     0
 10
151.52149
 20
143.709157
 30
0.0
 11
151.52149
 21
147.209157
 31
0.0
  0
LINE
  5
25BB
  8
0
 62
     0
 10
151.27149
 20
138.709157
 30
0.0
 11
151.27149
 21
159.909157
 31
0.0
  0
LINE
  5
25BC
  8
0
 62
     0
 10
150.47149
 20
138.709157
 30
0.0
 11
150.47149
 21
150.109157
 31
0.0
  0
LINE
  5
25BD
  8
0
 62
     0
 10
140.17149
 20
135.457398
 30
0.0
 11
140.17149
 21
151.109157
 31
0.0
  0
LINE
  5
25BE
  8
0
 62
     0
 10
139.17149
 20
155.109157
 30
0.0
 11
139.17149
 21
135.387471
 31
0.0
  0
LINE
  5
25BF
  8
0
 62
     0
 10
137.97149
 20
155.109157
 30
0.0
 11
137.97149
 21
135.303559
 31
0.0
  0
LINE
  5
25C0
  8
0
 62
     0
 10
136.97149
 20
135.233632
 30
0.0
 11
136.97149
 21
150.109157
 31
0.0
  0
LINE
  5
25C1
  8
0
 62
     0
 10
131.82149
 20
145.409157
 30
0.0
 11
131.82149
 21
150.109157
 31
0.0
  0
ARC
  5
25C2
  8
0
 62
     0
 10
131.82149
 20
259.149157
 30
0.0
 40
125.24
 50
273.983352
 51
278.40211
  0
LINE
  5
25C3
  8
0
 62
     0
 10
140.52149
 20
145.409157
 30
0.0
 11
150.12149
 21
145.409157
 31
0.0
  0
POLYLINE
  5
25C4
  8
0
 62
     0
 66
     1
 10
0.0
 20
0.0
 30
0.0
  0
VERTEX
  5
29E4
  8
0
 62
     0
 10
140.52149
 20
144.809157
 30
0.0
  0
VERTEX
  5
29E5
  8
0
 62
     0
 10
142.44401
 20
145.130717
 30
0.0
  0
VERTEX
  5
29E6
  8
0
 62
     0
 10
144.362846
 20
145.28942
 30
0.0
  0
VERTEX
  5
29E7
  8
0
 62
     0
 10
146.280224
 20
145.289416
 30
0.0
  0
VERTEX
  5
29E8
  8
0
 62
     0
 10
148.199007
 20
145.130713
 30
0.0
  0
VERTEX
  5
29E9
  8
0
 62
     0
 10
150.12149
 20
144.809157
 30
0.0
  0
SEQEND
  5
29EA
  8
0
 62
     0
  0
LINE
  5
25C5
  8
0
 62
     0
 10
136.62149
 20
135.209157
 30
0.0
 11
140.52149
 21
135.481872
 31
0.0
  0
LINE
  5
25C6
  8
0
 62
     0
 10
140.52149
 20
134.211703
 30
0.0
 11
140.52149
 21
145.409157
 31
0.0
  0
LINE
  5
25C7
  8
0
 62
     0
 10
136.82149
 20
140.909157
 30
0.0
 11
136.82149
 21
135.223143
 31
0.0
  0
LINE
  5
25C8
  8
0
 62
     0
 10
136.62149
 20
134.001175
 30
0.0
 11
136.62149
 21
145.409157
 31
0.0
  0
LINE
  5
25C9
  8
0
 62
     0
 10
133.82149
 20
125.712259
 30
0.0
 11
133.82149
 21
125.484435
 31
0.0
  0
LINE
  5
25CA
  8
0
 62
     0
 10
131.82149
 20
132.209157
 30
0.0
 11
131.82149
 21
132.74882
 31
0.0
  0
LINE
  5
25CB
  8
0
 62
     0
 10
139.56215
 20
125.77247
 30
0.0
 11
139.693902
 21
125.77247
 31
0.0
  0
LINE
  5
25CC
  8
0
 62
     0
 10
137.82149
 20
135.468595
 30
0.0
 11
136.97149
 21
135.409157
 31
0.0
  0
LINE
  5
25CD
  8
0
 62
     0
 10
136.97149
 20
138.709157
 30
0.0
 11
136.82149
 21
138.709157
 31
0.0
  0
LINE
  5
25CE
  8
0
 62
     0
 10
136.82149
 20
140.909157
 30
0.0
 11
136.62149
 21
140.810886
 31
0.0
  0
LINE
  5
25CF
  8
0
 62
     0
 10
140.370733
 20
140.884962
 30
0.0
 11
140.370733
 21
135.47133
 31
0.0
  0
LINE
  5
25D0
  8
0
 62
     0
 10
140.17149
 20
135.632923
 30
0.0
 11
139.32149
 21
135.573485
 31
0.0
  0
LINE
  5
25D1
  8
0
 62
     0
 10
140.17149
 20
140.982861
 30
0.0
 11
140.52149
 21
140.810886
 31
0.0
  0
LINE
  5
25D2
  8
0
 62
     0
 10
136.97149
 20
145.109157
 30
0.0
 11
137.82149
 21
145.109157
 31
0.0
  0
LINE
  5
25D3
  8
0
 62
     0
 10
150.12149
 20
145.409157
 30
0.0
 11
150.12149
 21
135.253364
 31
0.0
  0
ARC
  5
25D4
  8
0
 62
     0
 10
149.607083
 20
127.149728
 30
0.0
 40
0.5
 50
348.816451
 51
359.5
  0
ARC
  5
25D5
  8
0
 62
     0
 10
152.12149
 20
127.167371
 30
0.0
 40
0.2
 50
0.0
 51
101.019833
  0
LINE
  5
25D6
  8
0
 62
     0
 10
150.32149
 20
140.909157
 30
0.0
 11
150.32149
 21
138.709157
 31
0.0
  0
LINE
  5
25D7
  8
0
 62
     0
 10
150.32149
 20
140.909157
 30
0.0
 11
150.12149
 21
140.810886
 31
0.0
  0
LINE
  5
25D8
  8
0
 62
     0
 10
151.52149
 20
138.709157
 30
0.0
 11
151.52149
 21
139.709157
 31
0.0
  0
LINE
  5
25D9
  8
0
 62
     0
 10
150.47149
 20
145.109157
 30
0.0
 11
151.27149
 21
145.109157
 31
0.0
  0
LINE
  5
25DA
  8
0
 62
     0
 10
140.57149
 20
169.809157
 30
0.0
 11
150.07149
 21
169.809157
 31
0.0
  0
LINE
  5
25DB
  8
0
 62
     0
 10
150.07149
 20
168.309157
 30
0.0
 11
140.57149
 21
168.309157
 31
0.0
  0
LINE
  5
25DC
  8
0
 62
     0
 10
140.57149
 20
166.809157
 30
0.0
 11
150.07149
 21
166.809157
 31
0.0
  0
LINE
  5
25DD
  8
0
 62
     0
 10
150.07149
 20
165.309157
 30
0.0
 11
140.57149
 21
165.309157
 31
0.0
  0
LINE
  5
25DE
  8
0
 62
     0
 10
140.57149
 20
163.809157
 30
0.0
 11
150.07149
 21
163.809157
 31
0.0
  0
LINE
  5
25DF
  8
0
 62
     0
 10
150.07149
 20
162.309157
 30
0.0
 11
140.57149
 21
162.309157
 31
0.0
  0
LINE
  5
25E0
  8
0
 62
     0
 10
140.57149
 20
160.809157
 30
0.0
 11
150.07149
 21
160.809157
 31
0.0
  0
LINE
  5
25E1
  8
0
 62
     0
 10
150.07149
 20
155.309157
 30
0.0
 11
140.57149
 21
155.309157
 31
0.0
  0
LINE
  5
25E2
  8
0
 62
     0
 10
140.17149
 20
151.109157
 30
0.0
 11
151.27149
 21
151.109157
 31
0.0
  0
LINE
  5
25E3
  8
0
 62
     0
 10
140.17149
 20
150.109157
 30
0.0
 11
150.47149
 21
150.109157
 31
0.0
  0
LINE
  5
25E4
  8
0
 62
     0
 10
141.57149
 20
148.709157
 30
0.0
 11
140.17149
 21
148.709157
 31
0.0
  0
LINE
  5
25E5
  8
0
 62
     0
 10
140.17149
 20
148.509157
 30
0.0
 11
150.47149
 21
148.509157
 31
0.0
  0
LINE
  5
25E6
  8
0
 62
     0
 10
129.82149
 20
149.809157
 30
0.0
 11
129.82149
 21
150.109157
 31
0.0
  0
LINE
  5
25E7
  8
0
 62
     0
 10
133.82149
 20
149.809157
 30
0.0
 11
133.82149
 21
150.109157
 31
0.0
  0
LINE
  5
25E8
  8
0
 62
     0
 10
134.82149
 20
148.509157
 30
0.0
 11
134.82149
 21
149.809157
 31
0.0
  0
LINE
  5
25E9
  8
0
 62
     0
 10
136.97149
 20
150.109157
 30
0.0
 11
137.82149
 21
150.822392
 31
0.0
  0
LINE
  5
25EA
  8
0
 62
     0
 10
135.57149
 20
148.709157
 30
0.0
 11
135.57149
 21
150.109157
 31
0.0
  0
LINE
  5
25EB
  8
0
 62
     0
 10
135.57149
 20
148.709157
 30
0.0
 11
136.97149
 21
148.709157
 31
0.0
  0
LINE
  5
25EC
  8
0
 62
     0
 10
136.67149
 20
148.509157
 30
0.0
 11
136.67149
 21
148.709157
 31
0.0
  0
LINE
  5
25ED
  8
0
 62
     0
 10
137.82149
 20
148.509157
 30
0.0
 11
137.97149
 21
148.509157
 31
0.0
  0
LINE
  5
25EE
  8
0
 62
     0
 10
140.47149
 20
148.509157
 30
0.0
 11
140.47149
 21
148.709157
 31
0.0
  0
LINE
  5
25EF
  8
0
 62
     0
 10
139.32149
 20
155.209157
 30
0.0
 11
137.82149
 21
155.209157
 31
0.0
  0
LINE
  5
25F0
  8
0
 62
     0
 10
137.97149
 20
155.109157
 30
0.0
 11
139.32149
 21
155.109157
 31
0.0
  0
LINE
  5
25F1
  8
0
 62
     0
 10
137.82149
 20
154.509157
 30
0.0
 11
137.97149
 21
154.509157
 31
0.0
  0
LINE
  5
25F2
  8
0
 62
     0
 10
137.82149
 20
154.109157
 30
0.0
 11
137.97149
 21
154.109157
 31
0.0
  0
LINE
  5
25F3
  8
0
 62
     0
 10
137.82149
 20
153.809157
 30
0.0
 11
137.97149
 21
153.809157
 31
0.0
  0
LINE
  5
25F4
  8
0
 62
     0
 10
135.52149
 20
165.309157
 30
0.0
 11
135.52149
 21
163.809157
 31
0.0
  0
LINE
  5
25F5
  8
0
 62
     0
 10
135.32149
 20
163.809157
 30
0.0
 11
135.32149
 21
165.309157
 31
0.0
  0
LINE
  5
25F6
  8
0
 62
     0
 10
135.52149
 20
162.309157
 30
0.0
 11
135.52149
 21
160.809157
 31
0.0
  0
LINE
  5
25F7
  8
0
 62
     0
 10
135.32149
 20
160.809157
 30
0.0
 11
135.32149
 21
162.309157
 31
0.0
  0
LINE
  5
25F8
  8
0
 62
     0
 10
135.52149
 20
168.309157
 30
0.0
 11
135.52149
 21
166.809157
 31
0.0
  0
LINE
  5
25F9
  8
0
 62
     0
 10
135.32149
 20
166.809157
 30
0.0
 11
135.32149
 21
168.309157
 31
0.0
  0
LINE
  5
25FA
  8
0
 62
     0
 10
142.32149
 20
149.809157
 30
0.0
 11
148.32149
 21
149.809157
 31
0.0
  0
LINE
  5
25FB
  8
0
 62
     0
 10
143.32149
 20
149.809157
 30
0.0
 11
143.32149
 21
150.109157
 31
0.0
  0
LINE
  5
25FC
  8
0
 62
     0
 10
141.57149
 20
148.709157
 30
0.0
 11
141.57149
 21
150.109157
 31
0.0
  0
LINE
  5
25FD
  8
0
 62
     0
 10
142.32149
 20
148.509157
 30
0.0
 11
142.32149
 21
149.809157
 31
0.0
  0
LINE
  5
25FE
  8
0
 62
     0
 10
151.82149
 20
154.409157
 30
0.0
 11
151.82149
 21
148.609157
 31
0.0
  0
LINE
  5
25FF
  8
0
 62
     0
 10
151.62149
 20
154.709157
 30
0.0
 11
151.62149
 21
148.709157
 31
0.0
  0
LINE
  5
2600
  8
0
 62
     0
 10
149.07149
 20
148.709157
 30
0.0
 11
150.47149
 21
148.709157
 31
0.0
  0
LINE
  5
2601
  8
0
 62
     0
 10
149.07149
 20
148.709157
 30
0.0
 11
149.07149
 21
150.109157
 31
0.0
  0
LINE
  5
2602
  8
0
 62
     0
 10
147.32149
 20
149.809157
 30
0.0
 11
147.32149
 21
150.109157
 31
0.0
  0
LINE
  5
2603
  8
0
 62
     0
 10
148.32149
 20
148.509157
 30
0.0
 11
148.32149
 21
149.809157
 31
0.0
  0
LINE
  5
2604
  8
0
 62
     0
 10
150.22149
 20
148.709157
 30
0.0
 11
150.22149
 21
148.509157
 31
0.0
  0
LINE
  5
2605
  8
0
 62
     0
 10
151.82149
 20
149.709157
 30
0.0
 11
151.62149
 21
149.709157
 31
0.0
  0
LINE
  5
2606
  8
0
 62
     0
 10
151.62149
 20
149.109157
 30
0.0
 11
151.82149
 21
149.109157
 31
0.0
  0
LINE
  5
2607
  8
0
 62
     0
 10
151.62149
 20
148.709157
 30
0.0
 11
151.27149
 21
148.709157
 31
0.0
  0
LINE
  5
2608
  8
0
 62
     0
 10
151.82149
 20
147.409157
 30
0.0
 11
151.82149
 21
147.209157
 31
0.0
  0
LINE
  5
2609
  8
0
 62
     0
 10
150.47149
 20
150.109157
 30
0.0
 11
151.27149
 21
150.780437
 31
0.0
  0
LINE
  5
260A
  8
0
 62
     0
 10
141.82149
 20
165.309157
 30
0.0
 11
141.82149
 21
163.809157
 31
0.0
  0
LINE
  5
260B
  8
0
 62
     0
 10
141.62149
 20
165.309157
 30
0.0
 11
141.62149
 21
163.809157
 31
0.0
  0
LINE
  5
260C
  8
0
 62
     0
 10
141.82149
 20
162.309157
 30
0.0
 11
141.82149
 21
160.809157
 31
0.0
  0
LINE
  5
260D
  8
0
 62
     0
 10
141.62149
 20
162.309157
 30
0.0
 11
141.62149
 21
160.809157
 31
0.0
  0
LINE
  5
260E
  8
0
 62
     0
 10
141.82149
 20
168.309157
 30
0.0
 11
141.82149
 21
166.809157
 31
0.0
  0
LINE
  5
260F
  8
0
 62
     0
 10
141.62149
 20
168.309157
 30
0.0
 11
141.62149
 21
166.809157
 31
0.0
  0
LINE
  5
2610
  8
0
 62
     0
 10
148.82149
 20
165.309157
 30
0.0
 11
148.82149
 21
163.809157
 31
0.0
  0
LINE
  5
2611
  8
0
 62
     0
 10
148.82149
 20
162.309157
 30
0.0
 11
148.82149
 21
160.809157
 31
0.0
  0
LINE
  5
2612
  8
0
 62
     0
 10
148.82149
 20
168.309157
 30
0.0
 11
148.82149
 21
166.809157
 31
0.0
  0
LINE
  5
2613
  8
0
 62
     0
 10
153.27149
 20
159.909157
 30
0.0
 11
153.27149
 21
138.709157
 31
0.0
  0
LINE
  5
2614
  8
0
 62
     0
 10
153.02149
 20
143.709157
 30
0.0
 11
153.02149
 21
147.209157
 31
0.0
  0
ARC
  5
2615
  8
0
 62
     0
 10
153.22149
 20
135.548051
 30
0.0
 40
0.700001
 50
324.349756
 51
0.0
  0
ARC
  5
2616
  8
0
 62
     0
 10
153.22149
 20
135.548051
 30
0.0
 40
1.0
 50
279.822676
 51
0.0
  0
LINE
  5
2617
  8
0
 62
     0
 10
153.790303
 20
135.140066
 30
0.0
 11
154.03408
 21
134.965215
 31
0.0
  0
POLYLINE
  5
2618
  8
0
 62
     0
 66
     1
 10
0.0
 20
0.0
 30
0.0
  0
VERTEX
  5
29EB
  8
0
 62
     0
 10
153.39209
 20
134.56271
 30
0.0
  0
VERTEX
  5
29EC
  8
0
 62
     0
 10
153.507902
 20
134.609806
 30
0.0
  0
VERTEX
  5
29ED
  8
0
 62
     0
 10
153.607888
 20
134.703984
 30
0.0
  0
VERTEX
  5
29EE
  8
0
 62
     0
 10
153.688053
 20
134.833139
 30
0.0
  0
VERTEX
  5
29EF
  8
0
 62
     0
 10
153.748244
 20
134.983155
 30
0.0
  0
VERTEX
  5
29F0
  8
0
 62
     0
 10
153.790303
 20
135.140066
 30
0.0
  0
SEQEND
  5
29F1
  8
0
 62
     0
  0
LINE
  5
2619
  8
0
 62
     0
 10
154.22149
 20
137.009157
 30
0.0
 11
154.32149
 21
137.009157
 31
0.0
  0
LINE
  5
261A
  8
0
 62
     0
 10
153.92149
 20
135.548051
 30
0.0
 11
154.22149
 21
135.548051
 31
0.0
  0
LINE
  5
261B
  8
0
 62
     0
 10
153.02149
 20
138.709157
 30
0.0
 11
153.02149
 21
139.709157
 31
0.0
  0
LINE
  5
261C
  8
0
 62
     0
 10
152.47149
 20
158.109157
 30
0.0
 11
152.47149
 21
148.609157
 31
0.0
  0
LINE
  5
261D
  8
0
 62
     0
 10
152.47149
 20
147.409157
 30
0.0
 11
152.47149
 21
147.209157
 31
0.0
  0
LINE
  5
261E
  8
0
 62
     0
 10
154.22149
 20
158.658587
 30
0.0
 11
154.32149
 21
158.658587
 31
0.0
  0
LINE
  5
261F
  8
0
 62
     0
 10
154.22149
 20
159.645802
 30
0.0
 11
154.32149
 21
159.645802
 31
0.0
  0
LINE
  5
2620
  8
0
 62
     0
 10
154.32149
 20
164.760073
 30
0.0
 11
154.22149
 21
164.760073
 31
0.0
  0
ARC
  5
2621
  8
0
 62
     0
 10
152.22149
 20
175.709157
 30
0.0
 40
3.9
 50
67.380135
 51
112.619865
  0
LINE
  5
2622
  8
0
 62
     0
 10
153.92149
 20
179.309157
 30
0.0
 11
150.57149
 21
179.309157
 31
0.0
  0
LINE
  5
2623
  8
0
 62
     0
 10
154.22149
 20
179.009157
 30
0.0
 11
150.67149
 21
179.009157
 31
0.0
  0
ARC
  5
2624
  8
0
 62
     0
 10
140.97149
 20
175.709157
 30
0.0
 40
3.9
 50
67.380135
 51
112.619865
  0
LINE
  5
2625
  8
0
 62
     0
 10
140.57149
 20
174.409157
 30
0.0
 11
152.17149
 21
174.409157
 31
0.0
  0
LINE
  5
2626
  8
0
 62
     0
 10
150.07149
 20
171.309157
 30
0.0
 11
140.57149
 21
171.309157
 31
0.0
  0
LINE
  5
2627
  8
0
 62
     0
 10
137.82149
 20
175.709157
 30
0.0
 11
139.32149
 21
175.709157
 31
0.0
  0
LINE
  5
2628
  8
0
 62
     0
 10
150.57149
 20
179.409157
 30
0.0
 11
143.07149
 21
179.409157
 31
0.0
  0
LINE
  5
2629
  8
0
 62
     0
 10
141.62149
 20
174.409157
 30
0.0
 11
141.62149
 21
176.709157
 31
0.0
  0
LINE
  5
262A
  8
0
 62
     0
 10
141.47149
 20
176.909157
 30
0.0
 11
141.47149
 21
174.409157
 31
0.0
  0
ARC
  5
262B
  8
0
 62
     0
 10
143.82149
 20
171.109157
 30
0.0
 40
2.0
 50
174.260799
 51
180.0
  0
LINE
  5
262C
  8
0
 62
     0
 10
143.07149
 20
179.409157
 30
0.0
 11
143.07149
 21
176.709157
 31
0.0
  0
LINE
  5
262D
  8
0
 62
     0
 10
142.97149
 20
179.309157
 30
0.0
 11
142.97149
 21
177.409157
 31
0.0
  0
LINE
  5
262E
  8
0
 62
     0
 10
142.47149
 20
176.909157
 30
0.0
 11
141.47149
 21
176.909157
 31
0.0
  0
LINE
  5
262F
  8
0
 62
     0
 10
141.47149
 20
176.709157
 30
0.0
 11
143.07149
 21
176.709157
 31
0.0
  0
ARC
  5
2630
  8
0
 62
     0
 10
142.47149
 20
177.409157
 30
0.0
 40
0.5
 50
270.0
 51
0.0
  0
LINE
  5
2631
  8
0
 62
     0
 10
152.17149
 20
174.409157
 30
0.0
 11
152.17149
 21
176.909157
 31
0.0
  0
LINE
  5
2632
  8
0
 62
     0
 10
152.02149
 20
174.409157
 30
0.0
 11
152.02149
 21
176.709157
 31
0.0
  0
ARC
  5
2633
  8
0
 62
     0
 10
146.82149
 20
171.109157
 30
0.0
 40
2.0
 50
0.0
 51
5.827235
  0
LINE
  5
2634
  8
0
 62
     0
 10
149.485844
 20
171.109157
 30
0.0
 11
148.82149
 21
171.109157
 31
0.0
  0
LINE
  5
2635
  8
0
 62
     0
 10
149.458244
 20
171.309157
 30
0.0
 11
149.485844
 21
171.109157
 31
0.0
  0
LINE
  5
2636
  8
0
 62
     0
 10
149.485397
 20
171.309157
 30
0.0
 11
149.485844
 21
171.109157
 31
0.0
  0
LINE
  5
2637
  8
0
 62
     0
 10
150.67149
 20
177.409157
 30
0.0
 11
150.67149
 21
179.309157
 31
0.0
  0
LINE
  5
2638
  8
0
 62
     0
 10
150.57149
 20
176.709157
 30
0.0
 11
150.57149
 21
179.409157
 31
0.0
  0
ARC
  5
2639
  8
0
 62
     0
 10
151.17149
 20
177.409157
 30
0.0
 40
0.5
 50
180.0
 51
270.0
  0
LINE
  5
263A
  8
0
 62
     0
 10
150.57149
 20
176.709157
 30
0.0
 11
152.17149
 21
176.709157
 31
0.0
  0
LINE
  5
263B
  8
0
 62
     0
 10
152.17149
 20
176.909157
 30
0.0
 11
151.17149
 21
176.909157
 31
0.0
  0
ARC
  5
263C
  8
0
 62
     0
 10
153.92149
 20
179.009157
 30
0.0
 40
0.3
 50
0.0
 51
90.0
  0
ENDSEC
  0
EOF
