  0
SECTION
  2
HEADER
  9
$ACADVER
  1
AC1012
  9
$DWGCODEPAGE
  3
ANSI_1252
  9
$INSBASE
 10
0.0
 20
0.0
 30
0.0
  9
$EXTMIN
 10
7.627447
 20
3.197199
 30
0.0
  9
$EXTMAX
 10
215.675858
 20
222.710596
 30
0.0
  9
$LIMMIN
 10
19.077216
 20
43.616976
  9
$LIMMAX
 10
194.084622
 20
146.65737
  9
$ORTHOMODE
 70
     0
  9
$REGENMODE
 70
     1
  9
$FILLMODE
 70
     1
  9
$QTEXTMODE
 70
     0
  9
$MIRRTEXT
 70
     1
  9
$DRAGMODE
 70
     2
  9
$LTSCALE
 40
10.0
  9
$OSMODE
 70
    37
  9
$ATTMODE
 70
     1
  9
$TEXTSIZE
 40
0.2
  9
$TRACEWID
 40
0.05
  9
$TEXTSTYLE
  7
STANDARD
  9
$CLAYER
  8
ALPHA
  9
$CELTYPE
  6
CONTINUOUS
  9
$CECOLOR
 62
   256
  9
$CELTSCALE
 40
1.0
  9
$DELOBJ
 70
     1
  9
$DISPSILH
 70
     0
  9
$DIMSCALE
 40
1.0
  9
$DIMASZ
 40
0.18
  9
$DIMEXO
 40
0.0625
  9
$DIMDLI
 40
0.38
  9
$DIMRND
 40
0.0
  9
$DIMDLE
 40
0.0
  9
$DIMEXE
 40
0.18
  9
$DIMTP
 40
0.0
  9
$DIMTM
 40
0.0
  9
$DIMTXT
 40
0.18
  9
$DIMCEN
 40
0.09
  9
$DIMTSZ
 40
0.0
  9
$DIMTOL
 70
     0
  9
$DIMLIM
 70
     0
  9
$DIMTIH
 70
     1
  9
$DIMTOH
 70
     1
  9
$DIMSE1
 70
     0
  9
$DIMSE2
 70
     0
  9
$DIMTAD
 70
     0
  9
$DIMZIN
 70
     0
  9
$DIMBLK
  1

  9
$DIMASO
 70
     1
  9
$DIMSHO
 70
     1
  9
$DIMPOST
  1

  9
$DIMAPOST
  1

  9
$DIMALT
 70
     0
  9
$DIMALTD
 70
     2
  9
$DIMALTF
 40
25.4
  9
$DIMLFAC
 40
1.0
  9
$DIMTOFL
 70
     0
  9
$DIMTVP
 40
0.0
  9
$DIMTIX
 70
     0
  9
$DIMSOXD
 70
     0
  9
$DIMSAH
 70
     0
  9
$DIMBLK1
  1

  9
$DIMBLK2
  1

  9
$DIMSTYLE
  2
STANDARD
  9
$DIMCLRD
 70
     0
  9
$DIMCLRE
 70
     0
  9
$DIMCLRT
 70
     0
  9
$DIMTFAC
 40
1.0
  9
$DIMGAP
 40
0.09
  9
$DIMJUST
 70
     0
  9
$DIMSD1
 70
     0
  9
$DIMSD2
 70
     0
  9
$DIMTOLJ
 70
     1
  9
$DIMTZIN
 70
     0
  9
$DIMALTZ
 70
     0
  9
$DIMALTTZ
 70
     0
  9
$DIMFIT
 70
     3
  9
$DIMUPT
 70
     0
  9
$DIMUNIT
 70
     2
  9
$DIMDEC
 70
     4
  9
$DIMTDEC
 70
     4
  9
$DIMALTU
 70
     2
  9
$DIMALTTD
 70
     2
  9
$DIMTXSTY
  7
STANDARD
  9
$DIMAUNIT
 70
     0
  9
$LUNITS
 70
     2
  9
$LUPREC
 70
     4
  9
$SKETCHINC
 40
0.1
  9
$FILLETRAD
 40
4.5
  9
$AUNITS
 70
     0
  9
$AUPREC
 70
     0
  9
$MENU
  1
acad
  9
$ELEVATION
 40
0.0
  9
$PELEVATION
 40
0.0
  9
$THICKNESS
 40
0.0
  9
$LIMCHECK
 70
     0
  9
$BLIPMODE
 70
     0
  9
$CHAMFERA
 40
0.0
  9
$CHAMFERB
 40
0.0
  9
$CHAMFERC
 40
0.0
  9
$CHAMFERD
 40
0.0
  9
$SKPOLY
 70
     0
  9
$TDCREATE
 40
2453634.371764132
  9
$TDUPDATE
 40
2454062.347243552
  9
$TDINDWG
 40
2.6408057060
  9
$TDUSRTIMER
 40
2.6408046181
  9
$USRTIMER
 70
     1
  9
$ANGBASE
 50
0.0
  9
$ANGDIR
 70
     0
  9
$PDMODE
 70
     0
  9
$PDSIZE
 40
0.0
  9
$PLINEWID
 40
0.0
  9
$COORDS
 70
     1
  9
$SPLFRAME
 70
     0
  9
$SPLINETYPE
 70
     6
  9
$SPLINESEGS
 70
     8
  9
$ATTDIA
 70
     0
  9
$ATTREQ
 70
     1
  9
$HANDLING
 70
     1
  9
$HANDSEED
  5
1ECDB
  9
$SURFTAB1
 70
     6
  9
$SURFTAB2
 70
     6
  9
$SURFTYPE
 70
     6
  9
$SURFU
 70
     6
  9
$SURFV
 70
     6
  9
$UCSNAME
  2

  9
$UCSORG
 10
0.0
 20
0.0
 30
0.0
  9
$UCSXDIR
 10
1.0
 20
0.0
 30
0.0
  9
$UCSYDIR
 10
0.0
 20
1.0
 30
0.0
  9
$PUCSNAME
  2

  9
$PUCSORG
 10
0.0
 20
0.0
 30
0.0
  9
$PUCSXDIR
 10
1.0
 20
0.0
 30
0.0
  9
$PUCSYDIR
 10
0.0
 20
1.0
 30
0.0
  9
$USERI1
 70
     0
  9
$USERI2
 70
     0
  9
$USERI3
 70
     0
  9
$USERI4
 70
     0
  9
$USERI5
 70
     0
  9
$USERR1
 40
0.0
  9
$USERR2
 40
0.0
  9
$USERR3
 40
0.0
  9
$USERR4
 40
0.0
  9
$USERR5
 40
0.0
  9
$WORLDVIEW
 70
     1
  9
$SHADEDGE
 70
     3
  9
$SHADEDIF
 70
    70
  9
$TILEMODE
 70
     1
  9
$MAXACTVP
 70
    16
  9
$PINSBASE
 10
0.0
 20
0.0
 30
0.0
  9
$PLIMCHECK
 70
     0
  9
$PEXTMIN
 10
1.000000E+20
 20
1.000000E+20
 30
1.000000E+20
  9
$PEXTMAX
 10
-1.000000E+20
 20
-1.000000E+20
 30
-1.000000E+20
  9
$PLIMMIN
 10
0.0
 20
0.0
  9
$PLIMMAX
 10
12.0
 20
9.0
  9
$UNITMODE
 70
     0
  9
$VISRETAIN
 70
     0
  9
$PLINEGEN
 70
     1
  9
$PSLTSCALE
 70
     0
  9
$TREEDEPTH
 70
  3020
  9
$PICKSTYLE
 70
     0
  9
$CMLSTYLE
  2
STANDARD
  9
$CMLJUST
 70
     0
  9
$CMLSCALE
 40
1.0
  9
$SAVEIMAGES
 70
     0
  0
ENDSEC
  0
SECTION
  2
CLASSES
  0
CLASS
  1
LWPOLYLINE
  2
AcDbPolyline
  3
"AutoCAD"
 90
    32768
280
     0
281
     1
  0
CLASS
  1
IMAGE
  2
AcDbRasterImage
  3
ISM
 90
    32895
280
     0
281
     1
  0
CLASS
  1
OLE2FRAME
  2
AcDbOle2Frame
  3
""
 90
    32768
280
     0
281
     1
  0
CLASS
  1
HATCH
  2
AcDbHatch
  3
"ACAD_SEDONA"
 90
    32768
280
     0
281
     1
  0
CLASS
  1
DICTIONARYVAR
  2
AcDbDictionaryVar
  3
"AutoCAD"
 90
    32768
280
     0
281
     0
  0
CLASS
  1
RASTERVARIABLES
  2
AcDbRasterVariables
  3
ISM
 90
    32768
280
     0
281
     0
  0
CLASS
  1
IMAGEDEF
  2
AcDbRasterImageDef
  3
ISM
 90
    32768
280
     0
281
     0
  0
CLASS
  1
IMAGEDEF_REACTOR
  2
AcDbRasterImageDefReactor
  3
ISM
 90
    32769
280
     0
281
     0
  0
CLASS
  1
SPATIAL_FILTER
  2
AcDbSpatialFilter
  3
"Acad"
 90
    32768
280
     0
281
     0
  0
CLASS
  1
XRECORD
  2
AcDbXrecord
  3
"<Built In>"
 90
    32768
280
     0
281
     0
  0
CLASS
  1
SORTENTSTABLE
  2
AcDbSortentsTable
  3
"AutoCAD"
 90
    32768
280
     0
281
     0
  0
CLASS
  1
LAYER_INDEX
  2
AcDbLayerIndex
  3
"Acad"
 90
    32768
280
     0
281
     0
  0
CLASS
  1
SPATIAL_INDEX
  2
AcDbSpatialIndex
  3
"Acad"
 90
    32768
280
     0
281
     0
  0
CLASS
  1
OBJECT_PTR
  2
CAseDLPNTableRecord
  3
ASE-LPNTableRecord
 90
    32769
280
     0
281
     0
  0
CLASS
  1
LAYOUT
  2
AcDbLayout
  3
AutoCAD 2000
 90
    32768
280
     0
281
     0
  0
CLASS
  1
PLOTSETTINGS
  2
AcDbPlotSettings
  3
AutoCAD 2000
 90
    32768
280
     0
281
     0
  0
CLASS
  1
ACDBDICTIONARYWDFLT
  2
AcDbDictionaryWithDefault
  3
AutoCAD 2000
 90
    32768
280
     0
281
     0
  0
CLASS
  1
ACDBPLACEHOLDER
  2
AcDbPlaceHolder
  3
AutoCAD 2000
 90
    32768
280
     0
281
     0
  0
CLASS
  1
VBA_PROJECT
  2
AcDbVbaProject
  3
acad
 90
    32768
280
     0
281
     0
  0
CLASS
  1
WIPEOUT
  2
AcDbWipeout
  3
WipeOut|AutoCAD Express Tool|expresstools@autodesk.com
 90
    32895
280
     0
281
     1
  0
CLASS
  1
WIPEOUTVARIABLES
  2
AcDbWipeoutVariables
  3
WipeOut|AutoCAD Express Tool|expresstools@autodesk.com
 90
    32768
280
     0
281
     0
  0
CLASS
  1
RTEXT
  2
RText
  3
RText|AutoCAD Express Tool|expresstools@autodesk.com
 90
    32768
280
     0
281
     1
  0
CLASS
  1
ARCALIGNEDTEXT
  2
AcDbArcAlignedText
  3
ATEXT|AutoCAD Express Tool|expresstools@autodesk.com
 90
    32768
280
     0
281
     1
  0
CLASS
  1
TABLESTYLE
  2
AcDbTableStyle
  3
ObjectDBX Classes
 90
    34815
280
     0
281
     0
  0
CLASS
  1
ACAD_PROXY_OBJECT_WRAPPER
  2
AcDbProxyObjectWrapper
  3
AutoCAD 2000
 90
    32768
280
     0
281
     0
  0
CLASS
  1
LONG_TRANSACTION
  2
AcDbLongTransaction
  3
AutoCAD 2000
 90
    32768
280
     0
281
     0
  0
CLASS
  1
LWPOLYLINE
  2
AcDbPolyline
  3
"AutoCAD"
 90
    32768
280
     0
281
     1
  0
CLASS
  1
HATCH
  2
AcDbHatch
  3
"ACAD_SEDONA"
 90
    32768
280
     0
281
     1
  0
CLASS
  1
XRECORD
  2
AcDbXrecord
  3
"<Built In>"
 90
    32768
280
     0
281
     0
  0
ENDSEC
  0
SECTION
  2
TABLES
  0
TABLE
  2
VPORT
  5
7
100
AcDbSymbolTable
 70
     2
  0
VPORT
  5
1ECDA
100
AcDbSymbolTableRecord
100
AcDbViewportTableRecord
  2
*ACTIVE
 70
     0
 10
0.0
 20
0.0
 11
1.0
 21
1.0
 12
111.651652
 22
112.953898
 13
0.0
 23
0.0
 14
1.0
 24
1.0
 15
0.0
 25
0.0
 16
0.0
 26
0.0
 36
1.0
 17
0.0
 27
0.0
 37
0.0
 40
221.796032
 41
1.673611
 42
50.0
 43
0.0
 44
0.0
 50
0.0
 51
0.0
 71
     0
 72
   100
 73
     1
 74
     2
 75
     0
 76
     0
 77
     0
 78
     0
  0
ENDTAB
  0
TABLE
  2
LTYPE
  5
4
100
AcDbSymbolTable
 70
     2
  0
LTYPE
  5
11
102
{ACAD_XDICTIONARY
360
1EC97
102
}
100
AcDbSymbolTableRecord
100
AcDbLinetypeTableRecord
  2
BYBLOCK
 70
     0
  3

 72
    65
 73
     0
 40
0.0
  0
LTYPE
  5
12
102
{ACAD_XDICTIONARY
360
1EC99
102
}
100
AcDbSymbolTableRecord
100
AcDbLinetypeTableRecord
  2
BYLAYER
 70
     0
  3

 72
    65
 73
     0
 40
0.0
  0
LTYPE
  5
13
102
{ACAD_XDICTIONARY
360
1EC9B
102
}
100
AcDbSymbolTableRecord
100
AcDbLinetypeTableRecord
  2
CONTINUOUS
 70
     0
  3
Solid line
 72
    65
 73
     0
 40
0.0
  0
LTYPE
  5
725
100
AcDbSymbolTableRecord
100
AcDbLinetypeTableRecord
  2
AXES2
 70
     0
  3
___ _ ___ _ ___ _ ___ _ ___ _ ___ _ ___ _ ___ _
 72
    65
 73
     4
 40
1.125
 49
0.75
 74
     0
 49
-0.125
 74
     0
 49
0.125
 74
     0
 49
-0.125
 74
     0
  0
ENDTAB
  0
TABLE
  2
LAYER
  5
2
102
{ACAD_XDICTIONARY
360
26F0
102
}
100
AcDbSymbolTable
 70
     5
  0
LAYER
  5
14
100
AcDbSymbolTableRecord
100
AcDbLayerTableRecord
  2
0
 70
     0
 62
     7
  6
CONTINUOUS
  0
LAYER
  5
6EC
102
{ACAD_XDICTIONARY
360
1EC95
102
}
100
AcDbSymbolTableRecord
100
AcDbLayerTableRecord
  2
DEFPOINTS
 70
     0
 62
     7
  6
CONTINUOUS
  0
LAYER
  5
727
100
AcDbSymbolTableRecord
100
AcDbLayerTableRecord
  2
COTATION1
 70
     0
 62
     2
  6
CONTINUOUS
  0
LAYER
  5
728
100
AcDbSymbolTableRecord
100
AcDbLayerTableRecord
  2
AXE
 70
     0
 62
    80
  6
AXES2
  0
LAYER
  5
729
100
AcDbSymbolTableRecord
100
AcDbLayerTableRecord
  2
ALPHA
 70
     0
 62
   254
  6
CONTINUOUS
  0
ENDTAB
  0
TABLE
  2
STYLE
  5
3
100
AcDbSymbolTable
 70
     2
  0
STYLE
  5
17
102
{ACAD_XDICTIONARY
360
1ECA1
102
}
100
AcDbSymbolTableRecord
100
AcDbTextStyleTableRecord
  2
STANDARD
 70
     0
 40
0.0
 41
1.0
 50
0.0
 71
     0
 42
0.0
  3
txt
  4

  0
STYLE
  5
72B
100
AcDbSymbolTableRecord
100
AcDbTextStyleTableRecord
  2
ROMANS
 70
     0
 40
0.0
 41
1.0
 50
0.0
 71
     0
 42
6.0
  3
romans
  4

  0
ENDTAB
  0
TABLE
  2
VIEW
  5
5
100
AcDbSymbolTable
 70
     0
  0
ENDTAB
  0
TABLE
  2
UCS
  5
6
100
AcDbSymbolTable
 70
     0
  0
ENDTAB
  0
TABLE
  2
APPID
  5
8
100
AcDbSymbolTable
 70
     4
  0
APPID
  5
16
100
AcDbSymbolTableRecord
100
AcDbRegAppTableRecord
  2
ACAD
 70
     0
  0
APPID
  5
26EF
102
{ACAD_XDICTIONARY
360
1EC9D
102
}
100
AcDbSymbolTableRecord
100
AcDbRegAppTableRecord
  2
ACAECLAYERSTANDARD
 70
     0
  0
APPID
  5
320E
100
AcDbSymbolTableRecord
100
AcDbRegAppTableRecord
  2
DCO15
 70
     0
  0
APPID
  5
3569
102
{ACAD_XDICTIONARY
360
1EC9F
102
}
100
AcDbSymbolTableRecord
100
AcDbRegAppTableRecord
  2
ACAD_EXEMPT_FROM_CAD_STAND
 70
     0
  0
ENDTAB
  0
TABLE
  2
DIMSTYLE
  5
9
100
AcDbSymbolTable
 70
     2
  0
DIMSTYLE
105
18
102
{ACAD_XDICTIONARY
360
1EC93
102
}
100
AcDbSymbolTableRecord
100
AcDbDimStyleTableRecord
  2
STANDARD
 70
     0
  3

  4

  5

  6

  7

 40
1.0
 41
0.18
 42
0.0625
 43
0.38
 44
0.18
 45
0.0
 46
0.0
 47
0.0
 48
0.0
140
0.18
141
0.09
142
0.0
143
25.4
144
1.0
145
0.0
146
1.0
147
0.09
 71
     0
 72
     0
 73
     1
 74
     1
 75
     0
 76
     0
 77
     0
 78
     0
170
     0
171
     2
172
     0
173
     0
174
     0
175
     0
176
     0
177
     0
178
     0
270
     2
271
     4
272
     4
273
     2
274
     2
340
17
275
     0
280
     0
281
     0
282
     0
283
     1
284
     0
285
     0
286
     0
287
     3
288
     0
  0
DIMSTYLE
105
72C
102
{ACAD_XDICTIONARY
360
1ECD1
102
}
102
{ACAD_REACTORS
330
1D8EF
330
1DAE7
330
1DBA9
330
1DBDA
330
1DC62
102
}
100
AcDbSymbolTableRecord
100
AcDbDimStyleTableRecord
  2
SC_DEFAUT
 70
     0
  3

  4

  5
OPEN30
  6

  7

 40
1.0
 41
5.0
 42
2.0
 43
0.38
 44
2.5
 45
0.0
 46
0.0
 47
0.0
 48
0.0
140
2.5
141
0.0
142
0.0
143
25.4
144
1.0
145
0.0
146
1.0
147
2.0
 71
     0
 72
     0
 73
     1
 74
     1
 75
     0
 76
     0
 77
     1
 78
    12
170
     0
171
     2
172
     0
173
     0
174
     0
175
     0
176
     0
177
     0
178
     0
270
     2
271
     1
272
     1
273
     2
274
     2
340
72B
275
     0
280
     0
281
     0
282
     0
283
     1
284
    12
285
    12
286
    12
287
     5
288
     0
  0
ENDTAB
  0
TABLE
  2
BLOCK_RECORD
  5
1
100
AcDbSymbolTable
 70
     6
  0
BLOCK_RECORD
  5
A
102
{ACAD_XDICTIONARY
360
7D7
102
}
100
AcDbSymbolTableRecord
100
AcDbBlockTableRecord
  2
*MODEL_SPACE
  0
BLOCK_RECORD
  5
B
102
{ACAD_XDICTIONARY
360
1ECC7
102
}
100
AcDbSymbolTableRecord
100
AcDbBlockTableRecord
  2
*PAPER_SPACE
  0
BLOCK_RECORD
  5
6FA
100
AcDbSymbolTableRecord
100
AcDbBlockTableRecord
  2
_OPEN30
  0
BLOCK_RECORD
  5
1D8FC
100
AcDbSymbolTableRecord
100
AcDbBlockTableRecord
  2
*D1
  0
BLOCK_RECORD
  5
1DAE8
100
AcDbSymbolTableRecord
100
AcDbBlockTableRecord
  2
*D2
  0
BLOCK_RECORD
  5
1DBAA
100
AcDbSymbolTableRecord
100
AcDbBlockTableRecord
  2
*D3
  0
BLOCK_RECORD
  5
1DBDB
100
AcDbSymbolTableRecord
100
AcDbBlockTableRecord
  2
*D4
  0
BLOCK_RECORD
  5
1DC63
100
AcDbSymbolTableRecord
100
AcDbBlockTableRecord
  2
*D5
  0
ENDTAB
  0
ENDSEC
  0
SECTION
  2
BLOCKS
  0
BLOCK
  5
D
100
AcDbEntity
  8
0
100
AcDbBlockBegin
  2
*MODEL_SPACE
 70
     0
 10
0.0
 20
0.0
 30
0.0
  3
*MODEL_SPACE
  1

  0
ENDBLK
  5
E
100
AcDbEntity
  8
0
100
AcDbBlockEnd
  0
BLOCK
  5
F
100
AcDbEntity
 67
     1
  8
0
100
AcDbBlockBegin
  2
*PAPER_SPACE
 70
     0
 10
0.0
 20
0.0
 30
0.0
  3
*PAPER_SPACE
  1

  0
ENDBLK
  5
10
100
AcDbEntity
 67
     1
  8
0
100
AcDbBlockEnd
  0
BLOCK
  5
6FB
100
AcDbEntity
  8
0
100
AcDbBlockBegin
  2
_OPEN30
 70
     0
 10
0.0
 20
0.0
 30
0.0
  3
_OPEN30
  1

  0
LINE
  5
6FC
100
AcDbEntity
  8
COTATION1
 62
     0
100
AcDbLine
 10
-1.0
 20
0.267949
 30
0.0
 11
0.0
 21
0.0
 31
0.0
1001
ACAD
1000
RTLwPs
1070
   158
  0
LINE
  5
6FD
100
AcDbEntity
  8
COTATION1
 62
     0
100
AcDbLine
 10
0.0
 20
0.0
 30
0.0
 11
-1.0
 21
-0.267949
 31
0.0
1001
ACAD
1000
RTLwPs
1070
   158
  0
LINE
  5
6FE
100
AcDbEntity
  8
COTATION1
 62
     0
100
AcDbLine
 10
0.0
 20
0.0
 30
0.0
 11
-1.0
 21
0.0
 31
0.0
1001
ACAD
1000
RTLwPs
1070
   158
  0
ENDBLK
  5
6FF
100
AcDbEntity
  8
0
100
AcDbBlockEnd
  0
BLOCK
  5
1D906
100
AcDbEntity
  8
0
100
AcDbBlockBegin
  2
*D1
 70
     1
 10
0.0
 20
0.0
 30
0.0
  3
*D1
  1

1001
ACAD
1000
RTLwPs
1070
   128
  0
LINE
  5
1EC59
100
AcDbEntity
  8
COTATION1
 62
     0
100
AcDbLine
 10
92.633795
 20
200.203897
 30
0.0
 11
92.633795
 21
210.703897
 31
0.0
1001
ACAD
1000
RTLwPs
1070
   158
  0
LINE
  5
1EC5A
100
AcDbEntity
  8
COTATION1
 62
     0
100
AcDbLine
 10
17.633795
 20
187.703897
 30
0.0
 11
17.633795
 21
210.703897
 31
0.0
1001
ACAD
1000
RTLwPs
1070
   158
  0
LINE
  5
1EC5B
100
AcDbEntity
  8
COTATION1
 62
     0
100
AcDbLine
 10
87.633795
 20
208.203897
 30
0.0
 11
22.633795
 21
208.203897
 31
0.0
1001
ACAD
1000
RTLwPs
1070
   158
  0
INSERT
  5
1EC5C
100
AcDbEntity
  8
COTATION1
 62
     0
100
AcDbBlockReference
  2
_OPEN30
 10
92.633795
 20
208.203897
 30
0.0
 41
5.0
 42
5.0
 43
5.0
1001
ACAD
1000
RTLwPs
1070
   158
  0
INSERT
  5
1EC5D
100
AcDbEntity
  8
COTATION1
 62
     0
100
AcDbBlockReference
  2
_OPEN30
 10
17.633795
 20
208.203897
 30
0.0
 41
5.0
 42
5.0
 43
5.0
 50
180.0
1001
ACAD
1000
RTLwPs
1070
   158
  0
MTEXT
  5
1EC5E
100
AcDbEntity
  8
COTATION1
 62
     0
100
AcDbMText
 10
55.133795
 20
211.453897
 30
0.0
 40
2.5
 41
0.0
 71
     5
 72
     1
  1
\A1;=
  7
ROMANS
1001
ACAD
1000
MTEXTBEGIN
1070
    73
1070
     1
1070
    44
1040
1.0
1070
    74
1070
     0
1000
MTEXTEND
1000
MTEXTBEGIN
1070
    73
1070
     1
1070
    44
1040
1.0
1070
    74
1070
     0
1000
MTEXTEND
  0
POINT
  5
1EC5F
100
AcDbEntity
  8
DEFPOINTS
 62
     0
100
AcDbPoint
 10
92.633795
 20
198.203897
 30
0.0
1001
ACAD
1000
RTLwPs
1070
   128
  0
POINT
  5
1EC60
100
AcDbEntity
  8
DEFPOINTS
 62
     0
100
AcDbPoint
 10
17.633795
 20
185.703897
 30
0.0
1001
ACAD
1000
RTLwPs
1070
   128
  0
POINT
  5
1EC61
100
AcDbEntity
  8
DEFPOINTS
 62
     0
100
AcDbPoint
 10
17.633795
 20
208.203897
 30
0.0
1001
ACAD
1000
RTLwPs
1070
   128
  0
ENDBLK
  5
1D907
100
AcDbEntity
  8
0
100
AcDbBlockEnd
1001
ACAD
1000
RTLwPs
1070
   128
  0
BLOCK
  5
1DAF3
100
AcDbEntity
  8
0
100
AcDbBlockBegin
  2
*D2
 70
     1
 10
0.0
 20
0.0
 30
0.0
  3
*D2
  1

1001
ACAD
1000
RTLwPs
1070
   128
  0
LINE
  5
1EC62
100
AcDbEntity
  8
COTATION1
 62
     0
100
AcDbLine
 10
101.163173
 20
180.203897
 30
0.0
 11
200.133795
 21
180.203897
 31
0.0
1001
ACAD
1000
RTLwPs
1070
   158
  0
LINE
  5
1EC63
100
AcDbEntity
  8
COTATION1
 62
     0
100
AcDbLine
 10
101.163173
 20
26.203897
 30
0.0
 11
200.133795
 21
26.203897
 31
0.0
1001
ACAD
1000
RTLwPs
1070
   158
  0
LINE
  5
1EC64
100
AcDbEntity
  8
COTATION1
 62
     0
100
AcDbLine
 10
197.633795
 20
175.203897
 30
0.0
 11
197.633795
 21
106.453897
 31
0.0
1001
ACAD
1000
RTLwPs
1070
   158
  0
LINE
  5
1EC65
100
AcDbEntity
  8
COTATION1
 62
     0
100
AcDbLine
 10
197.633795
 20
31.203897
 30
0.0
 11
197.633795
 21
99.953897
 31
0.0
1001
ACAD
1000
RTLwPs
1070
   158
  0
INSERT
  5
1EC66
100
AcDbEntity
  8
COTATION1
 62
     0
100
AcDbBlockReference
  2
_OPEN30
 10
197.633795
 20
180.203897
 30
0.0
 41
5.0
 42
5.0
 43
5.0
 50
90.0
1001
ACAD
1000
RTLwPs
1070
   158
  0
INSERT
  5
1EC67
100
AcDbEntity
  8
COTATION1
 62
     0
100
AcDbBlockReference
  2
_OPEN30
 10
197.633795
 20
26.203897
 30
0.0
 41
5.0
 42
5.0
 43
5.0
 50
270.0
1001
ACAD
1000
RTLwPs
1070
   158
  0
MTEXT
  5
1EC68
100
AcDbEntity
  8
COTATION1
 62
     0
100
AcDbMText
 10
197.633795
 20
103.203897
 30
0.0
 40
2.5
 41
0.0
 71
     5
 72
     1
  1
\A1;154
  7
ROMANS
1001
ACAD
1000
MTEXTBEGIN
1070
    73
1070
     1
1070
    44
1040
1.0
1070
    74
1070
     0
1000
MTEXTEND
1000
MTEXTBEGIN
1070
    73
1070
     1
1070
    44
1040
1.0
1070
    74
1070
     0
1000
MTEXTEND
  0
POINT
  5
1EC69
100
AcDbEntity
  8
DEFPOINTS
 62
     0
100
AcDbPoint
 10
99.163173
 20
180.203897
 30
0.0
1001
ACAD
1000
RTLwPs
1070
   128
  0
POINT
  5
1EC6A
100
AcDbEntity
  8
DEFPOINTS
 62
     0
100
AcDbPoint
 10
99.163173
 20
26.203897
 30
0.0
1001
ACAD
1000
RTLwPs
1070
   128
  0
POINT
  5
1EC6B
100
AcDbEntity
  8
DEFPOINTS
 62
     0
100
AcDbPoint
 10
197.633795
 20
26.203897
 30
0.0
1001
ACAD
1000
RTLwPs
1070
   128
  0
ENDBLK
  5
1DAF4
100
AcDbEntity
  8
0
100
AcDbBlockEnd
1001
ACAD
1000
RTLwPs
1070
   128
  0
BLOCK
  5
1DBB4
100
AcDbEntity
  8
0
100
AcDbBlockBegin
  2
*D3
 70
     1
 10
0.0
 20
0.0
 30
0.0
  3
*D3
  1

1001
ACAD
1000
RTLwPs
1070
   128
  0
LINE
  5
1EC6C
100
AcDbEntity
  8
COTATION1
 62
     0
100
AcDbLine
 10
167.633795
 20
187.703897
 30
0.0
 11
167.633795
 21
220.703897
 31
0.0
1001
ACAD
1000
RTLwPs
1070
   158
  0
LINE
  5
1EC6D
100
AcDbEntity
  8
COTATION1
 62
     0
100
AcDbLine
 10
17.633795
 20
187.703897
 30
0.0
 11
17.633795
 21
220.703897
 31
0.0
1001
ACAD
1000
RTLwPs
1070
   158
  0
LINE
  5
1EC6E
100
AcDbEntity
  8
COTATION1
 62
     0
100
AcDbLine
 10
162.633795
 20
218.203897
 30
0.0
 11
22.633795
 21
218.203897
 31
0.0
1001
ACAD
1000
RTLwPs
1070
   158
  0
INSERT
  5
1EC6F
100
AcDbEntity
  8
COTATION1
 62
     0
100
AcDbBlockReference
  2
_OPEN30
 10
167.633795
 20
218.203897
 30
0.0
 41
5.0
 42
5.0
 43
5.0
1001
ACAD
1000
RTLwPs
1070
   158
  0
INSERT
  5
1EC70
100
AcDbEntity
  8
COTATION1
 62
     0
100
AcDbBlockReference
  2
_OPEN30
 10
17.633795
 20
218.203897
 30
0.0
 41
5.0
 42
5.0
 43
5.0
 50
180.0
1001
ACAD
1000
RTLwPs
1070
   158
  0
MTEXT
  5
1EC71
100
AcDbEntity
  8
COTATION1
 62
     0
100
AcDbMText
 10
92.633795
 20
221.453897
 30
0.0
 40
2.5
 41
0.0
 71
     5
 72
     1
  1
\A1;150
  7
ROMANS
1001
ACAD
1000
MTEXTBEGIN
1070
    73
1070
     1
1070
    44
1040
1.0
1070
    74
1070
     0
1000
MTEXTEND
1000
MTEXTBEGIN
1070
    73
1070
     1
1070
    44
1040
1.0
1070
    74
1070
     0
1000
MTEXTEND
  0
POINT
  5
1EC72
100
AcDbEntity
  8
DEFPOINTS
 62
     0
100
AcDbPoint
 10
167.633795
 20
185.703897
 30
0.0
1001
ACAD
1000
RTLwPs
1070
   128
  0
POINT
  5
1EC73
100
AcDbEntity
  8
DEFPOINTS
 62
     0
100
AcDbPoint
 10
17.633795
 20
185.703897
 30
0.0
1001
ACAD
1000
RTLwPs
1070
   128
  0
POINT
  5
1EC74
100
AcDbEntity
  8
DEFPOINTS
 62
     0
100
AcDbPoint
 10
17.633795
 20
218.203897
 30
0.0
1001
ACAD
1000
RTLwPs
1070
   128
  0
ENDBLK
  5
1DBB5
100
AcDbEntity
  8
0
100
AcDbBlockEnd
1001
ACAD
1000
RTLwPs
1070
   128
  0
BLOCK
  5
1DBE5
100
AcDbEntity
  8
0
100
AcDbBlockBegin
  2
*D4
 70
     1
 10
0.0
 20
0.0
 30
0.0
  3
*D4
  1

1001
ACAD
1000
RTLwPs
1070
   128
  0
LINE
  5
1EC75
100
AcDbEntity
  8
COTATION1
 62
     0
100
AcDbLine
 10
167.633795
 20
187.703897
 30
0.0
 11
167.633795
 21
210.703897
 31
0.0
1001
ACAD
1000
RTLwPs
1070
   158
  0
LINE
  5
1EC76
100
AcDbEntity
  8
COTATION1
 62
     0
100
AcDbLine
 10
92.633795
 20
200.203897
 30
0.0
 11
92.633795
 21
210.703897
 31
0.0
1001
ACAD
1000
RTLwPs
1070
   158
  0
LINE
  5
1EC77
100
AcDbEntity
  8
COTATION1
 62
     0
100
AcDbLine
 10
162.633795
 20
208.203897
 30
0.0
 11
97.633795
 21
208.203897
 31
0.0
1001
ACAD
1000
RTLwPs
1070
   158
  0
INSERT
  5
1EC78
100
AcDbEntity
  8
COTATION1
 62
     0
100
AcDbBlockReference
  2
_OPEN30
 10
167.633795
 20
208.203897
 30
0.0
 41
5.0
 42
5.0
 43
5.0
1001
ACAD
1000
RTLwPs
1070
   158
  0
INSERT
  5
1EC79
100
AcDbEntity
  8
COTATION1
 62
     0
100
AcDbBlockReference
  2
_OPEN30
 10
92.633795
 20
208.203897
 30
0.0
 41
5.0
 42
5.0
 43
5.0
 50
180.0
1001
ACAD
1000
RTLwPs
1070
   158
  0
MTEXT
  5
1EC7A
100
AcDbEntity
  8
COTATION1
 62
     0
100
AcDbMText
 10
130.133795
 20
211.453897
 30
0.0
 40
2.5
 41
0.0
 71
     5
 72
     1
  1
\A1;=
  7
ROMANS
1001
ACAD
1000
MTEXTBEGIN
1070
    73
1070
     1
1070
    44
1040
1.0
1070
    74
1070
     0
1000
MTEXTEND
1000
MTEXTBEGIN
1070
    73
1070
     1
1070
    44
1040
1.0
1070
    74
1070
     0
1000
MTEXTEND
  0
POINT
  5
1EC7B
100
AcDbEntity
  8
DEFPOINTS
 62
     0
100
AcDbPoint
 10
167.633795
 20
185.703897
 30
0.0
1001
ACAD
1000
RTLwPs
1070
   128
  0
POINT
  5
1EC7C
100
AcDbEntity
  8
DEFPOINTS
 62
     0
100
AcDbPoint
 10
92.633795
 20
198.203897
 30
0.0
1001
ACAD
1000
RTLwPs
1070
   128
  0
POINT
  5
1EC7D
100
AcDbEntity
  8
DEFPOINTS
 62
     0
100
AcDbPoint
 10
92.633795
 20
208.203897
 30
0.0
1001
ACAD
1000
RTLwPs
1070
   128
  0
ENDBLK
  5
1DBE6
100
AcDbEntity
  8
0
100
AcDbBlockEnd
1001
ACAD
1000
RTLwPs
1070
   128
  0
BLOCK
  5
1DC6E
100
AcDbEntity
  8
0
100
AcDbBlockBegin
  2
*D5
 70
     1
 10
0.0
 20
0.0
 30
0.0
  3
*D5
  1

1001
ACAD
1000
RTLwPs
1070
   128
  0
LINE
  5
1EC7E
100
AcDbEntity
  8
COTATION1
 62
     0
100
AcDbLine
 10
167.133795
 20
188.203897
 30
0.0
 11
215.133795
 21
188.203897
 31
0.0
1001
ACAD
1000
RTLwPs
1070
   158
  0
LINE
  5
1EC7F
100
AcDbEntity
  8
COTATION1
 62
     0
100
AcDbLine
 10
167.133795
 20
18.203897
 30
0.0
 11
215.133795
 21
18.203897
 31
0.0
1001
ACAD
1000
RTLwPs
1070
   158
  0
LINE
  5
1EC80
100
AcDbEntity
  8
COTATION1
 62
     0
100
AcDbLine
 10
212.633795
 20
183.203897
 30
0.0
 11
212.633795
 21
106.453897
 31
0.0
1001
ACAD
1000
RTLwPs
1070
   158
  0
LINE
  5
1EC81
100
AcDbEntity
  8
COTATION1
 62
     0
100
AcDbLine
 10
212.633795
 20
23.203897
 30
0.0
 11
212.633795
 21
99.953897
 31
0.0
1001
ACAD
1000
RTLwPs
1070
   158
  0
INSERT
  5
1EC82
100
AcDbEntity
  8
COTATION1
 62
     0
100
AcDbBlockReference
  2
_OPEN30
 10
212.633795
 20
188.203897
 30
0.0
 41
5.0
 42
5.0
 43
5.0
 50
90.0
1001
ACAD
1000
RTLwPs
1070
   158
  0
INSERT
  5
1EC83
100
AcDbEntity
  8
COTATION1
 62
     0
100
AcDbBlockReference
  2
_OPEN30
 10
212.633795
 20
18.203897
 30
0.0
 41
5.0
 42
5.0
 43
5.0
 50
270.0
1001
ACAD
1000
RTLwPs
1070
   158
  0
MTEXT
  5
1EC84
100
AcDbEntity
  8
COTATION1
 62
     0
100
AcDbMText
 10
212.633795
 20
103.203897
 30
0.0
 40
2.5
 41
0.0
 71
     5
 72
     1
  1
\A1;170
  7
ROMANS
1001
ACAD
1000
MTEXTBEGIN
1070
    73
1070
     1
1070
    44
1040
1.0
1070
    74
1070
     0
1000
MTEXTEND
1000
MTEXTBEGIN
1070
    73
1070
     1
1070
    44
1040
1.0
1070
    74
1070
     0
1000
MTEXTEND
  0
POINT
  5
1EC85
100
AcDbEntity
  8
DEFPOINTS
 62
     0
100
AcDbPoint
 10
165.133795
 20
188.203897
 30
0.0
1001
ACAD
1000
RTLwPs
1070
   128
  0
POINT
  5
1EC86
100
AcDbEntity
  8
DEFPOINTS
 62
     0
100
AcDbPoint
 10
165.133795
 20
18.203897
 30
0.0
1001
ACAD
1000
RTLwPs
1070
   128
  0
POINT
  5
1EC87
100
AcDbEntity
  8
DEFPOINTS
 62
     0
100
AcDbPoint
 10
212.633795
 20
18.203897
 30
0.0
1001
ACAD
1000
RTLwPs
1070
   128
  0
ENDBLK
  5
1DC6F
100
AcDbEntity
  8
0
100
AcDbBlockEnd
1001
ACAD
1000
RTLwPs
1070
   128
  0
ENDSEC
  0
SECTION
  2
ENTITIES
  0
DIMENSION
  5
1D8EF
100
AcDbEntity
  8
COTATION1
100
AcDbDimension
  2
*D1
 10
17.633795
 20
208.203897
 30
0.0
 11
55.133795
 21
211.453897
 31
0.0
 70
    32
  1
=
  3
SC_DEFAUT
100
AcDbAlignedDimension
 13
92.633795
 23
198.203897
 33
0.0
 14
17.633795
 24
185.703897
 34
0.0
100
AcDbRotatedDimension
  0
LINE
  5
1DA20
100
AcDbEntity
  8
ALPHA
  6
CONTINUOUS
100
AcDbLine
 10
17.633795
 20
103.203897
 30
0.0
 11
17.633795
 21
185.703897
 31
0.0
1001
ACAD
1000
RTLwPs
1070
   128
  0
LINE
  5
1DA22
100
AcDbEntity
  8
ALPHA
  6
CONTINUOUS
100
AcDbLine
 10
92.633795
 20
188.203897
 30
0.0
 11
88.977139
 21
188.203897
 31
0.0
1001
ACAD
1000
RTLwPs
1070
   128
  0
ARC
  5
1DA25
100
AcDbEntity
  8
ALPHA
  6
CONTINUOUS
100
AcDbCircle
 10
20.133795
 20
185.703897
 30
0.0
 40
2.5
100
AcDbArc
 50
90.0
 51
180.0
1001
ACAD
1000
RTLwPs
1070
   128
  0
LINE
  5
1DA2C
100
AcDbEntity
  8
ALPHA
  6
CONTINUOUS
100
AcDbLine
 10
17.633795
 20
175.203897
 30
0.0
 11
92.633795
 21
175.203897
 31
0.0
1001
ACAD
1000
RTLwPs
1070
   128
  0
LINE
  5
1DA2D
100
AcDbEntity
  8
ALPHA
  6
CONTINUOUS
100
AcDbLine
 10
68.633795
 20
129.703897
 30
0.0
 11
92.633795
 21
129.703897
 31
0.0
1001
ACAD
1000
RTLwPs
1070
   128
  0
LINE
  5
1DA2F
100
AcDbEntity
  8
ALPHA
  6
CONTINUOUS
100
AcDbLine
 10
66.133795
 20
103.203897
 30
0.0
 11
66.133795
 21
127.203897
 31
0.0
1001
ACAD
1000
RTLwPs
1070
   128
  0
ARC
  5
1DA30
100
AcDbEntity
  8
ALPHA
  6
CONTINUOUS
100
AcDbCircle
 10
68.633795
 20
127.203897
 30
0.0
 40
2.5
100
AcDbArc
 50
90.0
 51
180.0
1001
ACAD
1000
RTLwPs
1070
   128
  0
ARC
  5
1DA31
100
AcDbEntity
  8
ALPHA
  6
CONTINUOUS
100
AcDbCircle
 10
92.633795
 20
103.203897
 30
0.0
 40
18.5
100
AcDbArc
 50
11.378631
 51
90.0
1001
ACAD
1000
RTLwPs
1070
   128
  0
LINE
  5
1DA32
100
AcDbEntity
  8
ALPHA
  6
CONTINUOUS
100
AcDbLine
 10
67.633795
 20
132.203897
 30
0.0
 11
67.633795
 21
159.203897
 31
0.0
1001
ACAD
1000
RTLwPs
1070
   128
  0
ARC
  5
1DA34
100
AcDbEntity
  8
ALPHA
  6
CONTINUOUS
100
AcDbCircle
 10
70.133795
 20
159.203897
 30
0.0
 40
2.5
100
AcDbArc
 50
90.0
 51
180.0
1001
ACAD
1000
RTLwPs
1070
   128
  0
ARC
  5
1DA35
100
AcDbEntity
  8
ALPHA
  6
CONTINUOUS
100
AcDbCircle
 10
70.133795
 20
132.203897
 30
0.0
 40
2.5
100
AcDbArc
 50
180.0
 51
270.0
1001
ACAD
1000
RTLwPs
1070
   128
  0
LINE
  5
1DA55
100
AcDbEntity
  8
ALPHA
  6
CONTINUOUS
100
AcDbLine
 10
117.633795
 20
132.203897
 30
0.0
 11
117.633795
 21
159.203897
 31
0.0
1001
ACAD
1000
RTLwPs
1070
   128
  0
ARC
  5
1DA56
100
AcDbEntity
  8
ALPHA
  6
CONTINUOUS
100
AcDbCircle
 10
115.133795
 20
159.203897
 30
0.0
 40
2.5
100
AcDbArc
 50
0.0
 51
90.0
1001
ACAD
1000
RTLwPs
1070
   128
  0
LINE
  5
1DA57
100
AcDbEntity
  8
ALPHA
  6
CONTINUOUS
100
AcDbLine
 10
119.133795
 20
103.203897
 30
0.0
 11
119.133795
 21
127.203897
 31
0.0
1001
ACAD
1000
RTLwPs
1070
   128
  0
LINE
  5
1DA58
100
AcDbEntity
  8
ALPHA
  6
CONTINUOUS
100
AcDbLine
 10
92.633795
 20
188.203897
 30
0.0
 11
165.133795
 21
188.203897
 31
0.0
1001
ACAD
1000
RTLwPs
1070
   128
  0
ARC
  5
1DA59
100
AcDbEntity
  8
ALPHA
  6
CONTINUOUS
100
AcDbCircle
 10
165.133795
 20
185.703897
 30
0.0
 40
2.5
100
AcDbArc
 50
0.0
 51
90.0
1001
ACAD
1000
RTLwPs
1070
   128
  0
LINE
  5
1DA5A
100
AcDbEntity
  8
ALPHA
  6
CONTINUOUS
100
AcDbLine
 10
167.633795
 20
175.203897
 30
0.0
 11
92.633795
 21
175.203897
 31
0.0
1001
ACAD
1000
RTLwPs
1070
   128
  0
LINE
  5
1DA5E
100
AcDbEntity
  8
ALPHA
  6
CONTINUOUS
100
AcDbLine
 10
116.633795
 20
129.703897
 30
0.0
 11
92.633795
 21
129.703897
 31
0.0
1001
ACAD
1000
RTLwPs
1070
   128
  0
ARC
  5
1DA5F
100
AcDbEntity
  8
ALPHA
  6
CONTINUOUS
100
AcDbCircle
 10
115.133795
 20
132.203897
 30
0.0
 40
2.5
100
AcDbArc
 50
270.0
 51
0.0
1001
ACAD
1000
RTLwPs
1070
   128
  0
ARC
  5
1DA61
100
AcDbEntity
  8
ALPHA
  6
CONTINUOUS
100
AcDbCircle
 10
116.633795
 20
127.203897
 30
0.0
 40
2.5
100
AcDbArc
 50
0.0
 51
90.0
1001
ACAD
1000
RTLwPs
1070
   128
  0
LINE
  5
1DA70
100
AcDbEntity
  8
ALPHA
  6
CONTINUOUS
100
AcDbLine
 10
167.633795
 20
103.203897
 30
0.0
 11
167.633795
 21
185.703897
 31
0.0
1001
ACAD
1000
RTLwPs
1070
   128
  0
LINE
  5
1DA81
100
AcDbEntity
  8
ALPHA
  6
CONTINUOUS
100
AcDbLine
 10
17.633795
 20
103.203897
 30
0.0
 11
17.633795
 21
20.703897
 31
0.0
1001
ACAD
1000
RTLwPs
1070
   128
  0
LINE
  5
1DA83
100
AcDbEntity
  8
ALPHA
  6
CONTINUOUS
100
AcDbLine
 10
66.133795
 20
103.203897
 30
0.0
 11
66.133795
 21
79.203897
 31
0.0
1001
ACAD
1000
RTLwPs
1070
   128
  0
LINE
  5
1DA84
100
AcDbEntity
  8
ALPHA
  6
CONTINUOUS
100
AcDbLine
 10
92.633795
 20
18.203897
 30
0.0
 11
88.977139
 21
18.203897
 31
0.0
1001
ACAD
1000
RTLwPs
1070
   128
  0
ARC
  5
1DA85
100
AcDbEntity
  8
ALPHA
  6
CONTINUOUS
100
AcDbCircle
 10
20.133795
 20
20.703897
 30
0.0
 40
2.5
100
AcDbArc
 50
180.0
 51
270.0
1001
ACAD
1000
RTLwPs
1070
   128
  0
LINE
  5
1DA86
100
AcDbEntity
  8
ALPHA
  6
CONTINUOUS
100
AcDbLine
 10
17.633795
 20
31.203897
 30
0.0
 11
88.133795
 21
31.203897
 31
0.0
1001
ACAD
1000
RTLwPs
1070
   128
  0
LINE
  5
1DA87
100
AcDbEntity
  8
ALPHA
  6
CONTINUOUS
100
AcDbLine
 10
81.633795
 20
31.203897
 30
0.0
 11
92.633795
 21
31.203897
 31
0.0
1001
ACAD
1000
RTLwPs
1070
   128
  0
LINE
  5
1DA88
100
AcDbEntity
  8
ALPHA
  6
CONTINUOUS
100
AcDbLine
 10
84.281161
 20
19.203897
 30
0.0
 11
86.715096
 21
19.203897
 31
0.0
1001
ACAD
1000
RTLwPs
1070
   128
  0
LINE
  5
1DA89
100
AcDbEntity
  8
ALPHA
  6
CONTINUOUS
100
AcDbLine
 10
88.629471
 20
19.203897
 30
0.0
 11
92.633795
 21
19.203897
 31
0.0
1001
ACAD
1000
RTLwPs
1070
   128
  0
LINE
  5
1DA8A
100
AcDbEntity
  8
ALPHA
  6
CONTINUOUS
100
AcDbLine
 10
68.633795
 20
76.703897
 30
0.0
 11
92.633795
 21
76.703897
 31
0.0
1001
ACAD
1000
RTLwPs
1070
   128
  0
ARC
  5
1DA8C
100
AcDbEntity
  8
ALPHA
  6
CONTINUOUS
100
AcDbCircle
 10
68.633795
 20
79.203897
 30
0.0
 40
2.5
100
AcDbArc
 50
180.0
 51
270.0
1001
ACAD
1000
RTLwPs
1070
   128
  0
CIRCLE
  5
1DA8D
100
AcDbEntity
  8
ALPHA
  6
CONTINUOUS
100
AcDbCircle
 10
92.633795
 20
26.203897
 30
0.0
 40
3.529379
1001
ACAD
1000
RTLwPs
1070
   128
  0
SPLINE
  5
1DA8E
100
AcDbEntity
  8
ALPHA
  6
CONTINUOUS
100
AcDbSpline
210
0.0
220
0.0
230
1.0
 70
     8
 71
     3
 72
     8
 73
     4
 74
     0
 42
0.0000001
 43
0.0000001
 40
3.0
 40
3.0
 40
3.0
 40
3.0
 40
4.0
 40
4.0
 40
4.0
 40
4.0
 10
81.63379477479612
 20
31.20389706885521
 30
0.0
 10
82.56763797696066
 20
27.77773799601891
 30
0.0
 10
84.00650074765849
 20
23.55772360141645
 30
0.0
 10
84.28116051300117
 20
19.20389706885498
 30
0.0
1001
ACAD
1000
RTLwPs
1070
   128
  0
SPLINE
  5
1DA8F
100
AcDbEntity
  8
ALPHA
  6
CONTINUOUS
100
AcDbSpline
210
0.0
220
0.0
230
-1.0
 70
     8
 71
     3
 72
    11
 73
     7
 74
     0
 42
0.0000001
 43
0.0000001
 40
0.0
 40
0.0
 40
0.0
 40
0.0
 40
1.0
 40
1.0
 40
1.0
 40
2.0
 40
2.0
 40
2.0
 40
2.0
 10
88.69520874182899
 20
31.20389706885521
 30
0.0
 10
86.74423840865348
 20
31.20389706885521
 30
0.0
 10
85.16538775755543
 20
28.36249749642457
 30
0.0
 10
85.16538775755543
 20
26.41329916173595
 30
0.0
 10
85.16538775755543
 20
25.11265227295302
 30
0.0
 10
84.72770413149328
 20
20.04945974436782
 30
0.0
 10
84.28116051300117
 20
19.20389706885498
 30
0.0
1001
ACAD
1000
RTLwPs
1070
   128
  0
CIRCLE
  5
1DA90
100
AcDbEntity
  8
ALPHA
  6
CONTINUOUS
100
AcDbCircle
 10
92.63291
 20
26.204339
 30
0.0
 40
2.841163
1001
ACAD
1000
RTLwPs
1070
   128
  0
SPLINE
  5
1DA91
100
AcDbEntity
  8
ALPHA
  6
CONTINUOUS
100
AcDbSpline
210
0.0
220
0.0
230
-1.0
 70
     8
 71
     3
 72
    11
 73
     7
 74
     0
 42
0.0000001
 43
0.0000001
 40
10.0
 40
10.0
 40
10.0
 40
10.0
 40
11.0
 40
11.0
 40
11.0
 40
12.0
 40
12.0
 40
12.0
 40
12.0
 10
86.68571215389453
 20
19.10683433733765
 30
0.0
 10
86.81329604489212
 20
19.5826159308508
 30
0.0
 10
87.15883574967813
 20
19.99017558264858
 30
0.0
 10
87.64613533335056
 20
19.99017558264858
 30
0.0
 10
88.13343491702301
 20
19.99017558264858
 30
0.0
 10
88.50732659758557
 20
19.5826159308508
 30
0.0
 10
88.66503446284685
 20
19.10683433733765
 30
0.0
1001
ACAD
1000
RTLwPs
1070
   128
  0
LINE
  5
1DA92
100
AcDbEntity
  8
ALPHA
  6
CONTINUOUS
100
AcDbLine
 10
88.665034
 20
19.106834
 30
0.0
 11
88.977139
 21
18.203897
 31
0.0
1001
ACAD
1000
RTLwPs
1070
   128
  0
LINE
  5
1DA93
100
AcDbEntity
  8
ALPHA
  6
CONTINUOUS
100
AcDbLine
 10
86.685712
 20
19.106834
 30
0.0
 11
86.314074
 21
18.203897
 31
0.0
1001
ACAD
1000
RTLwPs
1070
   128
  0
LINE
  5
1DA95
100
AcDbEntity
  8
ALPHA
  6
CONTINUOUS
100
AcDbLine
 10
119.133795
 20
103.203897
 30
0.0
 11
119.133795
 21
79.203897
 31
0.0
1001
ACAD
1000
RTLwPs
1070
   128
  0
LINE
  5
1DA96
100
AcDbEntity
  8
ALPHA
  6
CONTINUOUS
100
AcDbLine
 10
92.633795
 20
18.203897
 30
0.0
 11
165.133795
 21
18.203897
 31
0.0
1001
ACAD
1000
RTLwPs
1070
   128
  0
ARC
  5
1DA97
100
AcDbEntity
  8
ALPHA
  6
CONTINUOUS
100
AcDbCircle
 10
165.133795
 20
20.703897
 30
0.0
 40
2.5
100
AcDbArc
 50
270.0
 51
0.0
1001
ACAD
1000
RTLwPs
1070
   128
  0
LINE
  5
1DA98
100
AcDbEntity
  8
ALPHA
  6
CONTINUOUS
100
AcDbLine
 10
167.633795
 20
31.203897
 30
0.0
 11
97.133795
 21
31.203897
 31
0.0
1001
ACAD
1000
RTLwPs
1070
   128
  0
LINE
  5
1DA99
100
AcDbEntity
  8
ALPHA
  6
CONTINUOUS
100
AcDbLine
 10
103.633795
 20
31.203897
 30
0.0
 11
92.633795
 21
31.203897
 31
0.0
1001
ACAD
1000
RTLwPs
1070
   128
  0
LINE
  5
1DA9A
100
AcDbEntity
  8
ALPHA
  6
CONTINUOUS
100
AcDbLine
 10
100.986429
 20
19.203897
 30
0.0
 11
92.633795
 21
19.203897
 31
0.0
1001
ACAD
1000
RTLwPs
1070
   128
  0
LINE
  5
1DA9B
100
AcDbEntity
  8
ALPHA
  6
CONTINUOUS
100
AcDbLine
 10
116.633795
 20
76.703897
 30
0.0
 11
92.633795
 21
76.703897
 31
0.0
1001
ACAD
1000
RTLwPs
1070
   128
  0
ARC
  5
1DA9E
100
AcDbEntity
  8
ALPHA
  6
CONTINUOUS
100
AcDbCircle
 10
116.633795
 20
79.203897
 30
0.0
 40
2.5
100
AcDbArc
 50
270.0
 51
0.0
1001
ACAD
1000
RTLwPs
1070
   128
  0
SPLINE
  5
1DA9F
100
AcDbEntity
  8
ALPHA
  6
CONTINUOUS
100
AcDbSpline
210
0.0
220
0.0
230
-1.0
 70
     8
 71
     3
 72
     8
 73
     4
 74
     0
 42
0.0000001
 43
0.0000001
 40
3.0
 40
3.0
 40
3.0
 40
3.0
 40
4.0
 40
4.0
 40
4.0
 40
4.0
 10
103.6337947747962
 20
31.20389706885521
 30
0.0
 10
102.6999515726316
 20
27.77773799601891
 30
0.0
 10
101.2610888019338
 20
23.55772360141645
 30
0.0
 10
100.9864290365911
 20
19.20389706885498
 30
0.0
1001
ACAD
1000
RTLwPs
1070
   128
  0
SPLINE
  5
1DAA0
100
AcDbEntity
  8
ALPHA
  6
CONTINUOUS
100
AcDbSpline
210
0.0
220
0.0
230
1.0
 70
     8
 71
     3
 72
    11
 73
     7
 74
     0
 42
0.0000001
 43
0.0000001
 40
0.0
 40
0.0
 40
0.0
 40
0.0
 40
1.0
 40
1.0
 40
1.0
 40
2.0
 40
2.0
 40
2.0
 40
2.0
 10
96.57238080776336
 20
31.20389706885521
 30
0.0
 10
98.52335114093888
 20
31.20389706885521
 30
0.0
 10
100.1022017920369
 20
28.36249749642457
 30
0.0
 10
100.1022017920369
 20
26.41329916173595
 30
0.0
 10
100.1022017920369
 20
25.11265227295302
 30
0.0
 10
100.539885418099
 20
20.04945974436782
 30
0.0
 10
100.9864290365911
 20
19.20389706885498
 30
0.0
1001
ACAD
1000
RTLwPs
1070
   128
  0
LINE
  5
1DAA1
100
AcDbEntity
  8
ALPHA
  6
CONTINUOUS
100
AcDbLine
 10
167.633795
 20
103.203897
 30
0.0
 11
167.633795
 21
20.703897
 31
0.0
1001
ACAD
1000
RTLwPs
1070
   128
  0
LINE
  5
1DAA2
100
AcDbEntity
  8
ALPHA
  6
CONTINUOUS
100
AcDbLine
 10
90.287672
 20
27.686615
 30
0.0
 11
91.772607
 21
26.194592
 31
0.0
1001
ACAD
1000
RTLwPs
1070
   128
  0
LINE
  5
1DAA3
100
AcDbEntity
  8
ALPHA
  6
CONTINUOUS
100
AcDbLine
 10
91.772607
 20
26.194592
 30
0.0
 11
90.875975
 21
25.30062
 31
0.0
1001
ACAD
1000
RTLwPs
1070
   128
  0
LINE
  5
1DAA4
100
AcDbEntity
  8
ALPHA
  6
CONTINUOUS
100
AcDbLine
 10
90.875975
 20
25.30062
 30
0.0
 11
91.733619
 21
24.44386
 31
0.0
1001
ACAD
1000
RTLwPs
1070
   128
  0
LINE
  5
1DAA5
100
AcDbEntity
  8
ALPHA
  6
CONTINUOUS
100
AcDbLine
 10
91.733619
 20
24.44386
 30
0.0
 11
92.628481
 21
25.337833
 31
0.0
1001
ACAD
1000
RTLwPs
1070
   128
  0
LINE
  5
1DAA6
100
AcDbEntity
  8
ALPHA
  6
CONTINUOUS
100
AcDbLine
 10
92.628481
 20
25.337833
 30
0.0
 11
94.113416
 21
23.855558
 31
0.0
1001
ACAD
1000
RTLwPs
1070
   128
  0
LINE
  5
1DAA7
100
AcDbEntity
  8
ALPHA
  6
CONTINUOUS
100
AcDbLine
 10
91.14886
 20
28.547808
 30
0.0
 11
92.642657
 21
27.065533
 31
0.0
1001
ACAD
1000
RTLwPs
1070
   128
  0
LINE
  5
1DAA8
100
AcDbEntity
  8
ALPHA
  6
CONTINUOUS
100
AcDbLine
 10
92.642657
 20
27.065533
 30
0.0
 11
93.537515
 21
27.96039
 31
0.0
1001
ACAD
1000
RTLwPs
1070
   128
  0
LINE
  5
1DAA9
100
AcDbEntity
  8
ALPHA
  6
CONTINUOUS
100
AcDbLine
 10
93.537515
 20
27.96039
 30
0.0
 11
94.395164
 21
27.101856
 31
0.0
1001
ACAD
1000
RTLwPs
1070
   128
  0
LINE
  5
1DAAA
100
AcDbEntity
  8
ALPHA
  6
CONTINUOUS
100
AcDbLine
 10
94.395164
 20
27.101856
 30
0.0
 11
93.500301
 21
26.209658
 31
0.0
1001
ACAD
1000
RTLwPs
1070
   128
  0
LINE
  5
1DAAB
100
AcDbEntity
  8
ALPHA
  6
CONTINUOUS
100
AcDbLine
 10
93.500301
 20
26.209658
 30
0.0
 11
94.983467
 21
24.726492
 31
0.0
1001
ACAD
1000
RTLwPs
1070
   128
  0
LINE
  5
1DAAC
100
AcDbEntity
  8
ALPHA
  6
CONTINUOUS
100
AcDbLine
 10
88.133795
 20
31.203897
 30
0.0
 11
88.133795
 21
76.703897
 31
0.0
1001
ACAD
1000
RTLwPs
1070
   128
  0
LINE
  5
1DAAD
100
AcDbEntity
  8
ALPHA
  6
CONTINUOUS
100
AcDbLine
 10
97.133795
 20
31.203897
 30
0.0
 11
97.133795
 21
76.703897
 31
0.0
1001
ACAD
1000
RTLwPs
1070
   128
  0
LINE
  5
1DAAF
100
AcDbEntity
  8
ALPHA
  6
CONTINUOUS
100
AcDbLine
 10
97.133795
 20
32.203897
 30
0.0
 11
88.133795
 21
32.203897
 31
0.0
1001
ACAD
1000
RTLwPs
1070
   128
  0
LINE
  5
1DAB0
100
AcDbEntity
  8
ALPHA
  6
CONTINUOUS
100
AcDbLine
 10
109.133795
 20
107.703897
 30
0.0
 11
92.633795
 21
107.703897
 31
0.0
1001
ACAD
1000
RTLwPs
1070
   128
  0
LINE
  5
1DAB1
100
AcDbEntity
  8
ALPHA
  6
CONTINUOUS
100
AcDbLine
 10
109.133795
 20
98.703897
 30
0.0
 11
92.633795
 21
98.703897
 31
0.0
1001
ACAD
1000
RTLwPs
1070
   128
  0
LINE
  5
1DAB8
100
AcDbEntity
  8
ALPHA
  6
CONTINUOUS
100
AcDbLine
 10
111.133795
 20
100.703897
 30
0.0
 11
111.133795
 21
105.703897
 31
0.0
1001
ACAD
1000
RTLwPs
1070
   128
  0
ARC
  5
1DAB9
100
AcDbEntity
  8
ALPHA
  6
CONTINUOUS
100
AcDbCircle
 10
109.133795
 20
100.703897
 30
0.0
 40
2.0
100
AcDbArc
 50
270.0
 51
0.0
1001
ACAD
1000
RTLwPs
1070
   128
  0
ARC
  5
1DABA
100
AcDbEntity
  8
ALPHA
  6
CONTINUOUS
100
AcDbCircle
 10
109.133795
 20
105.703897
 30
0.0
 40
2.0
100
AcDbArc
 50
0.0
 51
90.0
1001
ACAD
1000
RTLwPs
1070
   128
  0
ARC
  5
1DABB
100
AcDbEntity
  8
ALPHA
  6
CONTINUOUS
100
AcDbCircle
 10
92.633795
 20
103.203897
 30
0.0
 40
18.5
100
AcDbArc
 50
270.0
 51
348.621369
1001
ACAD
1000
RTLwPs
1070
   128
  0
ARC
  5
1DABC
100
AcDbEntity
  8
ALPHA
  6
CONTINUOUS
100
AcDbCircle
 10
92.633795
 20
103.203897
 30
0.0
 40
18.5
100
AcDbArc
 50
90.0
 51
168.621369
1001
ACAD
1000
RTLwPs
1070
   128
  0
ARC
  5
1DABD
100
AcDbEntity
  8
ALPHA
  6
CONTINUOUS
100
AcDbCircle
 10
92.633795
 20
103.203897
 30
0.0
 40
18.5
100
AcDbArc
 50
191.378631
 51
270.0
1001
ACAD
1000
RTLwPs
1070
   128
  0
LINE
  5
1DABE
100
AcDbEntity
  8
ALPHA
  6
CONTINUOUS
100
AcDbLine
 10
76.133795
 20
107.703897
 30
0.0
 11
92.633795
 21
107.703897
 31
0.0
1001
ACAD
1000
RTLwPs
1070
   128
  0
LINE
  5
1DABF
100
AcDbEntity
  8
ALPHA
  6
CONTINUOUS
100
AcDbLine
 10
76.133795
 20
98.703897
 30
0.0
 11
92.633795
 21
98.703897
 31
0.0
1001
ACAD
1000
RTLwPs
1070
   128
  0
LINE
  5
1DAC0
100
AcDbEntity
  8
ALPHA
  6
CONTINUOUS
100
AcDbLine
 10
74.133795
 20
100.703897
 30
0.0
 11
74.133795
 21
105.703897
 31
0.0
1001
ACAD
1000
RTLwPs
1070
   128
  0
ARC
  5
1DAC1
100
AcDbEntity
  8
ALPHA
  6
CONTINUOUS
100
AcDbCircle
 10
76.133795
 20
105.703897
 30
0.0
 40
2.0
100
AcDbArc
 50
90.0
 51
180.0
1001
ACAD
1000
RTLwPs
1070
   128
  0
ARC
  5
1DAC2
100
AcDbEntity
  8
ALPHA
  6
CONTINUOUS
100
AcDbCircle
 10
76.133795
 20
100.703897
 30
0.0
 40
2.0
100
AcDbArc
 50
180.0
 51
270.0
1001
ACAD
1000
RTLwPs
1070
   128
  0
SPLINE
  5
1DAC6
100
AcDbEntity
  8
ALPHA
  6
CONTINUOUS
100
AcDbSpline
210
-1.0
220
0.0
230
0.0
 70
    24
 71
     3
 72
     8
 73
     4
 74
     0
 42
0.0000001
 43
0.0000001
 40
3.0
 40
3.0
 40
3.0
 40
3.0
 40
4.0
 40
4.0
 40
4.0
 40
4.0
 10
110.2935331917428
 20
103.2052282811814
 30
0.0
 10
110.2935331917428
 20
103.2052282811814
 30
0.0
 10
110.2935331917428
 20
103.2034562826952
 30
0.0
 10
110.2935331917428
 20
103.2034562826952
 30
0.0
1001
ACAD
1000
RTLwPs
1070
   128
  0
LINE
  5
1DACA
100
AcDbEntity
  8
ALPHA
  6
CONTINUOUS
100
AcDbLine
 10
75.693491
 20
103.205229
 30
0.0
 11
79.668084
 21
101.21793
 31
0.0
1001
ACAD
1000
RTLwPs
1070
   128
  0
LINE
  5
1DACB
100
AcDbEntity
  8
ALPHA
  6
CONTINUOUS
100
AcDbLine
 10
79.668084
 20
101.21793
 30
0.0
 11
79.668084
 21
105.189869
 31
0.0
1001
ACAD
1000
RTLwPs
1070
   128
  0
LINE
  5
1DACC
100
AcDbEntity
  8
ALPHA
  6
CONTINUOUS
100
AcDbLine
 10
79.668084
 20
105.189869
 30
0.0
 11
75.693491
 21
103.205229
 31
0.0
1001
ACAD
1000
RTLwPs
1070
   128
  0
LINE
  5
1DACD
100
AcDbEntity
  8
ALPHA
  6
CONTINUOUS
100
AcDbLine
 10
81.133795
 20
98.703897
 30
0.0
 11
81.133795
 21
101.703897
 31
0.0
1001
ACAD
1000
RTLwPs
1070
   128
  0
LINE
  5
1DACE
100
AcDbEntity
  8
ALPHA
  6
CONTINUOUS
100
AcDbLine
 10
108.633795
 20
101.703897
 30
0.0
 11
81.133795
 21
101.703897
 31
0.0
1001
ACAD
1000
RTLwPs
1070
   128
  0
LINE
  5
1DACF
100
AcDbEntity
  8
ALPHA
  6
CONTINUOUS
100
AcDbLine
 10
108.633795
 20
104.703897
 30
0.0
 11
81.133795
 21
104.703897
 31
0.0
1001
ACAD
1000
RTLwPs
1070
   128
  0
LINE
  5
1DAD0
100
AcDbEntity
  8
ALPHA
  6
CONTINUOUS
100
AcDbLine
 10
81.133795
 20
104.703897
 30
0.0
 11
81.133795
 21
107.703897
 31
0.0
1001
ACAD
1000
RTLwPs
1070
   128
  0
ARC
  5
1DAD2
100
AcDbEntity
  8
ALPHA
  6
CONTINUOUS
100
AcDbCircle
 10
108.633795
 20
103.203897
 30
0.0
 40
1.5
100
AcDbArc
 50
270.0
 51
90.0
1001
ACAD
1000
RTLwPs
1070
   128
  0
LINE
  5
1DAE5
100
AcDbEntity
  8
AXE
100
AcDbLine
 10
182.633795
 20
103.203897
 30
0.0
 11
7.633795
 21
103.203897
 31
0.0
  0
TEXT
  5
1DAE6
100
AcDbEntity
  8
AXE
100
AcDbText
 10
176.117922
 20
104.208167
 30
0.0
 40
8.0
  1
X
  7
ROMANS
 72
     2
 11
182.594113
 21
104.208167
 31
0.0
100
AcDbText
  0
DIMENSION
  5
1DAE7
100
AcDbEntity
  8
COTATION1
100
AcDbDimension
  2
*D2
 10
197.633795
 20
26.203897
 30
0.0
 11
197.633795
 21
103.203897
 31
0.0
 70
    32
  3
SC_DEFAUT
100
AcDbAlignedDimension
 13
99.163173
 23
180.203897
 33
0.0
 14
99.163173
 24
26.203897
 34
0.0
 50
90.0
100
AcDbRotatedDimension
  0
LINE
  5
1DB59
100
AcDbEntity
  8
AXE
100
AcDbLine
 10
92.633795
 20
198.203897
 30
0.0
 11
92.633795
 21
3.203897
 31
0.0
  0
TEXT
  5
1DB5A
100
AcDbEntity
  8
AXE
100
AcDbText
 10
85.157604
 20
3.203897
 30
0.0
 40
8.0
  1
Y
  7
ROMANS
 72
     2
 11
91.633795
 21
3.203897
 31
0.0
100
AcDbText
  0
LINE
  5
1DB5C
100
AcDbEntity
  8
AXE
100
AcDbLine
 10
99.163173
 20
26.203897
 30
0.0
 11
86.104416
 21
26.203897
 31
0.0
  0
LINE
  5
1DB5F
100
AcDbEntity
  8
ALPHA
  6
CONTINUOUS
100
AcDbLine
 10
81.633795
 20
175.203897
 30
0.0
 11
92.633795
 21
175.203897
 31
0.0
1001
ACAD
1000
RTLwPs
1070
   128
  0
LINE
  5
1DB60
100
AcDbEntity
  8
ALPHA
  6
CONTINUOUS
100
AcDbLine
 10
84.281161
 20
187.203897
 30
0.0
 11
86.715096
 21
187.203897
 31
0.0
1001
ACAD
1000
RTLwPs
1070
   128
  0
LINE
  5
1DB61
100
AcDbEntity
  8
ALPHA
  6
CONTINUOUS
100
AcDbLine
 10
88.629471
 20
187.203897
 30
0.0
 11
92.633795
 21
187.203897
 31
0.0
1001
ACAD
1000
RTLwPs
1070
   128
  0
CIRCLE
  5
1DB62
100
AcDbEntity
  8
ALPHA
  6
CONTINUOUS
100
AcDbCircle
 10
92.633795
 20
180.203897
 30
0.0
 40
3.529379
1001
ACAD
1000
RTLwPs
1070
   128
  0
SPLINE
  5
1DB63
100
AcDbEntity
  8
ALPHA
  6
CONTINUOUS
100
AcDbSpline
210
0.0
220
0.0
230
1.0
 70
     8
 71
     3
 72
     8
 73
     4
 74
     0
 42
0.0000001
 43
0.0000001
 40
3.0
 40
3.0
 40
3.0
 40
3.0
 40
4.0
 40
4.0
 40
4.0
 40
4.0
 10
81.63379477479612
 20
175.2038970688538
 30
0.0
 10
82.56763797696066
 20
178.6300561416901
 30
0.0
 10
84.00650074765849
 20
182.8500705362926
 30
0.0
 10
84.28116051300117
 20
187.203897068854
 30
0.0
1001
ACAD
1000
RTLwPs
1070
   128
  0
SPLINE
  5
1DB64
100
AcDbEntity
  8
ALPHA
  6
CONTINUOUS
100
AcDbSpline
210
0.0
220
0.0
230
-1.0
 70
     8
 71
     3
 72
    11
 73
     7
 74
     0
 42
0.0000001
 43
0.0000001
 40
0.0
 40
0.0
 40
0.0
 40
0.0
 40
1.0
 40
1.0
 40
1.0
 40
2.0
 40
2.0
 40
2.0
 40
2.0
 10
88.69520874182899
 20
175.2038970688538
 30
0.0
 10
86.74423840865348
 20
175.2038970688538
 30
0.0
 10
85.16538775755543
 20
178.0452966412845
 30
0.0
 10
85.16538775755543
 20
179.9944949759731
 30
0.0
 10
85.16538775755543
 20
181.295141864756
 30
0.0
 10
84.72770413149328
 20
186.3583343933412
 30
0.0
 10
84.28116051300117
 20
187.203897068854
 30
0.0
1001
ACAD
1000
RTLwPs
1070
   128
  0
CIRCLE
  5
1DB65
100
AcDbEntity
  8
ALPHA
  6
CONTINUOUS
100
AcDbCircle
 10
92.63291
 20
180.203455
 30
0.0
 40
2.841163
1001
ACAD
1000
RTLwPs
1070
   128
  0
SPLINE
  5
1DB66
100
AcDbEntity
  8
ALPHA
  6
CONTINUOUS
100
AcDbSpline
210
0.0
220
0.0
230
1.0
 70
     8
 71
     3
 72
    11
 73
     7
 74
     0
 42
0.0000001
 43
0.0000001
 40
10.0
 40
10.0
 40
10.0
 40
10.0
 40
11.0
 40
11.0
 40
11.0
 40
12.0
 40
12.0
 40
12.0
 40
12.0
 10
86.68571215389453
 20
187.3009598003713
 30
0.0
 10
86.81329604489212
 20
186.8251782068582
 30
0.0
 10
87.15883574967813
 20
186.4176185550604
 30
0.0
 10
87.64613533335056
 20
186.4176185550604
 30
0.0
 10
88.13343491702301
 20
186.4176185550604
 30
0.0
 10
88.50732659758557
 20
186.8251782068582
 30
0.0
 10
88.66503446284685
 20
187.3009598003713
 30
0.0
1001
ACAD
1000
RTLwPs
1070
   128
  0
LINE
  5
1DB67
100
AcDbEntity
  8
ALPHA
  6
CONTINUOUS
100
AcDbLine
 10
88.665034
 20
187.30096
 30
0.0
 11
88.977139
 21
188.203897
 31
0.0
1001
ACAD
1000
RTLwPs
1070
   128
  0
LINE
  5
1DB68
100
AcDbEntity
  8
ALPHA
  6
CONTINUOUS
100
AcDbLine
 10
86.685712
 20
187.30096
 30
0.0
 11
86.314074
 21
188.203897
 31
0.0
1001
ACAD
1000
RTLwPs
1070
   128
  0
LINE
  5
1DB69
100
AcDbEntity
  8
ALPHA
  6
CONTINUOUS
100
AcDbLine
 10
103.633795
 20
175.203897
 30
0.0
 11
92.633795
 21
175.203897
 31
0.0
1001
ACAD
1000
RTLwPs
1070
   128
  0
LINE
  5
1DB6A
100
AcDbEntity
  8
ALPHA
  6
CONTINUOUS
100
AcDbLine
 10
100.986429
 20
187.203897
 30
0.0
 11
92.633795
 21
187.203897
 31
0.0
1001
ACAD
1000
RTLwPs
1070
   128
  0
SPLINE
  5
1DB6B
100
AcDbEntity
  8
ALPHA
  6
CONTINUOUS
100
AcDbSpline
210
0.0
220
0.0
230
-1.0
 70
     8
 71
     3
 72
     8
 73
     4
 74
     0
 42
0.0000001
 43
0.0000001
 40
3.0
 40
3.0
 40
3.0
 40
3.0
 40
4.0
 40
4.0
 40
4.0
 40
4.0
 10
103.6337947747962
 20
175.2038970688538
 30
0.0
 10
102.6999515726316
 20
178.6300561416901
 30
0.0
 10
101.2610888019338
 20
182.8500705362926
 30
0.0
 10
100.9864290365911
 20
187.203897068854
 30
0.0
1001
ACAD
1000
RTLwPs
1070
   128
  0
SPLINE
  5
1DB6C
100
AcDbEntity
  8
ALPHA
  6
CONTINUOUS
100
AcDbSpline
210
0.0
220
0.0
230
1.0
 70
     8
 71
     3
 72
    11
 73
     7
 74
     0
 42
0.0000001
 43
0.0000001
 40
0.0
 40
0.0
 40
0.0
 40
0.0
 40
1.0
 40
1.0
 40
1.0
 40
2.0
 40
2.0
 40
2.0
 40
2.0
 10
96.57238080776336
 20
175.2038970688538
 30
0.0
 10
98.52335114093888
 20
175.2038970688538
 30
0.0
 10
100.1022017920369
 20
178.0452966412845
 30
0.0
 10
100.1022017920369
 20
179.9944949759731
 30
0.0
 10
100.1022017920369
 20
181.295141864756
 30
0.0
 10
100.539885418099
 20
186.3583343933412
 30
0.0
 10
100.9864290365911
 20
187.203897068854
 30
0.0
1001
ACAD
1000
RTLwPs
1070
   128
  0
LINE
  5
1DB6D
100
AcDbEntity
  8
ALPHA
  6
CONTINUOUS
100
AcDbLine
 10
90.287672
 20
178.721179
 30
0.0
 11
91.772607
 21
180.213202
 31
0.0
1001
ACAD
1000
RTLwPs
1070
   128
  0
LINE
  5
1DB6E
100
AcDbEntity
  8
ALPHA
  6
CONTINUOUS
100
AcDbLine
 10
91.772607
 20
180.213202
 30
0.0
 11
90.875975
 21
181.107175
 31
0.0
1001
ACAD
1000
RTLwPs
1070
   128
  0
LINE
  5
1DB6F
100
AcDbEntity
  8
ALPHA
  6
CONTINUOUS
100
AcDbLine
 10
90.875975
 20
181.107175
 30
0.0
 11
91.733619
 21
181.963934
 31
0.0
1001
ACAD
1000
RTLwPs
1070
   128
  0
LINE
  5
1DB70
100
AcDbEntity
  8
ALPHA
  6
CONTINUOUS
100
AcDbLine
 10
91.733619
 20
181.963934
 30
0.0
 11
92.628481
 21
181.069961
 31
0.0
1001
ACAD
1000
RTLwPs
1070
   128
  0
LINE
  5
1DB71
100
AcDbEntity
  8
ALPHA
  6
CONTINUOUS
100
AcDbLine
 10
92.628481
 20
181.069961
 30
0.0
 11
94.113416
 21
182.552237
 31
0.0
1001
ACAD
1000
RTLwPs
1070
   128
  0
LINE
  5
1DB72
100
AcDbEntity
  8
ALPHA
  6
CONTINUOUS
100
AcDbLine
 10
91.14886
 20
177.859986
 30
0.0
 11
92.642657
 21
179.342262
 31
0.0
1001
ACAD
1000
RTLwPs
1070
   128
  0
LINE
  5
1DB73
100
AcDbEntity
  8
ALPHA
  6
CONTINUOUS
100
AcDbLine
 10
92.642657
 20
179.342262
 30
0.0
 11
93.537515
 21
178.447404
 31
0.0
1001
ACAD
1000
RTLwPs
1070
   128
  0
LINE
  5
1DB74
100
AcDbEntity
  8
ALPHA
  6
CONTINUOUS
100
AcDbLine
 10
93.537515
 20
178.447404
 30
0.0
 11
94.395164
 21
179.305938
 31
0.0
1001
ACAD
1000
RTLwPs
1070
   128
  0
LINE
  5
1DB75
100
AcDbEntity
  8
ALPHA
  6
CONTINUOUS
100
AcDbLine
 10
94.395164
 20
179.305938
 30
0.0
 11
93.500301
 21
180.198136
 31
0.0
1001
ACAD
1000
RTLwPs
1070
   128
  0
LINE
  5
1DB76
100
AcDbEntity
  8
ALPHA
  6
CONTINUOUS
100
AcDbLine
 10
93.500301
 20
180.198136
 30
0.0
 11
94.983467
 21
181.681302
 31
0.0
1001
ACAD
1000
RTLwPs
1070
   128
  0
LINE
  5
1DB77
100
AcDbEntity
  8
AXE
100
AcDbLine
 10
99.163173
 20
180.203897
 30
0.0
 11
86.104416
 21
180.203897
 31
0.0
  0
DIMENSION
  5
1DBA9
100
AcDbEntity
  8
COTATION1
100
AcDbDimension
  2
*D3
 10
17.633795
 20
218.203897
 30
0.0
 11
92.633795
 21
221.453897
 31
0.0
 70
    32
  3
SC_DEFAUT
100
AcDbAlignedDimension
 13
167.633795
 23
185.703897
 33
0.0
 14
17.633795
 24
185.703897
 34
0.0
100
AcDbRotatedDimension
  0
DIMENSION
  5
1DBDA
100
AcDbEntity
  8
COTATION1
100
AcDbDimension
  2
*D4
 10
92.633795
 20
208.203897
 30
0.0
 11
130.133795
 21
211.453897
 31
0.0
 70
    32
  1
=
  3
SC_DEFAUT
100
AcDbAlignedDimension
 13
167.633795
 23
185.703897
 33
0.0
 14
92.633795
 24
198.203897
 34
0.0
100
AcDbRotatedDimension
  0
DIMENSION
  5
1DC62
100
AcDbEntity
  8
COTATION1
100
AcDbDimension
  2
*D5
 10
212.633795
 20
18.203897
 30
0.0
 11
212.633795
 21
103.203897
 31
0.0
 70
    32
  3
SC_DEFAUT
100
AcDbAlignedDimension
 13
165.133795
 23
188.203897
 33
0.0
 14
165.133795
 24
18.203897
 34
0.0
 50
90.0
100
AcDbRotatedDimension
  0
LINE
  5
1DC98
100
AcDbEntity
  8
ALPHA
  6
CONTINUOUS
100
AcDbLine
 10
86.314074
 20
18.203897
 30
0.0
 11
20.133795
 21
18.203897
 31
0.0
1001
ACAD
1000
RTLwPs
1070
   128
  0
LINE
  5
1DC99
100
AcDbEntity
  8
ALPHA
  6
CONTINUOUS
100
AcDbLine
 10
86.314074
 20
188.203897
 30
0.0
 11
20.133795
 21
188.203897
 31
0.0
1001
ACAD
1000
RTLwPs
1070
   128
  0
LINE
  5
1DE8D
100
AcDbEntity
  8
ALPHA
  6
CONTINUOUS
100
AcDbLine
 10
115.133795
 20
161.703897
 30
0.0
 11
70.133795
 21
161.703897
 31
0.0
1001
ACAD
1000
RTLwPs
1070
   128
  0
ENDSEC
  0
SECTION
  2
OBJECTS
  0
DICTIONARY
  5
19
102
{ACAD_XDICTIONARY
360
1ECC9
102
}
100
AcDbDictionary
  3
ACAD_COLOR
350
6DB
  3
ACAD_GROUP
350
1A
  3
ACAD_LAYOUT
350
1E
  3
ACAD_MATERIAL
350
6DA
  3
ACAD_MLINESTYLE
350
1B
  3
ACAD_PLOTSETTINGS
350
22
  3
ACAD_PLOTSTYLENAME
350
1F
  3
ACAD_TABLESTYLE
350
6DC
  3
ACAD_WIPEOUT_VARS
350
23
  3
ACDBHEADERROUNDTRIPXREC
350
1ECA5
  3
ACDBVARIABLEDICTIONARY
350
7DA
  3
ASE_INDEX_DICTIONARY
350
3571
  0
DICTIONARY
  5
1EC97
100
AcDbDictionary
  3
ACAD_XREC_ROUNDTRIP
360
1EC98
  0
DICTIONARY
  5
1EC99
100
AcDbDictionary
  3
ACAD_XREC_ROUNDTRIP
360
1EC9A
  0
DICTIONARY
  5
1EC9B
100
AcDbDictionary
  3
ACAD_XREC_ROUNDTRIP
360
1EC9C
  0
DICTIONARY
  5
26F0
100
AcDbDictionary
  3
ACAD_LAYERFILTERS
360
26F2
  3
ACAD_LAYERSTATES
360
3474
  3
ACLYDICTIONARY
360
26F1
  0
DICTIONARY
  5
1EC95
100
AcDbDictionary
  3
ACAD_XREC_ROUNDTRIP
360
1EC96
  0
DICTIONARY
  5
1ECA1
100
AcDbDictionary
  3
ACAD_XREC_ROUNDTRIP
360
1ECA2
  0
DICTIONARY
  5
1EC9D
100
AcDbDictionary
  3
ACAD_XREC_ROUNDTRIP
360
1EC9E
  0
DICTIONARY
  5
1EC9F
100
AcDbDictionary
  3
ACAD_XREC_ROUNDTRIP
360
1ECA0
  0
DICTIONARY
  5
1EC93
100
AcDbDictionary
  3
ACAD_XREC_ROUNDTRIP
360
1EC94
  0
DICTIONARY
  5
1ECD1
100
AcDbDictionary
  3
ACAD_XREC_ROUNDTRIP
360
1ECD2
  0
DICTIONARY
  5
7D7
100
AcDbDictionary
  3
ACAD_LAYOUTSELFREF
360
1ECC6
  3
ACAD_SORTENTS
360
7D8
  0
DICTIONARY
  5
1ECC7
100
AcDbDictionary
  3
ACAD_LAYOUTSELFREF
360
1ECC8
  0
DICTIONARY
  5
1ECC9
100
AcDbDictionary
  3
ACAD_XREC_ROUNDTRIP
360
1ECCA
  0
DICTIONARY
  5
6DB
102
{ACAD_REACTORS
330
19
102
}
100
AcDbDictionary
  0
DICTIONARY
  5
1A
102
{ACAD_REACTORS
330
19
102
}
100
AcDbDictionary
  0
DICTIONARY
  5
1E
102
{ACAD_XDICTIONARY
360
1ECCD
102
}
102
{ACAD_REACTORS
330
19
102
}
100
AcDbDictionary
  3
LAYOUT1
350
21
  3
MODEL
350
20
  0
DICTIONARY
  5
6DA
102
{ACAD_REACTORS
330
19
102
}
100
AcDbDictionary
  0
DICTIONARY
  5
1B
102
{ACAD_XDICTIONARY
360
1ECCB
102
}
102
{ACAD_REACTORS
330
19
102
}
100
AcDbDictionary
  3
STANDARD
350
1C
  0
DICTIONARY
  5
22
102
{ACAD_REACTORS
330
19
102
}
100
AcDbDictionary
  0
ACAD_ZOMBIE_OBJECT
  5
1F
102
{ACAD_REACTORS
330
19
102
}
100
AcDbZombieObject
 90
      499
 91
      517
 93
       86
310
405010041939BDC9B585B3
350
1D
340
1D
 94
        0
  0
DICTIONARY
  5
6DC
102
{ACAD_XDICTIONARY
360
1ECCF
102
}
102
{ACAD_REACTORS
330
19
102
}
100
AcDbDictionary
  3
STANDARD
350
6DD
  0
ACAD_ZOMBIE_OBJECT
  5
23
102
{ACAD_REACTORS
330
19
102
}
100
AcDbZombieObject
 90
      499
 91
      521
 93
       10
310
4044
 94
        0
  0
DICTIONARY
  5
1ECA5
102
{ACAD_REACTORS
330
19
102
}
100
AcDbDictionary
  3
CEPSNTYPE
350
1ECAF
  3
DIMSTYLEDATA
350
1ECB3
  3
FINGERPRINTGUID
350
1ECB0
  3
HYPERLINKBASE
350
1ECA8
  3
INSUNITS
350
1ECAE
  3
LAYOUTDICT
350
1ECAA
  3
LWETCUNION
350
1ECAD
  3
PLOTSETDICT
350
1ECAB
  3
PLOTSTYLNAMDICT
350
1ECAC
  3
PSVPSCALE
350
1ECB2
  3
PUCSBASE
350
1ECB6
  3
PUCSORGBACK
350
1ECBC
  3
PUCSORGBOTTOM
350
1ECB8
  3
PUCSORGFRONT
350
1ECBB
  3
PUCSORGLEFT
350
1ECB9
  3
PUCSORGRIGHT
350
1ECBA
  3
PUCSORGTOP
350
1ECB7
  3
PUCSORTHOREF
350
1ECB4
  3
PUCSORTHOVIEW
350
1ECB5
  3
STYLESHEET
350
1ECA9
  3
TSTACKALIGN
350
1ECA6
  3
TSTACKSIZE
350
1ECA7
  3
UCSBASE
350
1ECBF
  3
UCSORGBACK
350
1ECC5
  3
UCSORGBOTTOM
350
1ECC1
  3
UCSORGFRONT
350
1ECC4
  3
UCSORGLEFT
350
1ECC2
  3
UCSORGRIGHT
350
1ECC3
  3
UCSORGTOP
350
1ECC0
  3
UCSORTHOREF
350
1ECBD
  3
UCSORTHOVIEW
350
1ECBE
  3
VERSIONGUID
350
1ECB1
  0
DICTIONARY
  5
7DA
102
{ACAD_REACTORS
330
19
102
}
100
AcDbDictionary
  3
CTABLESTYLE
350
7DB
  3
DIMASSOC
350
1A71
  3
PROJECTNAME
350
1A72
  0
DICTIONARY
  5
3571
102
{ACAD_XDICTIONARY
360
1ECD3
102
}
102
{ACAD_REACTORS
330
19
102
}
100
AcDbDictionary
  3
ASEBLOCKHIERARCHYINDEXRECORD
350
3572
1001
DCO15
1040
1558939622.437
  0
XRECORD
  5
1EC98
102
{ACAD_REACTORS
330
1EC97
102
}
100
AcDbXrecord
102
EXTNAMES
  1
BYBLOCK
  2
ByBlock
  0
XRECORD
  5
1EC9A
102
{ACAD_REACTORS
330
1EC99
102
}
100
AcDbXrecord
102
EXTNAMES
  1
BYLAYER
  2
ByLayer
  0
XRECORD
  5
1EC9C
102
{ACAD_REACTORS
330
1EC9B
102
}
100
AcDbXrecord
102
EXTNAMES
  1
CONTINUOUS
  2
Continuous
  0
DICTIONARY
  5
26F2
102
{ACAD_REACTORS
330
26F0
102
}
100
AcDbDictionary
  0
DICTIONARY
  5
3474
102
{ACAD_REACTORS
330
26F0
102
}
100
AcDbDictionary
  0
DICTIONARY
  5
26F1
102
{ACAD_REACTORS
330
26F0
102
}
100
AcDbDictionary
1001
ACAD
1000
<All
  0
XRECORD
  5
1EC96
102
{ACAD_REACTORS
330
1EC95
102
}
100
AcDbXrecord
102
EXTNAMES
  1
DEFPOINTS
  2
Defpoints
102
PLOTBIT
280
     0
  0
XRECORD
  5
1ECA2
102
{ACAD_REACTORS
330
1ECA1
102
}
100
AcDbXrecord
102
EXTNAMES
  1
STANDARD
  2
Standard
  0
XRECORD
  5
1EC9E
102
{ACAD_REACTORS
330
1EC9D
102
}
100
AcDbXrecord
102
EXTNAMES
  1
ACAECLAYERSTANDARD
  2
AcAecLayerStandard
  0
XRECORD
  5
1ECA0
102
{ACAD_REACTORS
330
1EC9F
102
}
100
AcDbXrecord
102
EXTNAMES
  1
ACAD_EXEMPT_FROM_CAD_STAND
  2
ACAD_EXEMPT_FROM_CAD_STANDARDS
  0
XRECORD
  5
1EC94
102
{ACAD_REACTORS
330
1EC93
102
}
100
AcDbXrecord
102
EXTNAMES
  1
STANDARD
  2
Standard
  0
XRECORD
  5
1ECD2
102
{ACAD_REACTORS
330
1ECD1
102
}
100
AcDbXrecord
102
ACADR14ROUNDTRIP
1000
DSTYLE
1002
{
1070
   279
 70
     2
1070
   341
340
6FA
1070
   342
340
6FA
1002
}
  0
XRECORD
  5
1ECC6
102
{ACAD_REACTORS
330
7D7
102
}
100
AcDbXrecord
340
A
  0
SORTENTSTABLE
  5
7D8
102
{ACAD_REACTORS
330
7D7
102
}
100
AcDbSortentsTable
330
A
331
1DAAD
  5
1DABF
331
1DA83
  5
1DA8A
331
1DA5A
  5
1DA70
331
1DA32
  5
1DA31
331
1DB64
  5
1DB66
331
1DABA
  5
1DAC3
331
1DAAA
  5
1DABD
331
1DA57
  5
1DA5F
331
1DA99
  5
1DAA7
331
1DA2F
  5
1DA33
331
1DB61
  5
1DB63
331
1DAD0
  5
1DA2D
331
1DAA6
  5
1DAB9
331
1DA8D
  5
1DA98
331
1DA96
  5
1DAA3
331
1DB6E
  5
1DB70
331
1DA2C
  5
1DA40
331
1DB77
  5
1DBDA
331
1DAE5
  5
1DB5B
331
1DACD
  5
1DA25
331
1DA8A
  5
1DA93
331
1DAA3
  5
1DAB0
331
1DA20
  5
1DA23
331
1DA93
  5
1DAA1
331
1DB6B
  5
1DB6D
331
1DAC1
  5
1DAD0
331
1DB74
  5
1DB76
331
1DAB1
  5
1DAC1
331
1DACA
  5
1DAE6
331
1DA87
  5
1DA90
331
1DAA0
  5
1DAAC
331
1DA5E
  5
1DA71
331
1DA90
  5
1DA9B
331
1DB68
  5
1DB6A
331
1DABE
  5
1DACC
331
1DB71
  5
1DB73
331
1DA84
  5
1DA8C
331
1DB65
  5
1DB67
331
1DC98
  5
1DA8D
331
1DABB
  5
1DA5B
331
1DA9A
  5
1DAA8
331
1DAAB
  5
1DABE
331
1DA58
  5
1DA60
331
1DA81
  5
1DA89
331
1DA30
  5
1DA51
331
1DE8D
  5
1DE8D
331
1DA61
  5
1DA76
331
1DB62
  5
1DB64
331
1DA8E
  5
1DA99
331
1DAA7
  5
1DABA
331
1DAB8
  5
1DAC2
331
1DA97
  5
1DAA4
331
1DA55
  5
1DA5D
331
1DAA8
  5
1DABB
331
1DB6F
  5
1DB71
331
1DA2D
  5
1DA42
331
1DB5F
  5
1DB61
331
1DAE6
  5
1DB5D
331
1DACE
  5
1D9D7
331
1DAA4
  5
1DAB1
331
1DB6C
  5
1DB6E
331
1DB5C
  5
1DB5C
331
1DAC2
  5
1DAD2
331
1DB75
  5
1DB77
331
1DAA1
  5
1DAAD
331
1DA5F
  5
1DA72
331
1DA88
  5
1DA91
331
1DACB
  5
1DAE7
331
1DA70
  5
1DA88
331
1DA91
  5
1DA9E
331
1DB69
  5
1DB6B
331
1DB59
  5
1DB5F
331
1DABF
  5
1DACE
331
1DB72
  5
1DB74
331
1DA9E
  5
1DAAA
331
1DAAF
  5
1DAA6
331
1DA85
  5
1DA8E
331
1DA34
  5
1DA32
331
1DC99
  5
1DA35
331
1DB66
  5
1DB68
331
1DABC
  5
1DAC7
331
1DA9B
  5
1DAA9
331
1DA59
  5
1DA61
331
1DAAC
  5
1DA2F
331
1DA31
  5
1DA52
331
1DB63
  5
1DB65
331
1DAB9
  5
1DAC6
331
1DA8F
  5
1DA9A
331
1DAD2
  5
1DB5A
331
1DAA9
  5
1DABC
331
1DA98
  5
1DAA5
331
1DA25
  5
1DA36
331
1DA56
  5
1DA5E
331
1DC62
  5
1DC99
331
1DBDA
  5
1DC03
331
1DB60
  5
1DB62
331
1DBA9
  5
1DC02
331
1DAC6
  5
1DAE5
331
1DAE7
  5
1DB5E
331
1DAA5
  5
1DAB8
331
1DA8C
  5
1DA97
331
1DACF
  5
1D9D6
331
1DA22
  5
1DA34
331
1DA95
  5
1DAA2
331
1DB6D
  5
1DB6F
331
1DB76
  5
1DBA9
331
1DACC
  5
1DB59
331
1DAA2
  5
1DAAF
331
1DA89
  5
1DA92
331
1DA92
  5
1DAA0
331
1D8EF
  5
1D8EF
331
1DB6A
  5
1DB6C
331
1DB73
  5
1DB75
331
1DAC0
  5
1DACF
331
1DB5A
  5
1DB60
331
1DA86
  5
1DA8F
331
1DA9F
  5
1DAAB
331
1DAB0
  5
1DAC0
331
1DA35
  5
1DA43
331
1DB67
  5
1DB69
331
1DABD
  5
1DAC8
331
1DB70
  5
1DB72
  0
XRECORD
  5
1ECC8
102
{ACAD_REACTORS
330
1ECC7
102
}
100
AcDbXrecord
340
B
  0
XRECORD
  5
1ECCA
102
{ACAD_REACTORS
330
1ECC9
102
}
100
AcDbXrecord
102
EXTNAMES
  1
ACDBVARIABLEDICTIONARY
  2
AcDbVariableDictionary
  0
DICTIONARY
  5
1ECCD
100
AcDbDictionary
  3
ACAD_XREC_ROUNDTRIP
360
1ECCE
  0
ACAD_ZOMBIE_OBJECT
  5
21
102
{ACAD_XDICTIONARY
360
1EC8C
102
}
102
{ACAD_REACTORS
330
1E
102
}
100
AcDbZombieObject
 90
      499
 91
      515
 93
      812
310
AAAAAAAAAA5A69074C61796F757431406A800000000000000000000000000000000000000000000A1000000000000008902A6A6A10232D5E076BC5510408CB5781DAF154410232D5E076BC5510408CB5781DAF15C410232D5E076BC5710408CB5781DAF15C41
330
B
330
0
340
0
340
0
 94
        0
  0
ACAD_ZOMBIE_OBJECT
  5
20
102
{ACAD_XDICTIONARY
360
1EC8A
102
}
102
{ACAD_REACTORS
330
1E
102
}
100
AcDbZombieObject
 90
      499
 91
      515
 93
      420
310
A00012AAAAAAAA5A69054D6F64656CAA80000000000000000000000000000000000000000000000000000000000000002AAAAAAAA3
330
A
330
0
340
0
340
0
 94
        0
  0
DICTIONARY
  5
1ECCB
100
AcDbDictionary
  3
ACAD_XREC_ROUNDTRIP
360
1ECCC
  0
MLINESTYLE
  5
1C
102
{ACAD_REACTORS
330
1B
102
}
100
AcDbMlineStyle
  2
STANDARD
 70
     0
  3

 62
     0
 51
90.0
 52
90.0
 71
     2
 49
0.5
 62
   256
  6
BYLAYER
 49
-0.5
 62
   256
  6
BYLAYER
  0
ACAD_ZOMBIE_OBJECT
  5
1D
102
{ACAD_REACTORS
330
1F
102
}
100
AcDbZombieObject
 90
      499
 91
      518
 93
        0
 94
        0
  0
DICTIONARY
  5
1ECCF
100
AcDbDictionary
  3
ACAD_XREC_ROUNDTRIP
360
1ECD0
  0
ACAD_ZOMBIE_OBJECT
  5
6DD
102
{ACAD_REACTORS
330
6DC
102
}
100
AcDbZombieObject
 90
      499
 91
      525
 93
     1841
310
4214DD185B99185C9928000000000000F83F0000000000003E0FC00000000000004901028000000C1008070000C3001FDFF8000000C1003FBFF000000182007F7FE00000030400FEFFC00000060801FDFF8000000C1003FBFF000000182000000000000000C2020B0000001820100E000186003FBFF000000182007F7FE000
310
00030400FEFFC00000060801FDFF8000000C1003FBFF000000182007F7FE0000003040000000000000012404160000003040201C00030C007F7FE00000030400FEFFC00000060801FDFF8000000C1003FBFF000000182007F7FE00000030400FEFFC000000608018
340
17
340
17
340
17
 94
        0
1001
ACAD
1000
AcadProxyRoundTripData
1071
      524
1071
   393239
1070
     0
  0
XRECORD
  5
1ECAF
102
{ACAD_REACTORS
330
1ECA5
102
}
100
AcDbXrecord
 90
        0
  0
XRECORD
  5
1ECB3
102
{ACAD_REACTORS
330
1ECA5
102
}
100
AcDbXrecord
1000
DSTYLE
1002
{
1070
   278
 70
     0
1070
   371
 70
     0
1070
   372
 70
     0
1002
}
  0
XRECORD
  5
1ECB0
102
{ACAD_REACTORS
330
1ECA5
102
}
100
AcDbXrecord
  1

  0
XRECORD
  5
1ECA8
102
{ACAD_REACTORS
330
1ECA5
102
}
100
AcDbXrecord
  1

  0
XRECORD
  5
1ECAE
102
{ACAD_REACTORS
330
1ECA5
102
}
100
AcDbXrecord
 90
        0
  0
XRECORD
  5
1ECAA
102
{ACAD_REACTORS
330
1ECA5
102
}
100
AcDbXrecord
340
1E
  0
XRECORD
  5
1ECAD
102
{ACAD_REACTORS
330
1ECA5
102
}
100
AcDbXrecord
 90
    10752
  0
XRECORD
  5
1ECAB
102
{ACAD_REACTORS
330
1ECA5
102
}
100
AcDbXrecord
340
22
  0
XRECORD
  5
1ECAC
102
{ACAD_REACTORS
330
1ECA5
102
}
100
AcDbXrecord
340
1F
  0
XRECORD
  5
1ECB2
102
{ACAD_REACTORS
330
1ECA5
102
}
100
AcDbXrecord
 40
0.0
  0
XRECORD
  5
1ECB6
102
{ACAD_REACTORS
330
1ECA5
102
}
100
AcDbXrecord
340
0
  0
XRECORD
  5
1ECBC
102
{ACAD_REACTORS
330
1ECA5
102
}
100
AcDbXrecord
 10
0.0
 20
0.0
 30
0.0
  0
XRECORD
  5
1ECB8
102
{ACAD_REACTORS
330
1ECA5
102
}
100
AcDbXrecord
 10
0.0
 20
0.0
 30
0.0
  0
XRECORD
  5
1ECBB
102
{ACAD_REACTORS
330
1ECA5
102
}
100
AcDbXrecord
 10
0.0
 20
0.0
 30
0.0
  0
XRECORD
  5
1ECB9
102
{ACAD_REACTORS
330
1ECA5
102
}
100
AcDbXrecord
 10
0.0
 20
0.0
 30
0.0
  0
XRECORD
  5
1ECBA
102
{ACAD_REACTORS
330
1ECA5
102
}
100
AcDbXrecord
 10
0.0
 20
0.0
 30
0.0
  0
XRECORD
  5
1ECB7
102
{ACAD_REACTORS
330
1ECA5
102
}
100
AcDbXrecord
 10
0.0
 20
0.0
 30
0.0
  0
XRECORD
  5
1ECB4
102
{ACAD_REACTORS
330
1ECA5
102
}
100
AcDbXrecord
340
0
  0
XRECORD
  5
1ECB5
102
{ACAD_REACTORS
330
1ECA5
102
}
100
AcDbXrecord
 70
     0
  0
XRECORD
  5
1ECA9
102
{ACAD_REACTORS
330
1ECA5
102
}
100
AcDbXrecord
  1

  0
XRECORD
  5
1ECA6
102
{ACAD_REACTORS
330
1ECA5
102
}
100
AcDbXrecord
 90
        1
  0
XRECORD
  5
1ECA7
102
{ACAD_REACTORS
330
1ECA5
102
}
100
AcDbXrecord
 90
       70
  0
XRECORD
  5
1ECBF
102
{ACAD_REACTORS
330
1ECA5
102
}
100
AcDbXrecord
340
0
  0
XRECORD
  5
1ECC5
102
{ACAD_REACTORS
330
1ECA5
102
}
100
AcDbXrecord
 10
0.0
 20
0.0
 30
0.0
  0
XRECORD
  5
1ECC1
102
{ACAD_REACTORS
330
1ECA5
102
}
100
AcDbXrecord
 10
0.0
 20
0.0
 30
0.0
  0
XRECORD
  5
1ECC4
102
{ACAD_REACTORS
330
1ECA5
102
}
100
AcDbXrecord
 10
0.0
 20
0.0
 30
0.0
  0
XRECORD
  5
1ECC2
102
{ACAD_REACTORS
330
1ECA5
102
}
100
AcDbXrecord
 10
0.0
 20
0.0
 30
0.0
  0
XRECORD
  5
1ECC3
102
{ACAD_REACTORS
330
1ECA5
102
}
100
AcDbXrecord
 10
0.0
 20
0.0
 30
0.0
  0
XRECORD
  5
1ECC0
102
{ACAD_REACTORS
330
1ECA5
102
}
100
AcDbXrecord
 10
0.0
 20
0.0
 30
0.0
  0
XRECORD
  5
1ECBD
102
{ACAD_REACTORS
330
1ECA5
102
}
100
AcDbXrecord
340
0
  0
XRECORD
  5
1ECBE
102
{ACAD_REACTORS
330
1ECA5
102
}
100
AcDbXrecord
 70
     0
  0
XRECORD
  5
1ECB1
102
{ACAD_REACTORS
330
1ECA5
102
}
100
AcDbXrecord
  1
{F78F5882-77C2-4652-85FE-C83D03F9CDFB}
  0
DICTIONARYVAR
  5
7DB
102
{ACAD_REACTORS
330
7DA
102
}
100
DictionaryVariables
280
     0
  1
STANDARD
  0
DICTIONARYVAR
  5
1A71
102
{ACAD_REACTORS
330
7DA
102
}
100
DictionaryVariables
280
     0
  1
1
  0
DICTIONARYVAR
  5
1A72
102
{ACAD_REACTORS
330
7DA
102
}
100
DictionaryVariables
280
     0
  1

  0
DICTIONARY
  5
1ECD3
100
AcDbDictionary
  3
ACAD_XREC_ROUNDTRIP
360
1ECD4
  0
XRECORD
  5
3572
102
{ACAD_REACTORS
330
3571
102
}
100
AcDbXrecord
330
0
330
0
330
0
330
0
330
0
330
0
330
0
330
0
330
0
330
0
330
0
330
0
330
0
330
0
330
0
330
0
330
0
330
0
330
0
330
0
330
0
330
0
330
0
330
0
330
0
330
0
330
0
330
0
330
0
330
0
330
0
  0
XRECORD
  5
1ECCE
102
{ACAD_REACTORS
330
1ECCD
102
}
100
AcDbXrecord
102
EXTNAMES
  1
LAYOUT1
  2
Layout1
  1
MODEL
  2
Model
  0
DICTIONARY
  5
1EC8C
100
AcDbDictionary
  3
ACAD_XREC_ROUNDTRIP
360
1EC8D
  0
DICTIONARY
  5
1EC8A
100
AcDbDictionary
  3
ACAD_XREC_ROUNDTRIP
360
1EC8B
  0
XRECORD
  5
1ECCC
102
{ACAD_REACTORS
330
1ECCB
102
}
100
AcDbXrecord
102
EXTNAMES
  1
STANDARD
  2
Standard
  0
XRECORD
  5
1ECD0
102
{ACAD_REACTORS
330
1ECCF
102
}
100
AcDbXrecord
102
EXTNAMES
  1
STANDARD
  2
Standard
  0
XRECORD
  5
1ECD4
102
{ACAD_REACTORS
330
1ECD3
102
}
100
AcDbXrecord
102
EXTNAMES
  1
ASEBLOCKHIERARCHYINDEXRECORD
  2
ASEBlockHierarchyIndexRecord
  0
XRECORD
  5
1EC8D
102
{ACAD_REACTORS
330
1EC8C
102
}
100
AcDbXrecord
102
SHADEPLOT
 70
     0
102
SHADEPLOTRESLEVEL
 70
     2
102
SHADEPLOTCUSTOMDPI
 70
   300
  0
XRECORD
  5
1EC8B
102
{ACAD_REACTORS
330
1EC8A
102
}
100
AcDbXrecord
102
SHADEPLOT
 70
     0
102
SHADEPLOTRESLEVEL
 70
     2
102
SHADEPLOTCUSTOMDPI
 70
   300
  0
ENDSEC
  0
EOF
